  0
SECTION
  2
HEADER
  9
$ACADVER
  1
AC1009
  9
$INSBASE
 10
0
 20
0
  9
$EXTMIN
 10
241.635499755539
 20
404.5046336654493
  9
$EXTMAX
 10
554.961551666878
 20
814.971337652023
  9
$LIMMIN
 10
241.635499755539
 20
404.5046336654493
  9
$LIMMAX
 10
554.961551666878
 20
814.971337652023
  9
$VIEWCTR
 10
10
 20
10
  9
$VIEWSIZE
 40
10
  9
$SNAPMODE
 70
0
  9
$SNAPUNIT
 10
1
 20
1
  9
$SNAPBASE
 10
0
 20
0
  9
$SNAPANG
 50
0
  9
$SNAPSTYLE
 70
0
  9
$SNAPISOPAIR
 70
0
  9
$GRIDMODE
 70
0
  9
$GRIDUNIT
 10
0
 20
0
  9
$ORTHOMODE
 70
0
  9
$REGENMODE
 70
1
  9
$FILLMODE
 70
1
  9
$QTEXTMODE
 70
0
  9
$DRAGMODE
 70
2
  9
$LTSCALE
 40
1
  9
$OSMODE
 70
0
  9
$ATTMODE
 70
1
  9
$TEXTSIZE
 40
3.5
  9
$TRACEWID
 40
0.5
  9
$TEXTSTYLE
  7
STANDARD
  9
$CLAYER
  8
0
  9
$CELTYPE
  6
BYLAYER
  9
$CECOLOR
 62
256
  9
$DIMSCALE
 40
1
  9
$DIMASZ
 40
0.18
  9
$DIMEXO
 40
0.0625
  9
$DIMDLI
 40
0.38
  9
$DIMRND
 40
0
  9
$DIMDLE
 40
0
  9
$DIMEXE
 40
0.18
  9
$DIMTP
 40
0
  9
$DIMTM
 40
0
  9
$DIMTXT
 40
0.18
  9
$DIMCEN
 40
0.09
  9
$DIMTSZ
 40
0
  9
$DIMTOL
 70
0
  9
$DIMLIM
 70
0
  9
$DIMTIH
 70
1
  9
$DIMTOH
 70
1
  9
$DIMSE1
 70
0
  9
$DIMSE2
 70
0
  9
$DIMTAD
 70
0
  9
$DIMZIN
 70
0
  9
$DIMBLK
  1

  9
$DIMASO
 70
1
  9
$DIMSHO
 70
1
  9
$DIMPOST
  1

  9
$DIMAPOST
  1

  9
$DIMALT
 70
0
  9
$DIMALTD
 70
2
  9
$DIMALTF
 40
25.4
  9
$DIMLFAC
 40
1
  9
$DIMTOFL
 70
0
  9
$DIMTVP
 40
0
  9
$DIMTIX
 70
0
  9
$DIMSOXD
 70
0
  9
$DIMSAH
 70
0
  9
$DIMBLK1
  1

  9
$DIMBLK2
  1

  9
$DIMSTYLE
  2
*UNNAMED
  9
$DIMCLRD
 70
0
  9
$DIMCLRE
 70
0
  9
$DIMCLRT
 70
0
  9
$DIMTFAC
 40
1
  9
$DIMGAP
 40
0.09
  9
$LUNITS
 70
2
  9
$LUPREC
 70
4
  9
$AXISMODE
 70
0
  9
$AXISUNIT
 10
0
 20
0
  9
$SKETCHINC
 40
0.1
  9
$FILLETRAD
 40
2
  9
$AUNITS
 70
0
  9
$AUPREC
 70
0
  9
$MENU
  1
ACAD
  9
$ELEVATION
 40
0
  9
$THICKNESS
 40
0
  9
$VIEWDIR
 10
0
 20
0
 30
1
  9
$LIMCHECK
 70
0
  9
$BLIPMODE
 70
1
  9
$CHAMFERA
 40
0
  9
$CHAMFERB
 40
0
  9
$FASTZOOM
 70
1
  9
$SKPOLY
 70
0
  9
$ANGBASE
 50
0
  9
$ANGDIR
 70
0
  9
$PDMODE
 70
0
  9
$PDSIZE
 40
0
  9
$PLINEWID
 40
0
  9
$COORDS
 70
2
  0
ENDSEC
  0
SECTION
  2
TABLES
  0
TABLE
  2
DIMSTYLE
 70
2
  0
DIMSTYLE
  2
DMST_1
 70
0
  3

  4

  5

  6

  7

 40
1
 41
3.2
 42
0.5
 43
7
 44
1.5
 45
0
 46
0
 47
0
 48
0
140
3.2
141
0
142
0
143
25.4
144
1
145
0
146
1
147
0.09
 71
0
 72
0
 73
0
 74
0
 75
0
 76
0
 77
1
 78
9
170
0
171
2
172
0
173
0
174
0
175
0
176
2
177
2
178
2
  0
DIMSTYLE
  2
DMST_2
 70
0
  3

  4

  5

  6

  7

 40
1
 41
3
 42
0.5
 43
7
 44
1
 45
0
 46
0
 47
0
 48
0
140
3
141
0
142
0
143
25.4
144
1
145
0
146
1
147
0.09
 71
0
 72
0
 73
0
 74
0
 75
0
 76
0
 77
1
 78
9
170
0
171
2
172
0
173
0
174
0
175
0
176
2
177
2
178
2
  0
ENDTAB
  0
TABLE
  2
LTYPE
 70
9
  0
LTYPE
  2
CONTINUOUS
 70
64
  3
Solid line
 72
65
 73
0
 40
0
  0
LTYPE
  2
BORDER
 70
64
  3
__ __ . __ __ .
 72
65
 73
6
 40
18.90307189411852
 49
5.400877684033864
 49
-2.700438842016932
 49
5.400877684033864
 49
-2.700438842016932
 49
0
 49
-2.700438842016932
  0
LTYPE
  2
CENTER
 70
64
  3
____ _ ____ _
 72
65
 73
4
 40
21.60351073613546
 49
13.50219421008466
 49
-2.700438842016932
 49
2.700438842016932
 49
-2.700438842016932
  0
LTYPE
  2
DASHDOT
 70
64
  3
__ . __ . __ .
 72
65
 73
4
 40
10.80175536806773
 49
5.400877684033864
 49
-2.700438842016932
 49
0
 49
-2.700438842016932
  0
LTYPE
  2
DASHED
 70
64
  3
__ __ __ __ __
 72
65
 73
2
 40
8.101316526050795
 49
5.400877684033864
 49
-2.700438842016932
  0
LTYPE
  2
DIVIDE
 70
64
  3
__ . . __ . . 
 72
65
 73
6
 40
13.50219421008466
 49
5.400877684033864
 49
-2.700438842016932
 49
0
 49
-2.700438842016932
 49
0
 49
-2.700438842016932
  0
LTYPE
  2
DOT
 70
64
  3
..............
 72
65
 73
4
 40
5.400877684033864
 49
0
 49
-2.700438842016932
 49
0
 49
-2.700438842016932
  0
LTYPE
  2
HIDDEN
 70
64
  3
_ _ _ _ _ _ _
 72
65
 73
2
 40
4.050658263025397
 49
2.700438842016932
 49
-1.350219421008466
  0
LTYPE
  2
PHANTOM
 70
64
  3
_____ _ _ _____ _ _ 
 72
65
 73
6
 40
27.00438842016932
 49
13.50219421008466
 49
-2.700438842016932
 49
2.700438842016932
 49
-2.700438842016932
 49
2.700438842016932
 49
-2.700438842016932
  0
ENDTAB
  0
TABLE
  2
LAYER
 70
3
  0
LAYER
  2
1
 70
0
 62
7
  6
CONTINUOUS
  0
LAYER
  2
0
 70
0
 62
7
  6
CONTINUOUS
  0
ENDTAB
  0
TABLE
  2
STYLE
 70
4
  0
STYLE
  2
STANDARD
 70
0
 40
0
 41
1
 50
0
 71
0
 42
3.5
  3
txt
  4

  0
STYLE
  2
SIMPLEX
 70
0
 40
0
 41
1
 50
0
 71
0
 42
3.5
  3
simplex
  4

  0
STYLE
  2
COMPLEX
 70
0
 40
0
 41
1
 50
0
 71
0
 42
3.5
  3
complex
  4

  0
STYLE
  2
ITALIC
 70
0
 40
0
 41
1
 50
0
 71
0
 42
3.5
  3
italic
  4

  0
ENDTAB
  0
TABLE
  2
VIEW
 70
0
  0
ENDTAB
  0
ENDSEC
  0
SECTION
  2
BLOCKS
  0
BLOCK
  8
1
  2
*D0
 70
1
 10
0
 20
0
 30
0
  0
LINE
  8
1
 62
2
 10
267.1142027330375
 20
494.749066599719
 30
0
 11
287.1142027330375
 21
494.749066599719
 31
0
  0
LINE
  8
1
 62
2
 10
287.1142027330375
 20
500.4268499588736
 30
0
 11
287.1142027330375
 21
493.249066599719
 31
0
  0
LINE
  8
1
 62
2
 10
267.1142027330375
 20
501.4268499588736
 30
0
 11
267.1142027330375
 21
493.249066599719
 31
0
  0
LINE
  8
1
 62
2
 10
267.1142027330375
 20
494.749066599719
 30
0
 11
270.3142027330375
 21
495.6130665997189
 31
0
  0
LINE
  8
1
 62
2
 10
267.1142027330375
 20
494.749066599719
 30
0
 11
270.3142027330375
 21
493.885066599719
 31
0
  0
LINE
  8
1
 62
2
 10
287.1142027330375
 20
494.749066599719
 30
0
 11
283.9142027330375
 21
493.885066599719
 31
0
  0
LINE
  8
1
 62
2
 10
287.1142027330375
 20
494.749066599719
 30
0
 11
283.9142027330375
 21
495.6130665997189
 31
0
  0
TEXT
  8
1
 62
2
 10
274.2854840251477
 20
495.749066599719
 30
0
 40
3.2
  1
20
 41
0.9
 51
15
  0
ENDBLK
  8
0
  0
BLOCK
  8
1
  2
*D1
 70
1
 10
0
 20
0
 30
0
  0
LINE
  8
1
 62
2
 10
267.1142027330375
 20
457.268216669036
 30
0
 11
512.1142027330375
 21
457.268216669036
 31
0
  0
LINE
  8
1
 62
2
 10
512.1142027330375
 20
501.4268499588736
 30
0
 11
512.1142027330375
 21
456.268216669036
 31
0
  0
LINE
  8
1
 62
2
 10
267.1142027330375
 20
501.4268499588736
 30
0
 11
267.1142027330375
 21
456.268216669036
 31
0
  0
LINE
  8
1
 62
2
 10
267.1142027330375
 20
457.268216669036
 30
0
 11
270.1142027330375
 21
458.078216669036
 31
0
  0
LINE
  8
1
 62
2
 10
267.1142027330375
 20
457.268216669036
 30
0
 11
270.1142027330375
 21
456.458216669036
 31
0
  0
LINE
  8
1
 62
2
 10
512.1142027330375
 20
457.268216669036
 30
0
 11
509.1142027330375
 21
456.458216669036
 31
0
  0
LINE
  8
1
 62
2
 10
512.1142027330375
 20
457.268216669036
 30
0
 11
509.1142027330375
 21
458.078216669036
 31
0
  0
TEXT
  8
1
 62
2
 10
399.4802953282913
 20
458.068216669036
 30
0
 40
3
  1
245
 41
0.9
 51
15
  0
ENDBLK
  8
0
  0
BLOCK
  8
1
  2
*D2
 70
1
 10
0
 20
0
 30
0
  0
LINE
  8
1
 62
2
 10
553.961551666878
 20
483.9268499588736
 30
0
 11
553.961551666878
 21
625.4268499588728
 31
0
  0
LINE
  8
1
 62
2
 10
347.6142027330375
 20
625.4268499588728
 30
0
 11
554.961551666878
 21
625.4268499588728
 31
0
  0
LINE
  8
1
 62
2
 10
437.6142027330375
 20
483.9268499588736
 30
0
 11
554.961551666878
 21
483.9268499588736
 31
0
  0
LINE
  8
1
 62
2
 10
553.961551666878
 20
625.4268499588728
 30
0
 11
554.7715516668779
 21
622.4268499588728
 31
0
  0
LINE
  8
1
 62
2
 10
553.961551666878
 20
625.4268499588728
 30
0
 11
553.1515516668781
 21
622.4268499588728
 31
0
  0
LINE
  8
1
 62
2
 10
553.961551666878
 20
483.9268499588736
 30
0
 11
553.1515516668781
 21
486.9268499588736
 31
0
  0
LINE
  8
1
 62
2
 10
553.961551666878
 20
483.9268499588736
 30
0
 11
554.7715516668779
 21
486.9268499588736
 31
0
  0
TEXT
  8
1
 62
2
 10
553.161551666878
 20
551.1249261702266
 30
0
 40
3
  1
142
 50
90
 41
0.9
 51
15
  0
ENDBLK
  8
0
  0
BLOCK
  8
1
  2
*D3
 70
1
 10
0
 20
0
 30
0
  0
LINE
  8
1
 62
2
 10
534.84335346868
 20
483.9268499588736
 30
0
 11
534.84335346868
 21
528.9268499588734
 31
0
  0
LINE
  8
1
 62
2
 10
521.3128109766012
 20
528.9268499588734
 30
0
 11
535.84335346868
 21
528.9268499588734
 31
0
  0
LINE
  8
1
 62
2
 10
437.6142027330375
 20
483.9268499588736
 30
0
 11
535.84335346868
 21
483.9268499588736
 31
0
  0
LINE
  8
1
 62
2
 10
534.84335346868
 20
528.9268499588734
 30
0
 11
535.6533534686799
 21
525.9268499588734
 31
0
  0
LINE
  8
1
 62
2
 10
534.84335346868
 20
528.9268499588734
 30
0
 11
534.0333534686801
 21
525.9268499588734
 31
0
  0
LINE
  8
1
 62
2
 10
534.84335346868
 20
483.9268499588736
 30
0
 11
534.0333534686801
 21
486.9268499588736
 31
0
  0
LINE
  8
1
 62
2
 10
534.84335346868
 20
483.9268499588736
 30
0
 11
535.6533534686799
 21
486.9268499588736
 31
0
  0
TEXT
  8
1
 62
2
 10
534.04335346868
 20
503.7749261702268
 30
0
 40
3
  1
45
 50
90
 41
0.9
 51
15
  0
ENDBLK
  8
0
  0
BLOCK
  8
1
  2
*D4
 70
1
 10
0
 20
0
 30
0
  0
LINE
  8
1
 62
2
 10
553.961551666878
 20
680.2907311283969
 30
0
 11
553.961551666878
 21
808.2907311283974
 31
0
  0
LINE
  8
1
 62
2
 10
406.6142027330375
 20
808.2907311283974
 30
0
 11
554.961551666878
 21
808.2907311283974
 31
0
  0
LINE
  8
1
 62
2
 10
406.6142027330375
 20
680.2907311283969
 30
0
 11
554.961551666878
 21
680.2907311283969
 31
0
  0
LINE
  8
1
 62
2
 10
553.961551666878
 20
808.2907311283974
 30
0
 11
554.7715516668779
 21
805.2907311283974
 31
0
  0
LINE
  8
1
 62
2
 10
553.961551666878
 20
808.2907311283974
 30
0
 11
553.1515516668781
 21
805.2907311283974
 31
0
  0
LINE
  8
1
 62
2
 10
553.961551666878
 20
680.2907311283969
 30
0
 11
553.1515516668781
 21
683.2907311283969
 31
0
  0
LINE
  8
1
 62
2
 10
553.961551666878
 20
680.2907311283969
 30
0
 11
554.7715516668779
 21
683.2907311283969
 31
0
  0
TEXT
  8
1
 62
2
 10
553.161551666878
 20
740.7388073397505
 30
0
 40
3
  1
128
 50
90
 41
0.9
 51
15
  0
ENDBLK
  8
0
  0
ENDSEC
  0
SECTION
  2
ENTITIES
  0
LINE
  8
1
 62
2
 10
465.5892027330375
 20
432.3171336654493
 30
0
 11
466.0892027330375
 21
431.4733836654493
 31
0
  0
LINE
  8
1
 62
2
 10
464.8392027330375
 20
433.1608836654493
 30
0
 11
465.5892027330375
 21
432.3171336654493
 31
0
  0
LINE
  8
1
 62
2
 10
463.8392027330375
 20
434.0046336654493
 30
0
 11
464.8392027330375
 21
433.1608836654493
 31
0
  0
LINE
  8
1
 62
2
 10
463.3392027330375
 20
435.1296336654493
 30
0
 11
462.5892027330375
 21
436.5358836654493
 31
0
  0
LINE
  8
1
 62
2
 10
464.5892027330375
 20
435.4108836654493
 30
0
 11
464.0892027330375
 21
436.8171336654493
 31
0
  0
LINE
  8
1
 62
2
 10
466.0892027330375
 20
434.8483836654493
 30
0
 11
466.8392027330375
 21
436.5358836654493
 31
0
  0
LINE
  8
1
 62
2
 10
464.5892027330375
 20
432.5983836654493
 30
0
 11
466.0892027330375
 21
434.8483836654493
 31
0
  0
LINE
  8
1
 62
2
 10
463.8392027330375
 20
431.7546336654493
 30
0
 11
464.5892027330375
 21
432.5983836654493
 31
0
  0
LINE
  8
1
 62
2
 10
462.5892027330375
 20
430.9108836654493
 30
0
 11
463.8392027330375
 21
431.7546336654493
 31
0
  0
LINE
  8
1
 62
2
 10
461.3392027330375
 20
437.9421336654493
 30
0
 11
461.3392027330375
 21
429.7858836654493
 31
0
  0
LINE
  8
1
 62
2
 10
467.8392027330375
 20
437.9421336654493
 30
0
 11
461.3392027330375
 21
437.9421336654493
 31
0
  0
LINE
  8
1
 62
2
 10
467.8392027330375
 20
429.7858836654493
 30
0
 11
467.8392027330375
 21
437.9421336654493
 31
0
  0
LINE
  8
1
 62
2
 10
461.3392027330375
 20
429.7858836654493
 30
0
 11
467.8392027330375
 21
429.7858836654493
 31
0
  0
LINE
  8
1
 62
2
 10
456.3392027330375
 20
433.7233836654493
 30
0
 11
459.3392027330375
 21
433.7233836654493
 31
0
  0
LINE
  8
1
 62
2
 10
457.5892027330375
 20
432.0358836654493
 30
0
 11
459.0892027330375
 21
429.5046336654493
 31
0
  0
LINE
  8
1
 62
2
 10
454.0892027330375
 20
429.7858836654493
 30
0
 11
458.3392027330375
 21
430.6296336654493
 31
0
  0
LINE
  8
1
 62
2
 10
456.3392027330375
 20
433.7233836654493
 30
0
 11
455.0892027330375
 21
430.0671336654493
 31
0
  0
LINE
  8
1
 62
2
 10
453.5892027330375
 20
433.7233836654493
 30
0
 11
456.3392027330375
 21
433.7233836654493
 31
0
  0
LINE
  8
1
 62
2
 10
456.5892027330375
 20
438.2233836654493
 30
0
 11
456.5892027330375
 21
433.7233836654493
 31
0
  0
LINE
  8
1
 62
2
 10
454.3392027330375
 20
435.9733836654493
 30
0
 11
459.0892027330375
 21
435.9733836654493
 31
0
  0
LINE
  8
1
 62
2
 10
452.3392027330375
 20
437.9421336654493
 30
0
 11
453.0892027330375
 21
436.8171336654493
 31
0
  0
LINE
  8
1
 62
2
 10
452.3392027330375
 20
434.5671336654493
 30
0
 11
451.5892027330375
 21
435.4108836654493
 31
0
  0
LINE
  8
1
 62
2
 10
451.8392027330375
 20
429.5046336654493
 30
0
 11
453.0892027330375
 21
433.1608836654493
 31
0
  0
LINE
  8
1
 62
2
 10
446.0892027330375
 20
432.8796336654493
 30
0
 11
445.0892027330375
 21
434.2858836654493
 31
0
  0
LINE
  8
1
 62
2
 10
448.0892027330375
 20
429.7858836654493
 30
0
 11
446.8392027330375
 21
429.7858836654493
 31
0
  0
LINE
  8
1
 62
2
 10
448.0892027330375
 20
437.9421336654493
 30
0
 11
448.0892027330375
 21
429.7858836654493
 31
0
  0
LINE
  8
1
 62
2
 10
443.3392027330375
 20
435.6921336654493
 30
0
 11
450.0892027330375
 21
435.6921336654493
 31
0
  0
LINE
  8
1
 62
2
 10
434.5892027330375
 20
431.4733836654493
 30
0
 11
434.5892027330375
 21
434.2858836654493
 31
0
  0
LINE
  8
1
 62
2
 10
436.0892027330375
 20
430.0671336654493
 30
0
 11
434.5892027330375
 21
430.0671336654493
 31
0
  0
LINE
  8
1
 62
2
 10
436.0892027330375
 20
434.2858836654493
 30
0
 11
437.3392027330375
 21
434.2858836654493
 31
0
  0
LINE
  8
1
 62
2
 10
435.8392027330375
 20
437.0983836654493
 30
0
 11
434.8392027330375
 21
437.0983836654493
 31
0
  0
LINE
  8
1
 62
2
 10
438.0892027330375
 20
435.9733836654493
 30
0
 11
438.0892027330375
 21
434.2858836654493
 31
0
  0
LINE
  8
1
 62
2
 10
440.5892027330375
 20
434.2858836654493
 30
0
 11
440.5892027330375
 21
437.6608836654493
 31
0
  0
LINE
  8
1
 62
2
 10
438.0892027330375
 20
434.2858836654493
 30
0
 11
438.0892027330375
 21
432.5983836654493
 31
0
  0
LINE
  8
1
 62
2
 10
438.8392027330375
 20
432.5983836654493
 30
0
 11
439.5892027330375
 21
432.5983836654493
 31
0
  0
LINE
  8
1
 62
2
 10
439.5892027330375
 20
432.5983836654493
 30
0
 11
440.5892027330375
 21
432.5983836654493
 31
0
  0
LINE
  8
1
 62
2
 10
441.3392027330375
 20
429.5046336654493
 30
0
 11
441.5892027330375
 21
430.0671336654493
 31
0
  0
LINE
  8
1
 62
2
 10
440.3392027330375
 20
429.5046336654493
 30
0
 11
441.3392027330375
 21
429.5046336654493
 31
0
  0
LINE
  8
1
 62
2
 10
439.5892027330375
 20
430.0671336654493
 30
0
 11
440.3392027330375
 21
429.5046336654493
 31
0
  0
LINE
  8
1
 62
2
 10
439.5892027330375
 20
432.5983836654493
 30
0
 11
439.5892027330375
 21
430.0671336654493
 31
0
  0
LINE
  8
1
 62
2
 10
438.0892027330375
 20
430.3483836654493
 30
0
 11
437.3392027330375
 21
429.5046336654493
 31
0
  0
LINE
  8
1
 62
2
 10
438.5892027330375
 20
431.7546336654493
 30
0
 11
438.0892027330375
 21
430.3483836654493
 31
0
  0
LINE
  8
1
 62
2
 10
438.8392027330375
 20
432.5983836654493
 30
0
 11
438.5892027330375
 21
431.7546336654493
 31
0
  0
LINE
  8
1
 62
2
 10
440.5892027330375
 20
434.2858836654493
 30
0
 11
438.0892027330375
 21
434.2858836654493
 31
0
  0
LINE
  8
1
 62
2
 10
438.0892027330375
 20
435.9733836654493
 30
0
 11
440.5892027330375
 21
435.9733836654493
 31
0
  0
LINE
  8
1
 62
2
 10
440.5892027330375
 20
437.6608836654493
 30
0
 11
438.0892027330375
 21
437.6608836654493
 31
0
  0
LINE
  8
1
 62
2
 10
440.5892027330375
 20
432.5983836654493
 30
0
 11
440.5892027330375
 21
434.2858836654493
 31
0
  0
LINE
  8
1
 62
2
 10
438.0892027330375
 20
432.5983836654493
 30
0
 11
438.8392027330375
 21
432.5983836654493
 31
0
  0
LINE
  8
1
 62
2
 10
438.0892027330375
 20
437.6608836654493
 30
0
 11
438.0892027330375
 21
435.9733836654493
 31
0
  0
LINE
  8
1
 62
2
 10
434.5892027330375
 20
437.0983836654493
 30
0
 11
435.0892027330375
 21
438.2233836654493
 31
0
  0
LINE
  8
1
 62
2
 10
433.8392027330375
 20
436.2546336654493
 30
0
 11
434.5892027330375
 21
437.0983836654493
 31
0
  0
LINE
  8
1
 62
2
 10
437.3392027330375
 20
437.0983836654493
 30
0
 11
435.8392027330375
 21
437.0983836654493
 31
0
  0
LINE
  8
1
 62
2
 10
434.8392027330375
 20
434.5671336654493
 30
0
 11
435.8392027330375
 21
437.0983836654493
 31
0
  0
LINE
  8
1
 62
2
 10
433.5892027330375
 20
432.8796336654493
 30
0
 11
434.8392027330375
 21
434.5671336654493
 31
0
  0
LINE
  8
1
 62
2
 10
437.5892027330375
 20
435.6921336654493
 30
0
 11
433.8392027330375
 21
435.6921336654493
 31
0
  0
LINE
  8
1
 62
2
 10
436.0892027330375
 20
434.2858836654493
 30
0
 11
436.3392027330375
 21
434.8483836654493
 31
0
  0
LINE
  8
1
 62
2
 10
436.0892027330375
 20
430.0671336654493
 30
0
 11
436.0892027330375
 21
434.2858836654493
 31
0
  0
LINE
  8
1
 62
2
 10
437.3392027330375
 20
430.0671336654493
 30
0
 11
436.0892027330375
 21
430.0671336654493
 31
0
  0
LINE
  8
1
 62
2
 10
434.5892027330375
 20
431.4733836654493
 30
0
 11
437.3392027330375
 21
431.4733836654493
 31
0
  0
LINE
  8
1
 62
2
 10
437.3392027330375
 20
432.8796336654493
 30
0
 11
434.5892027330375
 21
432.8796336654493
 31
0
  0
LINE
  8
1
 62
2
 10
434.5892027330375
 20
434.2858836654493
 30
0
 11
436.0892027330375
 21
434.2858836654493
 31
0
  0
LINE
  8
1
 62
2
 10
434.5892027330375
 20
429.5046336654493
 30
0
 11
434.5892027330375
 21
431.4733836654493
 31
0
  0
LINE
  8
1
 62
2
 10
431.3392027330375
 20
434.2858836654493
 30
0
 11
432.5892027330375
 21
432.8796336654493
 31
0
  0
LINE
  8
1
 62
2
 10
429.3392027330375
 20
436.2546336654493
 30
0
 11
431.3392027330375
 21
434.2858836654493
 31
0
  0
LINE
  8
1
 62
2
 10
429.8392027330375
 20
438.5046336654493
 30
0
 11
429.8392027330375
 21
429.5046336654493
 31
0
  0
LINE
  8
1
 62
2
 10
425.5892027330375
 20
434.8483836654493
 30
0
 11
427.3392027330375
 21
433.4421336654493
 31
0
  0
LINE
  8
1
 62
2
 10
425.5892027330375
 20
435.1296336654493
 30
0
 11
424.5892027330375
 21
433.7233836654493
 31
0
  0
LINE
  8
1
 62
2
 10
426.3392027330375
 20
436.8171336654493
 30
0
 11
425.5892027330375
 21
435.1296336654493
 31
0
  0
LINE
  8
1
 62
2
 10
426.8392027330375
 20
438.5046336654493
 30
0
 11
426.3392027330375
 21
436.8171336654493
 31
0
  0
LINE
  8
1
 62
2
 10
428.5892027330375
 20
436.5358836654493
 30
0
 11
426.3392027330375
 21
436.5358836654493
 31
0
  0
LINE
  8
1
 62
2
 10
428.0892027330375
 20
434.8483836654493
 30
0
 11
428.5892027330375
 21
436.5358836654493
 31
0
  0
LINE
  8
1
 62
2
 10
427.5892027330375
 20
433.7233836654493
 30
0
 11
428.0892027330375
 21
434.8483836654493
 31
0
  0
LINE
  8
1
 62
2
 10
426.5892027330375
 20
432.0358836654493
 30
0
 11
427.5892027330375
 21
433.7233836654493
 31
0
  0
LINE
  8
1
 62
2
 10
425.0892027330375
 20
430.0671336654493
 30
0
 11
426.5892027330375
 21
432.0358836654493
 31
0
  0
LINE
  8
1
 62
2
 10
409.7392027330375
 20
435.8046336654493
 30
0
 11
411.5392027330375
 21
435.8046336654493
 31
0
  0
LINE
  8
1
 62
2
 10
409.7392027330375
 20
435.8046336654493
 30
0
 11
409.7392027330375
 21
429.5046336654493
 31
0
  0
LINE
  8
1
 62
2
 10
412.8892027330375
 20
434.6796336654493
 30
0
 11
412.8892027330375
 21
429.5046336654493
 31
0
  0
LINE
  8
1
 62
2
 10
412.6642027330375
 20
435.1296336654493
 30
0
 11
412.8892027330375
 21
434.6796336654493
 31
0
  0
LINE
  8
1
 62
2
 10
412.2142027330375
 20
435.5796336654493
 30
0
 11
412.6642027330375
 21
435.1296336654493
 31
0
  0
LINE
  8
1
 62
2
 10
411.5392027330375
 20
435.8046336654493
 30
0
 11
412.2142027330375
 21
435.5796336654493
 31
0
  0
LINE
  8
1
 62
2
 10
406.5892027330375
 20
435.8046336654493
 30
0
 11
409.7392027330375
 21
435.8046336654493
 31
0
  0
LINE
  8
1
 62
2
 10
406.5892027330375
 20
429.5046336654493
 30
0
 11
406.5892027330375
 21
435.8046336654493
 31
0
  0
LINE
  8
1
 62
2
 10
400.7392027330375
 20
435.8046336654493
 30
0
 11
402.5392027330375
 21
435.8046336654493
 31
0
  0
LINE
  8
1
 62
2
 10
400.7392027330375
 20
435.8046336654493
 30
0
 11
400.7392027330375
 21
429.5046336654493
 31
0
  0
LINE
  8
1
 62
2
 10
403.8892027330375
 20
434.6796336654493
 30
0
 11
403.8892027330375
 21
429.5046336654493
 31
0
  0
LINE
  8
1
 62
2
 10
403.6642027330375
 20
435.1296336654493
 30
0
 11
403.8892027330375
 21
434.6796336654493
 31
0
  0
LINE
  8
1
 62
2
 10
403.2142027330375
 20
435.5796336654493
 30
0
 11
403.6642027330375
 21
435.1296336654493
 31
0
  0
LINE
  8
1
 62
2
 10
402.5392027330375
 20
435.8046336654493
 30
0
 11
403.2142027330375
 21
435.5796336654493
 31
0
  0
LINE
  8
1
 62
2
 10
397.5892027330375
 20
435.8046336654493
 30
0
 11
400.7392027330375
 21
435.8046336654493
 31
0
  0
LINE
  8
1
 62
2
 10
397.5892027330375
 20
429.5046336654493
 30
0
 11
397.5892027330375
 21
435.8046336654493
 31
0
  0
LINE
  8
1
 62
2
 10
394.8892027330375
 20
435.1296336654493
 30
0
 11
394.8892027330375
 21
432.8796336654493
 31
0
  0
LINE
  8
1
 62
2
 10
394.6642027330375
 20
436.4796336654493
 30
0
 11
394.8892027330375
 21
435.1296336654493
 31
0
  0
LINE
  8
1
 62
2
 10
394.2142027330375
 20
437.3796336654493
 30
0
 11
394.6642027330375
 21
436.4796336654493
 31
0
  0
LINE
  8
1
 62
2
 10
393.7642027330375
 20
437.8296336654493
 30
0
 11
394.2142027330375
 21
437.3796336654493
 31
0
  0
LINE
  8
1
 62
2
 10
393.0892027330375
 20
438.2796336654493
 30
0
 11
393.7642027330375
 21
437.8296336654493
 31
0
  0
LINE
  8
1
 62
2
 10
392.4142027330375
 20
438.5046336654493
 30
0
 11
393.0892027330375
 21
438.2796336654493
 31
0
  0
LINE
  8
1
 62
2
 10
391.9642027330375
 20
438.5046336654493
 30
0
 11
392.4142027330375
 21
438.5046336654493
 31
0
  0
LINE
  8
1
 62
2
 10
391.2892027330375
 20
438.2796336654493
 30
0
 11
391.9642027330375
 21
438.5046336654493
 31
0
  0
LINE
  8
1
 62
2
 10
390.6142027330375
 20
437.8296336654493
 30
0
 11
391.2892027330375
 21
438.2796336654493
 31
0
  0
LINE
  8
1
 62
2
 10
390.1642027330375
 20
437.3796336654493
 30
0
 11
390.6142027330375
 21
437.8296336654493
 31
0
  0
LINE
  8
1
 62
2
 10
389.7142027330375
 20
436.4796336654493
 30
0
 11
390.1642027330375
 21
437.3796336654493
 31
0
  0
LINE
  8
1
 62
2
 10
389.4892027330375
 20
435.1296336654493
 30
0
 11
389.7142027330375
 21
436.4796336654493
 31
0
  0
LINE
  8
1
 62
2
 10
389.4892027330375
 20
432.8796336654493
 30
0
 11
389.4892027330375
 21
435.1296336654493
 31
0
  0
LINE
  8
1
 62
2
 10
389.7142027330375
 20
431.5296336654493
 30
0
 11
389.4892027330375
 21
432.8796336654493
 31
0
  0
LINE
  8
1
 62
2
 10
390.1642027330375
 20
430.6296336654493
 30
0
 11
389.7142027330375
 21
431.5296336654493
 31
0
  0
LINE
  8
1
 62
2
 10
390.6142027330375
 20
430.1796336654493
 30
0
 11
390.1642027330375
 21
430.6296336654493
 31
0
  0
LINE
  8
1
 62
2
 10
391.2892027330375
 20
429.7296336654493
 30
0
 11
390.6142027330375
 21
430.1796336654493
 31
0
  0
LINE
  8
1
 62
2
 10
391.9642027330375
 20
429.5046336654493
 30
0
 11
391.2892027330375
 21
429.7296336654493
 31
0
  0
LINE
  8
1
 62
2
 10
392.4142027330375
 20
429.5046336654493
 30
0
 11
391.9642027330375
 21
429.5046336654493
 31
0
  0
LINE
  8
1
 62
2
 10
393.0892027330375
 20
429.7296336654493
 30
0
 11
392.4142027330375
 21
429.5046336654493
 31
0
  0
LINE
  8
1
 62
2
 10
393.7642027330375
 20
430.1796336654493
 30
0
 11
393.0892027330375
 21
429.7296336654493
 31
0
  0
LINE
  8
1
 62
2
 10
394.2142027330375
 20
430.6296336654493
 30
0
 11
393.7642027330375
 21
430.1796336654493
 31
0
  0
LINE
  8
1
 62
2
 10
394.6642027330375
 20
431.5296336654493
 30
0
 11
394.2142027330375
 21
430.6296336654493
 31
0
  0
LINE
  8
1
 62
2
 10
394.8892027330375
 20
432.8796336654493
 30
0
 11
394.6642027330375
 21
431.5296336654493
 31
0
  0
LINE
  8
1
 62
2
 10
385.4392027330375
 20
433.1046336654493
 30
0
 11
385.4392027330375
 21
429.5046336654493
 31
0
  0
LINE
  8
1
 62
2
 10
381.3892027330375
 20
431.3046336654493
 30
0
 11
386.7892027330374
 21
431.3046336654493
 31
0
  0
LINE
  8
1
 62
2
 10
385.4392027330375
 20
438.5046336654493
 30
0
 11
381.3892027330375
 21
431.3046336654493
 31
0
  0
LINE
  8
1
 62
2
 10
375.3892027330375
 20
437.9421336654493
 30
0
 11
372.8892027330375
 21
437.9421336654493
 31
0
  0
LINE
  8
1
 62
2
 10
376.6392027330375
 20
429.7858836654493
 30
0
 11
380.1392027330375
 21
429.7858836654493
 31
0
  0
LINE
  8
1
 62
2
 10
376.6392027330375
 20
433.1608836654493
 30
0
 11
376.6392027330375
 21
429.7858836654493
 31
0
  0
LINE
  8
1
 62
2
 10
379.6392027330375
 20
433.1608836654493
 30
0
 11
378.8892027330375
 21
433.1608836654493
 31
0
  0
LINE
  8
1
 62
2
 10
379.6392027330375
 20
438.2233836654493
 30
0
 11
379.6392027330375
 21
433.1608836654493
 31
0
  0
LINE
  8
1
 62
2
 10
377.8892027330375
 20
434.2858836654493
 30
0
 11
377.8892027330375
 21
437.9421336654493
 31
0
  0
LINE
  8
1
 62
2
 10
375.3892027330375
 20
437.9421336654493
 30
0
 11
375.3892027330375
 21
433.1608836654493
 31
0
  0
LINE
  8
1
 62
2
 10
372.6392027330375
 20
435.9733836654493
 30
0
 11
376.8892027330375
 21
435.9733836654493
 31
0
  0
LINE
  8
1
 62
2
 10
376.6392027330375
 20
437.9421336654493
 30
0
 11
375.3892027330375
 21
437.9421336654493
 31
0
  0
LINE
  8
1
 62
2
 10
374.1392027330375
 20
435.9733836654493
 30
0
 11
374.1392027330375
 21
437.9421336654493
 31
0
  0
LINE
  8
1
 62
2
 10
373.6392027330375
 20
434.0046336654493
 30
0
 11
374.1392027330375
 21
435.9733836654493
 31
0
  0
LINE
  8
1
 62
2
 10
372.8892027330375
 20
432.8796336654493
 30
0
 11
373.6392027330375
 21
434.0046336654493
 31
0
  0
LINE
  8
1
 62
2
 10
379.1392027330375
 20
431.7546336654493
 30
0
 11
373.6392027330375
 21
431.7546336654493
 31
0
  0
LINE
  8
1
 62
2
 10
372.8892027330375
 20
429.7858836654493
 30
0
 11
376.6392027330375
 21
429.7858836654493
 31
0
  0
LINE
  8
1
 62
2
 10
363.8392027330374
 20
430.1796336654493
 30
0
 11
363.3892027330375
 21
430.6296336654493
 31
0
  0
LINE
  8
1
 62
2
 10
364.7392027330375
 20
429.7296336654493
 30
0
 11
363.8392027330374
 21
430.1796336654493
 31
0
  0
LINE
  8
1
 62
2
 10
365.8642027330375
 20
429.5046336654493
 30
0
 11
364.7392027330375
 21
429.7296336654493
 31
0
  0
LINE
  8
1
 62
2
 10
367.2142027330374
 20
429.5046336654493
 30
0
 11
365.8642027330375
 21
429.5046336654493
 31
0
  0
LINE
  8
1
 62
2
 10
368.3392027330374
 20
429.7296336654493
 30
0
 11
367.2142027330374
 21
429.5046336654493
 31
0
  0
LINE
  8
1
 62
2
 10
369.0142027330375
 20
430.1796336654493
 30
0
 11
368.3392027330374
 21
429.7296336654493
 31
0
  0
LINE
  8
1
 62
2
 10
369.4642027330374
 20
430.8546336654493
 30
0
 11
369.0142027330375
 21
430.1796336654493
 31
0
  0
LINE
  8
1
 62
2
 10
369.6892027330375
 20
431.5296336654493
 30
0
 11
369.4642027330374
 21
430.8546336654493
 31
0
  0
LINE
  8
1
 62
2
 10
369.6892027330375
 20
431.9796336654493
 30
0
 11
369.6892027330375
 21
431.5296336654493
 31
0
  0
LINE
  8
1
 62
2
 10
369.4642027330374
 20
432.6546336654493
 30
0
 11
369.6892027330375
 21
431.9796336654493
 31
0
  0
LINE
  8
1
 62
2
 10
369.0142027330375
 20
433.3296336654493
 30
0
 11
369.4642027330374
 21
432.6546336654493
 31
0
  0
LINE
  8
1
 62
2
 10
368.3392027330374
 20
433.7796336654493
 30
0
 11
369.0142027330375
 21
433.3296336654493
 31
0
  0
LINE
  8
1
 62
2
 10
364.5142027330375
 20
435.3546336654493
 30
0
 11
368.3392027330374
 21
433.7796336654493
 31
0
  0
LINE
  8
1
 62
2
 10
363.8392027330374
 20
435.8046336654493
 30
0
 11
364.5142027330375
 21
435.3546336654493
 31
0
  0
LINE
  8
1
 62
2
 10
363.6142027330375
 20
436.4796336654493
 30
0
 11
363.8392027330374
 21
435.8046336654493
 31
0
  0
LINE
  8
1
 62
2
 10
363.6142027330375
 20
436.9296336654493
 30
0
 11
363.6142027330375
 21
436.4796336654493
 31
0
  0
LINE
  8
1
 62
2
 10
363.8392027330374
 20
437.6046336654493
 30
0
 11
363.6142027330375
 21
436.9296336654493
 31
0
  0
LINE
  8
1
 62
2
 10
364.5142027330375
 20
438.0546336654493
 30
0
 11
363.8392027330374
 21
437.6046336654493
 31
0
  0
LINE
  8
1
 62
2
 10
365.1892027330375
 20
438.2796336654493
 30
0
 11
364.5142027330375
 21
438.0546336654493
 31
0
  0
LINE
  8
1
 62
2
 10
366.0892027330374
 20
438.5046336654493
 30
0
 11
365.1892027330375
 21
438.2796336654493
 31
0
  0
LINE
  8
1
 62
2
 10
366.9892027330375
 20
438.5046336654493
 30
0
 11
366.0892027330374
 21
438.5046336654493
 31
0
  0
LINE
  8
1
 62
2
 10
368.1142027330375
 20
438.2796336654493
 30
0
 11
366.9892027330375
 21
438.5046336654493
 31
0
  0
LINE
  8
1
 62
2
 10
368.7892027330374
 20
438.0546336654493
 30
0
 11
368.1142027330375
 21
438.2796336654493
 31
0
  0
LINE
  8
1
 62
2
 10
369.4642027330374
 20
437.6046336654493
 30
0
 11
368.7892027330374
 21
438.0546336654493
 31
0
  0
LINE
  8
1
 62
2
 10
360.4642027330374
 20
436.7046336654493
 30
0
 11
360.6892027330375
 21
435.8046336654493
 31
0
  0
LINE
  8
1
 62
2
 10
360.0142027330375
 20
437.3796336654493
 30
0
 11
360.4642027330374
 21
436.7046336654493
 31
0
  0
LINE
  8
1
 62
2
 10
359.5642027330375
 20
437.8296336654493
 30
0
 11
360.0142027330375
 21
437.3796336654493
 31
0
  0
LINE
  8
1
 62
2
 10
358.8892027330375
 20
438.2796336654493
 30
0
 11
359.5642027330375
 21
437.8296336654493
 31
0
  0
LINE
  8
1
 62
2
 10
357.9892027330375
 20
438.5046336654493
 30
0
 11
358.8892027330375
 21
438.2796336654493
 31
0
  0
LINE
  8
1
 62
2
 10
354.3892027330375
 20
438.5046336654493
 30
0
 11
357.9892027330375
 21
438.5046336654493
 31
0
  0
LINE
  8
1
 62
2
 10
354.3892027330375
 20
429.5046336654493
 30
0
 11
354.3892027330375
 21
438.5046336654493
 31
0
  0
LINE
  8
1
 62
2
 10
357.9892027330375
 20
429.5046336654493
 30
0
 11
354.3892027330375
 21
429.5046336654493
 31
0
  0
LINE
  8
1
 62
2
 10
358.8892027330375
 20
429.7296336654493
 30
0
 11
357.9892027330375
 21
429.5046336654493
 31
0
  0
LINE
  8
1
 62
2
 10
359.5642027330375
 20
430.1796336654493
 30
0
 11
358.8892027330375
 21
429.7296336654493
 31
0
  0
LINE
  8
1
 62
2
 10
360.0142027330375
 20
430.6296336654493
 30
0
 11
359.5642027330375
 21
430.1796336654493
 31
0
  0
LINE
  8
1
 62
2
 10
360.4642027330374
 20
431.3046336654493
 30
0
 11
360.0142027330375
 21
430.6296336654493
 31
0
  0
LINE
  8
1
 62
2
 10
360.6892027330375
 20
432.2046336654493
 30
0
 11
360.4642027330374
 21
431.3046336654493
 31
0
  0
LINE
  8
1
 62
2
 10
360.6892027330375
 20
435.8046336654493
 30
0
 11
360.6892027330375
 21
432.2046336654493
 31
0
  0
LINE
  8
1
 62
2
 10
345.3892027330375
 20
432.2046336654493
 30
0
 11
345.3892027330375
 21
438.5046336654493
 31
0
  0
LINE
  8
1
 62
2
 10
345.3892027330375
 20
429.5046336654493
 30
0
 11
345.3892027330375
 21
432.2046336654493
 31
0
  0
LINE
  8
1
 62
2
 10
347.1892027330375
 20
434.0046336654493
 30
0
 11
351.6892027330375
 21
429.5046336654493
 31
0
  0
LINE
  8
1
 62
2
 10
351.6892027330375
 20
438.5046336654493
 30
0
 11
347.1892027330375
 21
434.0046336654493
 31
0
  0
LINE
  8
1
 62
2
 10
347.1892027330375
 20
434.0046336654493
 30
0
 11
345.3892027330375
 21
432.2046336654493
 31
0
  0
LINE
  8
1
 62
2
 10
342.6892027330375
 20
429.5046336654493
 30
0
 11
342.6892027330375
 21
438.5046336654493
 31
0
  0
LINE
  8
1
 62
2
 10
336.3892027330375
 20
438.5046336654493
 30
0
 11
342.6892027330375
 21
429.5046336654493
 31
0
  0
LINE
  8
1
 62
2
 10
336.3892027330375
 20
429.5046336654493
 30
0
 11
336.3892027330375
 21
438.5046336654493
 31
0
  0
LINE
  8
1
 62
2
 10
440.6142027330375
 20
409.8483836654493
 30
0
 11
440.8642027330375
 21
410.1296336654493
 31
0
  0
LINE
  8
1
 62
2
 10
440.6142027330375
 20
411.5358836654493
 30
0
 11
439.1142027330375
 21
411.5358836654493
 31
0
  0
LINE
  8
1
 62
2
 10
444.3642027330375
 20
405.0671336654493
 30
0
 11
446.6142027330375
 21
405.0671336654493
 31
0
  0
LINE
  8
1
 62
2
 10
441.8642027330375
 20
405.0671336654493
 30
0
 11
444.3642027330375
 21
405.0671336654493
 31
0
  0
LINE
  8
1
 62
2
 10
444.3642027330375
 20
413.2233836654493
 30
0
 11
444.3642027330375
 21
405.0671336654493
 31
0
  0
LINE
  8
1
 62
2
 10
442.6142027330375
 20
409.8483836654493
 30
0
 11
446.1142027330375
 21
409.8483836654493
 31
0
  0
LINE
  8
1
 62
2
 10
441.1142027330375
 20
409.5671336654493
 30
0
 11
442.3642027330375
 21
408.1608836654493
 31
0
  0
LINE
  8
1
 62
2
 10
440.6142027330375
 20
411.5358836654493
 30
0
 11
440.6142027330375
 21
413.2233836654493
 31
0
  0
LINE
  8
1
 62
2
 10
441.8642027330375
 20
411.5358836654493
 30
0
 11
440.6142027330375
 21
411.5358836654493
 31
0
  0
LINE
  8
1
 62
2
 10
440.8642027330375
 20
410.1296336654493
 30
0
 11
441.8642027330375
 21
411.5358836654493
 31
0
  0
LINE
  8
1
 62
2
 10
439.6142027330375
 20
408.7233836654493
 30
0
 11
440.6142027330375
 21
409.8483836654493
 31
0
  0
LINE
  8
1
 62
2
 10
438.6142027330375
 20
407.8796336654493
 30
0
 11
439.6142027330375
 21
408.7233836654493
 31
0
  0
LINE
  8
1
 62
2
 10
440.6142027330375
 20
404.7858836654493
 30
0
 11
440.6142027330375
 21
409.8483836654493
 31
0
  0
LINE
  8
1
 62
2
 10
433.6142027330375
 20
407.8796336654493
 30
0
 11
431.1142027330375
 21
404.7858836654493
 31
0
  0
LINE
  8
1
 62
2
 10
435.8642027330375
 20
405.3483836654493
 30
0
 11
434.8642027330375
 21
406.4733836654493
 31
0
  0
LINE
  8
1
 62
2
 10
436.6142027330375
 20
404.5046336654493
 30
0
 11
435.8642027330375
 21
405.3483836654493
 31
0
  0
LINE
  8
1
 62
2
 10
430.3642027330375
 20
404.7858836654493
 30
0
 11
435.8642027330375
 21
405.3483836654493
 31
0
  0
LINE
  8
1
 62
2
 10
430.8642027330375
 20
408.1608836654493
 30
0
 11
436.6142027330375
 21
408.1608836654493
 31
0
  0
LINE
  8
1
 62
2
 10
431.8642027330375
 20
409.5671336654493
 30
0
 11
435.3642027330375
 21
409.5671336654493
 31
0
  0
LINE
  8
1
 62
2
 10
433.6142027330375
 20
413.2233836654493
 30
0
 11
437.6142027330375
 21
409.0046336654493
 31
0
  0
LINE
  8
1
 62
2
 10
433.6142027330375
 20
413.2233836654493
 30
0
 11
429.6142027330375
 21
409.0046336654493
 31
0
  0
LINE
  8
1
 62
2
 10
422.8642027330375
 20
409.2858836654493
 30
0
 11
421.1142027330375
 21
409.2858836654493
 31
0
  0
LINE
  8
1
 62
2
 10
422.8642027330375
 20
406.1921336654493
 30
0
 11
424.6142027330375
 21
406.7546336654493
 31
0
  0
LINE
  8
1
 62
2
 10
427.8642027330375
 20
404.7858836654493
 30
0
 11
428.6142027330375
 21
405.6296336654493
 31
0
  0
LINE
  8
1
 62
2
 10
426.8642027330375
 20
405.9108836654493
 30
0
 11
427.8642027330375
 21
404.7858836654493
 31
0
  0
LINE
  8
1
 62
2
 10
425.8642027330375
 20
407.8796336654493
 30
0
 11
426.8642027330375
 21
405.9108836654493
 31
0
  0
LINE
  8
1
 62
2
 10
425.3642027330375
 20
410.1296336654493
 30
0
 11
425.8642027330375
 21
407.8796336654493
 31
0
  0
LINE
  8
1
 62
2
 10
425.1142027330375
 20
413.5046336654493
 30
0
 11
425.3642027330375
 21
410.1296336654493
 31
0
  0
LINE
  8
1
 62
2
 10
426.6142027330375
 20
412.3796336654493
 30
0
 11
425.8642027330375
 21
413.2233836654493
 31
0
  0
LINE
  8
1
 62
2
 10
420.6142027330375
 20
411.5358836654493
 30
0
 11
427.8642027330375
 21
411.5358836654493
 31
0
  0
LINE
  8
1
 62
2
 10
422.8642027330375
 20
409.2858836654493
 30
0
 11
422.8642027330375
 21
406.1921336654493
 31
0
  0
LINE
  8
1
 62
2
 10
424.6142027330375
 20
409.2858836654493
 30
0
 11
422.8642027330375
 21
409.2858836654493
 31
0
  0
LINE
  8
1
 62
2
 10
421.1142027330375
 20
405.6296336654493
 30
0
 11
422.8642027330375
 21
406.1921336654493
 31
0
  0
LINE
  8
1
 62
2
 10
413.3642027330375
 20
410.9733836654493
 30
0
 11
413.3642027330375
 21
413.5046336654493
 31
0
  0
LINE
  8
1
 62
2
 10
413.3642027330375
 20
410.9733836654493
 30
0
 11
412.1142027330375
 21
410.9733836654493
 31
0
  0
LINE
  8
1
 62
2
 10
418.3642027330375
 20
406.7546336654493
 30
0
 11
419.3642027330375
 21
404.7858836654493
 31
0
  0
LINE
  8
1
 62
2
 10
417.1142027330375
 20
409.2858836654493
 30
0
 11
418.3642027330375
 21
406.7546336654493
 31
0
  0
LINE
  8
1
 62
2
 10
416.3642027330375
 20
407.3171336654493
 30
0
 11
417.1142027330375
 21
409.2858836654493
 31
0
  0
LINE
  8
1
 62
2
 10
415.3642027330375
 20
405.9108836654493
 30
0
 11
416.3642027330375
 21
407.3171336654493
 31
0
  0
LINE
  8
1
 62
2
 10
414.6142027330375
 20
404.7858836654493
 30
0
 11
415.3642027330375
 21
405.9108836654493
 31
0
  0
LINE
  8
1
 62
2
 10
417.1142027330375
 20
413.5046336654493
 30
0
 11
417.1142027330375
 21
404.5046336654493
 31
0
  0
LINE
  8
1
 62
2
 10
419.3642027330375
 20
409.2858836654493
 30
0
 11
415.1142027330375
 21
409.2858836654493
 31
0
  0
LINE
  8
1
 62
2
 10
415.8642027330375
 20
411.2546336654493
 30
0
 11
419.1142027330375
 21
411.2546336654493
 31
0
  0
LINE
  8
1
 62
2
 10
415.8642027330375
 20
411.2546336654493
 30
0
 11
416.1142027330375
 21
412.6608836654493
 31
0
  0
LINE
  8
1
 62
2
 10
415.1142027330375
 20
409.8483836654493
 30
0
 11
415.8642027330375
 21
411.2546336654493
 31
0
  0
LINE
  8
1
 62
2
 10
413.3642027330375
 20
410.9733836654493
 30
0
 11
414.6142027330375
 21
408.7233836654493
 31
0
  0
LINE
  8
1
 62
2
 10
411.8642027330375
 20
407.0358836654493
 30
0
 11
413.3642027330375
 21
410.9733836654493
 31
0
  0
LINE
  8
1
 62
2
 10
414.6142027330375
 20
410.9733836654493
 30
0
 11
413.3642027330375
 21
410.9733836654493
 31
0
  0
LINE
  8
1
 62
2
 10
413.3642027330375
 20
404.7858836654493
 30
0
 11
413.3642027330375
 21
410.9733836654493
 31
0
  0
LINE
  8
1
 62
2
 10
403.3642027330375
 20
410.1296336654493
 30
0
 11
403.3642027330375
 21
411.5358836654493
 31
0
  0
LINE
  8
1
 62
2
 10
405.8642027330375
 20
411.5358836654493
 30
0
 11
405.8642027330375
 21
410.1296336654493
 31
0
  0
LINE
  8
1
 62
2
 10
403.3642027330375
 20
411.5358836654493
 30
0
 11
403.3642027330375
 21
412.9421336654493
 31
0
  0
LINE
  8
1
 62
2
 10
409.8642027330375
 20
410.1296336654493
 30
0
 11
409.8642027330375
 21
411.5358836654493
 31
0
  0
LINE
  8
1
 62
2
 10
407.3642027330375
 20
411.5358836654493
 30
0
 11
407.3642027330375
 21
410.1296336654493
 31
0
  0
LINE
  8
1
 62
2
 10
409.8642027330375
 20
411.5358836654493
 30
0
 11
409.8642027330375
 21
412.9421336654493
 31
0
  0
LINE
  8
1
 62
2
 10
403.3642027330375
 20
405.0671336654493
 30
0
 11
403.3642027330375
 21
404.7858836654493
 31
0
  0
LINE
  8
1
 62
2
 10
407.3642027330375
 20
411.5358836654493
 30
0
 11
409.8642027330375
 21
411.5358836654493
 31
0
  0
LINE
  8
1
 62
2
 10
407.3642027330375
 20
410.1296336654493
 30
0
 11
409.8642027330375
 21
410.1296336654493
 31
0
  0
LINE
  8
1
 62
2
 10
407.3642027330375
 20
412.9421336654493
 30
0
 11
407.3642027330375
 21
411.5358836654493
 31
0
  0
LINE
  8
1
 62
2
 10
409.8642027330375
 20
412.9421336654493
 30
0
 11
407.3642027330375
 21
412.9421336654493
 31
0
  0
LINE
  8
1
 62
2
 10
409.8642027330375
 20
405.0671336654493
 30
0
 11
409.8642027330375
 21
410.1296336654493
 31
0
  0
LINE
  8
1
 62
2
 10
409.6142027330375
 20
404.7858836654493
 30
0
 11
409.8642027330375
 21
405.0671336654493
 31
0
  0
LINE
  8
1
 62
2
 10
408.8642027330375
 20
404.7858836654493
 30
0
 11
409.6142027330375
 21
404.7858836654493
 31
0
  0
LINE
  8
1
 62
2
 10
405.8642027330375
 20
411.5358836654493
 30
0
 11
403.3642027330375
 21
411.5358836654493
 31
0
  0
LINE
  8
1
 62
2
 10
405.8642027330375
 20
410.1296336654493
 30
0
 11
403.3642027330375
 21
410.1296336654493
 31
0
  0
LINE
  8
1
 62
2
 10
405.8642027330375
 20
412.9421336654493
 30
0
 11
405.8642027330375
 21
411.5358836654493
 31
0
  0
LINE
  8
1
 62
2
 10
403.3642027330375
 20
412.9421336654493
 30
0
 11
405.8642027330375
 21
412.9421336654493
 31
0
  0
LINE
  8
1
 62
2
 10
403.3642027330375
 20
405.0671336654493
 30
0
 11
403.3642027330375
 21
410.1296336654493
 31
0
  0
LINE
  8
1
 62
2
 10
397.6142027330375
 20
404.7858836654493
 30
0
 11
400.6142027330375
 21
404.7858836654493
 31
0
  0
LINE
  8
1
 62
2
 10
397.6142027330375
 20
410.1296336654493
 30
0
 11
399.3642027330375
 21
410.1296336654493
 31
0
  0
LINE
  8
1
 62
2
 10
400.6142027330375
 20
409.8483836654493
 30
0
 11
401.6142027330375
 21
409.0046336654493
 31
0
  0
LINE
  8
1
 62
2
 10
398.8642027330375
 20
411.8171336654493
 30
0
 11
400.6142027330375
 21
409.8483836654493
 31
0
  0
LINE
  8
1
 62
2
 10
397.6142027330375
 20
413.5046336654493
 30
0
 11
398.8642027330375
 21
411.8171336654493
 31
0
  0
LINE
  8
1
 62
2
 10
396.3642027330375
 20
411.8171336654493
 30
0
 11
397.6142027330375
 21
413.5046336654493
 31
0
  0
LINE
  8
1
 62
2
 10
394.6142027330375
 20
409.8483836654493
 30
0
 11
396.3642027330375
 21
411.8171336654493
 31
0
  0
LINE
  8
1
 62
2
 10
393.6142027330375
 20
409.0046336654493
 30
0
 11
394.6142027330375
 21
409.8483836654493
 31
0
  0
LINE
  8
1
 62
2
 10
398.8642027330375
 20
405.9108836654493
 30
0
 11
399.3642027330375
 21
407.3171336654493
 31
0
  0
LINE
  8
1
 62
2
 10
395.8642027330375
 20
407.3171336654493
 30
0
 11
396.3642027330375
 21
405.9108836654493
 31
0
  0
LINE
  8
1
 62
2
 10
400.1142027330375
 20
408.4421336654493
 30
0
 11
395.1142027330375
 21
408.4421336654493
 31
0
  0
LINE
  8
1
 62
2
 10
395.8642027330375
 20
410.1296336654493
 30
0
 11
397.6142027330375
 21
410.1296336654493
 31
0
  0
LINE
  8
1
 62
2
 10
397.6142027330375
 20
404.7858836654493
 30
0
 11
397.6142027330375
 21
410.1296336654493
 31
0
  0
LINE
  8
1
 62
2
 10
394.3642027330375
 20
404.7858836654493
 30
0
 11
397.6142027330375
 21
404.7858836654493
 31
0
  0
LINE
  8
1
 62
2
 10
390.8642027330375
 20
407.3171336654493
 30
0
 11
392.1142027330375
 21
409.0046336654493
 31
0
  0
LINE
  8
1
 62
2
 10
388.8642027330375
 20
406.1921336654493
 30
0
 11
390.8642027330375
 21
407.3171336654493
 31
0
  0
LINE
  8
1
 62
2
 10
388.8642027330375
 20
411.2546336654493
 30
0
 11
388.8642027330375
 21
406.1921336654493
 31
0
  0
LINE
  8
1
 62
2
 10
386.8642027330375
 20
409.0046336654493
 30
0
 11
387.1142027330375
 21
411.2546336654493
 31
0
  0
LINE
  8
1
 62
2
 10
386.3642027330375
 20
407.3171336654493
 30
0
 11
386.8642027330375
 21
409.0046336654493
 31
0
  0
LINE
  8
1
 62
2
 10
385.6142027330375
 20
405.9108836654493
 30
0
 11
386.3642027330375
 21
407.3171336654493
 31
0
  0
LINE
  8
1
 62
2
 10
377.1142027330375
 20
408.1608836654493
 30
0
 11
377.1142027330375
 21
406.4733836654493
 31
0
  0
LINE
  8
1
 62
2
 10
379.8642027330375
 20
405.3483836654493
 30
0
 11
381.3642027330375
 21
405.6296336654493
 31
0
  0
LINE
  8
1
 62
2
 10
377.3642027330375
 20
405.6296336654493
 30
0
 11
379.8642027330375
 21
405.3483836654493
 31
0
  0
LINE
  8
1
 62
2
 10
377.1142027330375
 20
406.4733836654493
 30
0
 11
377.3642027330375
 21
405.6296336654493
 31
0
  0
LINE
  8
1
 62
2
 10
377.1142027330375
 20
411.2546336654493
 30
0
 11
377.1142027330375
 21
408.1608836654493
 31
0
  0
LINE
  8
1
 62
2
 10
381.8642027330375
 20
411.8171336654493
 30
0
 11
382.6142027330375
 21
410.9733836654493
 31
0
  0
LINE
  8
1
 62
2
 10
382.1142027330375
 20
410.4108836654493
 30
0
 11
381.3642027330375
 21
411.2546336654493
 31
0
  0
LINE
  8
1
 62
2
 10
379.3642027330375
 20
409.0046336654493
 30
0
 11
380.8642027330375
 21
409.8483836654493
 31
0
  0
LINE
  8
1
 62
2
 10
377.1142027330375
 20
408.1608836654493
 30
0
 11
379.3642027330375
 21
409.0046336654493
 31
0
  0
LINE
  8
1
 62
2
 10
371.6142027330375
 20
407.3171336654493
 30
0
 11
373.1142027330375
 21
405.6296336654493
 31
0
  0
LINE
  8
1
 62
2
 10
370.3642027330375
 20
408.4421336654493
 30
0
 11
371.6142027330375
 21
407.3171336654493
 31
0
  0
LINE
  8
1
 62
2
 10
373.3642027330375
 20
412.3796336654493
 30
0
 11
374.1142027330375
 21
411.5358836654493
 31
0
  0
LINE
  8
1
 62
2
 10
372.8642027330375
 20
411.8171336654493
 30
0
 11
373.6142027330375
 21
410.9733836654493
 31
0
  0
LINE
  8
1
 62
2
 10
371.8642027330375
 20
411.2546336654493
 30
0
 11
368.6142027330375
 21
411.2546336654493
 31
0
  0
LINE
  8
1
 62
2
 10
371.1142027330375
 20
409.5671336654493
 30
0
 11
371.8642027330375
 21
411.2546336654493
 31
0
  0
LINE
  8
1
 62
2
 10
369.3642027330375
 20
407.0358836654493
 30
0
 11
371.1142027330375
 21
409.5671336654493
 31
0
  0
LINE
  8
1
 62
2
 10
367.6142027330375
 20
405.6296336654493
 30
0
 11
369.3642027330375
 21
407.0358836654493
 31
0
  0
LINE
  8
1
 62
2
 10
364.6142027330375
 20
410.9733836654493
 30
0
 11
362.3642027330375
 21
408.4421336654493
 31
0
  0
LINE
  8
1
 62
2
 10
358.8642027330375
 20
410.9733836654493
 30
0
 11
364.6142027330375
 21
410.9733836654493
 31
0
  0
LINE
  8
1
 62
2
 10
361.6142027330375
 20
408.4421336654493
 30
0
 11
361.8642027330375
 21
409.8483836654493
 31
0
  0
LINE
  8
1
 62
2
 10
361.1142027330375
 20
406.7546336654493
 30
0
 11
361.6142027330375
 21
408.4421336654493
 31
0
  0
LINE
  8
1
 62
2
 10
360.1142027330375
 20
405.0671336654493
 30
0
 11
361.1142027330375
 21
406.7546336654493
 31
0
  0
LINE
  8
1
 62
7
 10
353.011331866777
 20
526.3634093101988
 30
0
 11
353.011331866777
 21
525.4972035032453
 31
0
  0
LINE
  8
1
 62
7
 10
349.26585795751
 20
526.3634093101988
 30
0
 11
353.011331866777
 21
526.3634093101988
 31
0
  0
LINE
  8
1
 62
7
 10
349.26585795751
 20
528.6155444082779
 30
0
 11
349.26585795751
 21
526.3634093101988
 31
0
  0
LINE
  8
1
 62
7
 10
352.6128771955783
 20
528.6155444082779
 30
0
 11
349.26585795751
 21
528.6155444082779
 31
0
  0
LINE
  8
1
 62
7
 10
352.6128771955783
 20
529.4817502152315
 30
0
 11
352.6128771955783
 21
528.6155444082779
 31
0
  0
LINE
  8
1
 62
7
 10
349.26585795751
 20
529.4817502152315
 30
0
 11
352.6128771955783
 21
529.4817502152315
 31
0
  0
LINE
  8
1
 62
7
 10
349.26585795751
 20
531.5606441519199
 30
0
 11
349.26585795751
 21
529.4817502152315
 31
0
  0
LINE
  8
1
 62
7
 10
352.9316409325372
 20
531.5606441519199
 30
0
 11
349.26585795751
 21
531.5606441519199
 31
0
  0
LINE
  8
1
 62
7
 10
352.9316409325372
 20
532.4268499588735
 30
0
 11
352.9316409325372
 21
531.5606441519199
 31
0
  0
LINE
  8
1
 62
7
 10
348.389257680873
 20
532.4268499588735
 30
0
 11
352.9316409325372
 21
532.4268499588735
 31
0
  0
LINE
  8
1
 62
7
 10
348.389257680873
 20
525.4972035032453
 30
0
 11
348.389257680873
 21
532.4268499588735
 31
0
  0
LINE
  8
1
 62
7
 10
353.011331866777
 20
525.4972035032453
 30
0
 11
348.389257680873
 21
525.4972035032453
 31
0
  0
LINE
  8
1
 62
2
 10
340.07326692304
 20
470.3649191036719
 30
0
 11
340.07326692304
 21
464.3649191036719
 31
0
  0
LINE
  8
1
 62
2
 10
340.07326692304
 20
464.3649191036719
 30
0
 11
344.27326692304
 21
464.3649191036719
 31
0
  0
LINE
  8
1
 62
2
 10
344.27326692304
 20
470.3649191036719
 30
0
 11
340.07326692304
 21
470.3649191036719
 31
0
  0
LINE
  8
1
 62
2
 10
343.67326692304
 20
467.6649191036719
 30
0
 11
340.07326692304
 21
467.6649191036719
 31
0
  0
LINE
  8
1
 62
2
 10
349.9194896870655
 20
476.8829595506246
 30
0
 11
354.7528230203988
 21
476.8829595506246
 31
0
  0
LINE
  8
1
 62
2
 10
352.5861563537321
 20
473.5079595506246
 30
0
 11
351.9194896870655
 21
473.8829595506246
 31
0
  0
LINE
  8
1
 62
2
 10
352.9194896870655
 20
473.6954595506246
 30
0
 11
352.5861563537321
 21
473.5079595506246
 31
0
  0
LINE
  8
1
 62
2
 10
353.4194896870655
 20
474.6329595506246
 30
0
 11
352.9194896870655
 21
473.6954595506246
 31
0
  0
LINE
  8
1
 62
2
 10
353.7528230203988
 20
475.7579595506246
 30
0
 11
353.4194896870655
 21
474.6329595506246
 31
0
  0
LINE
  8
1
 62
2
 10
351.4194896870655
 20
475.7579595506246
 30
0
 11
353.7528230203988
 21
475.7579595506246
 31
0
  0
LINE
  8
1
 62
2
 10
351.7528230203988
 20
476.8829595506246
 30
0
 11
351.2528230203988
 21
475.0079595506246
 31
0
  0
LINE
  8
1
 62
2
 10
353.7528230203988
 20
479.1329595506246
 30
0
 11
351.0861563537321
 21
479.1329595506246
 31
0
  0
LINE
  8
1
 62
2
 10
353.7528230203988
 20
477.8204595506246
 30
0
 11
353.7528230203988
 21
479.1329595506246
 31
0
  0
LINE
  8
1
 62
2
 10
351.0861563537321
 20
477.8204595506246
 30
0
 11
353.7528230203988
 21
477.8204595506246
 31
0
  0
LINE
  8
1
 62
2
 10
351.0861563537321
 20
479.1329595506246
 30
0
 11
351.0861563537321
 21
477.8204595506246
 31
0
  0
LINE
  8
1
 62
2
 10
348.7528230203988
 20
473.8829595506246
 30
0
 11
348.7528230203988
 21
474.4454595506246
 31
0
  0
LINE
  8
1
 62
2
 10
346.4194896870655
 20
473.8829595506246
 30
0
 11
348.7528230203988
 21
473.8829595506246
 31
0
  0
LINE
  8
1
 62
2
 10
346.4194896870655
 20
476.6954595506246
 30
0
 11
346.4194896870655
 21
473.8829595506246
 31
0
  0
LINE
  8
1
 62
2
 10
348.2528230203988
 20
476.6954595506246
 30
0
 11
346.4194896870655
 21
476.6954595506246
 31
0
  0
LINE
  8
1
 62
2
 10
348.2528230203988
 20
478.5704595506246
 30
0
 11
348.2528230203988
 21
476.6954595506246
 31
0
  0
LINE
  8
1
 62
2
 10
346.4194896870655
 20
478.5704595506246
 30
0
 11
348.2528230203988
 21
478.5704595506246
 31
0
  0
LINE
  8
1
 62
2
 10
343.9194896870655
 20
478.7579595506246
 30
0
 11
345.4194896870655
 21
478.7579595506246
 31
0
  0
LINE
  8
1
 62
2
 10
343.7528230203988
 20
477.8204595506246
 30
0
 11
345.9194896870655
 21
477.8204595506246
 31
0
  0
LINE
  8
1
 62
2
 10
345.4194896870655
 20
477.0704595506246
 30
0
 11
344.0861563537321
 21
477.0704595506246
 31
0
  0
LINE
  8
1
 62
2
 10
344.0861563537321
 20
476.1329595506246
 30
0
 11
345.4194896870655
 21
476.1329595506246
 31
0
  0
LINE
  8
1
 62
2
 10
345.4194896870655
 20
473.8829595506246
 30
0
 11
344.0861563537321
 21
473.8829595506246
 31
0
  0
LINE
  8
1
 62
2
 10
345.4194896870655
 20
475.3829595506246
 30
0
 11
345.4194896870655
 21
473.8829595506246
 31
0
  0
LINE
  8
1
 62
2
 10
344.0861563537321
 20
475.3829595506246
 30
0
 11
345.4194896870655
 21
475.3829595506246
 31
0
  0
LINE
  8
1
 62
2
 10
344.0861563537321
 20
473.8829595506246
 30
0
 11
344.0861563537321
 21
475.3829595506246
 31
0
  0
LINE
  8
1
 62
2
 10
339.0861563537321
 20
479.3204595506246
 30
0
 11
339.0861563537321
 21
473.6954595506246
 31
0
  0
LINE
  8
1
 62
2
 10
342.0861563537321
 20
479.5079595506246
 30
0
 11
342.0861563537321
 21
473.5079595506246
 31
0
  0
LINE
  8
1
 62
2
 10
341.2528230203988
 20
478.3829595506246
 30
0
 11
340.7528230203988
 21
479.1329595506246
 31
0
  0
LINE
  8
1
 62
2
 10
341.2528230203988
 20
476.8829595506246
 30
0
 11
340.7528230203988
 21
477.6329595506246
 31
0
  0
LINE
  8
1
 62
2
 10
340.2528230203988
 20
475.5704595506246
 30
0
 11
343.0861563537321
 21
476.1329595506246
 31
0
  0
LINE
  8
1
 62
2
 10
339.5861563537321
 20
476.5079595506246
 30
0
 11
339.9194896870655
 21
475.7579595506246
 31
0
  0
LINE
  8
1
 62
2
 10
339.5861563537321
 20
478.1954595506246
 30
0
 11
339.9194896870655
 21
478.9454595506246
 31
0
  0
LINE
  8
1
 62
2
 10
338.0861563537321
 20
478.7579595506246
 30
0
 11
338.5861563537321
 21
478.0079595506246
 31
0
  0
LINE
  8
1
 62
2
 10
340.2528230203988
 20
477.2579595506246
 30
0
 11
337.9194896870655
 21
477.2579595506246
 31
0
  0
LINE
  8
1
 62
2
 10
338.4194896870655
 20
475.5704595506246
 30
0
 11
339.0861563537321
 21
477.2579595506246
 31
0
  0
LINE
  8
1
 62
2
 10
337.9194896870655
 20
474.6329595506246
 30
0
 11
338.4194896870655
 21
475.5704595506246
 31
0
  0
LINE
  8
1
 62
2
 10
336.0861563537321
 20
473.8829595506246
 30
0
 11
335.5861563537321
 21
473.8829595506246
 31
0
  0
LINE
  8
1
 62
2
 10
335.9194896870655
 20
479.3204595506246
 30
0
 11
336.0861563537321
 21
473.8829595506246
 31
0
  0
LINE
  8
1
 62
2
 10
336.9194896870655
 20
477.6329595506246
 30
0
 11
334.4194896870655
 21
477.6329595506246
 31
0
  0
LINE
  8
1
 62
2
 10
335.0861563537321
 20
475.7579595506246
 30
0
 11
335.9194896870655
 21
477.4454595506246
 31
0
  0
LINE
  8
1
 62
2
 10
334.0861563537321
 20
474.6329595506246
 30
0
 11
335.0861563537321
 21
475.7579595506246
 31
0
  0
LINE
  8
1
 62
2
 10
333.0861563537321
 20
477.6329595506246
 30
0
 11
333.9194896870655
 21
476.3204595506246
 31
0
  0
LINE
  8
1
 62
2
 10
332.5861563537321
 20
476.5079595506246
 30
0
 11
333.0861563537321
 21
477.6329595506246
 31
0
  0
LINE
  8
1
 62
2
 10
331.9194896870655
 20
475.3829595506246
 30
0
 11
332.5861563537321
 21
476.5079595506246
 31
0
  0
LINE
  8
1
 62
2
 10
333.9194896870655
 20
477.8204595506246
 30
0
 11
332.0861563537321
 21
477.8204595506246
 31
0
  0
LINE
  8
1
 62
2
 10
333.0861563537321
 20
473.5079595506246
 30
0
 11
333.0861563537321
 21
479.5079595506246
 31
0
  0
LINE
  8
1
 62
2
 10
309.5938985170068
 20
486.0875989606287
 30
0
 11
312.9272318503401
 21
486.0875989606287
 31
0
  0
LINE
  8
1
 62
2
 10
308.4272318503401
 20
483.0875989606287
 30
0
 11
313.7605651836734
 21
483.0875989606287
 31
0
  0
LINE
  8
1
 62
2
 10
309.4272318503401
 20
484.4000989606287
 30
0
 11
309.4272318503401
 21
483.0875989606287
 31
0
  0
LINE
  8
1
 62
2
 10
309.4272318503401
 20
484.5875989606287
 30
0
 11
312.7605651836734
 21
484.5875989606287
 31
0
  0
LINE
  8
1
 62
2
 10
311.0938985170068
 20
486.0875989606287
 30
0
 11
311.0938985170068
 21
481.0250989606287
 31
0
  0
LINE
  8
1
 62
2
 10
309.2605651836734
 20
485.7125989606287
 30
0
 11
308.7605651836734
 21
485.1500989606287
 31
0
  0
LINE
  8
1
 62
2
 10
309.7605651836734
 20
486.4625989606287
 30
0
 11
309.2605651836734
 21
485.7125989606287
 31
0
  0
LINE
  8
1
 62
2
 10
310.0938985170068
 20
487.0250989606287
 30
0
 11
309.7605651836734
 21
486.4625989606287
 31
0
  0
LINE
  8
1
 62
2
 10
307.4272318503401
 20
484.5875989606287
 30
0
 11
304.2605651836734
 21
484.5875989606287
 31
0
  0
LINE
  8
1
 62
2
 10
303.5938985170068
 20
484.4000989606287
 30
0
 11
302.5938985170068
 21
484.4000989606287
 31
0
  0
LINE
  8
1
 62
2
 10
302.7605651836734
 20
481.5875989606287
 30
0
 11
302.5938985170068
 21
481.4000989606287
 31
0
  0
LINE
  8
1
 62
2
 10
303.5938985170068
 20
486.0875989606287
 30
0
 11
303.0938985170068
 21
486.8375989606287
 31
0
  0
LINE
  8
1
 62
2
 10
304.5938985170068
 20
485.9000989606287
 30
0
 11
304.2605651836734
 21
485.3375989606287
 31
0
  0
LINE
  8
1
 62
2
 10
304.9272318503401
 20
486.8375989606287
 30
0
 11
304.5938985170068
 21
485.9000989606287
 31
0
  0
LINE
  8
1
 62
2
 10
307.0938985170068
 20
485.9000989606287
 30
0
 11
304.5938985170068
 21
485.9000989606287
 31
0
  0
LINE
  8
1
 62
2
 10
305.7605651836734
 20
484.5875989606287
 30
0
 11
305.7605651836734
 21
487.0250989606287
 31
0
  0
LINE
  8
1
 62
2
 10
304.9272318503401
 20
482.3375989606287
 30
0
 11
306.7605651836734
 21
482.3375989606287
 31
0
  0
LINE
  8
1
 62
2
 10
304.9272318503401
 20
483.8375989606287
 30
0
 11
304.9272318503401
 21
482.3375989606287
 31
0
  0
LINE
  8
1
 62
2
 10
306.7605651836734
 20
483.8375989606287
 30
0
 11
304.9272318503401
 21
483.8375989606287
 31
0
  0
LINE
  8
1
 62
2
 10
306.7605651836734
 20
482.3375989606287
 30
0
 11
306.7605651836734
 21
483.8375989606287
 31
0
  0
LINE
  8
1
 62
2
 10
304.2605651836734
 20
481.4000989606287
 30
0
 11
307.5938985170068
 21
481.4000989606287
 31
0
  0
LINE
  8
1
 62
2
 10
303.9272318503401
 20
481.5875989606287
 30
0
 11
304.2605651836734
 21
481.4000989606287
 31
0
  0
LINE
  8
1
 62
2
 10
303.5938985170068
 20
482.3375989606287
 30
0
 11
303.9272318503401
 21
481.5875989606287
 31
0
  0
LINE
  8
1
 62
2
 10
303.5938985170068
 20
482.3375989606287
 30
0
 11
303.5938985170068
 21
484.4000989606287
 31
0
  0
LINE
  8
1
 62
2
 10
302.7605651836734
 20
481.5875989606287
 30
0
 11
303.5938985170068
 21
482.3375989606287
 31
0
  0
LINE
  8
1
 62
2
 10
297.0938985170068
 20
484.5875989606287
 30
0
 11
298.5938985170068
 21
484.5875989606287
 31
0
  0
LINE
  8
1
 62
2
 10
300.4272318503401
 20
481.7750989606287
 30
0
 11
300.0938985170068
 21
482.7125989606287
 31
0
  0
LINE
  8
1
 62
2
 10
301.0938985170068
 20
481.0250989606287
 30
0
 11
300.4272318503401
 21
481.0250989606287
 31
0
  0
LINE
  8
1
 62
2
 10
301.0938985170068
 20
484.0250989606287
 30
0
 11
301.0938985170068
 21
481.0250989606287
 31
0
  0
LINE
  8
1
 62
2
 10
301.4272318503401
 20
485.1500989606287
 30
0
 11
299.0938985170068
 21
485.1500989606287
 31
0
  0
LINE
  8
1
 62
2
 10
298.9272318503401
 20
486.0875989606287
 30
0
 11
301.4272318503401
 21
486.0875989606287
 31
0
  0
LINE
  8
1
 62
2
 10
299.9272318503401
 20
484.4000989606287
 30
0
 11
300.0938985170068
 21
486.6500989606287
 31
0
  0
LINE
  8
1
 62
2
 10
299.4272318503401
 20
482.5250989606287
 30
0
 11
299.9272318503401
 21
484.4000989606287
 31
0
  0
LINE
  8
1
 62
2
 10
298.7605651836734
 20
481.4000989606287
 30
0
 11
299.4272318503401
 21
482.5250989606287
 31
0
  0
LINE
  8
1
 62
2
 10
301.7605651836734
 20
483.2750989606287
 30
0
 11
298.9272318503401
 21
483.2750989606287
 31
0
  0
LINE
  8
1
 62
2
 10
298.7605651836734
 20
484.4000989606287
 30
0
 11
301.7605651836734
 21
484.4000989606287
 31
0
  0
LINE
  8
1
 62
2
 10
297.7605651836734
 20
481.5875989606287
 30
0
 11
297.7605651836734
 21
484.5875989606287
 31
0
  0
LINE
  8
1
 62
2
 10
296.9272318503401
 20
483.0875989606287
 30
0
 11
297.2605651836734
 21
482.1500989606287
 31
0
  0
LINE
  8
1
 62
2
 10
297.7605651836734
 20
486.6500989606287
 30
0
 11
296.4272318503401
 21
484.0250989606287
 31
0
  0
LINE
  8
1
 62
2
 10
298.7605651836734
 20
485.5250989606287
 30
0
 11
297.7605651836734
 21
486.6500989606287
 31
0
  0
LINE
  8
1
 62
2
 10
298.5938985170068
 20
483.6500989606287
 30
0
 11
296.9272318503401
 21
483.6500989606287
 31
0
  0
LINE
  8
1
 62
2
 10
298.2605651836734
 20
482.1500989606287
 30
0
 11
298.4272318503401
 21
483.0875989606287
 31
0
  0
LINE
  8
1
 62
2
 10
296.7605651836734
 20
481.2125989606287
 30
0
 11
298.5938985170068
 21
481.9625989606287
 31
0
  0
LINE
  8
1
 62
2
 10
304.9122124448599
 20
591.766466639662
 30
0
 11
304.9122124448599
 21
585.766466639662
 31
0
  0
LINE
  8
1
 62
2
 10
303.1122124448599
 20
589.966466639662
 30
0
 11
304.9122124448599
 21
591.766466639662
 31
0
  0
LINE
  8
1
 62
2
 10
301.3122124448599
 20
591.766466639662
 30
0
 11
301.3122124448599
 21
585.766466639662
 31
0
  0
LINE
  8
1
 62
2
 10
299.5122124448599
 20
589.966466639662
 30
0
 11
301.3122124448599
 21
591.766466639662
 31
0
  0
LINE
  8
1
 62
2
 10
294.0122124448599
 20
586.141466639662
 30
0
 11
298.3455457781932
 21
586.141466639662
 31
0
  0
LINE
  8
1
 62
2
 10
296.1788791115266
 20
591.391466639662
 30
0
 11
296.1788791115266
 21
586.141466639662
 31
0
  0
LINE
  8
1
 62
2
 10
298.3455457781932
 20
586.141466639662
 30
0
 11
298.3455457781932
 21
590.078966639662
 31
0
  0
LINE
  8
1
 62
2
 10
294.0122124448599
 20
590.078966639662
 30
0
 11
294.0122124448599
 21
586.141466639662
 31
0
  0
LINE
  8
1
 62
2
 10
286.0122124448599
 20
588.166466639662
 30
0
 11
286.0122124448599
 21
585.766466639662
 31
0
  0
LINE
  8
1
 62
2
 10
283.3122124448599
 20
586.966466639662
 30
0
 11
286.91221244486
 21
586.966466639662
 31
0
  0
LINE
  8
1
 62
2
 10
286.0122124448599
 20
591.766466639662
 30
0
 11
283.3122124448599
 21
586.966466639662
 31
0
  0
LINE
  8
1
 62
2
 10
281.5122124448599
 20
591.766466639662
 30
0
 11
281.5122124448599
 21
585.766466639662
 31
0
  0
LINE
  8
1
 62
2
 10
279.7122124448599
 20
589.966466639662
 30
0
 11
281.5122124448599
 21
591.766466639662
 31
0
  0
LINE
  8
1
 62
2
 10
275.36221244486
 20
590.416466639662
 30
0
 11
277.0122124448599
 21
591.766466639662
 31
0
  0
LINE
  8
1
 62
2
 10
274.7622124448599
 20
589.666466639662
 30
0
 11
275.36221244486
 21
590.416466639662
 31
0
  0
LINE
  8
1
 62
2
 10
274.4622124448599
 20
589.0664666396619
 30
0
 11
274.7622124448599
 21
589.666466639662
 31
0
  0
LINE
  8
1
 62
2
 10
274.3122124448599
 20
587.866466639662
 30
0
 11
274.4622124448599
 21
589.0664666396619
 31
0
  0
LINE
  8
1
 62
2
 10
274.3122124448599
 20
587.266466639662
 30
0
 11
274.3122124448599
 21
587.866466639662
 31
0
  0
LINE
  8
1
 62
2
 10
274.4622124448599
 20
586.666466639662
 30
0
 11
274.3122124448599
 21
587.266466639662
 31
0
  0
LINE
  8
1
 62
2
 10
274.7622124448599
 20
586.216466639662
 30
0
 11
274.4622124448599
 21
586.666466639662
 31
0
  0
LINE
  8
1
 62
2
 10
275.2122124448599
 20
585.916466639662
 30
0
 11
274.7622124448599
 21
586.216466639662
 31
0
  0
LINE
  8
1
 62
2
 10
275.66221244486
 20
585.766466639662
 30
0
 11
275.2122124448599
 21
585.916466639662
 31
0
  0
LINE
  8
1
 62
2
 10
276.5622124448599
 20
585.766466639662
 30
0
 11
275.66221244486
 21
585.766466639662
 31
0
  0
LINE
  8
1
 62
2
 10
277.0122124448599
 20
585.916466639662
 30
0
 11
276.5622124448599
 21
585.766466639662
 31
0
  0
LINE
  8
1
 62
2
 10
277.4622124448599
 20
586.216466639662
 30
0
 11
277.0122124448599
 21
585.916466639662
 31
0
  0
LINE
  8
1
 62
2
 10
277.7622124448599
 20
586.666466639662
 30
0
 11
277.4622124448599
 21
586.216466639662
 31
0
  0
LINE
  8
1
 62
2
 10
277.91221244486
 20
587.266466639662
 30
0
 11
277.7622124448599
 21
586.666466639662
 31
0
  0
LINE
  8
1
 62
2
 10
277.91221244486
 20
587.866466639662
 30
0
 11
277.91221244486
 21
587.266466639662
 31
0
  0
LINE
  8
1
 62
2
 10
277.7622124448599
 20
588.466466639662
 30
0
 11
277.91221244486
 21
587.866466639662
 31
0
  0
LINE
  8
1
 62
2
 10
277.4622124448599
 20
588.916466639662
 30
0
 11
277.7622124448599
 21
588.466466639662
 31
0
  0
LINE
  8
1
 62
2
 10
277.0122124448599
 20
589.216466639662
 30
0
 11
277.4622124448599
 21
588.916466639662
 31
0
  0
LINE
  8
1
 62
2
 10
276.5622124448599
 20
589.366466639662
 30
0
 11
277.0122124448599
 21
589.216466639662
 31
0
  0
LINE
  8
1
 62
2
 10
275.66221244486
 20
589.366466639662
 30
0
 11
276.5622124448599
 21
589.366466639662
 31
0
  0
LINE
  8
1
 62
2
 10
275.2122124448599
 20
589.216466639662
 30
0
 11
275.66221244486
 21
589.366466639662
 31
0
  0
LINE
  8
1
 62
2
 10
274.7622124448599
 20
588.916466639662
 30
0
 11
275.2122124448599
 21
589.216466639662
 31
0
  0
LINE
  8
1
 62
2
 10
274.4622124448599
 20
588.466466639662
 30
0
 11
274.7622124448599
 21
588.916466639662
 31
0
  0
LINE
  8
1
 62
2
 10
274.3122124448599
 20
587.866466639662
 30
0
 11
274.4622124448599
 21
588.466466639662
 31
0
  0
LINE
  8
1
 62
2
 10
272.5122124448599
 20
585.766466639662
 30
0
 11
272.3622124448599
 21
585.766466639662
 31
0
  0
LINE
  8
1
 62
2
 10
272.5122124448599
 20
585.916466639662
 30
0
 11
272.5122124448599
 21
585.766466639662
 31
0
  0
LINE
  8
1
 62
2
 10
272.3622124448599
 20
585.916466639662
 30
0
 11
272.5122124448599
 21
585.916466639662
 31
0
  0
LINE
  8
1
 62
2
 10
272.3622124448599
 20
585.766466639662
 30
0
 11
272.3622124448599
 21
585.916466639662
 31
0
  0
LINE
  8
1
 62
2
 10
268.7622124448599
 20
586.366466639662
 30
0
 11
267.4122124448599
 21
585.766466639662
 31
0
  0
LINE
  8
1
 62
2
 10
269.8122124448599
 20
587.266466639662
 30
0
 11
268.7622124448599
 21
586.366466639662
 31
0
  0
LINE
  8
1
 62
2
 10
270.2622124448599
 20
587.866466639662
 30
0
 11
269.8122124448599
 21
587.266466639662
 31
0
  0
LINE
  8
1
 62
2
 10
270.4122124448599
 20
588.466466639662
 30
0
 11
270.2622124448599
 21
587.866466639662
 31
0
  0
LINE
  8
1
 62
2
 10
270.5622124448599
 20
589.216466639662
 30
0
 11
270.4122124448599
 21
588.466466639662
 31
0
  0
LINE
  8
1
 62
2
 10
270.5622124448599
 20
590.266466639662
 30
0
 11
270.5622124448599
 21
589.216466639662
 31
0
  0
LINE
  8
1
 62
2
 10
270.4122124448599
 20
590.866466639662
 30
0
 11
270.5622124448599
 21
590.266466639662
 31
0
  0
LINE
  8
1
 62
2
 10
270.1122124448599
 20
591.3164666396619
 30
0
 11
270.4122124448599
 21
590.866466639662
 31
0
  0
LINE
  8
1
 62
2
 10
269.6622124448599
 20
591.616466639662
 30
0
 11
270.1122124448599
 21
591.3164666396619
 31
0
  0
LINE
  8
1
 62
2
 10
269.2122124448599
 20
591.766466639662
 30
0
 11
269.6622124448599
 21
591.616466639662
 31
0
  0
LINE
  8
1
 62
2
 10
268.3122124448599
 20
591.766466639662
 30
0
 11
269.2122124448599
 21
591.766466639662
 31
0
  0
LINE
  8
1
 62
2
 10
267.8622124448599
 20
591.616466639662
 30
0
 11
268.3122124448599
 21
591.766466639662
 31
0
  0
LINE
  8
1
 62
2
 10
267.4122124448599
 20
591.3164666396619
 30
0
 11
267.8622124448599
 21
591.616466639662
 31
0
  0
LINE
  8
1
 62
2
 10
267.1122124448599
 20
590.866466639662
 30
0
 11
267.4122124448599
 21
591.3164666396619
 31
0
  0
LINE
  8
1
 62
2
 10
266.9622124448599
 20
590.266466639662
 30
0
 11
267.1122124448599
 21
590.866466639662
 31
0
  0
LINE
  8
1
 62
2
 10
266.9622124448599
 20
589.966466639662
 30
0
 11
266.9622124448599
 21
590.266466639662
 31
0
  0
LINE
  8
1
 62
2
 10
267.1122124448599
 20
589.366466639662
 30
0
 11
266.9622124448599
 21
589.966466639662
 31
0
  0
LINE
  8
1
 62
2
 10
267.4122124448599
 20
588.916466639662
 30
0
 11
267.1122124448599
 21
589.366466639662
 31
0
  0
LINE
  8
1
 62
2
 10
267.8622124448599
 20
588.616466639662
 30
0
 11
267.4122124448599
 21
588.916466639662
 31
0
  0
LINE
  8
1
 62
2
 10
268.3122124448599
 20
588.466466639662
 30
0
 11
267.8622124448599
 21
588.616466639662
 31
0
  0
LINE
  8
1
 62
2
 10
270.4122124448599
 20
588.466466639662
 30
0
 11
268.3122124448599
 21
588.466466639662
 31
0
  0
LINE
  8
1
 62
2
 10
263.8122124448599
 20
585.766466639662
 30
0
 11
261.5622124448599
 21
585.766466639662
 31
0
  0
LINE
  8
1
 62
2
 10
264.2622124448599
 20
585.916466639662
 30
0
 11
263.8122124448599
 21
585.766466639662
 31
0
  0
LINE
  8
1
 62
2
 10
264.7122124448599
 20
586.216466639662
 30
0
 11
264.2622124448599
 21
585.916466639662
 31
0
  0
LINE
  8
1
 62
2
 10
265.0122124448599
 20
586.666466639662
 30
0
 11
264.7122124448599
 21
586.216466639662
 31
0
  0
LINE
  8
1
 62
2
 10
265.16221244486
 20
587.266466639662
 30
0
 11
265.0122124448599
 21
586.666466639662
 31
0
  0
LINE
  8
1
 62
2
 10
265.16221244486
 20
588.166466639662
 30
0
 11
265.16221244486
 21
587.266466639662
 31
0
  0
LINE
  8
1
 62
2
 10
265.0122124448599
 20
588.766466639662
 30
0
 11
265.16221244486
 21
588.166466639662
 31
0
  0
LINE
  8
1
 62
2
 10
264.5622124448599
 20
589.216466639662
 30
0
 11
265.0122124448599
 21
588.766466639662
 31
0
  0
LINE
  8
1
 62
2
 10
263.8122124448599
 20
589.366466639662
 30
0
 11
264.5622124448599
 21
589.216466639662
 31
0
  0
LINE
  8
1
 62
2
 10
261.5622124448599
 20
589.366466639662
 30
0
 11
263.8122124448599
 21
589.366466639662
 31
0
  0
LINE
  8
1
 62
2
 10
261.5622124448599
 20
591.766466639662
 30
0
 11
261.5622124448599
 21
589.366466639662
 31
0
  0
LINE
  8
1
 62
2
 10
264.86221244486
 20
591.766466639662
 30
0
 11
261.5622124448599
 21
591.766466639662
 31
0
  0
LINE
  8
1
 62
2
 10
255.2622124448599
 20
587.641466639662
 30
0
 11
256.0955457781932
 21
586.703966639662
 31
0
  0
LINE
  8
1
 62
2
 10
254.5955457781933
 20
588.766466639662
 30
0
 11
255.2622124448599
 21
587.641466639662
 31
0
  0
LINE
  8
1
 62
2
 10
254.0955457781933
 20
590.078966639662
 30
0
 11
254.5955457781933
 21
588.766466639662
 31
0
  0
LINE
  8
1
 62
2
 10
255.5955457781933
 20
590.266466639662
 30
0
 11
254.4288791115266
 21
589.328966639662
 31
0
  0
LINE
  8
1
 62
2
 10
253.5955457781933
 20
585.766466639662
 30
0
 11
253.0955457781933
 21
585.953966639662
 31
0
  0
LINE
  8
1
 62
2
 10
253.5955457781933
 20
591.578966639662
 30
0
 11
253.5955457781933
 21
585.766466639662
 31
0
  0
LINE
  8
1
 62
2
 10
252.7622124448599
 20
589.703966639662
 30
0
 11
251.0955457781933
 21
589.703966639662
 31
0
  0
LINE
  8
1
 62
2
 10
252.4288791115266
 20
588.578966639662
 30
0
 11
252.7622124448599
 21
589.703966639662
 31
0
  0
LINE
  8
1
 62
2
 10
251.7622124448599
 20
587.453966639662
 30
0
 11
252.4288791115266
 21
588.578966639662
 31
0
  0
LINE
  8
1
 62
2
 10
251.0955457781933
 20
586.703966639662
 30
0
 11
251.7622124448599
 21
587.453966639662
 31
0
  0
LINE
  8
1
 62
2
 10
247.2622124448599
 20
591.766466639662
 30
0
 11
247.2622124448599
 21
585.953966639662
 31
0
  0
LINE
  8
1
 62
2
 10
244.7622124448599
 20
585.953966639662
 30
0
 11
250.0955457781933
 21
585.953966639662
 31
0
  0
LINE
  8
1
 62
2
 10
249.2622124448599
 20
589.516466639662
 30
0
 11
247.2622124448599
 21
589.516466639662
 31
0
  0
LINE
  8
1
 62
2
 10
297.1870296421099
 20
581.766466639662
 30
0
 11
297.1870296421099
 21
575.766466639662
 31
0
  0
LINE
  8
1
 62
2
 10
295.3870296421099
 20
579.966466639662
 30
0
 11
297.1870296421099
 21
581.766466639662
 31
0
  0
LINE
  8
1
 62
2
 10
293.5870296421099
 20
581.766466639662
 30
0
 11
293.5870296421099
 21
575.766466639662
 31
0
  0
LINE
  8
1
 62
2
 10
291.7870296421099
 20
579.966466639662
 30
0
 11
293.5870296421099
 21
581.766466639662
 31
0
  0
LINE
  8
1
 62
2
 10
286.2870296421099
 20
576.141466639662
 30
0
 11
290.6203629754432
 21
576.141466639662
 31
0
  0
LINE
  8
1
 62
2
 10
288.4536963087766
 20
581.391466639662
 30
0
 11
288.4536963087766
 21
576.141466639662
 31
0
  0
LINE
  8
1
 62
2
 10
290.6203629754432
 20
576.141466639662
 30
0
 11
290.6203629754432
 21
580.078966639662
 31
0
  0
LINE
  8
1
 62
2
 10
286.2870296421099
 20
580.078966639662
 30
0
 11
286.2870296421099
 21
576.141466639662
 31
0
  0
LINE
  8
1
 62
2
 10
279.18702964211
 20
579.516466639662
 30
0
 11
279.18702964211
 21
578.016466639662
 31
0
  0
LINE
  8
1
 62
2
 10
279.0370296421099
 20
580.416466639662
 30
0
 11
279.18702964211
 21
579.516466639662
 31
0
  0
LINE
  8
1
 62
2
 10
278.7370296421099
 20
581.016466639662
 30
0
 11
279.0370296421099
 21
580.416466639662
 31
0
  0
LINE
  8
1
 62
2
 10
278.43702964211
 20
581.3164666396619
 30
0
 11
278.7370296421099
 21
581.016466639662
 31
0
  0
LINE
  8
1
 62
2
 10
277.9870296421099
 20
581.616466639662
 30
0
 11
278.43702964211
 21
581.3164666396619
 31
0
  0
LINE
  8
1
 62
2
 10
277.5370296421099
 20
581.766466639662
 30
0
 11
277.9870296421099
 21
581.616466639662
 31
0
  0
LINE
  8
1
 62
2
 10
277.2370296421099
 20
581.766466639662
 30
0
 11
277.5370296421099
 21
581.766466639662
 31
0
  0
LINE
  8
1
 62
2
 10
276.7870296421099
 20
581.616466639662
 30
0
 11
277.2370296421099
 21
581.766466639662
 31
0
  0
LINE
  8
1
 62
2
 10
276.3370296421099
 20
581.3164666396619
 30
0
 11
276.7870296421099
 21
581.616466639662
 31
0
  0
LINE
  8
1
 62
2
 10
276.0370296421099
 20
581.016466639662
 30
0
 11
276.3370296421099
 21
581.3164666396619
 31
0
  0
LINE
  8
1
 62
2
 10
275.7370296421099
 20
580.416466639662
 30
0
 11
276.0370296421099
 21
581.016466639662
 31
0
  0
LINE
  8
1
 62
2
 10
275.5870296421099
 20
579.516466639662
 30
0
 11
275.7370296421099
 21
580.416466639662
 31
0
  0
LINE
  8
1
 62
2
 10
275.5870296421099
 20
578.016466639662
 30
0
 11
275.5870296421099
 21
579.516466639662
 31
0
  0
LINE
  8
1
 62
2
 10
275.7370296421099
 20
577.116466639662
 30
0
 11
275.5870296421099
 21
578.016466639662
 31
0
  0
LINE
  8
1
 62
2
 10
276.0370296421099
 20
576.516466639662
 30
0
 11
275.7370296421099
 21
577.116466639662
 31
0
  0
LINE
  8
1
 62
2
 10
276.3370296421099
 20
576.216466639662
 30
0
 11
276.0370296421099
 21
576.516466639662
 31
0
  0
LINE
  8
1
 62
2
 10
276.7870296421099
 20
575.916466639662
 30
0
 11
276.3370296421099
 21
576.216466639662
 31
0
  0
LINE
  8
1
 62
2
 10
277.2370296421099
 20
575.766466639662
 30
0
 11
276.7870296421099
 21
575.916466639662
 31
0
  0
LINE
  8
1
 62
2
 10
277.5370296421099
 20
575.766466639662
 30
0
 11
277.2370296421099
 21
575.766466639662
 31
0
  0
LINE
  8
1
 62
2
 10
277.9870296421099
 20
575.916466639662
 30
0
 11
277.5370296421099
 21
575.766466639662
 31
0
  0
LINE
  8
1
 62
2
 10
278.43702964211
 20
576.216466639662
 30
0
 11
277.9870296421099
 21
575.916466639662
 31
0
  0
LINE
  8
1
 62
2
 10
278.7370296421099
 20
576.516466639662
 30
0
 11
278.43702964211
 21
576.216466639662
 31
0
  0
LINE
  8
1
 62
2
 10
279.0370296421099
 20
577.116466639662
 30
0
 11
278.7370296421099
 21
576.516466639662
 31
0
  0
LINE
  8
1
 62
2
 10
279.18702964211
 20
578.016466639662
 30
0
 11
279.0370296421099
 21
577.116466639662
 31
0
  0
LINE
  8
1
 62
2
 10
273.7870296421099
 20
575.766466639662
 30
0
 11
273.6370296421099
 21
575.766466639662
 31
0
  0
LINE
  8
1
 62
2
 10
273.7870296421099
 20
575.916466639662
 30
0
 11
273.7870296421099
 21
575.766466639662
 31
0
  0
LINE
  8
1
 62
2
 10
273.6370296421099
 20
575.916466639662
 30
0
 11
273.7870296421099
 21
575.916466639662
 31
0
  0
LINE
  8
1
 62
2
 10
273.6370296421099
 20
575.766466639662
 30
0
 11
273.6370296421099
 21
575.916466639662
 31
0
  0
LINE
  8
1
 62
2
 10
269.2870296421099
 20
580.416466639662
 30
0
 11
270.9370296421099
 21
581.766466639662
 31
0
  0
LINE
  8
1
 62
2
 10
268.6870296421099
 20
579.666466639662
 30
0
 11
269.2870296421099
 21
580.416466639662
 31
0
  0
LINE
  8
1
 62
2
 10
268.3870296421099
 20
579.0664666396619
 30
0
 11
268.6870296421099
 21
579.666466639662
 31
0
  0
LINE
  8
1
 62
2
 10
268.2370296421099
 20
577.866466639662
 30
0
 11
268.3870296421099
 21
579.0664666396619
 31
0
  0
LINE
  8
1
 62
2
 10
268.2370296421099
 20
577.266466639662
 30
0
 11
268.2370296421099
 21
577.866466639662
 31
0
  0
LINE
  8
1
 62
2
 10
268.3870296421099
 20
576.666466639662
 30
0
 11
268.2370296421099
 21
577.266466639662
 31
0
  0
LINE
  8
1
 62
2
 10
268.6870296421099
 20
576.216466639662
 30
0
 11
268.3870296421099
 21
576.666466639662
 31
0
  0
LINE
  8
1
 62
2
 10
269.1370296421099
 20
575.916466639662
 30
0
 11
268.6870296421099
 21
576.216466639662
 31
0
  0
LINE
  8
1
 62
2
 10
269.5870296421099
 20
575.766466639662
 30
0
 11
269.1370296421099
 21
575.916466639662
 31
0
  0
LINE
  8
1
 62
2
 10
270.4870296421099
 20
575.766466639662
 30
0
 11
269.5870296421099
 21
575.766466639662
 31
0
  0
LINE
  8
1
 62
2
 10
270.9370296421099
 20
575.916466639662
 30
0
 11
270.4870296421099
 21
575.766466639662
 31
0
  0
LINE
  8
1
 62
2
 10
271.3870296421099
 20
576.216466639662
 30
0
 11
270.9370296421099
 21
575.916466639662
 31
0
  0
LINE
  8
1
 62
2
 10
271.6870296421099
 20
576.666466639662
 30
0
 11
271.3870296421099
 21
576.216466639662
 31
0
  0
LINE
  8
1
 62
2
 10
271.8370296421099
 20
577.266466639662
 30
0
 11
271.6870296421099
 21
576.666466639662
 31
0
  0
LINE
  8
1
 62
2
 10
271.8370296421099
 20
577.866466639662
 30
0
 11
271.8370296421099
 21
577.266466639662
 31
0
  0
LINE
  8
1
 62
2
 10
271.6870296421099
 20
578.466466639662
 30
0
 11
271.8370296421099
 21
577.866466639662
 31
0
  0
LINE
  8
1
 62
2
 10
271.3870296421099
 20
578.916466639662
 30
0
 11
271.6870296421099
 21
578.466466639662
 31
0
  0
LINE
  8
1
 62
2
 10
270.9370296421099
 20
579.216466639662
 30
0
 11
271.3870296421099
 21
578.916466639662
 31
0
  0
LINE
  8
1
 62
2
 10
270.4870296421099
 20
579.366466639662
 30
0
 11
270.9370296421099
 21
579.216466639662
 31
0
  0
LINE
  8
1
 62
2
 10
269.5870296421099
 20
579.366466639662
 30
0
 11
270.4870296421099
 21
579.366466639662
 31
0
  0
LINE
  8
1
 62
2
 10
269.1370296421099
 20
579.216466639662
 30
0
 11
269.5870296421099
 21
579.366466639662
 31
0
  0
LINE
  8
1
 62
2
 10
268.6870296421099
 20
578.916466639662
 30
0
 11
269.1370296421099
 21
579.216466639662
 31
0
  0
LINE
  8
1
 62
2
 10
268.3870296421099
 20
578.466466639662
 30
0
 11
268.6870296421099
 21
578.916466639662
 31
0
  0
LINE
  8
1
 62
2
 10
268.2370296421099
 20
577.866466639662
 30
0
 11
268.3870296421099
 21
578.466466639662
 31
0
  0
LINE
  8
1
 62
2
 10
265.0870296421099
 20
575.766466639662
 30
0
 11
262.8370296421099
 21
575.766466639662
 31
0
  0
LINE
  8
1
 62
2
 10
265.5370296421099
 20
575.916466639662
 30
0
 11
265.0870296421099
 21
575.766466639662
 31
0
  0
LINE
  8
1
 62
2
 10
265.9870296421099
 20
576.216466639662
 30
0
 11
265.5370296421099
 21
575.916466639662
 31
0
  0
LINE
  8
1
 62
2
 10
266.2870296421099
 20
576.666466639662
 30
0
 11
265.9870296421099
 21
576.216466639662
 31
0
  0
LINE
  8
1
 62
2
 10
266.43702964211
 20
577.266466639662
 30
0
 11
266.2870296421099
 21
576.666466639662
 31
0
  0
LINE
  8
1
 62
2
 10
266.43702964211
 20
578.166466639662
 30
0
 11
266.43702964211
 21
577.266466639662
 31
0
  0
LINE
  8
1
 62
2
 10
266.2870296421099
 20
578.766466639662
 30
0
 11
266.43702964211
 21
578.166466639662
 31
0
  0
LINE
  8
1
 62
2
 10
265.8370296421099
 20
579.216466639662
 30
0
 11
266.2870296421099
 21
578.766466639662
 31
0
  0
LINE
  8
1
 62
2
 10
265.0870296421099
 20
579.366466639662
 30
0
 11
265.8370296421099
 21
579.216466639662
 31
0
  0
LINE
  8
1
 62
2
 10
262.8370296421099
 20
579.366466639662
 30
0
 11
265.0870296421099
 21
579.366466639662
 31
0
  0
LINE
  8
1
 62
2
 10
262.8370296421099
 20
581.766466639662
 30
0
 11
262.8370296421099
 21
579.366466639662
 31
0
  0
LINE
  8
1
 62
2
 10
266.13702964211
 20
581.766466639662
 30
0
 11
262.8370296421099
 21
581.766466639662
 31
0
  0
LINE
  8
1
 62
2
 10
252.5370296421099
 20
575.953966639662
 30
0
 11
252.5370296421099
 21
581.391466639662
 31
0
  0
LINE
  8
1
 62
2
 10
254.2036963087766
 20
581.391466639662
 30
0
 11
254.2036963087766
 21
579.516466639662
 31
0
  0
LINE
  8
1
 62
2
 10
256.8703629754432
 20
576.141466639662
 30
0
 11
256.8703629754432
 21
581.391466639662
 31
0
  0
LINE
  8
1
 62
2
 10
255.2036963087766
 20
581.391466639662
 30
0
 11
255.2036963087766
 21
579.516466639662
 31
0
  0
LINE
  8
1
 62
2
 10
255.2036963087766
 20
580.453966639662
 30
0
 11
256.8703629754432
 21
580.453966639662
 31
0
  0
LINE
  8
1
 62
2
 10
255.2036963087766
 20
579.516466639662
 30
0
 11
256.8703629754432
 21
579.516466639662
 31
0
  0
LINE
  8
1
 62
2
 10
256.8703629754432
 20
581.391466639662
 30
0
 11
255.2036963087766
 21
581.391466639662
 31
0
  0
LINE
  8
1
 62
2
 10
256.7036963087766
 20
575.953966639662
 30
0
 11
256.8703629754432
 21
576.141466639662
 31
0
  0
LINE
  8
1
 62
2
 10
256.2036963087766
 20
575.953966639662
 30
0
 11
256.7036963087766
 21
575.953966639662
 31
0
  0
LINE
  8
1
 62
2
 10
254.2036963087766
 20
580.453966639662
 30
0
 11
252.5370296421099
 21
580.453966639662
 31
0
  0
LINE
  8
1
 62
2
 10
254.2036963087766
 20
579.516466639662
 30
0
 11
252.5370296421099
 21
579.516466639662
 31
0
  0
LINE
  8
1
 62
2
 10
252.5370296421099
 20
581.391466639662
 30
0
 11
254.2036963087766
 21
581.391466639662
 31
0
  0
LINE
  8
1
 62
2
 10
246.5370296421099
 20
575.953966639662
 30
0
 11
250.7036963087766
 21
575.953966639662
 31
0
  0
LINE
  8
1
 62
2
 10
247.5370296421099
 20
579.516466639662
 30
0
 11
249.8703629754433
 21
579.516466639662
 31
0
  0
LINE
  8
1
 62
2
 10
250.7036963087766
 20
579.328966639662
 30
0
 11
251.3703629754433
 21
578.766466639662
 31
0
  0
LINE
  8
1
 62
2
 10
249.5370296421099
 20
580.641466639662
 30
0
 11
250.7036963087766
 21
579.328966639662
 31
0
  0
LINE
  8
1
 62
2
 10
248.7036963087766
 20
581.766466639662
 30
0
 11
249.5370296421099
 21
580.641466639662
 31
0
  0
LINE
  8
1
 62
2
 10
247.8703629754433
 20
580.641466639662
 30
0
 11
248.7036963087766
 21
581.766466639662
 31
0
  0
LINE
  8
1
 62
2
 10
246.7036963087766
 20
579.328966639662
 30
0
 11
247.8703629754433
 21
580.641466639662
 31
0
  0
LINE
  8
1
 62
2
 10
246.0370296421099
 20
578.766466639662
 30
0
 11
246.7036963087766
 21
579.328966639662
 31
0
  0
LINE
  8
1
 62
2
 10
249.5370296421099
 20
576.703966639662
 30
0
 11
249.8703629754433
 21
577.641466639662
 31
0
  0
LINE
  8
1
 62
2
 10
247.5370296421099
 20
577.641466639662
 30
0
 11
247.8703629754433
 21
576.703966639662
 31
0
  0
LINE
  8
1
 62
2
 10
250.3703629754433
 20
578.391466639662
 30
0
 11
247.0370296421099
 21
578.391466639662
 31
0
  0
LINE
  8
1
 62
2
 10
248.7036963087766
 20
575.953966639662
 30
0
 11
248.7036963087766
 21
579.516466639662
 31
0
  0
LINE
  8
1
 62
2
 10
321.7566756436608
 20
472.6212484880388
 30
0
 11
321.1566756436608
 21
471.4212484880387
 31
0
  0
LINE
  8
1
 62
2
 10
322.0566756436608
 20
473.8212484880387
 30
0
 11
321.7566756436608
 21
472.6212484880388
 31
0
  0
LINE
  8
1
 62
2
 10
322.0566756436608
 20
475.0212484880387
 30
0
 11
322.0566756436608
 21
473.8212484880387
 31
0
  0
LINE
  8
1
 62
2
 10
321.7566756436608
 20
476.2212484880387
 30
0
 11
322.0566756436608
 21
475.0212484880387
 31
0
  0
LINE
  8
1
 62
2
 10
321.1566756436608
 20
477.4212484880387
 30
0
 11
321.7566756436608
 21
476.2212484880387
 31
0
  0
LINE
  8
1
 62
2
 10
315.4900089769941
 20
475.7337484880387
 30
0
 11
317.1566756436608
 21
475.7337484880387
 31
0
  0
LINE
  8
1
 62
2
 10
316.3233423103275
 20
477.2337484880387
 30
0
 11
316.3233423103275
 21
471.6087484880387
 31
0
  0
LINE
  8
1
 62
2
 10
318.4900089769941
 20
475.1712484880387
 30
0
 11
320.4900089769941
 21
475.1712484880387
 31
0
  0
LINE
  8
1
 62
2
 10
319.4900089769941
 20
471.6087484880387
 30
0
 11
318.9900089769941
 21
471.6087484880387
 31
0
  0
LINE
  8
1
 62
2
 10
319.6566756436608
 20
471.9837484880387
 30
0
 11
319.4900089769941
 21
471.6087484880387
 31
0
  0
LINE
  8
1
 62
2
 10
319.6566756436608
 20
475.1712484880387
 30
0
 11
319.6566756436608
 21
471.9837484880387
 31
0
  0
LINE
  8
1
 62
2
 10
318.6566756436608
 20
476.6712484880387
 30
0
 11
320.1566756436608
 21
476.6712484880387
 31
0
  0
LINE
  8
1
 62
2
 10
317.8233423103275
 20
474.6087484880387
 30
0
 11
317.8233423103275
 21
471.6087484880387
 31
0
  0
LINE
  8
1
 62
2
 10
317.4900089769941
 20
474.0462484880387
 30
0
 11
316.9900089769941
 21
473.4837484880387
 31
0
  0
LINE
  8
1
 62
2
 10
318.4900089769941
 20
475.9212484880387
 30
0
 11
317.4900089769941
 21
474.0462484880387
 31
0
  0
LINE
  8
1
 62
2
 10
318.1566756436608
 20
477.0462484880387
 30
0
 11
317.3233423103275
 21
475.7337484880387
 31
0
  0
LINE
  8
1
 62
2
 10
316.3233423103275
 20
475.7337484880387
 30
0
 11
316.9900089769941
 21
474.2337484880387
 31
0
  0
LINE
  8
1
 62
2
 10
315.4900089769941
 20
473.6712484880387
 30
0
 11
315.3233423103275
 21
473.2962484880387
 31
0
  0
LINE
  8
1
 62
2
 10
315.8233423103275
 20
474.2337484880387
 30
0
 11
315.4900089769941
 21
473.6712484880387
 31
0
  0
LINE
  8
1
 62
2
 10
316.3233423103275
 20
475.7337484880387
 30
0
 11
315.8233423103275
 21
474.2337484880387
 31
0
  0
LINE
  8
1
 62
2
 10
309.6566756436608
 20
471.4212484880387
 30
0
 11
313.9900089769941
 21
471.4212484880387
 31
0
  0
LINE
  8
1
 62
2
 10
309.8233423103275
 20
472.5462484880387
 30
0
 11
309.6566756436608
 21
471.4212484880387
 31
0
  0
LINE
  8
1
 62
2
 10
309.9900089769941
 20
472.9212484880387
 30
0
 11
309.8233423103275
 21
472.5462484880387
 31
0
  0
LINE
  8
1
 62
2
 10
310.4900089769941
 20
473.2962484880387
 30
0
 11
309.9900089769941
 21
472.9212484880387
 31
0
  0
LINE
  8
1
 62
2
 10
313.1566756436608
 20
473.6712484880387
 30
0
 11
310.4900089769941
 21
473.2962484880387
 31
0
  0
LINE
  8
1
 62
2
 10
313.8233423103275
 20
474.0462484880387
 30
0
 11
313.1566756436608
 21
473.6712484880387
 31
0
  0
LINE
  8
1
 62
2
 10
313.9900089769941
 20
474.4212484880387
 30
0
 11
313.8233423103275
 21
474.0462484880387
 31
0
  0
LINE
  8
1
 62
2
 10
313.9900089769941
 20
475.3587484880387
 30
0
 11
313.9900089769941
 21
474.4212484880387
 31
0
  0
LINE
  8
1
 62
2
 10
313.8233423103275
 20
475.7337484880387
 30
0
 11
313.9900089769941
 21
475.3587484880387
 31
0
  0
LINE
  8
1
 62
2
 10
313.1566756436608
 20
476.1087484880387
 30
0
 11
313.8233423103275
 21
475.7337484880387
 31
0
  0
LINE
  8
1
 62
2
 10
312.4900089769941
 20
476.2962484880387
 30
0
 11
313.1566756436608
 21
476.1087484880387
 31
0
  0
LINE
  8
1
 62
2
 10
311.3233423103275
 20
476.2962484880387
 30
0
 11
312.4900089769941
 21
476.2962484880387
 31
0
  0
LINE
  8
1
 62
2
 10
310.6566756436608
 20
476.1087484880387
 30
0
 11
311.3233423103275
 21
476.2962484880387
 31
0
  0
LINE
  8
1
 62
2
 10
309.9900089769941
 20
475.7337484880387
 30
0
 11
310.6566756436608
 21
476.1087484880387
 31
0
  0
LINE
  8
1
 62
2
 10
309.8233423103275
 20
475.3587484880387
 30
0
 11
309.9900089769941
 21
475.7337484880387
 31
0
  0
LINE
  8
1
 62
2
 10
308.3233423103275
 20
476.6712484880387
 30
0
 11
303.3233423103275
 21
476.6712484880387
 31
0
  0
LINE
  8
1
 62
2
 10
306.6566756436608
 20
475.3587484880387
 30
0
 11
307.6566756436608
 21
474.2337484880387
 31
0
  0
LINE
  8
1
 62
2
 10
305.8233423103275
 20
471.4212484880387
 30
0
 11
305.8233423103275
 21
476.6712484880387
 31
0
  0
LINE
  8
1
 62
2
 10
298.9900089769941
 20
476.8587484880387
 30
0
 11
298.9900089769941
 21
474.0462484880387
 31
0
  0
LINE
  8
1
 62
2
 10
302.1566756436608
 20
475.9212484880387
 30
0
 11
300.1566756436608
 21
475.9212484880387
 31
0
  0
LINE
  8
1
 62
2
 10
301.1566756436608
 20
476.8587484880387
 30
0
 11
301.1566756436608
 21
474.0462484880387
 31
0
  0
LINE
  8
1
 62
2
 10
298.8233423103275
 20
473.4837484880387
 30
0
 11
298.8233423103275
 21
471.6087484880387
 31
0
  0
LINE
  8
1
 62
2
 10
301.4900089769941
 20
471.6087484880387
 30
0
 11
301.4900089769941
 21
473.4837484880387
 31
0
  0
LINE
  8
1
 62
2
 10
298.8233423103275
 20
472.5462484880387
 30
0
 11
301.4900089769941
 21
472.5462484880387
 31
0
  0
LINE
  8
1
 62
2
 10
298.8233423103275
 20
471.6087484880387
 30
0
 11
301.4900089769941
 21
471.6087484880387
 31
0
  0
LINE
  8
1
 62
2
 10
301.4900089769941
 20
473.4837484880387
 30
0
 11
298.8233423103275
 21
473.4837484880387
 31
0
  0
LINE
  8
1
 62
2
 10
301.6566756436608
 20
475.1712484880387
 30
0
 11
302.4900089769941
 21
474.2337484880387
 31
0
  0
LINE
  8
1
 62
2
 10
301.1566756436608
 20
475.9212484880387
 30
0
 11
301.6566756436608
 21
475.1712484880387
 31
0
  0
LINE
  8
1
 62
2
 10
300.3233423103275
 20
474.6087484880387
 30
0
 11
301.1566756436608
 21
475.9212484880387
 31
0
  0
LINE
  8
1
 62
2
 10
299.8233423103275
 20
474.2337484880387
 30
0
 11
300.3233423103275
 21
474.6087484880387
 31
0
  0
LINE
  8
1
 62
2
 10
299.3233423103275
 20
475.3587484880387
 30
0
 11
299.8233423103275
 21
474.7962484880387
 31
0
  0
LINE
  8
1
 62
2
 10
298.4900089769941
 20
474.9837484880387
 30
0
 11
298.9900089769941
 21
475.9212484880387
 31
0
  0
LINE
  8
1
 62
2
 10
297.9900089769941
 20
474.4212484880387
 30
0
 11
298.4900089769941
 21
474.9837484880387
 31
0
  0
LINE
  8
1
 62
2
 10
299.8233423103275
 20
475.9212484880387
 30
0
 11
298.1566756436608
 21
475.9212484880387
 31
0
  0
LINE
  8
1
 62
2
 10
297.4900089769941
 20
477.2337484880387
 30
0
 11
302.1566756436608
 21
477.2337484880387
 31
0
  0
LINE
  8
1
 62
2
 10
297.4900089769941
 20
474.0462484880387
 30
0
 11
297.4900089769941
 21
477.2337484880387
 31
0
  0
LINE
  8
1
 62
2
 10
297.3233423103275
 20
472.3587484880387
 30
0
 11
297.4900089769941
 21
474.0462484880387
 31
0
  0
LINE
  8
1
 62
2
 10
297.1566756436608
 20
471.7962484880387
 30
0
 11
297.3233423103275
 21
472.3587484880387
 31
0
  0
LINE
  8
1
 62
2
 10
291.3233423103275
 20
476.8587484880387
 30
0
 11
296.3233423103275
 21
476.8587484880387
 31
0
  0
LINE
  8
1
 62
2
 10
295.3233423103275
 20
473.4837484880387
 30
0
 11
295.4900089769941
 21
473.8587484880387
 31
0
  0
LINE
  8
1
 62
2
 10
294.4900089769941
 20
473.4837484880387
 30
0
 11
295.3233423103275
 21
473.4837484880387
 31
0
  0
LINE
  8
1
 62
2
 10
294.3233423103275
 20
473.8587484880387
 30
0
 11
294.4900089769941
 21
473.4837484880387
 31
0
  0
LINE
  8
1
 62
2
 10
294.3233423103275
 20
476.8587484880387
 30
0
 11
294.3233423103275
 21
473.8587484880387
 31
0
  0
LINE
  8
1
 62
2
 10
293.1566756436608
 20
474.7962484880387
 30
0
 11
293.1566756436608
 21
476.8587484880387
 31
0
  0
LINE
  8
1
 62
2
 10
292.6566756436608
 20
473.6712484880387
 30
0
 11
293.1566756436608
 21
474.7962484880387
 31
0
  0
LINE
  8
1
 62
2
 10
292.1566756436608
 20
473.1087484880387
 30
0
 11
292.6566756436608
 21
473.6712484880387
 31
0
  0
LINE
  8
1
 62
2
 10
295.8233423103275
 20
471.7962484880387
 30
0
 11
291.8233423103275
 21
471.7962484880387
 31
0
  0
LINE
  8
1
 62
2
 10
295.8233423103275
 20
475.3587484880387
 30
0
 11
295.8233423103275
 21
471.7962484880387
 31
0
  0
LINE
  8
1
 62
2
 10
291.8233423103275
 20
475.3587484880387
 30
0
 11
295.8233423103275
 21
475.3587484880387
 31
0
  0
LINE
  8
1
 62
2
 10
291.8233423103275
 20
471.7962484880387
 30
0
 11
291.8233423103275
 21
475.3587484880387
 31
0
  0
LINE
  8
1
 62
2
 10
288.7566756436608
 20
472.6212484880388
 30
0
 11
289.3566756436608
 21
471.4212484880387
 31
0
  0
LINE
  8
1
 62
2
 10
288.4566756436608
 20
473.8212484880387
 30
0
 11
288.7566756436608
 21
472.6212484880388
 31
0
  0
LINE
  8
1
 62
2
 10
288.4566756436608
 20
475.0212484880387
 30
0
 11
288.4566756436608
 21
473.8212484880387
 31
0
  0
LINE
  8
1
 62
2
 10
288.7566756436608
 20
476.2212484880387
 30
0
 11
288.4566756436608
 21
475.0212484880387
 31
0
  0
LINE
  8
1
 62
2
 10
289.3566756436608
 20
477.4212484880387
 30
0
 11
288.7566756436608
 21
476.2212484880387
 31
0
  0
LINE
  8
1
 62
2
 10
347.6639510059805
 20
798.5229247640307
 30
0
 11
348.3306176726472
 21
799.4604247640307
 31
0
  0
LINE
  8
1
 62
2
 10
346.9972843393138
 20
798.5229247640307
 30
0
 11
347.6639510059805
 21
798.5229247640307
 31
0
  0
LINE
  8
1
 62
2
 10
346.8306176726472
 20
799.0854247640307
 30
0
 11
346.9972843393138
 21
798.5229247640307
 31
0
  0
LINE
  8
1
 62
2
 10
346.8306176726472
 20
800.3979247640307
 30
0
 11
346.8306176726472
 21
799.0854247640307
 31
0
  0
LINE
  8
1
 62
2
 10
346.4972843393138
 20
801.1479247640307
 30
0
 11
346.8306176726472
 21
800.3979247640307
 31
0
  0
LINE
  8
1
 62
2
 10
345.8306176726472
 20
801.1479247640307
 30
0
 11
346.4972843393138
 21
801.1479247640307
 31
0
  0
LINE
  8
1
 62
2
 10
345.1639510059805
 20
800.5854247640307
 30
0
 11
345.8306176726472
 21
801.1479247640307
 31
0
  0
LINE
  8
1
 62
2
 10
344.6639510059805
 20
799.8354247640307
 30
0
 11
345.1639510059805
 21
800.5854247640307
 31
0
  0
LINE
  8
1
 62
2
 10
345.8306176726472
 20
802.0854247640307
 30
0
 11
346.4972843393138
 21
803.2104247640307
 31
0
  0
LINE
  8
1
 62
2
 10
344.8306176726472
 20
800.2104247640307
 30
0
 11
345.8306176726472
 21
802.0854247640307
 31
0
  0
LINE
  8
1
 62
2
 10
344.1639510059805
 20
798.5229247640307
 30
0
 11
344.8306176726472
 21
800.2104247640307
 31
0
  0
LINE
  8
1
 62
2
 10
340.4972843393138
 20
798.7104247640307
 30
0
 11
341.8306176726472
 21
798.7104247640307
 31
0
  0
LINE
  8
1
 62
2
 10
339.6639510059805
 20
798.8979247640307
 30
0
 11
340.4972843393138
 21
798.7104247640307
 31
0
  0
LINE
  8
1
 62
2
 10
339.3306176726472
 20
800.3979247640307
 30
0
 11
339.6639510059805
 21
798.8979247640307
 31
0
  0
LINE
  8
1
 62
2
 10
339.3306176726472
 20
802.6479247640307
 30
0
 11
339.3306176726472
 21
800.3979247640307
 31
0
  0
LINE
  8
1
 62
2
 10
341.1639510059805
 20
801.3354247640307
 30
0
 11
341.1639510059805
 21
803.2104247640307
 31
0
  0
LINE
  8
1
 62
2
 10
340.9972843393138
 20
800.0229247640307
 30
0
 11
341.1639510059805
 21
801.3354247640307
 31
0
  0
LINE
  8
1
 62
2
 10
341.6639510059805
 20
801.7104247640307
 30
0
 11
342.6639510059805
 21
801.7104247640307
 31
0
  0
LINE
  8
1
 62
2
 10
339.9972843393138
 20
801.5229247640307
 30
0
 11
341.6639510059805
 21
801.7104247640307
 31
0
  0
LINE
  8
1
 62
2
 10
337.9972843393138
 20
800.9604247640307
 30
0
 11
339.9972843393138
 21
801.5229247640307
 31
0
  0
LINE
  8
1
 62
2
 10
334.8306176726472
 20
799.0854247640307
 30
0
 11
335.4972843393138
 21
798.5229247640307
 31
0
  0
LINE
  8
1
 62
2
 10
333.9972843393138
 20
799.4604247640307
 30
0
 11
334.8306176726472
 21
799.0854247640307
 31
0
  0
LINE
  8
1
 62
2
 10
333.1639510059805
 20
799.2729247640307
 30
0
 11
333.9972843393138
 21
799.4604247640307
 31
0
  0
LINE
  8
1
 62
2
 10
332.8306176726472
 20
798.8979247640307
 30
0
 11
333.1639510059805
 21
799.2729247640307
 31
0
  0
LINE
  8
1
 62
2
 10
332.9972843393138
 20
798.5229247640307
 30
0
 11
332.8306176726472
 21
798.8979247640307
 31
0
  0
LINE
  8
1
 62
2
 10
333.6639510059805
 20
798.3354247640307
 30
0
 11
332.9972843393138
 21
798.5229247640307
 31
0
  0
LINE
  8
1
 62
2
 10
334.3306176726472
 20
798.7104247640307
 30
0
 11
333.6639510059805
 21
798.3354247640307
 31
0
  0
LINE
  8
1
 62
2
 10
334.6639510059805
 20
799.4604247640307
 30
0
 11
334.3306176726472
 21
798.7104247640307
 31
0
  0
LINE
  8
1
 62
2
 10
334.4972843393138
 20
802.0854247640307
 30
0
 11
334.6639510059805
 21
799.4604247640307
 31
0
  0
LINE
  8
1
 62
2
 10
334.4972843393138
 20
803.5854247640307
 30
0
 11
334.4972843393138
 21
802.0854247640307
 31
0
  0
LINE
  8
1
 62
2
 10
334.3306176726472
 20
802.4604247640307
 30
0
 11
333.3306176726472
 21
802.4604247640307
 31
0
  0
LINE
  8
1
 62
2
 10
335.4972843393138
 20
802.6479247640307
 30
0
 11
334.3306176726472
 21
802.4604247640307
 31
0
  0
LINE
  8
1
 62
2
 10
334.3306176726472
 20
801.1479247640307
 30
0
 11
335.6639510059805
 21
801.5229247640307
 31
0
  0
LINE
  8
1
 62
2
 10
332.8306176726472
 20
801.1479247640307
 30
0
 11
334.3306176726472
 21
801.1479247640307
 31
0
  0
LINE
  8
1
 62
2
 10
327.4972843393138
 20
800.7729247640307
 30
0
 11
327.4972843393138
 21
802.2729247640307
 31
0
  0
LINE
  8
1
 62
2
 10
329.1639510059805
 20
799.2729247640307
 30
0
 11
328.3306176726472
 21
798.3354247640307
 31
0
  0
LINE
  8
1
 62
2
 10
329.4972843393138
 20
800.5854247640307
 30
0
 11
329.1639510059805
 21
799.2729247640307
 31
0
  0
LINE
  8
1
 62
2
 10
329.4972843393138
 20
801.5229247640307
 30
0
 11
329.4972843393138
 21
800.5854247640307
 31
0
  0
LINE
  8
1
 62
2
 10
329.3306176726472
 20
802.6479247640307
 30
0
 11
329.4972843393138
 21
801.5229247640307
 31
0
  0
LINE
  8
1
 62
2
 10
328.9972843393138
 20
803.2104247640307
 30
0
 11
329.3306176726472
 21
802.6479247640307
 31
0
  0
LINE
  8
1
 62
2
 10
328.4972843393138
 20
803.2104247640307
 30
0
 11
328.9972843393138
 21
803.2104247640307
 31
0
  0
LINE
  8
1
 62
2
 10
327.8306176726472
 20
802.6479247640307
 30
0
 11
328.4972843393138
 21
803.2104247640307
 31
0
  0
LINE
  8
1
 62
2
 10
327.4972843393138
 20
801.8979247640307
 30
0
 11
327.8306176726472
 21
802.6479247640307
 31
0
  0
LINE
  8
1
 62
2
 10
327.4972843393138
 20
802.2729247640307
 30
0
 11
327.6639510059805
 21
803.3979247640307
 31
0
  0
LINE
  8
1
 62
2
 10
327.6639510059805
 20
800.0229247640307
 30
0
 11
327.4972843393138
 21
800.7729247640307
 31
0
  0
LINE
  8
1
 62
2
 10
323.4972843393138
 20
798.7104247640307
 30
0
 11
322.6639510059805
 21
798.3354247640307
 31
0
  0
LINE
  8
1
 62
2
 10
324.1639510059805
 20
799.4604247640307
 30
0
 11
323.4972843393138
 21
798.7104247640307
 31
0
  0
LINE
  8
1
 62
2
 10
324.1639510059805
 20
800.3979247640307
 30
0
 11
324.1639510059805
 21
799.4604247640307
 31
0
  0
LINE
  8
1
 62
2
 10
323.8306176726472
 20
800.9604247640307
 30
0
 11
324.1639510059805
 21
800.3979247640307
 31
0
  0
LINE
  8
1
 62
2
 10
322.9972843393138
 20
801.3354247640307
 30
0
 11
323.8306176726472
 21
800.9604247640307
 31
0
  0
LINE
  8
1
 62
2
 10
321.6639510059805
 20
800.9604247640307
 30
0
 11
322.9972843393138
 21
801.3354247640307
 31
0
  0
LINE
  8
1
 62
2
 10
320.8306176726472
 20
800.2104247640307
 30
0
 11
321.6639510059805
 21
800.9604247640307
 31
0
  0
LINE
  8
1
 62
2
 10
320.4972843393138
 20
799.4604247640307
 30
0
 11
320.8306176726472
 21
800.2104247640307
 31
0
  0
LINE
  8
1
 62
2
 10
320.8306176726472
 20
799.0854247640307
 30
0
 11
320.4972843393138
 21
799.4604247640307
 31
0
  0
LINE
  8
1
 62
2
 10
322.3306176726472
 20
800.2104247640307
 30
0
 11
320.8306176726472
 21
799.0854247640307
 31
0
  0
LINE
  8
1
 62
2
 10
323.1639510059805
 20
802.0854247640307
 30
0
 11
322.3306176726472
 21
800.2104247640307
 31
0
  0
LINE
  8
1
 62
2
 10
322.4972843393138
 20
802.4604247640307
 30
0
 11
323.4972843393138
 21
802.6479247640307
 31
0
  0
LINE
  8
1
 62
2
 10
320.9972843393138
 20
802.4604247640307
 30
0
 11
322.4972843393138
 21
802.4604247640307
 31
0
  0
LINE
  8
1
 62
2
 10
321.9972843393138
 20
800.3979247640307
 30
0
 11
322.3306176726472
 21
803.3979247640307
 31
0
  0
LINE
  8
1
 62
2
 10
322.1639510059805
 20
799.2729247640307
 30
0
 11
321.9972843393138
 21
800.3979247640307
 31
0
  0
LINE
  8
1
 62
2
 10
317.4972843393138
 20
799.2729247640307
 30
0
 11
318.3306176726472
 21
798.7104247640307
 31
0
  0
LINE
  8
1
 62
2
 10
316.6639510059805
 20
799.4604247640307
 30
0
 11
317.4972843393138
 21
799.2729247640307
 31
0
  0
LINE
  8
1
 62
2
 10
315.8306176726472
 20
799.2729247640307
 30
0
 11
316.6639510059805
 21
799.4604247640307
 31
0
  0
LINE
  8
1
 62
2
 10
315.8306176726472
 20
798.8979247640307
 30
0
 11
315.8306176726472
 21
799.2729247640307
 31
0
  0
LINE
  8
1
 62
2
 10
316.3306176726472
 20
798.5229247640307
 30
0
 11
315.8306176726472
 21
798.8979247640307
 31
0
  0
LINE
  8
1
 62
2
 10
316.9972843393138
 20
798.7104247640307
 30
0
 11
316.3306176726472
 21
798.5229247640307
 31
0
  0
LINE
  8
1
 62
2
 10
317.3306176726472
 20
799.0854247640307
 30
0
 11
316.9972843393138
 21
798.7104247640307
 31
0
  0
LINE
  8
1
 62
2
 10
317.4972843393138
 20
799.8354247640307
 30
0
 11
317.3306176726472
 21
799.0854247640307
 31
0
  0
LINE
  8
1
 62
2
 10
317.3306176726472
 20
803.2104247640307
 30
0
 11
317.4972843393138
 21
799.8354247640307
 31
0
  0
LINE
  8
1
 62
2
 10
317.4972843393138
 20
802.0854247640307
 30
0
 11
318.3306176726472
 21
802.2729247640307
 31
0
  0
LINE
  8
1
 62
2
 10
315.9972843393138
 20
801.8979247640307
 30
0
 11
317.4972843393138
 21
802.0854247640307
 31
0
  0
LINE
  8
1
 62
2
 10
314.6639510059805
 20
801.5229247640307
 30
0
 11
314.9972843393138
 21
803.2104247640307
 31
0
  0
LINE
  8
1
 62
2
 10
314.6639510059805
 20
799.8354247640307
 30
0
 11
314.6639510059805
 21
801.5229247640307
 31
0
  0
LINE
  8
1
 62
2
 10
314.8306176726472
 20
798.5229247640307
 30
0
 11
314.6639510059805
 21
799.8354247640307
 31
0
  0
LINE
  8
1
 62
2
 10
309.9972843393138
 20
798.5229247640307
 30
0
 11
310.8306176726472
 21
798.1479247640307
 31
0
  0
LINE
  8
1
 62
2
 10
309.4972843393138
 20
799.0854247640307
 30
0
 11
309.9972843393138
 21
798.5229247640307
 31
0
  0
LINE
  8
1
 62
2
 10
309.3306176726472
 20
799.8354247640307
 30
0
 11
309.4972843393138
 21
799.0854247640307
 31
0
  0
LINE
  8
1
 62
2
 10
309.3306176726472
 20
800.3979247640307
 30
0
 11
309.3306176726472
 21
799.8354247640307
 31
0
  0
LINE
  8
1
 62
2
 10
309.6639510059805
 20
801.3354247640307
 30
0
 11
309.3306176726472
 21
800.3979247640307
 31
0
  0
LINE
  8
1
 62
2
 10
310.1639510059805
 20
802.0854247640307
 30
0
 11
309.6639510059805
 21
801.3354247640307
 31
0
  0
LINE
  8
1
 62
2
 10
310.8306176726472
 20
802.4604247640307
 30
0
 11
310.1639510059805
 21
802.0854247640307
 31
0
  0
LINE
  8
1
 62
2
 10
312.3306176726472
 20
803.5854247640307
 30
0
 11
312.8306176726472
 21
803.0229247640307
 31
0
  0
LINE
  8
1
 62
2
 10
312.4972843393138
 20
802.6479247640307
 30
0
 11
311.9972843393138
 21
803.2104247640307
 31
0
  0
LINE
  8
1
 62
2
 10
309.4972843393138
 20
802.2729247640307
 30
0
 11
311.6639510059805
 21
802.6479247640307
 31
0
  0
LINE
  8
1
 62
2
 10
307.8306176726472
 20
801.5229247640307
 30
0
 11
309.4972843393138
 21
802.2729247640307
 31
0
  0
LINE
  8
1
 62
2
 10
304.3306176726472
 20
798.3354247640307
 30
0
 11
304.3306176726472
 21
801.7104247640307
 31
0
  0
LINE
  8
1
 62
2
 10
305.8306176726472
 20
801.7104247640307
 30
0
 11
302.8306176726472
 21
801.7104247640307
 31
0
  0
LINE
  8
1
 62
2
 10
302.1639510059805
 20
803.2104247640307
 30
0
 11
306.4972843393138
 21
803.2104247640307
 31
0
  0
LINE
  8
1
 62
2
 10
304.3306176726472
 20
803.2104247640307
 30
0
 11
304.3306176726472
 21
803.7729247640307
 31
0
  0
LINE
  8
1
 62
2
 10
306.4972843393138
 20
803.2104247640307
 30
0
 11
306.4972843393138
 21
802.2729247640307
 31
0
  0
LINE
  8
1
 62
2
 10
302.1639510059805
 20
802.2729247640307
 30
0
 11
302.1639510059805
 21
803.2104247640307
 31
0
  0
LINE
  8
1
 62
2
 10
305.9972843393138
 20
800.2104247640307
 30
0
 11
304.3306176726472
 21
800.2104247640307
 31
0
  0
LINE
  8
1
 62
2
 10
304.6639510059805
 20
798.1479247640307
 30
0
 11
306.8306176726472
 21
798.1479247640307
 31
0
  0
LINE
  8
1
 62
2
 10
303.8306176726472
 20
798.5229247640307
 30
0
 11
304.6639510059805
 21
798.1479247640307
 31
0
  0
LINE
  8
1
 62
2
 10
303.3306176726472
 20
798.8979247640307
 30
0
 11
303.8306176726472
 21
798.5229247640307
 31
0
  0
LINE
  8
1
 62
2
 10
302.9972843393138
 20
799.4604247640307
 30
0
 11
303.3306176726472
 21
798.8979247640307
 31
0
  0
LINE
  8
1
 62
2
 10
302.8306176726472
 20
799.2729247640307
 30
0
 11
303.4972843393138
 21
800.3979247640307
 31
0
  0
LINE
  8
1
 62
2
 10
302.3306176726472
 20
798.5229247640307
 30
0
 11
302.8306176726472
 21
799.2729247640307
 31
0
  0
LINE
  8
1
 62
2
 10
301.9972843393138
 20
798.1479247640307
 30
0
 11
302.3306176726472
 21
798.5229247640307
 31
0
  0
LINE
  8
1
 62
2
 10
295.8306176726472
 20
801.3354247640307
 30
0
 11
300.8306176726472
 21
801.3354247640307
 31
0
  0
LINE
  8
1
 62
2
 10
293.4972843393138
 20
799.2729247640307
 30
0
 11
294.3306176726472
 21
798.7104247640307
 31
0
  0
LINE
  8
1
 62
2
 10
292.6639510059805
 20
799.4604247640307
 30
0
 11
293.4972843393138
 21
799.2729247640307
 31
0
  0
LINE
  8
1
 62
2
 10
291.8306176726472
 20
799.2729247640307
 30
0
 11
292.6639510059805
 21
799.4604247640307
 31
0
  0
LINE
  8
1
 62
2
 10
291.8306176726472
 20
798.8979247640307
 30
0
 11
291.8306176726472
 21
799.2729247640307
 31
0
  0
LINE
  8
1
 62
2
 10
292.3306176726472
 20
798.5229247640307
 30
0
 11
291.8306176726472
 21
798.8979247640307
 31
0
  0
LINE
  8
1
 62
2
 10
292.9972843393138
 20
798.7104247640307
 30
0
 11
292.3306176726472
 21
798.5229247640307
 31
0
  0
LINE
  8
1
 62
2
 10
293.3306176726472
 20
799.0854247640307
 30
0
 11
292.9972843393138
 21
798.7104247640307
 31
0
  0
LINE
  8
1
 62
2
 10
293.4972843393138
 20
799.8354247640307
 30
0
 11
293.3306176726472
 21
799.0854247640307
 31
0
  0
LINE
  8
1
 62
2
 10
293.3306176726472
 20
803.2104247640307
 30
0
 11
293.4972843393138
 21
799.8354247640307
 31
0
  0
LINE
  8
1
 62
2
 10
293.4972843393138
 20
802.0854247640307
 30
0
 11
294.3306176726472
 21
802.2729247640307
 31
0
  0
LINE
  8
1
 62
2
 10
291.9972843393138
 20
801.8979247640307
 30
0
 11
293.4972843393138
 21
802.0854247640307
 31
0
  0
LINE
  8
1
 62
2
 10
290.6639510059805
 20
801.5229247640307
 30
0
 11
290.9972843393138
 21
803.2104247640307
 31
0
  0
LINE
  8
1
 62
2
 10
290.6639510059805
 20
799.8354247640307
 30
0
 11
290.6639510059805
 21
801.5229247640307
 31
0
  0
LINE
  8
1
 62
2
 10
290.8306176726472
 20
798.5229247640307
 30
0
 11
290.6639510059805
 21
799.8354247640307
 31
0
  0
LINE
  8
1
 62
2
 10
285.9972843393138
 20
798.5229247640307
 30
0
 11
287.1639510059805
 21
798.3354247640307
 31
0
  0
LINE
  8
1
 62
2
 10
285.3306176726472
 20
799.0854247640307
 30
0
 11
285.9972843393138
 21
798.5229247640307
 31
0
  0
LINE
  8
1
 62
2
 10
285.6639510059805
 20
799.8354247640307
 30
0
 11
285.3306176726472
 21
799.0854247640307
 31
0
  0
LINE
  8
1
 62
2
 10
286.3306176726472
 20
800.2104247640307
 30
0
 11
285.6639510059805
 21
799.8354247640307
 31
0
  0
LINE
  8
1
 62
2
 10
286.9972843393138
 20
800.2104247640307
 30
0
 11
286.3306176726472
 21
800.2104247640307
 31
0
  0
LINE
  8
1
 62
2
 10
287.6639510059805
 20
800.0229247640307
 30
0
 11
286.9972843393138
 21
800.2104247640307
 31
0
  0
LINE
  8
1
 62
2
 10
286.4972843393138
 20
802.2729247640307
 30
0
 11
287.6639510059805
 21
800.0229247640307
 31
0
  0
LINE
  8
1
 62
2
 10
285.6639510059805
 20
803.5854247640307
 30
0
 11
286.4972843393138
 21
802.2729247640307
 31
0
  0
LINE
  8
1
 62
2
 10
286.3306176726472
 20
802.6479247640307
 30
0
 11
285.1639510059805
 21
802.2729247640307
 31
0
  0
LINE
  8
1
 62
2
 10
286.9972843393138
 20
803.0229247640307
 30
0
 11
286.3306176726472
 21
802.6479247640307
 31
0
  0
LINE
  8
1
 62
2
 10
286.6639510059805
 20
801.5229247640307
 30
0
 11
287.8306176726472
 21
802.0854247640307
 31
0
  0
LINE
  8
1
 62
2
 10
285.1639510059805
 20
801.1479247640307
 30
0
 11
286.6639510059805
 21
801.5229247640307
 31
0
  0
LINE
  8
1
 62
2
 10
278.1639510059805
 20
802.6479247640307
 30
0
 11
282.4972843393138
 21
802.6479247640307
 31
0
  0
LINE
  8
1
 62
2
 10
278.9972843393138
 20
802.6479247640307
 30
0
 11
279.8306176726472
 21
803.7729247640307
 31
0
  0
LINE
  8
1
 62
2
 10
280.9972843393138
 20
799.8354247640307
 30
0
 11
279.6639510059805
 21
799.8354247640307
 31
0
  0
LINE
  8
1
 62
2
 10
280.9972843393138
 20
801.3354247640307
 30
0
 11
280.9972843393138
 21
799.8354247640307
 31
0
  0
LINE
  8
1
 62
2
 10
279.6639510059805
 20
801.3354247640307
 30
0
 11
280.9972843393138
 21
801.3354247640307
 31
0
  0
LINE
  8
1
 62
2
 10
279.6639510059805
 20
799.8354247640307
 30
0
 11
279.6639510059805
 21
801.3354247640307
 31
0
  0
LINE
  8
1
 62
2
 10
282.4972843393138
 20
798.1479247640307
 30
0
 11
281.6639510059805
 21
798.1479247640307
 31
0
  0
LINE
  8
1
 62
2
 10
282.4972843393138
 20
802.6479247640307
 30
0
 11
282.4972843393138
 21
798.1479247640307
 31
0
  0
LINE
  8
1
 62
2
 10
278.1639510059805
 20
798.1479247640307
 30
0
 11
278.1639510059805
 21
802.6479247640307
 31
0
  0
LINE
  8
1
 62
2
 10
274.1639510059805
 20
802.6479247640307
 30
0
 11
275.1639510059805
 21
802.6479247640307
 31
0
  0
LINE
  8
1
 62
2
 10
275.8306176726472
 20
799.2729247640307
 30
0
 11
274.9972843393138
 21
798.5229247640307
 31
0
  0
LINE
  8
1
 62
2
 10
276.3306176726472
 20
800.2104247640307
 30
0
 11
275.8306176726472
 21
799.2729247640307
 31
0
  0
LINE
  8
1
 62
2
 10
276.3306176726472
 20
801.5229247640307
 30
0
 11
276.3306176726472
 21
800.2104247640307
 31
0
  0
LINE
  8
1
 62
2
 10
275.8306176726472
 20
802.2729247640307
 30
0
 11
276.3306176726472
 21
801.5229247640307
 31
0
  0
LINE
  8
1
 62
2
 10
275.1639510059805
 20
802.6479247640307
 30
0
 11
275.8306176726472
 21
802.2729247640307
 31
0
  0
LINE
  8
1
 62
2
 10
273.1639510059805
 20
802.2729247640307
 30
0
 11
274.1639510059805
 21
802.6479247640307
 31
0
  0
LINE
  8
1
 62
2
 10
272.4972843393138
 20
801.3354247640307
 30
0
 11
273.1639510059805
 21
802.2729247640307
 31
0
  0
LINE
  8
1
 62
2
 10
272.3306176726472
 20
800.2104247640307
 30
0
 11
272.4972843393138
 21
801.3354247640307
 31
0
  0
LINE
  8
1
 62
2
 10
272.4972843393138
 20
799.2729247640307
 30
0
 11
272.3306176726472
 21
800.2104247640307
 31
0
  0
LINE
  8
1
 62
2
 10
273.1639510059805
 20
798.8979247640307
 30
0
 11
272.4972843393138
 21
799.2729247640307
 31
0
  0
LINE
  8
1
 62
2
 10
273.9972843393138
 20
800.7729247640307
 30
0
 11
273.1639510059805
 21
798.8979247640307
 31
0
  0
LINE
  8
1
 62
2
 10
274.4972843393138
 20
802.6479247640307
 30
0
 11
273.9972843393138
 21
800.7729247640307
 31
0
  0
LINE
  8
1
 62
2
 10
269.6639510059805
 20
798.7104247640307
 30
0
 11
270.4972843393138
 21
798.8979247640307
 31
0
  0
LINE
  8
1
 62
2
 10
268.8306176726472
 20
798.8979247640307
 30
0
 11
269.6639510059805
 21
798.7104247640307
 31
0
  0
LINE
  8
1
 62
2
 10
268.4972843393138
 20
799.2729247640307
 30
0
 11
268.8306176726472
 21
798.8979247640307
 31
0
  0
LINE
  8
1
 62
2
 10
269.4972843393138
 20
801.7104247640307
 30
0
 11
270.1639510059805
 21
801.5229247640307
 31
0
  0
LINE
  8
1
 62
2
 10
268.9972843393138
 20
801.7104247640307
 30
0
 11
269.4972843393138
 21
801.7104247640307
 31
0
  0
LINE
  8
1
 62
2
 10
267.6639510059805
 20
802.0854247640307
 30
0
 11
266.4972843393138
 21
801.8979247640307
 31
0
  0
LINE
  8
1
 62
2
 10
268.8306176726472
 20
802.4604247640307
 30
0
 11
267.6639510059805
 21
802.0854247640307
 31
0
  0
LINE
  8
1
 62
2
 10
267.3306176726472
 20
800.5854247640307
 30
0
 11
267.6639510059805
 21
803.0229247640307
 31
0
  0
LINE
  8
1
 62
2
 10
266.8306176726472
 20
798.5229247640307
 30
0
 11
267.3306176726472
 21
800.5854247640307
 31
0
  0
LINE
  8
1
 62
2
 10
264.3306176726472
 20
799.4604247640307
 30
0
 11
264.6639510059805
 21
798.8979247640307
 31
0
  0
LINE
  8
1
 62
2
 10
263.8306176726472
 20
800.0229247640307
 30
0
 11
264.3306176726472
 21
799.4604247640307
 31
0
  0
LINE
  8
1
 62
2
 10
262.6639510059805
 20
802.2729247640307
 30
0
 11
262.1639510059805
 21
802.8354247640307
 31
0
  0
LINE
  8
1
 62
2
 10
262.8306176726472
 20
801.7104247640307
 30
0
 11
262.6639510059805
 21
802.2729247640307
 31
0
  0
LINE
  8
1
 62
2
 10
262.1639510059805
 20
801.3354247640307
 30
0
 11
262.8306176726472
 21
801.7104247640307
 31
0
  0
LINE
  8
1
 62
2
 10
261.9972843393138
 20
800.7729247640307
 30
0
 11
262.1639510059805
 21
801.3354247640307
 31
0
  0
LINE
  8
1
 62
2
 10
262.6639510059805
 20
799.8354247640307
 30
0
 11
261.9972843393138
 21
800.7729247640307
 31
0
  0
LINE
  8
1
 62
2
 10
262.8306176726472
 20
799.0854247640307
 30
0
 11
262.6639510059805
 21
799.8354247640307
 31
0
  0
LINE
  8
1
 62
2
 10
262.4972843393138
 20
798.7104247640307
 30
0
 11
262.8306176726472
 21
799.0854247640307
 31
0
  0
LINE
  8
1
 62
2
 10
261.8306176726472
 20
798.7104247640307
 30
0
 11
262.4972843393138
 21
798.7104247640307
 31
0
  0
LINE
  8
1
 62
2
 10
260.6639510059805
 20
798.8979247640307
 30
0
 11
261.1639510059805
 21
799.4604247640307
 31
0
  0
LINE
  8
1
 62
2
 10
260.4972843393138
 20
799.2729247640307
 30
0
 11
260.6639510059805
 21
798.8979247640307
 31
0
  0
LINE
  8
1
 62
2
 10
260.3306176726472
 20
799.8354247640307
 30
0
 11
260.4972843393138
 21
799.2729247640307
 31
0
  0
LINE
  8
1
 62
2
  6
DASHDOT
 10
260.053111543709
 20
528.9268499588735
 30
0
 11
520.8128109766012
 21
528.9268499588734
 31
0
  0
LINE
  8
1
 62
2
  6
DASHDOT
 10
424.3980211941196
 20
548.9268499588737
 30
0
 11
380.8897468933295
 21
548.9268499588737
 31
0
  0
LINE
  8
1
 62
2
  6
DASHDOT
 10
343.0628763047806
 20
568.2410690648685
 30
0
 11
343.0628763047806
 21
562.6857581671136
 31
0
  0
LINE
  8
1
 62
2
  6
DASHDOT
 10
345.5657875605094
 20
565.4268499588735
 30
0
 11
340.6311817909955
 21
565.4268499588735
 31
0
  0
LINE
  8
1
 62
2
 10
350.6967027330378
 20
585.9268499588726
 30
0
 11
350.6967027330376
 21
583.8443499588735
 31
0
  0
LINE
  8
1
 62
2
 10
453.5317027330374
 20
585.9268499588728
 30
0
 11
453.5317027330374
 21
583.8443499588735
 31
0
  0
LINE
  8
1
 62
7
 10
423.3461152330375
 20
530.5818499588738
 30
0
 11
422.8274152330375
 21
530.0830999588737
 31
0
  0
LINE
  8
1
 62
7
 10
423.9944902330375
 20
530.9143499588738
 30
0
 11
423.3461152330375
 21
530.5818499588738
 31
0
  0
LINE
  8
1
 62
7
 10
424.5131902330375
 20
530.9143499588738
 30
0
 11
423.9944902330375
 21
530.9143499588738
 31
0
  0
LINE
  8
1
 62
7
 10
425.4209152330375
 20
530.5818499588738
 30
0
 11
424.5131902330375
 21
530.9143499588738
 31
0
  0
LINE
  8
1
 62
7
 10
426.1989652330375
 20
529.9168499588737
 30
0
 11
425.4209152330375
 21
530.5818499588738
 31
0
  0
LINE
  8
1
 62
7
 10
426.5879902330375
 20
529.2518499588738
 30
0
 11
426.1989652330375
 21
529.9168499588737
 31
0
  0
LINE
  8
1
 62
7
 10
426.9770152330375
 20
528.2543499588738
 30
0
 11
426.5879902330375
 21
529.2518499588738
 31
0
  0
LINE
  8
1
 62
7
 10
427.1066902330375
 20
526.9243499588738
 30
0
 11
426.9770152330375
 21
528.2543499588738
 31
0
  0
LINE
  8
1
 62
7
 10
427.1066902330375
 20
520.9393499588738
 30
0
 11
427.1066902330375
 21
526.9243499588738
 31
0
  0
LINE
  8
1
 62
7
 10
425.6802652330375
 20
520.9393499588738
 30
0
 11
427.1066902330375
 21
520.9393499588738
 31
0
  0
LINE
  8
1
 62
7
 10
425.6802652330375
 20
527.0905999588738
 30
0
 11
425.6802652330375
 21
520.9393499588738
 31
0
  0
LINE
  8
1
 62
7
 10
425.5505902330375
 20
527.7555999588737
 30
0
 11
425.6802652330375
 21
527.0905999588738
 31
0
  0
LINE
  8
1
 62
7
 10
425.1615652330375
 20
528.5868499588738
 30
0
 11
425.5505902330375
 21
527.7555999588737
 31
0
  0
LINE
  8
1
 62
7
 10
424.7725402330375
 20
529.0855999588738
 30
0
 11
425.1615652330375
 21
528.5868499588738
 31
0
  0
LINE
  8
1
 62
7
 10
424.1241652330375
 20
529.2518499588738
 30
0
 11
424.7725402330375
 21
529.0855999588738
 31
0
  0
LINE
  8
1
 62
7
 10
423.6054652330375
 20
529.0855999588738
 30
0
 11
424.1241652330375
 21
529.2518499588738
 31
0
  0
LINE
  8
1
 62
7
 10
423.0867652330375
 20
528.5868499588738
 30
0
 11
423.6054652330375
 21
529.0855999588738
 31
0
  0
LINE
  8
1
 62
7
 10
422.8274152330375
 20
527.7555999588737
 30
0
 11
423.0867652330375
 21
528.5868499588738
 31
0
  0
LINE
  8
1
 62
7
 10
422.8274152330375
 20
520.9393499588738
 30
0
 11
422.8274152330375
 21
527.7555999588737
 31
0
  0
LINE
  8
1
 62
7
 10
421.4009902330375
 20
520.9393499588738
 30
0
 11
422.8274152330375
 21
520.9393499588738
 31
0
  0
LINE
  8
1
 62
7
 10
421.4009902330375
 20
527.0905999588738
 30
0
 11
421.4009902330375
 21
520.9393499588738
 31
0
  0
LINE
  8
1
 62
7
 10
421.2713152330375
 20
527.7555999588737
 30
0
 11
421.4009902330375
 21
527.0905999588738
 31
0
  0
LINE
  8
1
 62
7
 10
420.8822902330375
 20
528.5868499588738
 30
0
 11
421.2713152330375
 21
527.7555999588737
 31
0
  0
LINE
  8
1
 62
7
 10
420.4932652330375
 20
529.0855999588738
 30
0
 11
420.8822902330375
 21
528.5868499588738
 31
0
  0
LINE
  8
1
 62
7
 10
419.8448902330375
 20
529.2518499588738
 30
0
 11
420.4932652330375
 21
529.0855999588738
 31
0
  0
LINE
  8
1
 62
7
 10
419.3261902330375
 20
529.0855999588738
 30
0
 11
419.8448902330375
 21
529.2518499588738
 31
0
  0
LINE
  8
1
 62
7
 10
418.8074902330375
 20
528.5868499588738
 30
0
 11
419.3261902330375
 21
529.0855999588738
 31
0
  0
LINE
  8
1
 62
7
 10
418.5481402330375
 20
527.7555999588737
 30
0
 11
418.8074902330375
 21
528.5868499588738
 31
0
  0
LINE
  8
1
 62
7
 10
418.5481402330375
 20
520.9393499588738
 30
0
 11
418.5481402330375
 21
527.7555999588737
 31
0
  0
LINE
  8
1
 62
7
 10
417.1217152330375
 20
520.9393499588738
 30
0
 11
418.5481402330375
 21
520.9393499588738
 31
0
  0
LINE
  8
1
 62
7
 10
417.1217152330375
 20
530.7480999588738
 30
0
 11
417.1217152330375
 21
520.9393499588738
 31
0
  0
LINE
  8
1
 62
7
 10
418.5481402330375
 20
530.7480999588738
 30
0
 11
417.1217152330375
 21
530.7480999588738
 31
0
  0
LINE
  8
1
 62
7
 10
418.5481402330375
 20
529.9168499588737
 30
0
 11
418.5481402330375
 21
530.7480999588738
 31
0
  0
LINE
  8
1
 62
7
 10
418.9371652330375
 20
530.5818499588738
 30
0
 11
418.5481402330375
 21
529.9168499588737
 31
0
  0
LINE
  8
1
 62
7
 10
419.7152152330375
 20
530.9143499588738
 30
0
 11
418.9371652330375
 21
530.5818499588738
 31
0
  0
LINE
  8
1
 62
7
 10
420.2339152330375
 20
530.9143499588738
 30
0
 11
419.7152152330375
 21
530.9143499588738
 31
0
  0
LINE
  8
1
 62
7
 10
421.1416402330375
 20
530.5818499588738
 30
0
 11
420.2339152330375
 21
530.9143499588738
 31
0
  0
LINE
  8
1
 62
7
 10
421.9196902330375
 20
529.9168499588737
 30
0
 11
421.1416402330375
 21
530.5818499588738
 31
0
  0
LINE
  8
1
 62
7
 10
422.4383902330375
 20
529.2518499588738
 30
0
 11
421.9196902330375
 21
529.9168499588737
 31
0
  0
LINE
  8
1
 62
7
 10
422.8274152330375
 20
530.0830999588737
 30
0
 11
422.4383902330375
 21
529.2518499588738
 31
0
  0
LINE
  8
1
 62
7
 10
411.3461152330375
 20
530.5818499588738
 30
0
 11
410.8274152330375
 21
530.0830999588737
 31
0
  0
LINE
  8
1
 62
7
 10
411.9944902330375
 20
530.9143499588738
 30
0
 11
411.3461152330375
 21
530.5818499588738
 31
0
  0
LINE
  8
1
 62
7
 10
412.5131902330375
 20
530.9143499588738
 30
0
 11
411.9944902330375
 21
530.9143499588738
 31
0
  0
LINE
  8
1
 62
7
 10
413.4209152330375
 20
530.5818499588738
 30
0
 11
412.5131902330375
 21
530.9143499588738
 31
0
  0
LINE
  8
1
 62
7
 10
414.1989652330375
 20
529.9168499588737
 30
0
 11
413.4209152330375
 21
530.5818499588738
 31
0
  0
LINE
  8
1
 62
7
 10
414.5879902330375
 20
529.2518499588738
 30
0
 11
414.1989652330375
 21
529.9168499588737
 31
0
  0
LINE
  8
1
 62
7
 10
414.9770152330375
 20
528.2543499588738
 30
0
 11
414.5879902330375
 21
529.2518499588738
 31
0
  0
LINE
  8
1
 62
7
 10
415.1066902330375
 20
526.9243499588738
 30
0
 11
414.9770152330375
 21
528.2543499588738
 31
0
  0
LINE
  8
1
 62
7
 10
415.1066902330375
 20
520.9393499588738
 30
0
 11
415.1066902330375
 21
526.9243499588738
 31
0
  0
LINE
  8
1
 62
7
 10
413.6802652330375
 20
520.9393499588738
 30
0
 11
415.1066902330375
 21
520.9393499588738
 31
0
  0
LINE
  8
1
 62
7
 10
413.6802652330375
 20
527.0905999588738
 30
0
 11
413.6802652330375
 21
520.9393499588738
 31
0
  0
LINE
  8
1
 62
7
 10
413.5505902330375
 20
527.7555999588737
 30
0
 11
413.6802652330375
 21
527.0905999588738
 31
0
  0
LINE
  8
1
 62
7
 10
413.1615652330375
 20
528.5868499588738
 30
0
 11
413.5505902330375
 21
527.7555999588737
 31
0
  0
LINE
  8
1
 62
7
 10
412.7725402330375
 20
529.0855999588738
 30
0
 11
413.1615652330375
 21
528.5868499588738
 31
0
  0
LINE
  8
1
 62
7
 10
412.1241652330375
 20
529.2518499588738
 30
0
 11
412.7725402330375
 21
529.0855999588738
 31
0
  0
LINE
  8
1
 62
7
 10
411.6054652330375
 20
529.0855999588738
 30
0
 11
412.1241652330375
 21
529.2518499588738
 31
0
  0
LINE
  8
1
 62
7
 10
411.0867652330375
 20
528.5868499588738
 30
0
 11
411.6054652330375
 21
529.0855999588738
 31
0
  0
LINE
  8
1
 62
7
 10
410.8274152330375
 20
527.7555999588737
 30
0
 11
411.0867652330375
 21
528.5868499588738
 31
0
  0
LINE
  8
1
 62
7
 10
410.8274152330375
 20
520.9393499588738
 30
0
 11
410.8274152330375
 21
527.7555999588737
 31
0
  0
LINE
  8
1
 62
7
 10
409.4009902330375
 20
520.9393499588738
 30
0
 11
410.8274152330375
 21
520.9393499588738
 31
0
  0
LINE
  8
1
 62
7
 10
409.4009902330375
 20
527.0905999588738
 30
0
 11
409.4009902330375
 21
520.9393499588738
 31
0
  0
LINE
  8
1
 62
7
 10
409.2713152330375
 20
527.7555999588737
 30
0
 11
409.4009902330375
 21
527.0905999588738
 31
0
  0
LINE
  8
1
 62
7
 10
408.8822902330375
 20
528.5868499588738
 30
0
 11
409.2713152330375
 21
527.7555999588737
 31
0
  0
LINE
  8
1
 62
7
 10
408.4932652330375
 20
529.0855999588738
 30
0
 11
408.8822902330375
 21
528.5868499588738
 31
0
  0
LINE
  8
1
 62
7
 10
407.8448902330375
 20
529.2518499588738
 30
0
 11
408.4932652330375
 21
529.0855999588738
 31
0
  0
LINE
  8
1
 62
7
 10
407.3261902330375
 20
529.0855999588738
 30
0
 11
407.8448902330375
 21
529.2518499588738
 31
0
  0
LINE
  8
1
 62
7
 10
406.8074902330375
 20
528.5868499588738
 30
0
 11
407.3261902330375
 21
529.0855999588738
 31
0
  0
LINE
  8
1
 62
7
 10
406.5481402330375
 20
527.7555999588737
 30
0
 11
406.8074902330375
 21
528.5868499588738
 31
0
  0
LINE
  8
1
 62
7
 10
406.5481402330375
 20
520.9393499588738
 30
0
 11
406.5481402330375
 21
527.7555999588737
 31
0
  0
LINE
  8
1
 62
7
 10
405.1217152330375
 20
520.9393499588738
 30
0
 11
406.5481402330375
 21
520.9393499588738
 31
0
  0
LINE
  8
1
 62
7
 10
405.1217152330375
 20
530.7480999588738
 30
0
 11
405.1217152330375
 21
520.9393499588738
 31
0
  0
LINE
  8
1
 62
7
 10
406.5481402330375
 20
530.7480999588738
 30
0
 11
405.1217152330375
 21
530.7480999588738
 31
0
  0
LINE
  8
1
 62
7
 10
406.5481402330375
 20
529.9168499588737
 30
0
 11
406.5481402330375
 21
530.7480999588738
 31
0
  0
LINE
  8
1
 62
7
 10
406.9371652330375
 20
530.5818499588738
 30
0
 11
406.5481402330375
 21
529.9168499588737
 31
0
  0
LINE
  8
1
 62
7
 10
407.7152152330375
 20
530.9143499588738
 30
0
 11
406.9371652330375
 21
530.5818499588738
 31
0
  0
LINE
  8
1
 62
7
 10
408.2339152330375
 20
530.9143499588738
 30
0
 11
407.7152152330375
 21
530.9143499588738
 31
0
  0
LINE
  8
1
 62
7
 10
409.1416402330375
 20
530.5818499588738
 30
0
 11
408.2339152330375
 21
530.9143499588738
 31
0
  0
LINE
  8
1
 62
7
 10
409.9196902330375
 20
529.9168499588737
 30
0
 11
409.1416402330375
 21
530.5818499588738
 31
0
  0
LINE
  8
1
 62
7
 10
410.4383902330375
 20
529.2518499588738
 30
0
 11
409.9196902330375
 21
529.9168499588737
 31
0
  0
LINE
  8
1
 62
7
 10
410.8274152330375
 20
530.0830999588737
 30
0
 11
410.4383902330375
 21
529.2518499588738
 31
0
  0
LINE
  8
1
 62
7
 10
399.0985777330375
 20
521.4893499588741
 30
0
 11
399.6948277330375
 21
521.8643499588741
 31
0
  0
LINE
  8
1
 62
7
 10
398.1048277330375
 20
521.1143499588741
 30
0
 11
399.0985777330375
 21
521.4893499588741
 31
0
  0
LINE
  8
1
 62
7
 10
397.3098277330375
 20
520.9268499588741
 30
0
 11
398.1048277330375
 21
521.1143499588741
 31
0
  0
LINE
  8
1
 62
7
 10
395.9185777330375
 20
520.9268499588741
 30
0
 11
397.3098277330375
 21
520.9268499588741
 31
0
  0
LINE
  8
1
 62
7
 10
395.1235777330375
 20
521.1143499588741
 30
0
 11
395.9185777330375
 21
520.9268499588741
 31
0
  0
LINE
  8
1
 62
7
 10
394.1298277330375
 20
521.4893499588741
 30
0
 11
395.1235777330375
 21
521.1143499588741
 31
0
  0
LINE
  8
1
 62
7
 10
393.5335777330375
 20
521.8643499588741
 30
0
 11
394.1298277330375
 21
521.4893499588741
 31
0
  0
LINE
  8
1
 62
7
 10
392.9373277330375
 20
522.4268499588741
 30
0
 11
393.5335777330375
 21
521.8643499588741
 31
0
  0
LINE
  8
1
 62
7
 10
392.3410777330375
 20
523.1768499588741
 30
0
 11
392.9373277330375
 21
522.4268499588741
 31
0
  0
LINE
  8
1
 62
7
 10
391.9435777330375
 20
523.9268499588741
 30
0
 11
392.3410777330375
 21
523.1768499588741
 31
0
  0
LINE
  8
1
 62
7
 10
391.5460777330375
 20
524.8643499588741
 30
0
 11
391.9435777330375
 21
523.9268499588741
 31
0
  0
LINE
  8
1
 62
7
 10
391.3473277330375
 20
525.9893499588741
 30
0
 11
391.5460777330375
 21
524.8643499588741
 31
0
  0
LINE
  8
1
 62
7
 10
391.1485777330375
 20
527.6768499588741
 30
0
 11
391.3473277330375
 21
525.9893499588741
 31
0
  0
LINE
  8
1
 62
7
 10
391.1485777330375
 20
529.1768499588741
 30
0
 11
391.1485777330375
 21
527.6768499588741
 31
0
  0
LINE
  8
1
 62
7
 10
391.3473277330375
 20
530.8643499588741
 30
0
 11
391.1485777330375
 21
529.1768499588741
 31
0
  0
LINE
  8
1
 62
7
 10
391.5460777330375
 20
531.9893499588741
 30
0
 11
391.3473277330375
 21
530.8643499588741
 31
0
  0
LINE
  8
1
 62
7
 10
391.9435777330375
 20
532.9268499588741
 30
0
 11
391.5460777330375
 21
531.9893499588741
 31
0
  0
LINE
  8
1
 62
7
 10
392.3410777330375
 20
533.6768499588741
 30
0
 11
391.9435777330375
 21
532.9268499588741
 31
0
  0
LINE
  8
1
 62
7
 10
392.9373277330375
 20
534.4268499588741
 30
0
 11
392.3410777330375
 21
533.6768499588741
 31
0
  0
LINE
  8
1
 62
7
 10
393.5335777330375
 20
534.9893499588741
 30
0
 11
392.9373277330375
 21
534.4268499588741
 31
0
  0
LINE
  8
1
 62
7
 10
394.1298277330375
 20
535.3643499588741
 30
0
 11
393.5335777330375
 21
534.9893499588741
 31
0
  0
LINE
  8
1
 62
7
 10
395.1235777330375
 20
535.7393499588741
 30
0
 11
394.1298277330375
 21
535.3643499588741
 31
0
  0
LINE
  8
1
 62
7
 10
395.9185777330375
 20
535.9268499588741
 30
0
 11
395.1235777330375
 21
535.7393499588741
 31
0
  0
LINE
  8
1
 62
7
 10
397.3098277330375
 20
535.9268499588741
 30
0
 11
395.9185777330375
 21
535.9268499588741
 31
0
  0
LINE
  8
1
 62
7
 10
398.1048277330375
 20
535.7393499588741
 30
0
 11
397.3098277330375
 21
535.9268499588741
 31
0
  0
LINE
  8
1
 62
7
 10
399.0985777330375
 20
535.3643499588741
 30
0
 11
398.1048277330375
 21
535.7393499588741
 31
0
  0
LINE
  8
1
 62
7
 10
399.6948277330375
 20
534.9893499588741
 30
0
 11
399.0985777330375
 21
535.3643499588741
 31
0
  0
LINE
  8
1
 62
7
 10
400.2910777330375
 20
534.4268499588741
 30
0
 11
399.6948277330375
 21
534.9893499588741
 31
0
  0
LINE
  8
1
 62
7
 10
400.8873277330375
 20
533.6768499588741
 30
0
 11
400.2910777330375
 21
534.4268499588741
 31
0
  0
LINE
  8
1
 62
7
 10
401.2848277330375
 20
532.9268499588741
 30
0
 11
400.8873277330375
 21
533.6768499588741
 31
0
  0
LINE
  8
1
 62
7
 10
401.6823277330375
 20
531.9893499588741
 30
0
 11
401.2848277330375
 21
532.9268499588741
 31
0
  0
LINE
  8
1
 62
7
 10
401.8810777330375
 20
530.8643499588741
 30
0
 11
401.6823277330375
 21
531.9893499588741
 31
0
  0
LINE
  8
1
 62
7
 10
402.0798277330375
 20
529.1768499588741
 30
0
 11
401.8810777330375
 21
530.8643499588741
 31
0
  0
LINE
  8
1
 62
7
 10
402.0798277330375
 20
527.6768499588741
 30
0
 11
402.0798277330375
 21
529.1768499588741
 31
0
  0
LINE
  8
1
 62
7
 10
401.8810777330375
 20
525.9893499588741
 30
0
 11
402.0798277330375
 21
527.6768499588741
 31
0
  0
LINE
  8
1
 62
7
 10
401.6823277330375
 20
524.8643499588741
 30
0
 11
401.8810777330375
 21
525.9893499588741
 31
0
  0
LINE
  8
1
 62
7
 10
401.2848277330375
 20
523.9268499588741
 30
0
 11
401.6823277330375
 21
524.8643499588741
 31
0
  0
LINE
  8
1
 62
7
 10
400.8873277330375
 20
523.1768499588741
 30
0
 11
401.2848277330375
 21
523.9268499588741
 31
0
  0
LINE
  8
1
 62
7
 10
400.2910777330375
 20
522.4268499588741
 30
0
 11
400.8873277330375
 21
523.1768499588741
 31
0
  0
LINE
  8
1
 62
7
 10
399.6948277330375
 20
521.8643499588741
 30
0
 11
400.2910777330375
 21
522.4268499588741
 31
0
  0
LINE
  8
1
 62
7
 10
395.1235777330375
 20
523.1768499588741
 30
0
 11
395.9185777330375
 21
522.8018499588741
 31
0
  0
LINE
  8
1
 62
7
 10
394.3285777330375
 20
523.7393499588741
 30
0
 11
395.1235777330375
 21
523.1768499588741
 31
0
  0
LINE
  8
1
 62
7
 10
393.9310777330375
 20
524.3018499588741
 30
0
 11
394.3285777330375
 21
523.7393499588741
 31
0
  0
LINE
  8
1
 62
7
 10
393.5335777330375
 20
525.2393499588741
 30
0
 11
393.9310777330375
 21
524.3018499588741
 31
0
  0
LINE
  8
1
 62
7
 10
393.3348277330375
 20
527.3018499588741
 30
0
 11
393.5335777330375
 21
525.2393499588741
 31
0
  0
LINE
  8
1
 62
7
 10
393.3348277330375
 20
529.5518499588741
 30
0
 11
393.3348277330375
 21
527.3018499588741
 31
0
  0
LINE
  8
1
 62
7
 10
393.5335777330375
 20
531.6143499588741
 30
0
 11
393.3348277330375
 21
529.5518499588741
 31
0
  0
LINE
  8
1
 62
7
 10
393.9310777330375
 20
532.5518499588741
 30
0
 11
393.5335777330375
 21
531.6143499588741
 31
0
  0
LINE
  8
1
 62
7
 10
394.3285777330375
 20
533.1143499588741
 30
0
 11
393.9310777330375
 21
532.5518499588741
 31
0
  0
LINE
  8
1
 62
7
 10
395.1235777330375
 20
533.6768499588741
 30
0
 11
394.3285777330375
 21
533.1143499588741
 31
0
  0
LINE
  8
1
 62
7
 10
395.9185777330375
 20
534.0518499588741
 30
0
 11
395.1235777330375
 21
533.6768499588741
 31
0
  0
LINE
  8
1
 62
7
 10
397.3098277330375
 20
534.0518499588741
 30
0
 11
395.9185777330375
 21
534.0518499588741
 31
0
  0
LINE
  8
1
 62
7
 10
398.1048277330375
 20
533.6768499588741
 30
0
 11
397.3098277330375
 21
534.0518499588741
 31
0
  0
LINE
  8
1
 62
7
 10
398.8998277330375
 20
533.1143499588741
 30
0
 11
398.1048277330375
 21
533.6768499588741
 31
0
  0
LINE
  8
1
 62
7
 10
399.2973277330375
 20
532.5518499588741
 30
0
 11
398.8998277330375
 21
533.1143499588741
 31
0
  0
LINE
  8
1
 62
7
 10
399.6948277330375
 20
531.6143499588741
 30
0
 11
399.2973277330375
 21
532.5518499588741
 31
0
  0
LINE
  8
1
 62
7
 10
399.8935777330375
 20
529.5518499588741
 30
0
 11
399.6948277330375
 21
531.6143499588741
 31
0
  0
LINE
  8
1
 62
7
 10
399.8935777330375
 20
527.3018499588741
 30
0
 11
399.8935777330375
 21
529.5518499588741
 31
0
  0
LINE
  8
1
 62
7
 10
399.6948277330375
 20
525.2393499588741
 30
0
 11
399.8935777330375
 21
527.3018499588741
 31
0
  0
LINE
  8
1
 62
7
 10
399.2973277330375
 20
524.3018499588741
 30
0
 11
399.6948277330375
 21
525.2393499588741
 31
0
  0
LINE
  8
1
 62
7
 10
398.8998277330375
 20
523.7393499588741
 30
0
 11
399.2973277330375
 21
524.3018499588741
 31
0
  0
LINE
  8
1
 62
7
 10
398.1048277330375
 20
523.1768499588741
 30
0
 11
398.8998277330375
 21
523.7393499588741
 31
0
  0
LINE
  8
1
 62
7
 10
397.3098277330375
 20
522.8018499588741
 30
0
 11
398.1048277330375
 21
523.1768499588741
 31
0
  0
LINE
  8
1
 62
7
 10
395.9185777330375
 20
522.8018499588741
 30
0
 11
397.3098277330375
 21
522.8018499588741
 31
0
  0
LINE
  8
1
 62
7
 10
384.5279527330375
 20
526.1768499588741
 30
0
 11
384.5279527330375
 21
532.5518499588741
 31
0
  0
LINE
  8
1
 62
7
 10
379.5254527330375
 20
526.1768499588741
 30
0
 11
384.5279527330375
 21
526.1768499588741
 31
0
  0
LINE
  8
1
 62
7
 10
384.5279527330375
 20
532.5518499588741
 30
0
 11
379.5254527330375
 21
526.1768499588741
 31
0
  0
LINE
  8
1
 62
7
 10
377.1329527330375
 20
526.3643499588741
 30
0
 11
384.5279527330375
 21
535.9268499588741
 31
0
  0
LINE
  8
1
 62
7
 10
377.1329527330375
 20
524.3018499588741
 30
0
 11
377.1329527330375
 21
526.3643499588741
 31
0
  0
LINE
  8
1
 62
7
 10
384.5279527330375
 20
524.3018499588741
 30
0
 11
377.1329527330375
 21
524.3018499588741
 31
0
  0
LINE
  8
1
 62
7
 10
384.5279527330375
 20
520.9268499588741
 30
0
 11
384.5279527330375
 21
524.3018499588741
 31
0
  0
LINE
  8
1
 62
7
 10
386.9204527330375
 20
520.9268499588741
 30
0
 11
384.5279527330375
 21
520.9268499588741
 31
0
  0
LINE
  8
1
 62
7
 10
386.9204527330375
 20
524.3018499588741
 30
0
 11
386.9204527330375
 21
520.9268499588741
 31
0
  0
LINE
  8
1
 62
7
 10
389.0954527330375
 20
524.3018499588741
 30
0
 11
386.9204527330375
 21
524.3018499588741
 31
0
  0
LINE
  8
1
 62
7
 10
389.0954527330375
 20
526.1768499588741
 30
0
 11
389.0954527330375
 21
524.3018499588741
 31
0
  0
LINE
  8
1
 62
7
 10
386.9204527330375
 20
526.1768499588741
 30
0
 11
389.0954527330375
 21
526.1768499588741
 31
0
  0
LINE
  8
1
 62
7
 10
386.9204527330375
 20
535.9268499588741
 30
0
 11
386.9204527330375
 21
526.1768499588741
 31
0
  0
LINE
  8
1
 62
7
 10
384.5279527330375
 20
535.9268499588741
 30
0
 11
386.9204527330375
 21
535.9268499588741
 31
0
  0
LINE
  8
1
 62
2
  6
DIVIDE
 10
337.1142027330375
 20
525.4268499588735
 30
0
 11
337.1142027330375
 21
532.4268499588735
 31
0
  0
LINE
  8
1
 62
2
  6
DIVIDE
 10
347.1142027330375
 20
525.4268499588735
 30
0
 11
337.1142027330375
 21
525.4268499588735
 31
0
  0
LINE
  8
1
 62
2
  6
DIVIDE
 10
337.1142027330375
 20
532.4268499588735
 30
0
 11
347.1142027330375
 21
532.4268499588735
 31
0
  0
LINE
  8
1
 62
7
 10
353.1142027330375
 20
706.1265646202127
 30
0
 11
353.1142027330375
 21
706.9419086201401
 31
0
  0
LINE
  8
1
 62
7
 10
349.1142027330375
 20
706.913740556994
 30
0
 11
353.1142027330375
 21
706.1265646202127
 31
0
  0
LINE
  8
1
 62
7
 10
349.1142027330375
 20
707.7290845569215
 30
0
 11
349.1142027330375
 21
706.913740556994
 31
0
  0
LINE
  8
1
 62
7
 10
347.1142027330375
 20
707.3073285253846
 30
0
 11
347.1142027330375
 21
708.1226725253122
 31
0
  0
LINE
  8
1
 62
7
 10
343.1142027330375
 20
708.094504462166
 30
0
 11
347.1142027330375
 21
707.3073285253846
 31
0
  0
LINE
  8
1
 62
7
 10
343.1142027330375
 20
708.9098484620935
 30
0
 11
343.1142027330375
 21
708.094504462166
 31
0
  0
LINE
  8
1
 62
7
 10
341.1142027330375
 20
708.4880924305567
 30
0
 11
341.1142027330375
 21
709.3034364304841
 31
0
  0
LINE
  8
1
 62
7
 10
337.1142027330375
 20
709.275268367338
 30
0
 11
341.1142027330375
 21
708.4880924305567
 31
0
  0
LINE
  8
1
 62
7
 10
337.1142027330375
 20
710.0906123672655
 30
0
 11
337.1142027330375
 21
709.275268367338
 31
0
  0
LINE
  8
1
 62
7
 10
490.9072544733779
 20
502.1337982185331
 30
0
 11
490.9072544733779
 21
555.7268499588736
 31
0
  0
LINE
  8
1
 62
7
 10
287.1142027330375
 20
500.9268499588737
 30
0
 11
287.1142027330375
 21
556.9268499588736
 31
0
  0
LINE
  8
1
 62
2
  6
DASHDOT
 10
402.1142027330375
 20
627.206764873195
 30
0
 11
402.1142027330375
 21
478.2051155961256
 31
0
  0
LINE
  8
1
 62
7
 10
489.7604036722153
 20
503.2806490196957
 30
0
 11
492.1142027330375
 21
500.9268499588736
 31
0
  0
LINE
  8
1
 62
7
 10
485.9799035792087
 20
505.2325579160139
 30
0
 11
459.1153087510227
 21
509.783835947232
 31
0
  0
LINE
  8
1
 62
2
 10
490.9072544733779
 20
555.7268499588736
 30
0
 11
512.1142027330375
 21
555.7268499588736
 31
0
  0
LINE
  8
1
 62
7
 10
491.0320851645865
 20
555.8447323904226
 30
0
 11
492.1142027330375
 21
556.9268499588736
 31
0
  0
LINE
  8
1
 62
2
 10
512.1142027330375
 20
502.1268499588739
 30
0
 11
490.9142027330371
 21
502.1268499588739
 31
0
  0
LINE
  8
1
 62
7
 10
511.3642027330375
 20
500.9268499588736
 30
0
 11
512.1142027330375
 21
501.9268499588736
 31
0
  0
LINE
  8
1
 62
7
 10
511.3642027330375
 20
500.9268499588736
 30
0
 11
492.1142027330375
 21
500.9268499588736
 31
0
  0
LINE
  8
1
 62
7
 10
487.5109016870953
 20
555.312680689534
 30
0
 11
453.941856189667
 21
573.0230011594579
 31
0
  0
LINE
  8
1
 62
7
 10
291.9337037401316
 20
718.9818627720127
 30
0
 11
359.5078382968799
 21
705.6836796040386
 31
0
  0
LINE
  8
1
 62
7
 10
454.6142027330369
 20
584.9268499588731
 30
0
 11
451.6636963239859
 21
581.976343549822
 31
0
  0
LINE
  8
1
 62
7
 10
359.5078382968799
 20
782.8977826527555
 30
0
 11
291.9337037401315
 21
769.5995994847818
 31
0
  0
LINE
  8
1
 62
7
 10
492.1142027330375
 20
772.5407311283973
 30
0
 11
492.1142027330375
 21
716.0407311283973
 31
0
  0
LINE
  8
1
 62
7
 10
287.1142027330375
 20
716.0407311283974
 30
0
 11
287.1142027330375
 21
772.5407311283974
 31
0
  0
LINE
  8
1
 62
7
 10
492.1142027330375
 20
772.5407311283973
 30
0
 11
490.1218069647788
 21
770.5483353601385
 31
0
  0
LINE
  8
1
 62
7
 10
443.3569815593763
 20
782.6172396824179
 30
0
 11
487.1573636916099
 21
769.7905683959618
 31
0
  0
LINE
  8
1
 62
7
 10
492.1142027330375
 20
716.0407311283973
 30
0
 11
490.1218069647787
 21
718.0331268966559
 31
0
  0
LINE
  8
1
 62
7
 10
443.3569815593763
 20
705.9642225743762
 30
0
 11
487.1573636916099
 21
718.7908938608321
 31
0
  0
LINE
  8
1
 62
7
 10
336.6142027330375
 20
745.7907311283972
 30
0
 11
336.6142027330375
 21
742.7907311283972
 31
0
  0
LINE
  8
1
 62
7
 10
339.1142027330375
 20
745.7907311283969
 30
0
 11
336.6142027330375
 21
745.7907311283972
 31
0
  0
LINE
  8
1
 62
7
 10
348.6142027330375
 20
565.5871039967179
 30
0
 11
348.6142027330375
 21
564.4268499588735
 31
0
  0
LINE
  8
1
 62
7
 10
349.6142027330381
 20
584.9268499588731
 30
0
 11
352.5647091420892
 21
581.9763435498219
 31
0
  0
LINE
  8
1
 62
7
 10
353.2003836324807
 20
577.1479164250757
 30
0
 11
350.4228597819475
 21
572.3371039967179
 31
0
  0
LINE
  8
1
 62
7
 10
451.0280218335943
 20
577.1479164250758
 30
0
 11
452.743643112245
 21
574.1763732039061
 31
0
  0
LINE
  8
1
 62
7
 10
268.1142027330375
 20
556.9268499588736
 30
0
 11
287.1142027330375
 21
556.9268499588736
 31
0
  0
LINE
  8
1
 62
7
 10
287.1142027330375
 20
500.9268499588737
 30
0
 11
268.1142027330375
 21
500.9268499588736
 31
0
  0
LINE
  8
1
 62
7
 10
267.1142027330375
 20
501.9268499588736
 30
0
 11
267.1142027330375
 21
555.9268499588736
 31
0
  0
LINE
  8
1
 62
7
 10
267.1142027330375
 20
555.9268499588736
 30
0
 11
268.1142027330375
 21
556.9268499588736
 31
0
  0
LINE
  8
1
 62
7
 10
267.1142027330375
 20
501.9268499588736
 30
0
 11
268.1142027330375
 21
500.9268499588736
 31
0
  0
LINE
  8
1
 62
2
 10
267.1142027330375
 20
555.7268499588736
 30
0
 11
288.4920570532502
 21
555.7268499588736
 31
0
  0
LINE
  8
1
 62
2
 10
267.1142027330375
 20
502.1268499588737
 30
0
 11
288.4721854506347
 21
502.1268499588737
 31
0
  0
LINE
  8
1
 62
7
 10
310.7101206753021
 20
560.4268499588731
 30
0
 11
344.6142027330375
 21
560.4268499588735
 31
0
  0
LINE
  8
1
 62
7
 10
287.1142027330375
 20
556.9268499588736
 30
0
 11
289.0509764905793
 21
555.2400762013319
 31
0
  0
LINE
  8
1
 62
7
 10
287.1142027330375
 20
500.9268499588737
 30
0
 11
289.2631446208753
 21
502.8257918467116
 31
0
  0
LINE
  8
1
 62
7
 10
437.1142027330375
 20
484.9268499588736
 30
0
 11
404.1142027330375
 21
484.9268499588736
 31
0
  0
LINE
  8
1
 62
7
 10
492.1142027330375
 20
556.9268499588736
 30
0
 11
511.1142027330375
 21
556.9268499588736
 31
0
  0
LINE
  8
1
 62
7
 10
511.1142027330375
 20
556.9268499588736
 30
0
 11
512.1142027330375
 21
555.9268499588736
 31
0
  0
LINE
  8
1
 62
7
 10
512.1142027330375
 20
555.9268499588736
 30
0
 11
512.1142027330375
 21
501.9268499588736
 31
0
  0
LINE
  8
1
 62
7
 10
356.1142027330375
 20
484.9268499588736
 30
0
 11
357.1142027330375
 21
483.9268499588736
 31
0
  0
LINE
  8
1
 62
7
 10
357.1142027330375
 20
483.9268499588736
 30
0
 11
437.1142027330375
 21
483.9268499588736
 31
0
  0
LINE
  8
1
 62
7
 10
437.1142027330375
 20
483.9268499588736
 30
0
 11
438.1142027330375
 21
484.9538967569624
 31
0
  0
LINE
  8
1
 62
7
 10
403.6142027330375
 20
484.4268499588736
 30
0
 11
403.6142027330375
 21
483.9268499588736
 31
0
  0
LINE
  8
1
 62
7
 10
400.6142027330375
 20
484.4268499588736
 30
0
 11
400.6142027330375
 21
483.9268499588736
 31
0
  0
LINE
  8
1
 62
7
 10
400.1142027330375
 20
484.9268499588736
 30
0
 11
351.775145686473
 21
484.9268499588736
 31
0
  0
LINE
  8
1
 62
7
 10
455.6142027330375
 20
506.8259832195359
 30
0
 11
455.6142027330375
 21
503.4268499588736
 31
0
  0
LINE
  8
1
 62
7
 10
349.5115498765235
 20
570.4268499588736
 30
0
 11
338.6142027330375
 21
570.4268499588734
 31
0
  0
LINE
  8
1
 62
7
 10
336.6142027330375
 20
568.4268499588734
 30
0
 11
336.6142027330375
 21
562.4268499588734
 31
0
  0
LINE
  8
1
 62
7
 10
511.1142027330375
 20
716.0407311283973
 30
0
 11
492.1142027330375
 21
716.0407311283973
 31
0
  0
LINE
  8
1
 62
7
 10
492.1142027330375
 20
772.5407311283973
 30
0
 11
511.1142027330375
 21
772.5407311283973
 31
0
  0
LINE
  8
1
 62
7
 10
512.1142027330375
 20
717.0407311283973
 30
0
 11
511.1142027330375
 21
716.0407311283973
 31
0
  0
LINE
  8
1
 62
7
 10
512.1142027330375
 20
771.5407311283973
 30
0
 11
511.1142027330375
 21
772.5407311283973
 31
0
  0
LINE
  8
1
 62
2
 10
512.1142027330375
 20
717.2407311283971
 30
0
 11
490.9142027330374
 21
717.2407311283971
 31
0
  0
LINE
  8
1
 62
2
 10
512.1142027330375
 20
771.340731128397
 30
0
 11
490.9142027330374
 21
771.340731128397
 31
0
  0
LINE
  8
1
 62
7
 10
512.1142027330375
 20
771.5407311283973
 30
0
 11
512.1142027330375
 21
717.0407311283973
 31
0
  0
LINE
  8
1
 62
7
 10
287.1142027330375
 20
716.0407311283974
 30
0
 11
268.1142027330375
 21
716.0407311283974
 31
0
  0
LINE
  8
1
 62
7
 10
268.1142027330375
 20
772.5407311283974
 30
0
 11
287.1142027330375
 21
772.5407311283974
 31
0
  0
LINE
  8
1
 62
7
 10
268.1142027330375
 20
716.0407311283974
 30
0
 11
267.1142027330375
 21
717.0407311283974
 31
0
  0
LINE
  8
1
 62
7
 10
268.1142027330375
 20
772.5407311283974
 30
0
 11
267.1142027330375
 21
771.5407311283974
 31
0
  0
LINE
  8
1
 62
2
 10
288.3142027330375
 20
717.2407311283972
 30
0
 11
267.1142027330375
 21
717.2407311283972
 31
0
  0
LINE
  8
1
 62
2
 10
288.3142027330375
 20
771.3407311283971
 30
0
 11
267.1142027330375
 21
771.3407311283971
 31
0
  0
LINE
  8
1
 62
7
 10
267.1142027330375
 20
717.0407311283974
 30
0
 11
267.1142027330375
 21
771.5407311283974
 31
0
  0
LINE
  8
1
 62
7
 10
289.2331118717791
 20
718.1596402671388
 30
0
 11
287.1142027330375
 21
716.0407311283974
 31
0
  0
LINE
  8
1
 62
7
 10
289.233111871779
 20
770.4218219896558
 30
0
 11
287.1142027330375
 21
772.5407311283974
 31
0
  0
LINE
  8
1
 62
7
 10
422.1142027330375
 20
548.9268499588737
 30
0
 11
412.1142027330375
 21
552.9268499588739
 31
0
  0
LINE
  8
1
 62
7
 10
412.1142027330375
 20
552.9268499588739
 30
0
 11
412.1142027330375
 21
550.4268499588739
 31
0
  0
LINE
  8
1
 62
7
 10
412.1142027330375
 20
550.4268499588739
 30
0
 11
382.1142027330375
 21
550.4268499588739
 31
0
  0
LINE
  8
1
 62
7
 10
382.1142027330375
 20
550.4268499588739
 30
0
 11
382.1142027330375
 21
547.4268499588737
 31
0
  0
LINE
  8
1
 62
7
 10
382.1142027330375
 20
547.4268499588737
 30
0
 11
412.1142027330375
 21
547.4268499588737
 31
0
  0
LINE
  8
1
 62
7
 10
412.1142027330375
 20
547.4268499588737
 30
0
 11
412.1142027330375
 21
544.9268499588736
 31
0
  0
LINE
  8
1
 62
7
 10
412.1142027330375
 20
544.9268499588736
 30
0
 11
422.1142027330375
 21
548.9268499588737
 31
0
  0
LINE
  8
1
 62
7
 10
382.1142027330375
 20
552.9268499588739
 30
0
 11
383.5575784060115
 21
550.4268499588739
 31
0
  0
LINE
  8
1
 62
7
 10
382.1142027330375
 20
544.9268499588736
 30
0
 11
383.5575784060115
 21
547.4268499588737
 31
0
  0
LINE
  8
1
 62
7
 10
402.1142027330375
 20
552.9268499588739
 30
0
 11
403.5575784060115
 21
550.4268499588739
 31
0
  0
LINE
  8
1
 62
7
 10
402.1142027330375
 20
544.9268499588736
 30
0
 11
403.5575784060115
 21
547.4268499588737
 31
0
  0
LINE
  8
1
 62
7
 10
382.1142027330375
 20
552.9268499588739
 30
0
 11
402.1142027330375
 21
552.9268499588739
 31
0
  0
LINE
  8
1
 62
7
 10
382.1142027330375
 20
544.9268499588736
 30
0
 11
402.1142027330375
 21
544.9268499588736
 31
0
  0
LINE
  8
1
 62
7
 10
350.6967027330376
 20
583.8443499588735
 30
0
 11
453.5317027330374
 21
583.8443499588735
 31
0
  0
LINE
  8
1
 62
7
 10
336.6142027330375
 20
742.7907311283972
 30
0
 11
339.1142027330375
 21
742.7907311283972
 31
0
  0
LINE
  8
1
 62
7
 10
454.6142027330375
 20
585.9268499588728
 30
0
 11
454.6142027330369
 21
584.9268499588731
 31
0
  0
LINE
  8
1
 62
7
 10
349.6142027330381
 20
584.9268499588731
 30
0
 11
349.6142027330374
 21
585.9268499588728
 31
0
  0
LINE
  8
1
 62
2
  6
DIVIDE
 10
347.1142027330375
 20
532.4268499588735
 30
0
 11
347.1142027330375
 21
525.4268499588735
 31
0
  0
LINE
  8
1
 62
2
  6
DASHDOT
 10
402.1142027330375
 20
675.1372998448391
 30
0
 11
402.1142027330375
 21
814.971337652023
 31
0
  0
LINE
  8
1
 62
2
  6
DASHDOT
 10
520.373081297962
 20
744.2907311283971
 30
0
 11
259.6133818650701
 21
744.2907311283971
 31
0
  0
LINE
  8
1
 62
7
 10
407.1142027330375
 20
688.6130875000969
 30
0
 11
407.1142027330376
 21
687.1046314187648
 31
0
  0
LINE
  8
1
 62
7
 10
457.1142027330375
 20
585.9268499588728
 30
0
 11
458.1142027330375
 21
586.9268499588731
 31
0
  0
LINE
  8
1
 62
7
 10
347.1142027330374
 20
585.9268499588728
 30
0
 11
346.1142027330375
 21
586.9268499588731
 31
0
  0
LINE
  8
1
 62
7
 10
456.1142027330377
 20
620.9268499588728
 30
0
 11
456.1142027330374
 21
607.9268499588728
 31
0
  0
LINE
  8
1
 62
7
 10
466.1142027330375
 20
605.9268499588728
 30
0
 11
466.1142027330375
 21
588.9268499588728
 31
0
  0
LINE
  8
1
 62
7
 10
465.1142027330374
 20
587.9268499588731
 30
0
 11
458.1142027330375
 21
587.9268499588728
 31
0
  0
LINE
  8
1
 62
7
 10
397.1142027330376
 20
605.9268499588728
 30
0
 11
397.1142027330376
 21
588.9268499588728
 31
0
  0
LINE
  8
1
 62
7
 10
398.1142027330376
 20
587.9268499588731
 30
0
 11
406.1142027330374
 21
587.9268499588731
 31
0
  0
LINE
  8
1
 62
7
 10
346.1142027330375
 20
587.9268499588728
 30
0
 11
340.1142027330376
 21
587.9268499588731
 31
0
  0
LINE
  8
1
 62
7
 10
407.1142027330376
 20
687.1046314187648
 30
0
 11
407.1142027330375
 21
681.2907311283969
 31
0
  0
LINE
  8
1
 62
7
 10
397.1142027330375
 20
688.6130875000969
 30
0
 11
397.1142027330375
 21
681.2907311283969
 31
0
  0
LINE
  8
1
 62
7
 10
466.1142027330375
 20
748.2907311283972
 30
0
 11
466.1142027330375
 21
740.2907311283972
 31
0
  0
LINE
  8
1
 62
7
 10
458.1142027330374
 20
605.9268499588728
 30
0
 11
458.1142027330375
 21
586.9268499588731
 31
0
  0
LINE
  8
1
 62
7
 10
406.1142027330375
 20
680.2907311283969
 30
0
 11
398.1142027330375
 21
680.2907311283969
 31
0
  0
LINE
  8
1
 62
7
 10
339.1142027330376
 20
588.9268499588728
 30
0
 11
339.1142027330376
 21
622.4268499588728
 31
0
  0
LINE
  8
1
 62
7
 10
457.1142027330375
 20
585.9268499588728
 30
0
 11
347.1142027330374
 21
585.9268499588728
 31
0
  0
LINE
  8
1
 62
7
 10
346.1142027330375
 20
586.9268499588731
 30
0
 11
346.1142027330375
 21
605.9268499588728
 31
0
  0
LINE
  8
1
 62
7
 10
348.1142027330375
 20
607.9268499588728
 30
0
 11
348.1142027330377
 21
620.9268499588728
 31
0
  0
LINE
  8
1
 62
7
 10
407.1142027330375
 20
588.9268499588728
 30
0
 11
407.1142027330375
 21
605.9268499588728
 31
0
  0
LINE
  8
1
 62
7
 10
346.1142027330375
 20
586.9268499588731
 30
0
 11
458.1142027330375
 21
586.9268499588731
 31
0
  0
LINE
  8
1
 62
7
 10
347.1142027330376
 20
606.9268499588731
 30
0
 11
465.1142027330375
 21
606.9268499588728
 31
0
  0
LINE
  8
1
 62
7
 10
347.1142027330376
 20
615.4268499588728
 30
0
 11
456.1142027330377
 21
615.4268499588728
 31
0
  0
LINE
  8
1
 62
7
 10
407.1142027330376
 20
801.4768308380295
 30
0
 11
407.1142027330375
 21
799.9683747566975
 31
0
  0
LINE
  8
1
 62
7
 10
407.1142027330375
 20
807.2907311283974
 30
0
 11
407.1142027330376
 21
801.4768308380295
 31
0
  0
LINE
  8
1
 62
7
 10
397.1142027330375
 20
807.2907311283974
 30
0
 11
397.1142027330375
 21
799.9683747566975
 31
0
  0
LINE
  8
1
 62
7
 10
398.1142027330375
 20
808.2907311283974
 30
0
 11
406.1142027330375
 21
808.2907311283974
 31
0
  0
LINE
  8
1
 62
7
 10
348.1142027330375
 20
614.4268499588731
 30
0
 11
347.1142027330376
 21
614.4268499588728
 31
0
  0
LINE
  8
1
 62
7
 10
458.3592007314356
 20
624.4268499588728
 30
0
 11
464.6142027330376
 21
624.4268499588728
 31
0
  0
LINE
  8
1
 62
7
 10
466.1142027330376
 20
621.4268499588728
 30
0
 11
457.6142027330376
 21
621.4268499588728
 31
0
  0
LINE
  8
1
 62
7
 10
466.1142027330376
 20
622.9268499588728
 30
0
 11
466.1142027330376
 21
621.4268499588728
 31
0
  0
LINE
  8
1
 62
2
  6
DASHDOT
 10
343.1142027330376
 20
613.829659792492
 30
0
 11
343.1142027330376
 21
605.83025078359
 31
0
  0
LINE
  8
1
 62
2
  6
DASHDOT
 10
338.0010594919414
 20
610.9268499588728
 30
0
 11
348.1142027330376
 21
610.9268499588728
 31
0
  0
LINE
  8
1
 62
7
 10
454.6142027330377
 20
622.4268499588728
 30
0
 11
339.1142027330376
 21
622.4268499588728
 31
0
  0
LINE
  8
1
 62
7
 10
347.1142027330376
 20
610.9268499588728
 30
0
 11
347.1142027330376
 21
615.4268499588728
 31
0
  0
LINE
  8
1
 62
7
 10
347.1142027330376
 20
625.4268499588728
 30
0
 11
356.8642027330376
 21
622.4268499588728
 31
0
  0
LINE
  8
1
 62
7
 10
342.1142027330376
 20
625.4268499588728
 30
0
 11
347.1142027330376
 21
625.4268499588728
 31
0
  0
LINE
  8
1
 62
7
 10
451.6747717370356
 20
756.7907311283971
 30
0
 11
463.2119480341596
 21
756.7907311283971
 31
0
  0
LINE
  8
1
 62
7
 10
408.1142027330375
 20
716.7907311283971
 30
0
 11
408.1142027330375
 21
771.7907311283971
 31
0
  0
LINE
  8
1
 62
7
 10
418.1142027330375
 20
716.7907311283971
 30
0
 11
408.1142027330375
 21
716.7907311283971
 31
0
  0
LINE
  8
1
 62
7
 10
418.1142027330375
 20
771.7907311283971
 30
0
 11
418.1142027330375
 21
716.7907311283971
 31
0
  0
LINE
  8
1
 62
7
 10
408.1142027330375
 20
771.7907311283971
 30
0
 11
418.1142027330375
 21
771.7907311283971
 31
0
  0
LINE
  8
1
 62
7
 10
340.1142027330375
 20
734.2907311283971
 30
0
 11
347.1142027330375
 21
734.2907311283971
 31
0
  0
LINE
  8
1
 62
7
 10
340.1142027330375
 20
754.2907311283971
 30
0
 11
347.1142027330375
 21
754.2907311283971
 31
0
  0
LINE
  8
1
 62
7
 10
347.1142027330375
 20
734.2907311283971
 30
0
 11
360.1142027330375
 21
732.2907311283971
 31
0
  0
LINE
  8
1
 62
7
 10
347.1142027330375
 20
754.2907311283971
 30
0
 11
360.1142027330375
 21
756.2907311283971
 31
0
  0
LINE
  8
1
 62
7
 10
360.1142027330375
 20
756.2907311283971
 30
0
 11
360.1142027330375
 21
747.7907311283971
 31
0
  0
LINE
  8
1
 62
7
 10
360.1142027330375
 20
740.7907311283971
 30
0
 11
360.1142027330375
 21
732.2907311283971
 31
0
  0
LINE
  8
1
 62
7
 10
347.1142027330375
 20
740.7907311283971
 30
0
 11
347.1142027330375
 21
734.2907311283971
 31
0
  0
LINE
  8
1
 62
7
 10
347.1142027330375
 20
754.2907311283971
 30
0
 11
347.1142027330375
 21
747.7907311283971
 31
0
  0
LINE
  8
1
 62
7
 10
339.1142027330375
 20
740.7907311283971
 30
0
 11
360.1142027330375
 21
740.7907311283971
 31
0
  0
LINE
  8
1
 62
7
 10
339.1142027330375
 20
747.7907311283971
 30
0
 11
360.1142027330375
 21
747.7907311283971
 31
0
  0
LINE
  8
1
 62
2
  6
DASHDOT
 10
343.1142027330375
 20
755.3261130366877
 30
0
 11
343.1142027330375
 21
732.9097175297425
 31
0
  0
LINE
  8
1
 62
7
 10
339.1142027330375
 20
753.2907311283971
 30
0
 11
339.1142027330375
 21
735.2907311283971
 31
0
  0
LINE
  8
1
 62
7
 10
430.1142027330375
 20
743.490731128397
 30
0
 11
432.1142027330375
 21
743.490731128397
 31
0
  0
LINE
  8
1
 62
7
 10
429.9971900859326
 20
745.2893617449176
 30
0
 11
432.2312153801447
 21
745.2893617449176
 31
0
  0
LINE
  8
1
 62
7
 10
430.1142027330375
 20
737.0907311283969
 30
0
 11
432.1142027330375
 21
737.0907311283969
 31
0
  0
LINE
  8
1
 62
7
 10
430.1142027330375
 20
735.2907311283971
 30
0
 11
432.1142027330375
 21
735.2907311283971
 31
0
  0
LINE
  8
1
 62
7
 10
432.4392027330376
 20
754.990731128397
 30
0
 11
437.1142027330375
 21
754.990731128397
 31
0
  0
LINE
  8
1
 62
7
 10
432.4392027330376
 20
752.9407311283972
 30
0
 11
437.1142027330375
 21
752.9407311283972
 31
0
  0
LINE
  8
1
 62
7
 10
432.4392027330376
 20
751.6407311283972
 30
0
 11
437.1142027330375
 21
751.6407311283972
 31
0
  0
LINE
  8
1
 62
7
 10
432.4392027330376
 20
749.5907311283969
 30
0
 11
437.1142027330375
 21
749.5907311283969
 31
0
  0
LINE
  8
1
 62
7
 10
432.4392027330376
 20
748.2907311283971
 30
0
 11
437.1142027330375
 21
748.2907311283971
 31
0
  0
LINE
  8
1
 62
7
 10
430.1142027330375
 20
749.5907311283969
 30
0
 11
430.3523390575665
 21
749.5907311283969
 31
0
  0
LINE
  8
1
 62
7
 10
437.1142027330375
 20
756.2907311283971
 30
0
 11
437.1142027330375
 21
754.990731128397
 31
0
  0
LINE
  8
1
 62
7
 10
432.4392027330376
 20
756.2907311283971
 30
0
 11
437.1142027330375
 21
756.2907311283971
 31
0
  0
LINE
  8
1
 62
7
 10
430.1142027330375
 20
748.2907311283971
 30
0
 11
432.4392027330376
 21
748.2907311283971
 31
0
  0
LINE
  8
1
 62
7
 10
430.1142027330375
 20
749.5907311283969
 30
0
 11
430.1142027330375
 21
748.2907311283971
 31
0
  0
LINE
  8
1
 62
7
 10
437.1142027330375
 20
749.5907311283969
 30
0
 11
437.1142027330375
 21
748.2907311283971
 31
0
  0
LINE
  8
1
 62
7
 10
437.1142027330375
 20
752.9407311283972
 30
0
 11
437.1142027330375
 21
751.6407311283972
 31
0
  0
LINE
  8
1
 62
7
 10
432.4392027330376
 20
764.990731128397
 30
0
 11
437.1142027330375
 21
764.990731128397
 31
0
  0
LINE
  8
1
 62
7
 10
432.4392027330376
 20
762.9407311283972
 30
0
 11
437.1142027330375
 21
762.9407311283972
 31
0
  0
LINE
  8
1
 62
7
 10
432.4392027330376
 20
761.6407311283972
 30
0
 11
437.1142027330375
 21
761.6407311283972
 31
0
  0
LINE
  8
1
 62
7
 10
432.4392027330376
 20
759.5907311283969
 30
0
 11
437.1142027330375
 21
759.5907311283969
 31
0
  0
LINE
  8
1
 62
7
 10
432.4392027330376
 20
758.2907311283971
 30
0
 11
437.1142027330375
 21
758.2907311283971
 31
0
  0
LINE
  8
1
 62
7
 10
430.1142027330375
 20
759.5907311283969
 30
0
 11
430.3523390575665
 21
759.5907311283969
 31
0
  0
LINE
  8
1
 62
7
 10
437.1142027330375
 20
766.2907311283971
 30
0
 11
437.1142027330375
 21
764.990731128397
 31
0
  0
LINE
  8
1
 62
7
 10
430.1142027330375
 20
758.2907311283971
 30
0
 11
432.4392027330376
 21
758.2907311283971
 31
0
  0
LINE
  8
1
 62
7
 10
437.1142027330375
 20
759.5907311283969
 30
0
 11
437.1142027330375
 21
758.2907311283971
 31
0
  0
LINE
  8
1
 62
7
 10
437.1142027330375
 20
762.9407311283972
 30
0
 11
437.1142027330375
 21
761.6407311283972
 31
0
  0
LINE
  8
1
 62
7
 10
430.1142027330375
 20
759.5907311283969
 30
0
 11
430.1142027330375
 21
758.2907311283971
 31
0
  0
LINE
  8
1
 62
7
 10
432.4392027330376
 20
766.2907311283971
 30
0
 11
437.1142027330375
 21
766.2907311283971
 31
0
  0
LINE
  8
1
 62
7
 10
437.1142027330375
 20
730.0907311283969
 30
0
 11
434.9142027330377
 21
730.0907311283969
 31
0
  0
LINE
  8
1
 62
7
 10
434.9142027330377
 20
730.0907311283969
 30
0
 11
434.9142027330377
 21
732.2907311283971
 31
0
  0
LINE
  8
1
 62
7
 10
433.1142027330375
 20
732.2907311283971
 30
0
 11
433.1142027330375
 21
730.0907311283969
 31
0
  0
LINE
  8
1
 62
7
 10
433.1142027330375
 20
732.2907311283971
 30
0
 11
434.9142027330377
 21
732.2907311283971
 31
0
  0
LINE
  8
1
 62
7
 10
433.1142027330375
 20
730.0907311283969
 30
0
 11
425.1142027330375
 21
730.0907311283969
 31
0
  0
LINE
  8
1
 62
7
 10
425.1142027330375
 20
730.0907311283969
 30
0
 11
425.1142027330375
 21
728.2907311283971
 31
0
  0
LINE
  8
1
 62
7
 10
425.1142027330375
 20
728.2907311283971
 30
0
 11
433.1142027330375
 21
722.2907311283971
 31
0
  0
LINE
  8
1
 62
7
 10
433.1142027330375
 20
722.2907311283971
 30
0
 11
434.9142027330377
 21
722.2907311283971
 31
0
  0
LINE
  8
1
 62
7
 10
433.1142027330375
 20
728.2907311283971
 30
0
 11
427.5142027330376
 21
728.2907311283971
 31
0
  0
LINE
  8
1
 62
7
 10
427.5142027330376
 20
728.2907311283971
 30
0
 11
433.1142027330375
 21
724.0907311283969
 31
0
  0
LINE
  8
1
 62
7
 10
433.1142027330375
 20
724.0907311283969
 30
0
 11
433.1142027330375
 21
728.2907311283971
 31
0
  0
LINE
  8
1
 62
7
 10
434.9142027330377
 20
728.2907311283971
 30
0
 11
434.9142027330377
 21
722.2907311283971
 31
0
  0
LINE
  8
1
 62
7
 10
434.9142027330377
 20
728.2907311283971
 30
0
 11
437.1142027330375
 21
728.2907311283971
 31
0
  0
LINE
  8
1
 62
7
 10
437.1142027330375
 20
728.2907311283971
 30
0
 11
437.1142027330375
 21
730.0907311283969
 31
0
  0
LINE
  8
1
 62
7
 10
463.2119480341596
 20
731.7907311283971
 30
0
 11
451.6747717370356
 21
731.7907311283971
 31
0
  0
LINE
  8
1
 62
7
 10
395.1504924612068
 20
751.270231128397
 30
0
 11
391.1208762573979
 21
748.9437311283971
 31
0
  0
LINE
  8
1
 62
7
 10
395.1504924612068
 20
746.6172311283972
 30
0
 11
395.1504924612068
 21
751.270231128397
 31
0
  0
LINE
  8
1
 62
7
 10
383.0616438497798
 20
744.2907311283971
 30
0
 11
387.0912600535885
 21
741.9642311283972
 31
0
  0
LINE
  8
1
 62
7
 10
387.0912600535885
 20
746.6172311283972
 30
0
 11
383.0616438497798
 21
744.2907311283971
 31
0
  0
LINE
  8
1
 62
7
 10
387.0912600535885
 20
751.270231128397
 30
0
 11
387.0912600535885
 21
746.6172311283972
 31
0
  0
LINE
  8
1
 62
7
 10
391.1208762573979
 20
748.9437311283971
 30
0
 11
387.0912600535885
 21
751.270231128397
 31
0
  0
LINE
  8
1
 62
7
 10
380.1275497817583
 20
744.2907311283971
 30
0
 11
385.6242130195778
 21
741.1172311283972
 31
0
  0
LINE
  8
1
 62
7
 10
385.6242130195778
 20
747.4642311283972
 30
0
 11
380.1275497817583
 21
744.2907311283971
 31
0
  0
LINE
  8
1
 62
7
 10
385.6242130195778
 20
753.8112311283971
 30
0
 11
385.6242130195778
 21
747.4642311283972
 31
0
  0
LINE
  8
1
 62
7
 10
391.1208762573979
 20
750.637731128397
 30
0
 11
385.6242130195778
 21
753.8112311283971
 31
0
  0
LINE
  8
1
 62
7
 10
390.3068762573978
 20
745.1047311283971
 30
0
 11
390.3068762573978
 21
748.3167311283971
 31
0
  0
LINE
  8
1
 62
7
 10
387.0948762573976
 20
745.1047311283971
 30
0
 11
390.3068762573978
 21
745.1047311283971
 31
0
  0
LINE
  8
1
 62
7
 10
387.0948762573976
 20
743.476731128397
 30
0
 11
387.0948762573976
 21
745.1047311283971
 31
0
  0
LINE
  8
1
 62
7
 10
390.3068762573978
 20
743.476731128397
 30
0
 11
387.0948762573976
 21
743.476731128397
 31
0
  0
LINE
  8
1
 62
7
 10
395.1468762573977
 20
743.476731128397
 30
0
 11
391.9348762573977
 21
743.476731128397
 31
0
  0
LINE
  8
1
 62
7
 10
395.1468762573977
 20
745.1047311283971
 30
0
 11
395.1468762573977
 21
743.476731128397
 31
0
  0
LINE
  8
1
 62
7
 10
391.9348762573977
 20
745.1047311283971
 30
0
 11
395.1468762573977
 21
745.1047311283971
 31
0
  0
LINE
  8
1
 62
7
 10
391.9348762573977
 20
748.3167311283971
 30
0
 11
391.9348762573977
 21
745.1047311283971
 31
0
  0
LINE
  8
1
 62
7
 10
390.3068762573978
 20
748.3167311283971
 30
0
 11
391.9348762573977
 21
748.3167311283971
 31
0
  0
LINE
  8
1
 62
7
 10
382.7492860020002
 20
779.2907311283971
 30
0
 11
389.8678938354233
 21
769.4706421366634
 31
0
  0
LINE
  8
1
 62
7
 10
388.2593891803631
 20
768.6226883332877
 30
0
 11
377.4316835538207
 21
772.6550028800018
 31
0
  0
LINE
  8
1
 62
7
 10
377.4316835538207
 20
772.6550028800018
 30
0
 11
383.0961034868242
 21
764.8409598634059
 31
0
  0
LINE
  8
1
 62
7
 10
381.800539075437
 20
763.5613063353258
 30
0
 11
374.6730246507009
 21
773.3936819315973
 31
0
  0
LINE
  8
1
 62
7
 10
376.0178321448593
 20
774.6054048380788
 30
0
 11
386.5514131691621
 21
770.9788339193658
 31
0
  0
LINE
  8
1
 62
7
 10
386.5514131691621
 20
770.9788339193658
 30
0
 11
381.1866996188776
 21
778.3794332657158
 31
0
  0
LINE
  8
1
 62
7
 10
370.1340430347018
 20
759.1426992386218
 30
0
 11
372.1018268359835
 21
758.0114196320376
 31
0
  0
LINE
  8
1
 62
7
 10
375.0150390686015
 20
763.7188690939547
 30
0
 11
373.3020793178948
 21
764.7036502633146
 31
0
  0
LINE
  8
1
 62
7
 10
370.701789259088
 20
756.7381503352076
 30
0
 11
369.1178496642574
 21
757.6506496094255
 31
0
  0
LINE
  8
1
 62
7
 10
375.6851314536764
 20
765.4098923026224
 30
0
 11
374.0215740064668
 21
766.3662720701475
 31
0
  0
LINE
  8
1
 62
7
 10
369.1626949319757
 20
732.4915391412924
 30
0
 11
365.6799207660943
 21
727.7819423893441
 31
0
  0
LINE
  8
1
 62
7
 10
363.5144879743953
 20
733.8041192491337
 30
0
 11
369.1626949319757
 21
732.4915391412924
 31
0
  0
LINE
  8
1
 62
7
 10
374.4915431102754
 20
739.709391219043
 30
0
 11
363.0790361752661
 21
735.5582760436541
 31
0
  0
LINE
  8
1
 62
7
 10
384.6097813348192
 20
717.1462098248471
 30
0
 11
383.6053304981156
 21
723.2806942747566
 31
0
  0
LINE
  8
1
 62
7
 10
383.1373244447259
 20
716.8560041669857
 30
0
 11
374.6730246507009
 21
715.1877803251969
 31
0
  0
LINE
  8
1
 62
7
 10
381.800539075437
 20
725.0201559214684
 30
0
 11
383.1373244447259
 21
716.8560041669857
 31
0
  0
LINE
  8
1
 62
7
 10
386.4890459083727
 20
717.5165929685118
 30
0
 11
388.2593891803631
 21
719.9587739235064
 31
0
  0
LINE
  8
1
 62
7
 10
385.1960422926536
 20
715.7329000231891
 30
0
 11
376.0671309299046
 21
713.9336882802797
 31
0
  0
LINE
  8
1
 62
7
 10
381.1866996188776
 20
710.2020289910786
 30
0
 11
385.1960422926536
 21
715.7329000231891
 31
0
  0
LINE
  8
1
 62
7
 10
386.4890459083727
 20
717.5165929685118
 30
0
 11
384.6097813348192
 21
717.1462098248471
 31
0
  0
LINE
  8
1
 62
7
 10
368.7411378973193
 20
728.8941714477619
 30
0
 11
377.0057981451118
 21
731.8980328639696
 31
0
  0
LINE
  8
1
 62
7
 10
372.2392741101726
 20
733.6245415955937
 30
0
 11
368.7411378973193
 21
728.8941714477619
 31
0
  0
LINE
  8
1
 62
7
 10
366.6158947398303
 20
734.9313520499186
 30
0
 11
372.2392741101726
 21
733.6245415955937
 31
0
  0
LINE
  8
1
 62
7
 10
374.8478081546755
 20
737.9233113497603
 30
0
 11
366.6158947398303
 21
734.9313520499186
 31
0
  0
LINE
  8
1
 62
7
 10
382.7492860020002
 20
709.2907311283971
 30
0
 11
389.8678938354233
 21
719.1108201201307
 31
0
  0
LINE
  8
1
 62
7
 10
366.4649032986026
 20
726.1488610529614
 30
0
 11
377.8631490860262
 21
730.2947889661209
 31
0
  0
LINE
  8
1
 62
7
 10
379.2896193454922
 20
728.0722727187645
 30
0
 11
369.7326704983675
 21
720.8080487829957
 31
0
  0
LINE
  8
1
 62
7
 10
370.821909989008
 20
719.3750249408947
 30
0
 11
380.3788588361322
 21
726.6392488766633
 31
0
  0
LINE
  8
1
 62
7
 10
399.1801086650157
 20
744.2907311283971
 30
0
 11
395.1504924612068
 21
746.6172311283972
 31
0
  0
LINE
  8
1
 62
7
 10
395.1504924612068
 20
741.9642311283972
 30
0
 11
399.1801086650157
 21
744.2907311283971
 31
0
  0
LINE
  8
1
 62
7
 10
395.1504924612068
 20
737.3112311283971
 30
0
 11
395.1504924612068
 21
741.9642311283972
 31
0
  0
LINE
  8
1
 62
7
 10
391.1208762573979
 20
739.637731128397
 30
0
 11
395.1504924612068
 21
737.3112311283971
 31
0
  0
LINE
  8
1
 62
7
 10
387.0912600535885
 20
737.3112311283971
 30
0
 11
391.1208762573979
 21
739.637731128397
 31
0
  0
LINE
  8
1
 62
7
 10
387.0912600535885
 20
741.9642311283972
 30
0
 11
387.0912600535885
 21
737.3112311283971
 31
0
  0
LINE
  8
1
 62
7
 10
396.6175394952174
 20
753.8112311283971
 30
0
 11
391.1208762573979
 21
750.637731128397
 31
0
  0
LINE
  8
1
 62
7
 10
396.6175394952174
 20
747.4642311283972
 30
0
 11
396.6175394952174
 21
753.8112311283971
 31
0
  0
LINE
  8
1
 62
7
 10
402.1142027330375
 20
744.2907311283971
 30
0
 11
396.6175394952174
 21
747.4642311283972
 31
0
  0
LINE
  8
1
 62
7
 10
396.6175394952174
 20
741.1172311283972
 30
0
 11
402.1142027330375
 21
744.2907311283971
 31
0
  0
LINE
  8
1
 62
7
 10
396.6175394952174
 20
734.770231128397
 30
0
 11
396.6175394952174
 21
741.1172311283972
 31
0
  0
LINE
  8
1
 62
7
 10
391.1208762573979
 20
737.9437311283971
 30
0
 11
396.6175394952174
 21
734.770231128397
 31
0
  0
LINE
  8
1
 62
7
 10
385.6242130195778
 20
734.770231128397
 30
0
 11
391.1208762573979
 21
737.9437311283971
 31
0
  0
LINE
  8
1
 62
7
 10
385.6242130195778
 20
741.1172311283972
 30
0
 11
385.6242130195778
 21
734.770231128397
 31
0
  0
LINE
  8
1
 62
7
 10
390.3068762573978
 20
740.264731128397
 30
0
 11
390.3068762573978
 21
743.476731128397
 31
0
  0
LINE
  8
1
 62
7
 10
391.9348762573977
 20
740.264731128397
 30
0
 11
390.3068762573978
 21
740.264731128397
 31
0
  0
LINE
  8
1
 62
7
 10
391.9348762573977
 20
743.476731128397
 30
0
 11
391.9348762573977
 21
740.264731128397
 31
0
  0
LINE
  8
1
 62
7
 10
365.9052148061385
 20
750.3430689528466
 30
0
 11
370.4953488854717
 21
746.8415238310377
 31
0
  0
LINE
  8
1
 62
7
 10
374.6395557290614
 20
749.6892283273319
 30
0
 11
365.9052148061385
 21
750.3430689528466
 31
0
  0
LINE
  8
1
 62
7
 10
367.2249162604471
 20
747.0724013880661
 30
0
 11
362.1148746590011
 21
744.2092750744034
 31
0
  0
LINE
  8
1
 62
7
 10
362.6145164393265
 20
750.5894060603084
 30
0
 11
367.2249162604471
 21
747.0724013880661
 31
0
  0
LINE
  8
1
 62
7
 10
362.159281954308
 20
742.4005407517802
 30
0
 11
374.2542788366145
 21
741.4951260906269
 31
0
  0
LINE
  8
1
 62
7
 10
365.3627675799369
 20
743.9657686534804
 30
0
 11
374.1318540096081
 21
743.3093270276079
 31
0
  0
LINE
  8
1
 62
7
 10
370.4953488854717
 20
746.8415238310377
 30
0
 11
365.3627675799369
 21
743.9657686534804
 31
0
  0
LINE
  8
1
 62
7
 10
375.0502607342419
 20
751.4635199058355
 30
0
 11
362.9401309500131
 21
752.3700673950002
 31
0
  0
ARC
  8
1
 62
7
 10
432.1142027330375
 20
740.2907311283971
 30
0
 40
5
 50
270
 51
88.65901141014363
  0
ARC
  8
1
 62
7
 10
488.9107648210269
 20
557.9660527339822
 30
0
 40
3.00000000000002
 50
242.1848161828262
 51
314.9999999999992
  0
ARC
  8
1
 62
7
 10
351.775145686473
 20
588.4268499588737
 30
0
 40
103.5000000000001
 50
235.4553258270819
 51
270
  0
ARC
  8
1
 62
7
 10
310.7101206753021
 20
528.9268499588736
 30
0
 40
31.49999999999943
 50
90
 51
124.4935691976498
  0
ARC
  8
1
 62
7
 10
362.1142027330375
 20
565.5871039967179
 30
0
 40
13.50000000000003
 50
150.0000000000001
 51
180
  0
ARC
  8
1
 62
7
 10
437.1142027330375
 20
503.4268499588736
 30
0
 40
18.5
 50
270
 51
0
  0
ARC
  8
1
 62
2
 10
337.7991188155893
 20
528.9268499588736
 30
0
 40
33.30489513782379
 50
0
 51
64.68338279772374
  0
ARC
  8
1
 62
2
 10
311.3590481182679
 20
528.9268499588736
 30
0
 40
59.74496583514522
 50
331.0299870773966
 51
0
  0
ARC
  8
1
 62
2
 10
454.4612691833971
 20
551.3010881344494
 30
0
 40
15.49999999999747
 50
114.136046999103
 51
172.6498033756812
  0
ARC
  8
1
 62
7
 10
310.6142027330376
 20
615.4268499588728
 30
0
 40
37.49999999999996
 50
319.4641978886835
 51
341.2030949649715
  0
ARC
  8
1
 62
7
 10
402.1142027330375
 20
744.2907311283971
 30
0
 40
56
 50
275.122516099781
 51
347.1021060708499
  0
ARC
  8
1
 62
7
 10
408.1142027330376
 20
688.6130875000969
 30
0
 40
1.00000000000009
 50
96.15063982794891
 51
180
  0
ARC
  8
1
 62
7
 10
396.1142027330375
 20
688.6130875000969
 30
0
 40
1
 50
0
 51
83.84936017205433
  0
ARC
  8
1
 62
7
 10
310.6142027330376
 20
615.4268499588728
 30
0
 40
37.49999999999997
 50
346.8995495249392
 51
358.4719314053893
  0
ARC
  8
1
 62
7
 10
402.1142027330375
 20
744.2907311283971
 30
0
 40
56.00000000000021
 50
95.12251609978077
 51
169.713439388525
  0
ARC
  8
1
 62
7
 10
408.1142027330376
 20
799.9683747566975
 30
0
 40
1.000000000000114
 50
180
 51
263.8493601720511
  0
ARC
  8
1
 62
7
 10
396.1142027330375
 20
799.9683747566975
 30
0
 40
1.000000000000084
 50
276.1506398279457
 51
0
  0
ARC
  8
1
 62
7
 10
402.1142027330375
 20
744.2907311283971
 30
0
 40
53.99999999999999
 50
13.38430845226725
 51
168.9968845096524
  0
ARC
  8
1
 62
7
 10
402.1142027330375
 20
744.2907311283971
 30
0
 40
56.00000000000004
 50
12.8978939291501
 51
84.87748390021912
  0
ARC
  8
1
 62
7
 10
402.1142027330451
 20
744.2907311283974
 30
0
 40
54.00000000000751
 50
176.283779608452
 51
183.7162203915485
  0
ARC
  8
1
 62
7
 10
402.1142027330375
 20
744.2907311283971
 30
0
 40
53.99999999999996
 50
191.0031154903476
 51
346.6156915477327
  0
ARC
  8
1
 62
7
 10
402.1142027330375
 20
744.2907311283971
 30
0
 40
55.99999999999985
 50
190.286560611475
 51
264.8774839002192
  0
ARC
  8
1
 62
7
 10
458.3592007314356
 20
616.4268499588728
 30
0
 40
8
 50
90
 51
131.4096221092691
  0
ARC
  8
1
 62
7
 10
343.1142027330376
 20
610.9268499588728
 30
0
 40
4
 50
180
 51
0
  0
ARC
  8
1
 62
7
 10
402.1142027330375
 20
744.2907311283971
 30
0
 40
50.00000000000014
 50
192.6575582716108
 51
167.3424417283894
  0
ARC
  8
1
 62
7
 10
402.1142027330375
 20
744.2907311283971
 30
0
 40
49.99999999999979
 50
175.9860127819437
 51
184.0139872180563
  0
ARC
  8
1
 62
7
 10
430.1142027330375
 20
740.2907311283971
 30
0
 40
3.199999999999932
 50
90
 51
270
  0
ARC
  8
1
 62
7
 10
430.1142027330375
 20
740.2907311283971
 30
0
 40
4.999999999999947
 50
91.34098858982966
 51
270
  0
ARC
  8
1
 62
7
 10
432.1142027330375
 20
740.2907311283971
 30
0
 40
3.200000000000159
 50
270
 51
90
  0
ARC
  8
1
 62
7
 10
432.4392027330376
 20
753.9657311283969
 30
0
 40
1.025000000000091
 50
90
 51
270
  0
ARC
  8
1
 62
7
 10
432.4392027330376
 20
750.615731128397
 30
0
 40
1.025000000000205
 50
90
 51
270
  0
ARC
  8
1
 62
7
 10
432.4392027330376
 20
753.9657311283969
 30
0
 40
2.325000000000159
 50
90
 51
226.0900023355176
  0
ARC
  8
1
 62
7
 10
432.4392027330376
 20
750.615731128397
 30
0
 40
2.325000000000226
 50
133.9099976644785
 51
206.158779126186
  0
ARC
  8
1
 62
7
 10
432.4392027330376
 20
763.9657311283969
 30
0
 40
1.025000000000091
 50
90
 51
270
  0
ARC
  8
1
 62
7
 10
432.4392027330376
 20
760.615731128397
 30
0
 40
1.025000000000205
 50
90
 51
270
  0
ARC
  8
1
 62
7
 10
432.4392027330376
 20
763.9657311283969
 30
0
 40
2.325000000000159
 50
90
 51
226.0900023355176
  0
ARC
  8
1
 62
7
 10
432.4392027330376
 20
760.615731128397
 30
0
 40
2.325000000000226
 50
133.9099976644785
 51
206.158779126186
  0
ARC
  8
1
 62
7
 10
402.1075292086775
 20
744.2907311283971
 30
0
 40
63.99999999999947
 50
350.2496898551442
 51
9.750310144856044
  0
ARC
  8
1
 62
7
 10
402.5254602124146
 20
744.1690048981316
 30
0
 40
28.42703881101583
 50
165.131301248859
 51
168.8026382062402
  0
ARC
  8
1
 62
7
 10
402.1142027330375
 20
744.2907311283971
 30
0
 40
27.99999999999995
 50
115.9360805318615
 51
119.6575367872217
  0
ARC
  8
1
 62
7
 10
402.1142027330375
 20
744.2907311283971
 30
0
 40
28.00000000000007
 50
132.7825517332646
 51
136.5094578103613
  0
ARC
  8
1
 62
7
 10
402.1142027330375
 20
744.2907311283971
 30
0
 40
40
 50
130.7234973641146
 51
133.3166215934859
  0
ARC
  8
1
 62
7
 10
402.1142027330375
 20
744.2907311283971
 30
0
 40
40.0000000000001
 50
118.9550243718601
 51
121.546311832686
  0
ARC
  8
1
 62
7
 10
402.1148002587588
 20
744.2864243703236
 30
0
 40
27.99999999999999
 50
181.9998186610399
 51
185.7212749164005
  0
ARC
  8
1
 62
7
 10
373.5571363616959
 20
760.8650296319795
 30
0
 40
5.018380197483624
 50
235.3210221661463
 51
64.91007180298279
  0
ARC
  8
1
 62
7
 10
373.5703111715895
 20
760.859081449257
 30
0
 40
3.204001259233462
 50
242.7207140490397
 51
57.01309575128997
  0
ARC
  8
1
 62
7
 10
373.5703111715895
 20
760.859081449257
 30
0
 40
3.204001259233526
 50
57.01309575128997
 51
63.19768219958151
  0
ARC
  8
1
 62
7
 10
402.1171489113806
 20
744.2843181300777
 30
0
 40
39.99999999999995
 50
192.5959391823084
 51
195.1890634116796
  0
ARC
  8
1
 62
7
 10
402.1171489113806
 20
744.2843181300777
 30
0
 40
39.99999999999996
 50
204.3657136222634
 51
206.9575364039343
  0
ARC
  8
1
 62
7
 10
402.1142027330375
 20
744.2907311283971
 30
0
 40
28.00000000000026
 50
223.4905421896388
 51
228.6214382649361
  0
ARC
  8
1
 62
7
 10
402.1142027330375
 20
744.2907311283971
 30
0
 40
40.00000000000002
 50
226.6833784065142
 51
229.3696139522229
  0
ARC
  8
1
 62
7
 10
402.5397938620727
 20
744.345963694728
 30
0
 40
28.42703881101577
 50
189.386506576391
 51
193.057843533772
  0
ARC
  8
1
 62
7
 10
402.1171489113806
 20
744.2843181300777
 30
0
 40
27.99999999999995
 50
206.255023988572
 51
209.9764802439328
  0
ARC
  8
1
 62
7
 10
402.1142027330375
 20
744.2907311283971
 30
0
 40
27.99999999999996
 50
240.3424632127783
 51
244.0639194681385
  0
ARC
  8
1
 62
7
 10
402.1142027330375
 20
744.2907311283971
 30
0
 40
39.99999999999992
 50
238.4536881673138
 51
241.0449756281399
  0
ARC
  8
1
 62
7
 10
402.1142027330375
 20
744.2907311283971
 30
0
 40
27.99999999999982
 50
215.396449361283
 51
219.0803840096221
  0
ARC
  8
1
 62
7
 10
402.1142027330375
 20
744.2907311283971
 30
0
 40
39.99999999999994
 50
215.9491528491644
 51
218.5276805217406
  0
ARC
  8
1
 62
7
 10
371.8501962578766
 20
761.8506501617205
 30
0
 40
5.010561101008374
 50
64.31900348006609
 51
236.9536376728231
  0
ARC
  8
1
 62
7
 10
371.8426280617423
 20
761.8522098366902
 30
0
 40
3.203234377261942
 50
62.89529519795978
 51
237.7649586501065
  0
ARC
  8
1
 62
7
 10
402.1148002587588
 20
744.2864243703236
 30
0
 40
39.99999999999982
 50
168.3407338547764
 51
170.9338580841473
  0
ARC
  8
1
 62
7
 10
402.1148002587588
 20
744.2864243703236
 30
0
 40
40.00000000000018
 50
180.1105082947312
 51
182.7023310764021
  0
CIRCLE
  8
1
 62
7
 10
343.0628763047806
 20
565.4268499588735
 30
0
 40
1
  0
CIRCLE
  8
1
 62
7
 10
343.1142027330376
 20
610.9268499588728
 30
0
 40
1.299999999999871
  0
ARC
  8
1
 62
7
 10
484.8106562039096
 20
498.3309015513898
 30
0
 40
6.999999999999976
 50
45.00000000000132
 51
80.38450807059277
  0
ARC
  8
1
 62
7
 10
458.6142027330375
 20
506.8259832195359
 30
0
 40
3.000000000000041
 50
80.38450807059445
 51
180
  0
ARC
  8
1
 62
7
 10
455.3417193235986
 20
575.6763732039061
 30
0
 40
3.000000000000246
 50
209.9999999999973
 51
242.1848161828253
  0
ARC
  8
1
 62
7
 10
334.6142027330375
 20
562.4268499588734
 30
0
 40
2
 50
270
 51
0
  0
ARC
  8
1
 62
7
 10
353.7151230489509
 20
676.2482511197036
 30
0
 40
29.99999999999987
 50
73.60351212163928
 51
78.86680205944975
  0
ARC
  8
1
 62
7
 10
451.7882108554698
 20
811.4081127597787
 30
0
 40
30.00000000000012
 50
252.5226312831339
 51
253.6776567411738
  0
ARC
  8
1
 62
7
 10
488.0004866212192
 20
772.669655703698
 30
0
 40
3.00000000000011
 50
253.6776567411751
 51
315.0000000000008
  0
ARC
  8
1
 62
7
 10
488.0004866212192
 20
715.9118065530959
 30
0
 40
3.000000000000185
 50
45.00000000000613
 51
106.3223432588249
  0
ARC
  8
1
 62
7
 10
291.3544322153386
 20
772.5431423332153
 30
0
 40
2.999999999999904
 50
224.9999999999992
 51
281.13319794055
  0
ARC
  8
1
 62
7
 10
291.3544322153386
 20
716.0383199235793
 30
0
 40
2.999999999999983
 50
78.86680205944786
 51
134.9999999999992
  0
ARC
  8
1
 62
7
 10
454.4921234487319
 20
579.1479164250757
 30
0
 40
3.999999999999952
 50
134.9999999999965
 51
209.9999999999999
  0
ARC
  8
1
 62
7
 10
349.736282017343
 20
579.1479164250757
 30
0
 40
3.999999999999935
 50
329.9999999999994
 51
45
  0
ARC
  8
1
 62
7
 10
291.1722968341388
 20
557.3613965448916
 30
0
 40
2.999999999999944
 50
225.0000000000015
 51
304.49356919765
  0
ARC
  8
1
 62
7
 10
291.3844649644351
 20
500.7044715031519
 30
0
 40
2.99999999999996
 50
55.45532582708229
 51
135.0000000000015
  0
ARC
  8
1
 62
7
 10
344.6142027330375
 20
564.4268499588735
 30
0
 40
4
 50
270
 51
0
  0
ARC
  8
1
 62
7
 10
404.1142027330375
 20
484.4268499588736
 30
0
 40
0.5
 50
90
 51
180
  0
ARC
  8
1
 62
7
 10
400.1142027330375
 20
484.4268499588736
 30
0
 40
0.5
 50
0
 51
90
  0
ARC
  8
1
 62
7
 10
338.6142027330375
 20
568.4268499588734
 30
0
 40
2
 50
90
 51
180
  0
ARC
  8
1
 62
7
 10
353.715123048951
 20
812.3332111370905
 30
0
 40
29.99999999999984
 50
281.13319794055
 51
286.3964878783605
  0
ARC
  8
1
 62
7
 10
451.7882108554697
 20
677.1733494970156
 30
0
 40
29.99999999999987
 50
106.3223432588261
 51
107.4773687168668
  0
ARC
  8
1
 62
7
 10
347.1142027330375
 20
605.9268499588731
 30
0
 40
1
 50
90
 51
180
  0
ARC
  8
1
 62
7
 10
457.1142027330374
 20
605.9268499588731
 30
0
 40
1
 50
0
 51
90
  0
ARC
  8
1
 62
7
 10
340.1142027330376
 20
588.9268499588728
 30
0
 40
1
 50
180
 51
270
  0
ARC
  8
1
 62
7
 10
465.1142027330375
 20
605.9268499588731
 30
0
 40
1
 50
0
 51
90
  0
ARC
  8
1
 62
7
 10
465.1142027330374
 20
588.9268499588728
 30
0
 40
0.9999999999997726
 50
270
 51
0
  0
ARC
  8
1
 62
7
 10
398.1142027330376
 20
588.9268499588728
 30
0
 40
1
 50
180
 51
270
  0
ARC
  8
1
 62
7
 10
398.1142027330375
 20
605.9268499588731
 30
0
 40
0.9999999999997726
 50
90
 51
180
  0
ARC
  8
1
 62
7
 10
347.1142027330376
 20
607.9268499588728
 30
0
 40
0.9999999999997726
 50
270
 51
0
  0
ARC
  8
1
 62
7
 10
457.1142027330374
 20
607.9268499588728
 30
0
 40
1
 50
180
 51
270
  0
ARC
  8
1
 62
7
 10
398.1142027330376
 20
681.2907311283969
 30
0
 40
1.000000000000114
 50
180
 51
270
  0
ARC
  8
1
 62
7
 10
406.1142027330375
 20
681.2907311283969
 30
0
 40
1
 50
270
 51
0
  0
ARC
  8
1
 62
7
 10
406.1142027330374
 20
588.9268499588728
 30
0
 40
0.9999999999997726
 50
270
 51
0
  0
ARC
  8
1
 62
7
 10
406.1142027330374
 20
605.9268499588731
 30
0
 40
1.000000000000057
 50
0
 51
90
  0
ARC
  8
1
 62
7
 10
465.1142027330375
 20
748.2907311283972
 30
0
 40
1
 50
0
 51
33.80578557265314
  0
ARC
  8
1
 62
7
 10
398.1142027330376
 20
807.2907311283974
 30
0
 40
1
 50
90
 51
180
  0
ARC
  8
1
 62
7
 10
406.1142027330375
 20
807.2907311283974
 30
0
 40
1
 50
0
 51
90
  0
ARC
  8
1
 62
7
 10
465.1142027330375
 20
740.2907311283972
 30
0
 40
0.9999999999999647
 50
326.1942144273468
 51
0
  0
ARC
  8
1
 62
7
 10
464.6142027330376
 20
622.9268499588728
 30
0
 40
1.5
 50
0
 51
90
  0
ARC
  8
1
 62
7
 10
454.6142027330376
 20
620.9268499588728
 30
0
 40
1.500000000000114
 50
0
 51
90
  0
ARC
  8
1
 62
7
 10
457.6142027330376
 20
619.9268499588728
 30
0
 40
1.5
 50
90
 51
180
  0
ARC
  8
1
 62
7
 10
342.1142027330376
 20
622.4268499588728
 30
0
 40
3
 50
90
 51
180
  0
ARC
  8
1
 62
7
 10
349.6142027330377
 20
620.9268499588728
 30
0
 40
1.5
 50
90
 51
180
  0
ARC
  8
1
 62
7
 10
451.6747717370356
 20
730.2907311283971
 30
0
 40
1.5
 50
90
 51
164.2259355890654
  0
ARC
  8
1
 62
7
 10
451.6747717370356
 20
758.2907311283971
 30
0
 40
1.500000000000087
 50
195.7740644109346
 51
270
  0
ARC
  8
1
 62
7
 10
340.1142027330375
 20
753.2907311283971
 30
0
 40
1
 50
90
 51
180
  0
ARC
  8
1
 62
7
 10
340.1142027330375
 20
735.2907311283971
 30
0
 40
1
 50
180
 51
270
  0
ARC
  8
1
 62
7
 10
463.2119480341596
 20
754.7907311283971
 30
0
 40
2.000000000000033
 50
9.750310144859935
 51
90
  0
ARC
  8
1
 62
7
 10
463.2119480341596
 20
733.7907311283971
 30
0
 40
2
 50
270
 51
350.2496898551465
  0
LINE
  8
1
 62
2
 10
356.263334115873
 20
472.001491650245
 30
0
 11
325.5876827278815
 21
472.001491650245
 31
0
  0
LINE
  8
1
 62
2
 10
325.5876827278815
 20
472.001491650245
 30
0
 11
350.97123948474
 21
525.4972035032453
 31
0
  0
LINE
  8
1
 62
2
 10
350.4114203437438
 20
522.442244672607
 30
0
 11
350.97123948474
 21
525.4972035032453
 31
0
  0
LINE
  8
1
 62
2
 10
348.9589424717934
 20
523.1314411188949
 30
0
 11
350.97123948474
 21
525.4972035032453
 31
0
  0
LINE
  8
1
 62
2
 10
290.7938419658394
 20
479.1560760289572
 30
0
 11
316.1478552702695
 21
479.1560760289572
 31
0
  0
LINE
  8
1
 62
2
 10
316.1478552702695
 20
479.1560760289572
 30
0
 11
341.0081932120566
 21
525.8695157762502
 31
0
  0
LINE
  8
1
 62
2
 10
340.3084047280854
 20
522.8435503096227
 30
0
 11
341.0081932120566
 21
525.8695157762502
 31
0
  0
LINE
  8
1
 62
2
 10
338.889175874348
 20
523.598847053162
 30
0
 11
341.0081932120566
 21
525.8695157762502
 31
0
  0
LINE
  8
1
 62
2
 10
241.635499755539
 20
583.450786042135
 30
0
 11
310.99891743401
 21
583.450786042135
 31
0
  0
LINE
  8
1
 62
2
 10
310.99891743401
 20
583.450786042135
 30
0
 11
278.116828531581
 21
556.9268499588736
 31
0
  0
LINE
  8
1
 62
2
 10
279.9471673135682
 20
559.4360392444147
 30
0
 11
278.116828531581
 21
556.9268499588736
 31
0
  0
LINE
  8
1
 62
2
 10
280.9565430570843
 20
558.1847022320624
 30
0
 11
278.116828531581
 21
556.9268499588736
 31
0
  0
DIMENSION
  8
1
  6
CONTINUOUS
 62
2
  2
*D0
  3
DMST_1
 10
287.1142027330375
 20
494.749066599719
 30
0
 11
277.1142027330375
 21
497.349066599719
 31
0
 12
0
 22
0
 32
0
 70
128
 13
267.1142027330375
 23
501.9268499588736
 33
0
 14
287.1142027330375
 24
500.9268499588737
 34
0
 53
0
  0
DIMENSION
  8
1
  6
CONTINUOUS
 62
2
  2
*D1
  3
DMST_2
 10
512.1142027330375
 20
457.268216669036
 30
0
 11
403.482219116938
 21
459.568216669036
 31
0
 12
0
 22
0
 32
0
 70
128
 13
267.1142027330375
 23
501.9268499588736
 33
0
 14
512.1142027330375
 24
501.9268499588736
 34
0
 53
0
  0
DIMENSION
  8
1
  6
CONTINUOUS
 62
2
  2
*D2
  3
DMST_2
 10
553.961551666878
 20
625.4268499588728
 30
0
 11
551.661551666878
 21
554.6768499588733
 31
0
 12
0
 22
0
 32
0
 70
128
 13
437.1142027330375
 23
483.9268499588736
 33
0
 14
347.1142027330376
 24
625.4268499588728
 34
0
 50
90
 53
0
  0
DIMENSION
  8
1
  6
CONTINUOUS
 62
2
  2
*D3
  3
DMST_2
 10
534.84335346868
 20
528.9268499588734
 30
0
 11
532.54335346868
 21
506.4268499588735
 31
0
 12
0
 22
0
 32
0
 70
128
 13
437.1142027330375
 23
483.9268499588736
 33
0
 14
520.8128109766012
 24
528.9268499588734
 34
0
 50
90
 53
0
  0
DIMENSION
  8
1
  6
CONTINUOUS
 62
2
  2
*D4
  3
DMST_2
 10
553.961551666878
 20
808.2907311283974
 30
0
 11
551.661551666878
 21
744.2907311283972
 31
0
 12
0
 22
0
 32
0
 70
128
  1
128
 13
406.1142027330375
 23
680.2907311283969
 33
0
 14
406.1142027330375
 24
808.2907311283974
 34
0
 50
90
 53
0
  0
ENDSEC
  0
EOF
