  0
SECTION
  2
HEADER
  9
$ACADVER
  1
AC1009
  9
$INSBASE
 10
0
 20
0
  9
$EXTMIN
 10
695.9322912411324
 20
379.3630038062896
  9
$EXTMAX
 10
991.2371795556369
 20
799.8297077928633
  9
$LIMMIN
 10
695.9322912411324
 20
379.3630038062896
  9
$LIMMAX
 10
991.2371795556369
 20
799.8297077928633
  9
$VIEWCTR
 10
10
 20
10
  9
$VIEWSIZE
 40
10
  9
$SNAPMODE
 70
0
  9
$SNAPUNIT
 10
1
 20
1
  9
$SNAPBASE
 10
0
 20
0
  9
$SNAPANG
 50
0
  9
$SNAPSTYLE
 70
0
  9
$SNAPISOPAIR
 70
0
  9
$GRIDMODE
 70
0
  9
$GRIDUNIT
 10
0
 20
0
  9
$ORTHOMODE
 70
0
  9
$REGENMODE
 70
1
  9
$FILLMODE
 70
1
  9
$QTEXTMODE
 70
0
  9
$DRAGMODE
 70
2
  9
$LTSCALE
 40
1
  9
$OSMODE
 70
0
  9
$ATTMODE
 70
1
  9
$TEXTSIZE
 40
3.5
  9
$TRACEWID
 40
0.5
  9
$TEXTSTYLE
  7
STANDARD
  9
$CLAYER
  8
0
  9
$CELTYPE
  6
BYLAYER
  9
$CECOLOR
 62
256
  9
$DIMSCALE
 40
1
  9
$DIMASZ
 40
0.18
  9
$DIMEXO
 40
0.0625
  9
$DIMDLI
 40
0.38
  9
$DIMRND
 40
0
  9
$DIMDLE
 40
0
  9
$DIMEXE
 40
0.18
  9
$DIMTP
 40
0
  9
$DIMTM
 40
0
  9
$DIMTXT
 40
0.18
  9
$DIMCEN
 40
0.09
  9
$DIMTSZ
 40
0
  9
$DIMTOL
 70
0
  9
$DIMLIM
 70
0
  9
$DIMTIH
 70
1
  9
$DIMTOH
 70
1
  9
$DIMSE1
 70
0
  9
$DIMSE2
 70
0
  9
$DIMTAD
 70
0
  9
$DIMZIN
 70
0
  9
$DIMBLK
  1

  9
$DIMASO
 70
1
  9
$DIMSHO
 70
1
  9
$DIMPOST
  1

  9
$DIMAPOST
  1

  9
$DIMALT
 70
0
  9
$DIMALTD
 70
2
  9
$DIMALTF
 40
25.4
  9
$DIMLFAC
 40
1
  9
$DIMTOFL
 70
0
  9
$DIMTVP
 40
0
  9
$DIMTIX
 70
0
  9
$DIMSOXD
 70
0
  9
$DIMSAH
 70
0
  9
$DIMBLK1
  1

  9
$DIMBLK2
  1

  9
$DIMSTYLE
  2
*UNNAMED
  9
$DIMCLRD
 70
0
  9
$DIMCLRE
 70
0
  9
$DIMCLRT
 70
0
  9
$DIMTFAC
 40
1
  9
$DIMGAP
 40
0.09
  9
$LUNITS
 70
2
  9
$LUPREC
 70
4
  9
$AXISMODE
 70
0
  9
$AXISUNIT
 10
0
 20
0
  9
$SKETCHINC
 40
0.1
  9
$FILLETRAD
 40
2
  9
$AUNITS
 70
0
  9
$AUPREC
 70
0
  9
$MENU
  1
ACAD
  9
$ELEVATION
 40
0
  9
$THICKNESS
 40
0
  9
$VIEWDIR
 10
0
 20
0
 30
1
  9
$LIMCHECK
 70
0
  9
$BLIPMODE
 70
1
  9
$CHAMFERA
 40
0
  9
$CHAMFERB
 40
0
  9
$FASTZOOM
 70
1
  9
$SKPOLY
 70
0
  9
$ANGBASE
 50
0
  9
$ANGDIR
 70
0
  9
$PDMODE
 70
0
  9
$PDSIZE
 40
0
  9
$PLINEWID
 40
0
  9
$COORDS
 70
2
  0
ENDSEC
  0
SECTION
  2
TABLES
  0
TABLE
  2
DIMSTYLE
 70
2
  0
DIMSTYLE
  2
DMST_1
 70
0
  3

  4

  5

  6

  7

 40
1
 41
3
 42
0.5
 43
7
 44
1
 45
0
 46
0
 47
0
 48
0
140
3
141
0
142
0
143
25.4
144
1
145
0
146
1
147
0.09
 71
0
 72
0
 73
0
 74
0
 75
0
 76
0
 77
1
 78
9
170
0
171
2
172
0
173
0
174
0
175
0
176
2
177
2
178
2
  0
DIMSTYLE
  2
DMST_2
 70
0
  3

  4

  5

  6

  7

 40
1
 41
3.2
 42
0.5
 43
7
 44
1.5
 45
0
 46
0
 47
0
 48
0
140
3.2
141
0
142
0
143
25.4
144
1
145
0
146
1
147
0.09
 71
0
 72
0
 73
0
 74
0
 75
0
 76
0
 77
1
 78
9
170
0
171
2
172
0
173
0
174
0
175
0
176
2
177
2
178
2
  0
ENDTAB
  0
TABLE
  2
LTYPE
 70
9
  0
LTYPE
  2
CONTINUOUS
 70
64
  3
Solid line
 72
65
 73
0
 40
0
  0
LTYPE
  2
BORDER
 70
64
  3
__ __ . __ __ .
 72
65
 73
6
 40
19.363598209908
 49
5.532456631402285
 49
-2.766228315701143
 49
5.532456631402285
 49
-2.766228315701143
 49
0
 49
-2.766228315701143
  0
LTYPE
  2
CENTER
 70
64
  3
____ _ ____ _
 72
65
 73
4
 40
22.12982652560914
 49
13.83114157850571
 49
-2.766228315701143
 49
2.766228315701143
 49
-2.766228315701143
  0
LTYPE
  2
DASHDOT
 70
64
  3
__ . __ . __ .
 72
65
 73
4
 40
11.06491326280457
 49
5.532456631402285
 49
-2.766228315701143
 49
0
 49
-2.766228315701143
  0
LTYPE
  2
DASHED
 70
64
  3
__ __ __ __ __
 72
65
 73
2
 40
8.298684947103428
 49
5.532456631402285
 49
-2.766228315701143
  0
LTYPE
  2
DIVIDE
 70
64
  3
__ . . __ . . 
 72
65
 73
6
 40
13.83114157850571
 49
5.532456631402285
 49
-2.766228315701143
 49
0
 49
-2.766228315701143
 49
0
 49
-2.766228315701143
  0
LTYPE
  2
DOT
 70
64
  3
..............
 72
65
 73
4
 40
5.532456631402285
 49
0
 49
-2.766228315701143
 49
0
 49
-2.766228315701143
  0
LTYPE
  2
HIDDEN
 70
64
  3
_ _ _ _ _ _ _
 72
65
 73
2
 40
4.149342473551714
 49
2.766228315701143
 49
-1.383114157850571
  0
LTYPE
  2
PHANTOM
 70
64
  3
_____ _ _ _____ _ _ 
 72
65
 73
6
 40
27.66228315701142
 49
13.83114157850571
 49
-2.766228315701143
 49
2.766228315701143
 49
-2.766228315701143
 49
2.766228315701143
 49
-2.766228315701143
  0
ENDTAB
  0
TABLE
  2
LAYER
 70
3
  0
LAYER
  2
1
 70
0
 62
7
  6
CONTINUOUS
  0
LAYER
  2
0
 70
0
 62
7
  6
CONTINUOUS
  0
ENDTAB
  0
TABLE
  2
STYLE
 70
4
  0
STYLE
  2
STANDARD
 70
0
 40
0
 41
1
 50
0
 71
0
 42
3.5
  3
txt
  4

  0
STYLE
  2
SIMPLEX
 70
0
 40
0
 41
1
 50
0
 71
0
 42
3.5
  3
simplex
  4

  0
STYLE
  2
COMPLEX
 70
0
 40
0
 41
1
 50
0
 71
0
 42
3.5
  3
complex
  4

  0
STYLE
  2
ITALIC
 70
0
 40
0
 41
1
 50
0
 71
0
 42
3.5
  3
italic
  4

  0
ENDTAB
  0
TABLE
  2
VIEW
 70
0
  0
ENDTAB
  0
ENDSEC
  0
SECTION
  2
BLOCKS
  0
BLOCK
  8
1
  2
*D0
 70
1
 10
0
 20
0
 30
0
  0
LINE
  8
1
 62
2
 10
990.2371795556369
 20
665.1491012692372
 30
0
 11
990.2371795556369
 21
793.1491012692377
 31
0
  0
LINE
  8
1
 62
2
 10
849.0275109978234
 20
793.1491012692377
 30
0
 11
991.2371795556369
 21
793.1491012692377
 31
0
  0
LINE
  8
1
 62
2
 10
849.0275109978234
 20
665.1491012692372
 30
0
 11
991.2371795556369
 21
665.1491012692372
 31
0
  0
LINE
  8
1
 62
2
 10
990.2371795556369
 20
793.1491012692377
 30
0
 11
991.0471795556368
 21
790.1491012692377
 31
0
  0
LINE
  8
1
 62
2
 10
990.2371795556369
 20
793.1491012692377
 30
0
 11
989.4271795556369
 21
790.1491012692377
 31
0
  0
LINE
  8
1
 62
2
 10
990.2371795556369
 20
665.1491012692372
 30
0
 11
989.4271795556369
 21
668.1491012692372
 31
0
  0
LINE
  8
1
 62
2
 10
990.2371795556369
 20
665.1491012692372
 30
0
 11
991.0471795556368
 21
668.1491012692372
 31
0
  0
TEXT
  8
1
 62
2
 10
989.4371795556369
 20
725.5971774805907
 30
0
 40
3
  1
128
 50
90
 41
0.9
 51
15
  0
ENDBLK
  8
0
  0
BLOCK
  8
1
  2
*D1
 70
1
 10
0
 20
0
 30
0
  0
LINE
  8
1
 62
2
 10
990.2371795556369
 20
458.7852200997139
 30
0
 11
990.2371795556369
 21
610.2852200997131
 31
0
  0
LINE
  8
1
 62
2
 10
790.0275109978236
 20
610.2852200997131
 30
0
 11
991.2371795556369
 21
610.2852200997131
 31
0
  0
LINE
  8
1
 62
2
 10
882.5275109978231
 20
458.7852200997139
 30
0
 11
991.2371795556369
 21
458.7852200997139
 31
0
  0
LINE
  8
1
 62
2
 10
990.2371795556369
 20
610.2852200997131
 30
0
 11
991.0471795556368
 21
607.2852200997131
 31
0
  0
LINE
  8
1
 62
2
 10
990.2371795556369
 20
610.2852200997131
 30
0
 11
989.4271795556369
 21
607.2852200997131
 31
0
  0
LINE
  8
1
 62
2
 10
990.2371795556369
 20
458.7852200997139
 30
0
 11
989.4271795556369
 21
461.7852200997139
 31
0
  0
LINE
  8
1
 62
2
 10
990.2371795556369
 20
458.7852200997139
 30
0
 11
991.0471795556368
 21
461.7852200997139
 31
0
  0
TEXT
  8
1
 62
2
 10
989.4371795556369
 20
530.9832963110669
 30
0
 40
3
  1
152
 50
90
 41
0.9
 51
15
  0
ENDBLK
  8
0
  0
BLOCK
  8
1
  2
*D2
 70
1
 10
0
 20
0
 30
0
  0
LINE
  8
1
 62
2
 10
969.6547447730279
 20
458.7852200997139
 30
0
 11
969.6547447730279
 21
513.7852200997137
 31
0
  0
LINE
  8
1
 62
2
 10
955.428933065667
 20
513.7852200997137
 30
0
 11
970.6547447730279
 21
513.7852200997137
 31
0
  0
LINE
  8
1
 62
2
 10
882.5275109978231
 20
458.7852200997139
 30
0
 11
970.6547447730279
 21
458.7852200997139
 31
0
  0
LINE
  8
1
 62
2
 10
969.6547447730279
 20
513.7852200997137
 30
0
 11
970.4647447730279
 21
510.7852200997137
 31
0
  0
LINE
  8
1
 62
2
 10
969.6547447730279
 20
513.7852200997137
 30
0
 11
968.844744773028
 21
510.7852200997137
 31
0
  0
LINE
  8
1
 62
2
 10
969.6547447730279
 20
458.7852200997139
 30
0
 11
968.844744773028
 21
461.7852200997139
 31
0
  0
LINE
  8
1
 62
2
 10
969.6547447730279
 20
458.7852200997139
 30
0
 11
970.4647447730279
 21
461.7852200997139
 31
0
  0
TEXT
  8
1
 62
2
 10
968.854744773028
 20
483.6332963110671
 30
0
 40
3
  1
55
 50
90
 41
0.9
 51
15
  0
ENDBLK
  8
0
  0
BLOCK
  8
1
  2
*D3
 70
1
 10
0
 20
0
 30
0
  0
LINE
  8
1
 62
2
 10
706.5275109978231
 20
438.577891157702
 30
0
 11
951.5275109978231
 21
438.577891157702
 31
0
  0
LINE
  8
1
 62
2
 10
951.5275109978231
 20
477.1722200997139
 30
0
 11
951.5275109978231
 21
437.577891157702
 31
0
  0
LINE
  8
1
 62
2
 10
706.5275109978231
 20
477.1722200997139
 30
0
 11
706.5275109978231
 21
437.577891157702
 31
0
  0
LINE
  8
1
 62
2
 10
706.5275109978231
 20
438.577891157702
 30
0
 11
709.5275109978231
 21
439.387891157702
 31
0
  0
LINE
  8
1
 62
2
 10
706.5275109978231
 20
438.577891157702
 30
0
 11
709.5275109978231
 21
437.767891157702
 31
0
  0
LINE
  8
1
 62
2
 10
951.5275109978231
 20
438.577891157702
 30
0
 11
948.5275109978231
 21
437.767891157702
 31
0
  0
LINE
  8
1
 62
2
 10
951.5275109978231
 20
438.577891157702
 30
0
 11
948.5275109978231
 21
439.387891157702
 31
0
  0
TEXT
  8
1
 62
2
 10
840.1192557669893
 20
439.377891157702
 30
0
 40
3
  1
245
 41
0.9
 51
15
  0
ENDBLK
  8
0
  0
BLOCK
  8
1
  2
*D4
 70
1
 10
0
 20
0
 30
0
  0
LINE
  8
1
 62
2
 10
706.5275109978231
 20
466.939580257273
 30
0
 11
729.5275109978231
 21
466.939580257273
 31
0
  0
LINE
  8
1
 62
2
 10
729.5275109978231
 20
477.1722200997139
 30
0
 11
729.5275109978231
 21
465.439580257273
 31
0
  0
LINE
  8
1
 62
2
 10
706.5275109978231
 20
477.1722200997139
 30
0
 11
706.5275109978231
 21
465.439580257273
 31
0
  0
LINE
  8
1
 62
2
 10
706.5275109978231
 20
466.939580257273
 30
0
 11
709.7275109978232
 21
467.8035802572729
 31
0
  0
LINE
  8
1
 62
2
 10
706.5275109978231
 20
466.939580257273
 30
0
 11
709.7275109978232
 21
466.075580257273
 31
0
  0
LINE
  8
1
 62
2
 10
729.5275109978231
 20
466.939580257273
 30
0
 11
726.3275109978231
 21
466.075580257273
 31
0
  0
LINE
  8
1
 62
2
 10
729.5275109978231
 20
466.939580257273
 30
0
 11
726.3275109978231
 21
467.8035802572729
 31
0
  0
TEXT
  8
1
 62
2
 10
715.1987922899333
 20
467.939580257273
 30
0
 40
3.2
  1
23
 41
0.9
 51
15
  0
ENDBLK
  8
0
  0
ENDSEC
  0
SECTION
  2
ENTITIES
  0
LINE
  8
1
 62
2
 10
908.0025109978233
 20
407.1755038062896
 30
0
 11
908.5025109978233
 21
406.3317538062896
 31
0
  0
LINE
  8
1
 62
2
 10
907.2525109978233
 20
408.0192538062896
 30
0
 11
908.0025109978233
 21
407.1755038062896
 31
0
  0
LINE
  8
1
 62
2
 10
906.2525109978233
 20
408.8630038062896
 30
0
 11
907.2525109978233
 21
408.0192538062896
 31
0
  0
LINE
  8
1
 62
2
 10
905.7525109978233
 20
409.9880038062896
 30
0
 11
905.0025109978233
 21
411.3942538062896
 31
0
  0
LINE
  8
1
 62
2
 10
907.0025109978233
 20
410.2692538062896
 30
0
 11
906.5025109978233
 21
411.6755038062896
 31
0
  0
LINE
  8
1
 62
2
 10
908.5025109978233
 20
409.7067538062896
 30
0
 11
909.2525109978233
 21
411.3942538062896
 31
0
  0
LINE
  8
1
 62
2
 10
907.0025109978233
 20
407.4567538062896
 30
0
 11
908.5025109978233
 21
409.7067538062896
 31
0
  0
LINE
  8
1
 62
2
 10
906.2525109978233
 20
406.6130038062896
 30
0
 11
907.0025109978233
 21
407.4567538062896
 31
0
  0
LINE
  8
1
 62
2
 10
905.0025109978233
 20
405.7692538062896
 30
0
 11
906.2525109978233
 21
406.6130038062896
 31
0
  0
LINE
  8
1
 62
2
 10
903.7525109978233
 20
412.8005038062896
 30
0
 11
903.7525109978233
 21
404.6442538062896
 31
0
  0
LINE
  8
1
 62
2
 10
910.2525109978233
 20
412.8005038062896
 30
0
 11
903.7525109978233
 21
412.8005038062896
 31
0
  0
LINE
  8
1
 62
2
 10
910.2525109978233
 20
404.6442538062896
 30
0
 11
910.2525109978233
 21
412.8005038062896
 31
0
  0
LINE
  8
1
 62
2
 10
903.7525109978233
 20
404.6442538062896
 30
0
 11
910.2525109978233
 21
404.6442538062896
 31
0
  0
LINE
  8
1
 62
2
 10
898.7525109978233
 20
408.5817538062896
 30
0
 11
901.7525109978233
 21
408.5817538062896
 31
0
  0
LINE
  8
1
 62
2
 10
900.0025109978233
 20
406.8942538062896
 30
0
 11
901.5025109978233
 21
404.3630038062896
 31
0
  0
LINE
  8
1
 62
2
 10
896.5025109978233
 20
404.6442538062896
 30
0
 11
900.7525109978233
 21
405.4880038062896
 31
0
  0
LINE
  8
1
 62
2
 10
898.7525109978233
 20
408.5817538062896
 30
0
 11
897.5025109978233
 21
404.9255038062896
 31
0
  0
LINE
  8
1
 62
2
 10
896.0025109978233
 20
408.5817538062896
 30
0
 11
898.7525109978233
 21
408.5817538062896
 31
0
  0
LINE
  8
1
 62
2
 10
899.0025109978233
 20
413.0817538062896
 30
0
 11
899.0025109978233
 21
408.5817538062896
 31
0
  0
LINE
  8
1
 62
2
 10
896.7525109978233
 20
410.8317538062896
 30
0
 11
901.5025109978233
 21
410.8317538062896
 31
0
  0
LINE
  8
1
 62
2
 10
894.7525109978233
 20
412.8005038062896
 30
0
 11
895.5025109978233
 21
411.6755038062896
 31
0
  0
LINE
  8
1
 62
2
 10
894.7525109978233
 20
409.4255038062896
 30
0
 11
894.0025109978233
 21
410.2692538062896
 31
0
  0
LINE
  8
1
 62
2
 10
894.2525109978233
 20
404.3630038062896
 30
0
 11
895.5025109978233
 21
408.0192538062896
 31
0
  0
LINE
  8
1
 62
2
 10
888.5025109978233
 20
407.7380038062896
 30
0
 11
887.5025109978233
 21
409.1442538062896
 31
0
  0
LINE
  8
1
 62
2
 10
890.5025109978233
 20
404.6442538062896
 30
0
 11
889.2525109978233
 21
404.6442538062896
 31
0
  0
LINE
  8
1
 62
2
 10
890.5025109978233
 20
412.8005038062896
 30
0
 11
890.5025109978233
 21
404.6442538062896
 31
0
  0
LINE
  8
1
 62
2
 10
885.7525109978233
 20
410.5505038062896
 30
0
 11
892.5025109978233
 21
410.5505038062896
 31
0
  0
LINE
  8
1
 62
2
 10
877.0025109978233
 20
406.3317538062896
 30
0
 11
877.0025109978233
 21
409.1442538062896
 31
0
  0
LINE
  8
1
 62
2
 10
878.5025109978233
 20
404.9255038062896
 30
0
 11
877.0025109978233
 21
404.9255038062896
 31
0
  0
LINE
  8
1
 62
2
 10
878.5025109978233
 20
409.1442538062896
 30
0
 11
879.7525109978233
 21
409.1442538062896
 31
0
  0
LINE
  8
1
 62
2
 10
878.2525109978233
 20
411.9567538062896
 30
0
 11
877.2525109978233
 21
411.9567538062896
 31
0
  0
LINE
  8
1
 62
2
 10
880.5025109978233
 20
410.8317538062896
 30
0
 11
880.5025109978233
 21
409.1442538062896
 31
0
  0
LINE
  8
1
 62
2
 10
883.0025109978233
 20
409.1442538062896
 30
0
 11
883.0025109978233
 21
412.5192538062896
 31
0
  0
LINE
  8
1
 62
2
 10
880.5025109978233
 20
409.1442538062896
 30
0
 11
880.5025109978233
 21
407.4567538062896
 31
0
  0
LINE
  8
1
 62
2
 10
881.2525109978233
 20
407.4567538062896
 30
0
 11
882.0025109978233
 21
407.4567538062896
 31
0
  0
LINE
  8
1
 62
2
 10
882.0025109978233
 20
407.4567538062896
 30
0
 11
883.0025109978233
 21
407.4567538062896
 31
0
  0
LINE
  8
1
 62
2
 10
883.7525109978233
 20
404.3630038062896
 30
0
 11
884.0025109978233
 21
404.9255038062896
 31
0
  0
LINE
  8
1
 62
2
 10
882.7525109978233
 20
404.3630038062896
 30
0
 11
883.7525109978233
 21
404.3630038062896
 31
0
  0
LINE
  8
1
 62
2
 10
882.0025109978233
 20
404.9255038062896
 30
0
 11
882.7525109978233
 21
404.3630038062896
 31
0
  0
LINE
  8
1
 62
2
 10
882.0025109978233
 20
407.4567538062896
 30
0
 11
882.0025109978233
 21
404.9255038062896
 31
0
  0
LINE
  8
1
 62
2
 10
880.5025109978233
 20
405.2067538062896
 30
0
 11
879.7525109978233
 21
404.3630038062896
 31
0
  0
LINE
  8
1
 62
2
 10
881.0025109978233
 20
406.6130038062896
 30
0
 11
880.5025109978233
 21
405.2067538062896
 31
0
  0
LINE
  8
1
 62
2
 10
881.2525109978233
 20
407.4567538062896
 30
0
 11
881.0025109978233
 21
406.6130038062896
 31
0
  0
LINE
  8
1
 62
2
 10
883.0025109978233
 20
409.1442538062896
 30
0
 11
880.5025109978233
 21
409.1442538062896
 31
0
  0
LINE
  8
1
 62
2
 10
880.5025109978233
 20
410.8317538062896
 30
0
 11
883.0025109978233
 21
410.8317538062896
 31
0
  0
LINE
  8
1
 62
2
 10
883.0025109978233
 20
412.5192538062896
 30
0
 11
880.5025109978233
 21
412.5192538062896
 31
0
  0
LINE
  8
1
 62
2
 10
883.0025109978233
 20
407.4567538062896
 30
0
 11
883.0025109978233
 21
409.1442538062896
 31
0
  0
LINE
  8
1
 62
2
 10
880.5025109978233
 20
407.4567538062896
 30
0
 11
881.2525109978233
 21
407.4567538062896
 31
0
  0
LINE
  8
1
 62
2
 10
880.5025109978233
 20
412.5192538062896
 30
0
 11
880.5025109978233
 21
410.8317538062896
 31
0
  0
LINE
  8
1
 62
2
 10
877.0025109978233
 20
411.9567538062896
 30
0
 11
877.5025109978233
 21
413.0817538062896
 31
0
  0
LINE
  8
1
 62
2
 10
876.2525109978233
 20
411.1130038062896
 30
0
 11
877.0025109978233
 21
411.9567538062896
 31
0
  0
LINE
  8
1
 62
2
 10
879.7525109978233
 20
411.9567538062896
 30
0
 11
878.2525109978233
 21
411.9567538062896
 31
0
  0
LINE
  8
1
 62
2
 10
877.2525109978233
 20
409.4255038062896
 30
0
 11
878.2525109978233
 21
411.9567538062896
 31
0
  0
LINE
  8
1
 62
2
 10
876.0025109978233
 20
407.7380038062896
 30
0
 11
877.2525109978233
 21
409.4255038062896
 31
0
  0
LINE
  8
1
 62
2
 10
880.0025109978233
 20
410.5505038062896
 30
0
 11
876.2525109978233
 21
410.5505038062896
 31
0
  0
LINE
  8
1
 62
2
 10
878.5025109978233
 20
409.1442538062896
 30
0
 11
878.7525109978233
 21
409.7067538062896
 31
0
  0
LINE
  8
1
 62
2
 10
878.5025109978233
 20
404.9255038062896
 30
0
 11
878.5025109978233
 21
409.1442538062896
 31
0
  0
LINE
  8
1
 62
2
 10
879.7525109978233
 20
404.9255038062896
 30
0
 11
878.5025109978233
 21
404.9255038062896
 31
0
  0
LINE
  8
1
 62
2
 10
877.0025109978233
 20
406.3317538062896
 30
0
 11
879.7525109978233
 21
406.3317538062896
 31
0
  0
LINE
  8
1
 62
2
 10
879.7525109978233
 20
407.7380038062896
 30
0
 11
877.0025109978233
 21
407.7380038062896
 31
0
  0
LINE
  8
1
 62
2
 10
877.0025109978233
 20
409.1442538062896
 30
0
 11
878.5025109978233
 21
409.1442538062896
 31
0
  0
LINE
  8
1
 62
2
 10
877.0025109978233
 20
404.3630038062896
 30
0
 11
877.0025109978233
 21
406.3317538062896
 31
0
  0
LINE
  8
1
 62
2
 10
873.7525109978233
 20
409.1442538062896
 30
0
 11
875.0025109978233
 21
407.7380038062896
 31
0
  0
LINE
  8
1
 62
2
 10
871.7525109978233
 20
411.1130038062896
 30
0
 11
873.7525109978233
 21
409.1442538062896
 31
0
  0
LINE
  8
1
 62
2
 10
872.2525109978233
 20
413.3630038062896
 30
0
 11
872.2525109978233
 21
404.3630038062896
 31
0
  0
LINE
  8
1
 62
2
 10
868.0025109978233
 20
409.7067538062896
 30
0
 11
869.7525109978233
 21
408.3005038062896
 31
0
  0
LINE
  8
1
 62
2
 10
868.0025109978233
 20
409.9880038062896
 30
0
 11
867.0025109978233
 21
408.5817538062896
 31
0
  0
LINE
  8
1
 62
2
 10
868.7525109978233
 20
411.6755038062896
 30
0
 11
868.0025109978233
 21
409.9880038062896
 31
0
  0
LINE
  8
1
 62
2
 10
869.2525109978233
 20
413.3630038062896
 30
0
 11
868.7525109978233
 21
411.6755038062896
 31
0
  0
LINE
  8
1
 62
2
 10
871.0025109978233
 20
411.3942538062896
 30
0
 11
868.7525109978233
 21
411.3942538062896
 31
0
  0
LINE
  8
1
 62
2
 10
870.5025109978233
 20
409.7067538062896
 30
0
 11
871.0025109978233
 21
411.3942538062896
 31
0
  0
LINE
  8
1
 62
2
 10
870.0025109978233
 20
408.5817538062896
 30
0
 11
870.5025109978233
 21
409.7067538062896
 31
0
  0
LINE
  8
1
 62
2
 10
869.0025109978233
 20
406.8942538062896
 30
0
 11
870.0025109978233
 21
408.5817538062896
 31
0
  0
LINE
  8
1
 62
2
 10
867.5025109978233
 20
404.9255038062896
 30
0
 11
869.0025109978233
 21
406.8942538062896
 31
0
  0
LINE
  8
1
 62
2
 10
852.1525109978232
 20
410.6630038062896
 30
0
 11
853.9525109978233
 21
410.6630038062896
 31
0
  0
LINE
  8
1
 62
2
 10
852.1525109978232
 20
410.6630038062896
 30
0
 11
852.1525109978232
 21
404.3630038062896
 31
0
  0
LINE
  8
1
 62
2
 10
855.3025109978232
 20
409.5380038062896
 30
0
 11
855.3025109978232
 21
404.3630038062896
 31
0
  0
LINE
  8
1
 62
2
 10
855.0775109978233
 20
409.9880038062896
 30
0
 11
855.3025109978232
 21
409.5380038062896
 31
0
  0
LINE
  8
1
 62
2
 10
854.6275109978233
 20
410.4380038062896
 30
0
 11
855.0775109978233
 21
409.9880038062896
 31
0
  0
LINE
  8
1
 62
2
 10
853.9525109978233
 20
410.6630038062896
 30
0
 11
854.6275109978233
 21
410.4380038062896
 31
0
  0
LINE
  8
1
 62
2
 10
849.0025109978233
 20
410.6630038062896
 30
0
 11
852.1525109978232
 21
410.6630038062896
 31
0
  0
LINE
  8
1
 62
2
 10
849.0025109978233
 20
404.3630038062896
 30
0
 11
849.0025109978233
 21
410.6630038062896
 31
0
  0
LINE
  8
1
 62
2
 10
843.1525109978232
 20
410.6630038062896
 30
0
 11
844.9525109978233
 21
410.6630038062896
 31
0
  0
LINE
  8
1
 62
2
 10
843.1525109978232
 20
410.6630038062896
 30
0
 11
843.1525109978232
 21
404.3630038062896
 31
0
  0
LINE
  8
1
 62
2
 10
846.3025109978232
 20
409.5380038062896
 30
0
 11
846.3025109978232
 21
404.3630038062896
 31
0
  0
LINE
  8
1
 62
2
 10
846.0775109978233
 20
409.9880038062896
 30
0
 11
846.3025109978232
 21
409.5380038062896
 31
0
  0
LINE
  8
1
 62
2
 10
845.6275109978233
 20
410.4380038062896
 30
0
 11
846.0775109978233
 21
409.9880038062896
 31
0
  0
LINE
  8
1
 62
2
 10
844.9525109978233
 20
410.6630038062896
 30
0
 11
845.6275109978233
 21
410.4380038062896
 31
0
  0
LINE
  8
1
 62
2
 10
840.0025109978233
 20
410.6630038062896
 30
0
 11
843.1525109978232
 21
410.6630038062896
 31
0
  0
LINE
  8
1
 62
2
 10
840.0025109978233
 20
404.3630038062896
 30
0
 11
840.0025109978233
 21
410.6630038062896
 31
0
  0
LINE
  8
1
 62
2
 10
837.3025109978232
 20
409.9880038062896
 30
0
 11
837.3025109978232
 21
407.7380038062896
 31
0
  0
LINE
  8
1
 62
2
 10
837.0775109978232
 20
411.3380038062896
 30
0
 11
837.3025109978232
 21
409.9880038062896
 31
0
  0
LINE
  8
1
 62
2
 10
836.6275109978233
 20
412.2380038062896
 30
0
 11
837.0775109978232
 21
411.3380038062896
 31
0
  0
LINE
  8
1
 62
2
 10
836.1775109978232
 20
412.6880038062896
 30
0
 11
836.6275109978233
 21
412.2380038062896
 31
0
  0
LINE
  8
1
 62
2
 10
835.5025109978233
 20
413.1380038062896
 30
0
 11
836.1775109978232
 21
412.6880038062896
 31
0
  0
LINE
  8
1
 62
2
 10
834.8275109978232
 20
413.3630038062896
 30
0
 11
835.5025109978233
 21
413.1380038062896
 31
0
  0
LINE
  8
1
 62
2
 10
834.3775109978233
 20
413.3630038062896
 30
0
 11
834.8275109978232
 21
413.3630038062896
 31
0
  0
LINE
  8
1
 62
2
 10
833.7025109978232
 20
413.1380038062896
 30
0
 11
834.3775109978233
 21
413.3630038062896
 31
0
  0
LINE
  8
1
 62
2
 10
833.0275109978232
 20
412.6880038062896
 30
0
 11
833.7025109978232
 21
413.1380038062896
 31
0
  0
LINE
  8
1
 62
2
 10
832.5775109978232
 20
412.2380038062896
 30
0
 11
833.0275109978232
 21
412.6880038062896
 31
0
  0
LINE
  8
1
 62
2
 10
832.1275109978233
 20
411.3380038062896
 30
0
 11
832.5775109978232
 21
412.2380038062896
 31
0
  0
LINE
  8
1
 62
2
 10
831.9025109978232
 20
409.9880038062896
 30
0
 11
832.1275109978233
 21
411.3380038062896
 31
0
  0
LINE
  8
1
 62
2
 10
831.9025109978232
 20
407.7380038062896
 30
0
 11
831.9025109978232
 21
409.9880038062896
 31
0
  0
LINE
  8
1
 62
2
 10
832.1275109978233
 20
406.3880038062896
 30
0
 11
831.9025109978232
 21
407.7380038062896
 31
0
  0
LINE
  8
1
 62
2
 10
832.5775109978232
 20
405.4880038062896
 30
0
 11
832.1275109978233
 21
406.3880038062896
 31
0
  0
LINE
  8
1
 62
2
 10
833.0275109978232
 20
405.0380038062896
 30
0
 11
832.5775109978232
 21
405.4880038062896
 31
0
  0
LINE
  8
1
 62
2
 10
833.7025109978232
 20
404.5880038062896
 30
0
 11
833.0275109978232
 21
405.0380038062896
 31
0
  0
LINE
  8
1
 62
2
 10
834.3775109978233
 20
404.3630038062896
 30
0
 11
833.7025109978232
 21
404.5880038062896
 31
0
  0
LINE
  8
1
 62
2
 10
834.8275109978232
 20
404.3630038062896
 30
0
 11
834.3775109978233
 21
404.3630038062896
 31
0
  0
LINE
  8
1
 62
2
 10
835.5025109978233
 20
404.5880038062896
 30
0
 11
834.8275109978232
 21
404.3630038062896
 31
0
  0
LINE
  8
1
 62
2
 10
836.1775109978232
 20
405.0380038062896
 30
0
 11
835.5025109978233
 21
404.5880038062896
 31
0
  0
LINE
  8
1
 62
2
 10
836.6275109978233
 20
405.4880038062896
 30
0
 11
836.1775109978232
 21
405.0380038062896
 31
0
  0
LINE
  8
1
 62
2
 10
837.0775109978232
 20
406.3880038062896
 30
0
 11
836.6275109978233
 21
405.4880038062896
 31
0
  0
LINE
  8
1
 62
2
 10
837.3025109978232
 20
407.7380038062896
 30
0
 11
837.0775109978232
 21
406.3880038062896
 31
0
  0
LINE
  8
1
 62
2
 10
827.1775109978232
 20
404.3630038062896
 30
0
 11
823.8025109978232
 21
404.3630038062896
 31
0
  0
LINE
  8
1
 62
2
 10
827.8525109978232
 20
404.5880038062896
 30
0
 11
827.1775109978232
 21
404.3630038062896
 31
0
  0
LINE
  8
1
 62
2
 10
828.5275109978232
 20
405.0380038062896
 30
0
 11
827.8525109978232
 21
404.5880038062896
 31
0
  0
LINE
  8
1
 62
2
 10
828.9775109978232
 20
405.7130038062896
 30
0
 11
828.5275109978232
 21
405.0380038062896
 31
0
  0
LINE
  8
1
 62
2
 10
829.2025109978232
 20
406.6130038062896
 30
0
 11
828.9775109978232
 21
405.7130038062896
 31
0
  0
LINE
  8
1
 62
2
 10
829.2025109978232
 20
407.9630038062896
 30
0
 11
829.2025109978232
 21
406.6130038062896
 31
0
  0
LINE
  8
1
 62
2
 10
828.9775109978232
 20
408.8630038062896
 30
0
 11
829.2025109978232
 21
407.9630038062896
 31
0
  0
LINE
  8
1
 62
2
 10
828.3025109978232
 20
409.5380038062896
 30
0
 11
828.9775109978232
 21
408.8630038062896
 31
0
  0
LINE
  8
1
 62
2
 10
827.1775109978232
 20
409.7630038062896
 30
0
 11
828.3025109978232
 21
409.5380038062896
 31
0
  0
LINE
  8
1
 62
2
 10
823.8025109978232
 20
409.7630038062896
 30
0
 11
827.1775109978232
 21
409.7630038062896
 31
0
  0
LINE
  8
1
 62
2
 10
823.8025109978232
 20
413.3630038062896
 30
0
 11
823.8025109978232
 21
409.7630038062896
 31
0
  0
LINE
  8
1
 62
2
 10
828.7525109978233
 20
413.3630038062896
 30
0
 11
823.8025109978232
 21
413.3630038062896
 31
0
  0
LINE
  8
1
 62
2
 10
817.8025109978232
 20
412.8005038062896
 30
0
 11
815.3025109978232
 21
412.8005038062896
 31
0
  0
LINE
  8
1
 62
2
 10
819.0525109978232
 20
404.6442538062896
 30
0
 11
822.5525109978232
 21
404.6442538062896
 31
0
  0
LINE
  8
1
 62
2
 10
819.0525109978232
 20
408.0192538062896
 30
0
 11
819.0525109978232
 21
404.6442538062896
 31
0
  0
LINE
  8
1
 62
2
 10
822.0525109978232
 20
408.0192538062896
 30
0
 11
821.3025109978232
 21
408.0192538062896
 31
0
  0
LINE
  8
1
 62
2
 10
822.0525109978232
 20
413.0817538062896
 30
0
 11
822.0525109978232
 21
408.0192538062896
 31
0
  0
LINE
  8
1
 62
2
 10
820.3025109978232
 20
409.1442538062896
 30
0
 11
820.3025109978232
 21
412.8005038062896
 31
0
  0
LINE
  8
1
 62
2
 10
817.8025109978232
 20
412.8005038062896
 30
0
 11
817.8025109978232
 21
408.0192538062896
 31
0
  0
LINE
  8
1
 62
2
 10
815.0525109978232
 20
410.8317538062896
 30
0
 11
819.3025109978232
 21
410.8317538062896
 31
0
  0
LINE
  8
1
 62
2
 10
819.0525109978232
 20
412.8005038062896
 30
0
 11
817.8025109978232
 21
412.8005038062896
 31
0
  0
LINE
  8
1
 62
2
 10
816.5525109978232
 20
410.8317538062896
 30
0
 11
816.5525109978232
 21
412.8005038062896
 31
0
  0
LINE
  8
1
 62
2
 10
816.0525109978232
 20
408.8630038062896
 30
0
 11
816.5525109978232
 21
410.8317538062896
 31
0
  0
LINE
  8
1
 62
2
 10
815.3025109978232
 20
407.7380038062896
 30
0
 11
816.0525109978232
 21
408.8630038062896
 31
0
  0
LINE
  8
1
 62
2
 10
821.5525109978232
 20
406.6130038062896
 30
0
 11
816.0525109978232
 21
406.6130038062896
 31
0
  0
LINE
  8
1
 62
2
 10
815.3025109978232
 20
404.6442538062896
 30
0
 11
819.0525109978232
 21
404.6442538062896
 31
0
  0
LINE
  8
1
 62
2
 10
806.2525109978233
 20
405.0380038062896
 30
0
 11
805.8025109978232
 21
405.4880038062896
 31
0
  0
LINE
  8
1
 62
2
 10
807.1525109978232
 20
404.5880038062896
 30
0
 11
806.2525109978233
 21
405.0380038062896
 31
0
  0
LINE
  8
1
 62
2
 10
808.2775109978232
 20
404.3630038062896
 30
0
 11
807.1525109978232
 21
404.5880038062896
 31
0
  0
LINE
  8
1
 62
2
 10
809.6275109978233
 20
404.3630038062896
 30
0
 11
808.2775109978232
 21
404.3630038062896
 31
0
  0
LINE
  8
1
 62
2
 10
810.7525109978233
 20
404.5880038062896
 30
0
 11
809.6275109978233
 21
404.3630038062896
 31
0
  0
LINE
  8
1
 62
2
 10
811.4275109978232
 20
405.0380038062896
 30
0
 11
810.7525109978233
 21
404.5880038062896
 31
0
  0
LINE
  8
1
 62
2
 10
811.8775109978233
 20
405.7130038062896
 30
0
 11
811.4275109978232
 21
405.0380038062896
 31
0
  0
LINE
  8
1
 62
2
 10
812.1025109978232
 20
406.3880038062896
 30
0
 11
811.8775109978233
 21
405.7130038062896
 31
0
  0
LINE
  8
1
 62
2
 10
812.1025109978232
 20
406.8380038062896
 30
0
 11
812.1025109978232
 21
406.3880038062896
 31
0
  0
LINE
  8
1
 62
2
 10
811.8775109978233
 20
407.5130038062896
 30
0
 11
812.1025109978232
 21
406.8380038062896
 31
0
  0
LINE
  8
1
 62
2
 10
811.4275109978232
 20
408.1880038062896
 30
0
 11
811.8775109978233
 21
407.5130038062896
 31
0
  0
LINE
  8
1
 62
2
 10
810.7525109978233
 20
408.6380038062896
 30
0
 11
811.4275109978232
 21
408.1880038062896
 31
0
  0
LINE
  8
1
 62
2
 10
806.9275109978232
 20
410.2130038062896
 30
0
 11
810.7525109978233
 21
408.6380038062896
 31
0
  0
LINE
  8
1
 62
2
 10
806.2525109978233
 20
410.6630038062896
 30
0
 11
806.9275109978232
 21
410.2130038062896
 31
0
  0
LINE
  8
1
 62
2
 10
806.0275109978232
 20
411.3380038062896
 30
0
 11
806.2525109978233
 21
410.6630038062896
 31
0
  0
LINE
  8
1
 62
2
 10
806.0275109978232
 20
411.7880038062896
 30
0
 11
806.0275109978232
 21
411.3380038062896
 31
0
  0
LINE
  8
1
 62
2
 10
806.2525109978233
 20
412.4630038062896
 30
0
 11
806.0275109978232
 21
411.7880038062896
 31
0
  0
LINE
  8
1
 62
2
 10
806.9275109978232
 20
412.9130038062896
 30
0
 11
806.2525109978233
 21
412.4630038062896
 31
0
  0
LINE
  8
1
 62
2
 10
807.6025109978232
 20
413.1380038062896
 30
0
 11
806.9275109978232
 21
412.9130038062896
 31
0
  0
LINE
  8
1
 62
2
 10
808.5025109978233
 20
413.3630038062896
 30
0
 11
807.6025109978232
 21
413.1380038062896
 31
0
  0
LINE
  8
1
 62
2
 10
809.4025109978232
 20
413.3630038062896
 30
0
 11
808.5025109978233
 21
413.3630038062896
 31
0
  0
LINE
  8
1
 62
2
 10
810.5275109978232
 20
413.1380038062896
 30
0
 11
809.4025109978232
 21
413.3630038062896
 31
0
  0
LINE
  8
1
 62
2
 10
811.2025109978232
 20
412.9130038062896
 30
0
 11
810.5275109978232
 21
413.1380038062896
 31
0
  0
LINE
  8
1
 62
2
 10
811.8775109978233
 20
412.4630038062896
 30
0
 11
811.2025109978232
 21
412.9130038062896
 31
0
  0
LINE
  8
1
 62
2
 10
802.8775109978233
 20
411.5630038062896
 30
0
 11
803.1025109978232
 21
410.6630038062896
 31
0
  0
LINE
  8
1
 62
2
 10
802.4275109978232
 20
412.2380038062896
 30
0
 11
802.8775109978233
 21
411.5630038062896
 31
0
  0
LINE
  8
1
 62
2
 10
801.9775109978232
 20
412.6880038062896
 30
0
 11
802.4275109978232
 21
412.2380038062896
 31
0
  0
LINE
  8
1
 62
2
 10
801.3025109978232
 20
413.1380038062896
 30
0
 11
801.9775109978232
 21
412.6880038062896
 31
0
  0
LINE
  8
1
 62
2
 10
800.4025109978232
 20
413.3630038062896
 30
0
 11
801.3025109978232
 21
413.1380038062896
 31
0
  0
LINE
  8
1
 62
2
 10
796.8025109978232
 20
413.3630038062896
 30
0
 11
800.4025109978232
 21
413.3630038062896
 31
0
  0
LINE
  8
1
 62
2
 10
796.8025109978232
 20
404.3630038062896
 30
0
 11
796.8025109978232
 21
413.3630038062896
 31
0
  0
LINE
  8
1
 62
2
 10
800.4025109978232
 20
404.3630038062896
 30
0
 11
796.8025109978232
 21
404.3630038062896
 31
0
  0
LINE
  8
1
 62
2
 10
801.3025109978232
 20
404.5880038062896
 30
0
 11
800.4025109978232
 21
404.3630038062896
 31
0
  0
LINE
  8
1
 62
2
 10
801.9775109978232
 20
405.0380038062896
 30
0
 11
801.3025109978232
 21
404.5880038062896
 31
0
  0
LINE
  8
1
 62
2
 10
802.4275109978232
 20
405.4880038062896
 30
0
 11
801.9775109978232
 21
405.0380038062896
 31
0
  0
LINE
  8
1
 62
2
 10
802.8775109978233
 20
406.1630038062896
 30
0
 11
802.4275109978232
 21
405.4880038062896
 31
0
  0
LINE
  8
1
 62
2
 10
803.1025109978232
 20
407.0630038062896
 30
0
 11
802.8775109978233
 21
406.1630038062896
 31
0
  0
LINE
  8
1
 62
2
 10
803.1025109978232
 20
410.6630038062896
 30
0
 11
803.1025109978232
 21
407.0630038062896
 31
0
  0
LINE
  8
1
 62
2
 10
787.8025109978232
 20
407.0630038062896
 30
0
 11
787.8025109978232
 21
413.3630038062896
 31
0
  0
LINE
  8
1
 62
2
 10
787.8025109978232
 20
404.3630038062896
 30
0
 11
787.8025109978232
 21
407.0630038062896
 31
0
  0
LINE
  8
1
 62
2
 10
789.6025109978232
 20
408.8630038062896
 30
0
 11
794.1025109978232
 21
404.3630038062896
 31
0
  0
LINE
  8
1
 62
2
 10
794.1025109978232
 20
413.3630038062896
 30
0
 11
789.6025109978232
 21
408.8630038062896
 31
0
  0
LINE
  8
1
 62
2
 10
789.6025109978232
 20
408.8630038062896
 30
0
 11
787.8025109978232
 21
407.0630038062896
 31
0
  0
LINE
  8
1
 62
2
 10
785.1025109978232
 20
404.3630038062896
 30
0
 11
785.1025109978232
 21
413.3630038062896
 31
0
  0
LINE
  8
1
 62
2
 10
778.8025109978232
 20
413.3630038062896
 30
0
 11
785.1025109978232
 21
404.3630038062896
 31
0
  0
LINE
  8
1
 62
2
 10
778.8025109978232
 20
404.3630038062896
 30
0
 11
778.8025109978232
 21
413.3630038062896
 31
0
  0
LINE
  8
1
 62
2
 10
883.0275109978232
 20
384.7067538062896
 30
0
 11
883.2775109978232
 21
384.9880038062896
 31
0
  0
LINE
  8
1
 62
2
 10
883.0275109978232
 20
386.3942538062896
 30
0
 11
881.5275109978232
 21
386.3942538062896
 31
0
  0
LINE
  8
1
 62
2
 10
886.7775109978232
 20
379.9255038062896
 30
0
 11
889.0275109978232
 21
379.9255038062896
 31
0
  0
LINE
  8
1
 62
2
 10
884.2775109978232
 20
379.9255038062896
 30
0
 11
886.7775109978232
 21
379.9255038062896
 31
0
  0
LINE
  8
1
 62
2
 10
886.7775109978232
 20
388.0817538062896
 30
0
 11
886.7775109978232
 21
379.9255038062896
 31
0
  0
LINE
  8
1
 62
2
 10
885.0275109978232
 20
384.7067538062896
 30
0
 11
888.5275109978232
 21
384.7067538062896
 31
0
  0
LINE
  8
1
 62
2
 10
883.5275109978232
 20
384.4255038062896
 30
0
 11
884.7775109978232
 21
383.0192538062896
 31
0
  0
LINE
  8
1
 62
2
 10
883.0275109978232
 20
386.3942538062896
 30
0
 11
883.0275109978232
 21
388.0817538062896
 31
0
  0
LINE
  8
1
 62
2
 10
884.2775109978232
 20
386.3942538062896
 30
0
 11
883.0275109978232
 21
386.3942538062896
 31
0
  0
LINE
  8
1
 62
2
 10
883.2775109978232
 20
384.9880038062896
 30
0
 11
884.2775109978232
 21
386.3942538062896
 31
0
  0
LINE
  8
1
 62
2
 10
882.0275109978232
 20
383.5817538062896
 30
0
 11
883.0275109978232
 21
384.7067538062896
 31
0
  0
LINE
  8
1
 62
2
 10
881.0275109978232
 20
382.7380038062896
 30
0
 11
882.0275109978232
 21
383.5817538062896
 31
0
  0
LINE
  8
1
 62
2
 10
883.0275109978232
 20
379.6442538062896
 30
0
 11
883.0275109978232
 21
384.7067538062896
 31
0
  0
LINE
  8
1
 62
2
 10
876.0275109978232
 20
382.7380038062896
 30
0
 11
873.5275109978232
 21
379.6442538062896
 31
0
  0
LINE
  8
1
 62
2
 10
878.2775109978232
 20
380.2067538062896
 30
0
 11
877.2775109978232
 21
381.3317538062896
 31
0
  0
LINE
  8
1
 62
2
 10
879.0275109978232
 20
379.3630038062896
 30
0
 11
878.2775109978232
 21
380.2067538062896
 31
0
  0
LINE
  8
1
 62
2
 10
872.7775109978232
 20
379.6442538062896
 30
0
 11
878.2775109978232
 21
380.2067538062896
 31
0
  0
LINE
  8
1
 62
2
 10
873.2775109978232
 20
383.0192538062896
 30
0
 11
879.0275109978232
 21
383.0192538062896
 31
0
  0
LINE
  8
1
 62
2
 10
874.2775109978232
 20
384.4255038062896
 30
0
 11
877.7775109978232
 21
384.4255038062896
 31
0
  0
LINE
  8
1
 62
2
 10
876.0275109978232
 20
388.0817538062896
 30
0
 11
880.0275109978232
 21
383.8630038062896
 31
0
  0
LINE
  8
1
 62
2
 10
876.0275109978232
 20
388.0817538062896
 30
0
 11
872.0275109978232
 21
383.8630038062896
 31
0
  0
LINE
  8
1
 62
2
 10
865.2775109978232
 20
384.1442538062896
 30
0
 11
863.5275109978232
 21
384.1442538062896
 31
0
  0
LINE
  8
1
 62
2
 10
865.2775109978232
 20
381.0505038062896
 30
0
 11
867.0275109978232
 21
381.6130038062896
 31
0
  0
LINE
  8
1
 62
2
 10
870.2775109978232
 20
379.6442538062896
 30
0
 11
871.0275109978232
 21
380.4880038062896
 31
0
  0
LINE
  8
1
 62
2
 10
869.2775109978232
 20
380.7692538062896
 30
0
 11
870.2775109978232
 21
379.6442538062896
 31
0
  0
LINE
  8
1
 62
2
 10
868.2775109978232
 20
382.7380038062896
 30
0
 11
869.2775109978232
 21
380.7692538062896
 31
0
  0
LINE
  8
1
 62
2
 10
867.7775109978232
 20
384.9880038062896
 30
0
 11
868.2775109978232
 21
382.7380038062896
 31
0
  0
LINE
  8
1
 62
2
 10
867.5275109978232
 20
388.3630038062896
 30
0
 11
867.7775109978232
 21
384.9880038062896
 31
0
  0
LINE
  8
1
 62
2
 10
869.0275109978232
 20
387.2380038062896
 30
0
 11
868.2775109978232
 21
388.0817538062896
 31
0
  0
LINE
  8
1
 62
2
 10
863.0275109978232
 20
386.3942538062896
 30
0
 11
870.2775109978232
 21
386.3942538062896
 31
0
  0
LINE
  8
1
 62
2
 10
865.2775109978232
 20
384.1442538062896
 30
0
 11
865.2775109978232
 21
381.0505038062896
 31
0
  0
LINE
  8
1
 62
2
 10
867.0275109978232
 20
384.1442538062896
 30
0
 11
865.2775109978232
 21
384.1442538062896
 31
0
  0
LINE
  8
1
 62
2
 10
863.5275109978232
 20
380.4880038062896
 30
0
 11
865.2775109978232
 21
381.0505038062896
 31
0
  0
LINE
  8
1
 62
2
 10
855.7775109978232
 20
385.8317538062896
 30
0
 11
855.7775109978232
 21
388.3630038062896
 31
0
  0
LINE
  8
1
 62
2
 10
855.7775109978232
 20
385.8317538062896
 30
0
 11
854.5275109978232
 21
385.8317538062896
 31
0
  0
LINE
  8
1
 62
2
 10
860.7775109978232
 20
381.6130038062896
 30
0
 11
861.7775109978232
 21
379.6442538062896
 31
0
  0
LINE
  8
1
 62
2
 10
859.5275109978232
 20
384.1442538062896
 30
0
 11
860.7775109978232
 21
381.6130038062896
 31
0
  0
LINE
  8
1
 62
2
 10
858.7775109978232
 20
382.1755038062896
 30
0
 11
859.5275109978232
 21
384.1442538062896
 31
0
  0
LINE
  8
1
 62
2
 10
857.7775109978232
 20
380.7692538062896
 30
0
 11
858.7775109978232
 21
382.1755038062896
 31
0
  0
LINE
  8
1
 62
2
 10
857.0275109978232
 20
379.6442538062896
 30
0
 11
857.7775109978232
 21
380.7692538062896
 31
0
  0
LINE
  8
1
 62
2
 10
859.5275109978232
 20
388.3630038062896
 30
0
 11
859.5275109978232
 21
379.3630038062896
 31
0
  0
LINE
  8
1
 62
2
 10
861.7775109978232
 20
384.1442538062896
 30
0
 11
857.5275109978232
 21
384.1442538062896
 31
0
  0
LINE
  8
1
 62
2
 10
858.2775109978232
 20
386.1130038062896
 30
0
 11
861.5275109978232
 21
386.1130038062896
 31
0
  0
LINE
  8
1
 62
2
 10
858.2775109978232
 20
386.1130038062896
 30
0
 11
858.5275109978232
 21
387.5192538062896
 31
0
  0
LINE
  8
1
 62
2
 10
857.5275109978232
 20
384.7067538062896
 30
0
 11
858.2775109978232
 21
386.1130038062896
 31
0
  0
LINE
  8
1
 62
2
 10
855.7775109978232
 20
385.8317538062896
 30
0
 11
857.0275109978232
 21
383.5817538062896
 31
0
  0
LINE
  8
1
 62
2
 10
854.2775109978232
 20
381.8942538062896
 30
0
 11
855.7775109978232
 21
385.8317538062896
 31
0
  0
LINE
  8
1
 62
2
 10
857.0275109978232
 20
385.8317538062896
 30
0
 11
855.7775109978232
 21
385.8317538062896
 31
0
  0
LINE
  8
1
 62
2
 10
855.7775109978232
 20
379.6442538062896
 30
0
 11
855.7775109978232
 21
385.8317538062896
 31
0
  0
LINE
  8
1
 62
2
 10
845.7775109978232
 20
384.9880038062896
 30
0
 11
845.7775109978232
 21
386.3942538062896
 31
0
  0
LINE
  8
1
 62
2
 10
848.2775109978232
 20
386.3942538062896
 30
0
 11
848.2775109978232
 21
384.9880038062896
 31
0
  0
LINE
  8
1
 62
2
 10
845.7775109978232
 20
386.3942538062896
 30
0
 11
845.7775109978232
 21
387.8005038062896
 31
0
  0
LINE
  8
1
 62
2
 10
852.2775109978232
 20
384.9880038062896
 30
0
 11
852.2775109978232
 21
386.3942538062896
 31
0
  0
LINE
  8
1
 62
2
 10
849.7775109978232
 20
386.3942538062896
 30
0
 11
849.7775109978232
 21
384.9880038062896
 31
0
  0
LINE
  8
1
 62
2
 10
852.2775109978232
 20
386.3942538062896
 30
0
 11
852.2775109978232
 21
387.8005038062896
 31
0
  0
LINE
  8
1
 62
2
 10
845.7775109978232
 20
379.9255038062896
 30
0
 11
845.7775109978232
 21
379.6442538062896
 31
0
  0
LINE
  8
1
 62
2
 10
849.7775109978232
 20
386.3942538062896
 30
0
 11
852.2775109978232
 21
386.3942538062896
 31
0
  0
LINE
  8
1
 62
2
 10
849.7775109978232
 20
384.9880038062896
 30
0
 11
852.2775109978232
 21
384.9880038062896
 31
0
  0
LINE
  8
1
 62
2
 10
849.7775109978232
 20
387.8005038062896
 30
0
 11
849.7775109978232
 21
386.3942538062896
 31
0
  0
LINE
  8
1
 62
2
 10
852.2775109978232
 20
387.8005038062896
 30
0
 11
849.7775109978232
 21
387.8005038062896
 31
0
  0
LINE
  8
1
 62
2
 10
852.2775109978232
 20
379.9255038062896
 30
0
 11
852.2775109978232
 21
384.9880038062896
 31
0
  0
LINE
  8
1
 62
2
 10
852.0275109978232
 20
379.6442538062896
 30
0
 11
852.2775109978232
 21
379.9255038062896
 31
0
  0
LINE
  8
1
 62
2
 10
851.2775109978232
 20
379.6442538062896
 30
0
 11
852.0275109978232
 21
379.6442538062896
 31
0
  0
LINE
  8
1
 62
2
 10
848.2775109978232
 20
386.3942538062896
 30
0
 11
845.7775109978232
 21
386.3942538062896
 31
0
  0
LINE
  8
1
 62
2
 10
848.2775109978232
 20
384.9880038062896
 30
0
 11
845.7775109978232
 21
384.9880038062896
 31
0
  0
LINE
  8
1
 62
2
 10
848.2775109978232
 20
387.8005038062896
 30
0
 11
848.2775109978232
 21
386.3942538062896
 31
0
  0
LINE
  8
1
 62
2
 10
845.7775109978232
 20
387.8005038062896
 30
0
 11
848.2775109978232
 21
387.8005038062896
 31
0
  0
LINE
  8
1
 62
2
 10
845.7775109978232
 20
379.9255038062896
 30
0
 11
845.7775109978232
 21
384.9880038062896
 31
0
  0
LINE
  8
1
 62
2
 10
840.0275109978232
 20
379.6442538062896
 30
0
 11
843.0275109978232
 21
379.6442538062896
 31
0
  0
LINE
  8
1
 62
2
 10
840.0275109978232
 20
384.9880038062896
 30
0
 11
841.7775109978232
 21
384.9880038062896
 31
0
  0
LINE
  8
1
 62
2
 10
843.0275109978232
 20
384.7067538062896
 30
0
 11
844.0275109978232
 21
383.8630038062896
 31
0
  0
LINE
  8
1
 62
2
 10
841.2775109978232
 20
386.6755038062896
 30
0
 11
843.0275109978232
 21
384.7067538062896
 31
0
  0
LINE
  8
1
 62
2
 10
840.0275109978232
 20
388.3630038062896
 30
0
 11
841.2775109978232
 21
386.6755038062896
 31
0
  0
LINE
  8
1
 62
2
 10
838.7775109978232
 20
386.6755038062896
 30
0
 11
840.0275109978232
 21
388.3630038062896
 31
0
  0
LINE
  8
1
 62
2
 10
837.0275109978232
 20
384.7067538062896
 30
0
 11
838.7775109978232
 21
386.6755038062896
 31
0
  0
LINE
  8
1
 62
2
 10
836.0275109978232
 20
383.8630038062896
 30
0
 11
837.0275109978232
 21
384.7067538062896
 31
0
  0
LINE
  8
1
 62
2
 10
841.2775109978232
 20
380.7692538062896
 30
0
 11
841.7775109978232
 21
382.1755038062896
 31
0
  0
LINE
  8
1
 62
2
 10
838.2775109978232
 20
382.1755038062896
 30
0
 11
838.7775109978232
 21
380.7692538062896
 31
0
  0
LINE
  8
1
 62
2
 10
842.5275109978232
 20
383.3005038062896
 30
0
 11
837.5275109978232
 21
383.3005038062896
 31
0
  0
LINE
  8
1
 62
2
 10
838.2775109978232
 20
384.9880038062896
 30
0
 11
840.0275109978232
 21
384.9880038062896
 31
0
  0
LINE
  8
1
 62
2
 10
840.0275109978232
 20
379.6442538062896
 30
0
 11
840.0275109978232
 21
384.9880038062896
 31
0
  0
LINE
  8
1
 62
2
 10
836.7775109978232
 20
379.6442538062896
 30
0
 11
840.0275109978232
 21
379.6442538062896
 31
0
  0
LINE
  8
1
 62
2
 10
833.2775109978232
 20
382.1755038062896
 30
0
 11
834.5275109978232
 21
383.8630038062896
 31
0
  0
LINE
  8
1
 62
2
 10
831.2775109978232
 20
381.0505038062896
 30
0
 11
833.2775109978232
 21
382.1755038062896
 31
0
  0
LINE
  8
1
 62
2
 10
831.2775109978232
 20
386.1130038062896
 30
0
 11
831.2775109978232
 21
381.0505038062896
 31
0
  0
LINE
  8
1
 62
2
 10
829.2775109978232
 20
383.8630038062896
 30
0
 11
829.5275109978232
 21
386.1130038062896
 31
0
  0
LINE
  8
1
 62
2
 10
828.7775109978232
 20
382.1755038062896
 30
0
 11
829.2775109978232
 21
383.8630038062896
 31
0
  0
LINE
  8
1
 62
2
 10
828.0275109978232
 20
380.7692538062896
 30
0
 11
828.7775109978232
 21
382.1755038062896
 31
0
  0
LINE
  8
1
 62
2
 10
819.5275109978232
 20
383.0192538062896
 30
0
 11
819.5275109978232
 21
381.3317538062896
 31
0
  0
LINE
  8
1
 62
2
 10
822.2775109978232
 20
380.2067538062896
 30
0
 11
823.7775109978232
 21
380.4880038062896
 31
0
  0
LINE
  8
1
 62
2
 10
819.7775109978232
 20
380.4880038062896
 30
0
 11
822.2775109978232
 21
380.2067538062896
 31
0
  0
LINE
  8
1
 62
2
 10
819.5275109978232
 20
381.3317538062896
 30
0
 11
819.7775109978232
 21
380.4880038062896
 31
0
  0
LINE
  8
1
 62
2
 10
819.5275109978232
 20
386.1130038062896
 30
0
 11
819.5275109978232
 21
383.0192538062896
 31
0
  0
LINE
  8
1
 62
2
 10
824.2775109978232
 20
386.6755038062896
 30
0
 11
825.0275109978232
 21
385.8317538062896
 31
0
  0
LINE
  8
1
 62
2
 10
824.5275109978232
 20
385.2692538062896
 30
0
 11
823.7775109978232
 21
386.1130038062896
 31
0
  0
LINE
  8
1
 62
2
 10
821.7775109978232
 20
383.8630038062896
 30
0
 11
823.2775109978232
 21
384.7067538062896
 31
0
  0
LINE
  8
1
 62
2
 10
819.5275109978232
 20
383.0192538062896
 30
0
 11
821.7775109978232
 21
383.8630038062896
 31
0
  0
LINE
  8
1
 62
2
 10
814.0275109978232
 20
382.1755038062896
 30
0
 11
815.5275109978232
 21
380.4880038062896
 31
0
  0
LINE
  8
1
 62
2
 10
812.7775109978232
 20
383.3005038062896
 30
0
 11
814.0275109978232
 21
382.1755038062896
 31
0
  0
LINE
  8
1
 62
2
 10
815.7775109978232
 20
387.2380038062896
 30
0
 11
816.5275109978232
 21
386.3942538062896
 31
0
  0
LINE
  8
1
 62
2
 10
815.2775109978232
 20
386.6755038062896
 30
0
 11
816.0275109978232
 21
385.8317538062896
 31
0
  0
LINE
  8
1
 62
2
 10
814.2775109978232
 20
386.1130038062896
 30
0
 11
811.0275109978232
 21
386.1130038062896
 31
0
  0
LINE
  8
1
 62
2
 10
813.5275109978232
 20
384.4255038062896
 30
0
 11
814.2775109978232
 21
386.1130038062896
 31
0
  0
LINE
  8
1
 62
2
 10
811.7775109978232
 20
381.8942538062896
 30
0
 11
813.5275109978232
 21
384.4255038062896
 31
0
  0
LINE
  8
1
 62
2
 10
810.0275109978232
 20
380.4880038062896
 30
0
 11
811.7775109978232
 21
381.8942538062896
 31
0
  0
LINE
  8
1
 62
2
 10
807.0275109978232
 20
385.8317538062896
 30
0
 11
804.7775109978232
 21
383.3005038062896
 31
0
  0
LINE
  8
1
 62
2
 10
801.2775109978232
 20
385.8317538062896
 30
0
 11
807.0275109978232
 21
385.8317538062896
 31
0
  0
LINE
  8
1
 62
2
 10
804.0275109978232
 20
383.3005038062896
 30
0
 11
804.2775109978232
 21
384.7067538062896
 31
0
  0
LINE
  8
1
 62
2
 10
803.5275109978232
 20
381.6130038062896
 30
0
 11
804.0275109978232
 21
383.3005038062896
 31
0
  0
LINE
  8
1
 62
2
 10
802.5275109978232
 20
379.9255038062896
 30
0
 11
803.5275109978232
 21
381.6130038062896
 31
0
  0
LINE
  8
1
 62
2
 10
765.4994646185178
 20
453.3663296914648
 30
0
 11
765.4994646185178
 21
459.3663296914648
 31
0
  0
LINE
  8
1
 62
2
 10
766.3327979518513
 20
457.6788296914648
 30
0
 11
764.4994646185178
 21
457.6788296914648
 31
0
  0
LINE
  8
1
 62
2
 10
764.3327979518513
 20
455.2413296914648
 30
0
 11
764.9994646185178
 21
456.3663296914648
 31
0
  0
LINE
  8
1
 62
2
 10
764.9994646185178
 20
456.3663296914648
 30
0
 11
765.4994646185178
 21
457.4913296914648
 31
0
  0
LINE
  8
1
 62
2
 10
765.4994646185178
 20
457.4913296914648
 30
0
 11
766.3327979518513
 21
456.1788296914648
 31
0
  0
LINE
  8
1
 62
2
 10
766.4994646185178
 20
454.4913296914648
 30
0
 11
767.4994646185178
 21
455.6163296914648
 31
0
  0
LINE
  8
1
 62
2
 10
767.4994646185178
 20
455.6163296914648
 30
0
 11
768.3327979518513
 21
457.3038296914648
 31
0
  0
LINE
  8
1
 62
2
 10
769.3327979518513
 20
457.4913296914648
 30
0
 11
766.8327979518513
 21
457.4913296914648
 31
0
  0
LINE
  8
1
 62
2
 10
768.3327979518513
 20
459.1788296914648
 30
0
 11
768.4994646185178
 21
453.7413296914648
 31
0
  0
LINE
  8
1
 62
2
 10
768.4994646185178
 20
453.7413296914648
 30
0
 11
767.9994646185178
 21
453.7413296914648
 31
0
  0
LINE
  8
1
 62
2
 10
770.3327979518513
 20
454.4913296914648
 30
0
 11
770.8327979518513
 21
455.4288296914648
 31
0
  0
LINE
  8
1
 62
2
 10
770.8327979518513
 20
455.4288296914648
 30
0
 11
771.4994646185178
 21
457.1163296914648
 31
0
  0
LINE
  8
1
 62
2
 10
772.6661312851845
 20
457.1163296914648
 30
0
 11
770.3327979518513
 21
457.1163296914648
 31
0
  0
LINE
  8
1
 62
2
 10
770.4994646185178
 20
458.6163296914648
 30
0
 11
770.9994646185178
 21
457.8663296914648
 31
0
  0
LINE
  8
1
 62
2
 10
771.9994646185178
 20
458.0538296914648
 30
0
 11
772.3327979518513
 21
458.8038296914648
 31
0
  0
LINE
  8
1
 62
2
 10
771.4994646185178
 20
459.1788296914648
 30
0
 11
771.4994646185178
 21
453.5538296914648
 31
0
  0
LINE
  8
1
 62
2
 10
771.9994646185178
 20
456.3663296914648
 30
0
 11
772.3327979518513
 21
455.6163296914648
 31
0
  0
LINE
  8
1
 62
2
 10
772.6661312851845
 20
455.4288296914648
 30
0
 11
775.4994646185178
 21
455.9913296914648
 31
0
  0
LINE
  8
1
 62
2
 10
773.6661312851845
 20
456.7413296914648
 30
0
 11
773.1661312851845
 21
457.4913296914648
 31
0
  0
LINE
  8
1
 62
2
 10
773.6661312851845
 20
458.2413296914648
 30
0
 11
773.1661312851845
 21
458.9913296914648
 31
0
  0
LINE
  8
1
 62
2
 10
774.4994646185178
 20
459.3663296914648
 30
0
 11
774.4994646185178
 21
453.3663296914648
 31
0
  0
LINE
  8
1
 62
2
 10
776.4994646185178
 20
453.7413296914648
 30
0
 11
776.4994646185178
 21
455.2413296914648
 31
0
  0
LINE
  8
1
 62
2
 10
776.4994646185178
 20
455.2413296914648
 30
0
 11
777.8327979518513
 21
455.2413296914648
 31
0
  0
LINE
  8
1
 62
2
 10
777.8327979518513
 20
455.2413296914648
 30
0
 11
777.8327979518513
 21
453.7413296914648
 31
0
  0
LINE
  8
1
 62
2
 10
777.8327979518513
 20
453.7413296914648
 30
0
 11
776.4994646185178
 21
453.7413296914648
 31
0
  0
LINE
  8
1
 62
2
 10
776.4994646185178
 20
455.9913296914648
 30
0
 11
777.8327979518513
 21
455.9913296914648
 31
0
  0
LINE
  8
1
 62
2
 10
777.8327979518513
 20
456.9288296914648
 30
0
 11
776.4994646185178
 21
456.9288296914648
 31
0
  0
LINE
  8
1
 62
2
 10
776.1661312851845
 20
457.6788296914648
 30
0
 11
778.3327979518513
 21
457.6788296914648
 31
0
  0
LINE
  8
1
 62
2
 10
776.3327979518513
 20
458.6163296914648
 30
0
 11
777.8327979518513
 21
458.6163296914648
 31
0
  0
LINE
  8
1
 62
2
 10
778.8327979518513
 20
458.4288296914648
 30
0
 11
780.6661312851845
 21
458.4288296914648
 31
0
  0
LINE
  8
1
 62
2
 10
780.6661312851845
 20
458.4288296914648
 30
0
 11
780.6661312851845
 21
456.5538296914648
 31
0
  0
LINE
  8
1
 62
2
 10
780.6661312851845
 20
456.5538296914648
 30
0
 11
778.8327979518513
 21
456.5538296914648
 31
0
  0
LINE
  8
1
 62
2
 10
778.8327979518513
 20
456.5538296914648
 30
0
 11
778.8327979518513
 21
453.7413296914648
 31
0
  0
LINE
  8
1
 62
2
 10
778.8327979518513
 20
453.7413296914648
 30
0
 11
781.1661312851845
 21
453.7413296914648
 31
0
  0
LINE
  8
1
 62
2
 10
781.1661312851845
 20
453.7413296914648
 30
0
 11
781.1661312851845
 21
454.3038296914648
 31
0
  0
LINE
  8
1
 62
2
 10
783.4994646185178
 20
458.9913296914648
 30
0
 11
783.4994646185178
 21
457.6788296914648
 31
0
  0
LINE
  8
1
 62
2
 10
783.4994646185178
 20
457.6788296914648
 30
0
 11
786.1661312851845
 21
457.6788296914648
 31
0
  0
LINE
  8
1
 62
2
 10
786.1661312851845
 20
457.6788296914648
 30
0
 11
786.1661312851845
 21
458.9913296914648
 31
0
  0
LINE
  8
1
 62
2
 10
786.1661312851845
 20
458.9913296914648
 30
0
 11
783.4994646185178
 21
458.9913296914648
 31
0
  0
LINE
  8
1
 62
2
 10
782.3327979518513
 20
456.7413296914648
 30
0
 11
787.1661312851845
 21
456.7413296914648
 31
0
  0
LINE
  8
1
 62
2
 10
784.1661312851845
 20
456.7413296914648
 30
0
 11
783.6661312851845
 21
454.8663296914648
 31
0
  0
LINE
  8
1
 62
2
 10
783.8327979518513
 20
455.6163296914648
 30
0
 11
786.1661312851845
 21
455.6163296914648
 31
0
  0
LINE
  8
1
 62
2
 10
786.1661312851845
 20
455.6163296914648
 30
0
 11
785.8327979518513
 21
454.4913296914648
 31
0
  0
LINE
  8
1
 62
2
 10
785.8327979518513
 20
454.4913296914648
 30
0
 11
785.3327979518513
 21
453.5538296914648
 31
0
  0
LINE
  8
1
 62
2
 10
785.3327979518513
 20
453.5538296914648
 30
0
 11
784.9994646185178
 21
453.3663296914648
 31
0
  0
LINE
  8
1
 62
2
 10
784.9994646185178
 20
453.3663296914648
 30
0
 11
784.3327979518513
 21
453.7413296914648
 31
0
  0
LINE
  8
1
 62
2
 10
776.0865751878257
 20
447.5232892445121
 30
0
 11
772.4865751878256
 21
447.5232892445121
 31
0
  0
LINE
  8
1
 62
2
 10
776.6865751878256
 20
450.2232892445122
 30
0
 11
772.4865751878256
 21
450.2232892445122
 31
0
  0
LINE
  8
1
 62
2
 10
772.4865751878256
 20
450.2232892445122
 30
0
 11
772.4865751878256
 21
444.2232892445122
 31
0
  0
LINE
  8
1
 62
2
 10
772.4865751878256
 20
444.2232892445122
 30
0
 11
776.6865751878256
 21
444.2232892445122
 31
0
  0
LINE
  8
1
 62
2
 10
729.1738734484591
 20
454.070969101469
 30
0
 11
731.0072067817923
 21
454.820969101469
 31
0
  0
LINE
  8
1
 62
2
 10
730.6738734484591
 20
455.008469101469
 30
0
 11
730.8405401151258
 21
455.945969101469
 31
0
  0
LINE
  8
1
 62
2
 10
731.0072067817923
 20
456.508469101469
 30
0
 11
729.3405401151258
 21
456.508469101469
 31
0
  0
LINE
  8
1
 62
2
 10
729.5072067817923
 20
457.445969101469
 30
0
 11
731.0072067817923
 21
457.445969101469
 31
0
  0
LINE
  8
1
 62
2
 10
731.1738734484591
 20
458.383469101469
 30
0
 11
730.1738734484591
 21
459.508469101469
 31
0
  0
LINE
  8
1
 62
2
 10
730.1738734484591
 20
459.508469101469
 30
0
 11
728.8405401151258
 21
456.883469101469
 31
0
  0
LINE
  8
1
 62
2
 10
729.3405401151258
 20
455.945969101469
 30
0
 11
729.6738734484591
 21
455.008469101469
 31
0
  0
LINE
  8
1
 62
2
 10
730.1738734484591
 20
454.445969101469
 30
0
 11
730.1738734484591
 21
457.445969101469
 31
0
  0
LINE
  8
1
 62
2
 10
731.1738734484591
 20
457.258469101469
 30
0
 11
734.1738734484591
 21
457.258469101469
 31
0
  0
LINE
  8
1
 62
2
 10
731.1738734484591
 20
454.258469101469
 30
0
 11
731.8405401151258
 21
455.383469101469
 31
0
  0
LINE
  8
1
 62
2
 10
731.8405401151258
 20
455.383469101469
 30
0
 11
732.3405401151258
 21
457.258469101469
 31
0
  0
LINE
  8
1
 62
2
 10
732.3405401151258
 20
457.258469101469
 30
0
 11
732.5072067817923
 21
459.508469101469
 31
0
  0
LINE
  8
1
 62
2
 10
731.3405401151258
 20
458.945969101469
 30
0
 11
733.8405401151258
 21
458.945969101469
 31
0
  0
LINE
  8
1
 62
2
 10
733.8405401151258
 20
458.008469101469
 30
0
 11
731.5072067817923
 21
458.008469101469
 31
0
  0
LINE
  8
1
 62
2
 10
733.5072067817923
 20
456.883469101469
 30
0
 11
733.5072067817923
 21
453.883469101469
 31
0
  0
LINE
  8
1
 62
2
 10
733.5072067817923
 20
453.883469101469
 30
0
 11
732.8405401151258
 21
453.883469101469
 31
0
  0
LINE
  8
1
 62
2
 10
732.8405401151258
 20
454.633469101469
 30
0
 11
732.5072067817923
 21
455.570969101469
 31
0
  0
LINE
  8
1
 62
2
 10
735.1738734484591
 20
454.445969101469
 30
0
 11
736.0072067817923
 21
455.195969101469
 31
0
  0
LINE
  8
1
 62
2
 10
736.0072067817923
 20
455.195969101469
 30
0
 11
736.0072067817923
 21
457.258469101469
 31
0
  0
LINE
  8
1
 62
2
 10
736.0072067817923
 20
457.258469101469
 30
0
 11
735.0072067817923
 21
457.258469101469
 31
0
  0
LINE
  8
1
 62
2
 10
736.0072067817923
 20
455.195969101469
 30
0
 11
736.3405401151258
 21
454.445969101469
 31
0
  0
LINE
  8
1
 62
2
 10
736.3405401151258
 20
454.445969101469
 30
0
 11
736.6738734484591
 21
454.258469101469
 31
0
  0
LINE
  8
1
 62
2
 10
736.6738734484591
 20
454.258469101469
 30
0
 11
740.0072067817923
 21
454.258469101469
 31
0
  0
LINE
  8
1
 62
2
 10
739.1738734484591
 20
455.195969101469
 30
0
 11
739.1738734484591
 21
456.695969101469
 31
0
  0
LINE
  8
1
 62
2
 10
739.1738734484591
 20
456.695969101469
 30
0
 11
737.3405401151258
 21
456.695969101469
 31
0
  0
LINE
  8
1
 62
2
 10
737.3405401151258
 20
456.695969101469
 30
0
 11
737.3405401151258
 21
455.195969101469
 31
0
  0
LINE
  8
1
 62
2
 10
737.3405401151258
 20
455.195969101469
 30
0
 11
739.1738734484591
 21
455.195969101469
 31
0
  0
LINE
  8
1
 62
2
 10
739.8405401151258
 20
457.445969101469
 30
0
 11
736.6738734484591
 21
457.445969101469
 31
0
  0
LINE
  8
1
 62
2
 10
738.1738734484591
 20
457.445969101469
 30
0
 11
738.1738734484591
 21
459.883469101469
 31
0
  0
LINE
  8
1
 62
2
 10
739.5072067817923
 20
458.758469101469
 30
0
 11
737.0072067817923
 21
458.758469101469
 31
0
  0
LINE
  8
1
 62
2
 10
737.3405401151258
 20
459.695969101469
 30
0
 11
737.0072067817923
 21
458.758469101469
 31
0
  0
LINE
  8
1
 62
2
 10
737.0072067817923
 20
458.758469101469
 30
0
 11
736.6738734484591
 21
458.195969101469
 31
0
  0
LINE
  8
1
 62
2
 10
736.0072067817923
 20
458.945969101469
 30
0
 11
735.5072067817923
 21
459.695969101469
 31
0
  0
LINE
  8
1
 62
2
 10
735.1738734484591
 20
454.445969101469
 30
0
 11
735.0072067817923
 21
454.258469101469
 31
0
  0
LINE
  8
1
 62
2
 10
742.5072067817923
 20
459.883469101469
 30
0
 11
742.1738734484591
 21
459.320969101469
 31
0
  0
LINE
  8
1
 62
2
 10
742.1738734484591
 20
459.320969101469
 30
0
 11
741.6738734484591
 21
458.570969101469
 31
0
  0
LINE
  8
1
 62
2
 10
741.6738734484591
 20
458.570969101469
 30
0
 11
741.1738734484591
 21
458.008469101469
 31
0
  0
LINE
  8
1
 62
2
 10
742.0072067817923
 20
458.945969101469
 30
0
 11
745.3405401151258
 21
458.945969101469
 31
0
  0
LINE
  8
1
 62
2
 10
743.5072067817923
 20
458.945969101469
 30
0
 11
743.5072067817923
 21
453.883469101469
 31
0
  0
LINE
  8
1
 62
2
 10
741.8405401151258
 20
457.445969101469
 30
0
 11
745.1738734484591
 21
457.445969101469
 31
0
  0
LINE
  8
1
 62
2
 10
741.8405401151258
 20
457.258469101469
 30
0
 11
741.8405401151258
 21
455.945969101469
 31
0
  0
LINE
  8
1
 62
2
 10
740.8405401151258
 20
455.945969101469
 30
0
 11
746.1738734484591
 21
455.945969101469
 31
0
  0
LINE
  8
1
 62
2
 10
721.7699839084464
 20
450.279618628879
 30
0
 11
721.1699839084465
 21
449.079618628879
 31
0
  0
LINE
  8
1
 62
2
 10
721.1699839084465
 20
449.079618628879
 30
0
 11
720.8699839084466
 21
447.8796186288789
 31
0
  0
LINE
  8
1
 62
2
 10
720.8699839084466
 20
447.8796186288789
 30
0
 11
720.8699839084466
 21
446.6796186288789
 31
0
  0
LINE
  8
1
 62
2
 10
720.8699839084466
 20
446.6796186288789
 30
0
 11
721.1699839084465
 21
445.4796186288791
 31
0
  0
LINE
  8
1
 62
2
 10
721.1699839084465
 20
445.4796186288791
 30
0
 11
721.7699839084464
 21
444.279618628879
 31
0
  0
LINE
  8
1
 62
2
 10
724.2366505751131
 20
444.654618628879
 30
0
 11
724.2366505751131
 21
448.217118628879
 31
0
  0
LINE
  8
1
 62
2
 10
724.2366505751131
 20
448.217118628879
 30
0
 11
728.2366505751131
 21
448.217118628879
 31
0
  0
LINE
  8
1
 62
2
 10
728.2366505751131
 20
448.217118628879
 30
0
 11
728.2366505751131
 21
444.654618628879
 31
0
  0
LINE
  8
1
 62
2
 10
728.2366505751131
 20
444.654618628879
 30
0
 11
724.2366505751131
 21
444.654618628879
 31
0
  0
LINE
  8
1
 62
2
 10
724.5699839084464
 20
445.967118628879
 30
0
 11
725.0699839084464
 21
446.529618628879
 31
0
  0
LINE
  8
1
 62
2
 10
725.0699839084464
 20
446.529618628879
 30
0
 11
725.5699839084464
 21
447.654618628879
 31
0
  0
LINE
  8
1
 62
2
 10
725.5699839084464
 20
447.654618628879
 30
0
 11
725.5699839084464
 21
449.717118628879
 31
0
  0
LINE
  8
1
 62
2
 10
723.7366505751131
 20
449.717118628879
 30
0
 11
728.7366505751131
 21
449.717118628879
 31
0
  0
LINE
  8
1
 62
2
 10
726.7366505751131
 20
449.717118628879
 30
0
 11
726.7366505751131
 21
446.717118628879
 31
0
  0
LINE
  8
1
 62
2
 10
726.7366505751131
 20
446.717118628879
 30
0
 11
726.9033172417799
 21
446.342118628879
 31
0
  0
LINE
  8
1
 62
2
 10
726.9033172417799
 20
446.342118628879
 30
0
 11
727.7366505751131
 21
446.342118628879
 31
0
  0
LINE
  8
1
 62
2
 10
727.7366505751131
 20
446.342118628879
 30
0
 11
727.9033172417799
 21
446.717118628879
 31
0
  0
LINE
  8
1
 62
2
 10
729.5699839084464
 20
444.654618628879
 30
0
 11
729.7366505751131
 21
445.217118628879
 31
0
  0
LINE
  8
1
 62
2
 10
729.7366505751131
 20
445.217118628879
 30
0
 11
729.9033172417799
 21
446.904618628879
 31
0
  0
LINE
  8
1
 62
2
 10
729.9033172417799
 20
446.904618628879
 30
0
 11
729.9033172417799
 21
450.092118628879
 31
0
  0
LINE
  8
1
 62
2
 10
729.9033172417799
 20
450.092118628879
 30
0
 11
734.5699839084464
 21
450.092118628879
 31
0
  0
LINE
  8
1
 62
2
 10
734.5699839084464
 20
448.779618628879
 30
0
 11
732.5699839084464
 21
448.779618628879
 31
0
  0
LINE
  8
1
 62
2
 10
732.2366505751131
 20
448.779618628879
 30
0
 11
730.5699839084464
 21
448.779618628879
 31
0
  0
LINE
  8
1
 62
2
 10
731.4033172417799
 20
449.717118628879
 30
0
 11
731.4033172417799
 21
446.904618628879
 31
0
  0
LINE
  8
1
 62
2
 10
730.4033172417799
 20
447.279618628879
 30
0
 11
730.9033172417799
 21
447.842118628879
 31
0
  0
LINE
  8
1
 62
2
 10
730.9033172417799
 20
447.842118628879
 30
0
 11
731.4033172417799
 21
448.779618628879
 31
0
  0
LINE
  8
1
 62
2
 10
731.7366505751131
 20
448.217118628879
 30
0
 11
732.2366505751131
 21
447.654618628879
 31
0
  0
LINE
  8
1
 62
2
 10
732.2366505751131
 20
447.092118628879
 30
0
 11
732.7366505751131
 21
447.467118628879
 31
0
  0
LINE
  8
1
 62
2
 10
732.7366505751131
 20
447.467118628879
 30
0
 11
733.5699839084464
 21
448.779618628879
 31
0
  0
LINE
  8
1
 62
2
 10
733.5699839084464
 20
449.717118628879
 30
0
 11
733.5699839084464
 21
446.904618628879
 31
0
  0
LINE
  8
1
 62
2
 10
733.5699839084464
 20
448.779618628879
 30
0
 11
734.0699839084464
 21
448.029618628879
 31
0
  0
LINE
  8
1
 62
2
 10
734.0699839084464
 20
448.029618628879
 30
0
 11
734.9033172417799
 21
447.092118628879
 31
0
  0
LINE
  8
1
 62
2
 10
733.9033172417799
 20
446.342118628879
 30
0
 11
731.2366505751131
 21
446.342118628879
 31
0
  0
LINE
  8
1
 62
2
 10
731.2366505751131
 20
446.342118628879
 30
0
 11
731.2366505751131
 21
444.467118628879
 31
0
  0
LINE
  8
1
 62
2
 10
731.2366505751131
 20
444.467118628879
 30
0
 11
733.9033172417799
 21
444.467118628879
 31
0
  0
LINE
  8
1
 62
2
 10
733.9033172417799
 20
444.467118628879
 30
0
 11
733.9033172417799
 21
446.342118628879
 31
0
  0
LINE
  8
1
 62
2
 10
731.2366505751131
 20
445.404618628879
 30
0
 11
733.9033172417799
 21
445.404618628879
 31
0
  0
LINE
  8
1
 62
2
 10
738.2366505751131
 20
444.279618628879
 30
0
 11
738.2366505751131
 21
449.529618628879
 31
0
  0
LINE
  8
1
 62
2
 10
740.7366505751131
 20
449.529618628879
 30
0
 11
735.7366505751131
 21
449.529618628879
 31
0
  0
LINE
  8
1
 62
2
 10
739.0699839084464
 20
448.217118628879
 30
0
 11
740.0699839084464
 21
447.092118628879
 31
0
  0
LINE
  8
1
 62
2
 10
742.4033172417799
 20
445.779618628879
 30
0
 11
742.2366505751131
 21
445.404618628879
 31
0
  0
LINE
  8
1
 62
2
 10
742.2366505751131
 20
445.404618628879
 30
0
 11
742.0699839084464
 21
444.279618628879
 31
0
  0
LINE
  8
1
 62
2
 10
742.0699839084464
 20
444.279618628879
 30
0
 11
746.4033172417799
 21
444.279618628879
 31
0
  0
LINE
  8
1
 62
2
 10
750.2366505751131
 20
447.467118628879
 30
0
 11
750.2366505751131
 21
444.467118628879
 31
0
  0
LINE
  8
1
 62
2
 10
752.0699839084464
 20
448.029618628879
 30
0
 11
752.0699839084464
 21
444.842118628879
 31
0
  0
LINE
  8
1
 62
2
 10
752.0699839084464
 20
444.842118628879
 30
0
 11
751.9033172417799
 21
444.467118628879
 31
0
  0
LINE
  8
1
 62
2
 10
751.9033172417799
 20
444.467118628879
 30
0
 11
751.4033172417799
 21
444.467118628879
 31
0
  0
LINE
  8
1
 62
2
 10
748.7366505751131
 20
450.092118628879
 30
0
 11
748.7366505751131
 21
444.467118628879
 31
0
  0
LINE
  8
1
 62
2
 10
754.1699839084465
 20
449.079618628879
 30
0
 11
754.4699839084465
 21
447.8796186288789
 31
0
  0
LINE
  8
1
 62
2
 10
754.4699839084465
 20
447.8796186288789
 30
0
 11
754.4699839084465
 21
446.6796186288789
 31
0
  0
LINE
  8
1
 62
2
 10
754.4699839084465
 20
446.6796186288789
 30
0
 11
754.1699839084465
 21
445.4796186288791
 31
0
  0
LINE
  8
1
 62
2
 10
754.1699839084465
 20
445.4796186288791
 30
0
 11
753.5699839084464
 21
444.279618628879
 31
0
  0
LINE
  8
1
 62
2
 10
742.2366505751131
 20
448.217118628879
 30
0
 11
742.4033172417799
 21
448.592118628879
 31
0
  0
LINE
  8
1
 62
2
 10
742.4033172417799
 20
448.592118628879
 30
0
 11
743.0699839084464
 21
448.967118628879
 31
0
  0
LINE
  8
1
 62
2
 10
743.0699839084464
 20
448.967118628879
 30
0
 11
743.7366505751131
 21
449.154618628879
 31
0
  0
LINE
  8
1
 62
2
 10
743.7366505751131
 20
449.154618628879
 30
0
 11
744.9033172417799
 21
449.154618628879
 31
0
  0
LINE
  8
1
 62
2
 10
744.9033172417799
 20
449.154618628879
 30
0
 11
745.5699839084464
 21
448.967118628879
 31
0
  0
LINE
  8
1
 62
2
 10
745.5699839084464
 20
448.967118628879
 30
0
 11
746.2366505751131
 21
448.592118628879
 31
0
  0
LINE
  8
1
 62
2
 10
746.2366505751131
 20
448.592118628879
 30
0
 11
746.4033172417799
 21
448.217118628879
 31
0
  0
LINE
  8
1
 62
2
 10
746.4033172417799
 20
448.217118628879
 30
0
 11
746.4033172417799
 21
447.279618628879
 31
0
  0
LINE
  8
1
 62
2
 10
746.4033172417799
 20
447.279618628879
 30
0
 11
746.2366505751131
 21
446.904618628879
 31
0
  0
LINE
  8
1
 62
2
 10
746.2366505751131
 20
446.904618628879
 30
0
 11
745.5699839084464
 21
446.529618628879
 31
0
  0
LINE
  8
1
 62
2
 10
745.5699839084464
 20
446.529618628879
 30
0
 11
742.9033172417799
 21
446.154618628879
 31
0
  0
LINE
  8
1
 62
2
 10
742.9033172417799
 20
446.154618628879
 30
0
 11
742.4033172417799
 21
445.779618628879
 31
0
  0
LINE
  8
1
 62
2
 10
747.9033172417799
 20
448.592118628879
 30
0
 11
749.5699839084464
 21
448.592118628879
 31
0
  0
LINE
  8
1
 62
2
 10
748.7366505751131
 20
448.592118628879
 30
0
 11
748.2366505751131
 21
447.092118628879
 31
0
  0
LINE
  8
1
 62
2
 10
748.2366505751131
 20
447.092118628879
 30
0
 11
747.9033172417799
 21
446.529618628879
 31
0
  0
LINE
  8
1
 62
2
 10
747.9033172417799
 20
446.529618628879
 30
0
 11
747.7366505751131
 21
446.154618628879
 31
0
  0
LINE
  8
1
 62
2
 10
748.7366505751131
 20
448.592118628879
 30
0
 11
749.4033172417799
 21
447.092118628879
 31
0
  0
LINE
  8
1
 62
2
 10
750.5699839084464
 20
449.904618628879
 30
0
 11
749.7366505751131
 21
448.592118628879
 31
0
  0
LINE
  8
1
 62
2
 10
750.9033172417799
 20
448.779618628879
 30
0
 11
749.9033172417799
 21
446.904618628879
 31
0
  0
LINE
  8
1
 62
2
 10
749.9033172417799
 20
446.904618628879
 30
0
 11
749.4033172417799
 21
446.342118628879
 31
0
  0
LINE
  8
1
 62
2
 10
751.0699839084464
 20
449.529618628879
 30
0
 11
752.5699839084464
 21
449.529618628879
 31
0
  0
LINE
  8
1
 62
2
 10
750.9033172417799
 20
448.029618628879
 30
0
 11
752.9033172417799
 21
448.029618628879
 31
0
  0
LINE
  8
1
 62
2
 10
753.5699839084464
 20
450.279618628879
 30
0
 11
754.1699839084465
 21
449.079618628879
 31
0
  0
LINE
  8
1
 62
2
 10
734.1738734484591
 20
456.133469101469
 30
0
 11
731.3405401151258
 21
456.133469101469
 31
0
  0
LINE
  8
1
 62
2
  6
DIVIDE
 10
779.5275109978231
 20
517.2852200997138
 30
0
 11
779.5275109978231
 21
510.2852200997137
 31
0
  0
LINE
  8
1
 62
2
  6
DIVIDE
 10
769.5275109978231
 20
517.2852200997139
 30
0
 11
779.5275109978231
 21
517.2852200997138
 31
0
  0
LINE
  8
1
 62
2
  6
DIVIDE
 10
779.5275109978231
 20
510.2852200997137
 30
0
 11
769.5275109978231
 21
510.2852200997139
 31
0
  0
LINE
  8
1
 62
2
  6
DIVIDE
 10
769.5275109978231
 20
510.2852200997139
 30
0
 11
769.5275109978231
 21
517.2852200997139
 31
0
  0
LINE
  8
1
 62
7
 10
785.4246401315627
 20
510.3555736440855
 30
0
 11
780.8025659456587
 21
510.3555736440855
 31
0
  0
LINE
  8
1
 62
7
 10
780.8025659456587
 20
510.3555736440855
 30
0
 11
780.8025659456587
 21
517.2852200997138
 31
0
  0
LINE
  8
1
 62
7
 10
780.8025659456587
 20
517.2852200997138
 30
0
 11
785.3449491973229
 21
517.2852200997138
 31
0
  0
LINE
  8
1
 62
7
 10
785.3449491973229
 20
517.2852200997138
 30
0
 11
785.3449491973229
 21
516.41901429276
 31
0
  0
LINE
  8
1
 62
7
 10
785.3449491973229
 20
516.41901429276
 30
0
 11
781.6791662222956
 21
516.41901429276
 31
0
  0
LINE
  8
1
 62
7
 10
781.6791662222956
 20
516.41901429276
 30
0
 11
781.6791662222956
 21
514.3401203560718
 31
0
  0
LINE
  8
1
 62
7
 10
781.6791662222956
 20
514.3401203560718
 30
0
 11
785.0261854603639
 21
514.3401203560718
 31
0
  0
LINE
  8
1
 62
7
 10
785.0261854603639
 20
514.3401203560718
 30
0
 11
785.0261854603639
 21
513.473914549118
 31
0
  0
LINE
  8
1
 62
7
 10
785.0261854603639
 20
513.473914549118
 30
0
 11
781.6791662222956
 21
513.473914549118
 31
0
  0
LINE
  8
1
 62
7
 10
781.6791662222956
 20
513.473914549118
 30
0
 11
781.6791662222956
 21
511.221779451039
 31
0
  0
LINE
  8
1
 62
7
 10
781.6791662222956
 20
511.221779451039
 30
0
 11
785.4246401315627
 21
511.221779451039
 31
0
  0
LINE
  8
1
 62
7
 10
785.4246401315627
 20
511.221779451039
 30
0
 11
785.4246401315627
 21
510.3555736440855
 31
0
  0
LINE
  8
1
 62
2
 10
747.8851739084728
 20
579.70350597073
 30
0
 11
747.8851739084728
 21
573.70350597073
 31
0
  0
LINE
  8
1
 62
2
 10
746.0851739084728
 20
577.9035059707301
 30
0
 11
747.8851739084728
 21
579.70350597073
 31
0
  0
LINE
  8
1
 62
2
 10
744.2851739084728
 20
579.70350597073
 30
0
 11
744.2851739084728
 21
573.70350597073
 31
0
  0
LINE
  8
1
 62
2
 10
742.4851739084728
 20
577.9035059707301
 30
0
 11
744.2851739084728
 21
579.70350597073
 31
0
  0
LINE
  8
1
 62
2
 10
736.9851739084728
 20
574.07850597073
 30
0
 11
741.3185072418062
 21
574.07850597073
 31
0
  0
LINE
  8
1
 62
2
 10
739.1518405751394
 20
579.32850597073
 30
0
 11
739.1518405751394
 21
574.07850597073
 31
0
  0
LINE
  8
1
 62
2
 10
741.3185072418062
 20
574.07850597073
 30
0
 11
741.3185072418062
 21
578.01600597073
 31
0
  0
LINE
  8
1
 62
2
 10
736.9851739084728
 20
578.01600597073
 30
0
 11
736.9851739084728
 21
574.07850597073
 31
0
  0
LINE
  8
1
 62
2
 10
728.9851739084729
 20
576.10350597073
 30
0
 11
728.9851739084729
 21
573.70350597073
 31
0
  0
LINE
  8
1
 62
2
 10
726.2851739084729
 20
574.9035059707301
 30
0
 11
729.8851739084729
 21
574.9035059707301
 31
0
  0
LINE
  8
1
 62
2
 10
728.9851739084729
 20
579.70350597073
 30
0
 11
726.2851739084729
 21
574.9035059707301
 31
0
  0
LINE
  8
1
 62
2
 10
721.4851739084728
 20
579.25350597073
 30
0
 11
721.9351739084727
 21
579.55350597073
 31
0
  0
LINE
  8
1
 62
2
 10
721.1851739084727
 20
578.80350597073
 30
0
 11
721.4851739084728
 21
579.25350597073
 31
0
  0
LINE
  8
1
 62
2
 10
721.1851739084727
 20
578.20350597073
 30
0
 11
721.1851739084727
 21
578.80350597073
 31
0
  0
LINE
  8
1
 62
2
 10
721.4851739084728
 20
577.75350597073
 30
0
 11
721.1851739084727
 21
578.20350597073
 31
0
  0
LINE
  8
1
 62
2
 10
721.9351739084727
 20
577.45350597073
 30
0
 11
721.4851739084728
 21
577.75350597073
 31
0
  0
LINE
  8
1
 62
2
 10
722.3851739084728
 20
577.30350597073
 30
0
 11
721.9351739084727
 21
577.45350597073
 31
0
  0
LINE
  8
1
 62
2
 10
722.9851739084728
 20
577.30350597073
 30
0
 11
722.3851739084728
 21
577.30350597073
 31
0
  0
LINE
  8
1
 62
2
 10
723.4351739084727
 20
577.45350597073
 30
0
 11
722.9851739084728
 21
577.30350597073
 31
0
  0
LINE
  8
1
 62
2
 10
723.8851739084728
 20
577.75350597073
 30
0
 11
723.4351739084727
 21
577.45350597073
 31
0
  0
LINE
  8
1
 62
2
 10
724.1851739084727
 20
578.20350597073
 30
0
 11
723.8851739084728
 21
577.75350597073
 31
0
  0
LINE
  8
1
 62
2
 10
724.1851739084727
 20
578.80350597073
 30
0
 11
724.1851739084727
 21
578.20350597073
 31
0
  0
LINE
  8
1
 62
2
 10
723.8851739084728
 20
579.25350597073
 30
0
 11
724.1851739084727
 21
578.80350597073
 31
0
  0
LINE
  8
1
 62
2
 10
723.4351739084727
 20
579.55350597073
 30
0
 11
723.8851739084728
 21
579.25350597073
 31
0
  0
LINE
  8
1
 62
2
 10
722.9851739084728
 20
579.70350597073
 30
0
 11
723.4351739084727
 21
579.55350597073
 31
0
  0
LINE
  8
1
 62
2
 10
722.3851739084728
 20
579.70350597073
 30
0
 11
722.9851739084728
 21
579.70350597073
 31
0
  0
LINE
  8
1
 62
2
 10
721.9351739084727
 20
579.55350597073
 30
0
 11
722.3851739084728
 21
579.70350597073
 31
0
  0
LINE
  8
1
 62
2
 10
723.7351739084728
 20
577.00350597073
 30
0
 11
722.9851739084728
 21
577.30350597073
 31
0
  0
LINE
  8
1
 62
2
 10
724.1851739084727
 20
576.55350597073
 30
0
 11
723.7351739084728
 21
577.00350597073
 31
0
  0
LINE
  8
1
 62
2
 10
724.4851739084728
 20
575.95350597073
 30
0
 11
724.1851739084727
 21
576.55350597073
 31
0
  0
LINE
  8
1
 62
2
 10
724.4851739084728
 20
575.05350597073
 30
0
 11
724.4851739084728
 21
575.95350597073
 31
0
  0
LINE
  8
1
 62
2
 10
724.1851739084727
 20
574.45350597073
 30
0
 11
724.4851739084728
 21
575.05350597073
 31
0
  0
LINE
  8
1
 62
2
 10
723.7351739084728
 20
574.00350597073
 30
0
 11
724.1851739084727
 21
574.45350597073
 31
0
  0
LINE
  8
1
 62
2
 10
723.1351739084728
 20
573.70350597073
 30
0
 11
723.7351739084728
 21
574.00350597073
 31
0
  0
LINE
  8
1
 62
2
 10
722.2351739084728
 20
573.70350597073
 30
0
 11
723.1351739084728
 21
573.70350597073
 31
0
  0
LINE
  8
1
 62
2
 10
721.6351739084728
 20
574.00350597073
 30
0
 11
722.2351739084728
 21
573.70350597073
 31
0
  0
LINE
  8
1
 62
2
 10
721.1851739084727
 20
574.45350597073
 30
0
 11
721.6351739084728
 21
574.00350597073
 31
0
  0
LINE
  8
1
 62
2
 10
720.8851739084728
 20
575.05350597073
 30
0
 11
721.1851739084727
 21
574.45350597073
 31
0
  0
LINE
  8
1
 62
2
 10
720.8851739084728
 20
575.95350597073
 30
0
 11
720.8851739084728
 21
575.05350597073
 31
0
  0
LINE
  8
1
 62
2
 10
721.1851739084727
 20
576.55350597073
 30
0
 11
720.8851739084728
 21
575.95350597073
 31
0
  0
LINE
  8
1
 62
2
 10
721.6351739084728
 20
577.00350597073
 30
0
 11
721.1851739084727
 21
576.55350597073
 31
0
  0
LINE
  8
1
 62
2
 10
722.3851739084728
 20
577.30350597073
 30
0
 11
721.6351739084728
 21
577.00350597073
 31
0
  0
LINE
  8
1
 62
2
 10
719.0851739084728
 20
579.70350597073
 30
0
 11
719.0851739084728
 21
573.70350597073
 31
0
  0
LINE
  8
1
 62
2
 10
717.2851739084729
 20
577.9035059707301
 30
0
 11
719.0851739084728
 21
579.70350597073
 31
0
  0
LINE
  8
1
 62
2
 10
715.4851739084728
 20
573.70350597073
 30
0
 11
715.3351739084728
 21
573.70350597073
 31
0
  0
LINE
  8
1
 62
2
 10
715.4851739084728
 20
573.85350597073
 30
0
 11
715.4851739084728
 21
573.70350597073
 31
0
  0
LINE
  8
1
 62
2
 10
715.3351739084728
 20
573.85350597073
 30
0
 11
715.4851739084728
 21
573.85350597073
 31
0
  0
LINE
  8
1
 62
2
 10
715.3351739084728
 20
573.70350597073
 30
0
 11
715.3351739084728
 21
573.85350597073
 31
0
  0
LINE
  8
1
 62
2
 10
712.1851739084729
 20
573.70350597073
 30
0
 11
709.9351739084729
 21
573.70350597073
 31
0
  0
LINE
  8
1
 62
2
 10
712.6351739084729
 20
573.85350597073
 30
0
 11
712.1851739084729
 21
573.70350597073
 31
0
  0
LINE
  8
1
 62
2
 10
713.0851739084728
 20
574.1535059707301
 30
0
 11
712.6351739084729
 21
573.85350597073
 31
0
  0
LINE
  8
1
 62
2
 10
713.3851739084729
 20
574.60350597073
 30
0
 11
713.0851739084728
 21
574.1535059707301
 31
0
  0
LINE
  8
1
 62
2
 10
713.5351739084729
 20
575.20350597073
 30
0
 11
713.3851739084729
 21
574.60350597073
 31
0
  0
LINE
  8
1
 62
2
 10
713.5351739084729
 20
576.10350597073
 30
0
 11
713.5351739084729
 21
575.20350597073
 31
0
  0
LINE
  8
1
 62
2
 10
713.3851739084729
 20
576.70350597073
 30
0
 11
713.5351739084729
 21
576.10350597073
 31
0
  0
LINE
  8
1
 62
2
 10
712.9351739084729
 20
577.1535059707301
 30
0
 11
713.3851739084729
 21
576.70350597073
 31
0
  0
LINE
  8
1
 62
2
 10
712.1851739084729
 20
577.30350597073
 30
0
 11
712.9351739084729
 21
577.1535059707301
 31
0
  0
LINE
  8
1
 62
2
 10
709.9351739084729
 20
577.30350597073
 30
0
 11
712.1851739084729
 21
577.30350597073
 31
0
  0
LINE
  8
1
 62
2
 10
709.9351739084729
 20
579.70350597073
 30
0
 11
709.9351739084729
 21
577.30350597073
 31
0
  0
LINE
  8
1
 62
2
 10
713.2351739084728
 20
579.70350597073
 30
0
 11
709.9351739084729
 21
579.70350597073
 31
0
  0
LINE
  8
1
 62
2
 10
708.1351739084729
 20
579.70350597073
 30
0
 11
705.1351739084729
 21
573.70350597073
 31
0
  0
LINE
  8
1
 62
2
 10
704.5351739084729
 20
579.70350597073
 30
0
 11
708.1351739084729
 21
579.70350597073
 31
0
  0
LINE
  8
1
 62
2
 10
704.5351739084729
 20
579.10350597073
 30
0
 11
704.5351739084729
 21
579.70350597073
 31
0
  0
LINE
  8
1
 62
2
  6
DASHDOT
 10
844.5275109978234
 20
659.9956699856793
 30
0
 11
844.5275109978234
 21
799.8297077928633
 31
0
  0
LINE
  8
1
 62
2
  6
DASHDOT
 10
962.7863895627479
 20
729.1491012692374
 30
0
 11
702.026690129856
 21
729.1491012692374
 31
0
  0
LINE
  8
1
 62
7
 10
789.5275109978236
 20
591.7852200997133
 30
0
 11
907.5275109978234
 21
591.7852200997131
 31
0
  0
LINE
  8
1
 62
7
 10
788.5275109978234
 20
571.7852200997133
 30
0
 11
900.5275109978234
 21
571.7852200997133
 31
0
  0
LINE
  8
1
 62
7
 10
899.5275109978234
 20
570.7852200997131
 30
0
 11
900.5275109978234
 21
571.7852200997133
 31
0
  0
LINE
  8
1
 62
7
 10
789.5275109978234
 20
570.7852200997131
 30
0
 11
788.5275109978234
 21
571.7852200997133
 31
0
  0
LINE
  8
1
 62
7
 10
898.5275109978236
 20
605.7852200997131
 30
0
 11
898.5275109978234
 21
592.7852200997131
 31
0
  0
LINE
  8
1
 62
7
 10
908.5275109978234
 20
590.7852200997131
 30
0
 11
908.5275109978234
 21
573.7852200997131
 31
0
  0
LINE
  8
1
 62
7
 10
907.5275109978234
 20
572.7852200997133
 30
0
 11
900.5275109978234
 21
572.7852200997131
 31
0
  0
LINE
  8
1
 62
7
 10
839.5275109978236
 20
590.7852200997131
 30
0
 11
839.5275109978236
 21
573.7852200997131
 31
0
  0
LINE
  8
1
 62
7
 10
788.5275109978234
 20
572.7852200997131
 30
0
 11
782.5275109978236
 21
572.7852200997133
 31
0
  0
LINE
  8
1
 62
7
 10
849.5275109978234
 20
673.4714576409372
 30
0
 11
849.5275109978234
 21
666.1491012692372
 31
0
  0
LINE
  8
1
 62
7
 10
839.5275109978234
 20
673.4714576409372
 30
0
 11
839.5275109978234
 21
666.1491012692372
 31
0
  0
LINE
  8
1
 62
7
 10
899.5275109978234
 20
570.7852200997131
 30
0
 11
789.5275109978234
 21
570.7852200997131
 31
0
  0
LINE
  8
1
 62
7
 10
900.5275109978234
 20
590.7852200997131
 30
0
 11
900.5275109978234
 21
571.7852200997133
 31
0
  0
LINE
  8
1
 62
7
 10
848.5275109978234
 20
665.1491012692372
 30
0
 11
840.5275109978234
 21
665.1491012692372
 31
0
  0
LINE
  8
1
 62
7
 10
781.5275109978236
 20
573.7852200997131
 30
0
 11
781.5275109978236
 21
607.2852200997131
 31
0
  0
LINE
  8
1
 62
7
 10
788.5275109978234
 20
571.7852200997133
 30
0
 11
788.5275109978234
 21
590.7852200997131
 31
0
  0
LINE
  8
1
 62
7
 10
790.5275109978234
 20
592.7852200997131
 30
0
 11
790.5275109978236
 21
605.7852200997131
 31
0
  0
LINE
  8
1
 62
7
 10
849.5275109978234
 20
573.7852200997131
 30
0
 11
849.5275109978234
 21
590.7852200997131
 31
0
  0
LINE
  8
1
 62
7
 10
840.5275109978236
 20
572.7852200997133
 30
0
 11
848.5275109978234
 21
572.7852200997133
 31
0
  0
LINE
  8
1
 62
7
 10
789.5275109978236
 20
600.2852200997131
 30
0
 11
898.5275109978236
 21
600.2852200997131
 31
0
  0
LINE
  8
1
 62
7
 10
849.5275109978234
 20
792.1491012692377
 30
0
 11
849.5275109978234
 21
784.8267448975378
 31
0
  0
LINE
  8
1
 62
7
 10
839.5275109978234
 20
792.1491012692377
 30
0
 11
839.5275109978234
 21
784.8267448975378
 31
0
  0
LINE
  8
1
 62
7
 10
908.5275109978234
 20
733.1491012692375
 30
0
 11
908.5275109978234
 21
725.1491012692375
 31
0
  0
LINE
  8
1
 62
7
 10
840.5275109978234
 20
793.1491012692377
 30
0
 11
848.5275109978234
 21
793.1491012692377
 31
0
  0
LINE
  8
1
 62
7
 10
790.5275109978234
 20
599.2852200997133
 30
0
 11
789.5275109978236
 21
599.2852200997131
 31
0
  0
LINE
  8
1
 62
7
 10
900.7725089962215
 20
609.2852200997131
 30
0
 11
907.0275109978236
 21
609.2852200997131
 31
0
  0
LINE
  8
1
 62
7
 10
908.5275109978236
 20
606.2852200997131
 30
0
 11
900.0275109978236
 21
606.2852200997131
 31
0
  0
LINE
  8
1
 62
7
 10
908.5275109978236
 20
607.7852200997131
 30
0
 11
908.5275109978236
 21
606.2852200997131
 31
0
  0
LINE
  8
1
 62
2
  6
DASHDOT
 10
785.5275109978236
 20
598.6880299333323
 30
0
 11
785.5275109978236
 21
590.6886209244303
 31
0
  0
LINE
  8
1
 62
2
  6
DASHDOT
 10
780.4143677567274
 20
595.7852200997131
 30
0
 11
790.5275109978236
 21
595.7852200997131
 31
0
  0
LINE
  8
1
 62
7
 10
897.0275109978236
 20
607.2852200997131
 30
0
 11
781.5275109978236
 21
607.2852200997131
 31
0
  0
LINE
  8
1
 62
7
 10
789.5275109978236
 20
595.7852200997131
 30
0
 11
789.5275109978236
 21
600.2852200997131
 31
0
  0
LINE
  8
1
 62
7
 10
789.5275109978236
 20
610.2852200997131
 30
0
 11
799.2775109978236
 21
607.2852200997131
 31
0
  0
LINE
  8
1
 62
7
 10
784.5275109978236
 20
610.2852200997131
 30
0
 11
789.5275109978236
 21
610.2852200997131
 31
0
  0
LINE
  8
1
 62
7
 10
894.0880800018215
 20
741.6491012692374
 30
0
 11
905.6252562989455
 21
741.6491012692374
 31
0
  0
LINE
  8
1
 62
7
 10
850.5275109978234
 20
701.6491012692374
 30
0
 11
850.5275109978234
 21
756.6491012692374
 31
0
  0
LINE
  8
1
 62
7
 10
860.5275109978234
 20
701.6491012692374
 30
0
 11
850.5275109978234
 21
701.6491012692374
 31
0
  0
LINE
  8
1
 62
7
 10
860.5275109978234
 20
756.6491012692374
 30
0
 11
860.5275109978234
 21
701.6491012692374
 31
0
  0
LINE
  8
1
 62
7
 10
850.5275109978234
 20
756.6491012692374
 30
0
 11
860.5275109978234
 21
756.6491012692374
 31
0
  0
LINE
  8
1
 62
7
 10
789.5275109978234
 20
719.1491012692374
 30
0
 11
802.5275109978234
 21
717.1491012692374
 31
0
  0
LINE
  8
1
 62
7
 10
789.5275109978234
 20
739.1491012692374
 30
0
 11
802.5275109978234
 21
741.1491012692374
 31
0
  0
LINE
  8
1
 62
7
 10
802.5275109978234
 20
741.1491012692374
 30
0
 11
802.5275109978234
 21
732.6491012692374
 31
0
  0
LINE
  8
1
 62
7
 10
802.5275109978234
 20
725.6491012692374
 30
0
 11
802.5275109978234
 21
717.1491012692374
 31
0
  0
LINE
  8
1
 62
7
 10
789.5275109978234
 20
725.6491012692374
 30
0
 11
789.5275109978234
 21
719.1491012692374
 31
0
  0
LINE
  8
1
 62
7
 10
789.5275109978234
 20
739.1491012692374
 30
0
 11
789.5275109978234
 21
732.6491012692374
 31
0
  0
LINE
  8
1
 62
7
 10
782.5275109978234
 20
719.1491012692374
 30
0
 11
789.5275109978234
 21
719.1491012692374
 31
0
  0
LINE
  8
1
 62
7
 10
781.5275109978234
 20
725.6491012692374
 30
0
 11
802.5275109978234
 21
725.6491012692374
 31
0
  0
LINE
  8
1
 62
7
 10
782.5275109978234
 20
739.1491012692374
 30
0
 11
789.5275109978234
 21
739.1491012692374
 31
0
  0
LINE
  8
1
 62
7
 10
781.5275109978234
 20
732.6491012692374
 30
0
 11
802.5275109978234
 21
732.6491012692374
 31
0
  0
LINE
  8
1
 62
2
  6
DASHDOT
 10
785.5275109978234
 20
740.184483177528
 30
0
 11
785.5275109978234
 21
717.7680876705828
 31
0
  0
LINE
  8
1
 62
7
 10
781.5275109978234
 20
738.1491012692374
 30
0
 11
781.5275109978234
 21
720.1491012692374
 31
0
  0
LINE
  8
1
 62
7
 10
872.5275109978234
 20
721.9491012692372
 30
0
 11
874.5275109978234
 21
721.9491012692372
 31
0
  0
LINE
  8
1
 62
7
 10
872.5275109978234
 20
720.1491012692374
 30
0
 11
874.5275109978234
 21
720.1491012692374
 31
0
  0
LINE
  8
1
 62
7
 10
874.8525109978235
 20
739.8491012692373
 30
0
 11
879.5275109978234
 21
739.8491012692373
 31
0
  0
LINE
  8
1
 62
7
 10
874.8525109978235
 20
737.7991012692374
 30
0
 11
879.5275109978234
 21
737.7991012692374
 31
0
  0
LINE
  8
1
 62
7
 10
874.8525109978235
 20
736.4991012692375
 30
0
 11
879.5275109978234
 21
736.4991012692375
 31
0
  0
LINE
  8
1
 62
7
 10
874.8525109978235
 20
734.4491012692372
 30
0
 11
879.5275109978234
 21
734.4491012692372
 31
0
  0
LINE
  8
1
 62
7
 10
874.8525109978235
 20
733.1491012692374
 30
0
 11
879.5275109978234
 21
733.1491012692374
 31
0
  0
LINE
  8
1
 62
7
 10
872.5275109978234
 20
734.4491012692372
 30
0
 11
872.7656473223524
 21
734.4491012692372
 31
0
  0
LINE
  8
1
 62
7
 10
879.5275109978234
 20
741.1491012692374
 30
0
 11
879.5275109978234
 21
739.8491012692373
 31
0
  0
LINE
  8
1
 62
7
 10
874.8525109978235
 20
741.1491012692374
 30
0
 11
879.5275109978234
 21
741.1491012692374
 31
0
  0
LINE
  8
1
 62
7
 10
872.5275109978234
 20
733.1491012692374
 30
0
 11
874.8525109978235
 21
733.1491012692374
 31
0
  0
LINE
  8
1
 62
7
 10
872.5275109978234
 20
734.4491012692372
 30
0
 11
872.5275109978234
 21
733.1491012692374
 31
0
  0
LINE
  8
1
 62
7
 10
879.5275109978234
 20
734.4491012692372
 30
0
 11
879.5275109978234
 21
733.1491012692374
 31
0
  0
LINE
  8
1
 62
7
 10
879.5275109978234
 20
737.7991012692374
 30
0
 11
879.5275109978234
 21
736.4991012692375
 31
0
  0
LINE
  8
1
 62
7
 10
874.8525109978235
 20
749.8491012692373
 30
0
 11
879.5275109978234
 21
749.8491012692373
 31
0
  0
LINE
  8
1
 62
7
 10
874.8525109978235
 20
747.7991012692374
 30
0
 11
879.5275109978234
 21
747.7991012692374
 31
0
  0
LINE
  8
1
 62
7
 10
874.8525109978235
 20
746.4991012692375
 30
0
 11
879.5275109978234
 21
746.4991012692375
 31
0
  0
LINE
  8
1
 62
7
 10
874.8525109978235
 20
744.4491012692372
 30
0
 11
879.5275109978234
 21
744.4491012692372
 31
0
  0
LINE
  8
1
 62
7
 10
874.8525109978235
 20
743.1491012692374
 30
0
 11
879.5275109978234
 21
743.1491012692374
 31
0
  0
LINE
  8
1
 62
7
 10
872.5275109978234
 20
744.4491012692372
 30
0
 11
872.7656473223524
 21
744.4491012692372
 31
0
  0
LINE
  8
1
 62
7
 10
879.5275109978234
 20
751.1491012692374
 30
0
 11
879.5275109978234
 21
749.8491012692373
 31
0
  0
LINE
  8
1
 62
7
 10
872.5275109978234
 20
743.1491012692374
 30
0
 11
874.8525109978235
 21
743.1491012692374
 31
0
  0
LINE
  8
1
 62
7
 10
879.5275109978234
 20
744.4491012692372
 30
0
 11
879.5275109978234
 21
743.1491012692374
 31
0
  0
LINE
  8
1
 62
7
 10
879.5275109978234
 20
747.7991012692374
 30
0
 11
879.5275109978234
 21
746.4991012692375
 31
0
  0
LINE
  8
1
 62
7
 10
872.5275109978234
 20
744.4491012692372
 30
0
 11
872.5275109978234
 21
743.1491012692374
 31
0
  0
LINE
  8
1
 62
7
 10
874.8525109978235
 20
751.1491012692374
 30
0
 11
879.5275109978234
 21
751.1491012692374
 31
0
  0
LINE
  8
1
 62
7
 10
905.6252562989455
 20
716.6491012692374
 30
0
 11
894.0880800018215
 21
716.6491012692374
 31
0
  0
LINE
  8
1
 62
7
 10
837.5638007259927
 20
736.1286012692373
 30
0
 11
833.5341845221839
 21
733.8021012692374
 31
0
  0
LINE
  8
1
 62
7
 10
837.5638007259927
 20
731.4756012692375
 30
0
 11
837.5638007259927
 21
736.1286012692373
 31
0
  0
LINE
  8
1
 62
7
 10
825.4749521145657
 20
729.1491012692374
 30
0
 11
829.5045683183744
 21
726.8226012692375
 31
0
  0
LINE
  8
1
 62
7
 10
829.5045683183744
 20
731.4756012692375
 30
0
 11
825.4749521145657
 21
729.1491012692374
 31
0
  0
LINE
  8
1
 62
7
 10
829.5045683183744
 20
736.1286012692373
 30
0
 11
829.5045683183744
 21
731.4756012692375
 31
0
  0
LINE
  8
1
 62
7
 10
833.5341845221839
 20
733.8021012692374
 30
0
 11
829.5045683183744
 21
736.1286012692373
 31
0
  0
LINE
  8
1
 62
7
 10
822.5408580465443
 20
729.1491012692374
 30
0
 11
828.0375212843637
 21
725.9756012692375
 31
0
  0
LINE
  8
1
 62
7
 10
828.0375212843637
 20
732.3226012692375
 30
0
 11
822.5408580465443
 21
729.1491012692374
 31
0
  0
LINE
  8
1
 62
7
 10
828.0375212843637
 20
738.6696012692374
 30
0
 11
828.0375212843637
 21
732.3226012692375
 31
0
  0
LINE
  8
1
 62
7
 10
833.5341845221839
 20
735.4961012692373
 30
0
 11
828.0375212843637
 21
738.6696012692374
 31
0
  0
LINE
  8
1
 62
7
 10
832.7201845221837
 20
729.9631012692374
 30
0
 11
832.7201845221837
 21
733.1751012692374
 31
0
  0
LINE
  8
1
 62
7
 10
829.5081845221835
 20
729.9631012692374
 30
0
 11
832.7201845221837
 21
729.9631012692374
 31
0
  0
LINE
  8
1
 62
7
 10
829.5081845221835
 20
728.3351012692373
 30
0
 11
829.5081845221835
 21
729.9631012692374
 31
0
  0
LINE
  8
1
 62
7
 10
832.7201845221837
 20
728.3351012692373
 30
0
 11
829.5081845221835
 21
728.3351012692373
 31
0
  0
LINE
  8
1
 62
7
 10
837.5601845221836
 20
728.3351012692373
 30
0
 11
834.3481845221836
 21
728.3351012692373
 31
0
  0
LINE
  8
1
 62
7
 10
837.5601845221836
 20
729.9631012692374
 30
0
 11
837.5601845221836
 21
728.3351012692373
 31
0
  0
LINE
  8
1
 62
7
 10
834.3481845221836
 20
729.9631012692374
 30
0
 11
837.5601845221836
 21
729.9631012692374
 31
0
  0
LINE
  8
1
 62
7
 10
834.3481845221836
 20
733.1751012692374
 30
0
 11
834.3481845221836
 21
729.9631012692374
 31
0
  0
LINE
  8
1
 62
7
 10
832.7201845221837
 20
733.1751012692374
 30
0
 11
834.3481845221836
 21
733.1751012692374
 31
0
  0
LINE
  8
1
 62
7
 10
825.1625942667861
 20
764.1491012692374
 30
0
 11
832.2812021002092
 21
754.3290122775037
 31
0
  0
LINE
  8
1
 62
7
 10
830.672697445149
 20
753.481058474128
 30
0
 11
819.8449918186066
 21
757.5133730208421
 31
0
  0
LINE
  8
1
 62
7
 10
819.8449918186066
 20
757.5133730208421
 30
0
 11
825.5094117516101
 21
749.6993300042462
 31
0
  0
LINE
  8
1
 62
7
 10
824.2138473402229
 20
748.4196764761661
 30
0
 11
817.0863329154868
 21
758.2520520724376
 31
0
  0
LINE
  8
1
 62
7
 10
818.4311404096452
 20
759.4637749789191
 30
0
 11
828.9647214339481
 21
755.8372040602061
 31
0
  0
LINE
  8
1
 62
7
 10
828.9647214339481
 20
755.8372040602061
 30
0
 11
823.6000078836635
 21
763.2378034065561
 31
0
  0
LINE
  8
1
 62
7
 10
812.5473512994877
 20
744.0010693794621
 30
0
 11
814.5151351007694
 21
742.8697897728779
 31
0
  0
LINE
  8
1
 62
7
 10
817.4283473333874
 20
748.577239234795
 30
0
 11
815.7153875826807
 21
749.5620204041549
 31
0
  0
LINE
  8
1
 62
7
 10
813.1150975238739
 20
741.5965204760479
 30
0
 11
811.5311579290433
 21
742.5090197502658
 31
0
  0
LINE
  8
1
 62
7
 10
818.0984397184623
 20
750.2682624434627
 30
0
 11
816.4348822712527
 21
751.2246422109878
 31
0
  0
LINE
  8
1
 62
7
 10
811.5760031967616
 20
717.3499092821327
 30
0
 11
808.0932290308803
 21
712.6403125301844
 31
0
  0
LINE
  8
1
 62
7
 10
805.9277962391813
 20
718.662489389974
 30
0
 11
811.5760031967616
 21
717.3499092821327
 31
0
  0
LINE
  8
1
 62
7
 10
816.9066277922536
 20
724.5684075029618
 30
0
 11
805.4937428399261
 21
720.4171548298755
 31
0
  0
LINE
  8
1
 62
7
 10
827.0230895996051
 20
702.0045799656874
 30
0
 11
826.0186387629016
 21
708.1390644155969
 31
0
  0
LINE
  8
1
 62
7
 10
825.5506327095118
 20
701.714374307826
 30
0
 11
817.0863329154868
 21
700.0461504660372
 31
0
  0
LINE
  8
1
 62
7
 10
824.2138473402229
 20
709.8785260623087
 30
0
 11
825.5506327095118
 21
701.714374307826
 31
0
  0
LINE
  8
1
 62
7
 10
828.9023541731586
 20
702.3749631093521
 30
0
 11
830.672697445149
 21
704.8171440643467
 31
0
  0
LINE
  8
1
 62
7
 10
827.6093505574395
 20
700.5912701640294
 30
0
 11
818.4804391946905
 21
698.79205842112
 31
0
  0
LINE
  8
1
 62
7
 10
823.6000078836635
 20
695.0603991319189
 30
0
 11
827.6093505574395
 21
700.5912701640294
 31
0
  0
LINE
  8
1
 62
7
 10
828.9023541731586
 20
702.3749631093521
 30
0
 11
827.0230895996051
 21
702.0045799656874
 31
0
  0
LINE
  8
1
 62
7
 10
811.1544461621052
 20
713.7525415886022
 30
0
 11
819.4191064098977
 21
716.7564030048098
 31
0
  0
LINE
  8
1
 62
7
 10
814.6525823749585
 20
718.482911736434
 30
0
 11
811.1544461621052
 21
713.7525415886022
 31
0
  0
LINE
  8
1
 62
7
 10
809.0292030046162
 20
719.7897221907589
 30
0
 11
814.6525823749585
 21
718.482911736434
 31
0
  0
LINE
  8
1
 62
7
 10
817.2611164194614
 20
722.7816814906006
 30
0
 11
809.0292030046162
 21
719.7897221907589
 31
0
  0
LINE
  8
1
 62
7
 10
825.1625942667861
 20
694.1491012692374
 30
0
 11
832.2812021002092
 21
703.969190260971
 31
0
  0
LINE
  8
1
 62
7
 10
808.8779443448017
 20
711.0071339973542
 30
0
 11
820.2758342640572
 21
715.152932469212
 31
0
  0
LINE
  8
1
 62
7
 10
821.7029276102782
 20
712.9306428596048
 30
0
 11
812.1459787631534
 21
705.666418923836
 31
0
  0
LINE
  8
1
 62
7
 10
813.235218253794
 20
704.233395081735
 30
0
 11
822.7921671009182
 21
711.4976190175036
 31
0
  0
LINE
  8
1
 62
7
 10
841.5934169298016
 20
729.1491012692374
 30
0
 11
837.5638007259927
 21
731.4756012692375
 31
0
  0
LINE
  8
1
 62
7
 10
837.5638007259927
 20
726.8226012692375
 30
0
 11
841.5934169298016
 21
729.1491012692374
 31
0
  0
LINE
  8
1
 62
7
 10
837.5638007259927
 20
722.1696012692374
 30
0
 11
837.5638007259927
 21
726.8226012692375
 31
0
  0
LINE
  8
1
 62
7
 10
833.5341845221839
 20
724.4961012692373
 30
0
 11
837.5638007259927
 21
722.1696012692374
 31
0
  0
LINE
  8
1
 62
7
 10
829.5045683183744
 20
722.1696012692374
 30
0
 11
833.5341845221839
 21
724.4961012692373
 31
0
  0
LINE
  8
1
 62
7
 10
829.5045683183744
 20
726.8226012692375
 30
0
 11
829.5045683183744
 21
722.1696012692374
 31
0
  0
LINE
  8
1
 62
7
 10
839.0308477600033
 20
738.6696012692374
 30
0
 11
833.5341845221839
 21
735.4961012692373
 31
0
  0
LINE
  8
1
 62
7
 10
839.0308477600033
 20
732.3226012692375
 30
0
 11
839.0308477600033
 21
738.6696012692374
 31
0
  0
LINE
  8
1
 62
7
 10
844.5275109978234
 20
729.1491012692374
 30
0
 11
839.0308477600033
 21
732.3226012692375
 31
0
  0
LINE
  8
1
 62
7
 10
839.0308477600033
 20
725.9756012692375
 30
0
 11
844.5275109978234
 21
729.1491012692374
 31
0
  0
LINE
  8
1
 62
7
 10
839.0308477600033
 20
719.6286012692373
 30
0
 11
839.0308477600033
 21
725.9756012692375
 31
0
  0
LINE
  8
1
 62
7
 10
833.5341845221839
 20
722.8021012692374
 30
0
 11
839.0308477600033
 21
719.6286012692373
 31
0
  0
LINE
  8
1
 62
7
 10
828.0375212843637
 20
719.6286012692373
 30
0
 11
833.5341845221839
 21
722.8021012692374
 31
0
  0
LINE
  8
1
 62
7
 10
828.0375212843637
 20
725.9756012692375
 30
0
 11
828.0375212843637
 21
719.6286012692373
 31
0
  0
LINE
  8
1
 62
7
 10
832.7201845221837
 20
725.1231012692373
 30
0
 11
832.7201845221837
 21
728.3351012692373
 31
0
  0
LINE
  8
1
 62
7
 10
834.3481845221836
 20
725.1231012692373
 30
0
 11
832.7201845221837
 21
725.1231012692373
 31
0
  0
LINE
  8
1
 62
7
 10
834.3481845221836
 20
728.3351012692373
 30
0
 11
834.3481845221836
 21
725.1231012692373
 31
0
  0
LINE
  8
1
 62
7
 10
808.3185230709244
 20
735.2014390936869
 30
0
 11
812.9086571502576
 21
731.6998939718779
 31
0
  0
LINE
  8
1
 62
7
 10
817.0528639938473
 20
734.5475984681722
 30
0
 11
808.3185230709244
 21
735.2014390936869
 31
0
  0
LINE
  8
1
 62
7
 10
809.638224525233
 20
731.9307715289064
 30
0
 11
804.528182923787
 21
729.0676452152437
 31
0
  0
LINE
  8
1
 62
7
 10
805.0278247041124
 20
735.4477762011487
 30
0
 11
809.638224525233
 21
731.9307715289064
 31
0
  0
LINE
  8
1
 62
7
 10
804.572590219094
 20
727.2589108926205
 30
0
 11
816.6675871014004
 21
726.3534962314672
 31
0
  0
LINE
  8
1
 62
7
 10
807.7760758447228
 20
728.8241387943207
 30
0
 11
816.545162274394
 21
728.1676971684482
 31
0
  0
LINE
  8
1
 62
7
 10
812.9086571502576
 20
731.6998939718779
 30
0
 11
807.7760758447228
 21
728.8241387943207
 31
0
  0
LINE
  8
1
 62
7
 10
817.4635689990278
 20
736.3218900466758
 30
0
 11
805.353439214799
 21
737.2284375358405
 31
0
  0
LINE
  8
1
 62
7
 10
874.5275109978234
 20
728.3491012692375
 30
0
 11
872.5275109978234
 21
728.3491012692375
 31
0
  0
LINE
  8
1
 62
7
 10
874.5275109978234
 20
730.1491012692374
 30
0
 11
872.5275109978234
 21
730.1491012692374
 31
0
  0
LINE
  8
1
 62
7
 10
875.5275109978234
 20
708.9491012692373
 30
0
 11
875.5275109978234
 21
707.1491012692374
 31
0
  0
LINE
  8
1
 62
7
 10
873.3275109978233
 20
707.1491012692374
 30
0
 11
873.3275109978233
 21
713.1491012692374
 31
0
  0
LINE
  8
1
 62
7
 10
867.5275109978234
 20
707.1491012692374
 30
0
 11
873.3275109978233
 21
707.1491012692374
 31
0
  0
LINE
  8
1
 62
7
 10
867.5275109978234
 20
716.1491012692374
 30
0
 11
867.5275109978234
 21
707.1491012692374
 31
0
  0
LINE
  8
1
 62
7
 10
871.5275109978234
 20
708.9491012692373
 30
0
 11
871.5275109978234
 21
713.1491012692374
 31
0
  0
LINE
  8
1
 62
7
 10
869.3275109978233
 20
708.9491012692373
 30
0
 11
871.5275109978234
 21
708.9491012692373
 31
0
  0
LINE
  8
1
 62
7
 10
869.3275109978233
 20
716.1491012692374
 30
0
 11
869.3275109978233
 21
708.9491012692373
 31
0
  0
LINE
  8
1
 62
7
 10
867.5275109978234
 20
716.1491012692374
 30
0
 11
869.3275109978233
 21
716.1491012692374
 31
0
  0
LINE
  8
1
 62
7
 10
879.5275109978234
 20
711.1491012692374
 30
0
 11
879.5275109978234
 21
713.1491012692374
 31
0
  0
LINE
  8
1
 62
7
 10
877.7275109978234
 20
711.1491012692375
 30
0
 11
877.7275109978234
 21
713.1491012692374
 31
0
  0
LINE
  8
1
 62
7
 10
779.4021637594631
 20
689.451831174432
 30
0
 11
779.5275109978234
 21
690.2419501970072
 31
0
  0
LINE
  8
1
 62
7
 10
775.4021637594631
 20
690.0864051298937
 30
0
 11
779.4021637594631
 21
689.451831174432
 31
0
  0
LINE
  8
1
 62
7
 10
775.5275109978234
 20
690.8765241524692
 30
0
 11
775.4021637594631
 21
690.0864051298937
 31
0
  0
LINE
  8
1
 62
7
 10
773.4021637594631
 20
690.4036921076248
 30
0
 11
773.5275109978234
 21
691.1938111302001
 31
0
  0
LINE
  8
1
 62
7
 10
769.4021637594631
 20
691.0382660630866
 30
0
 11
773.4021637594631
 21
690.4036921076248
 31
0
  0
LINE
  8
1
 62
7
 10
769.5275109978234
 20
691.8283850856618
 30
0
 11
769.4021637594631
 21
691.0382660630866
 31
0
  0
LINE
  8
1
 62
7
 10
799.1116739980785
 20
687.1350502521369
 30
0
 11
745.9484927168085
 21
695.5690428097847
 31
0
  0
LINE
  8
1
 62
7
 10
745.9484927168085
 20
762.7291597286902
 30
0
 11
799.1116739980785
 21
771.163152286338
 31
0
  0
LINE
  8
1
 62
7
 10
729.5275109978234
 20
765.2621012692374
 30
0
 11
729.5275109978234
 21
693.0361012692375
 31
0
  0
LINE
  8
1
 62
7
 10
776.9958696166098
 20
730.6491012692374
 30
0
 11
781.5275109978234
 21
730.6491012692374
 31
0
  0
LINE
  8
1
 62
7
 10
923.9092603032118
 20
695.6724501776881
 30
0
 11
891.2849318473855
 21
688.7731742170694
 31
0
  0
LINE
  8
1
 62
7
 10
891.2849318473855
 20
769.5250283214053
 30
0
 11
923.9092603032118
 21
762.6257523607866
 31
0
  0
LINE
  8
1
 62
2
 10
706.5275109978234
 20
765.2621012692374
 30
0
 11
729.5275109978234
 21
765.2621012692374
 31
0
  0
LINE
  8
1
 62
7
 10
708.0065109978233
 20
766.7411012692375
 30
0
 11
706.5275109978234
 21
765.2621012692374
 31
0
  0
LINE
  8
1
 62
7
 10
728.0485109978233
 20
766.7411012692375
 30
0
 11
708.0065109978233
 21
766.7411012692375
 31
0
  0
LINE
  8
1
 62
7
 10
729.5275109978234
 20
765.2621012692374
 30
0
 11
728.0485109978233
 21
766.7411012692375
 31
0
  0
LINE
  8
1
 62
2
 10
729.5275109978234
 20
693.0361012692375
 30
0
 11
706.5275109978234
 21
693.0361012692375
 31
0
  0
LINE
  8
1
 62
7
 10
706.5275109978234
 20
693.0361012692375
 30
0
 11
708.0065109978233
 21
691.5571012692373
 31
0
  0
LINE
  8
1
 62
7
 10
708.0065109978233
 20
691.5571012692373
 30
0
 11
728.0485109978233
 21
691.5571012692373
 31
0
  0
LINE
  8
1
 62
7
 10
728.0485109978233
 20
691.5571012692373
 30
0
 11
729.5275109978234
 21
693.0361012692375
 31
0
  0
LINE
  8
1
 62
7
 10
706.5275109978234
 20
693.0361012692375
 30
0
 11
706.5275109978234
 21
765.2621012692374
 31
0
  0
LINE
  8
1
 62
2
 10
928.5275109978234
 20
765.2621012692374
 30
0
 11
951.5275109978234
 21
765.2621012692374
 31
0
  0
LINE
  8
1
 62
7
 10
951.5275109978234
 20
765.2621012692374
 30
0
 11
950.0485109978233
 21
766.7411012692375
 31
0
  0
LINE
  8
1
 62
7
 10
950.0485109978233
 20
766.7411012692375
 30
0
 11
930.0065109978232
 21
766.7411012692375
 31
0
  0
LINE
  8
1
 62
7
 10
930.0065109978232
 20
766.7411012692375
 30
0
 11
928.527510997814
 21
765.2621012692283
 31
0
  0
LINE
  8
1
 62
2
 10
951.5275109978234
 20
693.0361012692375
 30
0
 11
928.5275109978234
 21
693.0361012692375
 31
0
  0
LINE
  8
1
 62
7
 10
950.0485109978233
 20
691.5571012692373
 30
0
 11
951.5275109978234
 21
693.0361012692375
 31
0
  0
LINE
  8
1
 62
7
 10
930.0065109978232
 20
691.5571012692373
 30
0
 11
950.0485109978233
 21
691.5571012692373
 31
0
  0
LINE
  8
1
 62
7
 10
928.5275109978234
 20
693.0361012692375
 30
0
 11
930.0065109978232
 21
691.5571012692373
 31
0
  0
LINE
  8
1
 62
7
 10
951.5275109978234
 20
765.2621012692374
 30
0
 11
951.5275109978234
 21
693.0361012692375
 31
0
  0
LINE
  8
1
 62
7
 10
781.5017960759074
 20
689.9287427242044
 30
0
 11
781.3764488375473
 21
689.1386237016292
 31
0
  0
LINE
  8
1
 62
7
 10
781.3764488375473
 20
689.1386237016292
 30
0
 11
785.3764488375473
 21
688.5040497461674
 31
0
  0
LINE
  8
1
 62
7
 10
785.3764488375473
 20
688.5040497461674
 30
0
 11
785.5017960759074
 21
689.2941687687427
 31
0
  0
LINE
  8
1
 62
7
 10
928.527510997814
 20
765.2621012692283
 30
0
 11
928.5275109978234
 21
693.0361012692375
 31
0
  0
LINE
  8
1
 62
7
 10
781.5275109978234
 20
727.6491012692374
 30
0
 11
776.9958696166098
 21
727.6491012692374
 31
0
  0
LINE
  8
1
 62
2
  6
DASHDOT
 10
695.9322912411324
 20
513.7852200997137
 30
0
 11
954.928933065667
 21
513.7852200997137
 31
0
  0
LINE
  8
1
 62
2
  6
DASHDOT
 10
844.5275109978248
 20
614.518363747495
 30
0
 11
844.5275109978231
 21
452.704785108553
 31
0
  0
LINE
  8
1
 62
2
  6
DASHDOT
 10
783.8337433328422
 20
552.8061982139858
 30
0
 11
783.8337433328422
 21
548.9213397184348
 31
0
  0
LINE
  8
1
 62
2
  6
DASHDOT
 10
785.7964837178472
 20
550.7852200997139
 30
0
 11
781.9482748307451
 21
550.7852200997139
 31
0
  0
LINE
  8
1
 62
7
 10
903.9272422229517
 20
551.2001123674796
 30
0
 11
923.4660884264981
 21
546.4006930383272
 31
0
  0
LINE
  8
1
 62
7
 10
924.546276139137
 20
546.2852200997139
 30
0
 11
924.4202632057466
 21
546.2852200997139
 31
0
  0
LINE
  8
1
 62
7
 10
928.5275109978231
 20
549.8982200997137
 30
0
 11
928.5275109978209
 21
549.8982200997117
 31
0
  0
LINE
  8
1
 62
7
 10
830.5275109978234
 20
509.6030737012574
 30
0
 11
830.5275109978234
 21
512.2577595716037
 31
0
  0
LINE
  8
1
 62
7
 10
819.5275109978231
 20
520.7852200997137
 30
0
 11
819.5275109978236
 21
513.1622918842221
 31
0
  0
LINE
  8
1
 62
7
 10
829.8914020654145
 20
520.7852200997137
 30
0
 11
819.5275109978231
 21
520.7852200997137
 31
0
  0
LINE
  8
1
 62
7
 10
829.8914020654145
 20
520.7852200997137
 30
0
 11
829.8914020654145
 21
518.8661031799283
 31
0
  0
LINE
  8
1
 62
7
 10
821.2859462834206
 20
518.8661031799283
 30
0
 11
821.2859462834206
 21
515.0961195861008
 31
0
  0
LINE
  8
1
 62
7
 10
829.8914020654145
 20
518.8661031799283
 30
0
 11
821.2859462834206
 21
518.8661031799283
 31
0
  0
LINE
  8
1
 62
7
 10
819.5275109978236
 20
509.6030737012574
 30
0
 11
821.6431208192187
 21
509.6030737012574
 31
0
  0
LINE
  8
1
 62
7
 10
819.5275109978236
 20
513.1622918842221
 30
0
 11
822.0535400396491
 21
513.1622918840889
 31
0
  0
LINE
  8
1
 62
7
 10
828.6151874907137
 20
509.9835687898668
 30
0
 11
828.6151874907137
 21
511.9703490944022
 31
0
  0
LINE
  8
1
 62
7
 10
775.9958696166095
 20
547.7852200997139
 30
0
 11
780.2385103037288
 21
552.0278607868332
 31
0
  0
LINE
  8
1
 62
7
 10
894.7775109978231
 20
569.7852200997139
 30
0
 11
895.7775109978223
 21
570.7852200997131
 31
0
  0
LINE
  8
1
 62
2
 10
794.2775109978231
 20
569.7852200997139
 30
0
 11
794.2775109978231
 21
570.7852200997131
 31
0
  0
LINE
  8
1
 62
2
 10
928.5275109978231
 20
549.8982200997137
 30
0
 11
951.5275109978231
 21
549.8982200997137
 31
0
  0
LINE
  8
1
 62
7
 10
951.5275109978231
 20
549.8982200997137
 30
0
 11
950.0485109978231
 21
551.3772200997138
 31
0
  0
LINE
  8
1
 62
7
 10
950.0485109978231
 20
551.3772200997138
 30
0
 11
930.0065109978229
 21
551.3772200997138
 31
0
  0
LINE
  8
1
 62
7
 10
930.0065109978229
 20
551.3772200997138
 30
0
 11
928.5275109978231
 21
549.8982200997137
 31
0
  0
LINE
  8
1
 62
2
 10
951.5275109978231
 20
477.6722200997139
 30
0
 11
928.5275109978231
 21
477.6722200997139
 31
0
  0
LINE
  8
1
 62
7
 10
950.0485109978231
 20
476.1932200997138
 30
0
 11
951.5275109978231
 21
477.6722200997139
 31
0
  0
LINE
  8
1
 62
7
 10
930.0065109978229
 20
476.1932200997138
 30
0
 11
950.0485109978231
 21
476.1932200997138
 31
0
  0
LINE
  8
1
 62
7
 10
928.5275109978231
 20
477.6722200997139
 30
0
 11
930.0065109978229
 21
476.1932200997138
 31
0
  0
LINE
  8
1
 62
7
 10
951.5275109978231
 20
549.8982200997137
 30
0
 11
951.5275109978231
 21
477.6722200997139
 31
0
  0
LINE
  8
1
 62
7
 10
893.5275109978231
 20
567.3485215135116
 30
0
 11
893.5275109978231
 21
564.2836184568758
 31
0
  0
LINE
  8
1
 62
7
 10
903.353050371871
 20
481.2852200997139
 30
0
 11
924.5462761391393
 21
481.2852200997139
 31
0
  0
LINE
  8
1
 62
7
 10
882.0275109978231
 20
458.7852200997139
 30
0
 11
894.7842275003457
 21
471.6161883447313
 31
0
  0
LINE
  8
1
 62
7
 10
846.5275109978231
 20
458.7852200997139
 30
0
 11
846.5275109978231
 21
459.796345098188
 31
0
  0
LINE
  8
1
 62
7
 10
807.0275109978231
 20
458.7852200997139
 30
0
 11
882.0275109978231
 21
458.7852200997139
 31
0
  0
LINE
  8
1
 62
7
 10
842.5275109978231
 20
459.796345098188
 30
0
 11
842.5275109978231
 21
458.7852200997139
 31
0
  0
LINE
  8
1
 62
7
 10
795.5275109978231
 20
564.2836184568758
 30
0
 11
795.5275109978231
 21
567.3485215135116
 31
0
  0
LINE
  8
1
 62
2
 10
706.5275109978231
 20
549.8982200997137
 30
0
 11
729.5275109978231
 21
549.8982200997137
 31
0
  0
LINE
  8
1
 62
7
 10
708.0065109978231
 20
551.3772200997138
 30
0
 11
706.5275109978231
 21
549.8982200997137
 31
0
  0
LINE
  8
1
 62
7
 10
729.5275109978231
 20
549.8982200997137
 30
0
 11
728.0485109978231
 21
551.3772200997138
 31
0
  0
LINE
  8
1
 62
2
 10
729.5275109978231
 20
477.6722200997139
 30
0
 11
706.5275109978231
 21
477.6722200997139
 31
0
  0
LINE
  8
1
 62
7
 10
706.5275109978231
 20
477.6722200997139
 30
0
 11
708.0065109978231
 21
476.1932200997138
 31
0
  0
LINE
  8
1
 62
7
 10
708.0065109978231
 20
476.1932200997138
 30
0
 11
728.0485109978231
 21
476.1932200997138
 31
0
  0
LINE
  8
1
 62
7
 10
728.0485109978231
 20
476.1932200997138
 30
0
 11
729.5275109978231
 21
477.6722200997139
 31
0
  0
LINE
  8
1
 62
7
 10
706.5275109978231
 20
477.6722200997139
 30
0
 11
706.5275109978231
 21
549.8982200997137
 31
0
  0
LINE
  8
1
 62
7
 10
788.3902422013257
 20
553.7852200997139
 30
0
 11
784.4811509908479
 21
553.7852200997139
 31
0
  0
LINE
  8
1
 62
7
 10
782.4100831789826
 20
547.7852200997139
 30
0
 11
751.9989162074792
 21
547.7852200997139
 31
0
  0
LINE
  8
1
 62
7
 10
729.5275109978231
 20
549.8982200997137
 30
0
 11
729.5275109978231
 21
545.1049286656161
 31
0
  0
LINE
  8
1
 62
7
 10
807.0275109978231
 20
458.7852200997139
 30
0
 11
802.8983572156121
 21
462.9384080339181
 31
0
  0
LINE
  8
1
 62
7
 10
729.5275109978231
 20
477.6722200997139
 30
0
 11
729.5275109978231
 21
545.1049286656161
 31
0
  0
LINE
  8
1
 62
7
 10
733.5275109978231
 20
484.7852200997139
 30
0
 11
734.3573009951817
 21
484.7852200997139
 31
0
  0
LINE
  8
1
 62
7
 10
860.5275109978234
 20
528.7852200997137
 30
0
 11
850.5275109978234
 21
531.7852200997135
 31
0
  0
LINE
  8
1
 62
7
 10
850.5275109978234
 20
531.7852200997135
 30
0
 11
850.5275109978234
 21
529.7852200997137
 31
0
  0
LINE
  8
1
 62
7
 10
850.5275109978234
 20
529.7852200997137
 30
0
 11
828.5275109978234
 21
529.7852200997137
 31
0
  0
LINE
  8
1
 62
7
 10
828.5275109978234
 20
529.7852200997137
 30
0
 11
828.5275109978234
 21
527.7852200997135
 31
0
  0
LINE
  8
1
 62
7
 10
828.5275109978234
 20
527.7852200997135
 30
0
 11
850.5275109978234
 21
527.7852200997135
 31
0
  0
LINE
  8
1
 62
7
 10
850.5275109978234
 20
527.7852200997135
 30
0
 11
850.5275109978234
 21
525.7852200997137
 31
0
  0
LINE
  8
1
 62
7
 10
850.5275109978234
 20
525.7852200997137
 30
0
 11
860.5275109978234
 21
528.7852200997137
 31
0
  0
LINE
  8
1
 62
2
  6
DIVIDE
 10
859.5275109978234
 20
505.7852200997137
 30
0
 11
859.5275109978234
 21
515.7852200997137
 31
0
  0
LINE
  8
1
 62
7
 10
728.0485109978231
 20
551.3772200997138
 30
0
 11
708.0065109978231
 21
551.3772200997138
 31
0
  0
LINE
  8
1
 62
7
 10
928.5275109978209
 20
549.8982200996926
 30
0
 11
928.5275109978209
 21
477.6722200997384
 31
0
  0
LINE
  8
1
 62
7
 10
838.3200109978234
 20
507.6602200997137
 30
0
 11
839.7178234978233
 21
507.6602200997137
 31
0
  0
LINE
  8
1
 62
7
 10
839.7178234978233
 20
507.6602200997137
 30
0
 11
840.5165734978234
 21
508.0352200997137
 31
0
  0
LINE
  8
1
 62
7
 10
840.5165734978234
 20
508.0352200997137
 30
0
 11
841.3153234978233
 21
508.5977200997137
 31
0
  0
LINE
  8
1
 62
7
 10
841.3153234978233
 20
508.5977200997137
 30
0
 11
841.7146984978233
 21
509.1602200997137
 31
0
  0
LINE
  8
1
 62
7
 10
841.7146984978233
 20
509.1602200997137
 30
0
 11
842.1140734978233
 21
510.0977200997137
 31
0
  0
LINE
  8
1
 62
7
 10
842.1140734978233
 20
510.0977200997137
 30
0
 11
842.3137609978235
 21
512.1602200997137
 31
0
  0
LINE
  8
1
 62
7
 10
842.3137609978235
 20
512.1602200997137
 30
0
 11
842.3137609978235
 21
514.4102200997137
 31
0
  0
LINE
  8
1
 62
7
 10
842.3137609978235
 20
514.4102200997137
 30
0
 11
842.1140734978233
 21
516.4727200997137
 31
0
  0
LINE
  8
1
 62
7
 10
842.1140734978233
 20
516.4727200997137
 30
0
 11
841.7146984978233
 21
517.4102200997137
 31
0
  0
LINE
  8
1
 62
7
 10
841.7146984978233
 20
517.4102200997137
 30
0
 11
841.3153234978233
 21
517.9727200997137
 31
0
  0
LINE
  8
1
 62
7
 10
841.3153234978233
 20
517.9727200997137
 30
0
 11
840.5165734978234
 21
518.5352200997137
 31
0
  0
LINE
  8
1
 62
7
 10
840.5165734978234
 20
518.5352200997137
 30
0
 11
839.7178234978233
 21
518.9102200997137
 31
0
  0
LINE
  8
1
 62
7
 10
839.7178234978233
 20
518.9102200997137
 30
0
 11
838.3200109978234
 21
518.9102200997137
 31
0
  0
LINE
  8
1
 62
7
 10
838.3200109978234
 20
518.9102200997137
 30
0
 11
837.5212609978235
 21
518.5352200997137
 31
0
  0
LINE
  8
1
 62
7
 10
837.5212609978235
 20
518.5352200997137
 30
0
 11
836.7225109978233
 21
517.9727200997137
 31
0
  0
LINE
  8
1
 62
7
 10
836.7225109978233
 20
517.9727200997137
 30
0
 11
836.3231359978233
 21
517.4102200997137
 31
0
  0
LINE
  8
1
 62
7
 10
836.3231359978233
 20
517.4102200997137
 30
0
 11
835.9237609978234
 21
516.4727200997137
 31
0
  0
LINE
  8
1
 62
7
 10
835.9237609978234
 20
516.4727200997137
 30
0
 11
835.7240734978234
 21
514.4102200997137
 31
0
  0
LINE
  8
1
 62
7
 10
835.7240734978234
 20
514.4102200997137
 30
0
 11
835.7240734978234
 21
512.1602200997137
 31
0
  0
LINE
  8
1
 62
7
 10
835.7240734978234
 20
512.1602200997137
 30
0
 11
835.9237609978234
 21
510.0977200997137
 31
0
  0
LINE
  8
1
 62
7
 10
835.9237609978234
 20
510.0977200997137
 30
0
 11
836.3231359978233
 21
509.1602200997137
 31
0
  0
LINE
  8
1
 62
7
 10
836.3231359978233
 20
509.1602200997137
 30
0
 11
836.7225109978233
 21
508.5977200997137
 31
0
  0
LINE
  8
1
 62
7
 10
836.7225109978233
 20
508.5977200997137
 30
0
 11
837.5212609978235
 21
508.0352200997137
 31
0
  0
LINE
  8
1
 62
7
 10
837.5212609978235
 20
508.0352200997137
 30
0
 11
838.3200109978234
 21
507.6602200997137
 31
0
  0
LINE
  8
1
 62
7
 10
842.1140734978233
 20
506.7227200997137
 30
0
 11
842.7131359978234
 21
507.2852200997137
 31
0
  0
LINE
  8
1
 62
7
 10
842.7131359978234
 20
507.2852200997137
 30
0
 11
843.3121984978234
 21
508.0352200997137
 31
0
  0
LINE
  8
1
 62
7
 10
843.3121984978234
 20
508.0352200997137
 30
0
 11
843.7115734978233
 21
508.7852200997137
 31
0
  0
LINE
  8
1
 62
7
 10
843.7115734978233
 20
508.7852200997137
 30
0
 11
844.1109484978233
 21
509.7227200997137
 31
0
  0
LINE
  8
1
 62
7
 10
844.1109484978233
 20
509.7227200997137
 30
0
 11
844.3106359978233
 21
510.8477200997137
 31
0
  0
LINE
  8
1
 62
7
 10
844.3106359978233
 20
510.8477200997137
 30
0
 11
844.5103234978233
 21
512.5352200997137
 31
0
  0
LINE
  8
1
 62
7
 10
844.5103234978233
 20
512.5352200997137
 30
0
 11
844.5103234978233
 21
514.0352200997137
 31
0
  0
LINE
  8
1
 62
7
 10
844.5103234978233
 20
514.0352200997137
 30
0
 11
844.3106359978233
 21
515.7227200997137
 31
0
  0
LINE
  8
1
 62
7
 10
844.3106359978233
 20
515.7227200997137
 30
0
 11
844.1109484978233
 21
516.8477200997137
 31
0
  0
LINE
  8
1
 62
7
 10
844.1109484978233
 20
516.8477200997137
 30
0
 11
843.7115734978233
 21
517.7852200997137
 31
0
  0
LINE
  8
1
 62
7
 10
843.7115734978233
 20
517.7852200997137
 30
0
 11
843.3121984978234
 21
518.5352200997137
 31
0
  0
LINE
  8
1
 62
7
 10
843.3121984978234
 20
518.5352200997137
 30
0
 11
842.7131359978234
 21
519.2852200997137
 31
0
  0
LINE
  8
1
 62
7
 10
842.7131359978234
 20
519.2852200997137
 30
0
 11
842.1140734978233
 21
519.8477200997137
 31
0
  0
LINE
  8
1
 62
7
 10
842.1140734978233
 20
519.8477200997137
 30
0
 11
841.5150109978233
 21
520.2227200997137
 31
0
  0
LINE
  8
1
 62
7
 10
841.5150109978233
 20
520.2227200997137
 30
0
 11
840.5165734978234
 21
520.5977200997137
 31
0
  0
LINE
  8
1
 62
7
 10
840.5165734978234
 20
520.5977200997137
 30
0
 11
839.7178234978233
 21
520.7852200997137
 31
0
  0
LINE
  8
1
 62
7
 10
839.7178234978233
 20
520.7852200997137
 30
0
 11
838.3200109978234
 21
520.7852200997137
 31
0
  0
LINE
  8
1
 62
7
 10
838.3200109978234
 20
520.7852200997137
 30
0
 11
837.5212609978235
 21
520.5977200997137
 31
0
  0
LINE
  8
1
 62
7
 10
837.5212609978235
 20
520.5977200997137
 30
0
 11
836.5228234978233
 21
520.2227200997137
 31
0
  0
LINE
  8
1
 62
7
 10
836.5228234978233
 20
520.2227200997137
 30
0
 11
835.9237609978234
 21
519.8477200997137
 31
0
  0
LINE
  8
1
 62
7
 10
835.9237609978234
 20
519.8477200997137
 30
0
 11
835.3246984978234
 21
519.2852200997137
 31
0
  0
LINE
  8
1
 62
7
 10
835.3246984978234
 20
519.2852200997137
 30
0
 11
834.7256359978233
 21
518.5352200997137
 31
0
  0
LINE
  8
1
 62
7
 10
834.7256359978233
 20
518.5352200997137
 30
0
 11
834.3262609978233
 21
517.7852200997137
 31
0
  0
LINE
  8
1
 62
7
 10
834.3262609978233
 20
517.7852200997137
 30
0
 11
833.9268859978233
 21
516.8477200997137
 31
0
  0
LINE
  8
1
 62
7
 10
833.9268859978233
 20
516.8477200997137
 30
0
 11
833.7271984978233
 21
515.7227200997137
 31
0
  0
LINE
  8
1
 62
7
 10
833.7271984978233
 20
515.7227200997137
 30
0
 11
833.5275109978234
 21
514.0352200997137
 31
0
  0
LINE
  8
1
 62
7
 10
833.5275109978234
 20
514.0352200997137
 30
0
 11
833.5275109978234
 21
512.5352200997137
 31
0
  0
LINE
  8
1
 62
7
 10
833.5275109978234
 20
512.5352200997137
 30
0
 11
833.7271984978233
 21
510.8477200997137
 31
0
  0
LINE
  8
1
 62
7
 10
833.7271984978233
 20
510.8477200997137
 30
0
 11
833.9268859978233
 21
509.7227200997137
 31
0
  0
LINE
  8
1
 62
7
 10
833.9268859978233
 20
509.7227200997137
 30
0
 11
834.3262609978233
 21
508.7852200997137
 31
0
  0
LINE
  8
1
 62
7
 10
834.3262609978233
 20
508.7852200997137
 30
0
 11
834.7256359978233
 21
508.0352200997137
 31
0
  0
LINE
  8
1
 62
7
 10
834.7256359978233
 20
508.0352200997137
 30
0
 11
835.3246984978234
 21
507.2852200997137
 31
0
  0
LINE
  8
1
 62
7
 10
835.3246984978234
 20
507.2852200997137
 30
0
 11
835.9237609978234
 21
506.7227200997137
 31
0
  0
LINE
  8
1
 62
7
 10
835.9237609978234
 20
506.7227200997137
 30
0
 11
836.5228234978233
 21
506.3477200997137
 31
0
  0
LINE
  8
1
 62
7
 10
836.5228234978233
 20
506.3477200997137
 30
0
 11
837.5212609978235
 21
505.9727200997137
 31
0
  0
LINE
  8
1
 62
7
 10
837.5212609978235
 20
505.9727200997137
 30
0
 11
838.3200109978234
 21
505.7852200997137
 31
0
  0
LINE
  8
1
 62
7
 10
838.3200109978234
 20
505.7852200997137
 30
0
 11
839.7178234978233
 21
505.7852200997137
 31
0
  0
LINE
  8
1
 62
7
 10
839.7178234978233
 20
505.7852200997137
 30
0
 11
840.5165734978234
 21
505.9727200997137
 31
0
  0
LINE
  8
1
 62
7
 10
840.5165734978234
 20
505.9727200997137
 30
0
 11
841.5150109978233
 21
506.3477200997137
 31
0
  0
LINE
  8
1
 62
7
 10
841.5150109978233
 20
506.3477200997137
 30
0
 11
842.1140734978233
 21
506.7227200997137
 31
0
  0
LINE
  8
1
 62
7
 10
853.1903109978234
 20
514.8602200997137
 30
0
 11
852.8042109978233
 21
514.0352200997137
 31
0
  0
LINE
  8
1
 62
7
 10
852.8042109978233
 20
514.0352200997137
 30
0
 11
852.2894109978233
 21
514.6952200997138
 31
0
  0
LINE
  8
1
 62
7
 10
852.2894109978233
 20
514.6952200997138
 30
0
 11
851.5172109978234
 21
515.3552200997136
 31
0
  0
LINE
  8
1
 62
7
 10
851.5172109978234
 20
515.3552200997136
 30
0
 11
850.6163109978234
 21
515.6852200997138
 31
0
  0
LINE
  8
1
 62
7
 10
850.6163109978234
 20
515.6852200997138
 30
0
 11
850.1015109978234
 21
515.6852200997138
 31
0
  0
LINE
  8
1
 62
7
 10
850.1015109978234
 20
515.6852200997138
 30
0
 11
849.3293109978233
 21
515.3552200997136
 31
0
  0
LINE
  8
1
 62
7
 10
849.3293109978233
 20
515.3552200997136
 30
0
 11
848.9432109978234
 21
514.6952200997138
 31
0
  0
LINE
  8
1
 62
7
 10
848.9432109978234
 20
514.6952200997138
 30
0
 11
848.9432109978234
 21
515.5202200997136
 31
0
  0
LINE
  8
1
 62
7
 10
848.9432109978234
 20
515.5202200997136
 30
0
 11
847.5275109978234
 21
515.5202200997136
 31
0
  0
LINE
  8
1
 62
7
 10
847.5275109978234
 20
515.5202200997136
 30
0
 11
847.5275109978234
 21
505.7852200997137
 31
0
  0
LINE
  8
1
 62
7
 10
847.5275109978234
 20
505.7852200997137
 30
0
 11
848.9432109978234
 21
505.7852200997137
 31
0
  0
LINE
  8
1
 62
7
 10
848.9432109978234
 20
505.7852200997137
 30
0
 11
848.9432109978234
 21
512.5502200997138
 31
0
  0
LINE
  8
1
 62
7
 10
848.9432109978234
 20
512.5502200997138
 30
0
 11
849.2006109978233
 21
513.3752200997136
 31
0
  0
LINE
  8
1
 62
7
 10
849.2006109978233
 20
513.3752200997136
 30
0
 11
849.7154109978233
 21
513.8702200997137
 31
0
  0
LINE
  8
1
 62
7
 10
849.7154109978233
 20
513.8702200997137
 30
0
 11
850.2302109978234
 21
514.0352200997137
 31
0
  0
LINE
  8
1
 62
7
 10
850.2302109978234
 20
514.0352200997137
 30
0
 11
850.8737109978233
 21
513.8702200997137
 31
0
  0
LINE
  8
1
 62
7
 10
850.8737109978233
 20
513.8702200997137
 30
0
 11
851.2598109978233
 21
513.3752200997136
 31
0
  0
LINE
  8
1
 62
7
 10
851.2598109978233
 20
513.3752200997136
 30
0
 11
851.6459109978234
 21
512.5502200997138
 31
0
  0
LINE
  8
1
 62
7
 10
851.6459109978234
 20
512.5502200997138
 30
0
 11
851.7746109978234
 21
511.8902200997137
 31
0
  0
LINE
  8
1
 62
7
 10
851.7746109978234
 20
511.8902200997137
 30
0
 11
851.7746109978234
 21
505.7852200997137
 31
0
  0
LINE
  8
1
 62
7
 10
851.7746109978234
 20
505.7852200997137
 30
0
 11
853.1903109978234
 21
505.7852200997137
 31
0
  0
LINE
  8
1
 62
7
 10
853.1903109978234
 20
505.7852200997137
 30
0
 11
853.1903109978234
 21
512.5502200997138
 31
0
  0
LINE
  8
1
 62
7
 10
853.1903109978234
 20
512.5502200997138
 30
0
 11
853.4477109978234
 21
513.3752200997136
 31
0
  0
LINE
  8
1
 62
7
 10
853.4477109978234
 20
513.3752200997136
 30
0
 11
853.9625109978233
 21
513.8702200997137
 31
0
  0
LINE
  8
1
 62
7
 10
853.9625109978233
 20
513.8702200997137
 30
0
 11
854.4773109978235
 21
514.0352200997137
 31
0
  0
LINE
  8
1
 62
7
 10
854.4773109978235
 20
514.0352200997137
 30
0
 11
855.1208109978234
 21
513.8702200997137
 31
0
  0
LINE
  8
1
 62
7
 10
855.1208109978234
 20
513.8702200997137
 30
0
 11
855.5069109978233
 21
513.3752200997136
 31
0
  0
LINE
  8
1
 62
7
 10
855.5069109978233
 20
513.3752200997136
 30
0
 11
855.8930109978235
 21
512.5502200997138
 31
0
  0
LINE
  8
1
 62
7
 10
855.8930109978235
 20
512.5502200997138
 30
0
 11
856.0217109978235
 21
511.8902200997137
 31
0
  0
LINE
  8
1
 62
7
 10
856.0217109978235
 20
511.8902200997137
 30
0
 11
856.0217109978235
 21
505.7852200997137
 31
0
  0
LINE
  8
1
 62
7
 10
856.0217109978235
 20
505.7852200997137
 30
0
 11
857.4374109978235
 21
505.7852200997137
 31
0
  0
LINE
  8
1
 62
7
 10
857.4374109978235
 20
505.7852200997137
 30
0
 11
857.4374109978235
 21
511.7252200997137
 31
0
  0
LINE
  8
1
 62
7
 10
857.4374109978235
 20
511.7252200997137
 30
0
 11
857.3087109978233
 21
513.0452200997137
 31
0
  0
LINE
  8
1
 62
7
 10
857.3087109978233
 20
513.0452200997137
 30
0
 11
856.9226109978233
 21
514.0352200997137
 31
0
  0
LINE
  8
1
 62
7
 10
856.9226109978233
 20
514.0352200997137
 30
0
 11
856.5365109978234
 21
514.6952200997138
 31
0
  0
LINE
  8
1
 62
7
 10
856.5365109978234
 20
514.6952200997138
 30
0
 11
855.7643109978233
 21
515.3552200997136
 31
0
  0
LINE
  8
1
 62
7
 10
855.7643109978233
 20
515.3552200997136
 30
0
 11
854.8634109978234
 21
515.6852200997138
 31
0
  0
LINE
  8
1
 62
7
 10
854.8634109978234
 20
515.6852200997138
 30
0
 11
854.3486109978232
 21
515.6852200997138
 31
0
  0
LINE
  8
1
 62
7
 10
854.3486109978232
 20
515.6852200997138
 30
0
 11
853.7051109978233
 21
515.3552200997136
 31
0
  0
LINE
  8
1
 62
7
 10
853.7051109978233
 20
515.3552200997136
 30
0
 11
853.1903109978234
 21
514.8602200997137
 31
0
  0
LINE
  8
1
 62
7
 10
865.1903109978234
 20
514.8602200997137
 30
0
 11
864.8042109978233
 21
514.0352200997137
 31
0
  0
LINE
  8
1
 62
7
 10
864.8042109978233
 20
514.0352200997137
 30
0
 11
864.2894109978233
 21
514.6952200997138
 31
0
  0
LINE
  8
1
 62
7
 10
864.2894109978233
 20
514.6952200997138
 30
0
 11
863.5172109978234
 21
515.3552200997136
 31
0
  0
LINE
  8
1
 62
7
 10
863.5172109978234
 20
515.3552200997136
 30
0
 11
862.6163109978234
 21
515.6852200997138
 31
0
  0
LINE
  8
1
 62
7
 10
862.6163109978234
 20
515.6852200997138
 30
0
 11
862.1015109978234
 21
515.6852200997138
 31
0
  0
LINE
  8
1
 62
7
 10
862.1015109978234
 20
515.6852200997138
 30
0
 11
861.3293109978233
 21
515.3552200997136
 31
0
  0
LINE
  8
1
 62
7
 10
861.3293109978233
 20
515.3552200997136
 30
0
 11
860.9432109978234
 21
514.6952200997138
 31
0
  0
LINE
  8
1
 62
7
 10
860.9432109978234
 20
514.6952200997138
 30
0
 11
860.9432109978234
 21
515.5202200997136
 31
0
  0
LINE
  8
1
 62
7
 10
860.9432109978234
 20
515.5202200997136
 30
0
 11
859.5275109978234
 21
515.5202200997136
 31
0
  0
LINE
  8
1
 62
7
 10
859.5275109978234
 20
515.5202200997136
 30
0
 11
859.5275109978234
 21
505.7852200997137
 31
0
  0
LINE
  8
1
 62
7
 10
859.5275109978234
 20
505.7852200997137
 30
0
 11
860.9432109978234
 21
505.7852200997137
 31
0
  0
LINE
  8
1
 62
7
 10
860.9432109978234
 20
505.7852200997137
 30
0
 11
860.9432109978234
 21
512.5502200997138
 31
0
  0
LINE
  8
1
 62
7
 10
860.9432109978234
 20
512.5502200997138
 30
0
 11
861.2006109978233
 21
513.3752200997136
 31
0
  0
LINE
  8
1
 62
7
 10
861.2006109978233
 20
513.3752200997136
 30
0
 11
861.7154109978233
 21
513.8702200997137
 31
0
  0
LINE
  8
1
 62
7
 10
861.7154109978233
 20
513.8702200997137
 30
0
 11
862.2302109978234
 21
514.0352200997137
 31
0
  0
LINE
  8
1
 62
7
 10
862.2302109978234
 20
514.0352200997137
 30
0
 11
862.8737109978233
 21
513.8702200997137
 31
0
  0
LINE
  8
1
 62
7
 10
862.8737109978233
 20
513.8702200997137
 30
0
 11
863.2598109978233
 21
513.3752200997136
 31
0
  0
LINE
  8
1
 62
7
 10
863.2598109978233
 20
513.3752200997136
 30
0
 11
863.6459109978234
 21
512.5502200997138
 31
0
  0
LINE
  8
1
 62
7
 10
863.6459109978234
 20
512.5502200997138
 30
0
 11
863.7746109978234
 21
511.8902200997137
 31
0
  0
LINE
  8
1
 62
7
 10
863.7746109978234
 20
511.8902200997137
 30
0
 11
863.7746109978234
 21
505.7852200997137
 31
0
  0
LINE
  8
1
 62
7
 10
863.7746109978234
 20
505.7852200997137
 30
0
 11
865.1903109978234
 21
505.7852200997137
 31
0
  0
LINE
  8
1
 62
7
 10
865.1903109978234
 20
505.7852200997137
 30
0
 11
865.1903109978234
 21
512.5502200997138
 31
0
  0
LINE
  8
1
 62
7
 10
865.1903109978234
 20
512.5502200997138
 30
0
 11
865.4477109978234
 21
513.3752200997136
 31
0
  0
LINE
  8
1
 62
7
 10
865.4477109978234
 20
513.3752200997136
 30
0
 11
865.9625109978233
 21
513.8702200997137
 31
0
  0
LINE
  8
1
 62
7
 10
865.9625109978233
 20
513.8702200997137
 30
0
 11
866.4773109978235
 21
514.0352200997137
 31
0
  0
LINE
  8
1
 62
7
 10
866.4773109978235
 20
514.0352200997137
 30
0
 11
867.1208109978234
 21
513.8702200997137
 31
0
  0
LINE
  8
1
 62
7
 10
867.1208109978234
 20
513.8702200997137
 30
0
 11
867.5069109978233
 21
513.3752200997136
 31
0
  0
LINE
  8
1
 62
7
 10
867.5069109978233
 20
513.3752200997136
 30
0
 11
867.8930109978235
 21
512.5502200997138
 31
0
  0
LINE
  8
1
 62
7
 10
867.8930109978235
 20
512.5502200997138
 30
0
 11
868.0217109978235
 21
511.8902200997137
 31
0
  0
LINE
  8
1
 62
7
 10
868.0217109978235
 20
511.8902200997137
 30
0
 11
868.0217109978235
 21
505.7852200997137
 31
0
  0
LINE
  8
1
 62
7
 10
868.0217109978235
 20
505.7852200997137
 30
0
 11
869.4374109978235
 21
505.7852200997137
 31
0
  0
LINE
  8
1
 62
7
 10
869.4374109978235
 20
505.7852200997137
 30
0
 11
869.4374109978235
 21
511.7252200997137
 31
0
  0
LINE
  8
1
 62
7
 10
869.4374109978235
 20
511.7252200997137
 30
0
 11
869.3087109978233
 21
513.0452200997137
 31
0
  0
LINE
  8
1
 62
7
 10
869.3087109978233
 20
513.0452200997137
 30
0
 11
868.9226109978233
 21
514.0352200997137
 31
0
  0
LINE
  8
1
 62
7
 10
868.9226109978233
 20
514.0352200997137
 30
0
 11
868.5365109978234
 21
514.6952200997138
 31
0
  0
LINE
  8
1
 62
7
 10
868.5365109978234
 20
514.6952200997138
 30
0
 11
867.7643109978233
 21
515.3552200997136
 31
0
  0
LINE
  8
1
 62
7
 10
867.7643109978233
 20
515.3552200997136
 30
0
 11
866.8634109978234
 21
515.6852200997138
 31
0
  0
LINE
  8
1
 62
7
 10
866.8634109978234
 20
515.6852200997138
 30
0
 11
866.3486109978232
 21
515.6852200997138
 31
0
  0
LINE
  8
1
 62
7
 10
866.3486109978232
 20
515.6852200997138
 30
0
 11
865.7051109978233
 21
515.3552200997136
 31
0
  0
LINE
  8
1
 62
7
 10
865.7051109978233
 20
515.3552200997136
 30
0
 11
865.1903109978234
 21
514.8602200997137
 31
0
  0
LINE
  8
1
 62
2
 10
894.7775109978231
 20
570.7852200997131
 30
0
 11
894.7775109978231
 21
569.7852200997139
 31
0
  0
LINE
  8
1
 62
7
 10
793.2775109978239
 20
570.7852200997131
 30
0
 11
794.2775109978231
 21
569.7852200997139
 31
0
  0
LINE
  8
1
 62
7
 10
894.7775109978231
 20
569.7852200997139
 30
0
 11
794.2775109978231
 21
569.7852200997139
 31
0
  0
LINE
  8
1
 62
2
 10
754.0772592707663
 20
784.693794904871
 30
0
 11
754.0772592707663
 21
786.381294904871
 31
0
  0
LINE
  8
1
 62
2
 10
699.743925937433
 20
784.693794904871
 30
0
 11
699.9105926040998
 21
784.131294904871
 31
0
  0
LINE
  8
1
 62
2
 10
699.9105926040998
 20
784.131294904871
 30
0
 11
700.0772592707663
 21
783.756294904871
 31
0
  0
LINE
  8
1
 62
2
 10
700.0772592707663
 20
783.756294904871
 30
0
 11
700.5772592707663
 21
784.318794904871
 31
0
  0
LINE
  8
1
 62
2
 10
701.243925937433
 20
783.568794904871
 30
0
 11
701.9105926040998
 21
783.568794904871
 31
0
  0
LINE
  8
1
 62
2
 10
701.9105926040998
 20
783.568794904871
 30
0
 11
702.243925937433
 21
783.943794904871
 31
0
  0
LINE
  8
1
 62
2
 10
702.243925937433
 20
783.943794904871
 30
0
 11
702.0772592707663
 21
784.693794904871
 31
0
  0
LINE
  8
1
 62
2
 10
702.0772592707663
 20
784.693794904871
 30
0
 11
701.4105926040998
 21
785.631294904871
 31
0
  0
LINE
  8
1
 62
2
 10
701.4105926040998
 20
785.631294904871
 30
0
 11
701.5772592707663
 21
786.193794904871
 31
0
  0
LINE
  8
1
 62
2
 10
701.5772592707663
 20
786.193794904871
 30
0
 11
702.243925937433
 21
786.568794904871
 31
0
  0
LINE
  8
1
 62
2
 10
702.243925937433
 20
786.568794904871
 30
0
 11
702.0772592707663
 21
787.131294904871
 31
0
  0
LINE
  8
1
 62
2
 10
702.0772592707663
 20
787.131294904871
 30
0
 11
701.5772592707663
 21
787.693794904871
 31
0
  0
LINE
  8
1
 62
2
 10
703.243925937433
 20
784.881294904871
 30
0
 11
703.743925937433
 21
784.318794904871
 31
0
  0
LINE
  8
1
 62
2
 10
703.743925937433
 20
784.318794904871
 30
0
 11
704.0772592707663
 21
783.756294904871
 31
0
  0
LINE
  8
1
 62
2
 10
706.243925937433
 20
783.381294904871
 30
0
 11
706.743925937433
 21
785.443794904871
 31
0
  0
LINE
  8
1
 62
2
 10
706.743925937433
 20
785.443794904871
 30
0
 11
707.0772592707663
 21
787.881294904871
 31
0
  0
LINE
  8
1
 62
2
 10
708.243925937433
 20
787.318794904871
 30
0
 11
707.0772592707663
 21
786.943794904871
 31
0
  0
LINE
  8
1
 62
2
 10
707.0772592707663
 20
786.943794904871
 30
0
 11
705.9105926040998
 21
786.756294904871
 31
0
  0
LINE
  8
1
 62
2
 10
708.4105926040998
 20
786.568794904871
 30
0
 11
708.9105926040998
 21
786.568794904871
 31
0
  0
LINE
  8
1
 62
2
 10
708.9105926040998
 20
786.568794904871
 30
0
 11
709.5772592707663
 21
786.381294904871
 31
0
  0
LINE
  8
1
 62
2
 10
707.9105926040998
 20
784.131294904871
 30
0
 11
708.243925937433
 21
783.756294904871
 31
0
  0
LINE
  8
1
 62
2
 10
708.243925937433
 20
783.756294904871
 30
0
 11
709.0772592707663
 21
783.568794904871
 31
0
  0
LINE
  8
1
 62
2
 10
709.0772592707663
 20
783.568794904871
 30
0
 11
709.9105926040998
 21
783.756294904871
 31
0
  0
LINE
  8
1
 62
2
 10
713.9105926040998
 20
787.506294904871
 30
0
 11
713.4105926040998
 21
785.631294904871
 31
0
  0
LINE
  8
1
 62
2
 10
713.4105926040998
 20
785.631294904871
 30
0
 11
712.5772592707663
 21
783.756294904871
 31
0
  0
LINE
  8
1
 62
2
 10
712.5772592707663
 20
783.756294904871
 30
0
 11
711.9105926040998
 21
784.131294904871
 31
0
  0
LINE
  8
1
 62
2
 10
711.9105926040998
 20
784.131294904871
 30
0
 11
711.743925937433
 21
785.068794904871
 31
0
  0
LINE
  8
1
 62
2
 10
711.743925937433
 20
785.068794904871
 30
0
 11
711.9105926040998
 21
786.193794904871
 31
0
  0
LINE
  8
1
 62
2
 10
711.9105926040998
 20
786.193794904871
 30
0
 11
712.5772592707663
 21
787.131294904871
 31
0
  0
LINE
  8
1
 62
2
 10
712.5772592707663
 20
787.131294904871
 30
0
 11
713.5772592707663
 21
787.506294904871
 31
0
  0
LINE
  8
1
 62
2
 10
714.5772592707663
 20
787.506294904871
 30
0
 11
715.243925937433
 21
787.131294904871
 31
0
  0
LINE
  8
1
 62
2
 10
715.243925937433
 20
787.131294904871
 30
0
 11
715.743925937433
 21
786.381294904871
 31
0
  0
LINE
  8
1
 62
2
 10
715.743925937433
 20
786.381294904871
 30
0
 11
715.743925937433
 21
785.068794904871
 31
0
  0
LINE
  8
1
 62
2
 10
715.743925937433
 20
785.068794904871
 30
0
 11
715.243925937433
 21
784.131294904871
 31
0
  0
LINE
  8
1
 62
2
 10
715.243925937433
 20
784.131294904871
 30
0
 11
714.4105926040998
 21
783.381294904871
 31
0
  0
LINE
  8
1
 62
2
 10
713.5772592707663
 20
787.506294904871
 30
0
 11
714.5772592707663
 21
787.506294904871
 31
0
  0
LINE
  8
1
 62
2
 10
717.5772592707663
 20
783.006294904871
 30
0
 11
717.5772592707663
 21
787.506294904871
 31
0
  0
LINE
  8
1
 62
2
 10
721.9105926040998
 20
787.506294904871
 30
0
 11
721.9105926040998
 21
783.006294904871
 31
0
  0
LINE
  8
1
 62
2
 10
721.9105926040998
 20
783.006294904871
 30
0
 11
721.0772592707663
 21
783.006294904871
 31
0
  0
LINE
  8
1
 62
2
 10
719.0772592707663
 20
784.693794904871
 30
0
 11
719.0772592707663
 21
786.193794904871
 31
0
  0
LINE
  8
1
 62
2
 10
719.0772592707663
 20
786.193794904871
 30
0
 11
720.4105926040998
 21
786.193794904871
 31
0
  0
LINE
  8
1
 62
2
 10
720.4105926040998
 20
786.193794904871
 30
0
 11
720.4105926040998
 21
784.693794904871
 31
0
  0
LINE
  8
1
 62
2
 10
720.4105926040998
 20
784.693794904871
 30
0
 11
719.0772592707663
 21
784.693794904871
 31
0
  0
LINE
  8
1
 62
2
 10
718.4105926040998
 20
787.506294904871
 30
0
 11
719.243925937433
 21
788.631294904871
 31
0
  0
LINE
  8
1
 62
2
 10
717.5772592707663
 20
787.506294904871
 30
0
 11
721.9105926040998
 21
787.506294904871
 31
0
  0
LINE
  8
1
 62
2
 10
724.5772592707663
 20
786.006294904871
 30
0
 11
726.0772592707663
 21
786.381294904871
 31
0
  0
LINE
  8
1
 62
2
 10
726.0772592707663
 20
786.381294904871
 30
0
 11
727.243925937433
 21
786.943794904871
 31
0
  0
LINE
  8
1
 62
2
 10
726.4105926040998
 20
787.881294904871
 30
0
 11
725.743925937433
 21
787.506294904871
 31
0
  0
LINE
  8
1
 62
2
 10
725.743925937433
 20
787.506294904871
 30
0
 11
724.5772592707663
 21
787.131294904871
 31
0
  0
LINE
  8
1
 62
2
 10
725.0772592707663
 20
788.443794904871
 30
0
 11
725.9105926040998
 21
787.131294904871
 31
0
  0
LINE
  8
1
 62
2
 10
725.9105926040998
 20
787.131294904871
 30
0
 11
727.0772592707663
 21
784.881294904871
 31
0
  0
LINE
  8
1
 62
2
 10
727.0772592707663
 20
784.881294904871
 30
0
 11
726.4105926040998
 21
785.068794904871
 31
0
  0
LINE
  8
1
 62
2
 10
726.4105926040998
 20
785.068794904871
 30
0
 11
725.743925937433
 21
785.068794904871
 31
0
  0
LINE
  8
1
 62
2
 10
725.743925937433
 20
785.068794904871
 30
0
 11
725.0772592707663
 21
784.693794904871
 31
0
  0
LINE
  8
1
 62
2
 10
725.0772592707663
 20
784.693794904871
 30
0
 11
724.743925937433
 21
783.943794904871
 31
0
  0
LINE
  8
1
 62
2
 10
724.743925937433
 20
783.943794904871
 30
0
 11
725.4105926040998
 21
783.381294904871
 31
0
  0
LINE
  8
1
 62
2
 10
725.4105926040998
 20
783.381294904871
 30
0
 11
726.5772592707663
 21
783.193794904871
 31
0
  0
LINE
  8
1
 62
2
 10
730.243925937433
 20
783.381294904871
 30
0
 11
730.0772592707663
 21
784.693794904871
 31
0
  0
LINE
  8
1
 62
2
 10
730.0772592707663
 20
784.693794904871
 30
0
 11
730.0772592707663
 21
786.381294904871
 31
0
  0
LINE
  8
1
 62
2
 10
730.0772592707663
 20
786.381294904871
 30
0
 11
730.4105926040998
 21
788.068794904871
 31
0
  0
LINE
  8
1
 62
2
 10
731.4105926040998
 20
786.756294904871
 30
0
 11
732.9105926040998
 21
786.943794904871
 31
0
  0
LINE
  8
1
 62
2
 10
732.9105926040998
 20
786.943794904871
 30
0
 11
733.743925937433
 21
787.131294904871
 31
0
  0
LINE
  8
1
 62
2
 10
732.743925937433
 20
788.068794904871
 30
0
 11
732.9105926040998
 21
784.693794904871
 31
0
  0
LINE
  8
1
 62
2
 10
732.9105926040998
 20
784.693794904871
 30
0
 11
732.743925937433
 21
783.943794904871
 31
0
  0
LINE
  8
1
 62
2
 10
732.743925937433
 20
783.943794904871
 30
0
 11
732.4105926040998
 21
783.568794904871
 31
0
  0
LINE
  8
1
 62
2
 10
732.4105926040998
 20
783.568794904871
 30
0
 11
731.743925937433
 21
783.381294904871
 31
0
  0
LINE
  8
1
 62
2
 10
731.743925937433
 20
783.381294904871
 30
0
 11
731.243925937433
 21
783.756294904871
 31
0
  0
LINE
  8
1
 62
2
 10
731.243925937433
 20
783.756294904871
 30
0
 11
731.243925937433
 21
784.131294904871
 31
0
  0
LINE
  8
1
 62
2
 10
731.243925937433
 20
784.131294904871
 30
0
 11
732.0772592707663
 21
784.318794904871
 31
0
  0
LINE
  8
1
 62
2
 10
732.0772592707663
 20
784.318794904871
 30
0
 11
732.9105926040998
 21
784.131294904871
 31
0
  0
LINE
  8
1
 62
2
 10
732.9105926040998
 20
784.131294904871
 30
0
 11
733.743925937433
 21
783.568794904871
 31
0
  0
LINE
  8
1
 62
2
 10
735.243925937433
 20
786.193794904871
 30
0
 11
740.243925937433
 21
786.193794904871
 31
0
  0
LINE
  8
1
 62
2
 10
741.4105926040998
 20
783.006294904871
 30
0
 11
741.743925937433
 21
783.381294904871
 31
0
  0
LINE
  8
1
 62
2
 10
741.743925937433
 20
783.381294904871
 30
0
 11
742.243925937433
 21
784.131294904871
 31
0
  0
LINE
  8
1
 62
2
 10
742.243925937433
 20
784.131294904871
 30
0
 11
742.9105926040998
 21
785.256294904871
 31
0
  0
LINE
  8
1
 62
2
 10
742.4105926040998
 20
784.318794904871
 30
0
 11
742.743925937433
 21
783.756294904871
 31
0
  0
LINE
  8
1
 62
2
 10
742.743925937433
 20
783.756294904871
 30
0
 11
743.243925937433
 21
783.381294904871
 31
0
  0
LINE
  8
1
 62
2
 10
743.243925937433
 20
783.381294904871
 30
0
 11
744.0772592707663
 21
783.006294904871
 31
0
  0
LINE
  8
1
 62
2
 10
744.0772592707663
 20
783.006294904871
 30
0
 11
746.243925937433
 21
783.006294904871
 31
0
  0
LINE
  8
1
 62
2
 10
745.4105926040998
 20
785.068794904871
 30
0
 11
743.743925937433
 21
785.068794904871
 31
0
  0
LINE
  8
1
 62
2
 10
741.5772592707663
 20
787.131294904871
 30
0
 11
741.5772592707663
 21
788.068794904871
 31
0
  0
LINE
  8
1
 62
2
 10
745.9105926040998
 20
788.068794904871
 30
0
 11
745.9105926040998
 21
787.131294904871
 31
0
  0
LINE
  8
1
 62
2
 10
743.743925937433
 20
788.068794904871
 30
0
 11
743.743925937433
 21
788.631294904871
 31
0
  0
LINE
  8
1
 62
2
 10
741.5772592707663
 20
788.068794904871
 30
0
 11
745.9105926040998
 21
788.068794904871
 31
0
  0
LINE
  8
1
 62
2
 10
745.243925937433
 20
786.568794904871
 30
0
 11
742.243925937433
 21
786.568794904871
 31
0
  0
LINE
  8
1
 62
2
 10
743.743925937433
 20
783.193794904871
 30
0
 11
743.743925937433
 21
786.568794904871
 31
0
  0
LINE
  8
1
 62
2
 10
747.243925937433
 20
786.381294904871
 30
0
 11
748.9105926040998
 21
787.131294904871
 31
0
  0
LINE
  8
1
 62
2
 10
748.9105926040998
 20
787.131294904871
 30
0
 11
751.0772592707663
 21
787.506294904871
 31
0
  0
LINE
  8
1
 62
2
 10
751.9105926040998
 20
787.506294904871
 30
0
 11
751.4105926040998
 21
788.068794904871
 31
0
  0
LINE
  8
1
 62
2
 10
751.743925937433
 20
788.443794904871
 30
0
 11
752.243925937433
 21
787.881294904871
 31
0
  0
LINE
  8
1
 62
2
 10
750.243925937433
 20
787.318794904871
 30
0
 11
749.5772592707663
 21
786.943794904871
 31
0
  0
LINE
  8
1
 62
2
 10
749.5772592707663
 20
786.943794904871
 30
0
 11
749.0772592707663
 21
786.193794904871
 31
0
  0
LINE
  8
1
 62
2
 10
749.0772592707663
 20
786.193794904871
 30
0
 11
748.743925937433
 21
785.256294904871
 31
0
  0
LINE
  8
1
 62
2
 10
748.743925937433
 20
785.256294904871
 30
0
 11
748.743925937433
 21
784.693794904871
 31
0
  0
LINE
  8
1
 62
2
 10
748.743925937433
 20
784.693794904871
 30
0
 11
748.9105926040998
 21
783.943794904871
 31
0
  0
LINE
  8
1
 62
2
 10
748.9105926040998
 20
783.943794904871
 30
0
 11
749.4105926040998
 21
783.381294904871
 31
0
  0
LINE
  8
1
 62
2
 10
749.4105926040998
 20
783.381294904871
 30
0
 11
750.243925937433
 21
783.006294904871
 31
0
  0
LINE
  8
1
 62
2
 10
754.243925937433
 20
783.381294904871
 30
0
 11
754.0772592707663
 21
784.693794904871
 31
0
  0
LINE
  8
1
 62
2
 10
754.0772592707663
 20
786.381294904871
 30
0
 11
754.4105926040998
 21
788.068794904871
 31
0
  0
LINE
  8
1
 62
2
 10
755.4105926040998
 20
786.756294904871
 30
0
 11
756.9105926040998
 21
786.943794904871
 31
0
  0
LINE
  8
1
 62
2
 10
756.9105926040998
 20
786.943794904871
 30
0
 11
757.743925937433
 21
787.131294904871
 31
0
  0
LINE
  8
1
 62
2
 10
756.743925937433
 20
788.068794904871
 30
0
 11
756.9105926040998
 21
784.693794904871
 31
0
  0
LINE
  8
1
 62
2
 10
756.9105926040998
 20
784.693794904871
 30
0
 11
756.743925937433
 21
783.943794904871
 31
0
  0
LINE
  8
1
 62
2
 10
756.743925937433
 20
783.943794904871
 30
0
 11
756.4105926040998
 21
783.568794904871
 31
0
  0
LINE
  8
1
 62
2
 10
756.4105926040998
 20
783.568794904871
 30
0
 11
755.743925937433
 21
783.381294904871
 31
0
  0
LINE
  8
1
 62
2
 10
755.743925937433
 20
783.381294904871
 30
0
 11
755.243925937433
 21
783.756294904871
 31
0
  0
LINE
  8
1
 62
2
 10
755.243925937433
 20
783.756294904871
 30
0
 11
755.243925937433
 21
784.131294904871
 31
0
  0
LINE
  8
1
 62
2
 10
755.243925937433
 20
784.131294904871
 30
0
 11
756.0772592707663
 21
784.318794904871
 31
0
  0
LINE
  8
1
 62
2
 10
756.0772592707663
 20
784.318794904871
 30
0
 11
756.9105926040998
 21
784.131294904871
 31
0
  0
LINE
  8
1
 62
2
 10
756.9105926040998
 20
784.131294904871
 30
0
 11
757.743925937433
 21
783.568794904871
 31
0
  0
LINE
  8
1
 62
2
 10
761.5772592707663
 20
784.131294904871
 30
0
 11
761.4105926040998
 21
785.256294904871
 31
0
  0
LINE
  8
1
 62
2
 10
761.4105926040998
 20
785.256294904871
 30
0
 11
761.743925937433
 21
788.256294904871
 31
0
  0
LINE
  8
1
 62
2
 10
760.4105926040998
 20
787.318794904871
 30
0
 11
761.9105926040998
 21
787.318794904871
 31
0
  0
LINE
  8
1
 62
2
 10
761.9105926040998
 20
787.318794904871
 30
0
 11
762.9105926040998
 21
787.506294904871
 31
0
  0
LINE
  8
1
 62
2
 10
762.5772592707663
 20
786.943794904871
 30
0
 11
761.743925937433
 21
785.068794904871
 31
0
  0
LINE
  8
1
 62
2
 10
761.743925937433
 20
785.068794904871
 30
0
 11
760.243925937433
 21
783.943794904871
 31
0
  0
LINE
  8
1
 62
2
 10
760.243925937433
 20
783.943794904871
 30
0
 11
759.9105926040998
 21
784.318794904871
 31
0
  0
LINE
  8
1
 62
2
 10
759.9105926040998
 20
784.318794904871
 30
0
 11
760.243925937433
 21
785.068794904871
 31
0
  0
LINE
  8
1
 62
2
 10
760.243925937433
 20
785.068794904871
 30
0
 11
761.0772592707663
 21
785.818794904871
 31
0
  0
LINE
  8
1
 62
2
 10
761.0772592707663
 20
785.818794904871
 30
0
 11
762.4105926040998
 21
786.193794904871
 31
0
  0
LINE
  8
1
 62
2
 10
762.4105926040998
 20
786.193794904871
 30
0
 11
763.243925937433
 21
785.818794904871
 31
0
  0
LINE
  8
1
 62
2
 10
763.243925937433
 20
785.818794904871
 30
0
 11
763.5772592707663
 21
785.256294904871
 31
0
  0
LINE
  8
1
 62
2
 10
763.5772592707663
 20
785.256294904871
 30
0
 11
763.5772592707663
 21
784.318794904871
 31
0
  0
LINE
  8
1
 62
2
 10
763.5772592707663
 20
784.318794904871
 30
0
 11
762.9105926040998
 21
783.568794904871
 31
0
  0
LINE
  8
1
 62
2
 10
762.9105926040998
 20
783.568794904871
 30
0
 11
762.0772592707663
 21
783.193794904871
 31
0
  0
LINE
  8
1
 62
2
 10
767.0772592707663
 20
784.881294904871
 30
0
 11
766.9105926040998
 21
785.631294904871
 31
0
  0
LINE
  8
1
 62
2
 10
766.9105926040998
 20
787.131294904871
 30
0
 11
767.0772592707663
 21
788.256294904871
 31
0
  0
LINE
  8
1
 62
2
 10
766.9105926040998
 20
786.756294904871
 30
0
 11
767.243925937433
 21
787.506294904871
 31
0
  0
LINE
  8
1
 62
2
 10
767.243925937433
 20
787.506294904871
 30
0
 11
767.9105926040998
 21
788.068794904871
 31
0
  0
LINE
  8
1
 62
2
 10
767.9105926040998
 20
788.068794904871
 30
0
 11
768.4105926040998
 21
788.068794904871
 31
0
  0
LINE
  8
1
 62
2
 10
768.4105926040998
 20
788.068794904871
 30
0
 11
768.743925937433
 21
787.506294904871
 31
0
  0
LINE
  8
1
 62
2
 10
768.743925937433
 20
787.506294904871
 30
0
 11
768.9105926040998
 21
786.381294904871
 31
0
  0
LINE
  8
1
 62
2
 10
768.9105926040998
 20
786.381294904871
 30
0
 11
768.9105926040998
 21
785.443794904871
 31
0
  0
LINE
  8
1
 62
2
 10
768.9105926040998
 20
785.443794904871
 30
0
 11
768.5772592707663
 21
784.131294904871
 31
0
  0
LINE
  8
1
 62
2
 10
768.5772592707663
 20
784.131294904871
 30
0
 11
767.743925937433
 21
783.193794904871
 31
0
  0
LINE
  8
1
 62
2
 10
766.9105926040998
 20
785.631294904871
 30
0
 11
766.9105926040998
 21
787.131294904871
 31
0
  0
LINE
  8
1
 62
2
 10
772.243925937433
 20
786.006294904871
 30
0
 11
773.743925937433
 21
786.006294904871
 31
0
  0
LINE
  8
1
 62
2
 10
773.743925937433
 20
786.006294904871
 30
0
 11
775.0772592707663
 21
786.381294904871
 31
0
  0
LINE
  8
1
 62
2
 10
774.9105926040998
 20
787.506294904871
 30
0
 11
773.743925937433
 21
787.318794904871
 31
0
  0
LINE
  8
1
 62
2
 10
773.743925937433
 20
787.318794904871
 30
0
 11
772.743925937433
 21
787.318794904871
 31
0
  0
LINE
  8
1
 62
2
 10
773.9105926040998
 20
788.443794904871
 30
0
 11
773.9105926040998
 21
786.943794904871
 31
0
  0
LINE
  8
1
 62
2
 10
773.9105926040998
 20
786.943794904871
 30
0
 11
774.0772592707663
 21
784.318794904871
 31
0
  0
LINE
  8
1
 62
2
 10
774.0772592707663
 20
784.318794904871
 30
0
 11
773.743925937433
 21
783.568794904871
 31
0
  0
LINE
  8
1
 62
2
 10
773.743925937433
 20
783.568794904871
 30
0
 11
773.0772592707663
 21
783.193794904871
 31
0
  0
LINE
  8
1
 62
2
 10
773.0772592707663
 20
783.193794904871
 30
0
 11
772.4105926040998
 21
783.381294904871
 31
0
  0
LINE
  8
1
 62
2
 10
772.4105926040998
 20
783.381294904871
 30
0
 11
772.243925937433
 21
783.756294904871
 31
0
  0
LINE
  8
1
 62
2
 10
772.243925937433
 20
783.756294904871
 30
0
 11
772.5772592707663
 21
784.131294904871
 31
0
  0
LINE
  8
1
 62
2
 10
772.5772592707663
 20
784.131294904871
 30
0
 11
773.4105926040998
 21
784.318794904871
 31
0
  0
LINE
  8
1
 62
2
 10
773.4105926040998
 20
784.318794904871
 30
0
 11
774.243925937433
 21
783.943794904871
 31
0
  0
LINE
  8
1
 62
2
 10
774.243925937433
 20
783.943794904871
 30
0
 11
774.9105926040998
 21
783.381294904871
 31
0
  0
LINE
  8
1
 62
2
 10
777.4105926040998
 20
785.818794904871
 30
0
 11
779.4105926040998
 21
786.381294904871
 31
0
  0
LINE
  8
1
 62
2
 10
779.4105926040998
 20
786.381294904871
 30
0
 11
781.0772592707663
 21
786.568794904871
 31
0
  0
LINE
  8
1
 62
2
 10
781.0772592707663
 20
786.568794904871
 30
0
 11
782.0772592707663
 21
786.568794904871
 31
0
  0
LINE
  8
1
 62
2
 10
780.4105926040998
 20
784.881294904871
 30
0
 11
780.5772592707663
 21
786.193794904871
 31
0
  0
LINE
  8
1
 62
2
 10
780.5772592707663
 20
786.193794904871
 30
0
 11
780.5772592707663
 21
788.068794904871
 31
0
  0
LINE
  8
1
 62
2
 10
778.743925937433
 20
787.506294904871
 30
0
 11
778.743925937433
 21
785.256294904871
 31
0
  0
LINE
  8
1
 62
2
 10
778.743925937433
 20
785.256294904871
 30
0
 11
779.0772592707663
 21
783.756294904871
 31
0
  0
LINE
  8
1
 62
2
 10
779.0772592707663
 20
783.756294904871
 30
0
 11
779.9105926040998
 21
783.568794904871
 31
0
  0
LINE
  8
1
 62
2
 10
779.9105926040998
 20
783.568794904871
 30
0
 11
781.243925937433
 21
783.568794904871
 31
0
  0
LINE
  8
1
 62
2
 10
783.5772592707663
 20
783.381294904871
 30
0
 11
784.243925937433
 21
785.068794904871
 31
0
  0
LINE
  8
1
 62
2
 10
784.243925937433
 20
785.068794904871
 30
0
 11
785.243925937433
 21
786.943794904871
 31
0
  0
LINE
  8
1
 62
2
 10
785.243925937433
 20
786.943794904871
 30
0
 11
785.9105926040998
 21
788.068794904871
 31
0
  0
LINE
  8
1
 62
2
 10
784.0772592707663
 20
784.693794904871
 30
0
 11
784.5772592707663
 21
785.443794904871
 31
0
  0
LINE
  8
1
 62
2
 10
784.5772592707663
 20
785.443794904871
 30
0
 11
785.243925937433
 21
786.006294904871
 31
0
  0
LINE
  8
1
 62
2
 10
785.243925937433
 20
786.006294904871
 30
0
 11
785.9105926040998
 21
786.006294904871
 31
0
  0
LINE
  8
1
 62
2
 10
785.9105926040998
 20
786.006294904871
 30
0
 11
786.243925937433
 21
785.256294904871
 31
0
  0
LINE
  8
1
 62
2
 10
786.243925937433
 20
785.256294904871
 30
0
 11
786.243925937433
 21
783.943794904871
 31
0
  0
LINE
  8
1
 62
2
 10
786.243925937433
 20
783.943794904871
 30
0
 11
786.4105926040998
 21
783.381294904871
 31
0
  0
LINE
  8
1
 62
2
 10
786.4105926040998
 20
783.381294904871
 30
0
 11
787.0772592707663
 21
783.381294904871
 31
0
  0
LINE
  8
1
 62
2
 10
787.0772592707663
 20
783.381294904871
 30
0
 11
787.743925937433
 21
784.318794904871
 31
0
  0
ARC
  8
1
 62
7
 10
753.0275109978236
 20
600.2852200997131
 30
0
 40
37.49999999999996
 50
319.4641978886835
 51
341.2030949649715
  0
ARC
  8
1
 62
7
 10
844.5275109978234
 20
729.1491012692374
 30
0
 40
56.00000000000001
 50
275.1225160997811
 51
347.1021060708499
  0
ARC
  8
1
 62
7
 10
850.5275109978236
 20
673.4714576409372
 30
0
 40
1.000000000000102
 50
96.15063982795539
 51
180
  0
ARC
  8
1
 62
7
 10
838.5275109978234
 20
673.4714576409372
 30
0
 40
1
 50
0
 51
83.84936017205109
  0
ARC
  8
1
 62
7
 10
753.0275109978236
 20
600.2852200997131
 30
0
 40
37.49999999999992
 50
346.8995495249392
 51
358.4719314053893
  0
ARC
  8
1
 62
7
 10
844.5275109978234
 20
729.1491012692374
 30
0
 40
56.00000000000021
 50
95.12251609978065
 51
169.713439388525
  0
ARC
  8
1
 62
7
 10
850.5275109978236
 20
784.8267448975378
 30
0
 40
1.000000000000227
 50
180
 51
263.8493601720447
  0
ARC
  8
1
 62
7
 10
838.5275109978234
 20
784.8267448975378
 30
0
 40
1.00000000000009
 50
276.1506398279489
 51
0
  0
ARC
  8
1
 62
7
 10
844.5275109978234
 20
729.1491012692374
 30
0
 40
54.00000000000004
 50
13.38430845226724
 51
168.9968845096524
  0
ARC
  8
1
 62
7
 10
844.5275109978234
 20
729.1491012692374
 30
0
 40
56.00000000000004
 50
12.8978939291501
 51
84.87748390021912
  0
ARC
  8
1
 62
7
 10
844.5275109978311
 20
729.1491012692377
 30
0
 40
54.00000000000761
 50
176.283779608452
 51
183.7162203915485
  0
ARC
  8
1
 62
7
 10
844.5275109978234
 20
729.1491012692374
 30
0
 40
53.9999999999999
 50
191.0031154903476
 51
346.6156915477327
  0
ARC
  8
1
 62
7
 10
844.5275109978234
 20
729.1491012692374
 30
0
 40
55.99999999999974
 50
190.286560611475
 51
264.8774839002192
  0
ARC
  8
1
 62
7
 10
900.7725089962215
 20
601.2852200997131
 30
0
 40
8
 50
90
 51
131.4096221092691
  0
ARC
  8
1
 62
7
 10
785.5275109978236
 20
595.7852200997131
 30
0
 40
4
 50
180
 51
0
  0
ARC
  8
1
 62
7
 10
844.5275109978234
 20
729.1491012692374
 30
0
 40
50.00000000000009
 50
192.6575582716108
 51
167.3424417283893
  0
ARC
  8
1
 62
7
 10
844.5275109978234
 20
729.1491012692374
 30
0
 40
49.99999999999973
 50
175.9860127819437
 51
184.0139872180563
  0
ARC
  8
1
 62
7
 10
872.5275109978234
 20
725.1491012692374
 30
0
 40
3.200000000000159
 50
90
 51
270
  0
ARC
  8
1
 62
7
 10
872.5275109978234
 20
725.1491012692374
 30
0
 40
5
 50
90
 51
270
  0
ARC
  8
1
 62
7
 10
874.8525109978235
 20
738.8241012692372
 30
0
 40
1.025000000000091
 50
90
 51
270
  0
ARC
  8
1
 62
7
 10
874.8525109978235
 20
735.4741012692373
 30
0
 40
1.025000000000205
 50
90
 51
270
  0
ARC
  8
1
 62
7
 10
874.8525109978235
 20
738.8241012692372
 30
0
 40
2.325000000000159
 50
90
 51
226.0900023355166
  0
ARC
  8
1
 62
7
 10
874.8525109978235
 20
735.4741012692373
 30
0
 40
2.325000000000266
 50
133.9099976644795
 51
206.1587791261854
  0
ARC
  8
1
 62
7
 10
874.8525109978235
 20
748.8241012692372
 30
0
 40
1.025000000000091
 50
90
 51
270
  0
ARC
  8
1
 62
7
 10
874.8525109978235
 20
745.4741012692373
 30
0
 40
1.025000000000205
 50
90
 51
270
  0
ARC
  8
1
 62
7
 10
874.8525109978235
 20
748.8241012692372
 30
0
 40
2.325000000000159
 50
90
 51
226.0900023355166
  0
ARC
  8
1
 62
7
 10
874.8525109978235
 20
745.4741012692373
 30
0
 40
2.325000000000266
 50
133.9099976644795
 51
206.1587791261854
  0
ARC
  8
1
 62
7
 10
844.5208374734634
 20
729.1491012692374
 30
0
 40
63.99999999999947
 50
350.2496898551442
 51
9.750310144856044
  0
ARC
  8
1
 62
7
 10
844.9387684772005
 20
729.0273750389719
 30
0
 40
28.42703881101583
 50
165.131301248859
 51
168.8026382062402
  0
ARC
  8
1
 62
7
 10
844.5275109978234
 20
729.1491012692374
 30
0
 40
27.99999999999995
 50
115.9360805318615
 51
119.6575367872217
  0
ARC
  8
1
 62
7
 10
844.5275109978234
 20
729.1491012692374
 30
0
 40
28.00000000000007
 50
132.7825517332646
 51
136.5094578103613
  0
ARC
  8
1
 62
7
 10
844.5275109978234
 20
729.1491012692374
 30
0
 40
40
 50
130.7234973641146
 51
133.3166215934859
  0
ARC
  8
1
 62
7
 10
844.5275109978234
 20
729.1491012692374
 30
0
 40
40.0000000000001
 50
118.9550243718601
 51
121.546311832686
  0
ARC
  8
1
 62
7
 10
844.5281085235447
 20
729.1447945111639
 30
0
 40
27.99999999999999
 50
181.9998186610399
 51
185.7212749164005
  0
ARC
  8
1
 62
7
 10
815.9704446264818
 20
745.7233997728198
 30
0
 40
5.018380197483624
 50
235.3210221661463
 51
64.91007180298337
  0
ARC
  8
1
 62
7
 10
815.9836194363754
 20
745.7174515900973
 30
0
 40
3.204001259233488
 50
242.7207140490388
 51
57.01309575128997
  0
ARC
  8
1
 62
7
 10
815.9836194363754
 20
745.7174515900973
 30
0
 40
3.204001259233526
 50
57.01309575128997
 51
63.19768219958242
  0
ARC
  8
1
 62
7
 10
844.5304571761665
 20
729.142688270918
 30
0
 40
39.99999999999984
 50
192.5997120073367
 51
195.1890634116796
  0
ARC
  8
1
 62
7
 10
844.5304571761665
 20
729.142688270918
 30
0
 40
39.99999999999992
 50
204.3657136222635
 51
206.961318270199
  0
ARC
  8
1
 62
7
 10
844.5275109978234
 20
729.1491012692374
 30
0
 40
28.00000000000026
 50
223.4905421896388
 51
228.6214382649362
  0
ARC
  8
1
 62
7
 10
844.5275109978234
 20
729.1491012692374
 30
0
 40
40.00000000000002
 50
226.6833784065142
 51
229.3696139522229
  0
ARC
  8
1
 62
7
 10
844.9531021268587
 20
729.2043338355683
 30
0
 40
28.42703881101604
 50
189.3858074973431
 51
193.057843533772
  0
ARC
  8
1
 62
7
 10
844.5304571761665
 20
729.142688270918
 30
0
 40
27.99999999999991
 50
206.2550239885721
 51
209.975797568251
  0
ARC
  8
1
 62
7
 10
844.5275109978234
 20
729.1491012692374
 30
0
 40
27.99999999999996
 50
240.3424632127783
 51
244.0639194681385
  0
ARC
  8
1
 62
7
 10
844.5275109978234
 20
729.1491012692374
 30
0
 40
39.99999999999992
 50
238.4536881673138
 51
241.0449756281399
  0
ARC
  8
1
 62
7
 10
844.5275109978234
 20
729.1491012692374
 30
0
 40
27.99999999999977
 50
215.396449361283
 51
219.0803840096222
  0
ARC
  8
1
 62
7
 10
844.5275109978234
 20
729.1491012692374
 30
0
 40
39.99999999999994
 50
215.9491528491644
 51
218.5276805217406
  0
ARC
  8
1
 62
7
 10
814.2635045226625
 20
746.7090203025608
 30
0
 40
5.010561101008374
 50
64.31900348006609
 51
236.9536376728225
  0
ARC
  8
1
 62
7
 10
814.2559363265282
 20
746.7105799775305
 30
0
 40
3.203234377261942
 50
62.89529519795978
 51
237.7649586501065
  0
ARC
  8
1
 62
7
 10
844.5281085235447
 20
729.1447945111639
 30
0
 40
39.99999999999982
 50
168.3407338547764
 51
170.9338580841473
  0
ARC
  8
1
 62
7
 10
844.5281085235447
 20
729.1447945111639
 30
0
 40
40.00000000000018
 50
180.1105082947312
 51
182.7023310764021
  0
ARC
  8
1
 62
7
 10
874.5275109978234
 20
725.1491012692374
 30
0
 40
3.200000000000159
 50
270
 51
90
  0
ARC
  8
1
 62
7
 10
874.5275109978234
 20
725.1491012692374
 30
0
 40
5
 50
270
 51
90
  0
ARC
  8
1
 62
7
 10
875.5275109978234
 20
711.1491012692374
 30
0
 40
2.200000000000046
 50
270
 51
0
  0
ARC
  8
1
 62
7
 10
875.5275109978234
 20
713.1491012692374
 30
0
 40
2.200000000000046
 50
0
 51
180
  0
ARC
  8
1
 62
7
 10
875.5275109978234
 20
711.1491012692374
 30
0
 40
4
 50
270
 51
0
  0
ARC
  8
1
 62
7
 10
875.5275109978234
 20
713.1491012692374
 30
0
 40
4
 50
0
 51
180
  0
ARC
  8
1
 62
7
 10
844.5275109978234
 20
729.1491012692374
 30
0
 40
59.99999999999986
 50
274.7801918471993
 51
347.9753008194342
  0
ARC
  8
1
 62
7
 10
751.2757503471221
 20
729.1491012692374
 30
0
 40
34.00000000000006
 50
238.5330237067381
 51
260.9855214108225
  0
ARC
  8
1
 62
7
 10
733.5275109978234
 20
696.1491012692355
 30
0
 40
4
 50
90
 51
180
  0
ARC
  8
1
 62
7
 10
844.5275109978234
 20
729.1491012692374
 30
0
 40
60.00000000000019
 50
94.78019184719913
 51
170.4059317731395
  0
ARC
  8
1
 62
7
 10
733.5275109978234
 20
762.1491012692392
 30
0
 40
4
 50
180
 51
270
  0
ARC
  8
1
 62
7
 10
751.2757503471221
 20
729.1491012692374
 30
0
 40
34.00000000000009
 50
99.01447858917751
 51
121.4669762932619
  0
ARC
  8
1
 62
7
 10
844.5275109978234
 20
729.1491012692374
 30
0
 40
60.00000000000001
 50
12.02469918056582
 51
85.21980815280075
  0
ARC
  8
1
 62
7
 10
924.7368622430518
 20
691.7590022057365
 30
0
 40
3.999999999999922
 50
18.61907147691822
 51
101.940774302466
  0
ARC
  8
1
 62
7
 10
924.7368622430518
 20
766.5392003327385
 30
0
 40
4.000000000000144
 50
258.0592256975347
 51
341.3809285230818
  0
ARC
  8
1
 62
7
 10
844.5275109978234
 20
729.1491012692374
 30
0
 40
59.99999999999983
 50
189.5940682268605
 51
265.2198081528008
  0
ARC
  8
1
 62
7
 10
871.0275109978231
 20
538.1684887424748
 30
0
 40
33.49999999999972
 50
27.68464443758719
 51
37.62851151545047
  0
ARC
  8
1
 62
7
 10
905.119960697012
 20
556.055771194213
 30
0
 40
5.000000000000037
 50
207.6846444375842
 51
256.1993960144918
  0
ARC
  8
1
 62
7
 10
871.0275109978231
 20
538.1684887424748
 30
0
 40
33.49999999999993
 50
37.62851151545047
 51
45.6827972387912
  0
ARC
  8
1
 62
7
 10
924.546276139137
 20
550.2852200997139
 30
0
 40
4
 50
270
 51
354.4479485278573
  0
ARC
  8
1
 62
7
 10
825.0275109978234
 20
511.6557969732311
 30
0
 40
3.958253366364783
 50
211.2379332298788
 51
335.00961399899
  0
ARC
  8
1
 62
7
 10
825.0275109978234
 20
511.6557969732311
 30
0
 40
5.87057687380889
 50
200.4667014813435
 51
339.5332985186572
  0
ARC
  8
1
 62
7
 10
824.9995674251441
 20
510.7232659665962
 30
0
 40
5.736970521672169
 50
15.51404292753744
 51
130.3393912275988
  0
ARC
  8
1
 62
7
 10
824.9995674251441
 20
510.7232659665962
 30
0
 40
3.824647014589434
 50
19.03010382039325
 51
140.3785291182788
  0
ARC
  8
1
 62
7
 10
844.527510997824
 20
864.2852200997209
 30
0
 40
403.5000000000069
 50
262.9148773759707
 51
264.0782489599411
  0
ARC
  8
1
 62
7
 10
896.5275109978231
 20
564.2836184568758
 30
0
 40
3
 50
180
 51
225.6827972387915
  0
ARC
  8
1
 62
7
 10
896.5275109978231
 20
567.3485215135116
 30
0
 40
3.000000000000034
 50
125.6853347126516
 51
180
  0
ARC
  8
1
 62
7
 10
924.5462761391393
 20
477.2852200997139
 30
0
 40
3.999999999999896
 50
5.552051472143413
 51
90
  0
ARC
  8
1
 62
7
 10
903.353050371871
 20
478.2852200997139
 30
0
 40
3
 50
90
 51
152.3292992775374
  0
ARC
  8
1
 62
7
 10
871.0275109978231
 20
495.235426711342
 30
0
 40
33.49999999999999
 50
315.1662635586991
 51
332.3292992775333
  0
ARC
  8
1
 62
7
 10
847.5275109978231
 20
459.796345098188
 30
0
 40
0.9999999999998791
 50
90.42494169189604
 51
180
  0
ARC
  8
1
 62
7
 10
841.5275109978231
 20
459.796345098188
 30
0
 40
1
 50
0
 51
89.57505830811698
  0
ARC
  8
1
 62
7
 10
844.5275109978231
 20
864.2852200997139
 30
0
 40
403.5000000000002
 50
264.0782489599411
 51
274.1071331215388
  0
ARC
  8
1
 62
7
 10
792.5275109978231
 20
567.3485215135116
 30
0
 40
3
 50
0
 51
54.31466528734842
  0
ARC
  8
1
 62
7
 10
792.5275109978231
 20
564.2836184568758
 30
0
 40
2.99999999999996
 50
314.3172027612086
 51
0
  0
ARC
  8
1
 62
7
 10
733.1574725260623
 20
546.7852200997139
 30
0
 40
3.999999999999879
 50
204.839187437507
 51
299.7243291471071
  0
ARC
  8
1
 62
7
 10
733.5275109978231
 20
480.7852200997139
 30
0
 40
4
 50
90
 51
180
  0
ARC
  8
1
 62
7
 10
782.4100831789826
 20
552.7852200997139
 30
0
 40
5
 50
270
 51
337.6876635037726
  0
ARC
  8
1
 62
7
 10
751.9989162074792
 20
513.7852200997139
 30
0
 40
34
 50
90
 51
119.7243291471072
  0
ARC
  8
1
 62
7
 10
813.6915598816499
 20
616.1942204266887
 30
0
 40
153.5000000000001
 50
238.8797743342071
 51
262.9148773759707
  0
ARC
  8
1
 62
7
 10
818.0275109978231
 20
538.1684887424748
 30
0
 40
33.49999999999995
 50
134.3172027612088
 51
157.6876635037726
  0
ARC
  8
1
 62
7
 10
871.0275109978231
 20
495.235426711342
 30
0
 40
33.50000000000019
 50
274.1071331215385
 51
315.1662635586991
  0
CIRCLE
  8
1
 62
7
 10
785.5275109978236
 20
595.7852200997131
 30
0
 40
1.299999999999871
  0
CIRCLE
  8
1
 62
7
 10
783.8337433328422
 20
550.7852200997139
 30
0
 40
1
  0
ARC
  8
1
 62
7
 10
789.5275109978234
 20
590.7852200997133
 30
0
 40
1
 50
90
 51
180
  0
ARC
  8
1
 62
7
 10
899.5275109978234
 20
590.7852200997133
 30
0
 40
1
 50
0
 51
90
  0
ARC
  8
1
 62
7
 10
782.5275109978236
 20
573.7852200997131
 30
0
 40
1
 50
180
 51
270
  0
ARC
  8
1
 62
7
 10
907.5275109978234
 20
590.7852200997133
 30
0
 40
1
 50
0
 51
90
  0
ARC
  8
1
 62
7
 10
907.5275109978234
 20
573.7852200997131
 30
0
 40
0.9999999999997726
 50
270
 51
0
  0
ARC
  8
1
 62
7
 10
840.5275109978236
 20
573.7852200997131
 30
0
 40
1
 50
180
 51
270
  0
ARC
  8
1
 62
7
 10
840.5275109978234
 20
590.7852200997133
 30
0
 40
0.9999999999997726
 50
90
 51
180
  0
ARC
  8
1
 62
7
 10
789.5275109978236
 20
592.7852200997131
 30
0
 40
0.9999999999997726
 50
270
 51
0
  0
ARC
  8
1
 62
7
 10
899.5275109978234
 20
592.7852200997131
 30
0
 40
1
 50
180
 51
270
  0
ARC
  8
1
 62
7
 10
840.5275109978236
 20
666.1491012692372
 30
0
 40
1.000000000000227
 50
180
 51
270
  0
ARC
  8
1
 62
7
 10
848.5275109978234
 20
666.1491012692372
 30
0
 40
1
 50
270
 51
0
  0
ARC
  8
1
 62
7
 10
848.5275109978234
 20
573.7852200997131
 30
0
 40
0.9999999999997726
 50
270
 51
0
  0
ARC
  8
1
 62
7
 10
848.5275109978234
 20
590.7852200997133
 30
0
 40
1
 50
0
 51
90
  0
ARC
  8
1
 62
7
 10
907.5275109978234
 20
733.1491012692375
 30
0
 40
1
 50
0
 51
33.80578557265133
  0
ARC
  8
1
 62
7
 10
840.5275109978236
 20
792.1491012692377
 30
0
 40
1
 50
90
 51
180
  0
ARC
  8
1
 62
7
 10
848.5275109978234
 20
792.1491012692377
 30
0
 40
1
 50
0
 51
90
  0
ARC
  8
1
 62
7
 10
907.5275109978234
 20
725.1491012692375
 30
0
 40
1.000000000000012
 50
326.1942144273487
 51
0
  0
ARC
  8
1
 62
7
 10
907.0275109978236
 20
607.7852200997131
 30
0
 40
1.5
 50
0
 51
90
  0
ARC
  8
1
 62
7
 10
897.0275109978236
 20
605.7852200997131
 30
0
 40
1.5
 50
0
 51
90
  0
ARC
  8
1
 62
7
 10
900.0275109978236
 20
604.7852200997131
 30
0
 40
1.5
 50
90
 51
180
  0
ARC
  8
1
 62
7
 10
784.5275109978236
 20
607.2852200997131
 30
0
 40
3
 50
90
 51
180
  0
ARC
  8
1
 62
7
 10
792.0275109978236
 20
605.7852200997131
 30
0
 40
1.5
 50
90
 51
180
  0
ARC
  8
1
 62
7
 10
894.0880800018215
 20
715.1491012692374
 30
0
 40
1.5
 50
90
 51
164.2259355890648
  0
ARC
  8
1
 62
7
 10
894.0880800018215
 20
743.1491012692374
 30
0
 40
1.500000000000032
 50
195.7740644109352
 51
270
  0
ARC
  8
1
 62
7
 10
782.5275109978234
 20
738.1491012692374
 30
0
 40
1
 50
90
 51
180
  0
ARC
  8
1
 62
7
 10
782.5275109978234
 20
720.1491012692374
 30
0
 40
1
 50
180
 51
270
  0
ARC
  8
1
 62
7
 10
905.6252562989455
 20
739.6491012692374
 30
0
 40
2.000000000000089
 50
9.750310144859661
 51
90
  0
ARC
  8
1
 62
7
 10
905.6252562989455
 20
718.6491012692374
 30
0
 40
2
 50
270
 51
350.2496898551467
  0
ARC
  8
1
 62
7
 10
893.3539366969853
 20
678.9895542871901
 30
0
 40
9.999999999999915
 50
101.9407743024658
 51
134.2283997073014
  0
ARC
  8
1
 62
7
 10
893.3539366969853
 20
779.3086482512846
 30
0
 40
10.00000000000008
 50
225.7716002926987
 51
258.0592256975342
  0
ARC
  8
1
 62
7
 10
797.5448335185743
 20
677.2585624699449
 30
0
 40
10.00000000000009
 50
47.8417112330001
 51
80.98552141082138
  0
ARC
  8
1
 62
7
 10
797.5448335185743
 20
781.0396400685298
 30
0
 40
9.99999999999986
 50
279.0144785891789
 51
312.1582887670008
  0
ARC
  8
1
 62
7
 10
776.9958696166098
 20
726.6491012692374
 30
0
 40
1
 50
90
 51
180
  0
ARC
  8
1
 62
7
 10
776.9958696166098
 20
731.6491012692374
 30
0
 40
1
 50
180
 51
270
  0
ARC
  8
1
 62
7
 10
924.4202632057466
 20
550.2852200997139
 30
0
 40
3.999999999999957
 50
256.1993960144888
 51
270
  0
ARC
  8
1
 62
7
 10
784.4811509908479
 20
547.7852200997139
 30
0
 40
6
 50
90
 51
134.9999999999985
  0
LINE
  8
1
 62
2
 10
723.2071502306251
 20
452.0144461697975
 30
0
 11
748.5611635350551
 21
452.0144461697975
 31
0
  0
LINE
  8
1
 62
2
 10
748.5611635350551
 20
452.0144461697975
 30
0
 11
773.4215014768422
 21
510.7278859170904
 31
0
  0
LINE
  8
1
 62
2
 10
772.9920085452693
 20
507.651897173735
 30
0
 11
773.4215014768422
 21
510.7278859170904
 31
0
  0
LINE
  8
1
 62
2
 10
771.5115553156765
 20
508.2787479893761
 30
0
 11
773.4215014768422
 21
510.7278859170904
 31
0
  0
LINE
  8
1
 62
2
 10
788.6766423806587
 20
451.8598617910852
 30
0
 11
758.0009909926671
 21
451.8598617910852
 31
0
  0
LINE
  8
1
 62
2
 10
758.0009909926671
 20
451.8598617910852
 30
0
 11
783.3845477495256
 21
510.3555736440855
 31
0
  0
LINE
  8
1
 62
2
 10
782.927734719493
 20
507.2835233868285
 30
0
 11
783.3845477495256
 21
510.3555736440855
 31
0
  0
LINE
  8
1
 62
2
 10
781.452910932109
 20
507.9235065946148
 30
0
 11
783.3845477495256
 21
510.3555736440855
 31
0
  0
LINE
  8
1
 62
2
 10
702.1926058742109
 20
571.387825373203
 30
0
 11
753.187734242564
 21
571.387825373203
 31
0
  0
LINE
  8
1
 62
2
 10
753.187734242564
 20
571.387825373203
 30
0
 11
719.916831729549
 21
551.3772200997138
 31
0
  0
LINE
  8
1
 62
2
 10
722.0733629321179
 20
553.6122914855687
 30
0
 11
719.916831729549
 21
551.3772200997138
 31
0
  0
LINE
  8
1
 62
2
 10
722.9019782279549
 20
552.2345830978513
 30
0
 11
719.916831729549
 21
551.3772200997138
 31
0
  0
DIMENSION
  8
1
  6
CONTINUOUS
 62
2
  2
*D0
  3
DMST_1
 10
990.2371795556369
 20
793.1491012692377
 30
0
 11
987.9371795556369
 21
729.1491012692375
 31
0
 12
0
 22
0
 32
0
 70
128
 13
848.5275109978234
 23
665.1491012692372
 33
0
 14
848.5275109978234
 24
793.1491012692377
 34
0
 50
90
 53
0
  0
DIMENSION
  8
1
  6
CONTINUOUS
 62
2
  2
*D1
  3
DMST_1
 10
990.2371795556369
 20
610.2852200997131
 30
0
 11
987.9371795556369
 21
534.5352200997136
 31
0
 12
0
 22
0
 32
0
 70
128
 13
882.0275109978231
 23
458.7852200997139
 33
0
 14
789.5275109978236
 24
610.2852200997131
 34
0
 50
90
 53
0
  0
DIMENSION
  8
1
  6
CONTINUOUS
 62
2
  2
*D2
  3
DMST_1
 10
969.6547447730279
 20
513.7852200997137
 30
0
 11
967.354744773028
 21
486.2852200997138
 31
0
 12
0
 22
0
 32
0
 70
128
 13
882.0275109978231
 23
458.7852200997139
 33
0
 14
954.928933065667
 24
513.7852200997137
 34
0
 50
90
 53
0
  0
DIMENSION
  8
1
  6
CONTINUOUS
 62
2
  2
*D3
  3
DMST_1
 10
951.5275109978231
 20
438.577891157702
 30
0
 11
844.121179555636
 21
440.877891157702
 31
0
 12
0
 22
0
 32
0
 70
128
 13
706.5275109978231
 23
477.6722200997139
 33
0
 14
951.5275109978231
 24
477.6722200997139
 34
0
 53
0
  0
DIMENSION
  8
1
  6
CONTINUOUS
 62
2
  2
*D4
  3
DMST_2
 10
729.5275109978231
 20
466.939580257273
 30
0
 11
718.0275109978231
 21
469.539580257273
 31
0
 12
0
 22
0
 32
0
 70
129
 13
706.5275109978231
 23
477.6722200997139
 33
0
 14
729.5275109978231
 24
477.6722200997139
 34
0
 53
0
  0
ENDSEC
  0
EOF
