  0
SECTION
  2
HEADER
  9
$ACADVER
  1
AC1015
  9
$ACADMAINTVER
 70
     6
  9
$DWGCODEPAGE
  3
ANSI_1252
  9
$INSBASE
 10
0.0
 20
0.0
 30
0.0
  9
$EXTMIN
 10
1515.479633551931
 20
25.6596604852539
 30
0.0
  9
$EXTMAX
 10
1741.956941808895
 20
352.9248669012094
 30
0.0
  9
$LIMMIN
 10
0.0
 20
0.0
  9
$LIMMAX
 10
12.0
 20
9.0
  9
$ORTHOMODE
 70
     0
  9
$REGENMODE
 70
     1
  9
$FILLMODE
 70
     1
  9
$QTEXTMODE
 70
     0
  9
$MIRRTEXT
 70
     1
  9
$LTSCALE
 40
1.0
  9
$ATTMODE
 70
     1
  9
$TEXTSIZE
 40
0.2
  9
$TRACEWID
 40
0.05
  9
$TEXTSTYLE
  7
Standard
  9
$CLAYER
  8
0
  9
$CELTYPE
  6
ByLayer
  9
$CECOLOR
 62
   256
  9
$CELTSCALE
 40
1.0
  9
$DISPSILH
 70
     0
  9
$DIMSCALE
 40
1.0
  9
$DIMASZ
 40
0.18
  9
$DIMEXO
 40
0.0625
  9
$DIMDLI
 40
0.38
  9
$DIMRND
 40
0.0
  9
$DIMDLE
 40
0.0
  9
$DIMEXE
 40
0.18
  9
$DIMTP
 40
0.0
  9
$DIMTM
 40
0.0
  9
$DIMTXT
 40
0.18
  9
$DIMCEN
 40
0.09
  9
$DIMTSZ
 40
0.0
  9
$DIMTOL
 70
     0
  9
$DIMLIM
 70
     0
  9
$DIMTIH
 70
     1
  9
$DIMTOH
 70
     1
  9
$DIMSE1
 70
     0
  9
$DIMSE2
 70
     0
  9
$DIMTAD
 70
     0
  9
$DIMZIN
 70
     0
  9
$DIMBLK
  1

  9
$DIMASO
 70
     1
  9
$DIMSHO
 70
     1
  9
$DIMPOST
  1

  9
$DIMAPOST
  1

  9
$DIMALT
 70
     0
  9
$DIMALTD
 70
     2
  9
$DIMALTF
 40
25.4
  9
$DIMLFAC
 40
1.0
  9
$DIMTOFL
 70
     0
  9
$DIMTVP
 40
0.0
  9
$DIMTIX
 70
     0
  9
$DIMSOXD
 70
     0
  9
$DIMSAH
 70
     0
  9
$DIMBLK1
  1

  9
$DIMBLK2
  1

  9
$DIMSTYLE
  2
Standard
  9
$DIMCLRD
 70
     0
  9
$DIMCLRE
 70
     0
  9
$DIMCLRT
 70
     0
  9
$DIMTFAC
 40
1.0
  9
$DIMGAP
 40
0.09
  9
$DIMJUST
 70
     0
  9
$DIMSD1
 70
     0
  9
$DIMSD2
 70
     0
  9
$DIMTOLJ
 70
     1
  9
$DIMTZIN
 70
     0
  9
$DIMALTZ
 70
     0
  9
$DIMALTTZ
 70
     0
  9
$DIMUPT
 70
     0
  9
$DIMDEC
 70
     4
  9
$DIMTDEC
 70
     4
  9
$DIMALTU
 70
     2
  9
$DIMALTTD
 70
     2
  9
$DIMTXSTY
  7
Standard
  9
$DIMAUNIT
 70
     0
  9
$DIMADEC
 70
     0
  9
$DIMALTRND
 40
0.0
  9
$DIMAZIN
 70
     0
  9
$DIMDSEP
 70
    46
  9
$DIMATFIT
 70
     3
  9
$DIMFRAC
 70
     0
  9
$DIMLDRBLK
  1

  9
$DIMLUNIT
 70
     2
  9
$DIMLWD
 70
    -2
  9
$DIMLWE
 70
    -2
  9
$DIMTMOVE
 70
     0
  9
$LUNITS
 70
     2
  9
$LUPREC
 70
     4
  9
$SKETCHINC
 40
0.1
  9
$FILLETRAD
 40
0.5
  9
$AUNITS
 70
     0
  9
$AUPREC
 70
     0
  9
$MENU
  1
.
  9
$ELEVATION
 40
0.0
  9
$PELEVATION
 40
0.0
  9
$THICKNESS
 40
0.0
  9
$LIMCHECK
 70
     0
  9
$CHAMFERA
 40
0.5
  9
$CHAMFERB
 40
0.5
  9
$CHAMFERC
 40
1.0
  9
$CHAMFERD
 40
0.0
  9
$SKPOLY
 70
     0
  9
$TDCREATE
 40
2456911.473279352
  9
$TDUCREATE
 40
2456911.098279352
  9
$TDUPDATE
 40
2456911.473279363
  9
$TDUUPDATE
 40
2456911.098279363
  9
$TDINDWG
 40
0.0000000116
  9
$TDUSRTIMER
 40
0.0000000116
  9
$USRTIMER
 70
     1
  9
$ANGBASE
 50
0.0
  9
$ANGDIR
 70
     0
  9
$PDMODE
 70
     0
  9
$PDSIZE
 40
0.0
  9
$PLINEWID
 40
0.0
  9
$SPLFRAME
 70
     0
  9
$SPLINETYPE
 70
     6
  9
$SPLINESEGS
 70
     8
  9
$HANDSEED
  5
67F
  9
$SURFTAB1
 70
     6
  9
$SURFTAB2
 70
     6
  9
$SURFTYPE
 70
     6
  9
$SURFU
 70
     6
  9
$SURFV
 70
     6
  9
$UCSBASE
  2

  9
$UCSNAME
  2

  9
$UCSORG
 10
0.0
 20
0.0
 30
0.0
  9
$UCSXDIR
 10
1.0
 20
0.0
 30
0.0
  9
$UCSYDIR
 10
0.0
 20
1.0
 30
0.0
  9
$UCSORTHOREF
  2

  9
$UCSORTHOVIEW
 70
     0
  9
$UCSORGTOP
 10
0.0
 20
0.0
 30
0.0
  9
$UCSORGBOTTOM
 10
0.0
 20
0.0
 30
0.0
  9
$UCSORGLEFT
 10
0.0
 20
0.0
 30
0.0
  9
$UCSORGRIGHT
 10
0.0
 20
0.0
 30
0.0
  9
$UCSORGFRONT
 10
0.0
 20
0.0
 30
0.0
  9
$UCSORGBACK
 10
0.0
 20
0.0
 30
0.0
  9
$PUCSBASE
  2

  9
$PUCSNAME
  2

  9
$PUCSORG
 10
0.0
 20
0.0
 30
0.0
  9
$PUCSXDIR
 10
1.0
 20
0.0
 30
0.0
  9
$PUCSYDIR
 10
0.0
 20
1.0
 30
0.0
  9
$PUCSORTHOREF
  2

  9
$PUCSORTHOVIEW
 70
     0
  9
$PUCSORGTOP
 10
0.0
 20
0.0
 30
0.0
  9
$PUCSORGBOTTOM
 10
0.0
 20
0.0
 30
0.0
  9
$PUCSORGLEFT
 10
0.0
 20
0.0
 30
0.0
  9
$PUCSORGRIGHT
 10
0.0
 20
0.0
 30
0.0
  9
$PUCSORGFRONT
 10
0.0
 20
0.0
 30
0.0
  9
$PUCSORGBACK
 10
0.0
 20
0.0
 30
0.0
  9
$USERI1
 70
     0
  9
$USERI2
 70
     0
  9
$USERI3
 70
     0
  9
$USERI4
 70
     0
  9
$USERI5
 70
     0
  9
$USERR1
 40
16.0
  9
$USERR2
 40
0.0
  9
$USERR3
 40
0.0
  9
$USERR4
 40
0.0
  9
$USERR5
 40
0.0
  9
$WORLDVIEW
 70
     1
  9
$SHADEDGE
 70
     3
  9
$SHADEDIF
 70
    70
  9
$TILEMODE
 70
     1
  9
$MAXACTVP
 70
    64
  9
$PINSBASE
 10
0.0
 20
0.0
 30
0.0
  9
$PLIMCHECK
 70
     0
  9
$PEXTMIN
 10
1.00000000000000E+20
 20
1.00000000000000E+20
 30
1.00000000000000E+20
  9
$PEXTMAX
 10
-1.00000000000000E+20
 20
-1.00000000000000E+20
 30
-1.00000000000000E+20
  9
$PLIMMIN
 10
0.0
 20
0.0
  9
$PLIMMAX
 10
12.0
 20
9.0
  9
$UNITMODE
 70
     0
  9
$VISRETAIN
 70
     1
  9
$PLINEGEN
 70
     0
  9
$PSLTSCALE
 70
     1
  9
$TREEDEPTH
 70
  3020
  9
$CMLSTYLE
  2
Standard
  9
$CMLJUST
 70
     0
  9
$CMLSCALE
 40
1.0
  9
$PROXYGRAPHICS
 70
     1
  9
$MEASUREMENT
 70
     1
  9
$CELWEIGHT
370
    -1
  9
$ENDCAPS
280
     0
  9
$JOINSTYLE
280
     0
  9
$LWDISPLAY
290
     0
  9
$INSUNITS
 70
     1
  9
$HYPERLINKBASE
  1

  9
$STYLESHEET
  1

  9
$XEDIT
290
     1
  9
$CEPSNTYPE
380
     0
  9
$PSTYLEMODE
290
     1
  9
$FINGERPRINTGUID
  2
{4269C908-EAE1-41CA-B2A6-3F0B8C533779}
  9
$VERSIONGUID
  2
{FAEB1C32-E019-11D5-929B-00C0DF256EC4}
  9
$EXTNAMES
290
     1
  9
$PSVPSCALE
 40
0.0
  9
$OLESTARTUP
290
     0
  0
ENDSEC
  0
SECTION
  2
CLASSES
  0
CLASS
  1
ACDBDICTIONARYWDFLT
  2
AcDbDictionaryWithDefault
  3
ObjectDBX Classes
 90
        0
280
     0
281
     0
  0
CLASS
  1
VISUALSTYLE
  2
AcDbVisualStyle
  3
ObjectDBX Classes
 90
     4095
280
     0
281
     0
  0
CLASS
  1

  2
exOdDbCircle
  3

 90
        0
280
     0
281
     1
  0
CLASS
  1
ACDBPLACEHOLDER
  2
AcDbPlaceHolder
  3
ObjectDBX Classes
 90
        0
280
     0
281
     0
  0
CLASS
  1
LAYOUT
  2
AcDbLayout
  3
ObjectDBX Classes
 90
        0
280
     0
281
     0
  0
ENDSEC
  0
SECTION
  2
TABLES
  0
TABLE
  2
VPORT
  5
8
330
0
100
AcDbSymbolTable
 70
     1
  0
VPORT
  5
29
330
8
100
AcDbSymbolTableRecord
100
AcDbViewportTableRecord
  2
*Active
 70
     0
 10
0.0
 20
0.0
 11
1.0
 21
1.0
 12
1628.718287680413
 22
189.2922636932316
 13
0.0
 23
0.0
 14
0.5
 24
0.5
 15
0.5
 25
0.5
 16
0.0
 26
0.0
 36
1.0
 17
0.0
 27
0.0
 37
0.0
 40
359.9917270575511
 41
1.60267857142857
 42
50.0
 43
0.0
 44
0.0
 50
0.0
 51
0.0
 71
     0
 72
   100
 73
     1
 74
     3
 75
     0
 76
     0
 77
     0
 78
     0
281
     0
 65
     1
110
0.0
120
0.0
130
0.0
111
1.0
121
0.0
131
0.0
112
0.0
122
1.0
132
0.0
 79
     0
146
0.0
  0
ENDTAB
  0
TABLE
  2
LTYPE
  5
5
330
0
100
AcDbSymbolTable
 70
     8
  0
LTYPE
  5
14
330
5
100
AcDbSymbolTableRecord
100
AcDbLinetypeTableRecord
  2
ByBlock
 70
     0
  3

 72
    65
 73
     0
 40
0.0
  0
LTYPE
  5
15
330
5
100
AcDbSymbolTableRecord
100
AcDbLinetypeTableRecord
  2
ByLayer
 70
     0
  3

 72
    65
 73
     0
 40
0.0
  0
LTYPE
  5
16
330
5
100
AcDbSymbolTableRecord
100
AcDbLinetypeTableRecord
  2
Continuous
 70
     0
  3
Solid line
 72
    65
 73
     0
 40
0.0
  0
LTYPE
  5
3B
330
5
100
AcDbSymbolTableRecord
100
AcDbLinetypeTableRecord
  2
DASHED
 70
     0
  3
Dashed
 72
    65
 73
     2
 40
15.0
 49
7.0
 74
     0
 49
-8.0
 74
     0
  0
LTYPE
  5
3C
330
5
100
AcDbSymbolTableRecord
100
AcDbLinetypeTableRecord
  2
DOTTED
 70
     0
  3
Dotted
 72
    65
 73
     2
 40
1.0
 49
0.0
 74
     0
 49
-1.0
 74
     0
  0
LTYPE
  5
3D
330
5
100
AcDbSymbolTableRecord
100
AcDbLinetypeTableRecord
  2
DOT_CENTER
 70
     0
  3
Dot_Center
 72
    65
 73
     4
 40
14.0
 49
12.0
 74
     0
 49
-1.0
 74
     0
 49
0.0
 74
     0
 49
-1.0
 74
     0
  0
LTYPE
  5
3E
330
5
100
AcDbSymbolTableRecord
100
AcDbLinetypeTableRecord
  2
LONG_DASHED
 70
     0
  3
Long_Dashed
 72
    65
 73
     2
 40
15.0
 49
10.0
 74
     0
 49
-5.0
 74
     0
  0
LTYPE
  5
3F
330
5
100
AcDbSymbolTableRecord
100
AcDbLinetypeTableRecord
  2
DASH_CENTER
 70
     0
  3
Dash_Center
 72
    65
 73
     4
 40
14.0
 49
11.0
 74
     0
 49
-1.0
 74
     0
 49
1.0
 74
     0
 49
-1.0
 74
     0
  0
LTYPE
  5
40
330
5
100
AcDbSymbolTableRecord
100
AcDbLinetypeTableRecord
  2
PHANTOM
 70
     0
  3
Phantom
 72
    65
 73
     6
 40
13.0
 49
10.0
 74
     0
 49
-1.0
 74
     0
 49
0.0
 74
     0
 49
-1.0
 74
     0
 49
0.0
 74
     0
 49
-1.0
 74
     0
  0
LTYPE
  5
41
330
5
100
AcDbSymbolTableRecord
100
AcDbLinetypeTableRecord
  2
CENTER_DASH_DASH
 70
     0
  3
Center_Dash_Dash
 72
    65
 73
     6
 40
14.0
 49
9.0
 74
     0
 49
-1.0
 74
     0
 49
1.0
 74
     0
 49
-1.0
 74
     0
 49
1.0
 74
     0
 49
-1.0
 74
     0
  0
ENDTAB
  0
TABLE
  2
LAYER
  5
2
330
0
100
AcDbSymbolTable
 70
     2
  0
LAYER
  5
10
330
2
100
AcDbSymbolTableRecord
100
AcDbLayerTableRecord
  2
0
 70
     0
 62
     7
  6
Continuous
370
    -3
390
F
  0
LAYER
  5
42
330
2
100
AcDbSymbolTableRecord
100
AcDbLayerTableRecord
  2
1
 70
     0
 62
     7
  6
Continuous
370
    -3
390
F
  0
ENDTAB
  0
TABLE
  2
STYLE
  5
3
330
0
100
AcDbSymbolTable
 70
     2
  0
STYLE
  5
11
330
3
100
AcDbSymbolTableRecord
100
AcDbTextStyleTableRecord
  2
Standard
 70
     0
 40
0.0
 41
1.0
 50
0.0
 71
     0
 42
0.2
  3
txt
  4

  0
STYLE
  5
63D
330
3
100
AcDbSymbolTableRecord
100
AcDbTextStyleTableRecord
  2
CONVERTER_11
 70
     0
 40
0.0
 41
0.9
 50
15.0
 71
     0
 42
0.2
  3
txt.shx
  4

  0
ENDTAB
  0
TABLE
  2
VIEW
  5
6
330
0
100
AcDbSymbolTable
 70
     0
  0
ENDTAB
  0
TABLE
  2
UCS
  5
7
330
0
100
AcDbSymbolTable
 70
     0
  0
ENDTAB
  0
TABLE
  2
APPID
  5
9
330
0
100
AcDbSymbolTable
 70
     1
  0
APPID
  5
12
330
9
100
AcDbSymbolTableRecord
100
AcDbRegAppTableRecord
  2
ACAD
 70
     0
  0
ENDTAB
  0
TABLE
  2
DIMSTYLE
  5
A
330
0
100
AcDbSymbolTable
 70
     6
100
AcDbDimStyleTable
  0
DIMSTYLE
105
27
330
A
100
AcDbSymbolTableRecord
100
AcDbDimStyleTableRecord
  2
Standard
 70
     0
340
11
  0
DIMSTYLE
105
647
102
{ACAD_REACTORS
330
648
102
}
330
A
100
AcDbSymbolTableRecord
100
AcDbDimStyleTableRecord
  2
ME10_DIM_10
 70
     0
 41
2.5
 42
0.5
 44
1.0
 73
     0
 74
     0
 77
     1
 78
     8
140
2.5
147
0.8
172
     1
173
     1
176
     2
177
     2
178
     2
271
     2
340
63D
343
641
344
641
  0
DIMSTYLE
105
654
102
{ACAD_REACTORS
330
655
102
}
330
A
100
AcDbSymbolTableRecord
100
AcDbDimStyleTableRecord
  2
ME10_DIM_11
 70
     0
  3
(<>)
 41
2.5
 42
0.5
 44
1.0
 73
     0
 74
     0
 77
     1
 78
     8
140
2.5
147
0.8
172
     1
173
     1
176
     2
177
     2
178
     2
271
     2
340
63D
343
641
344
641
  0
DIMSTYLE
105
661
102
{ACAD_REACTORS
330
662
102
}
330
A
100
AcDbSymbolTableRecord
100
AcDbDimStyleTableRecord
  2
ME10_DIM_12
 70
     0
 41
3.2
 42
0.5
 44
1.5
 73
     0
 74
     0
 77
     1
 78
     8
140
3.2
147
1.0
172
     1
173
     1
176
     2
177
     2
178
     2
271
     2
340
63D
343
641
344
641
  0
DIMSTYLE
105
66E
102
{ACAD_REACTORS
330
66F
102
}
330
A
100
AcDbSymbolTableRecord
100
AcDbDimStyleTableRecord
  2
ME10_DIM_13
 70
     0
 41
2.5
 42
0.5
 44
1.0
 73
     0
 74
     0
 77
     1
 78
     8
140
2.5
147
0.8
172
     1
173
     1
176
     2
177
     2
178
     2
271
     2
340
63D
343
641
344
641
  0
DIMSTYLE
105
67B
102
{ACAD_REACTORS
330
67C
102
}
330
A
100
AcDbSymbolTableRecord
100
AcDbDimStyleTableRecord
  2
ME10_DIM_14
 70
     0
 41
2.5
 42
0.5
 44
1.0
 73
     0
 74
     0
 77
     1
 78
     8
140
2.5
147
0.8
172
     1
173
     1
176
     2
177
     2
178
     2
271
     2
340
63D
343
641
344
641
  0
ENDTAB
  0
TABLE
  2
BLOCK_RECORD
  5
1
330
0
100
AcDbSymbolTable
 70
     7
  0
BLOCK_RECORD
  5
1F
330
1
100
AcDbSymbolTableRecord
100
AcDbBlockTableRecord
  2
*Model_Space
340
22
  0
BLOCK_RECORD
  5
1B
330
1
100
AcDbSymbolTableRecord
100
AcDbBlockTableRecord
  2
*Paper_Space
340
1E
  0
BLOCK_RECORD
  5
23
330
1
100
AcDbSymbolTableRecord
100
AcDbBlockTableRecord
  2
*Paper_Space0
340
26
  0
BLOCK_RECORD
  5
635
330
1
100
AcDbSymbolTableRecord
100
AcDbBlockTableRecord
  2
*D1
340
0
  0
BLOCK_RECORD
  5
641
330
1
100
AcDbSymbolTableRecord
100
AcDbBlockTableRecord
  2
_OPEN30
340
0
  0
BLOCK_RECORD
  5
649
330
1
100
AcDbSymbolTableRecord
100
AcDbBlockTableRecord
  2
*D3
340
0
  0
BLOCK_RECORD
  5
656
330
1
100
AcDbSymbolTableRecord
100
AcDbBlockTableRecord
  2
*D4
340
0
  0
BLOCK_RECORD
  5
663
330
1
100
AcDbSymbolTableRecord
100
AcDbBlockTableRecord
  2
*D5
340
0
  0
BLOCK_RECORD
  5
670
330
1
100
AcDbSymbolTableRecord
100
AcDbBlockTableRecord
  2
*D6
340
0
  0
ENDTAB
  0
ENDSEC
  0
SECTION
  2
BLOCKS
  0
BLOCK
  5
20
330
1F
100
AcDbEntity
  8
0
100
AcDbBlockBegin
  2
*Model_Space
 70
     0
 10
0.0
 20
0.0
 30
0.0
  3
*Model_Space
  1

  0
ENDBLK
  5
21
330
1F
100
AcDbEntity
  8
0
100
AcDbBlockEnd
  0
BLOCK
  5
1C
330
1B
100
AcDbEntity
 67
     1
  8
0
100
AcDbBlockBegin
  2
*Paper_Space
 70
     0
 10
0.0
 20
0.0
 30
0.0
  3
*Paper_Space
  1

  0
ENDBLK
  5
1D
330
1B
100
AcDbEntity
 67
     1
  8
0
100
AcDbBlockEnd
  0
BLOCK
  5
24
330
23
100
AcDbEntity
  8
0
100
AcDbBlockBegin
  2
*Paper_Space0
 70
     0
 10
0.0
 20
0.0
 30
0.0
  3
*Paper_Space0
  1

  0
ENDBLK
  5
25
330
23
100
AcDbEntity
  8
0
100
AcDbBlockEnd
  0
BLOCK
  5
63F
330
635
100
AcDbEntity
  8
0
100
AcDbBlockBegin
  2
*D1
 70
     1
 10
0.0
 20
0.0
 30
0.0
  3
*D1
  1

  0
LINE
  5
636
330
635
100
AcDbEntity
  8
1
  6
Continuous
 62
     2
100
AcDbLine
 10
1740.956941808895
 20
350.258575991757
 30
0.0
 11
1740.956941808895
 21
252.258575991757
 31
0.0
  0
LINE
  5
637
330
635
100
AcDbEntity
  8
1
  6
Continuous
 62
     2
100
AcDbLine
 10
1632.815336403075
 20
252.258575991757
 30
0.0
 11
1741.956941808895
 21
252.258575991757
 31
0.0
  0
LINE
  5
638
330
635
100
AcDbEntity
  8
1
  6
Continuous
 62
     2
100
AcDbLine
 10
1632.815336403075
 20
350.258575991757
 30
0.0
 11
1741.956941808895
 21
350.258575991757
 31
0.0
  0
LINE
  5
639
330
635
100
AcDbEntity
  8
1
 62
     2
100
AcDbLine
 10
1740.956941808895
 20
350.258575991757
 30
0.0
 11
1741.626814789973
 21
347.758575991757
 31
0.0
  0
LINE
  5
63A
330
635
100
AcDbEntity
  8
1
 62
     2
100
AcDbLine
 10
1740.956941808895
 20
350.258575991757
 30
0.0
 11
1740.287068827817
 21
347.758575991757
 31
0.0
  0
LINE
  5
63B
330
635
100
AcDbEntity
  8
1
 62
     2
100
AcDbLine
 10
1740.956941808895
 20
252.258575991757
 30
0.0
 11
1740.287068827817
 21
254.758575991757
 31
0.0
  0
LINE
  5
63C
330
635
100
AcDbEntity
  8
1
 62
     2
100
AcDbLine
 10
1740.956941808895
 20
252.258575991757
 30
0.0
 11
1741.626814789973
 21
254.758575991757
 31
0.0
  0
MTEXT
  5
63E
330
635
100
AcDbEntity
  8
1
 62
     2
100
AcDbMText
 10
1740.156941808895
 20
301.6584022428881
 30
0.0
 40
2.5
 41
0.0
 71
     7
 72
     1
  1
98
  7
CONVERTER_11
 11
0.0
 21
1.0
 31
0.0
 73
     1
 44
0.45454545454545
  0
ENDBLK
  5
640
330
635
100
AcDbEntity
  8
0
100
AcDbBlockEnd
  0
BLOCK
  5
642
330
641
100
AcDbEntity
  8
0
100
AcDbBlockBegin
  2
_OPEN30
 70
     0
 10
0.0
 20
0.0
 30
0.0
  3
_OPEN30
  1

  0
LINE
  5
644
330
641
100
AcDbEntity
  8
0
  6
ByBlock
 62
     0
370
    -2
100
AcDbLine
 10
-1.0
 20
0.267949
 30
0.0
 11
0.0
 21
0.0
 31
0.0
  0
LINE
  5
645
330
641
100
AcDbEntity
  8
0
  6
ByBlock
 62
     0
370
    -2
100
AcDbLine
 10
0.0
 20
0.0
 30
0.0
 11
-1.0
 21
-0.267949
 31
0.0
  0
LINE
  5
646
330
641
100
AcDbEntity
  8
0
  6
ByBlock
 62
     0
370
    -2
100
AcDbLine
 10
0.0
 20
0.0
 30
0.0
 11
-1.0
 21
0.0
 31
0.0
  0
ENDBLK
  5
643
330
641
100
AcDbEntity
  8
0
100
AcDbBlockEnd
  0
BLOCK
  5
652
330
649
100
AcDbEntity
  8
0
100
AcDbBlockBegin
  2
*D3
 70
     1
 10
0.0
 20
0.0
 30
0.0
  3
*D3
  1

  0
LINE
  5
64A
330
649
100
AcDbEntity
  8
1
  6
Continuous
 62
     2
100
AcDbLine
 10
1740.956941808895
 20
207.5696604852539
 30
0.0
 11
1740.956941808895
 21
100.1596604852539
 31
0.0
  0
LINE
  5
64B
330
649
100
AcDbEntity
  8
1
  6
Continuous
 62
     2
100
AcDbLine
 10
1658.815336403073
 20
100.1596604852539
 30
0.0
 11
1741.956941808895
 21
100.1596604852539
 31
0.0
  0
LINE
  5
64C
330
649
100
AcDbEntity
  8
1
  6
Continuous
 62
     2
100
AcDbLine
 10
1581.815336403073
 20
207.5696604852539
 30
0.0
 11
1741.956941808895
 21
207.5696604852539
 31
0.0
  0
LINE
  5
64D
330
649
100
AcDbEntity
  8
1
 62
     2
100
AcDbLine
 10
1740.956941808895
 20
207.5696604852539
 30
0.0
 11
1741.626814789973
 21
205.0696604852539
 31
0.0
  0
LINE
  5
64E
330
649
100
AcDbEntity
  8
1
 62
     2
100
AcDbLine
 10
1740.956941808895
 20
207.5696604852539
 30
0.0
 11
1740.287068827817
 21
205.0696604852539
 31
0.0
  0
LINE
  5
64F
330
649
100
AcDbEntity
  8
1
 62
     2
100
AcDbLine
 10
1740.956941808895
 20
100.1596604852539
 30
0.0
 11
1740.287068827817
 21
102.6596604852539
 31
0.0
  0
LINE
  5
650
330
649
100
AcDbEntity
  8
1
 62
     2
100
AcDbLine
 10
1740.956941808895
 20
100.1596604852539
 30
0.0
 11
1741.626814789973
 21
102.6596604852539
 31
0.0
  0
MTEXT
  5
651
330
649
100
AcDbEntity
  8
1
 62
     2
100
AcDbMText
 10
1740.156941808895
 20
146.0323273809695
 30
0.0
 40
2.5
 41
0.0
 71
     7
 72
     1
  1
\C2;(\C2;108\C2;)
  7
CONVERTER_11
 11
0.0
 21
1.0
 31
0.0
 73
     1
 44
0.45454545454545
  0
ENDBLK
  5
653
330
649
100
AcDbEntity
  8
0
100
AcDbBlockEnd
  0
BLOCK
  5
65F
330
656
100
AcDbEntity
  8
0
100
AcDbBlockBegin
  2
*D4
 70
     1
 10
0.0
 20
0.0
 30
0.0
  3
*D4
  1

  0
LINE
  5
657
330
656
100
AcDbEntity
  8
1
  6
Continuous
 62
     2
100
AcDbLine
 10
1721.315336403073
 20
162.1983740476269
 30
0.0
 11
1708.315336403073
 21
162.1983740476269
 31
0.0
  0
LINE
  5
658
330
656
100
AcDbEntity
  8
1
  6
Continuous
 62
     2
100
AcDbLine
 10
1708.315336403073
 20
151.2841604852538
 30
0.0
 11
1708.315336403073
 21
163.6983740476269
 31
0.0
  0
LINE
  5
659
330
656
100
AcDbEntity
  8
1
  6
Continuous
 62
     2
100
AcDbLine
 10
1721.315336403073
 20
151.2841604852537
 30
0.0
 11
1721.315336403073
 21
163.6983740476269
 31
0.0
  0
LINE
  5
65A
330
656
100
AcDbEntity
  8
1
 62
     2
100
AcDbLine
 10
1721.315336403073
 20
162.1983740476269
 30
0.0
 11
1718.115336403073
 21
161.3409366318473
 31
0.0
  0
LINE
  5
65B
330
656
100
AcDbEntity
  8
1
 62
     2
100
AcDbLine
 10
1721.315336403073
 20
162.1983740476269
 30
0.0
 11
1718.115336403073
 21
163.0558114634065
 31
0.0
  0
LINE
  5
65C
330
656
100
AcDbEntity
  8
1
 62
     2
100
AcDbLine
 10
1708.315336403073
 20
162.1983740476269
 30
0.0
 11
1711.515336403073
 21
163.0558114634065
 31
0.0
  0
LINE
  5
65D
330
656
100
AcDbEntity
  8
1
 62
     2
100
AcDbLine
 10
1708.315336403073
 20
162.1983740476269
 30
0.0
 11
1711.515336403073
 21
161.3409366318473
 31
0.0
  0
MTEXT
  5
65E
330
656
100
AcDbEntity
  8
1
 62
     2
100
AcDbMText
 10
1712.466617695183
 20
163.1983740476269
 30
0.0
 40
3.2
 41
0.0
 71
     7
 72
     1
  1
13
  7
CONVERTER_11
 11
0.9999999999970619
 21
2.424068405545306E-6
 31
0.0
 73
     1
 44
0.45454545454545
  0
ENDBLK
  5
660
330
656
100
AcDbEntity
  8
0
100
AcDbBlockEnd
  0
BLOCK
  5
66C
330
663
100
AcDbEntity
  8
0
100
AcDbBlockBegin
  2
*D5
 70
     1
 10
0.0
 20
0.0
 30
0.0
  3
*D5
  1

  0
LINE
  5
664
330
663
100
AcDbEntity
  8
1
  6
Continuous
 62
     2
100
AcDbLine
 10
1531.315336403073
 20
82.8842472262025
 30
0.0
 11
1721.315336403073
 21
82.8842472262025
 31
0.0
  0
LINE
  5
665
330
663
100
AcDbEntity
  8
1
  6
Continuous
 62
     2
100
AcDbLine
 10
1721.315336403073
 20
119.035160485254
 30
0.0
 11
1721.315336403073
 21
81.8842472262025
 31
0.0
  0
LINE
  5
666
330
663
100
AcDbEntity
  8
1
  6
Continuous
 62
     2
100
AcDbLine
 10
1531.315336403073
 20
119.035160485254
 30
0.0
 11
1531.315336403073
 21
81.8842472262025
 31
0.0
  0
LINE
  5
667
330
663
100
AcDbEntity
  8
1
 62
     2
100
AcDbLine
 10
1531.315336403073
 20
82.8842472262025
 30
0.0
 11
1533.815336403073
 21
83.5541202072803
 31
0.0
  0
LINE
  5
668
330
663
100
AcDbEntity
  8
1
 62
     2
100
AcDbLine
 10
1531.315336403073
 20
82.8842472262025
 30
0.0
 11
1533.815336403073
 21
82.2143742451247
 31
0.0
  0
LINE
  5
669
330
663
100
AcDbEntity
  8
1
 62
     2
100
AcDbLine
 10
1721.315336403073
 20
82.8842472262025
 30
0.0
 11
1718.815336403073
 21
82.2143742451247
 31
0.0
  0
LINE
  5
66A
330
663
100
AcDbEntity
  8
1
 62
     2
100
AcDbLine
 10
1721.315336403073
 20
82.8842472262025
 30
0.0
 11
1718.815336403073
 21
83.5541202072803
 31
0.0
  0
MTEXT
  5
66B
330
663
100
AcDbEntity
  8
1
 62
     2
100
AcDbMText
 10
1623.355399912534
 20
83.6842472262025
 30
0.0
 40
2.5
 41
0.0
 71
     7
 72
     1
  1
190
  7
CONVERTER_11
 11
0.9999999999970619
 21
2.424068405545306E-6
 31
0.0
 73
     1
 44
0.45454545454545
  0
ENDBLK
  5
66D
330
663
100
AcDbEntity
  8
0
100
AcDbBlockEnd
  0
BLOCK
  5
679
330
670
100
AcDbEntity
  8
0
100
AcDbBlockBegin
  2
*D6
 70
     1
 10
0.0
 20
0.0
 30
0.0
  3
*D6
  1

  0
LINE
  5
671
330
670
100
AcDbEntity
  8
1
  6
Continuous
 62
     2
100
AcDbLine
 10
1729.827480345095
 20
135.1596604852539
 30
0.0
 11
1729.827480345095
 21
100.1596604852539
 31
0.0
  0
LINE
  5
672
330
670
100
AcDbEntity
  8
1
  6
Continuous
 62
     2
100
AcDbLine
 10
1658.815336403073
 20
100.1596604852539
 30
0.0
 11
1730.827480345095
 21
100.1596604852539
 31
0.0
  0
LINE
  5
673
330
670
100
AcDbEntity
  8
1
  6
Continuous
 62
     2
100
AcDbLine
 10
1730.84202015558
 20
135.1596604852539
 30
0.0
 11
1728.827480345095
 21
135.1596604852539
 31
0.0
  0
LINE
  5
674
330
670
100
AcDbEntity
  8
1
 62
     2
100
AcDbLine
 10
1729.827480345095
 20
135.1596604852539
 30
0.0
 11
1730.497353326173
 21
132.6596604852539
 31
0.0
  0
LINE
  5
675
330
670
100
AcDbEntity
  8
1
 62
     2
100
AcDbLine
 10
1729.827480345095
 20
135.1596604852539
 30
0.0
 11
1729.157607364017
 21
132.6596604852539
 31
0.0
  0
LINE
  5
676
330
670
100
AcDbEntity
  8
1
 62
     2
100
AcDbLine
 10
1729.827480345095
 20
100.1596604852539
 30
0.0
 11
1729.157607364017
 21
102.6596604852539
 31
0.0
  0
LINE
  5
677
330
670
100
AcDbEntity
  8
1
 62
     2
100
AcDbLine
 10
1729.827480345095
 20
100.1596604852539
 30
0.0
 11
1730.497353326173
 21
102.6596604852539
 31
0.0
  0
MTEXT
  5
678
330
670
100
AcDbEntity
  8
1
 62
     2
100
AcDbMText
 10
1729.027480345095
 20
116.6476195535561
 30
0.0
 40
2.5
 41
0.0
 71
     7
 72
     1
  1
35
  7
CONVERTER_11
 11
0.0
 21
1.0
 31
0.0
 73
     1
 44
0.45454545454545
  0
ENDBLK
  5
67A
330
670
100
AcDbEntity
  8
0
100
AcDbBlockEnd
  0
ENDSEC
  0
SECTION
  2
ENTITIES
  0
LINE
  5
43
330
1F
100
AcDbEntity
  8
1
  6
Continuous
 62
     2
100
AcDbLine
 10
1668.084086403073
 20
26.2221604852539
 30
0.0
 11
1672.809086403073
 21
26.2221604852539
 31
0.0
  0
LINE
  5
44
330
1F
100
AcDbEntity
  8
1
  6
Continuous
 62
     2
100
AcDbLine
 10
1670.559086403073
 20
34.4346604852539
 30
0.0
 11
1670.559086403073
 21
26.2221604852539
 31
0.0
  0
LINE
  5
45
330
1F
100
AcDbEntity
  8
1
  6
Continuous
 62
     2
100
AcDbLine
 10
1668.871586403073
 20
31.0596604852539
 30
0.0
 11
1672.359086403073
 21
31.0596604852539
 31
0.0
  0
LINE
  5
46
330
1F
100
AcDbEntity
  8
1
  6
Continuous
 62
     2
100
AcDbLine
 10
1667.296586403073
 20
30.7221604852539
 30
0.0
 11
1668.534086403073
 21
29.3721604852539
 31
0.0
  0
LINE
  5
47
330
1F
100
AcDbEntity
  8
1
  6
Continuous
 62
     2
100
AcDbLine
 10
1666.846586403073
 20
32.7471604852539
 30
0.0
 11
1666.846586403073
 21
34.4346604852539
 31
0.0
  0
LINE
  5
48
330
1F
100
AcDbEntity
  8
1
  6
Continuous
 62
     2
100
AcDbLine
 10
1668.084086403073
 20
32.7471604852539
 30
0.0
 11
1665.271586403073
 21
32.7471604852539
 31
0.0
  0
LINE
  5
49
330
1F
100
AcDbEntity
  8
1
  6
Continuous
 62
     2
100
AcDbLine
 10
1667.071586403073
 20
31.2846604852539
 30
0.0
 11
1668.084086403073
 21
32.7471604852539
 31
0.0
  0
LINE
  5
4A
330
1F
100
AcDbEntity
  8
1
  6
Continuous
 62
     2
100
AcDbLine
 10
1665.834086403073
 20
29.9346604852539
 30
0.0
 11
1667.071586403073
 21
31.2846604852539
 31
0.0
  0
LINE
  5
4B
330
1F
100
AcDbEntity
  8
1
  6
Continuous
 62
     2
100
AcDbLine
 10
1664.821586403073
 20
29.0346604852539
 30
0.0
 11
1665.834086403073
 21
29.9346604852539
 31
0.0
  0
LINE
  5
4C
330
1F
100
AcDbEntity
  8
1
  6
Continuous
 62
     2
100
AcDbLine
 10
1666.846586403073
 20
25.9971604852539
 30
0.0
 11
1666.846586403073
 21
31.0596604852539
 31
0.0
  0
LINE
  5
4D
330
1F
100
AcDbEntity
  8
1
  6
Continuous
 62
     2
100
AcDbLine
 10
1659.871586403073
 20
29.0346604852539
 30
0.0
 11
1657.284086403073
 21
25.9971604852539
 31
0.0
  0
LINE
  5
4E
330
1F
100
AcDbEntity
  8
1
  6
Continuous
 62
     2
100
AcDbLine
 10
1662.121586403073
 20
26.5596604852539
 30
0.0
 11
1661.109086403073
 21
27.6846604852539
 31
0.0
  0
LINE
  5
4F
330
1F
100
AcDbEntity
  8
1
  6
Continuous
 62
     2
100
AcDbLine
 10
1662.796586403073
 20
25.6596604852539
 30
0.0
 11
1662.121586403073
 21
26.5596604852539
 31
0.0
  0
LINE
  5
50
330
1F
100
AcDbEntity
  8
1
  6
Continuous
 62
     2
100
AcDbLine
 10
1656.609086403073
 20
25.9971604852539
 30
0.0
 11
1662.121586403073
 21
26.5596604852539
 31
0.0
  0
LINE
  5
51
330
1F
100
AcDbEntity
  8
1
  6
Continuous
 62
     2
100
AcDbLine
 10
1657.059086403073
 20
29.3721604852539
 30
0.0
 11
1662.796586403073
 21
29.3721604852539
 31
0.0
  0
LINE
  5
52
330
1F
100
AcDbEntity
  8
1
  6
Continuous
 62
     2
100
AcDbLine
 10
1658.071586403073
 20
30.7221604852539
 30
0.0
 11
1661.559086403073
 21
30.7221604852539
 31
0.0
  0
LINE
  5
53
330
1F
100
AcDbEntity
  8
1
  6
Continuous
 62
     2
100
AcDbLine
 10
1659.871586403073
 20
34.4346604852539
 30
0.0
 11
1663.809086403073
 21
30.1596604852539
 31
0.0
  0
LINE
  5
54
330
1F
100
AcDbEntity
  8
1
  6
Continuous
 62
     2
100
AcDbLine
 10
1659.871586403073
 20
34.4346604852539
 30
0.0
 11
1655.821586403073
 21
30.1596604852539
 31
0.0
  0
LINE
  5
55
330
1F
100
AcDbEntity
  8
1
  6
Continuous
 62
     2
100
AcDbLine
 10
1654.021586403073
 20
25.9971604852539
 30
0.0
 11
1654.809086403073
 21
26.7846604852539
 31
0.0
  0
LINE
  5
56
330
1F
100
AcDbEntity
  8
1
  6
Continuous
 62
     2
100
AcDbLine
 10
1653.121586403073
 20
27.1221604852539
 30
0.0
 11
1654.021586403073
 21
25.9971604852539
 31
0.0
  0
LINE
  5
57
330
1F
100
AcDbEntity
  8
1
  6
Continuous
 62
     2
100
AcDbLine
 10
1652.109086403073
 20
29.0346604852539
 30
0.0
 11
1653.121586403073
 21
27.1221604852539
 31
0.0
  0
LINE
  5
58
330
1F
100
AcDbEntity
  8
1
  6
Continuous
 62
     2
100
AcDbLine
 10
1651.546586403073
 20
31.2846604852539
 30
0.0
 11
1652.109086403073
 21
29.0346604852539
 31
0.0
  0
LINE
  5
59
330
1F
100
AcDbEntity
  8
1
  6
Continuous
 62
     2
100
AcDbLine
 10
1651.321586403073
 20
34.6596604852539
 30
0.0
 11
1651.546586403073
 21
31.2846604852539
 31
0.0
  0
LINE
  5
5A
330
1F
100
AcDbEntity
  8
1
  6
Continuous
 62
     2
100
AcDbLine
 10
1652.784086403073
 20
33.5346604852539
 30
0.0
 11
1652.109086403073
 21
34.4346604852539
 31
0.0
  0
LINE
  5
5B
330
1F
100
AcDbEntity
  8
1
  6
Continuous
 62
     2
100
AcDbLine
 10
1646.821586403073
 20
32.7471604852539
 30
0.0
 11
1654.021586403073
 21
32.7471604852539
 31
0.0
  0
LINE
  5
5C
330
1F
100
AcDbEntity
  8
1
  6
Continuous
 62
     2
100
AcDbLine
 10
1649.071586403073
 20
30.4971604852539
 30
0.0
 11
1649.071586403073
 21
27.3471604852539
 31
0.0
  0
LINE
  5
5D
330
1F
100
AcDbEntity
  8
1
  6
Continuous
 62
     2
100
AcDbLine
 10
1650.871586403073
 20
30.4971604852539
 30
0.0
 11
1647.271586403073
 21
30.4971604852539
 31
0.0
  0
LINE
  5
5E
330
1F
100
AcDbEntity
  8
1
  6
Continuous
 62
     2
100
AcDbLine
 10
1647.271586403073
 20
26.7846604852539
 30
0.0
 11
1650.871586403073
 21
27.9096604852539
 31
0.0
  0
LINE
  5
5F
330
1F
100
AcDbEntity
  8
1
  6
Continuous
 62
     2
100
AcDbLine
 10
1644.571586403073
 20
27.9096604852539
 30
0.0
 11
1645.584086403073
 21
25.9971604852539
 31
0.0
  0
LINE
  5
60
330
1F
100
AcDbEntity
  8
1
  6
Continuous
 62
     2
100
AcDbLine
 10
1643.334086403073
 20
30.4971604852539
 30
0.0
 11
1644.571586403073
 21
27.9096604852539
 31
0.0
  0
LINE
  5
61
330
1F
100
AcDbEntity
  8
1
  6
Continuous
 62
     2
100
AcDbLine
 10
1642.546586403073
 20
28.4721604852539
 30
0.0
 11
1643.334086403073
 21
30.4971604852539
 31
0.0
  0
LINE
  5
62
330
1F
100
AcDbEntity
  8
1
  6
Continuous
 62
     2
100
AcDbLine
 10
1641.534086403073
 20
27.1221604852539
 30
0.0
 11
1642.546586403073
 21
28.4721604852539
 31
0.0
  0
LINE
  5
63
330
1F
100
AcDbEntity
  8
1
  6
Continuous
 62
     2
100
AcDbLine
 10
1640.859086403073
 20
25.9971604852539
 30
0.0
 11
1641.534086403073
 21
27.1221604852539
 31
0.0
  0
LINE
  5
64
330
1F
100
AcDbEntity
  8
1
  6
Continuous
 62
     2
100
AcDbLine
 10
1643.334086403073
 20
34.6596604852539
 30
0.0
 11
1643.334086403073
 21
25.6596604852539
 31
0.0
  0
LINE
  5
65
330
1F
100
AcDbEntity
  8
1
  6
Continuous
 62
     2
100
AcDbLine
 10
1645.584086403073
 20
30.4971604852539
 30
0.0
 11
1641.309086403073
 21
30.4971604852539
 31
0.0
  0
LINE
  5
66
330
1F
100
AcDbEntity
  8
1
  6
Continuous
 62
     2
100
AcDbLine
 10
1642.096586403073
 20
32.4096604852539
 30
0.0
 11
1645.359086403073
 21
32.4096604852539
 31
0.0
  0
LINE
  5
67
330
1F
100
AcDbEntity
  8
1
  6
Continuous
 62
     2
100
AcDbLine
 10
1642.096586403073
 20
32.4096604852539
 30
0.0
 11
1642.321586403073
 21
33.8721604852539
 31
0.0
  0
LINE
  5
68
330
1F
100
AcDbEntity
  8
1
  6
Continuous
 62
     2
100
AcDbLine
 10
1641.309086403073
 20
31.0596604852539
 30
0.0
 11
1642.096586403073
 21
32.4096604852539
 31
0.0
  0
LINE
  5
69
330
1F
100
AcDbEntity
  8
1
  6
Continuous
 62
     2
100
AcDbLine
 10
1639.621586403073
 20
32.1846604852539
 30
0.0
 11
1640.859086403073
 21
29.9346604852539
 31
0.0
  0
LINE
  5
6A
330
1F
100
AcDbEntity
  8
1
  6
Continuous
 62
     2
100
AcDbLine
 10
1638.046586403073
 20
28.2471604852539
 30
0.0
 11
1639.621586403073
 21
32.1846604852539
 31
0.0
  0
LINE
  5
6B
330
1F
100
AcDbEntity
  8
1
  6
Continuous
 62
     2
100
AcDbLine
 10
1640.859086403073
 20
32.1846604852539
 30
0.0
 11
1638.271586403073
 21
32.1846604852539
 31
0.0
  0
LINE
  5
6C
330
1F
100
AcDbEntity
  8
1
  6
Continuous
 62
     2
100
AcDbLine
 10
1639.621586403073
 20
25.9971604852539
 30
0.0
 11
1639.621586403073
 21
34.6596604852539
 31
0.0
  0
LINE
  5
6D
330
1F
100
AcDbEntity
  8
1
  6
Continuous
 62
     2
100
AcDbLine
 10
1633.546586403073
 20
32.7471604852539
 30
0.0
 11
1636.021586403073
 21
32.7471604852539
 31
0.0
  0
LINE
  5
6E
330
1F
100
AcDbEntity
  8
1
  6
Continuous
 62
     2
100
AcDbLine
 10
1633.546586403073
 20
31.2846604852539
 30
0.0
 11
1636.021586403073
 21
31.2846604852539
 31
0.0
  0
LINE
  5
6F
330
1F
100
AcDbEntity
  8
1
  6
Continuous
 62
     2
100
AcDbLine
 10
1633.546586403073
 20
34.0971604852539
 30
0.0
 11
1633.546586403073
 21
31.2846604852539
 31
0.0
  0
LINE
  5
70
330
1F
100
AcDbEntity
  8
1
  6
Continuous
 62
     2
100
AcDbLine
 10
1636.021586403073
 20
34.0971604852539
 30
0.0
 11
1633.546586403073
 21
34.0971604852539
 31
0.0
  0
LINE
  5
71
330
1F
100
AcDbEntity
  8
1
  6
Continuous
 62
     2
100
AcDbLine
 10
1636.021586403073
 20
26.2221604852539
 30
0.0
 11
1636.021586403073
 21
34.0971604852539
 31
0.0
  0
LINE
  5
72
330
1F
100
AcDbEntity
  8
1
  6
Continuous
 62
     2
100
AcDbLine
 10
1635.796586403073
 20
25.9971604852539
 30
0.0
 11
1636.021586403073
 21
26.2221604852539
 31
0.0
  0
LINE
  5
73
330
1F
100
AcDbEntity
  8
1
  6
Continuous
 62
     2
100
AcDbLine
 10
1635.121586403073
 20
25.9971604852539
 30
0.0
 11
1635.796586403073
 21
25.9971604852539
 31
0.0
  0
LINE
  5
74
330
1F
100
AcDbEntity
  8
1
  6
Continuous
 62
     2
100
AcDbLine
 10
1632.084086403073
 20
32.7471604852539
 30
0.0
 11
1629.609086403073
 21
32.7471604852539
 31
0.0
  0
LINE
  5
75
330
1F
100
AcDbEntity
  8
1
  6
Continuous
 62
     2
100
AcDbLine
 10
1632.084086403073
 20
31.2846604852539
 30
0.0
 11
1629.609086403073
 21
31.2846604852539
 31
0.0
  0
LINE
  5
76
330
1F
100
AcDbEntity
  8
1
  6
Continuous
 62
     2
100
AcDbLine
 10
1632.084086403073
 20
34.0971604852539
 30
0.0
 11
1632.084086403073
 21
31.2846604852539
 31
0.0
  0
LINE
  5
77
330
1F
100
AcDbEntity
  8
1
  6
Continuous
 62
     2
100
AcDbLine
 10
1629.609086403073
 20
34.0971604852539
 30
0.0
 11
1632.084086403073
 21
34.0971604852539
 31
0.0
  0
LINE
  5
78
330
1F
100
AcDbEntity
  8
1
  6
Continuous
 62
     2
100
AcDbLine
 10
1629.609086403073
 20
25.9971604852539
 30
0.0
 11
1629.609086403073
 21
34.0971604852539
 31
0.0
  0
LINE
  5
79
330
1F
100
AcDbEntity
  8
1
  6
Continuous
 62
     2
100
AcDbLine
 10
1626.796586403073
 20
31.0596604852539
 30
0.0
 11
1627.809086403073
 21
30.1596604852539
 31
0.0
  0
LINE
  5
7A
330
1F
100
AcDbEntity
  8
1
  6
Continuous
 62
     2
100
AcDbLine
 10
1625.109086403073
 20
32.9721604852539
 30
0.0
 11
1626.796586403073
 21
31.0596604852539
 31
0.0
  0
LINE
  5
7B
330
1F
100
AcDbEntity
  8
1
  6
Continuous
 62
     2
100
AcDbLine
 10
1623.871586403073
 20
34.6596604852539
 30
0.0
 11
1625.109086403073
 21
32.9721604852539
 31
0.0
  0
LINE
  5
7C
330
1F
100
AcDbEntity
  8
1
  6
Continuous
 62
     2
100
AcDbLine
 10
1622.521586403073
 20
32.9721604852539
 30
0.0
 11
1623.871586403073
 21
34.6596604852539
 31
0.0
  0
LINE
  5
7D
330
1F
100
AcDbEntity
  8
1
  6
Continuous
 62
     2
100
AcDbLine
 10
1620.834086403073
 20
31.0596604852539
 30
0.0
 11
1622.521586403073
 21
32.9721604852539
 31
0.0
  0
LINE
  5
7E
330
1F
100
AcDbEntity
  8
1
  6
Continuous
 62
     2
100
AcDbLine
 10
1619.821586403073
 20
30.1596604852539
 30
0.0
 11
1620.834086403073
 21
31.0596604852539
 31
0.0
  0
LINE
  5
7F
330
1F
100
AcDbEntity
  8
1
  6
Continuous
 62
     2
100
AcDbLine
 10
1625.109086403073
 20
27.1221604852539
 30
0.0
 11
1625.559086403073
 21
28.4721604852539
 31
0.0
  0
LINE
  5
80
330
1F
100
AcDbEntity
  8
1
  6
Continuous
 62
     2
100
AcDbLine
 10
1622.071586403073
 20
28.4721604852539
 30
0.0
 11
1622.521586403073
 21
27.1221604852539
 31
0.0
  0
LINE
  5
81
330
1F
100
AcDbEntity
  8
1
  6
Continuous
 62
     2
100
AcDbLine
 10
1626.346586403073
 20
29.5971604852539
 30
0.0
 11
1621.284086403073
 21
29.5971604852539
 31
0.0
  0
LINE
  5
82
330
1F
100
AcDbEntity
  8
1
  6
Continuous
 62
     2
100
AcDbLine
 10
1622.071586403073
 20
31.2846604852539
 30
0.0
 11
1625.559086403073
 21
31.2846604852539
 31
0.0
  0
LINE
  5
83
330
1F
100
AcDbEntity
  8
1
  6
Continuous
 62
     2
100
AcDbLine
 10
1623.871586403073
 20
25.9971604852539
 30
0.0
 11
1623.871586403073
 21
31.2846604852539
 31
0.0
  0
LINE
  5
84
330
1F
100
AcDbEntity
  8
1
  6
Continuous
 62
     2
100
AcDbLine
 10
1620.609086403073
 20
25.9971604852539
 30
0.0
 11
1626.796586403073
 21
25.9971604852539
 31
0.0
  0
LINE
  5
85
330
1F
100
AcDbEntity
  8
1
  6
Continuous
 62
     2
100
AcDbLine
 10
1617.121586403073
 20
28.4721604852539
 30
0.0
 11
1618.359086403073
 21
30.1596604852539
 31
0.0
  0
LINE
  5
86
330
1F
100
AcDbEntity
  8
1
  6
Continuous
 62
     2
100
AcDbLine
 10
1615.096586403073
 20
27.3471604852539
 30
0.0
 11
1617.121586403073
 21
28.4721604852539
 31
0.0
  0
LINE
  5
87
330
1F
100
AcDbEntity
  8
1
  6
Continuous
 62
     2
100
AcDbLine
 10
1615.096586403073
 20
32.4096604852539
 30
0.0
 11
1615.096586403073
 21
27.3471604852539
 31
0.0
  0
LINE
  5
88
330
1F
100
AcDbEntity
  8
1
  6
Continuous
 62
     2
100
AcDbLine
 10
1613.071586403073
 20
30.1596604852539
 30
0.0
 11
1613.296586403073
 21
32.4096604852539
 31
0.0
  0
LINE
  5
89
330
1F
100
AcDbEntity
  8
1
  6
Continuous
 62
     2
100
AcDbLine
 10
1612.621586403073
 20
28.4721604852539
 30
0.0
 11
1613.071586403073
 21
30.1596604852539
 31
0.0
  0
LINE
  5
8A
330
1F
100
AcDbEntity
  8
1
  6
Continuous
 62
     2
100
AcDbLine
 10
1611.834086403073
 20
27.1221604852539
 30
0.0
 11
1612.621586403073
 21
28.4721604852539
 31
0.0
  0
LINE
  5
8B
330
1F
100
AcDbEntity
  8
1
  6
Continuous
 62
     2
100
AcDbLine
 10
1606.096586403073
 20
26.5596604852539
 30
0.0
 11
1607.559086403073
 21
26.7846604852539
 31
0.0
  0
LINE
  5
8C
330
1F
100
AcDbEntity
  8
1
  6
Continuous
 62
     2
100
AcDbLine
 10
1603.621586403073
 20
26.7846604852539
 30
0.0
 11
1606.096586403073
 21
26.5596604852539
 31
0.0
  0
LINE
  5
8D
330
1F
100
AcDbEntity
  8
1
  6
Continuous
 62
     2
100
AcDbLine
 10
1603.284086403073
 20
27.6846604852539
 30
0.0
 11
1603.621586403073
 21
26.7846604852539
 31
0.0
  0
LINE
  5
8E
330
1F
100
AcDbEntity
  8
1
  6
Continuous
 62
     2
100
AcDbLine
 10
1603.284086403073
 20
32.4096604852539
 30
0.0
 11
1603.284086403073
 21
27.6846604852539
 31
0.0
  0
LINE
  5
8F
330
1F
100
AcDbEntity
  8
1
  6
Continuous
 62
     2
100
AcDbLine
 10
1608.121586403073
 20
32.9721604852539
 30
0.0
 11
1608.796586403073
 21
32.1846604852539
 31
0.0
  0
LINE
  5
90
330
1F
100
AcDbEntity
  8
1
  6
Continuous
 62
     2
100
AcDbLine
 10
1608.346586403073
 20
31.6221604852539
 30
0.0
 11
1607.559086403073
 21
32.4096604852539
 31
0.0
  0
LINE
  5
91
330
1F
100
AcDbEntity
  8
1
  6
Continuous
 62
     2
100
AcDbLine
 10
1605.534086403073
 20
30.1596604852539
 30
0.0
 11
1607.109086403073
 21
31.0596604852539
 31
0.0
  0
LINE
  5
92
330
1F
100
AcDbEntity
  8
1
  6
Continuous
 62
     2
100
AcDbLine
 10
1603.284086403073
 20
29.3721604852539
 30
0.0
 11
1605.534086403073
 21
30.1596604852539
 31
0.0
  0
LINE
  5
93
330
1F
100
AcDbEntity
  8
1
  6
Continuous
 62
     2
100
AcDbLine
 10
1597.771586403073
 20
28.4721604852539
 30
0.0
 11
1599.346586403073
 21
26.7846604852539
 31
0.0
  0
LINE
  5
94
330
1F
100
AcDbEntity
  8
1
  6
Continuous
 62
     2
100
AcDbLine
 10
1596.534086403073
 20
29.5971604852539
 30
0.0
 11
1597.771586403073
 21
28.4721604852539
 31
0.0
  0
LINE
  5
95
330
1F
100
AcDbEntity
  8
1
  6
Continuous
 62
     2
100
AcDbLine
 10
1599.571586403073
 20
33.5346604852539
 30
0.0
 11
1600.359086403073
 21
32.7471604852539
 31
0.0
  0
LINE
  5
96
330
1F
100
AcDbEntity
  8
1
  6
Continuous
 62
     2
100
AcDbLine
 10
1599.121586403073
 20
32.9721604852539
 30
0.0
 11
1599.796586403073
 21
32.1846604852539
 31
0.0
  0
LINE
  5
97
330
1F
100
AcDbEntity
  8
1
  6
Continuous
 62
     2
100
AcDbLine
 10
1598.109086403073
 20
32.4096604852539
 30
0.0
 11
1594.846586403073
 21
32.4096604852539
 31
0.0
  0
LINE
  5
98
330
1F
100
AcDbEntity
  8
1
  6
Continuous
 62
     2
100
AcDbLine
 10
1597.321586403073
 20
30.7221604852539
 30
0.0
 11
1598.109086403073
 21
32.4096604852539
 31
0.0
  0
LINE
  5
99
330
1F
100
AcDbEntity
  8
1
  6
Continuous
 62
     2
100
AcDbLine
 10
1595.521586403073
 20
28.2471604852539
 30
0.0
 11
1597.321586403073
 21
30.7221604852539
 31
0.0
  0
LINE
  5
9A
330
1F
100
AcDbEntity
  8
1
  6
Continuous
 62
     2
100
AcDbLine
 10
1593.834086403073
 20
26.7846604852539
 30
0.0
 11
1595.521586403073
 21
28.2471604852539
 31
0.0
  0
LINE
  5
9B
330
1F
100
AcDbEntity
  8
1
  6
Continuous
 62
     2
100
AcDbLine
 10
1590.796586403073
 20
32.1846604852539
 30
0.0
 11
1588.546586403073
 21
29.5971604852539
 31
0.0
  0
LINE
  5
9C
330
1F
100
AcDbEntity
  8
1
  6
Continuous
 62
     2
100
AcDbLine
 10
1585.059086403073
 20
32.1846604852539
 30
0.0
 11
1590.796586403073
 21
32.1846604852539
 31
0.0
  0
LINE
  5
9D
330
1F
100
AcDbEntity
  8
1
  6
Continuous
 62
     2
100
AcDbLine
 10
1587.871586403073
 20
29.5971604852539
 30
0.0
 11
1588.096586403073
 21
31.0596604852539
 31
0.0
  0
LINE
  5
9E
330
1F
100
AcDbEntity
  8
1
  6
Continuous
 62
     2
100
AcDbLine
 10
1587.309086403073
 20
27.9096604852539
 30
0.0
 11
1587.871586403073
 21
29.5971604852539
 31
0.0
  0
LINE
  5
9F
330
1F
100
AcDbEntity
  8
1
  6
Continuous
 62
     2
100
AcDbLine
 10
1586.296586403073
 20
26.2221604852539
 30
0.0
 11
1587.309086403073
 21
27.9096604852539
 31
0.0
  0
LINE
  5
A0
330
1F
100
AcDbEntity
  8
1
  6
Continuous
 62
     2
100
AcDbLine
 10
1692.215336403073
 20
53.4721604852539
 30
0.0
 11
1692.777836403073
 21
52.6846604852539
 31
0.0
  0
LINE
  5
A1
330
1F
100
AcDbEntity
  8
1
  6
Continuous
 62
     2
100
AcDbLine
 10
1691.540336403073
 20
54.3721604852539
 30
0.0
 11
1692.215336403073
 21
53.4721604852539
 31
0.0
  0
LINE
  5
A2
330
1F
100
AcDbEntity
  8
1
  6
Continuous
 62
     2
100
AcDbLine
 10
1690.527836403073
 20
55.1596604852539
 30
0.0
 11
1691.540336403073
 21
54.3721604852539
 31
0.0
  0
LINE
  5
A3
330
1F
100
AcDbEntity
  8
1
  6
Continuous
 62
     2
100
AcDbLine
 10
1689.965336403073
 20
56.2846604852539
 30
0.0
 11
1689.290336403073
 21
57.7471604852539
 31
0.0
  0
LINE
  5
A4
330
1F
100
AcDbEntity
  8
1
  6
Continuous
 62
     2
100
AcDbLine
 10
1691.315336403073
 20
56.6221604852539
 30
0.0
 11
1690.752836403073
 21
57.9721604852539
 31
0.0
  0
LINE
  5
A5
330
1F
100
AcDbEntity
  8
1
  6
Continuous
 62
     2
100
AcDbLine
 10
1692.777836403073
 20
56.0596604852539
 30
0.0
 11
1693.565336403073
 21
57.7471604852539
 31
0.0
  0
LINE
  5
A6
330
1F
100
AcDbEntity
  8
1
  6
Continuous
 62
     2
100
AcDbLine
 10
1691.315336403073
 20
53.8096604852539
 30
0.0
 11
1692.777836403073
 21
56.0596604852539
 31
0.0
  0
LINE
  5
A7
330
1F
100
AcDbEntity
  8
1
  6
Continuous
 62
     2
100
AcDbLine
 10
1690.527836403073
 20
52.9096604852539
 30
0.0
 11
1691.315336403073
 21
53.8096604852539
 31
0.0
  0
LINE
  5
A8
330
1F
100
AcDbEntity
  8
1
  6
Continuous
 62
     2
100
AcDbLine
 10
1689.290336403073
 20
52.1221604852539
 30
0.0
 11
1690.527836403073
 21
52.9096604852539
 31
0.0
  0
LINE
  5
A9
330
1F
100
AcDbEntity
  8
1
  6
Continuous
 62
     2
100
AcDbLine
 10
1688.052836403073
 20
59.0971604852539
 30
0.0
 11
1688.052836403073
 21
50.9971604852539
 31
0.0
  0
LINE
  5
AA
330
1F
100
AcDbEntity
  8
1
  6
Continuous
 62
     2
100
AcDbLine
 10
1694.465336403073
 20
59.0971604852539
 30
0.0
 11
1688.052836403073
 21
59.0971604852539
 31
0.0
  0
LINE
  5
AB
330
1F
100
AcDbEntity
  8
1
  6
Continuous
 62
     2
100
AcDbLine
 10
1694.465336403073
 20
50.9971604852539
 30
0.0
 11
1694.465336403073
 21
59.0971604852539
 31
0.0
  0
LINE
  5
AC
330
1F
100
AcDbEntity
  8
1
  6
Continuous
 62
     2
100
AcDbLine
 10
1688.052836403073
 20
50.9971604852539
 30
0.0
 11
1694.465336403073
 21
50.9971604852539
 31
0.0
  0
LINE
  5
AD
330
1F
100
AcDbEntity
  8
1
  6
Continuous
 62
     2
100
AcDbLine
 10
1684.227836403073
 20
53.2471604852539
 30
0.0
 11
1685.802836403073
 21
50.6596604852539
 31
0.0
  0
LINE
  5
AE
330
1F
100
AcDbEntity
  8
1
  6
Continuous
 62
     2
100
AcDbLine
 10
1680.740336403073
 20
50.9971604852539
 30
0.0
 11
1685.015336403073
 21
51.7846604852539
 31
0.0
  0
LINE
  5
AF
330
1F
100
AcDbEntity
  8
1
  6
Continuous
 62
     2
100
AcDbLine
 10
1682.990336403073
 20
54.9346604852539
 30
0.0
 11
1681.752836403073
 21
51.2221604852539
 31
0.0
  0
LINE
  5
B0
330
1F
100
AcDbEntity
  8
1
  6
Continuous
 62
     2
100
AcDbLine
 10
1680.290336403073
 20
54.9346604852539
 30
0.0
 11
1686.027836403073
 21
54.9346604852539
 31
0.0
  0
LINE
  5
B1
330
1F
100
AcDbEntity
  8
1
  6
Continuous
 62
     2
100
AcDbLine
 10
1683.215336403073
 20
59.4346604852539
 30
0.0
 11
1683.215336403073
 21
54.9346604852539
 31
0.0
  0
LINE
  5
B2
330
1F
100
AcDbEntity
  8
1
  6
Continuous
 62
     2
100
AcDbLine
 10
1680.965336403073
 20
57.1846604852539
 30
0.0
 11
1685.802836403073
 21
57.1846604852539
 31
0.0
  0
LINE
  5
B3
330
1F
100
AcDbEntity
  8
1
  6
Continuous
 62
     2
100
AcDbLine
 10
1679.052836403073
 20
59.0971604852539
 30
0.0
 11
1679.727836403073
 21
57.9721604852539
 31
0.0
  0
LINE
  5
B4
330
1F
100
AcDbEntity
  8
1
  6
Continuous
 62
     2
100
AcDbLine
 10
1679.052836403073
 20
55.7221604852539
 30
0.0
 11
1678.265336403073
 21
56.6221604852539
 31
0.0
  0
LINE
  5
B5
330
1F
100
AcDbEntity
  8
1
  6
Continuous
 62
     2
100
AcDbLine
 10
1678.490336403073
 20
50.6596604852539
 30
0.0
 11
1679.727836403073
 21
54.3721604852539
 31
0.0
  0
LINE
  5
B6
330
1F
100
AcDbEntity
  8
1
  6
Continuous
 62
     2
100
AcDbLine
 10
1672.752836403073
 20
54.0346604852539
 30
0.0
 11
1671.740336403073
 21
55.4971604852539
 31
0.0
  0
LINE
  5
B7
330
1F
100
AcDbEntity
  8
1
  6
Continuous
 62
     2
100
AcDbLine
 10
1674.777836403073
 20
50.9971604852539
 30
0.0
 11
1673.540336403073
 21
50.9971604852539
 31
0.0
  0
LINE
  5
B8
330
1F
100
AcDbEntity
  8
1
  6
Continuous
 62
     2
100
AcDbLine
 10
1674.777836403073
 20
59.0971604852539
 30
0.0
 11
1674.777836403073
 21
50.9971604852539
 31
0.0
  0
LINE
  5
B9
330
1F
100
AcDbEntity
  8
1
  6
Continuous
 62
     2
100
AcDbLine
 10
1670.052836403073
 20
56.8471604852539
 30
0.0
 11
1676.802836403073
 21
56.8471604852539
 31
0.0
  0
LINE
  5
BA
330
1F
100
AcDbEntity
  8
1
  6
Continuous
 62
     2
100
AcDbLine
 10
1668.027836403073
 20
50.6596604852539
 30
0.0
 11
1668.252836403073
 21
51.2221604852539
 31
0.0
  0
LINE
  5
BB
330
1F
100
AcDbEntity
  8
1
  6
Continuous
 62
     2
100
AcDbLine
 10
1667.015336403073
 20
50.6596604852539
 30
0.0
 11
1668.027836403073
 21
50.6596604852539
 31
0.0
  0
LINE
  5
BC
330
1F
100
AcDbEntity
  8
1
  6
Continuous
 62
     2
100
AcDbLine
 10
1666.227836403073
 20
51.2221604852539
 30
0.0
 11
1667.015336403073
 21
50.6596604852539
 31
0.0
  0
LINE
  5
BD
330
1F
100
AcDbEntity
  8
1
  6
Continuous
 62
     2
100
AcDbLine
 10
1666.227836403073
 20
53.8096604852539
 30
0.0
 11
1666.227836403073
 21
51.2221604852539
 31
0.0
  0
LINE
  5
BE
330
1F
100
AcDbEntity
  8
1
  6
Continuous
 62
     2
100
AcDbLine
 10
1664.765336403073
 20
51.5596604852539
 30
0.0
 11
1663.977836403073
 21
50.6596604852539
 31
0.0
  0
LINE
  5
BF
330
1F
100
AcDbEntity
  8
1
  6
Continuous
 62
     2
100
AcDbLine
 10
1665.215336403073
 20
52.9096604852539
 30
0.0
 11
1664.765336403073
 21
51.5596604852539
 31
0.0
  0
LINE
  5
C0
330
1F
100
AcDbEntity
  8
1
  6
Continuous
 62
     2
100
AcDbLine
 10
1665.552836403073
 20
53.8096604852539
 30
0.0
 11
1665.215336403073
 21
52.9096604852539
 31
0.0
  0
LINE
  5
C1
330
1F
100
AcDbEntity
  8
1
  6
Continuous
 62
     2
100
AcDbLine
 10
1667.240336403073
 20
55.4971604852539
 30
0.0
 11
1664.765336403073
 21
55.4971604852539
 31
0.0
  0
LINE
  5
C2
330
1F
100
AcDbEntity
  8
1
  6
Continuous
 62
     2
100
AcDbLine
 10
1664.765336403073
 20
57.1846604852539
 30
0.0
 11
1667.240336403073
 21
57.1846604852539
 31
0.0
  0
LINE
  5
C3
330
1F
100
AcDbEntity
  8
1
  6
Continuous
 62
     2
100
AcDbLine
 10
1667.240336403073
 20
58.8721604852539
 30
0.0
 11
1664.765336403073
 21
58.8721604852539
 31
0.0
  0
LINE
  5
C4
330
1F
100
AcDbEntity
  8
1
  6
Continuous
 62
     2
100
AcDbLine
 10
1667.240336403073
 20
53.8096604852539
 30
0.0
 11
1667.240336403073
 21
58.8721604852539
 31
0.0
  0
LINE
  5
C5
330
1F
100
AcDbEntity
  8
1
  6
Continuous
 62
     2
100
AcDbLine
 10
1664.765336403073
 20
53.8096604852539
 30
0.0
 11
1667.240336403073
 21
53.8096604852539
 31
0.0
  0
LINE
  5
C6
330
1F
100
AcDbEntity
  8
1
  6
Continuous
 62
     2
100
AcDbLine
 10
1664.765336403073
 20
58.8721604852539
 30
0.0
 11
1664.765336403073
 21
53.8096604852539
 31
0.0
  0
LINE
  5
C7
330
1F
100
AcDbEntity
  8
1
  6
Continuous
 62
     2
100
AcDbLine
 10
1661.277836403073
 20
58.3096604852539
 30
0.0
 11
1661.727836403073
 21
59.4346604852539
 31
0.0
  0
LINE
  5
C8
330
1F
100
AcDbEntity
  8
1
  6
Continuous
 62
     2
100
AcDbLine
 10
1660.490336403073
 20
57.4096604852539
 30
0.0
 11
1661.277836403073
 21
58.3096604852539
 31
0.0
  0
LINE
  5
C9
330
1F
100
AcDbEntity
  8
1
  6
Continuous
 62
     2
100
AcDbLine
 10
1663.977836403073
 20
58.3096604852539
 30
0.0
 11
1661.502836403073
 21
58.3096604852539
 31
0.0
  0
LINE
  5
CA
330
1F
100
AcDbEntity
  8
1
  6
Continuous
 62
     2
100
AcDbLine
 10
1661.502836403073
 20
55.7221604852539
 30
0.0
 11
1662.515336403073
 21
58.3096604852539
 31
0.0
  0
LINE
  5
CB
330
1F
100
AcDbEntity
  8
1
  6
Continuous
 62
     2
100
AcDbLine
 10
1660.265336403073
 20
54.0346604852539
 30
0.0
 11
1661.502836403073
 21
55.7221604852539
 31
0.0
  0
LINE
  5
CC
330
1F
100
AcDbEntity
  8
1
  6
Continuous
 62
     2
100
AcDbLine
 10
1664.315336403073
 20
56.8471604852539
 30
0.0
 11
1660.490336403073
 21
56.8471604852539
 31
0.0
  0
LINE
  5
CD
330
1F
100
AcDbEntity
  8
1
  6
Continuous
 62
     2
100
AcDbLine
 10
1662.740336403073
 20
55.4971604852539
 30
0.0
 11
1662.965336403073
 21
56.0596604852539
 31
0.0
  0
LINE
  5
CE
330
1F
100
AcDbEntity
  8
1
  6
Continuous
 62
     2
100
AcDbLine
 10
1662.740336403073
 20
51.2221604852539
 30
0.0
 11
1662.740336403073
 21
55.4971604852539
 31
0.0
  0
LINE
  5
CF
330
1F
100
AcDbEntity
  8
1
  6
Continuous
 62
     2
100
AcDbLine
 10
1663.977836403073
 20
51.2221604852539
 30
0.0
 11
1661.277836403073
 21
51.2221604852539
 31
0.0
  0
LINE
  5
D0
330
1F
100
AcDbEntity
  8
1
  6
Continuous
 62
     2
100
AcDbLine
 10
1661.277836403073
 20
52.6846604852539
 30
0.0
 11
1663.977836403073
 21
52.6846604852539
 31
0.0
  0
LINE
  5
D1
330
1F
100
AcDbEntity
  8
1
  6
Continuous
 62
     2
100
AcDbLine
 10
1663.977836403073
 20
54.0346604852539
 30
0.0
 11
1661.277836403073
 21
54.0346604852539
 31
0.0
  0
LINE
  5
D2
330
1F
100
AcDbEntity
  8
1
  6
Continuous
 62
     2
100
AcDbLine
 10
1661.277836403073
 20
55.4971604852539
 30
0.0
 11
1663.977836403073
 21
55.4971604852539
 31
0.0
  0
LINE
  5
D3
330
1F
100
AcDbEntity
  8
1
  6
Continuous
 62
     2
100
AcDbLine
 10
1661.277836403073
 20
50.6596604852539
 30
0.0
 11
1661.277836403073
 21
55.4971604852539
 31
0.0
  0
LINE
  5
D4
330
1F
100
AcDbEntity
  8
1
  6
Continuous
 62
     2
100
AcDbLine
 10
1658.015336403073
 20
55.4971604852539
 30
0.0
 11
1659.252836403073
 21
54.0346604852539
 31
0.0
  0
LINE
  5
D5
330
1F
100
AcDbEntity
  8
1
  6
Continuous
 62
     2
100
AcDbLine
 10
1655.990336403073
 20
57.4096604852539
 30
0.0
 11
1658.015336403073
 21
55.4971604852539
 31
0.0
  0
LINE
  5
D6
330
1F
100
AcDbEntity
  8
1
  6
Continuous
 62
     2
100
AcDbLine
 10
1656.552836403073
 20
59.6596604852539
 30
0.0
 11
1656.552836403073
 21
50.6596604852539
 31
0.0
  0
LINE
  5
D7
330
1F
100
AcDbEntity
  8
1
  6
Continuous
 62
     2
100
AcDbLine
 10
1652.277836403073
 20
56.0596604852539
 30
0.0
 11
1653.965336403073
 21
54.5971604852539
 31
0.0
  0
LINE
  5
D8
330
1F
100
AcDbEntity
  8
1
  6
Continuous
 62
     2
100
AcDbLine
 10
1652.277836403073
 20
56.2846604852539
 30
0.0
 11
1651.265336403073
 21
54.9346604852539
 31
0.0
  0
LINE
  5
D9
330
1F
100
AcDbEntity
  8
1
  6
Continuous
 62
     2
100
AcDbLine
 10
1653.065336403073
 20
57.9721604852539
 30
0.0
 11
1652.277836403073
 21
56.2846604852539
 31
0.0
  0
LINE
  5
DA
330
1F
100
AcDbEntity
  8
1
  6
Continuous
 62
     2
100
AcDbLine
 10
1653.515336403073
 20
59.6596604852539
 30
0.0
 11
1653.065336403073
 21
57.9721604852539
 31
0.0
  0
LINE
  5
DB
330
1F
100
AcDbEntity
  8
1
  6
Continuous
 62
     2
100
AcDbLine
 10
1655.315336403073
 20
57.7471604852539
 30
0.0
 11
1653.065336403073
 21
57.7471604852539
 31
0.0
  0
LINE
  5
DC
330
1F
100
AcDbEntity
  8
1
  6
Continuous
 62
     2
100
AcDbLine
 10
1654.752836403073
 20
56.0596604852539
 30
0.0
 11
1655.315336403073
 21
57.7471604852539
 31
0.0
  0
LINE
  5
DD
330
1F
100
AcDbEntity
  8
1
  6
Continuous
 62
     2
100
AcDbLine
 10
1654.302836403073
 20
54.9346604852539
 30
0.0
 11
1654.752836403073
 21
56.0596604852539
 31
0.0
  0
LINE
  5
DE
330
1F
100
AcDbEntity
  8
1
  6
Continuous
 62
     2
100
AcDbLine
 10
1653.290336403073
 20
53.2471604852539
 30
0.0
 11
1654.302836403073
 21
54.9346604852539
 31
0.0
  0
LINE
  5
DF
330
1F
100
AcDbEntity
  8
1
  6
Continuous
 62
     2
100
AcDbLine
 10
1651.715336403073
 20
51.2221604852539
 30
0.0
 11
1653.290336403073
 21
53.2471604852539
 31
0.0
  0
LINE
  5
E0
330
1F
100
AcDbEntity
  8
1
  6
Continuous
 62
     2
100
AcDbLine
 10
1636.415336403073
 20
56.9596604852539
 30
0.0
 11
1636.415336403073
 21
50.6596604852539
 31
0.0
  0
LINE
  5
E1
330
1F
100
AcDbEntity
  8
1
  6
Continuous
 62
     2
100
AcDbLine
 10
1639.565336403073
 20
55.8346604852539
 30
0.0
 11
1639.565336403073
 21
50.6596604852539
 31
0.0
  0
LINE
  5
E2
330
1F
100
AcDbEntity
  8
1
  6
Continuous
 62
     2
100
AcDbLine
 10
1639.340336403073
 20
56.2846604852539
 30
0.0
 11
1639.565336403073
 21
55.8346604852539
 31
0.0
  0
LINE
  5
E3
330
1F
100
AcDbEntity
  8
1
  6
Continuous
 62
     2
100
AcDbLine
 10
1638.890336403073
 20
56.7346604852539
 30
0.0
 11
1639.340336403073
 21
56.2846604852539
 31
0.0
  0
LINE
  5
E4
330
1F
100
AcDbEntity
  8
1
  6
Continuous
 62
     2
100
AcDbLine
 10
1638.215336403073
 20
56.9596604852539
 30
0.0
 11
1638.890336403073
 21
56.7346604852539
 31
0.0
  0
LINE
  5
E5
330
1F
100
AcDbEntity
  8
1
  6
Continuous
 62
     2
100
AcDbLine
 10
1633.265336403073
 20
56.9596604852539
 30
0.0
 11
1638.215336403073
 21
56.9596604852539
 31
0.0
  0
LINE
  5
E6
330
1F
100
AcDbEntity
  8
1
  6
Continuous
 62
     2
100
AcDbLine
 10
1633.265336403073
 20
50.6596604852539
 30
0.0
 11
1633.265336403073
 21
56.9596604852539
 31
0.0
  0
LINE
  5
E7
330
1F
100
AcDbEntity
  8
1
  6
Continuous
 62
     2
100
AcDbLine
 10
1627.415336403073
 20
56.9596604852539
 30
0.0
 11
1627.415336403073
 21
50.6596604852539
 31
0.0
  0
LINE
  5
E8
330
1F
100
AcDbEntity
  8
1
  6
Continuous
 62
     2
100
AcDbLine
 10
1630.565336403073
 20
55.8346604852539
 30
0.0
 11
1630.565336403073
 21
50.6596604852539
 31
0.0
  0
LINE
  5
E9
330
1F
100
AcDbEntity
  8
1
  6
Continuous
 62
     2
100
AcDbLine
 10
1630.340336403073
 20
56.2846604852539
 30
0.0
 11
1630.565336403073
 21
55.8346604852539
 31
0.0
  0
LINE
  5
EA
330
1F
100
AcDbEntity
  8
1
  6
Continuous
 62
     2
100
AcDbLine
 10
1629.890336403073
 20
56.7346604852539
 30
0.0
 11
1630.340336403073
 21
56.2846604852539
 31
0.0
  0
LINE
  5
EB
330
1F
100
AcDbEntity
  8
1
  6
Continuous
 62
     2
100
AcDbLine
 10
1629.215336403073
 20
56.9596604852539
 30
0.0
 11
1629.890336403073
 21
56.7346604852539
 31
0.0
  0
LINE
  5
EC
330
1F
100
AcDbEntity
  8
1
  6
Continuous
 62
     2
100
AcDbLine
 10
1624.265336403073
 20
56.9596604852539
 30
0.0
 11
1629.215336403073
 21
56.9596604852539
 31
0.0
  0
LINE
  5
ED
330
1F
100
AcDbEntity
  8
1
  6
Continuous
 62
     2
100
AcDbLine
 10
1624.265336403073
 20
50.6596604852539
 30
0.0
 11
1624.265336403073
 21
56.9596604852539
 31
0.0
  0
LINE
  5
EE
330
1F
100
AcDbEntity
  8
1
  6
Continuous
 62
     2
100
AcDbLine
 10
1621.565336403073
 20
56.2846604852539
 30
0.0
 11
1621.565336403073
 21
54.0346604852539
 31
0.0
  0
LINE
  5
EF
330
1F
100
AcDbEntity
  8
1
  6
Continuous
 62
     2
100
AcDbLine
 10
1621.340336403073
 20
57.6346604852539
 30
0.0
 11
1621.565336403073
 21
56.2846604852539
 31
0.0
  0
LINE
  5
F0
330
1F
100
AcDbEntity
  8
1
  6
Continuous
 62
     2
100
AcDbLine
 10
1620.890336403073
 20
58.5346604852539
 30
0.0
 11
1621.340336403073
 21
57.6346604852539
 31
0.0
  0
LINE
  5
F1
330
1F
100
AcDbEntity
  8
1
  6
Continuous
 62
     2
100
AcDbLine
 10
1620.440336403073
 20
58.9846604852539
 30
0.0
 11
1620.890336403073
 21
58.5346604852539
 31
0.0
  0
LINE
  5
F2
330
1F
100
AcDbEntity
  8
1
  6
Continuous
 62
     2
100
AcDbLine
 10
1619.765336403073
 20
59.4346604852539
 30
0.0
 11
1620.440336403073
 21
58.9846604852539
 31
0.0
  0
LINE
  5
F3
330
1F
100
AcDbEntity
  8
1
  6
Continuous
 62
     2
100
AcDbLine
 10
1619.090336403073
 20
59.6596604852539
 30
0.0
 11
1619.765336403073
 21
59.4346604852539
 31
0.0
  0
LINE
  5
F4
330
1F
100
AcDbEntity
  8
1
  6
Continuous
 62
     2
100
AcDbLine
 10
1618.640336403073
 20
59.6596604852539
 30
0.0
 11
1619.090336403073
 21
59.6596604852539
 31
0.0
  0
LINE
  5
F5
330
1F
100
AcDbEntity
  8
1
  6
Continuous
 62
     2
100
AcDbLine
 10
1617.965336403073
 20
59.4346604852539
 30
0.0
 11
1618.640336403073
 21
59.6596604852539
 31
0.0
  0
LINE
  5
F6
330
1F
100
AcDbEntity
  8
1
  6
Continuous
 62
     2
100
AcDbLine
 10
1617.290336403073
 20
58.9846604852539
 30
0.0
 11
1617.965336403073
 21
59.4346604852539
 31
0.0
  0
LINE
  5
F7
330
1F
100
AcDbEntity
  8
1
  6
Continuous
 62
     2
100
AcDbLine
 10
1616.840336403073
 20
58.5346604852539
 30
0.0
 11
1617.290336403073
 21
58.9846604852539
 31
0.0
  0
LINE
  5
F8
330
1F
100
AcDbEntity
  8
1
  6
Continuous
 62
     2
100
AcDbLine
 10
1616.390336403073
 20
57.6346604852539
 30
0.0
 11
1616.840336403073
 21
58.5346604852539
 31
0.0
  0
LINE
  5
F9
330
1F
100
AcDbEntity
  8
1
  6
Continuous
 62
     2
100
AcDbLine
 10
1616.165336403073
 20
56.2846604852539
 30
0.0
 11
1616.390336403073
 21
57.6346604852539
 31
0.0
  0
LINE
  5
FA
330
1F
100
AcDbEntity
  8
1
  6
Continuous
 62
     2
100
AcDbLine
 10
1616.165336403073
 20
54.0346604852539
 30
0.0
 11
1616.165336403073
 21
56.2846604852539
 31
0.0
  0
LINE
  5
FB
330
1F
100
AcDbEntity
  8
1
  6
Continuous
 62
     2
100
AcDbLine
 10
1616.390336403073
 20
52.6846604852539
 30
0.0
 11
1616.165336403073
 21
54.0346604852539
 31
0.0
  0
LINE
  5
FC
330
1F
100
AcDbEntity
  8
1
  6
Continuous
 62
     2
100
AcDbLine
 10
1616.840336403073
 20
51.7846604852539
 30
0.0
 11
1616.390336403073
 21
52.6846604852539
 31
0.0
  0
LINE
  5
FD
330
1F
100
AcDbEntity
  8
1
  6
Continuous
 62
     2
100
AcDbLine
 10
1617.290336403073
 20
51.3346604852539
 30
0.0
 11
1616.840336403073
 21
51.7846604852539
 31
0.0
  0
LINE
  5
FE
330
1F
100
AcDbEntity
  8
1
  6
Continuous
 62
     2
100
AcDbLine
 10
1617.965336403073
 20
50.8846604852539
 30
0.0
 11
1617.290336403073
 21
51.3346604852539
 31
0.0
  0
LINE
  5
FF
330
1F
100
AcDbEntity
  8
1
  6
Continuous
 62
     2
100
AcDbLine
 10
1618.640336403073
 20
50.6596604852539
 30
0.0
 11
1617.965336403073
 21
50.8846604852539
 31
0.0
  0
LINE
  5
100
330
1F
100
AcDbEntity
  8
1
  6
Continuous
 62
     2
100
AcDbLine
 10
1619.090336403073
 20
50.6596604852539
 30
0.0
 11
1618.640336403073
 21
50.6596604852539
 31
0.0
  0
LINE
  5
101
330
1F
100
AcDbEntity
  8
1
  6
Continuous
 62
     2
100
AcDbLine
 10
1619.765336403073
 20
50.8846604852539
 30
0.0
 11
1619.090336403073
 21
50.6596604852539
 31
0.0
  0
LINE
  5
102
330
1F
100
AcDbEntity
  8
1
  6
Continuous
 62
     2
100
AcDbLine
 10
1620.440336403073
 20
51.3346604852539
 30
0.0
 11
1619.765336403073
 21
50.8846604852539
 31
0.0
  0
LINE
  5
103
330
1F
100
AcDbEntity
  8
1
  6
Continuous
 62
     2
100
AcDbLine
 10
1620.890336403073
 20
51.7846604852539
 30
0.0
 11
1620.440336403073
 21
51.3346604852539
 31
0.0
  0
LINE
  5
104
330
1F
100
AcDbEntity
  8
1
  6
Continuous
 62
     2
100
AcDbLine
 10
1621.340336403073
 20
52.6846604852539
 30
0.0
 11
1620.890336403073
 21
51.7846604852539
 31
0.0
  0
LINE
  5
105
330
1F
100
AcDbEntity
  8
1
  6
Continuous
 62
     2
100
AcDbLine
 10
1621.565336403073
 20
54.0346604852539
 30
0.0
 11
1621.340336403073
 21
52.6846604852539
 31
0.0
  0
LINE
  5
106
330
1F
100
AcDbEntity
  8
1
  6
Continuous
 62
     2
100
AcDbLine
 10
1608.065336403073
 20
50.6596604852539
 30
0.0
 11
1613.465336403073
 21
50.6596604852539
 31
0.0
  0
LINE
  5
107
330
1F
100
AcDbEntity
  8
1
  6
Continuous
 62
     2
100
AcDbLine
 10
1613.015336403073
 20
56.5096604852539
 30
0.0
 11
1608.065336403073
 21
50.6596604852539
 31
0.0
  0
LINE
  5
108
330
1F
100
AcDbEntity
  8
1
  6
Continuous
 62
     2
100
AcDbLine
 10
1613.465336403073
 20
57.4096604852539
 30
0.0
 11
1613.015336403073
 21
56.5096604852539
 31
0.0
  0
LINE
  5
109
330
1F
100
AcDbEntity
  8
1
  6
Continuous
 62
     2
100
AcDbLine
 10
1613.465336403073
 20
58.3096604852539
 30
0.0
 11
1613.465336403073
 21
57.4096604852539
 31
0.0
  0
LINE
  5
10A
330
1F
100
AcDbEntity
  8
1
  6
Continuous
 62
     2
100
AcDbLine
 10
1613.015336403073
 20
58.9846604852539
 30
0.0
 11
1613.465336403073
 21
58.3096604852539
 31
0.0
  0
LINE
  5
10B
330
1F
100
AcDbEntity
  8
1
  6
Continuous
 62
     2
100
AcDbLine
 10
1612.340336403073
 20
59.4346604852539
 30
0.0
 11
1613.015336403073
 21
58.9846604852539
 31
0.0
  0
LINE
  5
10C
330
1F
100
AcDbEntity
  8
1
  6
Continuous
 62
     2
100
AcDbLine
 10
1611.440336403073
 20
59.6596604852539
 30
0.0
 11
1612.340336403073
 21
59.4346604852539
 31
0.0
  0
LINE
  5
10D
330
1F
100
AcDbEntity
  8
1
  6
Continuous
 62
     2
100
AcDbLine
 10
1610.090336403073
 20
59.6596604852539
 30
0.0
 11
1611.440336403073
 21
59.6596604852539
 31
0.0
  0
LINE
  5
10E
330
1F
100
AcDbEntity
  8
1
  6
Continuous
 62
     2
100
AcDbLine
 10
1609.190336403073
 20
59.4346604852539
 30
0.0
 11
1610.090336403073
 21
59.6596604852539
 31
0.0
  0
LINE
  5
10F
330
1F
100
AcDbEntity
  8
1
  6
Continuous
 62
     2
100
AcDbLine
 10
1608.515336403073
 20
58.9846604852539
 30
0.0
 11
1609.190336403073
 21
59.4346604852539
 31
0.0
  0
LINE
  5
110
330
1F
100
AcDbEntity
  8
1
  6
Continuous
 62
     2
100
AcDbLine
 10
1608.065336403073
 20
58.3096604852539
 30
0.0
 11
1608.515336403073
 21
58.9846604852539
 31
0.0
  0
LINE
  5
111
330
1F
100
AcDbEntity
  8
1
  6
Continuous
 62
     2
100
AcDbLine
 10
1603.340336403073
 20
54.3721604852539
 30
0.0
 11
1603.340336403073
 21
50.9971604852539
 31
0.0
  0
LINE
  5
112
330
1F
100
AcDbEntity
  8
1
  6
Continuous
 62
     2
100
AcDbLine
 10
1606.265336403073
 20
54.3721604852539
 30
0.0
 11
1605.590336403073
 21
54.3721604852539
 31
0.0
  0
LINE
  5
113
330
1F
100
AcDbEntity
  8
1
  6
Continuous
 62
     2
100
AcDbLine
 10
1606.265336403073
 20
59.4346604852539
 30
0.0
 11
1606.265336403073
 21
54.3721604852539
 31
0.0
  0
LINE
  5
114
330
1F
100
AcDbEntity
  8
1
  6
Continuous
 62
     2
100
AcDbLine
 10
1604.577836403073
 20
55.4971604852539
 30
0.0
 11
1604.577836403073
 21
59.0971604852539
 31
0.0
  0
LINE
  5
115
330
1F
100
AcDbEntity
  8
1
  6
Continuous
 62
     2
100
AcDbLine
 10
1602.102836403073
 20
59.0971604852539
 30
0.0
 11
1602.102836403073
 21
54.3721604852539
 31
0.0
  0
LINE
  5
116
330
1F
100
AcDbEntity
  8
1
  6
Continuous
 62
     2
100
AcDbLine
 10
1599.290336403073
 20
57.1846604852539
 30
0.0
 11
1603.565336403073
 21
57.1846604852539
 31
0.0
  0
LINE
  5
117
330
1F
100
AcDbEntity
  8
1
  6
Continuous
 62
     2
100
AcDbLine
 10
1603.340336403073
 20
59.0971604852539
 30
0.0
 11
1599.515336403073
 21
59.0971604852539
 31
0.0
  0
LINE
  5
118
330
1F
100
AcDbEntity
  8
1
  6
Continuous
 62
     2
100
AcDbLine
 10
1600.865336403073
 20
57.1846604852539
 30
0.0
 11
1600.865336403073
 21
59.0971604852539
 31
0.0
  0
LINE
  5
119
330
1F
100
AcDbEntity
  8
1
  6
Continuous
 62
     2
100
AcDbLine
 10
1600.302836403073
 20
55.1596604852539
 30
0.0
 11
1600.865336403073
 21
57.1846604852539
 31
0.0
  0
LINE
  5
11A
330
1F
100
AcDbEntity
  8
1
  6
Continuous
 62
     2
100
AcDbLine
 10
1599.515336403073
 20
54.0346604852539
 30
0.0
 11
1600.302836403073
 21
55.1596604852539
 31
0.0
  0
LINE
  5
11B
330
1F
100
AcDbEntity
  8
1
  6
Continuous
 62
     2
100
AcDbLine
 10
1605.815336403073
 20
52.9096604852539
 30
0.0
 11
1600.302836403073
 21
52.9096604852539
 31
0.0
  0
LINE
  5
11C
330
1F
100
AcDbEntity
  8
1
  6
Continuous
 62
     2
100
AcDbLine
 10
1599.515336403073
 20
50.9971604852539
 30
0.0
 11
1606.827836403073
 21
50.9971604852539
 31
0.0
  0
LINE
  5
11D
330
1F
100
AcDbEntity
  8
1
  6
Continuous
 62
     2
100
AcDbLine
 10
1592.765336403073
 20
59.6596604852539
 30
0.0
 11
1596.365336403073
 21
50.6596604852539
 31
0.0
  0
LINE
  5
11E
330
1F
100
AcDbEntity
  8
1
  6
Continuous
 62
     2
100
AcDbLine
 10
1589.165336403073
 20
50.6596604852539
 30
0.0
 11
1592.765336403073
 21
59.6596604852539
 31
0.0
  0
LINE
  5
11F
330
1F
100
AcDbEntity
  8
1
  6
Continuous
 62
     2
100
AcDbLine
 10
1590.290336403073
 20
53.3596604852539
 30
0.0
 11
1595.240336403073
 21
53.3596604852539
 31
0.0
  0
LINE
  5
120
330
1F
100
AcDbEntity
  8
1
  6
Continuous
 62
     2
100
AcDbLine
 10
1586.240336403073
 20
57.8596604852539
 30
0.0
 11
1586.465336403073
 21
56.9596604852539
 31
0.0
  0
LINE
  5
121
330
1F
100
AcDbEntity
  8
1
  6
Continuous
 62
     2
100
AcDbLine
 10
1585.790336403073
 20
58.5346604852539
 30
0.0
 11
1586.240336403073
 21
57.8596604852539
 31
0.0
  0
LINE
  5
122
330
1F
100
AcDbEntity
  8
1
  6
Continuous
 62
     2
100
AcDbLine
 10
1585.340336403073
 20
58.9846604852539
 30
0.0
 11
1585.790336403073
 21
58.5346604852539
 31
0.0
  0
LINE
  5
123
330
1F
100
AcDbEntity
  8
1
  6
Continuous
 62
     2
100
AcDbLine
 10
1584.665336403073
 20
59.4346604852539
 30
0.0
 11
1585.340336403073
 21
58.9846604852539
 31
0.0
  0
LINE
  5
124
330
1F
100
AcDbEntity
  8
1
  6
Continuous
 62
     2
100
AcDbLine
 10
1583.765336403073
 20
59.6596604852539
 30
0.0
 11
1584.665336403073
 21
59.4346604852539
 31
0.0
  0
LINE
  5
125
330
1F
100
AcDbEntity
  8
1
  6
Continuous
 62
     2
100
AcDbLine
 10
1580.165336403073
 20
59.6596604852539
 30
0.0
 11
1583.765336403073
 21
59.6596604852539
 31
0.0
  0
LINE
  5
126
330
1F
100
AcDbEntity
  8
1
  6
Continuous
 62
     2
100
AcDbLine
 10
1580.165336403073
 20
50.6596604852539
 30
0.0
 11
1580.165336403073
 21
59.6596604852539
 31
0.0
  0
LINE
  5
127
330
1F
100
AcDbEntity
  8
1
  6
Continuous
 62
     2
100
AcDbLine
 10
1583.765336403073
 20
50.6596604852539
 30
0.0
 11
1580.165336403073
 21
50.6596604852539
 31
0.0
  0
LINE
  5
128
330
1F
100
AcDbEntity
  8
1
  6
Continuous
 62
     2
100
AcDbLine
 10
1584.665336403073
 20
50.8846604852539
 30
0.0
 11
1583.765336403073
 21
50.6596604852539
 31
0.0
  0
LINE
  5
129
330
1F
100
AcDbEntity
  8
1
  6
Continuous
 62
     2
100
AcDbLine
 10
1585.340336403073
 20
51.3346604852539
 30
0.0
 11
1584.665336403073
 21
50.8846604852539
 31
0.0
  0
LINE
  5
12A
330
1F
100
AcDbEntity
  8
1
  6
Continuous
 62
     2
100
AcDbLine
 10
1585.790336403073
 20
51.7846604852539
 30
0.0
 11
1585.340336403073
 21
51.3346604852539
 31
0.0
  0
LINE
  5
12B
330
1F
100
AcDbEntity
  8
1
  6
Continuous
 62
     2
100
AcDbLine
 10
1586.240336403073
 20
52.4596604852539
 30
0.0
 11
1585.790336403073
 21
51.7846604852539
 31
0.0
  0
LINE
  5
12C
330
1F
100
AcDbEntity
  8
1
  6
Continuous
 62
     2
100
AcDbLine
 10
1586.465336403073
 20
53.3596604852539
 30
0.0
 11
1586.240336403073
 21
52.4596604852539
 31
0.0
  0
LINE
  5
12D
330
1F
100
AcDbEntity
  8
1
  6
Continuous
 62
     2
100
AcDbLine
 10
1586.465336403073
 20
56.9596604852539
 30
0.0
 11
1586.465336403073
 21
53.3596604852539
 31
0.0
  0
LINE
  5
12E
330
1F
100
AcDbEntity
  8
1
  6
Continuous
 62
     2
100
AcDbLine
 10
1571.165336403073
 20
50.6596604852539
 30
0.0
 11
1571.165336403073
 21
59.6596604852539
 31
0.0
  0
LINE
  5
12F
330
1F
100
AcDbEntity
  8
1
  6
Continuous
 62
     2
100
AcDbLine
 10
1572.965336403073
 20
55.1596604852539
 30
0.0
 11
1577.465336403073
 21
50.6596604852539
 31
0.0
  0
LINE
  5
130
330
1F
100
AcDbEntity
  8
1
  6
Continuous
 62
     2
100
AcDbLine
 10
1577.465336403073
 20
59.6596604852539
 30
0.0
 11
1571.165336403073
 21
53.3596604852539
 31
0.0
  0
LINE
  5
131
330
1F
100
AcDbEntity
  8
1
  6
Continuous
 62
     2
100
AcDbLine
 10
1568.465336403073
 20
50.6596604852539
 30
0.0
 11
1568.465336403073
 21
59.6596604852539
 31
0.0
  0
LINE
  5
132
330
1F
100
AcDbEntity
  8
1
  6
Continuous
 62
     2
100
AcDbLine
 10
1562.165336403073
 20
59.6596604852539
 30
0.0
 11
1568.465336403073
 21
50.6596604852539
 31
0.0
  0
LINE
  5
133
330
1F
100
AcDbEntity
  8
1
  6
Continuous
 62
     2
100
AcDbLine
 10
1562.165336403073
 20
50.6596604852539
 30
0.0
 11
1562.165336403073
 21
59.6596604852539
 31
0.0
  0
LINE
  5
134
330
1F
100
AcDbEntity
  8
1
  6
Continuous
 62
     7
100
AcDbLine
 10
1587.315336403073
 20
198.5696604852539
 30
0.0
 11
1668.815336403073
 21
198.5696604852539
 31
0.0
  0
LINE
  5
135
330
1F
100
AcDbEntity
  8
1
  6
Continuous
 62
     7
100
AcDbLine
 10
1628.295391738581
 20
124.7402710918887
 30
0.0
 11
1628.760780130658
 21
125.0850032341674
 31
0.0
  0
LINE
  5
136
330
1F
100
AcDbEntity
  8
1
  6
Continuous
 62
     7
100
AcDbLine
 10
1627.519744418454
 20
124.39553894961
 30
0.0
 11
1628.295391738581
 21
124.7402710918887
 31
0.0
  0
LINE
  5
137
330
1F
100
AcDbEntity
  8
1
  6
Continuous
 62
     7
100
AcDbLine
 10
1626.899226562353
 20
124.2231728784707
 30
0.0
 11
1627.519744418454
 21
124.39553894961
 31
0.0
  0
LINE
  5
138
330
1F
100
AcDbEntity
  8
1
  6
Continuous
 62
     7
100
AcDbLine
 10
1625.813320314175
 20
124.2231728784707
 30
0.0
 11
1626.899226562353
 21
124.2231728784707
 31
0.0
  0
LINE
  5
139
330
1F
100
AcDbEntity
  8
1
  6
Continuous
 62
     7
100
AcDbLine
 10
1625.192802458073
 20
124.39553894961
 30
0.0
 11
1625.813320314175
 21
124.2231728784707
 31
0.0
  0
LINE
  5
13A
330
1F
100
AcDbEntity
  8
1
  6
Continuous
 62
     7
100
AcDbLine
 10
1624.417155137946
 20
124.7402710918887
 30
0.0
 11
1625.192802458073
 21
124.39553894961
 31
0.0
  0
LINE
  5
13B
330
1F
100
AcDbEntity
  8
1
  6
Continuous
 62
     7
100
AcDbLine
 10
1623.95176674587
 20
125.0850032341674
 30
0.0
 11
1624.417155137946
 21
124.7402710918887
 31
0.0
  0
LINE
  5
13C
330
1F
100
AcDbEntity
  8
1
  6
Continuous
 62
     7
100
AcDbLine
 10
1623.486378353794
 20
125.6021014475854
 30
0.0
 11
1623.95176674587
 21
125.0850032341674
 31
0.0
  0
LINE
  5
13D
330
1F
100
AcDbEntity
  8
1
  6
Continuous
 62
     7
100
AcDbLine
 10
1623.020989961718
 20
126.2915657321427
 30
0.0
 11
1623.486378353794
 21
125.6021014475854
 31
0.0
  0
LINE
  5
13E
330
1F
100
AcDbEntity
  8
1
  6
Continuous
 62
     7
100
AcDbLine
 10
1622.710731033667
 20
126.9810300167001
 30
0.0
 11
1623.020989961718
 21
126.2915657321427
 31
0.0
  0
LINE
  5
13F
330
1F
100
AcDbEntity
  8
1
  6
Continuous
 62
     7
100
AcDbLine
 10
1622.400472105616
 20
127.8428603723967
 30
0.0
 11
1622.710731033667
 21
126.9810300167001
 31
0.0
  0
LINE
  5
140
330
1F
100
AcDbEntity
  8
1
  6
Continuous
 62
     7
100
AcDbLine
 10
1622.245342641591
 20
128.8770567992328
 30
0.0
 11
1622.400472105616
 21
127.8428603723967
 31
0.0
  0
LINE
  5
141
330
1F
100
AcDbEntity
  8
1
  6
Continuous
 62
     7
100
AcDbLine
 10
1622.090213177565
 20
130.4283514394868
 30
0.0
 11
1622.245342641591
 21
128.8770567992328
 31
0.0
  0
LINE
  5
142
330
1F
100
AcDbEntity
  8
1
  6
Continuous
 62
     7
100
AcDbLine
 10
1622.090213177565
 20
131.8072800086015
 30
0.0
 11
1622.090213177565
 21
130.4283514394868
 31
0.0
  0
LINE
  5
143
330
1F
100
AcDbEntity
  8
1
  6
Continuous
 62
     7
100
AcDbLine
 10
1622.245342641591
 20
133.3585746488555
 30
0.0
 11
1622.090213177565
 21
131.8072800086015
 31
0.0
  0
LINE
  5
144
330
1F
100
AcDbEntity
  8
1
  6
Continuous
 62
     7
100
AcDbLine
 10
1622.400472105616
 20
134.3927710756915
 30
0.0
 11
1622.245342641591
 21
133.3585746488555
 31
0.0
  0
LINE
  5
145
330
1F
100
AcDbEntity
  8
1
  6
Continuous
 62
     7
100
AcDbLine
 10
1622.710731033667
 20
135.2546014313882
 30
0.0
 11
1622.400472105616
 21
134.3927710756915
 31
0.0
  0
LINE
  5
146
330
1F
100
AcDbEntity
  8
1
  6
Continuous
 62
     7
100
AcDbLine
 10
1623.020989961718
 20
135.9440657159455
 30
0.0
 11
1622.710731033667
 21
135.2546014313882
 31
0.0
  0
LINE
  5
147
330
1F
100
AcDbEntity
  8
1
  6
Continuous
 62
     7
100
AcDbLine
 10
1623.486378353794
 20
136.6335300005028
 30
0.0
 11
1623.020989961718
 21
135.9440657159455
 31
0.0
  0
LINE
  5
148
330
1F
100
AcDbEntity
  8
1
  6
Continuous
 62
     7
100
AcDbLine
 10
1623.95176674587
 20
137.1506282139208
 30
0.0
 11
1623.486378353794
 21
136.6335300005028
 31
0.0
  0
LINE
  5
149
330
1F
100
AcDbEntity
  8
1
  6
Continuous
 62
     7
100
AcDbLine
 10
1624.417155137946
 20
137.4953603561995
 30
0.0
 11
1623.95176674587
 21
137.1506282139208
 31
0.0
  0
LINE
  5
14A
330
1F
100
AcDbEntity
  8
1
  6
Continuous
 62
     7
100
AcDbLine
 10
1625.192802458073
 20
137.8400924984782
 30
0.0
 11
1624.417155137946
 21
137.4953603561995
 31
0.0
  0
LINE
  5
14B
330
1F
100
AcDbEntity
  8
1
  6
Continuous
 62
     7
100
AcDbLine
 10
1625.813320314175
 20
138.0124585696175
 30
0.0
 11
1625.192802458073
 21
137.8400924984782
 31
0.0
  0
LINE
  5
14C
330
1F
100
AcDbEntity
  8
1
  6
Continuous
 62
     7
100
AcDbLine
 10
1626.899226562353
 20
138.0124585696175
 30
0.0
 11
1625.813320314175
 21
138.0124585696175
 31
0.0
  0
LINE
  5
14D
330
1F
100
AcDbEntity
  8
1
  6
Continuous
 62
     7
100
AcDbLine
 10
1627.519744418454
 20
137.8400924984782
 30
0.0
 11
1626.899226562353
 21
138.0124585696175
 31
0.0
  0
LINE
  5
14E
330
1F
100
AcDbEntity
  8
1
  6
Continuous
 62
     7
100
AcDbLine
 10
1628.295391738581
 20
137.4953603561995
 30
0.0
 11
1627.519744418454
 21
137.8400924984782
 31
0.0
  0
LINE
  5
14F
330
1F
100
AcDbEntity
  8
1
  6
Continuous
 62
     7
100
AcDbLine
 10
1628.760780130658
 20
137.1506282139208
 30
0.0
 11
1628.295391738581
 21
137.4953603561995
 31
0.0
  0
LINE
  5
150
330
1F
100
AcDbEntity
  8
1
  6
Continuous
 62
     7
100
AcDbLine
 10
1629.226168522734
 20
136.6335300005028
 30
0.0
 11
1628.760780130658
 21
137.1506282139208
 31
0.0
  0
LINE
  5
151
330
1F
100
AcDbEntity
  8
1
  6
Continuous
 62
     7
100
AcDbLine
 10
1629.69155691481
 20
135.9440657159455
 30
0.0
 11
1629.226168522734
 21
136.6335300005028
 31
0.0
  0
LINE
  5
152
330
1F
100
AcDbEntity
  8
1
  6
Continuous
 62
     7
100
AcDbLine
 10
1630.001815842861
 20
135.2546014313882
 30
0.0
 11
1629.69155691481
 21
135.9440657159455
 31
0.0
  0
LINE
  5
153
330
1F
100
AcDbEntity
  8
1
  6
Continuous
 62
     7
100
AcDbLine
 10
1630.312074770912
 20
134.3927710756915
 30
0.0
 11
1630.001815842861
 21
135.2546014313882
 31
0.0
  0
LINE
  5
154
330
1F
100
AcDbEntity
  8
1
  6
Continuous
 62
     7
100
AcDbLine
 10
1630.467204234937
 20
133.3585746488555
 30
0.0
 11
1630.312074770912
 21
134.3927710756915
 31
0.0
  0
LINE
  5
155
330
1F
100
AcDbEntity
  8
1
  6
Continuous
 62
     7
100
AcDbLine
 10
1630.622333698962
 20
131.8072800086015
 30
0.0
 11
1630.467204234937
 21
133.3585746488555
 31
0.0
  0
LINE
  5
156
330
1F
100
AcDbEntity
  8
1
  6
Continuous
 62
     7
100
AcDbLine
 10
1630.622333698962
 20
130.4283514394868
 30
0.0
 11
1630.622333698962
 21
131.8072800086015
 31
0.0
  0
LINE
  5
157
330
1F
100
AcDbEntity
  8
1
  6
Continuous
 62
     7
100
AcDbLine
 10
1630.467204234937
 20
128.8770567992328
 30
0.0
 11
1630.622333698962
 21
130.4283514394868
 31
0.0
  0
LINE
  5
158
330
1F
100
AcDbEntity
  8
1
  6
Continuous
 62
     7
100
AcDbLine
 10
1630.312074770912
 20
127.8428603723967
 30
0.0
 11
1630.467204234937
 21
128.8770567992328
 31
0.0
  0
LINE
  5
159
330
1F
100
AcDbEntity
  8
1
  6
Continuous
 62
     7
100
AcDbLine
 10
1630.001815842861
 20
126.9810300167001
 30
0.0
 11
1630.312074770912
 21
127.8428603723967
 31
0.0
  0
LINE
  5
15A
330
1F
100
AcDbEntity
  8
1
  6
Continuous
 62
     7
100
AcDbLine
 10
1629.69155691481
 20
126.2915657321427
 30
0.0
 11
1630.001815842861
 21
126.9810300167001
 31
0.0
  0
LINE
  5
15B
330
1F
100
AcDbEntity
  8
1
  6
Continuous
 62
     7
100
AcDbLine
 10
1629.226168522734
 20
125.6021014475854
 30
0.0
 11
1629.69155691481
 21
126.2915657321427
 31
0.0
  0
LINE
  5
15C
330
1F
100
AcDbEntity
  8
1
  6
Continuous
 62
     7
100
AcDbLine
 10
1628.760780130658
 20
125.0850032341674
 30
0.0
 11
1629.226168522734
 21
125.6021014475854
 31
0.0
  0
LINE
  5
15D
330
1F
100
AcDbEntity
  8
1
  6
Continuous
 62
     7
100
AcDbLine
 10
1625.192802458073
 20
126.2915657321427
 30
0.0
 11
1625.813320314175
 21
125.9468335898641
 31
0.0
  0
LINE
  5
15E
330
1F
100
AcDbEntity
  8
1
  6
Continuous
 62
     7
100
AcDbLine
 10
1624.572284601972
 20
126.8086639455607
 30
0.0
 11
1625.192802458073
 21
126.2915657321427
 31
0.0
  0
LINE
  5
15F
330
1F
100
AcDbEntity
  8
1
  6
Continuous
 62
     7
100
AcDbLine
 10
1624.262025673921
 20
127.3257621589787
 30
0.0
 11
1624.572284601972
 21
126.8086639455607
 31
0.0
  0
LINE
  5
160
330
1F
100
AcDbEntity
  8
1
  6
Continuous
 62
     7
100
AcDbLine
 10
1623.95176674587
 20
128.1875925146754
 30
0.0
 11
1624.262025673921
 21
127.3257621589787
 31
0.0
  0
LINE
  5
161
330
1F
100
AcDbEntity
  8
1
  6
Continuous
 62
     7
100
AcDbLine
 10
1623.796637281845
 20
130.0836192972081
 30
0.0
 11
1623.95176674587
 21
128.1875925146754
 31
0.0
  0
LINE
  5
162
330
1F
100
AcDbEntity
  8
1
  6
Continuous
 62
     7
100
AcDbLine
 10
1623.796637281845
 20
132.1520121508801
 30
0.0
 11
1623.796637281845
 21
130.0836192972081
 31
0.0
  0
LINE
  5
163
330
1F
100
AcDbEntity
  8
1
  6
Continuous
 62
     7
100
AcDbLine
 10
1623.95176674587
 20
134.0480389334128
 30
0.0
 11
1623.796637281845
 21
132.1520121508801
 31
0.0
  0
LINE
  5
164
330
1F
100
AcDbEntity
  8
1
  6
Continuous
 62
     7
100
AcDbLine
 10
1624.262025673921
 20
134.9098692891095
 30
0.0
 11
1623.95176674587
 21
134.0480389334128
 31
0.0
  0
LINE
  5
165
330
1F
100
AcDbEntity
  8
1
  6
Continuous
 62
     7
100
AcDbLine
 10
1624.572284601972
 20
135.4269675025275
 30
0.0
 11
1624.262025673921
 21
134.9098692891095
 31
0.0
  0
LINE
  5
166
330
1F
100
AcDbEntity
  8
1
  6
Continuous
 62
     7
100
AcDbLine
 10
1625.192802458073
 20
135.9440657159455
 30
0.0
 11
1624.572284601972
 21
135.4269675025275
 31
0.0
  0
LINE
  5
167
330
1F
100
AcDbEntity
  8
1
  6
Continuous
 62
     7
100
AcDbLine
 10
1625.813320314175
 20
136.2887978582242
 30
0.0
 11
1625.192802458073
 21
135.9440657159455
 31
0.0
  0
LINE
  5
168
330
1F
100
AcDbEntity
  8
1
  6
Continuous
 62
     7
100
AcDbLine
 10
1626.899226562353
 20
136.2887978582242
 30
0.0
 11
1625.813320314175
 21
136.2887978582242
 31
0.0
  0
LINE
  5
169
330
1F
100
AcDbEntity
  8
1
  6
Continuous
 62
     7
100
AcDbLine
 10
1627.519744418454
 20
135.9440657159455
 30
0.0
 11
1626.899226562353
 21
136.2887978582242
 31
0.0
  0
LINE
  5
16A
330
1F
100
AcDbEntity
  8
1
  6
Continuous
 62
     7
100
AcDbLine
 10
1628.140262274556
 20
135.4269675025275
 30
0.0
 11
1627.519744418454
 21
135.9440657159455
 31
0.0
  0
LINE
  5
16B
330
1F
100
AcDbEntity
  8
1
  6
Continuous
 62
     7
100
AcDbLine
 10
1628.450521202607
 20
134.9098692891095
 30
0.0
 11
1628.140262274556
 21
135.4269675025275
 31
0.0
  0
LINE
  5
16C
330
1F
100
AcDbEntity
  8
1
  6
Continuous
 62
     7
100
AcDbLine
 10
1628.760780130658
 20
134.0480389334128
 30
0.0
 11
1628.450521202607
 21
134.9098692891095
 31
0.0
  0
LINE
  5
16D
330
1F
100
AcDbEntity
  8
1
  6
Continuous
 62
     7
100
AcDbLine
 10
1628.915909594683
 20
132.1520121508801
 30
0.0
 11
1628.760780130658
 21
134.0480389334128
 31
0.0
  0
LINE
  5
16E
330
1F
100
AcDbEntity
  8
1
  6
Continuous
 62
     7
100
AcDbLine
 10
1628.915909594683
 20
130.0836192972081
 30
0.0
 11
1628.915909594683
 21
132.1520121508801
 31
0.0
  0
LINE
  5
16F
330
1F
100
AcDbEntity
  8
1
  6
Continuous
 62
     7
100
AcDbLine
 10
1628.760780130658
 20
128.1875925146754
 30
0.0
 11
1628.915909594683
 21
130.0836192972081
 31
0.0
  0
LINE
  5
170
330
1F
100
AcDbEntity
  8
1
  6
Continuous
 62
     7
100
AcDbLine
 10
1628.450521202607
 20
127.3257621589787
 30
0.0
 11
1628.760780130658
 21
128.1875925146754
 31
0.0
  0
LINE
  5
171
330
1F
100
AcDbEntity
  8
1
  6
Continuous
 62
     7
100
AcDbLine
 10
1628.140262274556
 20
126.8086639455607
 30
0.0
 11
1628.450521202607
 21
127.3257621589787
 31
0.0
  0
LINE
  5
172
330
1F
100
AcDbEntity
  8
1
  6
Continuous
 62
     7
100
AcDbLine
 10
1627.519744418454
 20
126.2915657321427
 30
0.0
 11
1628.140262274556
 21
126.8086639455607
 31
0.0
  0
LINE
  5
173
330
1F
100
AcDbEntity
  8
1
  6
Continuous
 62
     7
100
AcDbLine
 10
1626.899226562353
 20
125.9468335898641
 30
0.0
 11
1627.519744418454
 21
126.2915657321427
 31
0.0
  0
LINE
  5
174
330
1F
100
AcDbEntity
  8
1
  6
Continuous
 62
     7
100
AcDbLine
 10
1625.813320314175
 20
125.9468335898641
 30
0.0
 11
1626.899226562353
 21
125.9468335898641
 31
0.0
  0
LINE
  5
175
330
1F
100
AcDbEntity
  8
1
  6
Continuous
 62
     7
100
AcDbLine
 10
1619.682112914193
 20
124.2231728784707
 30
0.0
 11
1611.460251320847
 21
124.2231728784707
 31
0.0
  0
LINE
  5
176
330
1F
100
AcDbEntity
  8
1
  6
Continuous
 62
     7
100
AcDbLine
 10
1619.682112914193
 20
125.9468335898641
 30
0.0
 11
1619.682112914193
 21
124.2231728784707
 31
0.0
  0
LINE
  5
177
330
1F
100
AcDbEntity
  8
1
  6
Continuous
 62
     7
100
AcDbLine
 10
1613.632063817203
 20
125.9468335898641
 30
0.0
 11
1619.682112914193
 21
125.9468335898641
 31
0.0
  0
LINE
  5
178
330
1F
100
AcDbEntity
  8
1
  6
Continuous
 62
     7
100
AcDbLine
 10
1613.942322745254
 20
126.9810300167001
 30
0.0
 11
1613.632063817203
 21
125.9468335898641
 31
0.0
  0
LINE
  5
179
330
1F
100
AcDbEntity
  8
1
  6
Continuous
 62
     7
100
AcDbLine
 10
1614.71797006538
 20
128.1875925146754
 30
0.0
 11
1613.942322745254
 21
126.9810300167001
 31
0.0
  0
LINE
  5
17A
330
1F
100
AcDbEntity
  8
1
  6
Continuous
 62
     7
100
AcDbLine
 10
1615.803876313558
 20
129.5665210837901
 30
0.0
 11
1614.71797006538
 21
128.1875925146754
 31
0.0
  0
LINE
  5
17B
330
1F
100
AcDbEntity
  8
1
  6
Continuous
 62
     7
100
AcDbLine
 10
1616.889782561736
 20
130.6007175106261
 30
0.0
 11
1615.803876313558
 21
129.5665210837901
 31
0.0
  0
LINE
  5
17C
330
1F
100
AcDbEntity
  8
1
  6
Continuous
 62
     7
100
AcDbLine
 10
1618.130818273939
 20
131.8072800086015
 30
0.0
 11
1616.889782561736
 21
130.6007175106261
 31
0.0
  0
LINE
  5
17D
330
1F
100
AcDbEntity
  8
1
  6
Continuous
 62
     7
100
AcDbLine
 10
1618.44107720199
 20
132.1520121508801
 30
0.0
 11
1618.130818273939
 21
131.8072800086015
 31
0.0
  0
LINE
  5
17E
330
1F
100
AcDbEntity
  8
1
  6
Continuous
 62
     7
100
AcDbLine
 10
1619.061595058092
 20
133.1862085777161
 30
0.0
 11
1618.44107720199
 21
132.1520121508801
 31
0.0
  0
LINE
  5
17F
330
1F
100
AcDbEntity
  8
1
  6
Continuous
 62
     7
100
AcDbLine
 10
1619.216724522117
 20
134.0480389334128
 30
0.0
 11
1619.061595058092
 21
133.1862085777161
 31
0.0
  0
LINE
  5
180
330
1F
100
AcDbEntity
  8
1
  6
Continuous
 62
     7
100
AcDbLine
 10
1619.216724522117
 20
134.7375032179702
 30
0.0
 11
1619.216724522117
 21
134.0480389334128
 31
0.0
  0
LINE
  5
181
330
1F
100
AcDbEntity
  8
1
  6
Continuous
 62
     7
100
AcDbLine
 10
1619.061595058092
 20
135.5993335736668
 30
0.0
 11
1619.216724522117
 21
134.7375032179702
 31
0.0
  0
LINE
  5
182
330
1F
100
AcDbEntity
  8
1
  6
Continuous
 62
     7
100
AcDbLine
 10
1618.44107720199
 20
136.6335300005028
 30
0.0
 11
1619.061595058092
 21
135.5993335736668
 31
0.0
  0
LINE
  5
183
330
1F
100
AcDbEntity
  8
1
  6
Continuous
 62
     7
100
AcDbLine
 10
1617.820559345888
 20
137.3229942850602
 30
0.0
 11
1618.44107720199
 21
136.6335300005028
 31
0.0
  0
LINE
  5
184
330
1F
100
AcDbEntity
  8
1
  6
Continuous
 62
     7
100
AcDbLine
 10
1616.889782561736
 20
137.8400924984782
 30
0.0
 11
1617.820559345888
 21
137.3229942850602
 31
0.0
  0
LINE
  5
185
330
1F
100
AcDbEntity
  8
1
  6
Continuous
 62
     7
100
AcDbLine
 10
1616.114135241609
 20
138.0124585696175
 30
0.0
 11
1616.889782561736
 21
137.8400924984782
 31
0.0
  0
LINE
  5
186
330
1F
100
AcDbEntity
  8
1
  6
Continuous
 62
     7
100
AcDbLine
 10
1615.183358457457
 20
138.0124585696175
 30
0.0
 11
1616.114135241609
 21
138.0124585696175
 31
0.0
  0
LINE
  5
187
330
1F
100
AcDbEntity
  8
1
  6
Continuous
 62
     7
100
AcDbLine
 10
1614.40771113733
 20
137.8400924984782
 30
0.0
 11
1615.183358457457
 21
138.0124585696175
 31
0.0
  0
LINE
  5
188
330
1F
100
AcDbEntity
  8
1
  6
Continuous
 62
     7
100
AcDbLine
 10
1613.476934353177
 20
137.3229942850602
 30
0.0
 11
1614.40771113733
 21
137.8400924984782
 31
0.0
  0
LINE
  5
189
330
1F
100
AcDbEntity
  8
1
  6
Continuous
 62
     7
100
AcDbLine
 10
1612.856416497076
 20
136.6335300005028
 30
0.0
 11
1613.476934353177
 21
137.3229942850602
 31
0.0
  0
LINE
  5
18A
330
1F
100
AcDbEntity
  8
1
  6
Continuous
 62
     7
100
AcDbLine
 10
1612.235898640974
 20
135.5993335736668
 30
0.0
 11
1612.856416497076
 21
136.6335300005028
 31
0.0
  0
LINE
  5
18B
330
1F
100
AcDbEntity
  8
1
  6
Continuous
 62
     7
100
AcDbLine
 10
1612.080769176949
 20
134.7375032179702
 30
0.0
 11
1612.235898640974
 21
135.5993335736668
 31
0.0
  0
LINE
  5
18C
330
1F
100
AcDbEntity
  8
1
  6
Continuous
 62
     7
100
AcDbLine
 10
1612.080769176949
 20
134.0480389334128
 30
0.0
 11
1612.080769176949
 21
134.7375032179702
 31
0.0
  0
LINE
  5
18D
330
1F
100
AcDbEntity
  8
1
  6
Continuous
 62
     7
100
AcDbLine
 10
1613.787193281228
 20
134.0480389334128
 30
0.0
 11
1612.080769176949
 21
134.0480389334128
 31
0.0
  0
LINE
  5
18E
330
1F
100
AcDbEntity
  8
1
  6
Continuous
 62
     7
100
AcDbLine
 10
1613.787193281228
 20
134.7375032179702
 30
0.0
 11
1613.787193281228
 21
134.0480389334128
 31
0.0
  0
LINE
  5
18F
330
1F
100
AcDbEntity
  8
1
  6
Continuous
 62
     7
100
AcDbLine
 10
1613.942322745254
 20
135.2546014313882
 30
0.0
 11
1613.787193281228
 21
134.7375032179702
 31
0.0
  0
LINE
  5
190
330
1F
100
AcDbEntity
  8
1
  6
Continuous
 62
     7
100
AcDbLine
 10
1614.252581673304
 20
135.7716996448062
 30
0.0
 11
1613.942322745254
 21
135.2546014313882
 31
0.0
  0
LINE
  5
191
330
1F
100
AcDbEntity
  8
1
  6
Continuous
 62
     7
100
AcDbLine
 10
1614.71797006538
 20
136.1164317870848
 30
0.0
 11
1614.252581673304
 21
135.7716996448062
 31
0.0
  0
LINE
  5
192
330
1F
100
AcDbEntity
  8
1
  6
Continuous
 62
     7
100
AcDbLine
 10
1615.338487921482
 20
136.2887978582242
 30
0.0
 11
1614.71797006538
 21
136.1164317870848
 31
0.0
  0
LINE
  5
193
330
1F
100
AcDbEntity
  8
1
  6
Continuous
 62
     7
100
AcDbLine
 10
1615.959005777584
 20
136.2887978582242
 30
0.0
 11
1615.338487921482
 21
136.2887978582242
 31
0.0
  0
LINE
  5
194
330
1F
100
AcDbEntity
  8
1
  6
Continuous
 62
     7
100
AcDbLine
 10
1616.579523633685
 20
136.1164317870848
 30
0.0
 11
1615.959005777584
 21
136.2887978582242
 31
0.0
  0
LINE
  5
195
330
1F
100
AcDbEntity
  8
1
  6
Continuous
 62
     7
100
AcDbLine
 10
1617.044912025762
 20
135.7716996448062
 30
0.0
 11
1616.579523633685
 21
136.1164317870848
 31
0.0
  0
LINE
  5
196
330
1F
100
AcDbEntity
  8
1
  6
Continuous
 62
     7
100
AcDbLine
 10
1617.355170953812
 20
135.2546014313882
 30
0.0
 11
1617.044912025762
 21
135.7716996448062
 31
0.0
  0
LINE
  5
197
330
1F
100
AcDbEntity
  8
1
  6
Continuous
 62
     7
100
AcDbLine
 10
1617.510300417838
 20
134.7375032179702
 30
0.0
 11
1617.355170953812
 21
135.2546014313882
 31
0.0
  0
LINE
  5
198
330
1F
100
AcDbEntity
  8
1
  6
Continuous
 62
     7
100
AcDbLine
 10
1617.510300417838
 20
134.0480389334128
 30
0.0
 11
1617.510300417838
 21
134.7375032179702
 31
0.0
  0
LINE
  5
199
330
1F
100
AcDbEntity
  8
1
  6
Continuous
 62
     7
100
AcDbLine
 10
1617.355170953812
 20
133.5309407199948
 30
0.0
 11
1617.510300417838
 21
134.0480389334128
 31
0.0
  0
LINE
  5
19A
330
1F
100
AcDbEntity
  8
1
  6
Continuous
 62
     7
100
AcDbLine
 10
1617.044912025762
 20
133.0138425065768
 30
0.0
 11
1617.355170953812
 21
133.5309407199948
 31
0.0
  0
LINE
  5
19B
330
1F
100
AcDbEntity
  8
1
  6
Continuous
 62
     7
100
AcDbLine
 10
1615.028228993431
 20
130.7730835817654
 30
0.0
 11
1617.044912025762
 21
133.0138425065768
 31
0.0
  0
LINE
  5
19C
330
1F
100
AcDbEntity
  8
1
  6
Continuous
 62
     7
100
AcDbLine
 10
1614.097452209279
 20
129.9112532260688
 30
0.0
 11
1615.028228993431
 21
130.7730835817654
 31
0.0
  0
LINE
  5
19D
330
1F
100
AcDbEntity
  8
1
  6
Continuous
 62
     7
100
AcDbLine
 10
1613.166675425126
 20
128.7046907280934
 30
0.0
 11
1614.097452209279
 21
129.9112532260688
 31
0.0
  0
LINE
  5
19E
330
1F
100
AcDbEntity
  8
1
  6
Continuous
 62
     7
100
AcDbLine
 10
1612.391028104999
 20
127.6704943012574
 30
0.0
 11
1613.166675425126
 21
128.7046907280934
 31
0.0
  0
LINE
  5
19F
330
1F
100
AcDbEntity
  8
1
  6
Continuous
 62
     7
100
AcDbLine
 10
1611.770510248898
 20
126.4639318032821
 30
0.0
 11
1612.391028104999
 21
127.6704943012574
 31
0.0
  0
LINE
  5
1A0
330
1F
100
AcDbEntity
  8
1
  6
Continuous
 62
     7
100
AcDbLine
 10
1611.460251320847
 20
125.2573693053067
 30
0.0
 11
1611.770510248898
 21
126.4639318032821
 31
0.0
  0
LINE
  5
1A1
330
1F
100
AcDbEntity
  8
1
  6
Continuous
 62
     7
100
AcDbLine
 10
1611.460251320847
 20
124.2231728784707
 30
0.0
 11
1611.460251320847
 21
125.2573693053067
 31
0.0
  0
LINE
  5
1A2
330
1F
100
AcDbEntity
  8
1
  6
Continuous
 62
     7
100
AcDbLine
 10
1643.136452478156
 20
137.9386783427676
 30
0.0
 11
1642.835916764374
 21
137.6072051290381
 31
0.0
  0
LINE
  5
1A3
330
1F
100
AcDbEntity
  8
1
  6
Continuous
 62
     7
100
AcDbLine
 10
1643.512122120383
 20
138.1596604852539
 30
0.0
 11
1643.136452478156
 21
137.9386783427676
 31
0.0
  0
LINE
  5
1A4
330
1F
100
AcDbEntity
  8
1
  6
Continuous
 62
     7
100
AcDbLine
 10
1643.812657834164
 20
138.1596604852539
 30
0.0
 11
1643.512122120383
 21
138.1596604852539
 31
0.0
  0
LINE
  5
1A5
330
1F
100
AcDbEntity
  8
1
  6
Continuous
 62
     7
100
AcDbLine
 10
1644.338595333281
 20
137.9386783427676
 30
0.0
 11
1643.812657834164
 21
138.1596604852539
 31
0.0
  0
LINE
  5
1A6
330
1F
100
AcDbEntity
  8
1
  6
Continuous
 62
     7
100
AcDbLine
 10
1644.789398903954
 20
137.4967140577949
 30
0.0
 11
1644.338595333281
 21
137.9386783427676
 31
0.0
  0
LINE
  5
1A7
330
1F
100
AcDbEntity
  8
1
  6
Continuous
 62
     7
100
AcDbLine
 10
1645.01480068929
 20
137.0547497728223
 30
0.0
 11
1644.789398903954
 21
137.4967140577949
 31
0.0
  0
LINE
  5
1A8
330
1F
100
AcDbEntity
  8
1
  6
Continuous
 62
     7
100
AcDbLine
 10
1645.240202474626
 20
136.3918033453633
 30
0.0
 11
1645.01480068929
 21
137.0547497728223
 31
0.0
  0
LINE
  5
1A9
330
1F
100
AcDbEntity
  8
1
  6
Continuous
 62
     7
100
AcDbLine
 10
1645.315336403071
 20
135.507874775418
 30
0.0
 11
1645.240202474626
 21
136.3918033453633
 31
0.0
  0
LINE
  5
1AA
330
1F
100
AcDbEntity
  8
1
  6
Continuous
 62
     7
100
AcDbLine
 10
1645.315336403071
 20
131.5301962106641
 30
0.0
 11
1645.315336403071
 21
135.507874775418
 31
0.0
  0
LINE
  5
1AB
330
1F
100
AcDbEntity
  8
1
  6
Continuous
 62
     7
100
AcDbLine
 10
1644.488863190172
 20
131.5301962106641
 30
0.0
 11
1645.315336403071
 21
131.5301962106641
 31
0.0
  0
LINE
  5
1AC
330
1F
100
AcDbEntity
  8
1
  6
Continuous
 62
     7
100
AcDbLine
 10
1644.488863190172
 20
135.6183658466611
 30
0.0
 11
1644.488863190172
 21
131.5301962106641
 31
0.0
  0
LINE
  5
1AD
330
1F
100
AcDbEntity
  8
1
  6
Continuous
 62
     7
100
AcDbLine
 10
1644.413729261727
 20
136.0603301316338
 30
0.0
 11
1644.488863190172
 21
135.6183658466611
 31
0.0
  0
LINE
  5
1AE
330
1F
100
AcDbEntity
  8
1
  6
Continuous
 62
     7
100
AcDbLine
 10
1644.188327476391
 20
136.6127854878496
 30
0.0
 11
1644.413729261727
 21
136.0603301316338
 31
0.0
  0
LINE
  5
1AF
330
1F
100
AcDbEntity
  8
1
  6
Continuous
 62
     7
100
AcDbLine
 10
1643.962925691055
 20
136.9442587015791
 30
0.0
 11
1644.188327476391
 21
136.6127854878496
 31
0.0
  0
LINE
  5
1B0
330
1F
100
AcDbEntity
  8
1
  6
Continuous
 62
     7
100
AcDbLine
 10
1643.587256048828
 20
137.0547497728223
 30
0.0
 11
1643.962925691055
 21
136.9442587015791
 31
0.0
  0
LINE
  5
1B1
330
1F
100
AcDbEntity
  8
1
  6
Continuous
 62
     7
100
AcDbLine
 10
1643.286720335047
 20
136.9442587015791
 30
0.0
 11
1643.587256048828
 21
137.0547497728223
 31
0.0
  0
LINE
  5
1B2
330
1F
100
AcDbEntity
  8
1
  6
Continuous
 62
     7
100
AcDbLine
 10
1642.986184621265
 20
136.6127854878496
 30
0.0
 11
1643.286720335047
 21
136.9442587015791
 31
0.0
  0
LINE
  5
1B3
330
1F
100
AcDbEntity
  8
1
  6
Continuous
 62
     7
100
AcDbLine
 10
1642.835916764374
 20
136.0603301316338
 30
0.0
 11
1642.986184621265
 21
136.6127854878496
 31
0.0
  0
LINE
  5
1B4
330
1F
100
AcDbEntity
  8
1
  6
Continuous
 62
     7
100
AcDbLine
 10
1642.835916764374
 20
131.5301962106641
 30
0.0
 11
1642.835916764374
 21
136.0603301316338
 31
0.0
  0
LINE
  5
1B5
330
1F
100
AcDbEntity
  8
1
  6
Continuous
 62
     7
100
AcDbLine
 10
1642.009443551475
 20
131.5301962106641
 30
0.0
 11
1642.835916764374
 21
131.5301962106641
 31
0.0
  0
LINE
  5
1B6
330
1F
100
AcDbEntity
  8
1
  6
Continuous
 62
     7
100
AcDbLine
 10
1642.009443551475
 20
135.6183658466611
 30
0.0
 11
1642.009443551475
 21
131.5301962106641
 31
0.0
  0
LINE
  5
1B7
330
1F
100
AcDbEntity
  8
1
  6
Continuous
 62
     7
100
AcDbLine
 10
1641.93430962303
 20
136.0603301316338
 30
0.0
 11
1642.009443551475
 21
135.6183658466611
 31
0.0
  0
LINE
  5
1B8
330
1F
100
AcDbEntity
  8
1
  6
Continuous
 62
     7
100
AcDbLine
 10
1641.708907837694
 20
136.6127854878496
 30
0.0
 11
1641.93430962303
 21
136.0603301316338
 31
0.0
  0
LINE
  5
1B9
330
1F
100
AcDbEntity
  8
1
  6
Continuous
 62
     7
100
AcDbLine
 10
1641.483506052358
 20
136.9442587015791
 30
0.0
 11
1641.708907837694
 21
136.6127854878496
 31
0.0
  0
LINE
  5
1BA
330
1F
100
AcDbEntity
  8
1
  6
Continuous
 62
     7
100
AcDbLine
 10
1641.107836410131
 20
137.0547497728223
 30
0.0
 11
1641.483506052358
 21
136.9442587015791
 31
0.0
  0
LINE
  5
1BB
330
1F
100
AcDbEntity
  8
1
  6
Continuous
 62
     7
100
AcDbLine
 10
1640.80730069635
 20
136.9442587015791
 30
0.0
 11
1641.107836410131
 21
137.0547497728223
 31
0.0
  0
LINE
  5
1BC
330
1F
100
AcDbEntity
  8
1
  6
Continuous
 62
     7
100
AcDbLine
 10
1640.506764982569
 20
136.6127854878496
 30
0.0
 11
1640.80730069635
 21
136.9442587015791
 31
0.0
  0
LINE
  5
1BD
330
1F
100
AcDbEntity
  8
1
  6
Continuous
 62
     7
100
AcDbLine
 10
1640.356497125678
 20
136.0603301316338
 30
0.0
 11
1640.506764982569
 21
136.6127854878496
 31
0.0
  0
LINE
  5
1BE
330
1F
100
AcDbEntity
  8
1
  6
Continuous
 62
     7
100
AcDbLine
 10
1640.356497125678
 20
131.5301962106641
 30
0.0
 11
1640.356497125678
 21
136.0603301316338
 31
0.0
  0
LINE
  5
1BF
330
1F
100
AcDbEntity
  8
1
  6
Continuous
 62
     7
100
AcDbLine
 10
1639.530023912779
 20
131.5301962106641
 30
0.0
 11
1640.356497125678
 21
131.5301962106641
 31
0.0
  0
LINE
  5
1C0
330
1F
100
AcDbEntity
  8
1
  6
Continuous
 62
     7
100
AcDbLine
 10
1639.530023912779
 20
138.0491694140108
 30
0.0
 11
1639.530023912779
 21
131.5301962106641
 31
0.0
  0
LINE
  5
1C1
330
1F
100
AcDbEntity
  8
1
  6
Continuous
 62
     7
100
AcDbLine
 10
1640.356497125678
 20
138.0491694140108
 30
0.0
 11
1639.530023912779
 21
138.0491694140108
 31
0.0
  0
LINE
  5
1C2
330
1F
100
AcDbEntity
  8
1
  6
Continuous
 62
     7
100
AcDbLine
 10
1640.356497125678
 20
137.4967140577949
 30
0.0
 11
1640.356497125678
 21
138.0491694140108
 31
0.0
  0
LINE
  5
1C3
330
1F
100
AcDbEntity
  8
1
  6
Continuous
 62
     7
100
AcDbLine
 10
1640.581898911014
 20
137.9386783427676
 30
0.0
 11
1640.356497125678
 21
137.4967140577949
 31
0.0
  0
LINE
  5
1C4
330
1F
100
AcDbEntity
  8
1
  6
Continuous
 62
     7
100
AcDbLine
 10
1641.032702481686
 20
138.1596604852539
 30
0.0
 11
1640.581898911014
 21
137.9386783427676
 31
0.0
  0
LINE
  5
1C5
330
1F
100
AcDbEntity
  8
1
  6
Continuous
 62
     7
100
AcDbLine
 10
1641.333238195467
 20
138.1596604852539
 30
0.0
 11
1641.032702481686
 21
138.1596604852539
 31
0.0
  0
LINE
  5
1C6
330
1F
100
AcDbEntity
  8
1
  6
Continuous
 62
     7
100
AcDbLine
 10
1641.859175694585
 20
137.9386783427676
 30
0.0
 11
1641.333238195467
 21
138.1596604852539
 31
0.0
  0
LINE
  5
1C7
330
1F
100
AcDbEntity
  8
1
  6
Continuous
 62
     7
100
AcDbLine
 10
1642.309979265257
 20
137.4967140577949
 30
0.0
 11
1641.859175694585
 21
137.9386783427676
 31
0.0
  0
LINE
  5
1C8
330
1F
100
AcDbEntity
  8
1
  6
Continuous
 62
     7
100
AcDbLine
 10
1642.610514979038
 20
137.0547497728223
 30
0.0
 11
1642.309979265257
 21
137.4967140577949
 31
0.0
  0
LINE
  5
1C9
330
1F
100
AcDbEntity
  8
1
  6
Continuous
 62
     7
100
AcDbLine
 10
1642.835916764374
 20
137.6072051290381
 30
0.0
 11
1642.610514979038
 21
137.0547497728223
 31
0.0
  0
LINE
  5
1CA
330
1F
100
AcDbEntity
  8
1
  6
Continuous
 62
     7
100
AcDbLine
 10
1636.148997132738
 20
137.9386783427676
 30
0.0
 11
1635.848461418957
 21
137.6072051290381
 31
0.0
  0
LINE
  5
1CB
330
1F
100
AcDbEntity
  8
1
  6
Continuous
 62
     7
100
AcDbLine
 10
1636.524666774965
 20
138.1596604852539
 30
0.0
 11
1636.148997132738
 21
137.9386783427676
 31
0.0
  0
LINE
  5
1CC
330
1F
100
AcDbEntity
  8
1
  6
Continuous
 62
     7
100
AcDbLine
 10
1636.825202488746
 20
138.1596604852539
 30
0.0
 11
1636.524666774965
 21
138.1596604852539
 31
0.0
  0
LINE
  5
1CD
330
1F
100
AcDbEntity
  8
1
  6
Continuous
 62
     7
100
AcDbLine
 10
1637.351139987864
 20
137.9386783427676
 30
0.0
 11
1636.825202488746
 21
138.1596604852539
 31
0.0
  0
LINE
  5
1CE
330
1F
100
AcDbEntity
  8
1
  6
Continuous
 62
     7
100
AcDbLine
 10
1637.801943558536
 20
137.4967140577949
 30
0.0
 11
1637.351139987864
 21
137.9386783427676
 31
0.0
  0
LINE
  5
1CF
330
1F
100
AcDbEntity
  8
1
  6
Continuous
 62
     7
100
AcDbLine
 10
1638.027345343872
 20
137.0547497728223
 30
0.0
 11
1637.801943558536
 21
137.4967140577949
 31
0.0
  0
LINE
  5
1D0
330
1F
100
AcDbEntity
  8
1
  6
Continuous
 62
     7
100
AcDbLine
 10
1638.252747129208
 20
136.3918033453633
 30
0.0
 11
1638.027345343872
 21
137.0547497728223
 31
0.0
  0
LINE
  5
1D1
330
1F
100
AcDbEntity
  8
1
  6
Continuous
 62
     7
100
AcDbLine
 10
1638.327881057653
 20
135.507874775418
 30
0.0
 11
1638.252747129208
 21
136.3918033453633
 31
0.0
  0
LINE
  5
1D2
330
1F
100
AcDbEntity
  8
1
  6
Continuous
 62
     7
100
AcDbLine
 10
1638.327881057653
 20
131.5301962106641
 30
0.0
 11
1638.327881057653
 21
135.507874775418
 31
0.0
  0
LINE
  5
1D3
330
1F
100
AcDbEntity
  8
1
  6
Continuous
 62
     7
100
AcDbLine
 10
1637.501407844755
 20
131.5301962106641
 30
0.0
 11
1638.327881057653
 21
131.5301962106641
 31
0.0
  0
LINE
  5
1D4
330
1F
100
AcDbEntity
  8
1
  6
Continuous
 62
     7
100
AcDbLine
 10
1637.501407844755
 20
135.6183658466611
 30
0.0
 11
1637.501407844755
 21
131.5301962106641
 31
0.0
  0
LINE
  5
1D5
330
1F
100
AcDbEntity
  8
1
  6
Continuous
 62
     7
100
AcDbLine
 10
1637.426273916309
 20
136.0603301316338
 30
0.0
 11
1637.501407844755
 21
135.6183658466611
 31
0.0
  0
LINE
  5
1D6
330
1F
100
AcDbEntity
  8
1
  6
Continuous
 62
     7
100
AcDbLine
 10
1637.200872130973
 20
136.6127854878496
 30
0.0
 11
1637.426273916309
 21
136.0603301316338
 31
0.0
  0
LINE
  5
1D7
330
1F
100
AcDbEntity
  8
1
  6
Continuous
 62
     7
100
AcDbLine
 10
1636.975470345637
 20
136.9442587015791
 30
0.0
 11
1637.200872130973
 21
136.6127854878496
 31
0.0
  0
LINE
  5
1D8
330
1F
100
AcDbEntity
  8
1
  6
Continuous
 62
     7
100
AcDbLine
 10
1636.59980070341
 20
137.0547497728223
 30
0.0
 11
1636.975470345637
 21
136.9442587015791
 31
0.0
  0
LINE
  5
1D9
330
1F
100
AcDbEntity
  8
1
  6
Continuous
 62
     7
100
AcDbLine
 10
1636.299264989629
 20
136.9442587015791
 30
0.0
 11
1636.59980070341
 21
137.0547497728223
 31
0.0
  0
LINE
  5
1DA
330
1F
100
AcDbEntity
  8
1
  6
Continuous
 62
     7
100
AcDbLine
 10
1635.998729275847
 20
136.6127854878496
 30
0.0
 11
1636.299264989629
 21
136.9442587015791
 31
0.0
  0
LINE
  5
1DB
330
1F
100
AcDbEntity
  8
1
  6
Continuous
 62
     7
100
AcDbLine
 10
1635.848461418957
 20
136.0603301316338
 30
0.0
 11
1635.998729275847
 21
136.6127854878496
 31
0.0
  0
LINE
  5
1DC
330
1F
100
AcDbEntity
  8
1
  6
Continuous
 62
     7
100
AcDbLine
 10
1635.848461418957
 20
131.5301962106641
 30
0.0
 11
1635.848461418957
 21
136.0603301316338
 31
0.0
  0
LINE
  5
1DD
330
1F
100
AcDbEntity
  8
1
  6
Continuous
 62
     7
100
AcDbLine
 10
1635.021988206058
 20
131.5301962106641
 30
0.0
 11
1635.848461418957
 21
131.5301962106641
 31
0.0
  0
LINE
  5
1DE
330
1F
100
AcDbEntity
  8
1
  6
Continuous
 62
     7
100
AcDbLine
 10
1635.021988206058
 20
135.6183658466611
 30
0.0
 11
1635.021988206058
 21
131.5301962106641
 31
0.0
  0
LINE
  5
1DF
330
1F
100
AcDbEntity
  8
1
  6
Continuous
 62
     7
100
AcDbLine
 10
1634.946854277613
 20
136.0603301316338
 30
0.0
 11
1635.021988206058
 21
135.6183658466611
 31
0.0
  0
LINE
  5
1E0
330
1F
100
AcDbEntity
  8
1
  6
Continuous
 62
     7
100
AcDbLine
 10
1634.721452492277
 20
136.6127854878496
 30
0.0
 11
1634.946854277613
 21
136.0603301316338
 31
0.0
  0
LINE
  5
1E1
330
1F
100
AcDbEntity
  8
1
  6
Continuous
 62
     7
100
AcDbLine
 10
1634.49605070694
 20
136.9442587015791
 30
0.0
 11
1634.721452492277
 21
136.6127854878496
 31
0.0
  0
LINE
  5
1E2
330
1F
100
AcDbEntity
  8
1
  6
Continuous
 62
     7
100
AcDbLine
 10
1634.120381064714
 20
137.0547497728223
 30
0.0
 11
1634.49605070694
 21
136.9442587015791
 31
0.0
  0
LINE
  5
1E3
330
1F
100
AcDbEntity
  8
1
  6
Continuous
 62
     7
100
AcDbLine
 10
1633.819845350932
 20
136.9442587015791
 30
0.0
 11
1634.120381064714
 21
137.0547497728223
 31
0.0
  0
LINE
  5
1E4
330
1F
100
AcDbEntity
  8
1
  6
Continuous
 62
     7
100
AcDbLine
 10
1633.519309637151
 20
136.6127854878496
 30
0.0
 11
1633.819845350932
 21
136.9442587015791
 31
0.0
  0
LINE
  5
1E5
330
1F
100
AcDbEntity
  8
1
  6
Continuous
 62
     7
100
AcDbLine
 10
1633.36904178026
 20
136.0603301316338
 30
0.0
 11
1633.519309637151
 21
136.6127854878496
 31
0.0
  0
LINE
  5
1E6
330
1F
100
AcDbEntity
  8
1
  6
Continuous
 62
     7
100
AcDbLine
 10
1633.36904178026
 20
131.5301962106641
 30
0.0
 11
1633.36904178026
 21
136.0603301316338
 31
0.0
  0
LINE
  5
1E7
330
1F
100
AcDbEntity
  8
1
  6
Continuous
 62
     7
100
AcDbLine
 10
1632.542568567361
 20
131.5301962106641
 30
0.0
 11
1633.36904178026
 21
131.5301962106641
 31
0.0
  0
LINE
  5
1E8
330
1F
100
AcDbEntity
  8
1
  6
Continuous
 62
     7
100
AcDbLine
 10
1632.542568567361
 20
138.0491694140108
 30
0.0
 11
1632.542568567361
 21
131.5301962106641
 31
0.0
  0
LINE
  5
1E9
330
1F
100
AcDbEntity
  8
1
  6
Continuous
 62
     7
100
AcDbLine
 10
1633.36904178026
 20
138.0491694140108
 30
0.0
 11
1632.542568567361
 21
138.0491694140108
 31
0.0
  0
LINE
  5
1EA
330
1F
100
AcDbEntity
  8
1
  6
Continuous
 62
     7
100
AcDbLine
 10
1633.36904178026
 20
137.4967140577949
 30
0.0
 11
1633.36904178026
 21
138.0491694140108
 31
0.0
  0
LINE
  5
1EB
330
1F
100
AcDbEntity
  8
1
  6
Continuous
 62
     7
100
AcDbLine
 10
1633.594443565596
 20
137.9386783427676
 30
0.0
 11
1633.36904178026
 21
137.4967140577949
 31
0.0
  0
LINE
  5
1EC
330
1F
100
AcDbEntity
  8
1
  6
Continuous
 62
     7
100
AcDbLine
 10
1634.045247136268
 20
138.1596604852539
 30
0.0
 11
1633.594443565596
 21
137.9386783427676
 31
0.0
  0
LINE
  5
1ED
330
1F
100
AcDbEntity
  8
1
  6
Continuous
 62
     7
100
AcDbLine
 10
1634.34578285005
 20
138.1596604852539
 30
0.0
 11
1634.045247136268
 21
138.1596604852539
 31
0.0
  0
LINE
  5
1EE
330
1F
100
AcDbEntity
  8
1
  6
Continuous
 62
     7
100
AcDbLine
 10
1634.871720349167
 20
137.9386783427676
 30
0.0
 11
1634.34578285005
 21
138.1596604852539
 31
0.0
  0
LINE
  5
1EF
330
1F
100
AcDbEntity
  8
1
  6
Continuous
 62
     7
100
AcDbLine
 10
1635.322523919839
 20
137.4967140577949
 30
0.0
 11
1634.871720349167
 21
137.9386783427676
 31
0.0
  0
LINE
  5
1F0
330
1F
100
AcDbEntity
  8
1
  6
Continuous
 62
     7
100
AcDbLine
 10
1635.623059633621
 20
137.0547497728223
 30
0.0
 11
1635.322523919839
 21
137.4967140577949
 31
0.0
  0
LINE
  5
1F1
330
1F
100
AcDbEntity
  8
1
  6
Continuous
 62
     7
100
AcDbLine
 10
1635.848461418957
 20
137.6072051290381
 30
0.0
 11
1635.623059633621
 21
137.0547497728223
 31
0.0
  0
LINE
  5
1F2
330
1F
100
AcDbEntity
  8
1
  6
Continuous
 62
     7
100
AcDbLine
 10
1652.74437948311
 20
315.8872877476419
 30
0.0
 11
1653.047425246476
 21
315.5741404588307
 31
0.0
  0
LINE
  5
1F3
330
1F
100
AcDbEntity
  8
1
  6
Continuous
 62
     7
100
AcDbLine
 10
1652.5423489742
 20
316.2787218586559
 30
0.0
 11
1652.74437948311
 21
315.8872877476419
 31
0.0
  0
LINE
  5
1F4
330
1F
100
AcDbEntity
  8
1
  6
Continuous
 62
     7
100
AcDbLine
 10
1652.5423489742
 20
316.591869147467
 30
0.0
 11
1652.5423489742
 21
316.2787218586559
 31
0.0
  0
LINE
  5
1F5
330
1F
100
AcDbEntity
  8
1
  6
Continuous
 62
     7
100
AcDbLine
 10
1652.74437948311
 20
317.1398769028866
 30
0.0
 11
1652.5423489742
 21
316.591869147467
 31
0.0
  0
LINE
  5
1F6
330
1F
100
AcDbEntity
  8
1
  6
Continuous
 62
     7
100
AcDbLine
 10
1653.148440500931
 20
317.6095978361034
 30
0.0
 11
1652.74437948311
 21
317.1398769028866
 31
0.0
  0
LINE
  5
1F7
330
1F
100
AcDbEntity
  8
1
  6
Continuous
 62
     7
100
AcDbLine
 10
1653.552501518752
 20
317.8444583027118
 30
0.0
 11
1653.148440500931
 21
317.6095978361034
 31
0.0
  0
LINE
  5
1F8
330
1F
100
AcDbEntity
  8
1
  6
Continuous
 62
     7
100
AcDbLine
 10
1654.158593045483
 20
318.0793187693202
 30
0.0
 11
1653.552501518752
 21
317.8444583027118
 31
0.0
  0
LINE
  5
1F9
330
1F
100
AcDbEntity
  8
1
  6
Continuous
 62
     7
100
AcDbLine
 10
1654.966715081125
 20
318.157605591523
 30
0.0
 11
1654.158593045483
 21
318.0793187693202
 31
0.0
  0
LINE
  5
1FA
330
1F
100
AcDbEntity
  8
1
  6
Continuous
 62
     7
100
AcDbLine
 10
1658.603264241513
 20
318.157605591523
 30
0.0
 11
1654.966715081125
 21
318.157605591523
 31
0.0
  0
LINE
  5
1FB
330
1F
100
AcDbEntity
  8
1
  6
Continuous
 62
     7
100
AcDbLine
 10
1658.603264241513
 20
317.2964505472922
 30
0.0
 11
1658.603264241513
 21
318.157605591523
 31
0.0
  0
LINE
  5
1FC
330
1F
100
AcDbEntity
  8
1
  6
Continuous
 62
     7
100
AcDbLine
 10
1654.86569982667
 20
317.2964505472922
 30
0.0
 11
1658.603264241513
 21
317.2964505472922
 31
0.0
  0
LINE
  5
1FD
330
1F
100
AcDbEntity
  8
1
  6
Continuous
 62
     7
100
AcDbLine
 10
1654.461638808849
 20
317.2181637250894
 30
0.0
 11
1654.86569982667
 21
317.2964505472922
 31
0.0
  0
LINE
  5
1FE
330
1F
100
AcDbEntity
  8
1
  6
Continuous
 62
     7
100
AcDbLine
 10
1653.956562536573
 20
316.983303258481
 30
0.0
 11
1654.461638808849
 21
317.2181637250894
 31
0.0
  0
LINE
  5
1FF
330
1F
100
AcDbEntity
  8
1
  6
Continuous
 62
     7
100
AcDbLine
 10
1653.653516773207
 20
316.7484427918727
 30
0.0
 11
1653.956562536573
 21
316.983303258481
 31
0.0
  0
LINE
  5
200
330
1F
100
AcDbEntity
  8
1
  6
Continuous
 62
     7
100
AcDbLine
 10
1653.552501518752
 20
316.3570086808587
 30
0.0
 11
1653.653516773207
 21
316.7484427918727
 31
0.0
  0
LINE
  5
201
330
1F
100
AcDbEntity
  8
1
  6
Continuous
 62
     7
100
AcDbLine
 10
1653.653516773207
 20
316.0438613920475
 30
0.0
 11
1653.552501518752
 21
316.3570086808587
 31
0.0
  0
LINE
  5
202
330
1F
100
AcDbEntity
  8
1
  6
Continuous
 62
     7
100
AcDbLine
 10
1653.956562536573
 20
315.7307141032363
 30
0.0
 11
1653.653516773207
 21
316.0438613920475
 31
0.0
  0
LINE
  5
203
330
1F
100
AcDbEntity
  8
1
  6
Continuous
 62
     7
100
AcDbLine
 10
1654.461638808849
 20
315.5741404588307
 30
0.0
 11
1653.956562536573
 21
315.7307141032363
 31
0.0
  0
LINE
  5
204
330
1F
100
AcDbEntity
  8
1
  6
Continuous
 62
     7
100
AcDbLine
 10
1658.603264241513
 20
315.5741404588307
 30
0.0
 11
1654.461638808849
 21
315.5741404588307
 31
0.0
  0
LINE
  5
205
330
1F
100
AcDbEntity
  8
1
  6
Continuous
 62
     7
100
AcDbLine
 10
1658.603264241513
 20
314.7129854145999
 30
0.0
 11
1658.603264241513
 21
315.5741404588307
 31
0.0
  0
LINE
  5
206
330
1F
100
AcDbEntity
  8
1
  6
Continuous
 62
     7
100
AcDbLine
 10
1654.86569982667
 20
314.7129854145999
 30
0.0
 11
1658.603264241513
 21
314.7129854145999
 31
0.0
  0
LINE
  5
207
330
1F
100
AcDbEntity
  8
1
  6
Continuous
 62
     7
100
AcDbLine
 10
1654.461638808849
 20
314.6346985923972
 30
0.0
 11
1654.86569982667
 21
314.7129854145999
 31
0.0
  0
LINE
  5
208
330
1F
100
AcDbEntity
  8
1
  6
Continuous
 62
     7
100
AcDbLine
 10
1653.956562536573
 20
314.3998381257888
 30
0.0
 11
1654.461638808849
 21
314.6346985923972
 31
0.0
  0
LINE
  5
209
330
1F
100
AcDbEntity
  8
1
  6
Continuous
 62
     7
100
AcDbLine
 10
1653.653516773207
 20
314.1649776591804
 30
0.0
 11
1653.956562536573
 21
314.3998381257888
 31
0.0
  0
LINE
  5
20A
330
1F
100
AcDbEntity
  8
1
  6
Continuous
 62
     7
100
AcDbLine
 10
1653.552501518752
 20
313.7735435481664
 30
0.0
 11
1653.653516773207
 21
314.1649776591804
 31
0.0
  0
LINE
  5
20B
330
1F
100
AcDbEntity
  8
1
  6
Continuous
 62
     7
100
AcDbLine
 10
1653.653516773207
 20
313.4603962593552
 30
0.0
 11
1653.552501518752
 21
313.7735435481664
 31
0.0
  0
LINE
  5
20C
330
1F
100
AcDbEntity
  8
1
  6
Continuous
 62
     7
100
AcDbLine
 10
1653.956562536573
 20
313.147248970544
 30
0.0
 11
1653.653516773207
 21
313.4603962593552
 31
0.0
  0
LINE
  5
20D
330
1F
100
AcDbEntity
  8
1
  6
Continuous
 62
     7
100
AcDbLine
 10
1654.461638808849
 20
312.9906753261384
 30
0.0
 11
1653.956562536573
 21
313.147248970544
 31
0.0
  0
LINE
  5
20E
330
1F
100
AcDbEntity
  8
1
  6
Continuous
 62
     7
100
AcDbLine
 10
1658.603264241513
 20
312.9906753261384
 30
0.0
 11
1654.461638808849
 21
312.9906753261384
 31
0.0
  0
LINE
  5
20F
330
1F
100
AcDbEntity
  8
1
  6
Continuous
 62
     7
100
AcDbLine
 10
1658.603264241513
 20
312.1295202819077
 30
0.0
 11
1658.603264241513
 21
312.9906753261384
 31
0.0
  0
LINE
  5
210
330
1F
100
AcDbEntity
  8
1
  6
Continuous
 62
     7
100
AcDbLine
 10
1652.643364228655
 20
312.1295202819077
 30
0.0
 11
1658.603264241513
 21
312.1295202819077
 31
0.0
  0
LINE
  5
211
330
1F
100
AcDbEntity
  8
1
  6
Continuous
 62
     7
100
AcDbLine
 10
1652.643364228655
 20
312.9906753261384
 30
0.0
 11
1652.643364228655
 21
312.1295202819077
 31
0.0
  0
LINE
  5
212
330
1F
100
AcDbEntity
  8
1
  6
Continuous
 62
     7
100
AcDbLine
 10
1653.148440500931
 20
312.9906753261384
 30
0.0
 11
1652.643364228655
 21
312.9906753261384
 31
0.0
  0
LINE
  5
213
330
1F
100
AcDbEntity
  8
1
  6
Continuous
 62
     7
100
AcDbLine
 10
1652.74437948311
 20
313.2255357927468
 30
0.0
 11
1653.148440500931
 21
312.9906753261384
 31
0.0
  0
LINE
  5
214
330
1F
100
AcDbEntity
  8
1
  6
Continuous
 62
     7
100
AcDbLine
 10
1652.5423489742
 20
313.6952567259636
 30
0.0
 11
1652.74437948311
 21
313.2255357927468
 31
0.0
  0
LINE
  5
215
330
1F
100
AcDbEntity
  8
1
  6
Continuous
 62
     7
100
AcDbLine
 10
1652.5423489742
 20
314.0084040147748
 30
0.0
 11
1652.5423489742
 21
313.6952567259636
 31
0.0
  0
LINE
  5
216
330
1F
100
AcDbEntity
  8
1
  6
Continuous
 62
     7
100
AcDbLine
 10
1652.74437948311
 20
314.5564117701944
 30
0.0
 11
1652.5423489742
 21
314.0084040147748
 31
0.0
  0
LINE
  5
217
330
1F
100
AcDbEntity
  8
1
  6
Continuous
 62
     7
100
AcDbLine
 10
1653.148440500931
 20
315.0261327034111
 30
0.0
 11
1652.74437948311
 21
314.5564117701944
 31
0.0
  0
LINE
  5
218
330
1F
100
AcDbEntity
  8
1
  6
Continuous
 62
     7
100
AcDbLine
 10
1653.552501518752
 20
315.3392799922223
 30
0.0
 11
1653.148440500931
 21
315.0261327034111
 31
0.0
  0
LINE
  5
219
330
1F
100
AcDbEntity
  8
1
  6
Continuous
 62
     7
100
AcDbLine
 10
1653.047425246476
 20
315.5741404588307
 30
0.0
 11
1653.552501518752
 21
315.3392799922223
 31
0.0
  0
LINE
  5
21A
330
1F
100
AcDbEntity
  8
1
  6
Continuous
 62
     7
100
AcDbLine
 10
1652.695860254528
 20
307.2112082216953
 30
0.0
 11
1652.998906017894
 21
306.8980609328841
 31
0.0
  0
LINE
  5
21B
330
1F
100
AcDbEntity
  8
1
  6
Continuous
 62
     7
100
AcDbLine
 10
1652.493829745618
 20
307.6026423327093
 30
0.0
 11
1652.695860254528
 21
307.2112082216953
 31
0.0
  0
LINE
  5
21C
330
1F
100
AcDbEntity
  8
1
  6
Continuous
 62
     7
100
AcDbLine
 10
1652.493829745618
 20
307.9157896215205
 30
0.0
 11
1652.493829745618
 21
307.6026423327093
 31
0.0
  0
LINE
  5
21D
330
1F
100
AcDbEntity
  8
1
  6
Continuous
 62
     7
100
AcDbLine
 10
1652.695860254528
 20
308.46379737694
 30
0.0
 11
1652.493829745618
 21
307.9157896215205
 31
0.0
  0
LINE
  5
21E
330
1F
100
AcDbEntity
  8
1
  6
Continuous
 62
     7
100
AcDbLine
 10
1653.099921272349
 20
308.9335183101568
 30
0.0
 11
1652.695860254528
 21
308.46379737694
 31
0.0
  0
LINE
  5
21F
330
1F
100
AcDbEntity
  8
1
  6
Continuous
 62
     7
100
AcDbLine
 10
1653.50398229017
 20
309.1683787767652
 30
0.0
 11
1653.099921272349
 21
308.9335183101568
 31
0.0
  0
LINE
  5
220
330
1F
100
AcDbEntity
  8
1
  6
Continuous
 62
     7
100
AcDbLine
 10
1654.110073816901
 20
309.4032392433736
 30
0.0
 11
1653.50398229017
 21
309.1683787767652
 31
0.0
  0
LINE
  5
221
330
1F
100
AcDbEntity
  8
1
  6
Continuous
 62
     7
100
AcDbLine
 10
1654.918195852543
 20
309.4815260655764
 30
0.0
 11
1654.110073816901
 21
309.4032392433736
 31
0.0
  0
LINE
  5
222
330
1F
100
AcDbEntity
  8
1
  6
Continuous
 62
     7
100
AcDbLine
 10
1658.554745012931
 20
309.4815260655764
 30
0.0
 11
1654.918195852543
 21
309.4815260655764
 31
0.0
  0
LINE
  5
223
330
1F
100
AcDbEntity
  8
1
  6
Continuous
 62
     7
100
AcDbLine
 10
1658.554745012931
 20
308.6203710213457
 30
0.0
 11
1658.554745012931
 21
309.4815260655764
 31
0.0
  0
LINE
  5
224
330
1F
100
AcDbEntity
  8
1
  6
Continuous
 62
     7
100
AcDbLine
 10
1654.817180598088
 20
308.6203710213457
 30
0.0
 11
1658.554745012931
 21
308.6203710213457
 31
0.0
  0
LINE
  5
225
330
1F
100
AcDbEntity
  8
1
  6
Continuous
 62
     7
100
AcDbLine
 10
1654.413119580267
 20
308.5420841991428
 30
0.0
 11
1654.817180598088
 21
308.6203710213457
 31
0.0
  0
LINE
  5
226
330
1F
100
AcDbEntity
  8
1
  6
Continuous
 62
     7
100
AcDbLine
 10
1653.908043307991
 20
308.3072237325345
 30
0.0
 11
1654.413119580267
 21
308.5420841991428
 31
0.0
  0
LINE
  5
227
330
1F
100
AcDbEntity
  8
1
  6
Continuous
 62
     7
100
AcDbLine
 10
1653.604997544625
 20
308.0723632659261
 30
0.0
 11
1653.908043307991
 21
308.3072237325345
 31
0.0
  0
LINE
  5
228
330
1F
100
AcDbEntity
  8
1
  6
Continuous
 62
     7
100
AcDbLine
 10
1653.50398229017
 20
307.6809291549121
 30
0.0
 11
1653.604997544625
 21
308.0723632659261
 31
0.0
  0
LINE
  5
229
330
1F
100
AcDbEntity
  8
1
  6
Continuous
 62
     7
100
AcDbLine
 10
1653.604997544625
 20
307.3677818661009
 30
0.0
 11
1653.50398229017
 21
307.6809291549121
 31
0.0
  0
LINE
  5
22A
330
1F
100
AcDbEntity
  8
1
  6
Continuous
 62
     7
100
AcDbLine
 10
1653.908043307991
 20
307.0546345772897
 30
0.0
 11
1653.604997544625
 21
307.3677818661009
 31
0.0
  0
LINE
  5
22B
330
1F
100
AcDbEntity
  8
1
  6
Continuous
 62
     7
100
AcDbLine
 10
1654.413119580267
 20
306.8980609328841
 30
0.0
 11
1653.908043307991
 21
307.0546345772897
 31
0.0
  0
LINE
  5
22C
330
1F
100
AcDbEntity
  8
1
  6
Continuous
 62
     7
100
AcDbLine
 10
1658.554745012931
 20
306.8980609328841
 30
0.0
 11
1654.413119580267
 21
306.8980609328841
 31
0.0
  0
LINE
  5
22D
330
1F
100
AcDbEntity
  8
1
  6
Continuous
 62
     7
100
AcDbLine
 10
1658.554745012931
 20
306.0369058886533
 30
0.0
 11
1658.554745012931
 21
306.8980609328841
 31
0.0
  0
LINE
  5
22E
330
1F
100
AcDbEntity
  8
1
  6
Continuous
 62
     7
100
AcDbLine
 10
1654.817180598088
 20
306.0369058886533
 30
0.0
 11
1658.554745012931
 21
306.0369058886533
 31
0.0
  0
LINE
  5
22F
330
1F
100
AcDbEntity
  8
1
  6
Continuous
 62
     7
100
AcDbLine
 10
1654.413119580267
 20
305.9586190664506
 30
0.0
 11
1654.817180598088
 21
306.0369058886533
 31
0.0
  0
LINE
  5
230
330
1F
100
AcDbEntity
  8
1
  6
Continuous
 62
     7
100
AcDbLine
 10
1653.908043307991
 20
305.7237585998422
 30
0.0
 11
1654.413119580267
 21
305.9586190664506
 31
0.0
  0
LINE
  5
231
330
1F
100
AcDbEntity
  8
1
  6
Continuous
 62
     7
100
AcDbLine
 10
1653.604997544625
 20
305.4888981332338
 30
0.0
 11
1653.908043307991
 21
305.7237585998422
 31
0.0
  0
LINE
  5
232
330
1F
100
AcDbEntity
  8
1
  6
Continuous
 62
     7
100
AcDbLine
 10
1653.50398229017
 20
305.0974640222198
 30
0.0
 11
1653.604997544625
 21
305.4888981332338
 31
0.0
  0
LINE
  5
233
330
1F
100
AcDbEntity
  8
1
  6
Continuous
 62
     7
100
AcDbLine
 10
1653.604997544625
 20
304.7843167334086
 30
0.0
 11
1653.50398229017
 21
305.0974640222198
 31
0.0
  0
LINE
  5
234
330
1F
100
AcDbEntity
  8
1
  6
Continuous
 62
     7
100
AcDbLine
 10
1653.908043307991
 20
304.4711694445974
 30
0.0
 11
1653.604997544625
 21
304.7843167334086
 31
0.0
  0
LINE
  5
235
330
1F
100
AcDbEntity
  8
1
  6
Continuous
 62
     7
100
AcDbLine
 10
1654.413119580267
 20
304.3145958001919
 30
0.0
 11
1653.908043307991
 21
304.4711694445974
 31
0.0
  0
LINE
  5
236
330
1F
100
AcDbEntity
  8
1
  6
Continuous
 62
     7
100
AcDbLine
 10
1658.554745012931
 20
304.3145958001919
 30
0.0
 11
1654.413119580267
 21
304.3145958001919
 31
0.0
  0
LINE
  5
237
330
1F
100
AcDbEntity
  8
1
  6
Continuous
 62
     7
100
AcDbLine
 10
1658.554745012931
 20
303.4534407559611
 30
0.0
 11
1658.554745012931
 21
304.3145958001919
 31
0.0
  0
LINE
  5
238
330
1F
100
AcDbEntity
  8
1
  6
Continuous
 62
     7
100
AcDbLine
 10
1652.594845000073
 20
303.4534407559611
 30
0.0
 11
1658.554745012931
 21
303.4534407559611
 31
0.0
  0
LINE
  5
239
330
1F
100
AcDbEntity
  8
1
  6
Continuous
 62
     7
100
AcDbLine
 10
1652.594845000073
 20
304.3145958001919
 30
0.0
 11
1652.594845000073
 21
303.4534407559611
 31
0.0
  0
LINE
  5
23A
330
1F
100
AcDbEntity
  8
1
  6
Continuous
 62
     7
100
AcDbLine
 10
1653.099921272349
 20
304.3145958001919
 30
0.0
 11
1652.594845000073
 21
304.3145958001919
 31
0.0
  0
LINE
  5
23B
330
1F
100
AcDbEntity
  8
1
  6
Continuous
 62
     7
100
AcDbLine
 10
1652.695860254528
 20
304.5494562668002
 30
0.0
 11
1653.099921272349
 21
304.3145958001919
 31
0.0
  0
LINE
  5
23C
330
1F
100
AcDbEntity
  8
1
  6
Continuous
 62
     7
100
AcDbLine
 10
1652.493829745618
 20
305.019177200017
 30
0.0
 11
1652.695860254528
 21
304.5494562668002
 31
0.0
  0
LINE
  5
23D
330
1F
100
AcDbEntity
  8
1
  6
Continuous
 62
     7
100
AcDbLine
 10
1652.493829745618
 20
305.3323244888282
 30
0.0
 11
1652.493829745618
 21
305.019177200017
 31
0.0
  0
LINE
  5
23E
330
1F
100
AcDbEntity
  8
1
  6
Continuous
 62
     7
100
AcDbLine
 10
1652.695860254528
 20
305.8803322442478
 30
0.0
 11
1652.493829745618
 21
305.3323244888282
 31
0.0
  0
LINE
  5
23F
330
1F
100
AcDbEntity
  8
1
  6
Continuous
 62
     7
100
AcDbLine
 10
1653.099921272349
 20
306.3500531774645
 30
0.0
 11
1652.695860254528
 21
305.8803322442478
 31
0.0
  0
LINE
  5
240
330
1F
100
AcDbEntity
  8
1
  6
Continuous
 62
     7
100
AcDbLine
 10
1653.50398229017
 20
306.6632004662757
 30
0.0
 11
1653.099921272349
 21
306.3500531774645
 31
0.0
  0
LINE
  5
241
330
1F
100
AcDbEntity
  8
1
  6
Continuous
 62
     7
100
AcDbLine
 10
1652.998906017894
 20
306.8980609328841
 30
0.0
 11
1653.50398229017
 21
306.6632004662757
 31
0.0
  0
LINE
  5
242
330
1F
100
AcDbEntity
  8
1
  6
Continuous
 62
     7
100
AcDbLine
 10
1658.236229784687
 20
299.2718204351777
 30
0.0
 11
1657.995813479084
 21
299.6324448935828
 31
0.0
  0
LINE
  5
243
330
1F
100
AcDbEntity
  8
1
  6
Continuous
 62
     7
100
AcDbLine
 10
1658.476646090291
 20
298.6707796711691
 30
0.0
 11
1658.236229784687
 21
299.2718204351777
 31
0.0
  0
LINE
  5
244
330
1F
100
AcDbEntity
  8
1
  6
Continuous
 62
     7
100
AcDbLine
 10
1658.596854243092
 20
298.1899470599623
 30
0.0
 11
1658.476646090291
 21
298.6707796711691
 31
0.0
  0
LINE
  5
245
330
1F
100
AcDbEntity
  8
1
  6
Continuous
 62
     7
100
AcDbLine
 10
1658.596854243092
 20
297.3484899903503
 30
0.0
 11
1658.596854243092
 21
298.1899470599623
 31
0.0
  0
LINE
  5
246
330
1F
100
AcDbEntity
  8
1
  6
Continuous
 62
     7
100
AcDbLine
 10
1658.476646090291
 20
296.8676573791434
 30
0.0
 11
1658.596854243092
 21
297.3484899903503
 31
0.0
  0
LINE
  5
247
330
1F
100
AcDbEntity
  8
1
  6
Continuous
 62
     7
100
AcDbLine
 10
1658.236229784687
 20
296.2666166151349
 30
0.0
 11
1658.476646090291
 21
296.8676573791434
 31
0.0
  0
LINE
  5
248
330
1F
100
AcDbEntity
  8
1
  6
Continuous
 62
     7
100
AcDbLine
 10
1657.995813479084
 20
295.9059921567297
 30
0.0
 11
1658.236229784687
 21
296.2666166151349
 31
0.0
  0
LINE
  5
249
330
1F
100
AcDbEntity
  8
1
  6
Continuous
 62
     7
100
AcDbLine
 10
1657.635189020679
 20
295.5453676983246
 30
0.0
 11
1657.995813479084
 21
295.9059921567297
 31
0.0
  0
LINE
  5
24A
330
1F
100
AcDbEntity
  8
1
  6
Continuous
 62
     7
100
AcDbLine
 10
1657.154356409472
 20
295.1847432399194
 30
0.0
 11
1657.635189020679
 21
295.5453676983246
 31
0.0
  0
LINE
  5
24B
330
1F
100
AcDbEntity
  8
1
  6
Continuous
 62
     7
100
AcDbLine
 10
1656.673523798265
 20
294.944326934316
 30
0.0
 11
1657.154356409472
 21
295.1847432399194
 31
0.0
  0
LINE
  5
24C
330
1F
100
AcDbEntity
  8
1
  6
Continuous
 62
     7
100
AcDbLine
 10
1656.072483034257
 20
294.7039106287126
 30
0.0
 11
1656.673523798265
 21
294.944326934316
 31
0.0
  0
LINE
  5
24D
330
1F
100
AcDbEntity
  8
1
  6
Continuous
 62
     7
100
AcDbLine
 10
1655.351234117446
 20
294.5837024759109
 30
0.0
 11
1656.072483034257
 21
294.7039106287126
 31
0.0
  0
LINE
  5
24E
330
1F
100
AcDbEntity
  8
1
  6
Continuous
 62
     7
100
AcDbLine
 10
1654.269360742231
 20
294.4634943231092
 30
0.0
 11
1655.351234117446
 21
294.5837024759109
 31
0.0
  0
LINE
  5
24F
330
1F
100
AcDbEntity
  8
1
  6
Continuous
 62
     7
100
AcDbLine
 10
1653.307695519817
 20
294.4634943231092
 30
0.0
 11
1654.269360742231
 21
294.4634943231092
 31
0.0
  0
LINE
  5
250
330
1F
100
AcDbEntity
  8
1
  6
Continuous
 62
     7
100
AcDbLine
 10
1652.225822144602
 20
294.5837024759109
 30
0.0
 11
1653.307695519817
 21
294.4634943231092
 31
0.0
  0
LINE
  5
251
330
1F
100
AcDbEntity
  8
1
  6
Continuous
 62
     7
100
AcDbLine
 10
1651.504573227791
 20
294.7039106287126
 30
0.0
 11
1652.225822144602
 21
294.5837024759109
 31
0.0
  0
LINE
  5
252
330
1F
100
AcDbEntity
  8
1
  6
Continuous
 62
     7
100
AcDbLine
 10
1650.903532463783
 20
294.944326934316
 30
0.0
 11
1651.504573227791
 21
294.7039106287126
 31
0.0
  0
LINE
  5
253
330
1F
100
AcDbEntity
  8
1
  6
Continuous
 62
     7
100
AcDbLine
 10
1650.422699852576
 20
295.1847432399194
 30
0.0
 11
1650.903532463783
 21
294.944326934316
 31
0.0
  0
LINE
  5
254
330
1F
100
AcDbEntity
  8
1
  6
Continuous
 62
     7
100
AcDbLine
 10
1649.941867241369
 20
295.5453676983246
 30
0.0
 11
1650.422699852576
 21
295.1847432399194
 31
0.0
  0
LINE
  5
255
330
1F
100
AcDbEntity
  8
1
  6
Continuous
 62
     7
100
AcDbLine
 10
1649.581242782964
 20
295.9059921567297
 30
0.0
 11
1649.941867241369
 21
295.5453676983246
 31
0.0
  0
LINE
  5
256
330
1F
100
AcDbEntity
  8
1
  6
Continuous
 62
     7
100
AcDbLine
 10
1649.340826477361
 20
296.2666166151349
 30
0.0
 11
1649.581242782964
 21
295.9059921567297
 31
0.0
  0
LINE
  5
257
330
1F
100
AcDbEntity
  8
1
  6
Continuous
 62
     7
100
AcDbLine
 10
1649.100410171757
 20
296.8676573791434
 30
0.0
 11
1649.340826477361
 21
296.2666166151349
 31
0.0
  0
LINE
  5
258
330
1F
100
AcDbEntity
  8
1
  6
Continuous
 62
     7
100
AcDbLine
 10
1648.980202018955
 20
297.3484899903503
 30
0.0
 11
1649.100410171757
 21
296.8676573791434
 31
0.0
  0
LINE
  5
259
330
1F
100
AcDbEntity
  8
1
  6
Continuous
 62
     7
100
AcDbLine
 10
1648.980202018955
 20
298.1899470599623
 30
0.0
 11
1648.980202018955
 21
297.3484899903503
 31
0.0
  0
LINE
  5
25A
330
1F
100
AcDbEntity
  8
1
  6
Continuous
 62
     7
100
AcDbLine
 10
1649.100410171757
 20
298.6707796711691
 30
0.0
 11
1648.980202018955
 21
298.1899470599623
 31
0.0
  0
LINE
  5
25B
330
1F
100
AcDbEntity
  8
1
  6
Continuous
 62
     7
100
AcDbLine
 10
1649.340826477361
 20
299.2718204351777
 30
0.0
 11
1649.100410171757
 21
298.6707796711691
 31
0.0
  0
LINE
  5
25C
330
1F
100
AcDbEntity
  8
1
  6
Continuous
 62
     7
100
AcDbLine
 10
1649.581242782964
 20
299.6324448935828
 30
0.0
 11
1649.340826477361
 21
299.2718204351777
 31
0.0
  0
LINE
  5
25D
330
1F
100
AcDbEntity
  8
1
  6
Continuous
 62
     7
100
AcDbLine
 10
1649.941867241369
 20
299.993069351988
 30
0.0
 11
1649.581242782964
 21
299.6324448935828
 31
0.0
  0
LINE
  5
25E
330
1F
100
AcDbEntity
  8
1
  6
Continuous
 62
     7
100
AcDbLine
 10
1650.422699852576
 20
300.3536938103931
 30
0.0
 11
1649.941867241369
 21
299.993069351988
 31
0.0
  0
LINE
  5
25F
330
1F
100
AcDbEntity
  8
1
  6
Continuous
 62
     7
100
AcDbLine
 10
1650.903532463783
 20
300.5941101159965
 30
0.0
 11
1650.422699852576
 21
300.3536938103931
 31
0.0
  0
LINE
  5
260
330
1F
100
AcDbEntity
  8
1
  6
Continuous
 62
     7
100
AcDbLine
 10
1651.504573227791
 20
300.8345264216
 30
0.0
 11
1650.903532463783
 21
300.5941101159965
 31
0.0
  0
LINE
  5
261
330
1F
100
AcDbEntity
  8
1
  6
Continuous
 62
     7
100
AcDbLine
 10
1652.225822144602
 20
300.9547345744016
 30
0.0
 11
1651.504573227791
 21
300.8345264216
 31
0.0
  0
LINE
  5
262
330
1F
100
AcDbEntity
  8
1
  6
Continuous
 62
     7
100
AcDbLine
 10
1653.307695519817
 20
301.0749427272034
 30
0.0
 11
1652.225822144602
 21
300.9547345744016
 31
0.0
  0
LINE
  5
263
330
1F
100
AcDbEntity
  8
1
  6
Continuous
 62
     7
100
AcDbLine
 10
1654.269360742231
 20
301.0749427272034
 30
0.0
 11
1653.307695519817
 21
301.0749427272034
 31
0.0
  0
LINE
  5
264
330
1F
100
AcDbEntity
  8
1
  6
Continuous
 62
     7
100
AcDbLine
 10
1655.351234117446
 20
300.9547345744016
 30
0.0
 11
1654.269360742231
 21
301.0749427272034
 31
0.0
  0
LINE
  5
265
330
1F
100
AcDbEntity
  8
1
  6
Continuous
 62
     7
100
AcDbLine
 10
1656.072483034257
 20
300.8345264216
 30
0.0
 11
1655.351234117446
 21
300.9547345744016
 31
0.0
  0
LINE
  5
266
330
1F
100
AcDbEntity
  8
1
  6
Continuous
 62
     7
100
AcDbLine
 10
1656.673523798265
 20
300.5941101159965
 30
0.0
 11
1656.072483034257
 21
300.8345264216
 31
0.0
  0
LINE
  5
267
330
1F
100
AcDbEntity
  8
1
  6
Continuous
 62
     7
100
AcDbLine
 10
1657.154356409472
 20
300.3536938103931
 30
0.0
 11
1656.673523798265
 21
300.5941101159965
 31
0.0
  0
LINE
  5
268
330
1F
100
AcDbEntity
  8
1
  6
Continuous
 62
     7
100
AcDbLine
 10
1657.635189020679
 20
299.993069351988
 30
0.0
 11
1657.154356409472
 21
300.3536938103931
 31
0.0
  0
LINE
  5
269
330
1F
100
AcDbEntity
  8
1
  6
Continuous
 62
     7
100
AcDbLine
 10
1657.995813479084
 20
299.6324448935828
 30
0.0
 11
1657.635189020679
 21
299.993069351988
 31
0.0
  0
LINE
  5
26A
330
1F
100
AcDbEntity
  8
1
  6
Continuous
 62
     7
100
AcDbLine
 10
1657.154356409472
 20
296.8676573791434
 30
0.0
 11
1657.394772715075
 21
297.3484899903503
 31
0.0
  0
LINE
  5
26B
330
1F
100
AcDbEntity
  8
1
  6
Continuous
 62
     7
100
AcDbLine
 10
1656.793731951067
 20
296.3868247679366
 30
0.0
 11
1657.154356409472
 21
296.8676573791434
 31
0.0
  0
LINE
  5
26C
330
1F
100
AcDbEntity
  8
1
  6
Continuous
 62
     7
100
AcDbLine
 10
1656.433107492662
 20
296.1464084623332
 30
0.0
 11
1656.793731951067
 21
296.3868247679366
 31
0.0
  0
LINE
  5
26D
330
1F
100
AcDbEntity
  8
1
  6
Continuous
 62
     7
100
AcDbLine
 10
1655.832066728653
 20
295.9059921567297
 30
0.0
 11
1656.433107492662
 21
296.1464084623332
 31
0.0
  0
LINE
  5
26E
330
1F
100
AcDbEntity
  8
1
  6
Continuous
 62
     7
100
AcDbLine
 10
1654.509777047834
 20
295.785784003928
 30
0.0
 11
1655.832066728653
 21
295.9059921567297
 31
0.0
  0
LINE
  5
26F
330
1F
100
AcDbEntity
  8
1
  6
Continuous
 62
     7
100
AcDbLine
 10
1653.067279214214
 20
295.785784003928
 30
0.0
 11
1654.509777047834
 21
295.785784003928
 31
0.0
  0
LINE
  5
270
330
1F
100
AcDbEntity
  8
1
  6
Continuous
 62
     7
100
AcDbLine
 10
1651.744989533395
 20
295.9059921567297
 30
0.0
 11
1653.067279214214
 21
295.785784003928
 31
0.0
  0
LINE
  5
271
330
1F
100
AcDbEntity
  8
1
  6
Continuous
 62
     7
100
AcDbLine
 10
1651.143948769386
 20
296.1464084623332
 30
0.0
 11
1651.744989533395
 21
295.9059921567297
 31
0.0
  0
LINE
  5
272
330
1F
100
AcDbEntity
  8
1
  6
Continuous
 62
     7
100
AcDbLine
 10
1650.783324310981
 20
296.3868247679366
 30
0.0
 11
1651.143948769386
 21
296.1464084623332
 31
0.0
  0
LINE
  5
273
330
1F
100
AcDbEntity
  8
1
  6
Continuous
 62
     7
100
AcDbLine
 10
1650.422699852576
 20
296.8676573791434
 30
0.0
 11
1650.783324310981
 21
296.3868247679366
 31
0.0
  0
LINE
  5
274
330
1F
100
AcDbEntity
  8
1
  6
Continuous
 62
     7
100
AcDbLine
 10
1650.182283546973
 20
297.3484899903503
 30
0.0
 11
1650.422699852576
 21
296.8676573791434
 31
0.0
  0
LINE
  5
275
330
1F
100
AcDbEntity
  8
1
  6
Continuous
 62
     7
100
AcDbLine
 10
1650.182283546973
 20
298.1899470599623
 30
0.0
 11
1650.182283546973
 21
297.3484899903503
 31
0.0
  0
LINE
  5
276
330
1F
100
AcDbEntity
  8
1
  6
Continuous
 62
     7
100
AcDbLine
 10
1650.422699852576
 20
298.6707796711691
 30
0.0
 11
1650.182283546973
 21
298.1899470599623
 31
0.0
  0
LINE
  5
277
330
1F
100
AcDbEntity
  8
1
  6
Continuous
 62
     7
100
AcDbLine
 10
1650.783324310981
 20
299.151612282376
 30
0.0
 11
1650.422699852576
 21
298.6707796711691
 31
0.0
  0
LINE
  5
278
330
1F
100
AcDbEntity
  8
1
  6
Continuous
 62
     7
100
AcDbLine
 10
1651.143948769386
 20
299.3920285879794
 30
0.0
 11
1650.783324310981
 21
299.151612282376
 31
0.0
  0
LINE
  5
279
330
1F
100
AcDbEntity
  8
1
  6
Continuous
 62
     7
100
AcDbLine
 10
1651.744989533395
 20
299.6324448935828
 30
0.0
 11
1651.143948769386
 21
299.3920285879794
 31
0.0
  0
LINE
  5
27A
330
1F
100
AcDbEntity
  8
1
  6
Continuous
 62
     7
100
AcDbLine
 10
1653.067279214214
 20
299.7526530463845
 30
0.0
 11
1651.744989533395
 21
299.6324448935828
 31
0.0
  0
LINE
  5
27B
330
1F
100
AcDbEntity
  8
1
  6
Continuous
 62
     7
100
AcDbLine
 10
1654.509777047834
 20
299.7526530463845
 30
0.0
 11
1653.067279214214
 21
299.7526530463845
 31
0.0
  0
LINE
  5
27C
330
1F
100
AcDbEntity
  8
1
  6
Continuous
 62
     7
100
AcDbLine
 10
1655.832066728653
 20
299.6324448935828
 30
0.0
 11
1654.509777047834
 21
299.7526530463845
 31
0.0
  0
LINE
  5
27D
330
1F
100
AcDbEntity
  8
1
  6
Continuous
 62
     7
100
AcDbLine
 10
1656.433107492662
 20
299.3920285879794
 30
0.0
 11
1655.832066728653
 21
299.6324448935828
 31
0.0
  0
LINE
  5
27E
330
1F
100
AcDbEntity
  8
1
  6
Continuous
 62
     7
100
AcDbLine
 10
1656.793731951067
 20
299.151612282376
 30
0.0
 11
1656.433107492662
 21
299.3920285879794
 31
0.0
  0
LINE
  5
27F
330
1F
100
AcDbEntity
  8
1
  6
Continuous
 62
     7
100
AcDbLine
 10
1657.154356409472
 20
298.6707796711691
 30
0.0
 11
1656.793731951067
 21
299.151612282376
 31
0.0
  0
LINE
  5
280
330
1F
100
AcDbEntity
  8
1
  6
Continuous
 62
     7
100
AcDbLine
 10
1657.394772715075
 20
298.1899470599623
 30
0.0
 11
1657.154356409472
 21
298.6707796711691
 31
0.0
  0
LINE
  5
281
330
1F
100
AcDbEntity
  8
1
  6
Continuous
 62
     7
100
AcDbLine
 10
1657.394772715075
 20
297.3484899903503
 30
0.0
 11
1657.394772715075
 21
298.1899470599623
 31
0.0
  0
LINE
  5
282
330
1F
100
AcDbEntity
  8
1
  6
Continuous
 62
     7
100
AcDbLine
 10
1658.596854243092
 20
292.5401638782818
 30
0.0
 11
1658.596854243092
 21
286.169131779791
 31
0.0
  0
LINE
  5
283
330
1F
100
AcDbEntity
  8
1
  6
Continuous
 62
     7
100
AcDbLine
 10
1657.394772715075
 20
292.5401638782818
 30
0.0
 11
1658.596854243092
 21
292.5401638782818
 31
0.0
  0
LINE
  5
284
330
1F
100
AcDbEntity
  8
1
  6
Continuous
 62
     7
100
AcDbLine
 10
1657.394772715075
 20
287.852045919015
 30
0.0
 11
1657.394772715075
 21
292.5401638782818
 31
0.0
  0
LINE
  5
285
330
1F
100
AcDbEntity
  8
1
  6
Continuous
 62
     7
100
AcDbLine
 10
1656.673523798265
 20
288.0924622246184
 30
0.0
 11
1657.394772715075
 21
287.852045919015
 31
0.0
  0
LINE
  5
286
330
1F
100
AcDbEntity
  8
1
  6
Continuous
 62
     7
100
AcDbLine
 10
1655.832066728653
 20
288.693502988627
 30
0.0
 11
1656.673523798265
 21
288.0924622246184
 31
0.0
  0
LINE
  5
287
330
1F
100
AcDbEntity
  8
1
  6
Continuous
 62
     7
100
AcDbLine
 10
1654.870401506239
 20
289.5349600582389
 30
0.0
 11
1655.832066728653
 21
288.693502988627
 31
0.0
  0
LINE
  5
288
330
1F
100
AcDbEntity
  8
1
  6
Continuous
 62
     7
100
AcDbLine
 10
1654.149152589429
 20
290.3764171278509
 30
0.0
 11
1654.870401506239
 21
289.5349600582389
 31
0.0
  0
LINE
  5
289
330
1F
100
AcDbEntity
  8
1
  6
Continuous
 62
     7
100
AcDbLine
 10
1653.307695519817
 20
291.3380823502646
 30
0.0
 11
1654.149152589429
 21
290.3764171278509
 31
0.0
  0
LINE
  5
28A
330
1F
100
AcDbEntity
  8
1
  6
Continuous
 62
     7
100
AcDbLine
 10
1653.067279214214
 20
291.5784986558681
 30
0.0
 11
1653.307695519817
 21
291.3380823502646
 31
0.0
  0
LINE
  5
28B
330
1F
100
AcDbEntity
  8
1
  6
Continuous
 62
     7
100
AcDbLine
 10
1652.346030297403
 20
292.0593312670749
 30
0.0
 11
1653.067279214214
 21
291.5784986558681
 31
0.0
  0
LINE
  5
28C
330
1F
100
AcDbEntity
  8
1
  6
Continuous
 62
     7
100
AcDbLine
 10
1651.744989533395
 20
292.1795394198766
 30
0.0
 11
1652.346030297403
 21
292.0593312670749
 31
0.0
  0
LINE
  5
28D
330
1F
100
AcDbEntity
  8
1
  6
Continuous
 62
     7
100
AcDbLine
 10
1651.264156922188
 20
292.1795394198766
 30
0.0
 11
1651.744989533395
 21
292.1795394198766
 31
0.0
  0
LINE
  5
28E
330
1F
100
AcDbEntity
  8
1
  6
Continuous
 62
     7
100
AcDbLine
 10
1650.663116158179
 20
292.0593312670749
 30
0.0
 11
1651.264156922188
 21
292.1795394198766
 31
0.0
  0
LINE
  5
28F
330
1F
100
AcDbEntity
  8
1
  6
Continuous
 62
     7
100
AcDbLine
 10
1649.941867241369
 20
291.5784986558681
 30
0.0
 11
1650.663116158179
 21
292.0593312670749
 31
0.0
  0
LINE
  5
290
330
1F
100
AcDbEntity
  8
1
  6
Continuous
 62
     7
100
AcDbLine
 10
1649.461034630162
 20
291.0976660446612
 30
0.0
 11
1649.941867241369
 21
291.5784986558681
 31
0.0
  0
LINE
  5
291
330
1F
100
AcDbEntity
  8
1
  6
Continuous
 62
     7
100
AcDbLine
 10
1649.100410171757
 20
290.3764171278509
 30
0.0
 11
1649.461034630162
 21
291.0976660446612
 31
0.0
  0
LINE
  5
292
330
1F
100
AcDbEntity
  8
1
  6
Continuous
 62
     7
100
AcDbLine
 10
1648.980202018955
 20
289.7753763638424
 30
0.0
 11
1649.100410171757
 21
290.3764171278509
 31
0.0
  0
LINE
  5
293
330
1F
100
AcDbEntity
  8
1
  6
Continuous
 62
     7
100
AcDbLine
 10
1648.980202018955
 20
289.0541274470321
 30
0.0
 11
1648.980202018955
 21
289.7753763638424
 31
0.0
  0
LINE
  5
294
330
1F
100
AcDbEntity
  8
1
  6
Continuous
 62
     7
100
AcDbLine
 10
1649.100410171757
 20
288.4530866830235
 30
0.0
 11
1648.980202018955
 21
289.0541274470321
 31
0.0
  0
LINE
  5
295
330
1F
100
AcDbEntity
  8
1
  6
Continuous
 62
     7
100
AcDbLine
 10
1649.461034630162
 20
287.7318377662132
 30
0.0
 11
1649.100410171757
 21
288.4530866830235
 31
0.0
  0
LINE
  5
296
330
1F
100
AcDbEntity
  8
1
  6
Continuous
 62
     7
100
AcDbLine
 10
1649.941867241369
 20
287.2510051550064
 30
0.0
 11
1649.461034630162
 21
287.7318377662132
 31
0.0
  0
LINE
  5
297
330
1F
100
AcDbEntity
  8
1
  6
Continuous
 62
     7
100
AcDbLine
 10
1650.663116158179
 20
286.7701725437996
 30
0.0
 11
1649.941867241369
 21
287.2510051550064
 31
0.0
  0
LINE
  5
298
330
1F
100
AcDbEntity
  8
1
  6
Continuous
 62
     7
100
AcDbLine
 10
1651.264156922188
 20
286.6499643909978
 30
0.0
 11
1650.663116158179
 21
286.7701725437996
 31
0.0
  0
LINE
  5
299
330
1F
100
AcDbEntity
  8
1
  6
Continuous
 62
     7
100
AcDbLine
 10
1651.744989533395
 20
286.6499643909978
 30
0.0
 11
1651.264156922188
 21
286.6499643909978
 31
0.0
  0
LINE
  5
29A
330
1F
100
AcDbEntity
  8
1
  6
Continuous
 62
     7
100
AcDbLine
 10
1651.744989533395
 20
287.9722540718167
 30
0.0
 11
1651.744989533395
 21
286.6499643909978
 31
0.0
  0
LINE
  5
29B
330
1F
100
AcDbEntity
  8
1
  6
Continuous
 62
     7
100
AcDbLine
 10
1651.264156922188
 20
287.9722540718167
 30
0.0
 11
1651.744989533395
 21
287.9722540718167
 31
0.0
  0
LINE
  5
29C
330
1F
100
AcDbEntity
  8
1
  6
Continuous
 62
     7
100
AcDbLine
 10
1650.903532463783
 20
288.0924622246184
 30
0.0
 11
1651.264156922188
 21
287.9722540718167
 31
0.0
  0
LINE
  5
29D
330
1F
100
AcDbEntity
  8
1
  6
Continuous
 62
     7
100
AcDbLine
 10
1650.542908005378
 20
288.3328785302218
 30
0.0
 11
1650.903532463783
 21
288.0924622246184
 31
0.0
  0
LINE
  5
29E
330
1F
100
AcDbEntity
  8
1
  6
Continuous
 62
     7
100
AcDbLine
 10
1650.302491699774
 20
288.693502988627
 30
0.0
 11
1650.542908005378
 21
288.3328785302218
 31
0.0
  0
LINE
  5
29F
330
1F
100
AcDbEntity
  8
1
  6
Continuous
 62
     7
100
AcDbLine
 10
1650.182283546973
 20
289.1743355998338
 30
0.0
 11
1650.302491699774
 21
288.693502988627
 31
0.0
  0
LINE
  5
2A0
330
1F
100
AcDbEntity
  8
1
  6
Continuous
 62
     7
100
AcDbLine
 10
1650.182283546973
 20
289.6551682110406
 30
0.0
 11
1650.182283546973
 21
289.1743355998338
 31
0.0
  0
LINE
  5
2A1
330
1F
100
AcDbEntity
  8
1
  6
Continuous
 62
     7
100
AcDbLine
 10
1650.302491699774
 20
290.1360008222475
 30
0.0
 11
1650.182283546973
 21
289.6551682110406
 31
0.0
  0
LINE
  5
2A2
330
1F
100
AcDbEntity
  8
1
  6
Continuous
 62
     7
100
AcDbLine
 10
1650.542908005378
 20
290.4966252806527
 30
0.0
 11
1650.302491699774
 21
290.1360008222475
 31
0.0
  0
LINE
  5
2A3
330
1F
100
AcDbEntity
  8
1
  6
Continuous
 62
     7
100
AcDbLine
 10
1650.903532463783
 20
290.7370415862561
 30
0.0
 11
1650.542908005378
 21
290.4966252806527
 31
0.0
  0
LINE
  5
2A4
330
1F
100
AcDbEntity
  8
1
  6
Continuous
 62
     7
100
AcDbLine
 10
1651.264156922188
 20
290.8572497390578
 30
0.0
 11
1650.903532463783
 21
290.7370415862561
 31
0.0
  0
LINE
  5
2A5
330
1F
100
AcDbEntity
  8
1
  6
Continuous
 62
     7
100
AcDbLine
 10
1651.744989533395
 20
290.8572497390578
 30
0.0
 11
1651.264156922188
 21
290.8572497390578
 31
0.0
  0
LINE
  5
2A6
330
1F
100
AcDbEntity
  8
1
  6
Continuous
 62
     7
100
AcDbLine
 10
1652.1056139918
 20
290.7370415862561
 30
0.0
 11
1651.744989533395
 21
290.8572497390578
 31
0.0
  0
LINE
  5
2A7
330
1F
100
AcDbEntity
  8
1
  6
Continuous
 62
     7
100
AcDbLine
 10
1652.466238450205
 20
290.4966252806527
 30
0.0
 11
1652.1056139918
 21
290.7370415862561
 31
0.0
  0
LINE
  5
2A8
330
1F
100
AcDbEntity
  8
1
  6
Continuous
 62
     7
100
AcDbLine
 10
1654.028944436627
 20
288.9339192942304
 30
0.0
 11
1652.466238450205
 21
290.4966252806527
 31
0.0
  0
LINE
  5
2A9
330
1F
100
AcDbEntity
  8
1
  6
Continuous
 62
     7
100
AcDbLine
 10
1654.629985200636
 20
288.2126703774201
 30
0.0
 11
1654.028944436627
 21
288.9339192942304
 31
0.0
  0
LINE
  5
2AA
330
1F
100
AcDbEntity
  8
1
  6
Continuous
 62
     7
100
AcDbLine
 10
1655.471442270248
 20
287.4914214606098
 30
0.0
 11
1654.629985200636
 21
288.2126703774201
 31
0.0
  0
LINE
  5
2AB
330
1F
100
AcDbEntity
  8
1
  6
Continuous
 62
     7
100
AcDbLine
 10
1656.192691187058
 20
286.8903806966013
 30
0.0
 11
1655.471442270248
 21
287.4914214606098
 31
0.0
  0
LINE
  5
2AC
330
1F
100
AcDbEntity
  8
1
  6
Continuous
 62
     7
100
AcDbLine
 10
1657.03414825667
 20
286.4095480853944
 30
0.0
 11
1656.192691187058
 21
286.8903806966013
 31
0.0
  0
LINE
  5
2AD
330
1F
100
AcDbEntity
  8
1
  6
Continuous
 62
     7
100
AcDbLine
 10
1657.875605326282
 20
286.169131779791
 30
0.0
 11
1657.03414825667
 21
286.4095480853944
 31
0.0
  0
LINE
  5
2AE
330
1F
100
AcDbEntity
  8
1
  6
Continuous
 62
     7
100
AcDbLine
 10
1658.596854243092
 20
286.169131779791
 30
0.0
 11
1657.875605326282
 21
286.169131779791
 31
0.0
  0
LINE
  5
2AF
330
1F
100
AcDbEntity
  8
1
  6
Continuous
 62
     2
100
AcDbLine
 10
1570.859803743091
 20
188.7888670696567
 30
0.0
 11
1570.859803743091
 21
184.5462263825374
 31
0.0
  0
LINE
  5
2B0
330
1F
100
AcDbEntity
  8
1
  6
Continuous
 62
     2
100
AcDbLine
 10
1569.587011536956
 20
187.5160748635209
 30
0.0
 11
1570.859803743091
 21
188.7888670696567
 31
0.0
  0
LINE
  5
2B1
330
1F
100
AcDbEntity
  8
1
  6
Continuous
 62
     2
100
AcDbLine
 10
1568.31421933082
 20
188.7888670696567
 30
0.0
 11
1568.31421933082
 21
184.5462263825374
 31
0.0
  0
LINE
  5
2B2
330
1F
100
AcDbEntity
  8
1
  6
Continuous
 62
     2
100
AcDbLine
 10
1567.041427124684
 20
187.5160748635209
 30
0.0
 11
1568.31421933082
 21
188.7888670696567
 31
0.0
  0
LINE
  5
2B3
330
1F
100
AcDbEntity
  8
1
  6
Continuous
 62
     2
100
AcDbLine
 10
1564.707974746769
 20
188.5237020267117
 30
0.0
 11
1564.707974746769
 21
184.8113914254823
 31
0.0
  0
LINE
  5
2B4
330
1F
100
AcDbEntity
  8
1
  6
Continuous
 62
     2
100
AcDbLine
 10
1566.19289898726
 20
184.8113914254823
 30
0.0
 11
1566.19289898726
 21
187.6221408806989
 31
0.0
  0
LINE
  5
2B5
330
1F
100
AcDbEntity
  8
1
  6
Continuous
 62
     2
100
AcDbLine
 10
1563.170017497688
 20
184.8113914254823
 30
0.0
 11
1566.19289898726
 21
184.8113914254823
 31
0.0
  0
LINE
  5
2B6
330
1F
100
AcDbEntity
  8
1
  6
Continuous
 62
     2
100
AcDbLine
 10
1563.170017497688
 20
187.6221408806989
 30
0.0
 11
1563.170017497688
 21
184.8113914254823
 31
0.0
  0
LINE
  5
2B7
330
1F
100
AcDbEntity
  8
1
  6
Continuous
 62
     2
100
AcDbLine
 10
1556.859089475598
 20
184.9704904512493
 30
0.0
 11
1555.904495320996
 21
184.5462263825374
 31
0.0
  0
LINE
  5
2B8
330
1F
100
AcDbEntity
  8
1
  6
Continuous
 62
     2
100
AcDbLine
 10
1557.601551595844
 20
185.6068865543172
 30
0.0
 11
1556.859089475598
 21
184.9704904512493
 31
0.0
  0
LINE
  5
2B9
330
1F
100
AcDbEntity
  8
1
  6
Continuous
 62
     2
100
AcDbLine
 10
1557.919749647378
 20
186.0311506230291
 30
0.0
 11
1557.601551595844
 21
185.6068865543172
 31
0.0
  0
LINE
  5
2BA
330
1F
100
AcDbEntity
  8
1
  6
Continuous
 62
     2
100
AcDbLine
 10
1558.025815664556
 20
186.455414691741
 30
0.0
 11
1557.919749647378
 21
186.0311506230291
 31
0.0
  0
LINE
  5
2BB
330
1F
100
AcDbEntity
  8
1
  6
Continuous
 62
     2
100
AcDbLine
 10
1558.131881681734
 20
186.9857447776309
 30
0.0
 11
1558.025815664556
 21
186.455414691741
 31
0.0
  0
LINE
  5
2BC
330
1F
100
AcDbEntity
  8
1
  6
Continuous
 62
     2
100
AcDbLine
 10
1558.131881681734
 20
187.7282068978768
 30
0.0
 11
1558.131881681734
 21
186.9857447776309
 31
0.0
  0
LINE
  5
2BD
330
1F
100
AcDbEntity
  8
1
  6
Continuous
 62
     2
100
AcDbLine
 10
1558.025815664556
 20
188.1524709665887
 30
0.0
 11
1558.131881681734
 21
187.7282068978768
 31
0.0
  0
LINE
  5
2BE
330
1F
100
AcDbEntity
  8
1
  6
Continuous
 62
     2
100
AcDbLine
 10
1557.8136836302
 20
188.4706690181227
 30
0.0
 11
1558.025815664556
 21
188.1524709665887
 31
0.0
  0
LINE
  5
2BF
330
1F
100
AcDbEntity
  8
1
  6
Continuous
 62
     2
100
AcDbLine
 10
1557.495485578666
 20
188.6828010524787
 30
0.0
 11
1557.8136836302
 21
188.4706690181227
 31
0.0
  0
LINE
  5
2C0
330
1F
100
AcDbEntity
  8
1
  6
Continuous
 62
     2
100
AcDbLine
 10
1557.177287527132
 20
188.7888670696567
 30
0.0
 11
1557.495485578666
 21
188.6828010524787
 31
0.0
  0
LINE
  5
2C1
330
1F
100
AcDbEntity
  8
1
  6
Continuous
 62
     2
100
AcDbLine
 10
1556.540891424064
 20
188.7888670696567
 30
0.0
 11
1557.177287527132
 21
188.7888670696567
 31
0.0
  0
LINE
  5
2C2
330
1F
100
AcDbEntity
  8
1
  6
Continuous
 62
     2
100
AcDbLine
 10
1556.22269337253
 20
188.6828010524787
 30
0.0
 11
1556.540891424064
 21
188.7888670696567
 31
0.0
  0
LINE
  5
2C3
330
1F
100
AcDbEntity
  8
1
  6
Continuous
 62
     2
100
AcDbLine
 10
1555.904495320996
 20
188.4706690181227
 30
0.0
 11
1556.22269337253
 21
188.6828010524787
 31
0.0
  0
LINE
  5
2C4
330
1F
100
AcDbEntity
  8
1
  6
Continuous
 62
     2
100
AcDbLine
 10
1555.69236328664
 20
188.1524709665887
 30
0.0
 11
1555.904495320996
 21
188.4706690181227
 31
0.0
  0
LINE
  5
2C5
330
1F
100
AcDbEntity
  8
1
  6
Continuous
 62
     2
100
AcDbLine
 10
1555.586297269462
 20
187.7282068978768
 30
0.0
 11
1555.69236328664
 21
188.1524709665887
 31
0.0
  0
LINE
  5
2C6
330
1F
100
AcDbEntity
  8
1
  6
Continuous
 62
     2
100
AcDbLine
 10
1555.586297269462
 20
187.5160748635209
 30
0.0
 11
1555.586297269462
 21
187.7282068978768
 31
0.0
  0
LINE
  5
2C7
330
1F
100
AcDbEntity
  8
1
  6
Continuous
 62
     2
100
AcDbLine
 10
1555.69236328664
 20
187.0918107948089
 30
0.0
 11
1555.586297269462
 21
187.5160748635209
 31
0.0
  0
LINE
  5
2C8
330
1F
100
AcDbEntity
  8
1
  6
Continuous
 62
     2
100
AcDbLine
 10
1555.904495320996
 20
186.773612743275
 30
0.0
 11
1555.69236328664
 21
187.0918107948089
 31
0.0
  0
LINE
  5
2C9
330
1F
100
AcDbEntity
  8
1
  6
Continuous
 62
     2
100
AcDbLine
 10
1556.22269337253
 20
186.561480708919
 30
0.0
 11
1555.904495320996
 21
186.773612743275
 31
0.0
  0
LINE
  5
2CA
330
1F
100
AcDbEntity
  8
1
  6
Continuous
 62
     2
100
AcDbLine
 10
1556.540891424064
 20
186.455414691741
 30
0.0
 11
1556.22269337253
 21
186.561480708919
 31
0.0
  0
LINE
  5
2CB
330
1F
100
AcDbEntity
  8
1
  6
Continuous
 62
     2
100
AcDbLine
 10
1558.025815664556
 20
186.455414691741
 30
0.0
 11
1556.540891424064
 21
186.455414691741
 31
0.0
  0
LINE
  5
2CC
330
1F
100
AcDbEntity
  8
1
  6
Continuous
 62
     2
100
AcDbLine
 10
1553.677108960258
 20
186.2432826573851
 30
0.0
 11
1553.677108960258
 21
184.5462263825374
 31
0.0
  0
LINE
  5
2CD
330
1F
100
AcDbEntity
  8
1
  6
Continuous
 62
     2
100
AcDbLine
 10
1551.767920651055
 20
185.3947545199612
 30
0.0
 11
1554.313505063326
 21
185.3947545199612
 31
0.0
  0
LINE
  5
2CE
330
1F
100
AcDbEntity
  8
1
  6
Continuous
 62
     2
100
AcDbLine
 10
1553.677108960258
 20
188.7888670696567
 30
0.0
 11
1551.767920651055
 21
185.3947545199612
 31
0.0
  0
LINE
  5
2CF
330
1F
100
AcDbEntity
  8
1
  6
Continuous
 62
     2
100
AcDbLine
 10
1547.949544032647
 20
184.5462263825374
 30
0.0
 11
1550.495128444919
 21
184.5462263825374
 31
0.0
  0
LINE
  5
2D0
330
1F
100
AcDbEntity
  8
1
  6
Continuous
 62
     2
100
AcDbLine
 10
1550.282996410563
 20
187.3039428291649
 30
0.0
 11
1547.949544032647
 21
184.5462263825374
 31
0.0
  0
LINE
  5
2D1
330
1F
100
AcDbEntity
  8
1
  6
Continuous
 62
     2
100
AcDbLine
 10
1550.495128444919
 20
187.7282068978768
 30
0.0
 11
1550.282996410563
 21
187.3039428291649
 31
0.0
  0
LINE
  5
2D2
330
1F
100
AcDbEntity
  8
1
  6
Continuous
 62
     2
100
AcDbLine
 10
1550.495128444919
 20
188.1524709665887
 30
0.0
 11
1550.495128444919
 21
187.7282068978768
 31
0.0
  0
LINE
  5
2D3
330
1F
100
AcDbEntity
  8
1
  6
Continuous
 62
     2
100
AcDbLine
 10
1550.282996410563
 20
188.4706690181227
 30
0.0
 11
1550.495128444919
 21
188.1524709665887
 31
0.0
  0
LINE
  5
2D4
330
1F
100
AcDbEntity
  8
1
  6
Continuous
 62
     2
100
AcDbLine
 10
1549.964798359029
 20
188.6828010524787
 30
0.0
 11
1550.282996410563
 21
188.4706690181227
 31
0.0
  0
LINE
  5
2D5
330
1F
100
AcDbEntity
  8
1
  6
Continuous
 62
     2
100
AcDbLine
 10
1549.540534290317
 20
188.7888670696567
 30
0.0
 11
1549.964798359029
 21
188.6828010524787
 31
0.0
  0
LINE
  5
2D6
330
1F
100
AcDbEntity
  8
1
  6
Continuous
 62
     2
100
AcDbLine
 10
1548.904138187249
 20
188.7888670696567
 30
0.0
 11
1549.540534290317
 21
188.7888670696567
 31
0.0
  0
LINE
  5
2D7
330
1F
100
AcDbEntity
  8
1
  6
Continuous
 62
     2
100
AcDbLine
 10
1548.479874118537
 20
188.6828010524787
 30
0.0
 11
1548.904138187249
 21
188.7888670696567
 31
0.0
  0
LINE
  5
2D8
330
1F
100
AcDbEntity
  8
1
  6
Continuous
 62
     2
100
AcDbLine
 10
1548.161676067003
 20
188.4706690181227
 30
0.0
 11
1548.479874118537
 21
188.6828010524787
 31
0.0
  0
LINE
  5
2D9
330
1F
100
AcDbEntity
  8
1
  6
Continuous
 62
     2
100
AcDbLine
 10
1547.949544032647
 20
188.1524709665887
 30
0.0
 11
1548.161676067003
 21
188.4706690181227
 31
0.0
  0
LINE
  5
2DA
330
1F
100
AcDbEntity
  8
1
  6
Continuous
 62
     2
100
AcDbLine
 10
1546.78281784369
 20
184.7583584168933
 30
0.0
 11
1546.78281784369
 21
184.6522923997154
 31
0.0
  0
LINE
  5
2DB
330
1F
100
AcDbEntity
  8
1
  6
Continuous
 62
     2
100
AcDbLine
 10
1546.676751826512
 20
184.7583584168933
 30
0.0
 11
1546.78281784369
 21
184.7583584168933
 31
0.0
  0
LINE
  5
2DC
330
1F
100
AcDbEntity
  8
1
  6
Continuous
 62
     2
100
AcDbLine
 10
1546.676751826512
 20
184.6522923997154
 30
0.0
 11
1546.676751826512
 21
184.7583584168933
 31
0.0
  0
LINE
  5
2DD
330
1F
100
AcDbEntity
  8
1
  6
Continuous
 62
     2
100
AcDbLine
 10
1546.78281784369
 20
184.6522923997154
 30
0.0
 11
1546.676751826512
 21
184.6522923997154
 31
0.0
  0
LINE
  5
2DE
330
1F
100
AcDbEntity
  8
1
  6
Continuous
 62
     2
100
AcDbLine
 10
1546.888883860868
 20
184.8644244340713
 30
0.0
 11
1546.888883860868
 21
184.5462263825374
 31
0.0
  0
LINE
  5
2DF
330
1F
100
AcDbEntity
  8
1
  6
Continuous
 62
     2
100
AcDbLine
 10
1546.570685809334
 20
184.8644244340713
 30
0.0
 11
1546.888883860868
 21
184.8644244340713
 31
0.0
  0
LINE
  5
2E0
330
1F
100
AcDbEntity
  8
1
  6
Continuous
 62
     2
100
AcDbLine
 10
1546.570685809334
 20
184.5462263825374
 30
0.0
 11
1546.570685809334
 21
184.8644244340713
 31
0.0
  0
LINE
  5
2E1
330
1F
100
AcDbEntity
  8
1
  6
Continuous
 62
     2
100
AcDbLine
 10
1546.888883860868
 20
184.5462263825374
 30
0.0
 11
1546.570685809334
 21
184.5462263825374
 31
0.0
  0
LINE
  5
2E2
330
1F
100
AcDbEntity
  8
1
  6
Continuous
 62
     2
100
AcDbLine
 10
1544.343299448596
 20
184.5462263825374
 30
0.0
 11
1542.752309190926
 21
184.5462263825374
 31
0.0
  0
LINE
  5
2E3
330
1F
100
AcDbEntity
  8
1
  6
Continuous
 62
     2
100
AcDbLine
 10
1544.66149750013
 20
184.6522923997154
 30
0.0
 11
1544.343299448596
 21
184.5462263825374
 31
0.0
  0
LINE
  5
2E4
330
1F
100
AcDbEntity
  8
1
  6
Continuous
 62
     2
100
AcDbLine
 10
1544.979695551664
 20
184.8644244340713
 30
0.0
 11
1544.66149750013
 21
184.6522923997154
 31
0.0
  0
LINE
  5
2E5
330
1F
100
AcDbEntity
  8
1
  6
Continuous
 62
     2
100
AcDbLine
 10
1545.19182758602
 20
185.1826224856052
 30
0.0
 11
1544.979695551664
 21
184.8644244340713
 31
0.0
  0
LINE
  5
2E6
330
1F
100
AcDbEntity
  8
1
  6
Continuous
 62
     2
100
AcDbLine
 10
1545.297893603198
 20
185.6068865543172
 30
0.0
 11
1545.19182758602
 21
185.1826224856052
 31
0.0
  0
LINE
  5
2E7
330
1F
100
AcDbEntity
  8
1
  6
Continuous
 62
     2
100
AcDbLine
 10
1545.297893603198
 20
186.1372166402071
 30
0.0
 11
1545.297893603198
 21
185.6068865543172
 31
0.0
  0
LINE
  5
2E8
330
1F
100
AcDbEntity
  8
1
  6
Continuous
 62
     2
100
AcDbLine
 10
1545.19182758602
 20
186.561480708919
 30
0.0
 11
1545.297893603198
 21
186.1372166402071
 31
0.0
  0
LINE
  5
2E9
330
1F
100
AcDbEntity
  8
1
  6
Continuous
 62
     2
100
AcDbLine
 10
1545.085761568842
 20
186.773612743275
 30
0.0
 11
1545.19182758602
 21
186.561480708919
 31
0.0
  0
LINE
  5
2EA
330
1F
100
AcDbEntity
  8
1
  6
Continuous
 62
     2
100
AcDbLine
 10
1544.873629534486
 20
186.9857447776309
 30
0.0
 11
1545.085761568842
 21
186.773612743275
 31
0.0
  0
LINE
  5
2EB
330
1F
100
AcDbEntity
  8
1
  6
Continuous
 62
     2
100
AcDbLine
 10
1544.449365465774
 20
187.0918107948089
 30
0.0
 11
1544.873629534486
 21
186.9857447776309
 31
0.0
  0
LINE
  5
2EC
330
1F
100
AcDbEntity
  8
1
  6
Continuous
 62
     2
100
AcDbLine
 10
1544.767563517308
 20
187.1978768119869
 30
0.0
 11
1544.449365465774
 21
187.0918107948089
 31
0.0
  0
LINE
  5
2ED
330
1F
100
AcDbEntity
  8
1
  6
Continuous
 62
     2
100
AcDbLine
 10
1544.979695551664
 20
187.3039428291649
 30
0.0
 11
1544.767563517308
 21
187.1978768119869
 31
0.0
  0
LINE
  5
2EE
330
1F
100
AcDbEntity
  8
1
  6
Continuous
 62
     2
100
AcDbLine
 10
1545.19182758602
 20
187.5160748635209
 30
0.0
 11
1544.979695551664
 21
187.3039428291649
 31
0.0
  0
LINE
  5
2EF
330
1F
100
AcDbEntity
  8
1
  6
Continuous
 62
     2
100
AcDbLine
 10
1545.297893603198
 20
187.8342729150548
 30
0.0
 11
1545.19182758602
 21
187.5160748635209
 31
0.0
  0
LINE
  5
2F0
330
1F
100
AcDbEntity
  8
1
  6
Continuous
 62
     2
100
AcDbLine
 10
1545.297893603198
 20
188.1524709665887
 30
0.0
 11
1545.297893603198
 21
187.8342729150548
 31
0.0
  0
LINE
  5
2F1
330
1F
100
AcDbEntity
  8
1
  6
Continuous
 62
     2
100
AcDbLine
 10
1545.19182758602
 20
188.4706690181227
 30
0.0
 11
1545.297893603198
 21
188.1524709665887
 31
0.0
  0
LINE
  5
2F2
330
1F
100
AcDbEntity
  8
1
  6
Continuous
 62
     2
100
AcDbLine
 10
1544.873629534486
 20
188.6828010524787
 30
0.0
 11
1545.19182758602
 21
188.4706690181227
 31
0.0
  0
LINE
  5
2F3
330
1F
100
AcDbEntity
  8
1
  6
Continuous
 62
     2
100
AcDbLine
 10
1544.343299448596
 20
188.7888670696567
 30
0.0
 11
1544.873629534486
 21
188.6828010524787
 31
0.0
  0
LINE
  5
2F4
330
1F
100
AcDbEntity
  8
1
  6
Continuous
 62
     2
100
AcDbLine
 10
1542.752309190926
 20
188.7888670696567
 30
0.0
 11
1544.343299448596
 21
188.7888670696567
 31
0.0
  0
LINE
  5
2F5
330
1F
100
AcDbEntity
  8
1
  6
Continuous
 62
     2
100
AcDbLine
 10
1543.388705293994
 20
187.0918107948089
 30
0.0
 11
1544.449365465774
 21
187.0918107948089
 31
0.0
  0
LINE
  5
2F6
330
1F
100
AcDbEntity
  8
1
  6
Continuous
 62
     2
100
AcDbLine
 10
1540.524922830189
 20
184.5462263825374
 30
0.0
 11
1538.933932572519
 21
184.5462263825374
 31
0.0
  0
LINE
  5
2F7
330
1F
100
AcDbEntity
  8
1
  6
Continuous
 62
     2
100
AcDbLine
 10
1540.843120881723
 20
184.6522923997154
 30
0.0
 11
1540.524922830189
 21
184.5462263825374
 31
0.0
  0
LINE
  5
2F8
330
1F
100
AcDbEntity
  8
1
  6
Continuous
 62
     2
100
AcDbLine
 10
1541.161318933257
 20
184.8644244340713
 30
0.0
 11
1540.843120881723
 21
184.6522923997154
 31
0.0
  0
LINE
  5
2F9
330
1F
100
AcDbEntity
  8
1
  6
Continuous
 62
     2
100
AcDbLine
 10
1541.373450967612
 20
185.1826224856052
 30
0.0
 11
1541.161318933257
 21
184.8644244340713
 31
0.0
  0
LINE
  5
2FA
330
1F
100
AcDbEntity
  8
1
  6
Continuous
 62
     2
100
AcDbLine
 10
1541.479516984791
 20
185.6068865543172
 30
0.0
 11
1541.373450967612
 21
185.1826224856052
 31
0.0
  0
LINE
  5
2FB
330
1F
100
AcDbEntity
  8
1
  6
Continuous
 62
     2
100
AcDbLine
 10
1541.479516984791
 20
186.1372166402071
 30
0.0
 11
1541.479516984791
 21
185.6068865543172
 31
0.0
  0
LINE
  5
2FC
330
1F
100
AcDbEntity
  8
1
  6
Continuous
 62
     2
100
AcDbLine
 10
1541.373450967612
 20
186.561480708919
 30
0.0
 11
1541.479516984791
 21
186.1372166402071
 31
0.0
  0
LINE
  5
2FD
330
1F
100
AcDbEntity
  8
1
  6
Continuous
 62
     2
100
AcDbLine
 10
1541.267384950435
 20
186.773612743275
 30
0.0
 11
1541.373450967612
 21
186.561480708919
 31
0.0
  0
LINE
  5
2FE
330
1F
100
AcDbEntity
  8
1
  6
Continuous
 62
     2
100
AcDbLine
 10
1541.055252916078
 20
186.9857447776309
 30
0.0
 11
1541.267384950435
 21
186.773612743275
 31
0.0
  0
LINE
  5
2FF
330
1F
100
AcDbEntity
  8
1
  6
Continuous
 62
     2
100
AcDbLine
 10
1540.630988847367
 20
187.0918107948089
 30
0.0
 11
1541.055252916078
 21
186.9857447776309
 31
0.0
  0
LINE
  5
300
330
1F
100
AcDbEntity
  8
1
  6
Continuous
 62
     2
100
AcDbLine
 10
1540.949186898901
 20
187.1978768119869
 30
0.0
 11
1540.630988847367
 21
187.0918107948089
 31
0.0
  0
LINE
  5
301
330
1F
100
AcDbEntity
  8
1
  6
Continuous
 62
     2
100
AcDbLine
 10
1541.161318933257
 20
187.3039428291649
 30
0.0
 11
1540.949186898901
 21
187.1978768119869
 31
0.0
  0
LINE
  5
302
330
1F
100
AcDbEntity
  8
1
  6
Continuous
 62
     2
100
AcDbLine
 10
1541.373450967612
 20
187.5160748635209
 30
0.0
 11
1541.161318933257
 21
187.3039428291649
 31
0.0
  0
LINE
  5
303
330
1F
100
AcDbEntity
  8
1
  6
Continuous
 62
     2
100
AcDbLine
 10
1541.479516984791
 20
187.8342729150548
 30
0.0
 11
1541.373450967612
 21
187.5160748635209
 31
0.0
  0
LINE
  5
304
330
1F
100
AcDbEntity
  8
1
  6
Continuous
 62
     2
100
AcDbLine
 10
1541.479516984791
 20
188.1524709665887
 30
0.0
 11
1541.479516984791
 21
187.8342729150548
 31
0.0
  0
LINE
  5
305
330
1F
100
AcDbEntity
  8
1
  6
Continuous
 62
     2
100
AcDbLine
 10
1541.373450967612
 20
188.4706690181227
 30
0.0
 11
1541.479516984791
 21
188.1524709665887
 31
0.0
  0
LINE
  5
306
330
1F
100
AcDbEntity
  8
1
  6
Continuous
 62
     2
100
AcDbLine
 10
1541.055252916078
 20
188.6828010524787
 30
0.0
 11
1541.373450967612
 21
188.4706690181227
 31
0.0
  0
LINE
  5
307
330
1F
100
AcDbEntity
  8
1
  6
Continuous
 62
     2
100
AcDbLine
 10
1540.524922830189
 20
188.7888670696567
 30
0.0
 11
1541.055252916078
 21
188.6828010524787
 31
0.0
  0
LINE
  5
308
330
1F
100
AcDbEntity
  8
1
  6
Continuous
 62
     2
100
AcDbLine
 10
1538.933932572519
 20
188.7888670696567
 30
0.0
 11
1540.524922830189
 21
188.7888670696567
 31
0.0
  0
LINE
  5
309
330
1F
100
AcDbEntity
  8
1
  6
Continuous
 62
     2
100
AcDbLine
 10
1539.570328675587
 20
187.0918107948089
 30
0.0
 11
1540.630988847367
 21
187.0918107948089
 31
0.0
  0
LINE
  5
30A
330
1F
100
AcDbEntity
  8
1
  6
Continuous
 62
     2
100
AcDbLine
 10
1534.479159851044
 20
185.8720515972621
 30
0.0
 11
1535.062522945523
 21
185.2356554941943
 31
0.0
  0
LINE
  5
30B
330
1F
100
AcDbEntity
  8
1
  6
Continuous
 62
     2
100
AcDbLine
 10
1534.001862773743
 20
186.667546726097
 30
0.0
 11
1534.479159851044
 21
185.8720515972621
 31
0.0
  0
LINE
  5
30C
330
1F
100
AcDbEntity
  8
1
  6
Continuous
 62
     2
100
AcDbLine
 10
1533.63063171362
 20
187.6221408806989
 30
0.0
 11
1534.001862773743
 21
186.667546726097
 31
0.0
  0
LINE
  5
30D
330
1F
100
AcDbEntity
  8
1
  6
Continuous
 62
     2
100
AcDbLine
 10
1534.6912918854
 20
187.7282068978768
 30
0.0
 11
1533.895796756565
 21
187.0918107948089
 31
0.0
  0
LINE
  5
30E
330
1F
100
AcDbEntity
  8
1
  6
Continuous
 62
     2
100
AcDbLine
 10
1533.312433662086
 20
184.5462263825374
 30
0.0
 11
1532.941202601963
 21
184.7053254083043
 31
0.0
  0
LINE
  5
30F
330
1F
100
AcDbEntity
  8
1
  6
Continuous
 62
     2
100
AcDbLine
 10
1533.312433662086
 20
188.6828010524787
 30
0.0
 11
1533.312433662086
 21
184.5462263825374
 31
0.0
  0
LINE
  5
310
330
1F
100
AcDbEntity
  8
1
  6
Continuous
 62
     2
100
AcDbLine
 10
1532.729070567607
 20
187.3569758377539
 30
0.0
 11
1531.50931137006
 21
187.3569758377539
 31
0.0
  0
LINE
  5
311
330
1F
100
AcDbEntity
  8
1
  6
Continuous
 62
     2
100
AcDbLine
 10
1532.463905524662
 20
186.561480708919
 30
0.0
 11
1532.729070567607
 21
187.3569758377539
 31
0.0
  0
LINE
  5
312
330
1F
100
AcDbEntity
  8
1
  6
Continuous
 62
     2
100
AcDbLine
 10
1531.986608447361
 20
185.7659855800842
 30
0.0
 11
1532.463905524662
 21
186.561480708919
 31
0.0
  0
LINE
  5
313
330
1F
100
AcDbEntity
  8
1
  6
Continuous
 62
     2
100
AcDbLine
 10
1531.50931137006
 20
185.2356554941943
 30
0.0
 11
1531.986608447361
 21
185.7659855800842
 31
0.0
  0
LINE
  5
314
330
1F
100
AcDbEntity
  8
1
  6
Continuous
 62
     2
100
AcDbLine
 10
1528.804627932022
 20
188.7888670696567
 30
0.0
 11
1528.804627932022
 21
184.7053254083043
 31
0.0
  0
LINE
  5
315
330
1F
100
AcDbEntity
  8
1
  6
Continuous
 62
     2
100
AcDbLine
 10
1530.236519163924
 20
187.1978768119869
 30
0.0
 11
1528.804627932022
 21
187.1978768119869
 31
0.0
  0
LINE
  5
316
330
1F
100
AcDbEntity
  8
1
  6
Continuous
 62
     2
100
AcDbLine
 10
1527.054538648585
 20
184.7053254083043
 30
0.0
 11
1530.819882258403
 21
184.7053254083043
 31
0.0
  0
LINE
  5
317
330
1F
100
AcDbEntity
  8
1
  6
Continuous
 62
     2
100
AcDbLine
 10
1570.43553967438
 20
177.2432826573851
 30
0.0
 11
1570.43553967438
 21
175.5462263825374
 31
0.0
  0
LINE
  5
318
330
1F
100
AcDbEntity
  8
1
  6
Continuous
 62
     2
100
AcDbLine
 10
1568.526351365176
 20
176.3947545199612
 30
0.0
 11
1571.071935777447
 21
176.3947545199612
 31
0.0
  0
LINE
  5
319
330
1F
100
AcDbEntity
  8
1
  6
Continuous
 62
     2
100
AcDbLine
 10
1570.43553967438
 20
179.7888670696567
 30
0.0
 11
1568.526351365176
 21
176.3947545199612
 31
0.0
  0
LINE
  5
31A
330
1F
100
AcDbEntity
  8
1
  6
Continuous
 62
     2
100
AcDbLine
 10
1567.25355915904
 20
179.7888670696567
 30
0.0
 11
1567.25355915904
 21
175.5462263825374
 31
0.0
  0
LINE
  5
31B
330
1F
100
AcDbEntity
  8
1
  6
Continuous
 62
     2
100
AcDbLine
 10
1565.980766952904
 20
178.5160748635209
 30
0.0
 11
1567.25355915904
 21
179.7888670696567
 31
0.0
  0
LINE
  5
31C
330
1F
100
AcDbEntity
  8
1
  6
Continuous
 62
     2
100
AcDbLine
 10
1563.647314574989
 20
179.5237020267117
 30
0.0
 11
1563.647314574989
 21
175.8113914254823
 31
0.0
  0
LINE
  5
31D
330
1F
100
AcDbEntity
  8
1
  6
Continuous
 62
     2
100
AcDbLine
 10
1565.13223881548
 20
175.8113914254823
 30
0.0
 11
1565.13223881548
 21
178.6221408806989
 31
0.0
  0
LINE
  5
31E
330
1F
100
AcDbEntity
  8
1
  6
Continuous
 62
     2
100
AcDbLine
 10
1562.109357325908
 20
175.8113914254823
 30
0.0
 11
1565.13223881548
 21
175.8113914254823
 31
0.0
  0
LINE
  5
31F
330
1F
100
AcDbEntity
  8
1
  6
Continuous
 62
     2
100
AcDbLine
 10
1562.109357325908
 20
178.6221408806989
 30
0.0
 11
1562.109357325908
 21
175.8113914254823
 31
0.0
  0
LINE
  5
320
330
1F
100
AcDbEntity
  8
1
  6
Continuous
 62
     2
100
AcDbLine
 10
1550.282996410563
 20
178.1978768119869
 30
0.0
 11
1550.282996410563
 21
177.1372166402071
 31
0.0
  0
LINE
  5
321
330
1F
100
AcDbEntity
  8
1
  6
Continuous
 62
     2
100
AcDbLine
 10
1550.176930393385
 20
178.8342729150548
 30
0.0
 11
1550.282996410563
 21
178.1978768119869
 31
0.0
  0
LINE
  5
322
330
1F
100
AcDbEntity
  8
1
  6
Continuous
 62
     2
100
AcDbLine
 10
1549.964798359029
 20
179.2585369837667
 30
0.0
 11
1550.176930393385
 21
178.8342729150548
 31
0.0
  0
LINE
  5
323
330
1F
100
AcDbEntity
  8
1
  6
Continuous
 62
     2
100
AcDbLine
 10
1549.752666324673
 20
179.4706690181227
 30
0.0
 11
1549.964798359029
 21
179.2585369837667
 31
0.0
  0
LINE
  5
324
330
1F
100
AcDbEntity
  8
1
  6
Continuous
 62
     2
100
AcDbLine
 10
1549.434468273139
 20
179.6828010524787
 30
0.0
 11
1549.752666324673
 21
179.4706690181227
 31
0.0
  0
LINE
  5
325
330
1F
100
AcDbEntity
  8
1
  6
Continuous
 62
     2
100
AcDbLine
 10
1549.116270221605
 20
179.7888670696567
 30
0.0
 11
1549.434468273139
 21
179.6828010524787
 31
0.0
  0
LINE
  5
326
330
1F
100
AcDbEntity
  8
1
  6
Continuous
 62
     2
100
AcDbLine
 10
1548.904138187249
 20
179.7888670696567
 30
0.0
 11
1549.116270221605
 21
179.7888670696567
 31
0.0
  0
LINE
  5
327
330
1F
100
AcDbEntity
  8
1
  6
Continuous
 62
     2
100
AcDbLine
 10
1548.585940135715
 20
179.6828010524787
 30
0.0
 11
1548.904138187249
 21
179.7888670696567
 31
0.0
  0
LINE
  5
328
330
1F
100
AcDbEntity
  8
1
  6
Continuous
 62
     2
100
AcDbLine
 10
1548.267742084181
 20
179.4706690181227
 30
0.0
 11
1548.585940135715
 21
179.6828010524787
 31
0.0
  0
LINE
  5
329
330
1F
100
AcDbEntity
  8
1
  6
Continuous
 62
     2
100
AcDbLine
 10
1548.055610049825
 20
179.2585369837667
 30
0.0
 11
1548.267742084181
 21
179.4706690181227
 31
0.0
  0
LINE
  5
32A
330
1F
100
AcDbEntity
  8
1
  6
Continuous
 62
     2
100
AcDbLine
 10
1547.843478015469
 20
178.8342729150548
 30
0.0
 11
1548.055610049825
 21
179.2585369837667
 31
0.0
  0
LINE
  5
32B
330
1F
100
AcDbEntity
  8
1
  6
Continuous
 62
     2
100
AcDbLine
 10
1547.737411998291
 20
178.1978768119869
 30
0.0
 11
1547.843478015469
 21
178.8342729150548
 31
0.0
  0
LINE
  5
32C
330
1F
100
AcDbEntity
  8
1
  6
Continuous
 62
     2
100
AcDbLine
 10
1547.737411998291
 20
177.1372166402071
 30
0.0
 11
1547.737411998291
 21
178.1978768119869
 31
0.0
  0
LINE
  5
32D
330
1F
100
AcDbEntity
  8
1
  6
Continuous
 62
     2
100
AcDbLine
 10
1547.843478015469
 20
176.5008205371392
 30
0.0
 11
1547.737411998291
 21
177.1372166402071
 31
0.0
  0
LINE
  5
32E
330
1F
100
AcDbEntity
  8
1
  6
Continuous
 62
     2
100
AcDbLine
 10
1548.055610049825
 20
176.0765564684273
 30
0.0
 11
1547.843478015469
 21
176.5008205371392
 31
0.0
  0
LINE
  5
32F
330
1F
100
AcDbEntity
  8
1
  6
Continuous
 62
     2
100
AcDbLine
 10
1548.267742084181
 20
175.8644244340713
 30
0.0
 11
1548.055610049825
 21
176.0765564684273
 31
0.0
  0
LINE
  5
330
330
1F
100
AcDbEntity
  8
1
  6
Continuous
 62
     2
100
AcDbLine
 10
1548.585940135715
 20
175.6522923997154
 30
0.0
 11
1548.267742084181
 21
175.8644244340713
 31
0.0
  0
LINE
  5
331
330
1F
100
AcDbEntity
  8
1
  6
Continuous
 62
     2
100
AcDbLine
 10
1548.904138187249
 20
175.5462263825374
 30
0.0
 11
1548.585940135715
 21
175.6522923997154
 31
0.0
  0
LINE
  5
332
330
1F
100
AcDbEntity
  8
1
  6
Continuous
 62
     2
100
AcDbLine
 10
1549.116270221605
 20
175.5462263825374
 30
0.0
 11
1548.904138187249
 21
175.5462263825374
 31
0.0
  0
LINE
  5
333
330
1F
100
AcDbEntity
  8
1
  6
Continuous
 62
     2
100
AcDbLine
 10
1549.434468273139
 20
175.6522923997154
 30
0.0
 11
1549.116270221605
 21
175.5462263825374
 31
0.0
  0
LINE
  5
334
330
1F
100
AcDbEntity
  8
1
  6
Continuous
 62
     2
100
AcDbLine
 10
1549.752666324673
 20
175.8644244340713
 30
0.0
 11
1549.434468273139
 21
175.6522923997154
 31
0.0
  0
LINE
  5
335
330
1F
100
AcDbEntity
  8
1
  6
Continuous
 62
     2
100
AcDbLine
 10
1549.964798359029
 20
176.0765564684273
 30
0.0
 11
1549.752666324673
 21
175.8644244340713
 31
0.0
  0
LINE
  5
336
330
1F
100
AcDbEntity
  8
1
  6
Continuous
 62
     2
100
AcDbLine
 10
1550.176930393385
 20
176.5008205371392
 30
0.0
 11
1549.964798359029
 21
176.0765564684273
 31
0.0
  0
LINE
  5
337
330
1F
100
AcDbEntity
  8
1
  6
Continuous
 62
     2
100
AcDbLine
 10
1550.282996410563
 20
177.1372166402071
 30
0.0
 11
1550.176930393385
 21
176.5008205371392
 31
0.0
  0
LINE
  5
338
330
1F
100
AcDbEntity
  8
1
  6
Continuous
 62
     2
100
AcDbLine
 10
1546.570685809334
 20
175.7583584168933
 30
0.0
 11
1546.570685809334
 21
175.6522923997154
 31
0.0
  0
LINE
  5
339
330
1F
100
AcDbEntity
  8
1
  6
Continuous
 62
     2
100
AcDbLine
 10
1546.464619792155
 20
175.7583584168933
 30
0.0
 11
1546.570685809334
 21
175.7583584168933
 31
0.0
  0
LINE
  5
33A
330
1F
100
AcDbEntity
  8
1
  6
Continuous
 62
     2
100
AcDbLine
 10
1546.464619792155
 20
175.6522923997154
 30
0.0
 11
1546.464619792155
 21
175.7583584168933
 31
0.0
  0
LINE
  5
33B
330
1F
100
AcDbEntity
  8
1
  6
Continuous
 62
     2
100
AcDbLine
 10
1546.570685809334
 20
175.6522923997154
 30
0.0
 11
1546.464619792155
 21
175.6522923997154
 31
0.0
  0
LINE
  5
33C
330
1F
100
AcDbEntity
  8
1
  6
Continuous
 62
     2
100
AcDbLine
 10
1546.676751826512
 20
175.8644244340713
 30
0.0
 11
1546.676751826512
 21
175.5462263825374
 31
0.0
  0
LINE
  5
33D
330
1F
100
AcDbEntity
  8
1
  6
Continuous
 62
     2
100
AcDbLine
 10
1546.358553774978
 20
175.8644244340713
 30
0.0
 11
1546.676751826512
 21
175.8644244340713
 31
0.0
  0
LINE
  5
33E
330
1F
100
AcDbEntity
  8
1
  6
Continuous
 62
     2
100
AcDbLine
 10
1546.358553774978
 20
175.5462263825374
 30
0.0
 11
1546.358553774978
 21
175.8644244340713
 31
0.0
  0
LINE
  5
33F
330
1F
100
AcDbEntity
  8
1
  6
Continuous
 62
     2
100
AcDbLine
 10
1546.676751826512
 20
175.5462263825374
 30
0.0
 11
1546.358553774978
 21
175.5462263825374
 31
0.0
  0
LINE
  5
340
330
1F
100
AcDbEntity
  8
1
  6
Continuous
 62
     2
100
AcDbLine
 10
1544.13116741424
 20
175.5462263825374
 30
0.0
 11
1542.54017715657
 21
175.5462263825374
 31
0.0
  0
LINE
  5
341
330
1F
100
AcDbEntity
  8
1
  6
Continuous
 62
     2
100
AcDbLine
 10
1544.449365465774
 20
175.6522923997154
 30
0.0
 11
1544.13116741424
 21
175.5462263825374
 31
0.0
  0
LINE
  5
342
330
1F
100
AcDbEntity
  8
1
  6
Continuous
 62
     2
100
AcDbLine
 10
1544.767563517308
 20
175.8644244340713
 30
0.0
 11
1544.449365465774
 21
175.6522923997154
 31
0.0
  0
LINE
  5
343
330
1F
100
AcDbEntity
  8
1
  6
Continuous
 62
     2
100
AcDbLine
 10
1544.979695551664
 20
176.1826224856052
 30
0.0
 11
1544.767563517308
 21
175.8644244340713
 31
0.0
  0
LINE
  5
344
330
1F
100
AcDbEntity
  8
1
  6
Continuous
 62
     2
100
AcDbLine
 10
1545.085761568842
 20
176.6068865543172
 30
0.0
 11
1544.979695551664
 21
176.1826224856052
 31
0.0
  0
LINE
  5
345
330
1F
100
AcDbEntity
  8
1
  6
Continuous
 62
     2
100
AcDbLine
 10
1545.085761568842
 20
177.1372166402071
 30
0.0
 11
1545.085761568842
 21
176.6068865543172
 31
0.0
  0
LINE
  5
346
330
1F
100
AcDbEntity
  8
1
  6
Continuous
 62
     2
100
AcDbLine
 10
1544.979695551664
 20
177.561480708919
 30
0.0
 11
1545.085761568842
 21
177.1372166402071
 31
0.0
  0
LINE
  5
347
330
1F
100
AcDbEntity
  8
1
  6
Continuous
 62
     2
100
AcDbLine
 10
1544.873629534486
 20
177.773612743275
 30
0.0
 11
1544.979695551664
 21
177.561480708919
 31
0.0
  0
LINE
  5
348
330
1F
100
AcDbEntity
  8
1
  6
Continuous
 62
     2
100
AcDbLine
 10
1544.66149750013
 20
177.9857447776309
 30
0.0
 11
1544.873629534486
 21
177.773612743275
 31
0.0
  0
LINE
  5
349
330
1F
100
AcDbEntity
  8
1
  6
Continuous
 62
     2
100
AcDbLine
 10
1544.237233431418
 20
178.0918107948089
 30
0.0
 11
1544.66149750013
 21
177.9857447776309
 31
0.0
  0
LINE
  5
34A
330
1F
100
AcDbEntity
  8
1
  6
Continuous
 62
     2
100
AcDbLine
 10
1544.555431482952
 20
178.1978768119869
 30
0.0
 11
1544.237233431418
 21
178.0918107948089
 31
0.0
  0
LINE
  5
34B
330
1F
100
AcDbEntity
  8
1
  6
Continuous
 62
     2
100
AcDbLine
 10
1544.767563517308
 20
178.3039428291649
 30
0.0
 11
1544.555431482952
 21
178.1978768119869
 31
0.0
  0
LINE
  5
34C
330
1F
100
AcDbEntity
  8
1
  6
Continuous
 62
     2
100
AcDbLine
 10
1544.979695551664
 20
178.5160748635209
 30
0.0
 11
1544.767563517308
 21
178.3039428291649
 31
0.0
  0
LINE
  5
34D
330
1F
100
AcDbEntity
  8
1
  6
Continuous
 62
     2
100
AcDbLine
 10
1545.085761568842
 20
178.8342729150548
 30
0.0
 11
1544.979695551664
 21
178.5160748635209
 31
0.0
  0
LINE
  5
34E
330
1F
100
AcDbEntity
  8
1
  6
Continuous
 62
     2
100
AcDbLine
 10
1545.085761568842
 20
179.1524709665887
 30
0.0
 11
1545.085761568842
 21
178.8342729150548
 31
0.0
  0
LINE
  5
34F
330
1F
100
AcDbEntity
  8
1
  6
Continuous
 62
     2
100
AcDbLine
 10
1544.979695551664
 20
179.4706690181227
 30
0.0
 11
1545.085761568842
 21
179.1524709665887
 31
0.0
  0
LINE
  5
350
330
1F
100
AcDbEntity
  8
1
  6
Continuous
 62
     2
100
AcDbLine
 10
1544.66149750013
 20
179.6828010524787
 30
0.0
 11
1544.979695551664
 21
179.4706690181227
 31
0.0
  0
LINE
  5
351
330
1F
100
AcDbEntity
  8
1
  6
Continuous
 62
     2
100
AcDbLine
 10
1544.13116741424
 20
179.7888670696567
 30
0.0
 11
1544.66149750013
 21
179.6828010524787
 31
0.0
  0
LINE
  5
352
330
1F
100
AcDbEntity
  8
1
  6
Continuous
 62
     2
100
AcDbLine
 10
1542.54017715657
 20
179.7888670696567
 30
0.0
 11
1544.13116741424
 21
179.7888670696567
 31
0.0
  0
LINE
  5
353
330
1F
100
AcDbEntity
  8
1
  6
Continuous
 62
     2
100
AcDbLine
 10
1543.176573259638
 20
178.0918107948089
 30
0.0
 11
1544.237233431418
 21
178.0918107948089
 31
0.0
  0
LINE
  5
354
330
1F
100
AcDbEntity
  8
1
  6
Continuous
 62
     2
100
AcDbLine
 10
1540.312790795833
 20
175.5462263825374
 30
0.0
 11
1538.721800538163
 21
175.5462263825374
 31
0.0
  0
LINE
  5
355
330
1F
100
AcDbEntity
  8
1
  6
Continuous
 62
     2
100
AcDbLine
 10
1540.630988847367
 20
175.6522923997154
 30
0.0
 11
1540.312790795833
 21
175.5462263825374
 31
0.0
  0
LINE
  5
356
330
1F
100
AcDbEntity
  8
1
  6
Continuous
 62
     2
100
AcDbLine
 10
1540.949186898901
 20
175.8644244340713
 30
0.0
 11
1540.630988847367
 21
175.6522923997154
 31
0.0
  0
LINE
  5
357
330
1F
100
AcDbEntity
  8
1
  6
Continuous
 62
     2
100
AcDbLine
 10
1541.161318933256
 20
176.1826224856052
 30
0.0
 11
1540.949186898901
 21
175.8644244340713
 31
0.0
  0
LINE
  5
358
330
1F
100
AcDbEntity
  8
1
  6
Continuous
 62
     2
100
AcDbLine
 10
1541.267384950435
 20
176.6068865543172
 30
0.0
 11
1541.161318933256
 21
176.1826224856052
 31
0.0
  0
LINE
  5
359
330
1F
100
AcDbEntity
  8
1
  6
Continuous
 62
     2
100
AcDbLine
 10
1541.267384950435
 20
177.1372166402071
 30
0.0
 11
1541.267384950435
 21
176.6068865543172
 31
0.0
  0
LINE
  5
35A
330
1F
100
AcDbEntity
  8
1
  6
Continuous
 62
     2
100
AcDbLine
 10
1541.161318933256
 20
177.561480708919
 30
0.0
 11
1541.267384950435
 21
177.1372166402071
 31
0.0
  0
LINE
  5
35B
330
1F
100
AcDbEntity
  8
1
  6
Continuous
 62
     2
100
AcDbLine
 10
1541.055252916078
 20
177.773612743275
 30
0.0
 11
1541.161318933256
 21
177.561480708919
 31
0.0
  0
LINE
  5
35C
330
1F
100
AcDbEntity
  8
1
  6
Continuous
 62
     2
100
AcDbLine
 10
1540.843120881722
 20
177.9857447776309
 30
0.0
 11
1541.055252916078
 21
177.773612743275
 31
0.0
  0
LINE
  5
35D
330
1F
100
AcDbEntity
  8
1
  6
Continuous
 62
     2
100
AcDbLine
 10
1540.418856813011
 20
178.0918107948089
 30
0.0
 11
1540.843120881722
 21
177.9857447776309
 31
0.0
  0
LINE
  5
35E
330
1F
100
AcDbEntity
  8
1
  6
Continuous
 62
     2
100
AcDbLine
 10
1540.737054864545
 20
178.1978768119869
 30
0.0
 11
1540.418856813011
 21
178.0918107948089
 31
0.0
  0
LINE
  5
35F
330
1F
100
AcDbEntity
  8
1
  6
Continuous
 62
     2
100
AcDbLine
 10
1540.949186898901
 20
178.3039428291649
 30
0.0
 11
1540.737054864545
 21
178.1978768119869
 31
0.0
  0
LINE
  5
360
330
1F
100
AcDbEntity
  8
1
  6
Continuous
 62
     2
100
AcDbLine
 10
1541.161318933256
 20
178.5160748635209
 30
0.0
 11
1540.949186898901
 21
178.3039428291649
 31
0.0
  0
LINE
  5
361
330
1F
100
AcDbEntity
  8
1
  6
Continuous
 62
     2
100
AcDbLine
 10
1541.267384950435
 20
178.8342729150548
 30
0.0
 11
1541.161318933256
 21
178.5160748635209
 31
0.0
  0
LINE
  5
362
330
1F
100
AcDbEntity
  8
1
  6
Continuous
 62
     2
100
AcDbLine
 10
1541.267384950435
 20
179.1524709665887
 30
0.0
 11
1541.267384950435
 21
178.8342729150548
 31
0.0
  0
LINE
  5
363
330
1F
100
AcDbEntity
  8
1
  6
Continuous
 62
     2
100
AcDbLine
 10
1541.161318933256
 20
179.4706690181227
 30
0.0
 11
1541.267384950435
 21
179.1524709665887
 31
0.0
  0
LINE
  5
364
330
1F
100
AcDbEntity
  8
1
  6
Continuous
 62
     2
100
AcDbLine
 10
1540.843120881722
 20
179.6828010524787
 30
0.0
 11
1541.161318933256
 21
179.4706690181227
 31
0.0
  0
LINE
  5
365
330
1F
100
AcDbEntity
  8
1
  6
Continuous
 62
     2
100
AcDbLine
 10
1540.312790795833
 20
179.7888670696567
 30
0.0
 11
1540.843120881722
 21
179.6828010524787
 31
0.0
  0
LINE
  5
366
330
1F
100
AcDbEntity
  8
1
  6
Continuous
 62
     2
100
AcDbLine
 10
1538.721800538163
 20
179.7888670696567
 30
0.0
 11
1540.312790795833
 21
179.7888670696567
 31
0.0
  0
LINE
  5
367
330
1F
100
AcDbEntity
  8
1
  6
Continuous
 62
     2
100
AcDbLine
 10
1539.358196641231
 20
178.0918107948089
 30
0.0
 11
1540.418856813011
 21
178.0918107948089
 31
0.0
  0
LINE
  5
368
330
1F
100
AcDbEntity
  8
1
  6
Continuous
 62
     2
100
AcDbLine
 10
1533.312433662086
 20
178.8873059236438
 30
0.0
 11
1534.479159851044
 21
178.8873059236438
 31
0.0
  0
LINE
  5
369
330
1F
100
AcDbEntity
  8
1
  6
Continuous
 62
     2
100
AcDbLine
 10
1533.312433662086
 20
178.1978768119869
 30
0.0
 11
1534.479159851044
 21
178.1978768119869
 31
0.0
  0
LINE
  5
36A
330
1F
100
AcDbEntity
  8
1
  6
Continuous
 62
     2
100
AcDbLine
 10
1533.312433662086
 20
179.5237020267117
 30
0.0
 11
1533.312433662086
 21
178.1978768119869
 31
0.0
  0
LINE
  5
36B
330
1F
100
AcDbEntity
  8
1
  6
Continuous
 62
     2
100
AcDbLine
 10
1534.479159851044
 20
179.5237020267117
 30
0.0
 11
1533.312433662086
 21
179.5237020267117
 31
0.0
  0
LINE
  5
36C
330
1F
100
AcDbEntity
  8
1
  6
Continuous
 62
     2
100
AcDbLine
 10
1534.479159851044
 20
175.8113914254823
 30
0.0
 11
1534.479159851044
 21
179.5237020267117
 31
0.0
  0
LINE
  5
36D
330
1F
100
AcDbEntity
  8
1
  6
Continuous
 62
     2
100
AcDbLine
 10
1534.373093833866
 20
175.7053254083043
 30
0.0
 11
1534.479159851044
 21
175.8113914254823
 31
0.0
  0
LINE
  5
36E
330
1F
100
AcDbEntity
  8
1
  6
Continuous
 62
     2
100
AcDbLine
 10
1534.054895782332
 20
175.7053254083043
 30
0.0
 11
1534.373093833866
 21
175.7053254083043
 31
0.0
  0
LINE
  5
36F
330
1F
100
AcDbEntity
  8
1
  6
Continuous
 62
     2
100
AcDbLine
 10
1532.623004550429
 20
178.8873059236438
 30
0.0
 11
1531.456278361471
 21
178.8873059236438
 31
0.0
  0
LINE
  5
370
330
1F
100
AcDbEntity
  8
1
  6
Continuous
 62
     2
100
AcDbLine
 10
1532.623004550429
 20
178.1978768119869
 30
0.0
 11
1531.456278361471
 21
178.1978768119869
 31
0.0
  0
LINE
  5
371
330
1F
100
AcDbEntity
  8
1
  6
Continuous
 62
     2
100
AcDbLine
 10
1532.623004550429
 20
179.5237020267117
 30
0.0
 11
1532.623004550429
 21
178.1978768119869
 31
0.0
  0
LINE
  5
372
330
1F
100
AcDbEntity
  8
1
  6
Continuous
 62
     2
100
AcDbLine
 10
1531.456278361471
 20
179.5237020267117
 30
0.0
 11
1532.623004550429
 21
179.5237020267117
 31
0.0
  0
LINE
  5
373
330
1F
100
AcDbEntity
  8
1
  6
Continuous
 62
     2
100
AcDbLine
 10
1531.456278361471
 20
175.7053254083043
 30
0.0
 11
1531.456278361471
 21
179.5237020267117
 31
0.0
  0
LINE
  5
374
330
1F
100
AcDbEntity
  8
1
  6
Continuous
 62
     2
100
AcDbLine
 10
1530.130453146746
 20
178.0918107948089
 30
0.0
 11
1530.607750224047
 21
177.667546726097
 31
0.0
  0
LINE
  5
375
330
1F
100
AcDbEntity
  8
1
  6
Continuous
 62
     2
100
AcDbLine
 10
1529.334958017912
 20
178.9933719408218
 30
0.0
 11
1530.130453146746
 21
178.0918107948089
 31
0.0
  0
LINE
  5
376
330
1F
100
AcDbEntity
  8
1
  6
Continuous
 62
     2
100
AcDbLine
 10
1528.751594923433
 20
179.7888670696567
 30
0.0
 11
1529.334958017912
 21
178.9933719408218
 31
0.0
  0
LINE
  5
377
330
1F
100
AcDbEntity
  8
1
  6
Continuous
 62
     2
100
AcDbLine
 10
1528.115198820365
 20
178.9933719408218
 30
0.0
 11
1528.751594923433
 21
179.7888670696567
 31
0.0
  0
LINE
  5
378
330
1F
100
AcDbEntity
  8
1
  6
Continuous
 62
     2
100
AcDbLine
 10
1527.31970369153
 20
178.0918107948089
 30
0.0
 11
1528.115198820365
 21
178.9933719408218
 31
0.0
  0
LINE
  5
379
330
1F
100
AcDbEntity
  8
1
  6
Continuous
 62
     2
100
AcDbLine
 10
1526.842406614229
 20
177.667546726097
 30
0.0
 11
1527.31970369153
 21
178.0918107948089
 31
0.0
  0
LINE
  5
37A
330
1F
100
AcDbEntity
  8
1
  6
Continuous
 62
     2
100
AcDbLine
 10
1529.334958017912
 20
176.2356554941943
 30
0.0
 11
1529.547090052267
 21
176.8720515972621
 31
0.0
  0
LINE
  5
37B
330
1F
100
AcDbEntity
  8
1
  6
Continuous
 62
     2
100
AcDbLine
 10
1527.903066786009
 20
176.8720515972621
 30
0.0
 11
1528.115198820365
 21
176.2356554941943
 31
0.0
  0
LINE
  5
37C
330
1F
100
AcDbEntity
  8
1
  6
Continuous
 62
     2
100
AcDbLine
 10
1529.91832111239
 20
177.402381683152
 30
0.0
 11
1527.531835725886
 21
177.402381683152
 31
0.0
  0
LINE
  5
37D
330
1F
100
AcDbEntity
  8
1
  6
Continuous
 62
     2
100
AcDbLine
 10
1527.903066786009
 20
178.1978768119869
 30
0.0
 11
1529.547090052267
 21
178.1978768119869
 31
0.0
  0
LINE
  5
37E
330
1F
100
AcDbEntity
  8
1
  6
Continuous
 62
     2
100
AcDbLine
 10
1528.751594923433
 20
175.7053254083043
 30
0.0
 11
1528.751594923433
 21
178.1978768119869
 31
0.0
  0
LINE
  5
37F
330
1F
100
AcDbEntity
  8
1
  6
Continuous
 62
     2
100
AcDbLine
 10
1527.213637674352
 20
175.7053254083043
 30
0.0
 11
1530.130453146746
 21
175.7053254083043
 31
0.0
  0
LINE
  5
380
330
1F
100
AcDbEntity
  8
1
  6
Continuous
 62
     2
100
AcDbLine
 10
1550.970110954416
 20
109.7543274213692
 30
0.0
 11
1554.735454564234
 21
109.7543274213692
 31
0.0
  0
LINE
  5
381
330
1F
100
AcDbEntity
  8
1
  6
Continuous
 62
     2
100
AcDbLine
 10
1551.659540066073
 20
110.6558885673821
 30
0.0
 11
1551.659540066073
 21
109.7543274213692
 31
0.0
  0
LINE
  5
382
330
1F
100
AcDbEntity
  8
1
  6
Continuous
 62
     2
100
AcDbLine
 10
1551.659540066073
 20
110.814987593149
 30
0.0
 11
1554.046025452577
 21
110.814987593149
 31
0.0
  0
LINE
  5
383
330
1F
100
AcDbEntity
  8
1
  6
Continuous
 62
     2
100
AcDbLine
 10
1552.87929926362
 20
111.8756477649289
 30
0.0
 11
1552.87929926362
 21
108.2694031808775
 31
0.0
  0
LINE
  5
384
330
1F
100
AcDbEntity
  8
1
  6
Continuous
 62
     2
100
AcDbLine
 10
1551.81863909184
 20
111.8756477649289
 30
0.0
 11
1554.152091469756
 21
111.8756477649289
 31
0.0
  0
LINE
  5
385
330
1F
100
AcDbEntity
  8
1
  6
Continuous
 62
     2
100
AcDbLine
 10
1551.553474048895
 20
111.6104827219839
 30
0.0
 11
1551.182242988772
 21
111.186218653272
 31
0.0
  0
LINE
  5
386
330
1F
100
AcDbEntity
  8
1
  6
Continuous
 62
     2
100
AcDbLine
 10
1551.924705109018
 20
112.1408128078738
 30
0.0
 11
1551.553474048895
 21
111.6104827219839
 31
0.0
  0
LINE
  5
387
330
1F
100
AcDbEntity
  8
1
  6
Continuous
 62
     2
100
AcDbLine
 10
1552.136837143374
 20
112.5120438679968
 30
0.0
 11
1551.924705109018
 21
112.1408128078738
 31
0.0
  0
LINE
  5
388
330
1F
100
AcDbEntity
  8
1
  6
Continuous
 62
     2
100
AcDbLine
 10
1546.939602301653
 20
108.6936672495894
 30
0.0
 11
1546.833536284475
 21
108.5345682238224
 31
0.0
  0
LINE
  5
389
330
1F
100
AcDbEntity
  8
1
  6
Continuous
 62
     2
100
AcDbLine
 10
1547.575998404721
 20
111.8756477649289
 30
0.0
 11
1547.204767344598
 21
112.4059778508188
 31
0.0
  0
LINE
  5
38A
330
1F
100
AcDbEntity
  8
1
  6
Continuous
 62
     2
100
AcDbLine
 10
1548.265427516378
 20
111.7165487391619
 30
0.0
 11
1548.000262473433
 21
111.3453176790389
 31
0.0
  0
LINE
  5
38B
330
1F
100
AcDbEntity
  8
1
  6
Continuous
 62
     2
100
AcDbLine
 10
1548.477559550733
 20
112.4059778508188
 30
0.0
 11
1548.265427516378
 21
111.7165487391619
 31
0.0
  0
LINE
  5
38C
330
1F
100
AcDbEntity
  8
1
  6
Continuous
 62
     2
100
AcDbLine
 10
1550.015516799814
 20
111.7165487391619
 30
0.0
 11
1548.265427516378
 21
111.7165487391619
 31
0.0
  0
LINE
  5
38D
330
1F
100
AcDbEntity
  8
1
  6
Continuous
 62
     2
100
AcDbLine
 10
1549.060922645212
 20
110.814987593149
 30
0.0
 11
1549.060922645212
 21
112.5120438679968
 31
0.0
  0
LINE
  5
38E
330
1F
100
AcDbEntity
  8
1
  6
Continuous
 62
     2
100
AcDbLine
 10
1550.280681842759
 20
110.814987593149
 30
0.0
 11
1548.000262473433
 21
110.814987593149
 31
0.0
  0
LINE
  5
38F
330
1F
100
AcDbEntity
  8
1
  6
Continuous
 62
     2
100
AcDbLine
 10
1548.477559550733
 20
109.2239973354793
 30
0.0
 11
1549.803384765458
 21
109.2239973354793
 31
0.0
  0
LINE
  5
390
330
1F
100
AcDbEntity
  8
1
  6
Continuous
 62
     2
100
AcDbLine
 10
1548.477559550733
 20
110.2846575072591
 30
0.0
 11
1548.477559550733
 21
109.2239973354793
 31
0.0
  0
LINE
  5
391
330
1F
100
AcDbEntity
  8
1
  6
Continuous
 62
     2
100
AcDbLine
 10
1549.803384765458
 20
110.2846575072591
 30
0.0
 11
1548.477559550733
 21
110.2846575072591
 31
0.0
  0
LINE
  5
392
330
1F
100
AcDbEntity
  8
1
  6
Continuous
 62
     2
100
AcDbLine
 10
1549.803384765458
 20
109.2239973354793
 30
0.0
 11
1549.803384765458
 21
110.2846575072591
 31
0.0
  0
LINE
  5
393
330
1F
100
AcDbEntity
  8
1
  6
Continuous
 62
     2
100
AcDbLine
 10
1548.000262473433
 20
108.5345682238224
 30
0.0
 11
1550.386747859937
 21
108.5345682238224
 31
0.0
  0
LINE
  5
394
330
1F
100
AcDbEntity
  8
1
  6
Continuous
 62
     2
100
AcDbLine
 10
1547.788130439076
 20
108.6936672495894
 30
0.0
 11
1548.000262473433
 21
108.5345682238224
 31
0.0
  0
LINE
  5
395
330
1F
100
AcDbEntity
  8
1
  6
Continuous
 62
     2
100
AcDbLine
 10
1547.575998404721
 20
109.2239973354793
 30
0.0
 11
1547.788130439076
 21
108.6936672495894
 31
0.0
  0
LINE
  5
396
330
1F
100
AcDbEntity
  8
1
  6
Continuous
 62
     2
100
AcDbLine
 10
1547.575998404721
 20
110.6558885673821
 30
0.0
 11
1546.833536284475
 21
110.6558885673821
 31
0.0
  0
LINE
  5
397
330
1F
100
AcDbEntity
  8
1
  6
Continuous
 62
     2
100
AcDbLine
 10
1547.575998404721
 20
109.2239973354793
 30
0.0
 11
1547.575998404721
 21
110.6558885673821
 31
0.0
  0
LINE
  5
398
330
1F
100
AcDbEntity
  8
1
  6
Continuous
 62
     2
100
AcDbLine
 10
1546.939602301653
 20
108.6936672495894
 30
0.0
 11
1547.575998404721
 21
109.2239973354793
 31
0.0
  0
LINE
  5
399
330
1F
100
AcDbEntity
  8
1
  6
Continuous
 62
     2
100
AcDbLine
 10
1545.295579035394
 20
108.7997332667674
 30
0.0
 11
1545.083447001038
 21
109.4891623784243
 31
0.0
  0
LINE
  5
39A
330
1F
100
AcDbEntity
  8
1
  6
Continuous
 62
     2
100
AcDbLine
 10
1545.772876112695
 20
108.2694031808775
 30
0.0
 11
1545.295579035394
 21
108.2694031808775
 31
0.0
  0
LINE
  5
39B
330
1F
100
AcDbEntity
  8
1
  6
Continuous
 62
     2
100
AcDbLine
 10
1545.772876112695
 20
110.3907235244371
 30
0.0
 11
1545.772876112695
 21
108.2694031808775
 31
0.0
  0
LINE
  5
39C
330
1F
100
AcDbEntity
  8
1
  6
Continuous
 62
     2
100
AcDbLine
 10
1546.03804115564
 20
111.186218653272
 30
0.0
 11
1544.394017889381
 21
111.186218653272
 31
0.0
  0
LINE
  5
39D
330
1F
100
AcDbEntity
  8
1
  6
Continuous
 62
     2
100
AcDbLine
 10
1544.234918863614
 20
111.8756477649289
 30
0.0
 11
1546.03804115564
 21
111.8756477649289
 31
0.0
  0
LINE
  5
39E
330
1F
100
AcDbEntity
  8
1
  6
Continuous
 62
     2
100
AcDbLine
 10
1544.97738098386
 20
110.6558885673821
 30
0.0
 11
1545.083447001038
 21
112.2468788250518
 31
0.0
  0
LINE
  5
39F
330
1F
100
AcDbEntity
  8
1
  6
Continuous
 62
     2
100
AcDbLine
 10
1544.606149923737
 20
109.3300633526573
 30
0.0
 11
1544.97738098386
 21
110.6558885673821
 31
0.0
  0
LINE
  5
3A0
330
1F
100
AcDbEntity
  8
1
  6
Continuous
 62
     2
100
AcDbLine
 10
1544.128852846436
 20
108.5345682238224
 30
0.0
 11
1544.606149923737
 21
109.3300633526573
 31
0.0
  0
LINE
  5
3A1
330
1F
100
AcDbEntity
  8
1
  6
Continuous
 62
     2
100
AcDbLine
 10
1546.250173189996
 20
109.8603934385472
 30
0.0
 11
1544.234918863614
 21
109.8603934385472
 31
0.0
  0
LINE
  5
3A2
330
1F
100
AcDbEntity
  8
1
  6
Continuous
 62
     2
100
AcDbLine
 10
1544.128852846436
 20
110.6558885673821
 30
0.0
 11
1546.250173189996
 21
110.6558885673821
 31
0.0
  0
LINE
  5
3A3
330
1F
100
AcDbEntity
  8
1
  6
Continuous
 62
     2
100
AcDbLine
 10
1543.439423734779
 20
108.6936672495894
 30
0.0
 11
1543.439423734779
 21
110.814987593149
 31
0.0
  0
LINE
  5
3A4
330
1F
100
AcDbEntity
  8
1
  6
Continuous
 62
     2
100
AcDbLine
 10
1542.8560606403
 20
109.7543274213692
 30
0.0
 11
1543.068192674656
 21
109.0648983097123
 31
0.0
  0
LINE
  5
3A5
330
1F
100
AcDbEntity
  8
1
  6
Continuous
 62
     2
100
AcDbLine
 10
1542.962126657478
 20
111.3453176790389
 30
0.0
 11
1542.484829580177
 21
110.3907235244371
 31
0.0
  0
LINE
  5
3A6
330
1F
100
AcDbEntity
  8
1
  6
Continuous
 62
     2
100
AcDbLine
 10
1543.439423734779
 20
112.2468788250518
 30
0.0
 11
1542.962126657478
 21
111.3453176790389
 31
0.0
  0
LINE
  5
3A7
330
1F
100
AcDbEntity
  8
1
  6
Continuous
 62
     2
100
AcDbLine
 10
1544.128852846436
 20
111.4513836962169
 30
0.0
 11
1543.439423734779
 21
112.2468788250518
 31
0.0
  0
LINE
  5
3A8
330
1F
100
AcDbEntity
  8
1
  6
Continuous
 62
     2
100
AcDbLine
 10
1542.962126657478
 20
110.814987593149
 30
0.0
 11
1544.022786829258
 21
110.814987593149
 31
0.0
  0
LINE
  5
3A9
330
1F
100
AcDbEntity
  8
1
  6
Continuous
 62
     2
100
AcDbLine
 10
1544.022786829258
 20
110.1255584814922
 30
0.0
 11
1542.8560606403
 21
110.1255584814922
 31
0.0
  0
LINE
  5
3AA
330
1F
100
AcDbEntity
  8
1
  6
Continuous
 62
     2
100
AcDbLine
 10
1543.757621786313
 20
109.0648983097123
 30
0.0
 11
1543.91672081208
 21
109.7543274213692
 31
0.0
  0
LINE
  5
3AB
330
1F
100
AcDbEntity
  8
1
  6
Continuous
 62
     2
100
AcDbLine
 10
1542.696961614533
 20
108.4285022066444
 30
0.0
 11
1544.022786829258
 21
108.9588322925343
 31
0.0
  0
LINE
  5
3AC
330
1F
100
AcDbEntity
  8
1
  6
Continuous
 62
     2
100
AcDbLine
 10
1569.141017155666
 20
96.12543894956667
 30
0.0
 11
1568.663720078366
 21
96.39060399251163
 31
0.0
  0
LINE
  5
3AD
330
1F
100
AcDbEntity
  8
1
  6
Continuous
 62
     2
100
AcDbLine
 10
1569.353149190022
 20
96.28453797533365
 30
0.0
 11
1569.141017155666
 21
96.12543894956667
 31
0.0
  0
LINE
  5
3AE
330
1F
100
AcDbEntity
  8
1
  6
Continuous
 62
     2
100
AcDbLine
 10
1569.724380250145
 20
96.92093407840154
 30
0.0
 11
1569.353149190022
 21
96.28453797533365
 31
0.0
  0
LINE
  5
3AF
330
1F
100
AcDbEntity
  8
1
  6
Continuous
 62
     2
100
AcDbLine
 10
1569.936512284501
 20
97.7164292072364
 30
0.0
 11
1569.724380250145
 21
96.92093407840154
 31
0.0
  0
LINE
  5
3B0
330
1F
100
AcDbEntity
  8
1
  6
Continuous
 62
     2
100
AcDbLine
 10
1568.292489018243
 20
97.7164292072364
 30
0.0
 11
1569.936512284501
 21
97.7164292072364
 31
0.0
  0
LINE
  5
3B1
330
1F
100
AcDbEntity
  8
1
  6
Continuous
 62
     2
100
AcDbLine
 10
1568.557654061187
 20
98.51192433607127
 30
0.0
 11
1568.186423001064
 21
97.18609912134649
 31
0.0
  0
LINE
  5
3B2
330
1F
100
AcDbEntity
  8
1
  6
Continuous
 62
     2
100
AcDbLine
 10
1567.231828846463
 20
98.51192433607127
 30
0.0
 11
1570.678974404747
 21
98.51192433607127
 31
0.0
  0
LINE
  5
3B3
330
1F
100
AcDbEntity
  8
1
  6
Continuous
 62
     2
100
AcDbLine
 10
1569.936512284501
 20
100.102914593741
 30
0.0
 11
1568.080356983887
 21
100.102914593741
 31
0.0
  0
LINE
  5
3B4
330
1F
100
AcDbEntity
  8
1
  6
Continuous
 62
     2
100
AcDbLine
 10
1569.936512284501
 20
99.20135344772815
 30
0.0
 11
1569.936512284501
 21
100.102914593741
 31
0.0
  0
LINE
  5
3B5
330
1F
100
AcDbEntity
  8
1
  6
Continuous
 62
     2
100
AcDbLine
 10
1568.080356983887
 20
99.20135344772815
 30
0.0
 11
1569.936512284501
 21
99.20135344772815
 31
0.0
  0
LINE
  5
3B6
330
1F
100
AcDbEntity
  8
1
  6
Continuous
 62
     2
100
AcDbLine
 10
1568.080356983887
 20
100.102914593741
 30
0.0
 11
1568.080356983887
 21
99.20135344772815
 31
0.0
  0
LINE
  5
3B7
330
1F
100
AcDbEntity
  8
1
  6
Continuous
 62
     2
100
AcDbLine
 10
1566.436333717628
 20
96.39060399251163
 30
0.0
 11
1566.436333717628
 21
96.81486806122355
 31
0.0
  0
LINE
  5
3B8
330
1F
100
AcDbEntity
  8
1
  6
Continuous
 62
     2
100
AcDbLine
 10
1564.792310451369
 20
96.39060399251163
 30
0.0
 11
1566.436333717628
 21
96.39060399251163
 31
0.0
  0
LINE
  5
3B9
330
1F
100
AcDbEntity
  8
1
  6
Continuous
 62
     2
100
AcDbLine
 10
1564.792310451369
 20
98.4058583188933
 30
0.0
 11
1564.792310451369
 21
96.39060399251163
 31
0.0
  0
LINE
  5
3BA
330
1F
100
AcDbEntity
  8
1
  6
Continuous
 62
     2
100
AcDbLine
 10
1566.065102657505
 20
98.4058583188933
 30
0.0
 11
1564.792310451369
 21
98.4058583188933
 31
0.0
  0
LINE
  5
3BB
330
1F
100
AcDbEntity
  8
1
  6
Continuous
 62
     2
100
AcDbLine
 10
1566.065102657505
 20
99.73168353361807
 30
0.0
 11
1566.065102657505
 21
98.4058583188933
 31
0.0
  0
LINE
  5
3BC
330
1F
100
AcDbEntity
  8
1
  6
Continuous
 62
     2
100
AcDbLine
 10
1564.792310451369
 20
99.73168353361807
 30
0.0
 11
1566.065102657505
 21
99.73168353361807
 31
0.0
  0
LINE
  5
3BD
330
1F
100
AcDbEntity
  8
1
  6
Continuous
 62
     2
100
AcDbLine
 10
1562.989188159343
 20
99.83774955079605
 30
0.0
 11
1564.049848331123
 21
99.83774955079605
 31
0.0
  0
LINE
  5
3BE
330
1F
100
AcDbEntity
  8
1
  6
Continuous
 62
     2
100
AcDbLine
 10
1562.883122142165
 20
99.20135344772815
 30
0.0
 11
1564.421079391246
 21
99.20135344772815
 31
0.0
  0
LINE
  5
3BF
330
1F
100
AcDbEntity
  8
1
  6
Continuous
 62
     2
100
AcDbLine
 10
1564.049848331123
 20
98.67102336183824
 30
0.0
 11
1563.095254176521
 21
98.67102336183824
 31
0.0
  0
LINE
  5
3C0
330
1F
100
AcDbEntity
  8
1
  6
Continuous
 62
     2
100
AcDbLine
 10
1563.095254176521
 20
97.98159425018136
 30
0.0
 11
1564.049848331123
 21
97.98159425018136
 31
0.0
  0
LINE
  5
3C1
330
1F
100
AcDbEntity
  8
1
  6
Continuous
 62
     2
100
AcDbLine
 10
1564.049848331123
 20
96.39060399251163
 30
0.0
 11
1563.095254176521
 21
96.39060399251163
 31
0.0
  0
LINE
  5
3C2
330
1F
100
AcDbEntity
  8
1
  6
Continuous
 62
     2
100
AcDbLine
 10
1564.049848331123
 20
97.45126416429144
 30
0.0
 11
1564.049848331123
 21
96.39060399251163
 31
0.0
  0
LINE
  5
3C3
330
1F
100
AcDbEntity
  8
1
  6
Continuous
 62
     2
100
AcDbLine
 10
1563.095254176521
 20
97.45126416429144
 30
0.0
 11
1564.049848331123
 21
97.45126416429144
 31
0.0
  0
LINE
  5
3C4
330
1F
100
AcDbEntity
  8
1
  6
Continuous
 62
     2
100
AcDbLine
 10
1563.095254176521
 20
96.39060399251163
 30
0.0
 11
1563.095254176521
 21
97.45126416429144
 31
0.0
  0
LINE
  5
3C5
330
1F
100
AcDbEntity
  8
1
  6
Continuous
 62
     2
100
AcDbLine
 10
1561.716395953207
 20
100.368079636686
 30
0.0
 11
1561.716395953207
 21
96.12543894956667
 31
0.0
  0
LINE
  5
3C6
330
1F
100
AcDbEntity
  8
1
  6
Continuous
 62
     2
100
AcDbLine
 10
1561.133032858729
 20
99.57258450785109
 30
0.0
 11
1560.761801798606
 21
100.102914593741
 31
0.0
  0
LINE
  5
3C7
330
1F
100
AcDbEntity
  8
1
  6
Continuous
 62
     2
100
AcDbLine
 10
1561.133032858729
 20
98.51192433607127
 30
0.0
 11
1560.761801798606
 21
99.04225442196118
 31
0.0
  0
LINE
  5
3C8
330
1F
100
AcDbEntity
  8
1
  6
Continuous
 62
     2
100
AcDbLine
 10
1560.390570738483
 20
97.61036319005842
 30
0.0
 11
1562.405825064864
 21
97.98159425018136
 31
0.0
  0
LINE
  5
3C9
330
1F
100
AcDbEntity
  8
1
  6
Continuous
 62
     2
100
AcDbLine
 10
1559.913273661182
 20
98.24675929312632
 30
0.0
 11
1560.178438704127
 21
97.7164292072364
 31
0.0
  0
LINE
  5
3CA
330
1F
100
AcDbEntity
  8
1
  6
Continuous
 62
     2
100
AcDbLine
 10
1559.595075609648
 20
100.262013619508
 30
0.0
 11
1559.595075609648
 21
96.28453797533365
 31
0.0
  0
LINE
  5
3CB
330
1F
100
AcDbEntity
  8
1
  6
Continuous
 62
     2
100
AcDbLine
 10
1559.913273661182
 20
99.46651849067311
 30
0.0
 11
1560.178438704127
 21
99.99684857656302
 31
0.0
  0
LINE
  5
3CC
330
1F
100
AcDbEntity
  8
1
  6
Continuous
 62
     2
100
AcDbLine
 10
1558.852613489402
 20
99.83774955079605
 30
0.0
 11
1559.223844549525
 21
99.30741946490613
 31
0.0
  0
LINE
  5
3CD
330
1F
100
AcDbEntity
  8
1
  6
Continuous
 62
     2
100
AcDbLine
 10
1560.390570738483
 20
98.77708937901622
 30
0.0
 11
1558.746547472224
 21
98.77708937901622
 31
0.0
  0
LINE
  5
3CE
330
1F
100
AcDbEntity
  8
1
  6
Continuous
 62
     2
100
AcDbLine
 10
1559.117778532347
 20
97.61036319005842
 30
0.0
 11
1559.595075609648
 21
98.77708937901622
 31
0.0
  0
LINE
  5
3CF
330
1F
100
AcDbEntity
  8
1
  6
Continuous
 62
     2
100
AcDbLine
 10
1558.746547472224
 20
96.92093407840154
 30
0.0
 11
1559.117778532347
 21
97.61036319005842
 31
0.0
  0
LINE
  5
3D0
330
1F
100
AcDbEntity
  8
1
  6
Continuous
 62
     2
100
AcDbLine
 10
1557.473755266088
 20
96.39060399251163
 30
0.0
 11
1557.102524205965
 21
96.39060399251163
 31
0.0
  0
LINE
  5
3D1
330
1F
100
AcDbEntity
  8
1
  6
Continuous
 62
     2
100
AcDbLine
 10
1557.36768924891
 20
100.262013619508
 30
0.0
 11
1557.473755266088
 21
96.39060399251163
 31
0.0
  0
LINE
  5
3D2
330
1F
100
AcDbEntity
  8
1
  6
Continuous
 62
     2
100
AcDbLine
 10
1558.057118360567
 20
99.04225442196118
 30
0.0
 11
1556.30702907713
 21
99.04225442196118
 31
0.0
  0
LINE
  5
3D3
330
1F
100
AcDbEntity
  8
1
  6
Continuous
 62
     2
100
AcDbLine
 10
1556.731293145842
 20
97.7164292072364
 30
0.0
 11
1557.36768924891
 21
98.9361884047832
 31
0.0
  0
LINE
  5
3D4
330
1F
100
AcDbEntity
  8
1
  6
Continuous
 62
     2
100
AcDbLine
 10
1556.041864034185
 20
96.92093407840154
 30
0.0
 11
1556.731293145842
 21
97.7164292072364
 31
0.0
  0
LINE
  5
3D5
330
1F
100
AcDbEntity
  8
1
  6
Continuous
 62
     2
100
AcDbLine
 10
1555.352434922529
 20
99.04225442196118
 30
0.0
 11
1555.935798017008
 21
98.14069327594834
 31
0.0
  0
LINE
  5
3D6
330
1F
100
AcDbEntity
  8
1
  6
Continuous
 62
     2
100
AcDbLine
 10
1554.981203862406
 20
98.24675929312632
 30
0.0
 11
1555.352434922529
 21
99.04225442196118
 31
0.0
  0
LINE
  5
3D7
330
1F
100
AcDbEntity
  8
1
  6
Continuous
 62
     2
100
AcDbLine
 10
1554.503906785105
 20
97.45126416429144
 30
0.0
 11
1554.981203862406
 21
98.24675929312632
 31
0.0
  0
LINE
  5
3D8
330
1F
100
AcDbEntity
  8
1
  6
Continuous
 62
     2
100
AcDbLine
 10
1555.935798017008
 20
99.20135344772815
 30
0.0
 11
1554.609972802283
 21
99.20135344772815
 31
0.0
  0
LINE
  5
3D9
330
1F
100
AcDbEntity
  8
1
  6
Continuous
 62
     2
100
AcDbLine
 10
1555.352434922529
 20
96.12543894956667
 30
0.0
 11
1555.352434922529
 21
100.368079636686
 31
0.0
  0
LINE
  5
3DA
330
1F
100
AcDbEntity
  8
1
  6
Continuous
 62
     2
100
AcDbLine
 10
1559.168236068965
 20
89.56475158140665
 30
0.0
 11
1562.138084549949
 21
89.56475158140665
 31
0.0
  0
LINE
  5
3DB
330
1F
100
AcDbEntity
  8
1
  6
Continuous
 62
     2
100
AcDbLine
 10
1559.168236068965
 20
93.80739226852594
 30
0.0
 11
1559.168236068965
 21
89.56475158140665
 31
0.0
  0
LINE
  5
3DC
330
1F
100
AcDbEntity
  8
1
  6
Continuous
 62
     2
100
AcDbLine
 10
1562.138084549949
 20
93.80739226852594
 30
0.0
 11
1559.168236068965
 21
93.80739226852594
 31
0.0
  0
LINE
  5
3DD
330
1F
100
AcDbEntity
  8
1
  6
Continuous
 62
     2
100
AcDbLine
 10
1561.713820481237
 20
91.89820395932226
 30
0.0
 11
1559.168236068965
 21
91.89820395932226
 31
0.0
  0
LINE
  5
3DE
330
1F
100
AcDbEntity
  8
1
  6
Continuous
 62
     2
100
AcDbLine
 10
1577.210055549517
 20
260.9966127622018
 30
0.0
 11
1577.687352626818
 21
261.6330088652697
 31
0.0
  0
LINE
  5
3DF
330
1F
100
AcDbEntity
  8
1
  6
Continuous
 62
     2
100
AcDbLine
 10
1576.732758472216
 20
260.9966127622018
 30
0.0
 11
1577.210055549517
 21
260.9966127622018
 31
0.0
  0
LINE
  5
3E0
330
1F
100
AcDbEntity
  8
1
  6
Continuous
 62
     2
100
AcDbLine
 10
1576.626692455038
 20
261.3678438223247
 30
0.0
 11
1576.732758472216
 21
260.9966127622018
 31
0.0
  0
LINE
  5
3E1
330
1F
100
AcDbEntity
  8
1
  6
Continuous
 62
     2
100
AcDbLine
 10
1576.626692455038
 20
262.3224379769266
 30
0.0
 11
1576.626692455038
 21
261.3678438223247
 31
0.0
  0
LINE
  5
3E2
330
1F
100
AcDbEntity
  8
1
  6
Continuous
 62
     2
100
AcDbLine
 10
1576.414560420682
 20
262.8527680628165
 30
0.0
 11
1576.626692455038
 21
262.3224379769266
 31
0.0
  0
LINE
  5
3E3
330
1F
100
AcDbEntity
  8
1
  6
Continuous
 62
     2
100
AcDbLine
 10
1575.937263343381
 20
262.8527680628165
 30
0.0
 11
1576.414560420682
 21
262.8527680628165
 31
0.0
  0
LINE
  5
3E4
330
1F
100
AcDbEntity
  8
1
  6
Continuous
 62
     2
100
AcDbLine
 10
1575.45996626608
 20
262.4285039941045
 30
0.0
 11
1575.937263343381
 21
262.8527680628165
 31
0.0
  0
LINE
  5
3E5
330
1F
100
AcDbEntity
  8
1
  6
Continuous
 62
     2
100
AcDbLine
 10
1575.088735205957
 20
261.8981739082146
 30
0.0
 11
1575.45996626608
 21
262.4285039941045
 31
0.0
  0
LINE
  5
3E6
330
1F
100
AcDbEntity
  8
1
  6
Continuous
 62
     2
100
AcDbLine
 10
1575.937263343381
 20
263.4891641658844
 30
0.0
 11
1576.414560420682
 21
264.2846592947192
 31
0.0
  0
LINE
  5
3E7
330
1F
100
AcDbEntity
  8
1
  6
Continuous
 62
     2
100
AcDbLine
 10
1575.247834231724
 20
262.1633389511596
 30
0.0
 11
1575.937263343381
 21
263.4891641658844
 31
0.0
  0
LINE
  5
3E8
330
1F
100
AcDbEntity
  8
1
  6
Continuous
 62
     2
100
AcDbLine
 10
1574.770537154423
 20
260.9966127622018
 30
0.0
 11
1575.247834231724
 21
262.1633389511596
 31
0.0
  0
LINE
  5
3E9
330
1F
100
AcDbEntity
  8
1
  6
Continuous
 62
     2
100
AcDbLine
 10
1572.171919733562
 20
261.1026787793797
 30
0.0
 11
1573.126513888164
 21
261.1026787793797
 31
0.0
  0
LINE
  5
3EA
330
1F
100
AcDbEntity
  8
1
  6
Continuous
 62
     2
100
AcDbLine
 10
1571.588556639083
 20
261.2617778051467
 30
0.0
 11
1572.171919733562
 21
261.1026787793797
 31
0.0
  0
LINE
  5
3EB
330
1F
100
AcDbEntity
  8
1
  6
Continuous
 62
     2
100
AcDbLine
 10
1571.323391596139
 20
262.3224379769266
 30
0.0
 11
1571.588556639083
 21
261.2617778051467
 31
0.0
  0
LINE
  5
3EC
330
1F
100
AcDbEntity
  8
1
  6
Continuous
 62
     2
100
AcDbLine
 10
1571.323391596139
 20
263.9134282345963
 30
0.0
 11
1571.323391596139
 21
262.3224379769266
 31
0.0
  0
LINE
  5
3ED
330
1F
100
AcDbEntity
  8
1
  6
Continuous
 62
     2
100
AcDbLine
 10
1572.649216810863
 20
262.9588340799945
 30
0.0
 11
1572.649216810863
 21
264.2846592947192
 31
0.0
  0
LINE
  5
3EE
330
1F
100
AcDbEntity
  8
1
  6
Continuous
 62
     2
100
AcDbLine
 10
1572.490117785096
 20
262.0572729339816
 30
0.0
 11
1572.649216810863
 21
262.9588340799945
 31
0.0
  0
LINE
  5
3EF
330
1F
100
AcDbEntity
  8
1
  6
Continuous
 62
     2
100
AcDbLine
 10
1572.967414862397
 20
263.2239991229394
 30
0.0
 11
1573.709876982643
 21
263.2239991229394
 31
0.0
  0
LINE
  5
3F0
330
1F
100
AcDbEntity
  8
1
  6
Continuous
 62
     2
100
AcDbLine
 10
1571.80068867344
 20
263.1179331057614
 30
0.0
 11
1572.967414862397
 21
263.2239991229394
 31
0.0
  0
LINE
  5
3F1
330
1F
100
AcDbEntity
  8
1
  6
Continuous
 62
     2
100
AcDbLine
 10
1570.368797441537
 20
262.6936690370495
 30
0.0
 11
1571.80068867344
 21
263.1179331057614
 31
0.0
  0
LINE
  5
3F2
330
1F
100
AcDbEntity
  8
1
  6
Continuous
 62
     2
100
AcDbLine
 10
1568.141411080799
 20
261.3678438223247
 30
0.0
 11
1568.6187081581
 21
260.9966127622018
 31
0.0
  0
LINE
  5
3F3
330
1F
100
AcDbEntity
  8
1
  6
Continuous
 62
     2
100
AcDbLine
 10
1567.55804798632
 20
261.6330088652697
 30
0.0
 11
1568.141411080799
 21
261.3678438223247
 31
0.0
  0
LINE
  5
3F4
330
1F
100
AcDbEntity
  8
1
  6
Continuous
 62
     2
100
AcDbLine
 10
1566.974684891841
 20
261.5269428480917
 30
0.0
 11
1567.55804798632
 21
261.6330088652697
 31
0.0
  0
LINE
  5
3F5
330
1F
100
AcDbEntity
  8
1
  6
Continuous
 62
     2
100
AcDbLine
 10
1566.762552857485
 20
261.2617778051467
 30
0.0
 11
1566.974684891841
 21
261.5269428480917
 31
0.0
  0
LINE
  5
3F6
330
1F
100
AcDbEntity
  8
1
  6
Continuous
 62
     2
100
AcDbLine
 10
1566.868618874663
 20
260.9966127622018
 30
0.0
 11
1566.762552857485
 21
261.2617778051467
 31
0.0
  0
LINE
  5
3F7
330
1F
100
AcDbEntity
  8
1
  6
Continuous
 62
     2
100
AcDbLine
 10
1567.345915951964
 20
260.8375137364348
 30
0.0
 11
1566.868618874663
 21
260.9966127622018
 31
0.0
  0
LINE
  5
3F8
330
1F
100
AcDbEntity
  8
1
  6
Continuous
 62
     2
100
AcDbLine
 10
1567.823213029265
 20
261.1026787793797
 30
0.0
 11
1567.345915951964
 21
260.8375137364348
 31
0.0
  0
LINE
  5
3F9
330
1F
100
AcDbEntity
  8
1
  6
Continuous
 62
     2
100
AcDbLine
 10
1568.035345063621
 20
261.6330088652697
 30
0.0
 11
1567.823213029265
 21
261.1026787793797
 31
0.0
  0
LINE
  5
3FA
330
1F
100
AcDbEntity
  8
1
  6
Continuous
 62
     2
100
AcDbLine
 10
1567.929279046443
 20
263.4891641658844
 30
0.0
 11
1568.035345063621
 21
261.6330088652697
 31
0.0
  0
LINE
  5
3FB
330
1F
100
AcDbEntity
  8
1
  6
Continuous
 62
     2
100
AcDbLine
 10
1567.929279046443
 20
264.5498243376642
 30
0.0
 11
1567.929279046443
 21
263.4891641658844
 31
0.0
  0
LINE
  5
3FC
330
1F
100
AcDbEntity
  8
1
  6
Continuous
 62
     2
100
AcDbLine
 10
1567.823213029265
 20
263.7543292088294
 30
0.0
 11
1567.080750909019
 21
263.7543292088294
 31
0.0
  0
LINE
  5
3FD
330
1F
100
AcDbEntity
  8
1
  6
Continuous
 62
     2
100
AcDbLine
 10
1568.6187081581
 20
263.9134282345963
 30
0.0
 11
1567.823213029265
 21
263.7543292088294
 31
0.0
  0
LINE
  5
3FE
330
1F
100
AcDbEntity
  8
1
  6
Continuous
 62
     2
100
AcDbLine
 10
1567.823213029265
 20
262.8527680628165
 30
0.0
 11
1568.724774175278
 21
263.1179331057614
 31
0.0
  0
LINE
  5
3FF
330
1F
100
AcDbEntity
  8
1
  6
Continuous
 62
     2
100
AcDbLine
 10
1566.762552857485
 20
262.8527680628165
 30
0.0
 11
1567.823213029265
 21
262.8527680628165
 31
0.0
  0
LINE
  5
400
330
1F
100
AcDbEntity
  8
1
  6
Continuous
 62
     2
100
AcDbLine
 10
1564.163935436625
 20
261.5269428480917
 30
0.0
 11
1563.580572342146
 21
260.8375137364348
 31
0.0
  0
LINE
  5
401
330
1F
100
AcDbEntity
  8
1
  6
Continuous
 62
     2
100
AcDbLine
 10
1564.376067470981
 20
262.4285039941045
 30
0.0
 11
1564.163935436625
 21
261.5269428480917
 31
0.0
  0
LINE
  5
402
330
1F
100
AcDbEntity
  8
1
  6
Continuous
 62
     2
100
AcDbLine
 10
1564.376067470981
 20
263.1179331057614
 30
0.0
 11
1564.376067470981
 21
262.4285039941045
 31
0.0
  0
LINE
  5
403
330
1F
100
AcDbEntity
  8
1
  6
Continuous
 62
     2
100
AcDbLine
 10
1564.270001453803
 20
263.9134282345963
 30
0.0
 11
1564.376067470981
 21
263.1179331057614
 31
0.0
  0
LINE
  5
404
330
1F
100
AcDbEntity
  8
1
  6
Continuous
 62
     2
100
AcDbLine
 10
1564.004836410858
 20
264.2846592947192
 30
0.0
 11
1564.270001453803
 21
263.9134282345963
 31
0.0
  0
LINE
  5
405
330
1F
100
AcDbEntity
  8
1
  6
Continuous
 62
     2
100
AcDbLine
 10
1563.686638359324
 20
264.2846592947192
 30
0.0
 11
1564.004836410858
 21
264.2846592947192
 31
0.0
  0
LINE
  5
406
330
1F
100
AcDbEntity
  8
1
  6
Continuous
 62
     2
100
AcDbLine
 10
1563.209341282023
 20
263.9134282345963
 30
0.0
 11
1563.686638359324
 21
264.2846592947192
 31
0.0
  0
LINE
  5
407
330
1F
100
AcDbEntity
  8
1
  6
Continuous
 62
     2
100
AcDbLine
 10
1562.944176239078
 20
263.3830981487064
 30
0.0
 11
1563.209341282023
 21
263.9134282345963
 31
0.0
  0
LINE
  5
408
330
1F
100
AcDbEntity
  8
1
  6
Continuous
 62
     2
100
AcDbLine
 10
1562.944176239078
 20
263.6482631916513
 30
0.0
 11
1563.103275264845
 21
264.4437583204862
 31
0.0
  0
LINE
  5
409
330
1F
100
AcDbEntity
  8
1
  6
Continuous
 62
     2
100
AcDbLine
 10
1562.944176239078
 20
262.5876030198715
 30
0.0
 11
1562.944176239078
 21
263.6482631916513
 31
0.0
  0
LINE
  5
40A
330
1F
100
AcDbEntity
  8
1
  6
Continuous
 62
     2
100
AcDbLine
 10
1563.103275264845
 20
262.0572729339816
 30
0.0
 11
1562.944176239078
 21
262.5876030198715
 31
0.0
  0
LINE
  5
40B
330
1F
100
AcDbEntity
  8
1
  6
Continuous
 62
     2
100
AcDbLine
 10
1560.133426783861
 20
261.1026787793797
 30
0.0
 11
1559.550063689382
 21
260.8375137364348
 31
0.0
  0
LINE
  5
40C
330
1F
100
AcDbEntity
  8
1
  6
Continuous
 62
     2
100
AcDbLine
 10
1560.610723861162
 20
261.6330088652697
 30
0.0
 11
1560.133426783861
 21
261.1026787793797
 31
0.0
  0
LINE
  5
40D
330
1F
100
AcDbEntity
  8
1
  6
Continuous
 62
     2
100
AcDbLine
 10
1560.610723861162
 20
262.3224379769266
 30
0.0
 11
1560.610723861162
 21
261.6330088652697
 31
0.0
  0
LINE
  5
40E
330
1F
100
AcDbEntity
  8
1
  6
Continuous
 62
     2
100
AcDbLine
 10
1560.398591826806
 20
262.6936690370495
 30
0.0
 11
1560.610723861162
 21
262.3224379769266
 31
0.0
  0
LINE
  5
40F
330
1F
100
AcDbEntity
  8
1
  6
Continuous
 62
     2
100
AcDbLine
 10
1559.762195723738
 20
262.9588340799945
 30
0.0
 11
1560.398591826806
 21
262.6936690370495
 31
0.0
  0
LINE
  5
410
330
1F
100
AcDbEntity
  8
1
  6
Continuous
 62
     2
100
AcDbLine
 10
1558.860634577726
 20
262.6936690370495
 30
0.0
 11
1559.762195723738
 21
262.9588340799945
 31
0.0
  0
LINE
  5
411
330
1F
100
AcDbEntity
  8
1
  6
Continuous
 62
     2
100
AcDbLine
 10
1558.277271483247
 20
262.1633389511596
 30
0.0
 11
1558.860634577726
 21
262.6936690370495
 31
0.0
  0
LINE
  5
412
330
1F
100
AcDbEntity
  8
1
  6
Continuous
 62
     2
100
AcDbLine
 10
1558.012106440302
 20
261.6330088652697
 30
0.0
 11
1558.277271483247
 21
262.1633389511596
 31
0.0
  0
LINE
  5
413
330
1F
100
AcDbEntity
  8
1
  6
Continuous
 62
     2
100
AcDbLine
 10
1558.277271483247
 20
261.3678438223247
 30
0.0
 11
1558.012106440302
 21
261.6330088652697
 31
0.0
  0
LINE
  5
414
330
1F
100
AcDbEntity
  8
1
  6
Continuous
 62
     2
100
AcDbLine
 10
1559.337931655027
 20
262.1633389511596
 30
0.0
 11
1558.277271483247
 21
261.3678438223247
 31
0.0
  0
LINE
  5
415
330
1F
100
AcDbEntity
  8
1
  6
Continuous
 62
     2
100
AcDbLine
 10
1559.921294749506
 20
263.4891641658844
 30
0.0
 11
1559.337931655027
 21
262.1633389511596
 31
0.0
  0
LINE
  5
416
330
1F
100
AcDbEntity
  8
1
  6
Continuous
 62
     2
100
AcDbLine
 10
1559.443997672204
 20
263.7543292088294
 30
0.0
 11
1560.133426783861
 21
263.9134282345963
 31
0.0
  0
LINE
  5
417
330
1F
100
AcDbEntity
  8
1
  6
Continuous
 62
     2
100
AcDbLine
 10
1558.383337500425
 20
263.7543292088294
 30
0.0
 11
1559.443997672204
 21
263.7543292088294
 31
0.0
  0
LINE
  5
418
330
1F
100
AcDbEntity
  8
1
  6
Continuous
 62
     2
100
AcDbLine
 10
1559.072766612082
 20
262.3224379769266
 30
0.0
 11
1559.337931655027
 21
264.4437583204862
 31
0.0
  0
LINE
  5
419
330
1F
100
AcDbEntity
  8
1
  6
Continuous
 62
     2
100
AcDbLine
 10
1559.178832629259
 20
261.5269428480917
 30
0.0
 11
1559.072766612082
 21
262.3224379769266
 31
0.0
  0
LINE
  5
41A
330
1F
100
AcDbEntity
  8
1
  6
Continuous
 62
     2
100
AcDbLine
 10
1555.890786096742
 20
261.5269428480917
 30
0.0
 11
1556.474149191221
 21
261.1026787793797
 31
0.0
  0
LINE
  5
41B
330
1F
100
AcDbEntity
  8
1
  6
Continuous
 62
     2
100
AcDbLine
 10
1555.307423002263
 20
261.6330088652697
 30
0.0
 11
1555.890786096742
 21
261.5269428480917
 31
0.0
  0
LINE
  5
41C
330
1F
100
AcDbEntity
  8
1
  6
Continuous
 62
     2
100
AcDbLine
 10
1554.724059907785
 20
261.5269428480917
 30
0.0
 11
1555.307423002263
 21
261.6330088652697
 31
0.0
  0
LINE
  5
41D
330
1F
100
AcDbEntity
  8
1
  6
Continuous
 62
     2
100
AcDbLine
 10
1554.724059907785
 20
261.2617778051467
 30
0.0
 11
1554.724059907785
 21
261.5269428480917
 31
0.0
  0
LINE
  5
41E
330
1F
100
AcDbEntity
  8
1
  6
Continuous
 62
     2
100
AcDbLine
 10
1555.095290967907
 20
260.9966127622018
 30
0.0
 11
1554.724059907785
 21
261.2617778051467
 31
0.0
  0
LINE
  5
41F
330
1F
100
AcDbEntity
  8
1
  6
Continuous
 62
     2
100
AcDbLine
 10
1555.519555036619
 20
261.1026787793797
 30
0.0
 11
1555.095290967907
 21
260.9966127622018
 31
0.0
  0
LINE
  5
420
330
1F
100
AcDbEntity
  8
1
  6
Continuous
 62
     2
100
AcDbLine
 10
1555.784720079564
 20
261.3678438223247
 30
0.0
 11
1555.519555036619
 21
261.1026787793797
 31
0.0
  0
LINE
  5
421
330
1F
100
AcDbEntity
  8
1
  6
Continuous
 62
     2
100
AcDbLine
 10
1555.890786096742
 20
261.8981739082146
 30
0.0
 11
1555.784720079564
 21
261.3678438223247
 31
0.0
  0
LINE
  5
422
330
1F
100
AcDbEntity
  8
1
  6
Continuous
 62
     2
100
AcDbLine
 10
1555.784720079564
 20
264.2846592947192
 30
0.0
 11
1555.890786096742
 21
261.8981739082146
 31
0.0
  0
LINE
  5
423
330
1F
100
AcDbEntity
  8
1
  6
Continuous
 62
     2
100
AcDbLine
 10
1555.890786096742
 20
263.4891641658844
 30
0.0
 11
1556.474149191221
 21
263.6482631916513
 31
0.0
  0
LINE
  5
424
330
1F
100
AcDbEntity
  8
1
  6
Continuous
 62
     2
100
AcDbLine
 10
1554.830125924962
 20
263.3830981487064
 30
0.0
 11
1555.890786096742
 21
263.4891641658844
 31
0.0
  0
LINE
  5
425
330
1F
100
AcDbEntity
  8
1
  6
Continuous
 62
     2
100
AcDbLine
 10
1553.875531770361
 20
263.1179331057614
 30
0.0
 11
1554.140696813306
 21
264.2846592947192
 31
0.0
  0
LINE
  5
426
330
1F
100
AcDbEntity
  8
1
  6
Continuous
 62
     2
100
AcDbLine
 10
1553.875531770361
 20
261.8981739082146
 30
0.0
 11
1553.875531770361
 21
263.1179331057614
 31
0.0
  0
LINE
  5
427
330
1F
100
AcDbEntity
  8
1
  6
Continuous
 62
     2
100
AcDbLine
 10
1554.034630796128
 20
260.9966127622018
 30
0.0
 11
1553.875531770361
 21
261.8981739082146
 31
0.0
  0
LINE
  5
428
330
1F
100
AcDbEntity
  8
1
  6
Continuous
 62
     2
100
AcDbLine
 10
1550.587485237843
 20
260.9966127622018
 30
0.0
 11
1551.170848332322
 21
260.7314477192568
 31
0.0
  0
LINE
  5
429
330
1F
100
AcDbEntity
  8
1
  6
Continuous
 62
     2
100
AcDbLine
 10
1550.21625417772
 20
261.3678438223247
 30
0.0
 11
1550.587485237843
 21
260.9966127622018
 31
0.0
  0
LINE
  5
42A
330
1F
100
AcDbEntity
  8
1
  6
Continuous
 62
     2
100
AcDbLine
 10
1550.110188160542
 20
261.8981739082146
 30
0.0
 11
1550.21625417772
 21
261.3678438223247
 31
0.0
  0
LINE
  5
42B
330
1F
100
AcDbEntity
  8
1
  6
Continuous
 62
     2
100
AcDbLine
 10
1550.110188160542
 20
262.3224379769266
 30
0.0
 11
1550.110188160542
 21
261.8981739082146
 31
0.0
  0
LINE
  5
42C
330
1F
100
AcDbEntity
  8
1
  6
Continuous
 62
     2
100
AcDbLine
 10
1550.375353203487
 20
262.9588340799945
 30
0.0
 11
1550.110188160542
 21
262.3224379769266
 31
0.0
  0
LINE
  5
42D
330
1F
100
AcDbEntity
  8
1
  6
Continuous
 62
     2
100
AcDbLine
 10
1550.693551255021
 20
263.4891641658844
 30
0.0
 11
1550.375353203487
 21
262.9588340799945
 31
0.0
  0
LINE
  5
42E
330
1F
100
AcDbEntity
  8
1
  6
Continuous
 62
     2
100
AcDbLine
 10
1551.170848332322
 20
263.7543292088294
 30
0.0
 11
1550.693551255021
 21
263.4891641658844
 31
0.0
  0
LINE
  5
42F
330
1F
100
AcDbEntity
  8
1
  6
Continuous
 62
     2
100
AcDbLine
 10
1552.231508504102
 20
264.5498243376642
 30
0.0
 11
1552.602739564225
 21
264.1785932775413
 31
0.0
  0
LINE
  5
430
330
1F
100
AcDbEntity
  8
1
  6
Continuous
 62
     2
100
AcDbLine
 10
1552.33757452128
 20
263.9134282345963
 30
0.0
 11
1552.019376469746
 21
264.2846592947192
 31
0.0
  0
LINE
  5
431
330
1F
100
AcDbEntity
  8
1
  6
Continuous
 62
     2
100
AcDbLine
 10
1550.21625417772
 20
263.6482631916513
 30
0.0
 11
1551.754211426801
 21
263.9134282345963
 31
0.0
  0
LINE
  5
432
330
1F
100
AcDbEntity
  8
1
  6
Continuous
 62
     2
100
AcDbLine
 10
1549.049527988762
 20
263.1179331057614
 30
0.0
 11
1550.21625417772
 21
263.6482631916513
 31
0.0
  0
LINE
  5
433
330
1F
100
AcDbEntity
  8
1
  6
Continuous
 62
     2
100
AcDbLine
 10
1546.610009593669
 20
264.2846592947192
 30
0.0
 11
1546.610009593669
 21
264.7089233634312
 31
0.0
  0
LINE
  5
434
330
1F
100
AcDbEntity
  8
1
  6
Continuous
 62
     2
100
AcDbLine
 10
1548.09493383416
 20
264.2846592947192
 30
0.0
 11
1548.09493383416
 21
263.6482631916513
 31
0.0
  0
LINE
  5
435
330
1F
100
AcDbEntity
  8
1
  6
Continuous
 62
     2
100
AcDbLine
 10
1545.072052344588
 20
264.2846592947192
 30
0.0
 11
1548.09493383416
 21
264.2846592947192
 31
0.0
  0
LINE
  5
436
330
1F
100
AcDbEntity
  8
1
  6
Continuous
 62
     2
100
AcDbLine
 10
1545.072052344588
 20
263.6482631916513
 30
0.0
 11
1545.072052344588
 21
264.2846592947192
 31
0.0
  0
LINE
  5
437
330
1F
100
AcDbEntity
  8
1
  6
Continuous
 62
     2
100
AcDbLine
 10
1547.670669765449
 20
263.2239991229394
 30
0.0
 11
1545.549349421889
 21
263.2239991229394
 31
0.0
  0
LINE
  5
438
330
1F
100
AcDbEntity
  8
1
  6
Continuous
 62
     2
100
AcDbLine
 10
1546.610009593669
 20
260.8375137364348
 30
0.0
 11
1546.610009593669
 21
263.2239991229394
 31
0.0
  0
LINE
  5
439
330
1F
100
AcDbEntity
  8
1
  6
Continuous
 62
     2
100
AcDbLine
 10
1547.776735782627
 20
262.1633389511596
 30
0.0
 11
1546.610009593669
 21
262.1633389511596
 31
0.0
  0
LINE
  5
43A
330
1F
100
AcDbEntity
  8
1
  6
Continuous
 62
     2
100
AcDbLine
 10
1546.822141628025
 20
260.7314477192568
 30
0.0
 11
1548.360098877105
 21
260.7314477192568
 31
0.0
  0
LINE
  5
43B
330
1F
100
AcDbEntity
  8
1
  6
Continuous
 62
     2
100
AcDbLine
 10
1546.238778533546
 20
260.9966127622018
 30
0.0
 11
1546.822141628025
 21
260.7314477192568
 31
0.0
  0
LINE
  5
43C
330
1F
100
AcDbEntity
  8
1
  6
Continuous
 62
     2
100
AcDbLine
 10
1545.867547473423
 20
261.2617778051467
 30
0.0
 11
1546.238778533546
 21
260.9966127622018
 31
0.0
  0
LINE
  5
43D
330
1F
100
AcDbEntity
  8
1
  6
Continuous
 62
     2
100
AcDbLine
 10
1545.655415439067
 20
261.6330088652697
 30
0.0
 11
1545.867547473423
 21
261.2617778051467
 31
0.0
  0
LINE
  5
43E
330
1F
100
AcDbEntity
  8
1
  6
Continuous
 62
     2
100
AcDbLine
 10
1545.549349421889
 20
261.5269428480917
 30
0.0
 11
1545.973613490601
 21
262.3224379769266
 31
0.0
  0
LINE
  5
43F
330
1F
100
AcDbEntity
  8
1
  6
Continuous
 62
     2
100
AcDbLine
 10
1545.178118361766
 20
260.9966127622018
 30
0.0
 11
1545.549349421889
 21
261.5269428480917
 31
0.0
  0
LINE
  5
440
330
1F
100
AcDbEntity
  8
1
  6
Continuous
 62
     2
100
AcDbLine
 10
1544.912953318821
 20
260.7314477192568
 30
0.0
 11
1545.178118361766
 21
260.9966127622018
 31
0.0
  0
LINE
  5
441
330
1F
100
AcDbEntity
  8
1
  6
Continuous
 62
     2
100
AcDbLine
 10
1540.564246614524
 20
262.9588340799945
 30
0.0
 11
1544.117458189986
 21
262.9588340799945
 31
0.0
  0
LINE
  5
442
330
1F
100
AcDbEntity
  8
1
  6
Continuous
 62
     2
100
AcDbLine
 10
1538.920223348265
 20
261.5269428480917
 30
0.0
 11
1539.503586442744
 21
261.1026787793797
 31
0.0
  0
LINE
  5
443
330
1F
100
AcDbEntity
  8
1
  6
Continuous
 62
     2
100
AcDbLine
 10
1538.336860253786
 20
261.6330088652697
 30
0.0
 11
1538.920223348265
 21
261.5269428480917
 31
0.0
  0
LINE
  5
444
330
1F
100
AcDbEntity
  8
1
  6
Continuous
 62
     2
100
AcDbLine
 10
1537.753497159307
 20
261.5269428480917
 30
0.0
 11
1538.336860253786
 21
261.6330088652697
 31
0.0
  0
LINE
  5
445
330
1F
100
AcDbEntity
  8
1
  6
Continuous
 62
     2
100
AcDbLine
 10
1537.753497159307
 20
261.2617778051467
 30
0.0
 11
1537.753497159307
 21
261.5269428480917
 31
0.0
  0
LINE
  5
446
330
1F
100
AcDbEntity
  8
1
  6
Continuous
 62
     2
100
AcDbLine
 10
1538.12472821943
 20
260.9966127622018
 30
0.0
 11
1537.753497159307
 21
261.2617778051467
 31
0.0
  0
LINE
  5
447
330
1F
100
AcDbEntity
  8
1
  6
Continuous
 62
     2
100
AcDbLine
 10
1538.548992288142
 20
261.1026787793797
 30
0.0
 11
1538.12472821943
 21
260.9966127622018
 31
0.0
  0
LINE
  5
448
330
1F
100
AcDbEntity
  8
1
  6
Continuous
 62
     2
100
AcDbLine
 10
1538.814157331087
 20
261.3678438223247
 30
0.0
 11
1538.548992288142
 21
261.1026787793797
 31
0.0
  0
LINE
  5
449
330
1F
100
AcDbEntity
  8
1
  6
Continuous
 62
     2
100
AcDbLine
 10
1538.920223348265
 20
261.8981739082146
 30
0.0
 11
1538.814157331087
 21
261.3678438223247
 31
0.0
  0
LINE
  5
44A
330
1F
100
AcDbEntity
  8
1
  6
Continuous
 62
     2
100
AcDbLine
 10
1538.814157331087
 20
264.2846592947192
 30
0.0
 11
1538.920223348265
 21
261.8981739082146
 31
0.0
  0
LINE
  5
44B
330
1F
100
AcDbEntity
  8
1
  6
Continuous
 62
     2
100
AcDbLine
 10
1538.920223348265
 20
263.4891641658844
 30
0.0
 11
1539.503586442744
 21
263.6482631916513
 31
0.0
  0
LINE
  5
44C
330
1F
100
AcDbEntity
  8
1
  6
Continuous
 62
     2
100
AcDbLine
 10
1537.859563176485
 20
263.3830981487064
 30
0.0
 11
1538.920223348265
 21
263.4891641658844
 31
0.0
  0
LINE
  5
44D
330
1F
100
AcDbEntity
  8
1
  6
Continuous
 62
     2
100
AcDbLine
 10
1536.904969021883
 20
263.1179331057614
 30
0.0
 11
1537.170134064828
 21
264.2846592947192
 31
0.0
  0
LINE
  5
44E
330
1F
100
AcDbEntity
  8
1
  6
Continuous
 62
     2
100
AcDbLine
 10
1536.904969021883
 20
261.8981739082146
 30
0.0
 11
1536.904969021883
 21
263.1179331057614
 31
0.0
  0
LINE
  5
44F
330
1F
100
AcDbEntity
  8
1
  6
Continuous
 62
     2
100
AcDbLine
 10
1537.06406804765
 20
260.9966127622018
 30
0.0
 11
1536.904969021883
 21
261.8981739082146
 31
0.0
  0
LINE
  5
450
330
1F
100
AcDbEntity
  8
1
  6
Continuous
 62
     2
100
AcDbLine
 10
1533.616922489366
 20
260.9966127622018
 30
0.0
 11
1534.46545062679
 21
260.8375137364348
 31
0.0
  0
LINE
  5
451
330
1F
100
AcDbEntity
  8
1
  6
Continuous
 62
     2
100
AcDbLine
 10
1533.139625412065
 20
261.3678438223247
 30
0.0
 11
1533.616922489366
 21
260.9966127622018
 31
0.0
  0
LINE
  5
452
330
1F
100
AcDbEntity
  8
1
  6
Continuous
 62
     2
100
AcDbLine
 10
1533.40479045501
 20
261.8981739082146
 30
0.0
 11
1533.139625412065
 21
261.3678438223247
 31
0.0
  0
LINE
  5
453
330
1F
100
AcDbEntity
  8
1
  6
Continuous
 62
     2
100
AcDbLine
 10
1533.882087532311
 20
262.1633389511596
 30
0.0
 11
1533.40479045501
 21
261.8981739082146
 31
0.0
  0
LINE
  5
454
330
1F
100
AcDbEntity
  8
1
  6
Continuous
 62
     2
100
AcDbLine
 10
1534.306351601023
 20
262.1633389511596
 30
0.0
 11
1533.882087532311
 21
262.1633389511596
 31
0.0
  0
LINE
  5
455
330
1F
100
AcDbEntity
  8
1
  6
Continuous
 62
     2
100
AcDbLine
 10
1534.783648678324
 20
262.0572729339816
 30
0.0
 11
1534.306351601023
 21
262.1633389511596
 31
0.0
  0
LINE
  5
456
330
1F
100
AcDbEntity
  8
1
  6
Continuous
 62
     2
100
AcDbLine
 10
1533.988153549489
 20
263.6482631916513
 30
0.0
 11
1534.783648678324
 21
262.0572729339816
 31
0.0
  0
LINE
  5
457
330
1F
100
AcDbEntity
  8
1
  6
Continuous
 62
     2
100
AcDbLine
 10
1533.40479045501
 20
264.5498243376642
 30
0.0
 11
1533.988153549489
 21
263.6482631916513
 31
0.0
  0
LINE
  5
458
330
1F
100
AcDbEntity
  8
1
  6
Continuous
 62
     2
100
AcDbLine
 10
1533.882087532311
 20
263.9134282345963
 30
0.0
 11
1533.033559394887
 21
263.6482631916513
 31
0.0
  0
LINE
  5
459
330
1F
100
AcDbEntity
  8
1
  6
Continuous
 62
     2
100
AcDbLine
 10
1534.306351601023
 20
264.1785932775413
 30
0.0
 11
1533.882087532311
 21
263.9134282345963
 31
0.0
  0
LINE
  5
45A
330
1F
100
AcDbEntity
  8
1
  6
Continuous
 62
     2
100
AcDbLine
 10
1534.094219566667
 20
263.1179331057614
 30
0.0
 11
1534.942747704091
 21
263.4891641658844
 31
0.0
  0
LINE
  5
45B
330
1F
100
AcDbEntity
  8
1
  6
Continuous
 62
     2
100
AcDbLine
 10
1533.033559394887
 20
262.8527680628165
 30
0.0
 11
1534.094219566667
 21
263.1179331057614
 31
0.0
  0
LINE
  5
45C
330
1F
100
AcDbEntity
  8
1
  6
Continuous
 62
     2
100
AcDbLine
 10
1528.68485269059
 20
263.9134282345963
 30
0.0
 11
1529.268215785069
 21
264.7089233634312
 31
0.0
  0
LINE
  5
45D
330
1F
100
AcDbEntity
  8
1
  6
Continuous
 62
     2
100
AcDbLine
 10
1530.063710913904
 20
261.8981739082146
 30
0.0
 11
1529.162149767891
 21
261.8981739082146
 31
0.0
  0
LINE
  5
45E
330
1F
100
AcDbEntity
  8
1
  6
Continuous
 62
     2
100
AcDbLine
 10
1530.063710913904
 20
262.9588340799945
 30
0.0
 11
1530.063710913904
 21
261.8981739082146
 31
0.0
  0
LINE
  5
45F
330
1F
100
AcDbEntity
  8
1
  6
Continuous
 62
     2
100
AcDbLine
 10
1529.162149767891
 20
262.9588340799945
 30
0.0
 11
1530.063710913904
 21
262.9588340799945
 31
0.0
  0
LINE
  5
460
330
1F
100
AcDbEntity
  8
1
  6
Continuous
 62
     2
100
AcDbLine
 10
1529.162149767891
 20
261.8981739082146
 30
0.0
 11
1529.162149767891
 21
262.9588340799945
 31
0.0
  0
LINE
  5
461
330
1F
100
AcDbEntity
  8
1
  6
Continuous
 62
     2
100
AcDbLine
 10
1531.124371085683
 20
260.7314477192568
 30
0.0
 11
1530.541007991205
 21
260.7314477192568
 31
0.0
  0
LINE
  5
462
330
1F
100
AcDbEntity
  8
1
  6
Continuous
 62
     2
100
AcDbLine
 10
1531.124371085683
 20
263.9134282345963
 30
0.0
 11
1531.124371085683
 21
260.7314477192568
 31
0.0
  0
LINE
  5
463
330
1F
100
AcDbEntity
  8
1
  6
Continuous
 62
     2
100
AcDbLine
 10
1528.101489596111
 20
263.9134282345963
 30
0.0
 11
1531.124371085683
 21
263.9134282345963
 31
0.0
  0
LINE
  5
464
330
1F
100
AcDbEntity
  8
1
  6
Continuous
 62
     2
100
AcDbLine
 10
1528.101489596111
 20
260.7314477192568
 30
0.0
 11
1528.101489596111
 21
263.9134282345963
 31
0.0
  0
LINE
  5
465
330
1F
100
AcDbEntity
  8
1
  6
Continuous
 62
     2
100
AcDbLine
 10
1526.457466329852
 20
261.5269428480917
 30
0.0
 11
1525.821070226784
 21
260.9966127622018
 31
0.0
  0
LINE
  5
466
330
1F
100
AcDbEntity
  8
1
  6
Continuous
 62
     2
100
AcDbLine
 10
1526.775664381386
 20
262.1633389511596
 30
0.0
 11
1526.457466329852
 21
261.5269428480917
 31
0.0
  0
LINE
  5
467
330
1F
100
AcDbEntity
  8
1
  6
Continuous
 62
     2
100
AcDbLine
 10
1526.775664381386
 20
263.1179331057614
 30
0.0
 11
1526.775664381386
 21
262.1633389511596
 31
0.0
  0
LINE
  5
468
330
1F
100
AcDbEntity
  8
1
  6
Continuous
 62
     2
100
AcDbLine
 10
1526.457466329852
 20
263.6482631916513
 30
0.0
 11
1526.775664381386
 21
263.1179331057614
 31
0.0
  0
LINE
  5
469
330
1F
100
AcDbEntity
  8
1
  6
Continuous
 62
     2
100
AcDbLine
 10
1525.980169252551
 20
263.9134282345963
 30
0.0
 11
1526.457466329852
 21
263.6482631916513
 31
0.0
  0
LINE
  5
46A
330
1F
100
AcDbEntity
  8
1
  6
Continuous
 62
     2
100
AcDbLine
 10
1525.237707132305
 20
263.9134282345963
 30
0.0
 11
1525.980169252551
 21
263.9134282345963
 31
0.0
  0
LINE
  5
46B
330
1F
100
AcDbEntity
  8
1
  6
Continuous
 62
     2
100
AcDbLine
 10
1524.548278020649
 20
263.6482631916513
 30
0.0
 11
1525.237707132305
 21
263.9134282345963
 31
0.0
  0
LINE
  5
46C
330
1F
100
AcDbEntity
  8
1
  6
Continuous
 62
     2
100
AcDbLine
 10
1524.070980943348
 20
262.9588340799945
 30
0.0
 11
1524.548278020649
 21
263.6482631916513
 31
0.0
  0
LINE
  5
46D
330
1F
100
AcDbEntity
  8
1
  6
Continuous
 62
     2
100
AcDbLine
 10
1523.96491492617
 20
262.1633389511596
 30
0.0
 11
1524.070980943348
 21
262.9588340799945
 31
0.0
  0
LINE
  5
46E
330
1F
100
AcDbEntity
  8
1
  6
Continuous
 62
     2
100
AcDbLine
 10
1524.070980943348
 20
261.5269428480917
 30
0.0
 11
1523.96491492617
 21
262.1633389511596
 31
0.0
  0
LINE
  5
46F
330
1F
100
AcDbEntity
  8
1
  6
Continuous
 62
     2
100
AcDbLine
 10
1524.548278020649
 20
261.2617778051467
 30
0.0
 11
1524.070980943348
 21
261.5269428480917
 31
0.0
  0
LINE
  5
470
330
1F
100
AcDbEntity
  8
1
  6
Continuous
 62
     2
100
AcDbLine
 10
1525.131641115127
 20
262.5876030198715
 30
0.0
 11
1524.548278020649
 21
261.2617778051467
 31
0.0
  0
LINE
  5
471
330
1F
100
AcDbEntity
  8
1
  6
Continuous
 62
     2
100
AcDbLine
 10
1525.50287217525
 20
263.9134282345963
 30
0.0
 11
1525.131641115127
 21
262.5876030198715
 31
0.0
  0
LINE
  5
472
330
1F
100
AcDbEntity
  8
1
  6
Continuous
 62
     2
100
AcDbLine
 10
1522.055726616966
 20
261.1026787793797
 30
0.0
 11
1522.639089711445
 21
261.2617778051467
 31
0.0
  0
LINE
  5
473
330
1F
100
AcDbEntity
  8
1
  6
Continuous
 62
     2
100
AcDbLine
 10
1521.472363522487
 20
261.2617778051467
 30
0.0
 11
1522.055726616966
 21
261.1026787793797
 31
0.0
  0
LINE
  5
474
330
1F
100
AcDbEntity
  8
1
  6
Continuous
 62
     2
100
AcDbLine
 10
1521.260231488131
 20
261.5269428480917
 30
0.0
 11
1521.472363522487
 21
261.2617778051467
 31
0.0
  0
LINE
  5
475
330
1F
100
AcDbEntity
  8
1
  6
Continuous
 62
     2
100
AcDbLine
 10
1521.949660599788
 20
263.2239991229394
 30
0.0
 11
1522.426957677089
 21
263.1179331057614
 31
0.0
  0
LINE
  5
476
330
1F
100
AcDbEntity
  8
1
  6
Continuous
 62
     2
100
AcDbLine
 10
1521.578429539665
 20
263.2239991229394
 30
0.0
 11
1521.949660599788
 21
263.2239991229394
 31
0.0
  0
LINE
  5
477
330
1F
100
AcDbEntity
  8
1
  6
Continuous
 62
     2
100
AcDbLine
 10
1520.676868393652
 20
263.4891641658844
 30
0.0
 11
1519.828340256228
 21
263.3830981487064
 31
0.0
  0
LINE
  5
478
330
1F
100
AcDbEntity
  8
1
  6
Continuous
 62
     2
100
AcDbLine
 10
1521.472363522487
 20
263.7543292088294
 30
0.0
 11
1520.676868393652
 21
263.4891641658844
 31
0.0
  0
LINE
  5
479
330
1F
100
AcDbEntity
  8
1
  6
Continuous
 62
     2
100
AcDbLine
 10
1520.411703350707
 20
262.4285039941045
 30
0.0
 11
1520.676868393652
 21
264.1785932775413
 31
0.0
  0
LINE
  5
47A
330
1F
100
AcDbEntity
  8
1
  6
Continuous
 62
     2
100
AcDbLine
 10
1520.093505299173
 20
260.9966127622018
 30
0.0
 11
1520.411703350707
 21
262.4285039941045
 31
0.0
  0
LINE
  5
47B
330
1F
100
AcDbEntity
  8
1
  6
Continuous
 62
     2
100
AcDbLine
 10
1518.290383007148
 20
261.6330088652697
 30
0.0
 11
1518.555548050093
 21
261.2617778051467
 31
0.0
  0
LINE
  5
47C
330
1F
100
AcDbEntity
  8
1
  6
Continuous
 62
     2
100
AcDbLine
 10
1517.972184955614
 20
262.0572729339816
 30
0.0
 11
1518.290383007148
 21
261.6330088652697
 31
0.0
  0
LINE
  5
47D
330
1F
100
AcDbEntity
  8
1
  6
Continuous
 62
     2
100
AcDbLine
 10
1517.12365681819
 20
263.6482631916513
 30
0.0
 11
1516.752425758067
 21
264.0194942517743
 31
0.0
  0
LINE
  5
47E
330
1F
100
AcDbEntity
  8
1
  6
Continuous
 62
     2
100
AcDbLine
 10
1517.229722835368
 20
263.2239991229394
 30
0.0
 11
1517.12365681819
 21
263.6482631916513
 31
0.0
  0
LINE
  5
47F
330
1F
100
AcDbEntity
  8
1
  6
Continuous
 62
     2
100
AcDbLine
 10
1516.752425758067
 20
262.9588340799945
 30
0.0
 11
1517.229722835368
 21
263.2239991229394
 31
0.0
  0
LINE
  5
480
330
1F
100
AcDbEntity
  8
1
  6
Continuous
 62
     2
100
AcDbLine
 10
1516.646359740889
 20
262.5876030198715
 30
0.0
 11
1516.752425758067
 21
262.9588340799945
 31
0.0
  0
LINE
  5
481
330
1F
100
AcDbEntity
  8
1
  6
Continuous
 62
     2
100
AcDbLine
 10
1517.12365681819
 20
261.8981739082146
 30
0.0
 11
1516.646359740889
 21
262.5876030198715
 31
0.0
  0
LINE
  5
482
330
1F
100
AcDbEntity
  8
1
  6
Continuous
 62
     2
100
AcDbLine
 10
1517.229722835368
 20
261.3678438223247
 30
0.0
 11
1517.12365681819
 21
261.8981739082146
 31
0.0
  0
LINE
  5
483
330
1F
100
AcDbEntity
  8
1
  6
Continuous
 62
     2
100
AcDbLine
 10
1517.017590801012
 20
261.1026787793797
 30
0.0
 11
1517.229722835368
 21
261.3678438223247
 31
0.0
  0
LINE
  5
484
330
1F
100
AcDbEntity
  8
1
  6
Continuous
 62
     2
100
AcDbLine
 10
1516.540293723711
 20
261.1026787793797
 30
0.0
 11
1517.017590801012
 21
261.1026787793797
 31
0.0
  0
LINE
  5
485
330
1F
100
AcDbEntity
  8
1
  6
Continuous
 62
     2
100
AcDbLine
 10
1515.691765586287
 20
261.2617778051467
 30
0.0
 11
1516.06299664641
 21
261.6330088652697
 31
0.0
  0
LINE
  5
486
330
1F
100
AcDbEntity
  8
1
  6
Continuous
 62
     2
100
AcDbLine
 10
1515.585699569109
 20
261.5269428480917
 30
0.0
 11
1515.691765586287
 21
261.2617778051467
 31
0.0
  0
LINE
  5
487
330
1F
100
AcDbEntity
  8
1
  6
Continuous
 62
     2
100
AcDbLine
 10
1515.479633551931
 20
261.8981739082146
 30
0.0
 11
1515.585699569109
 21
261.5269428480917
 31
0.0
  0
LINE
  5
488
330
1F
100
AcDbEntity
  8
1
  6
Continuous
 62
     2
100
AcDbLine
 10
1561.584962649984
 20
101.7468041079276
 30
0.0
 11
1561.319797607039
 21
101.3225400392157
 31
0.0
  0
LINE
  5
489
330
1F
100
AcDbEntity
  8
1
  6
Continuous
 62
     2
100
AcDbLine
 10
1561.79709468434
 20
102.3832002109955
 30
0.0
 11
1561.584962649984
 21
101.7468041079276
 31
0.0
  0
LINE
  5
48A
330
1F
100
AcDbEntity
  8
1
  6
Continuous
 62
     2
100
AcDbLine
 10
1561.79709468434
 20
104.5045205545551
 30
0.0
 11
1561.79709468434
 21
102.3832002109955
 31
0.0
  0
LINE
  5
48B
330
1F
100
AcDbEntity
  8
1
  6
Continuous
 62
     2
100
AcDbLine
 10
1561.584962649984
 20
105.193949666212
 30
0.0
 11
1561.79709468434
 21
104.5045205545551
 31
0.0
  0
LINE
  5
48C
330
1F
100
AcDbEntity
  8
1
  6
Continuous
 62
     2
100
AcDbLine
 10
1561.319797607039
 20
105.5651807263349
 30
0.0
 11
1561.584962649984
 21
105.193949666212
 31
0.0
  0
LINE
  5
48D
330
1F
100
AcDbEntity
  8
1
  6
Continuous
 62
     2
100
AcDbLine
 10
1558.509048151822
 20
101.4816390649826
 30
0.0
 11
1558.137817091699
 21
101.4816390649826
 31
0.0
  0
LINE
  5
48E
330
1F
100
AcDbEntity
  8
1
  6
Continuous
 62
     2
100
AcDbLine
 10
1558.615114169
 20
101.7468041079276
 30
0.0
 11
1558.509048151822
 21
101.4816390649826
 31
0.0
  0
LINE
  5
48F
330
1F
100
AcDbEntity
  8
1
  6
Continuous
 62
     2
100
AcDbLine
 10
1558.615114169
 20
103.9741904686652
 30
0.0
 11
1558.615114169
 21
101.7468041079276
 31
0.0
  0
LINE
  5
490
330
1F
100
AcDbEntity
  8
1
  6
Continuous
 62
     2
100
AcDbLine
 10
1557.766586031576
 20
103.9741904686652
 30
0.0
 11
1559.198477263479
 21
103.9741904686652
 31
0.0
  0
LINE
  5
491
330
1F
100
AcDbEntity
  8
1
  6
Continuous
 62
     2
100
AcDbLine
 10
1557.925685057343
 20
105.034850640445
 30
0.0
 11
1558.986345229123
 21
105.034850640445
 31
0.0
  0
LINE
  5
492
330
1F
100
AcDbEntity
  8
1
  6
Continuous
 62
     2
100
AcDbLine
 10
1557.342321962864
 20
103.6029594085423
 30
0.0
 11
1557.342321962864
 21
101.4816390649826
 31
0.0
  0
LINE
  5
493
330
1F
100
AcDbEntity
  8
1
  6
Continuous
 62
     2
100
AcDbLine
 10
1557.077156919919
 20
103.1786953398303
 30
0.0
 11
1556.705925859797
 21
102.8074642797074
 31
0.0
  0
LINE
  5
494
330
1F
100
AcDbEntity
  8
1
  6
Continuous
 62
     2
100
AcDbLine
 10
1557.448387980042
 20
103.8681244514872
 30
0.0
 11
1557.077156919919
 21
103.1786953398303
 31
0.0
  0
LINE
  5
495
330
1F
100
AcDbEntity
  8
1
  6
Continuous
 62
     2
100
AcDbLine
 10
1557.766586031576
 20
104.5045205545551
 30
0.0
 11
1557.448387980042
 21
103.8681244514872
 31
0.0
  0
LINE
  5
496
330
1F
100
AcDbEntity
  8
1
  6
Continuous
 62
     2
100
AcDbLine
 10
1557.55445399722
 20
105.30001568339
 30
0.0
 11
1556.971090902742
 21
104.3984545373771
 31
0.0
  0
LINE
  5
497
330
1F
100
AcDbEntity
  8
1
  6
Continuous
 62
     2
100
AcDbLine
 10
1556.281661791085
 20
104.3984545373771
 30
0.0
 11
1556.705925859797
 21
103.3377943655973
 31
0.0
  0
LINE
  5
498
330
1F
100
AcDbEntity
  8
1
  6
Continuous
 62
     2
100
AcDbLine
 10
1555.645265688017
 20
102.9135302968854
 30
0.0
 11
1555.539199670839
 21
102.6483652539404
 31
0.0
  0
LINE
  5
499
330
1F
100
AcDbEntity
  8
1
  6
Continuous
 62
     2
100
AcDbLine
 10
1555.910430730962
 20
103.3377943655973
 30
0.0
 11
1555.645265688017
 21
102.9135302968854
 31
0.0
  0
LINE
  5
49A
330
1F
100
AcDbEntity
  8
1
  6
Continuous
 62
     2
100
AcDbLine
 10
1556.281661791085
 20
104.3984545373771
 30
0.0
 11
1555.910430730962
 21
103.3377943655973
 31
0.0
  0
LINE
  5
49B
330
1F
100
AcDbEntity
  8
1
  6
Continuous
 62
     2
100
AcDbLine
 10
1556.281661791085
 20
105.459114709157
 30
0.0
 11
1556.281661791085
 21
101.4816390649826
 31
0.0
  0
LINE
  5
49C
330
1F
100
AcDbEntity
  8
1
  6
Continuous
 62
     2
100
AcDbLine
 10
1555.645265688017
 20
104.3984545373771
 30
0.0
 11
1556.865024885563
 21
104.3984545373771
 31
0.0
  0
LINE
  5
49D
330
1F
100
AcDbEntity
  8
1
  6
Continuous
 62
     2
100
AcDbLine
 10
1551.561724026665
 20
101.3225400392157
 30
0.0
 11
1554.584605516237
 21
101.3225400392157
 31
0.0
  0
LINE
  5
49E
330
1F
100
AcDbEntity
  8
1
  6
Continuous
 62
     2
100
AcDbLine
 10
1551.667790043842
 20
102.1180351680505
 30
0.0
 11
1551.561724026665
 21
101.3225400392157
 31
0.0
  0
LINE
  5
49F
330
1F
100
AcDbEntity
  8
1
  6
Continuous
 62
     2
100
AcDbLine
 10
1551.773856061021
 20
102.3832002109955
 30
0.0
 11
1551.667790043842
 21
102.1180351680505
 31
0.0
  0
LINE
  5
4A0
330
1F
100
AcDbEntity
  8
1
  6
Continuous
 62
     2
100
AcDbLine
 10
1552.145087121143
 20
102.6483652539404
 30
0.0
 11
1551.773856061021
 21
102.3832002109955
 31
0.0
  0
LINE
  5
4A1
330
1F
100
AcDbEntity
  8
1
  6
Continuous
 62
     2
100
AcDbLine
 10
1554.001242421758
 20
102.9135302968854
 30
0.0
 11
1552.145087121143
 21
102.6483652539404
 31
0.0
  0
LINE
  5
4A2
330
1F
100
AcDbEntity
  8
1
  6
Continuous
 62
     2
100
AcDbLine
 10
1554.478539499059
 20
103.1786953398303
 30
0.0
 11
1554.001242421758
 21
102.9135302968854
 31
0.0
  0
LINE
  5
4A3
330
1F
100
AcDbEntity
  8
1
  6
Continuous
 62
     2
100
AcDbLine
 10
1554.584605516237
 20
103.4438603827753
 30
0.0
 11
1554.478539499059
 21
103.1786953398303
 31
0.0
  0
LINE
  5
4A4
330
1F
100
AcDbEntity
  8
1
  6
Continuous
 62
     2
100
AcDbLine
 10
1554.584605516237
 20
104.1332894944322
 30
0.0
 11
1554.584605516237
 21
103.4438603827753
 31
0.0
  0
LINE
  5
4A5
330
1F
100
AcDbEntity
  8
1
  6
Continuous
 62
     2
100
AcDbLine
 10
1554.478539499059
 20
104.3984545373771
 30
0.0
 11
1554.584605516237
 21
104.1332894944322
 31
0.0
  0
LINE
  5
4A6
330
1F
100
AcDbEntity
  8
1
  6
Continuous
 62
     2
100
AcDbLine
 10
1554.001242421758
 20
104.6636195803221
 30
0.0
 11
1554.478539499059
 21
104.3984545373771
 31
0.0
  0
LINE
  5
4A7
330
1F
100
AcDbEntity
  8
1
  6
Continuous
 62
     2
100
AcDbLine
 10
1553.523945344457
 20
104.7696855975001
 30
0.0
 11
1554.001242421758
 21
104.6636195803221
 31
0.0
  0
LINE
  5
4A8
330
1F
100
AcDbEntity
  8
1
  6
Continuous
 62
     2
100
AcDbLine
 10
1552.728450215622
 20
104.7696855975001
 30
0.0
 11
1553.523945344457
 21
104.7696855975001
 31
0.0
  0
LINE
  5
4A9
330
1F
100
AcDbEntity
  8
1
  6
Continuous
 62
     2
100
AcDbLine
 10
1552.251153138321
 20
104.6636195803221
 30
0.0
 11
1552.728450215622
 21
104.7696855975001
 31
0.0
  0
LINE
  5
4AA
330
1F
100
AcDbEntity
  8
1
  6
Continuous
 62
     2
100
AcDbLine
 10
1551.773856061021
 20
104.3984545373771
 30
0.0
 11
1552.251153138321
 21
104.6636195803221
 31
0.0
  0
LINE
  5
4AB
330
1F
100
AcDbEntity
  8
1
  6
Continuous
 62
     2
100
AcDbLine
 10
1551.667790043842
 20
104.1332894944322
 30
0.0
 11
1551.773856061021
 21
104.3984545373771
 31
0.0
  0
LINE
  5
4AC
330
1F
100
AcDbEntity
  8
1
  6
Continuous
 62
     2
100
AcDbLine
 10
1549.440403683105
 20
104.1332894944322
 30
0.0
 11
1550.129832794762
 21
103.3377943655973
 31
0.0
  0
LINE
  5
4AD
330
1F
100
AcDbEntity
  8
1
  6
Continuous
 62
     2
100
AcDbLine
 10
1550.607129872063
 20
105.034850640445
 30
0.0
 11
1547.0539182966
 21
105.034850640445
 31
0.0
  0
LINE
  5
4AE
330
1F
100
AcDbEntity
  8
1
  6
Continuous
 62
     2
100
AcDbLine
 10
1548.857040588626
 20
101.3225400392157
 30
0.0
 11
1548.857040588626
 21
105.034850640445
 31
0.0
  0
LINE
  5
4AF
330
1F
100
AcDbEntity
  8
1
  6
Continuous
 62
     2
100
AcDbLine
 10
1543.871937781261
 20
102.1180351680505
 30
0.0
 11
1545.781126090464
 21
102.1180351680505
 31
0.0
  0
LINE
  5
4B0
330
1F
100
AcDbEntity
  8
1
  6
Continuous
 62
     2
100
AcDbLine
 10
1545.781126090464
 20
101.4816390649826
 30
0.0
 11
1545.781126090464
 21
102.8074642797074
 31
0.0
  0
LINE
  5
4B1
330
1F
100
AcDbEntity
  8
1
  6
Continuous
 62
     2
100
AcDbLine
 10
1543.871937781261
 20
101.4816390649826
 30
0.0
 11
1545.781126090464
 21
101.4816390649826
 31
0.0
  0
LINE
  5
4B2
330
1F
100
AcDbEntity
  8
1
  6
Continuous
 62
     2
100
AcDbLine
 10
1543.871937781261
 20
102.8074642797074
 30
0.0
 11
1543.871937781261
 21
101.4816390649826
 31
0.0
  0
LINE
  5
4B3
330
1F
100
AcDbEntity
  8
1
  6
Continuous
 62
     2
100
AcDbLine
 10
1545.781126090464
 20
102.8074642797074
 30
0.0
 11
1543.871937781261
 21
102.8074642797074
 31
0.0
  0
LINE
  5
4B4
330
1F
100
AcDbEntity
  8
1
  6
Continuous
 62
     2
100
AcDbLine
 10
1545.887192107643
 20
103.9741904686652
 30
0.0
 11
1546.470555202121
 21
103.3377943655973
 31
0.0
  0
LINE
  5
4B5
330
1F
100
AcDbEntity
  8
1
  6
Continuous
 62
     2
100
AcDbLine
 10
1545.51596104752
 20
104.5045205545551
 30
0.0
 11
1545.887192107643
 21
103.9741904686652
 31
0.0
  0
LINE
  5
4B6
330
1F
100
AcDbEntity
  8
1
  6
Continuous
 62
     2
100
AcDbLine
 10
1545.51596104752
 20
105.193949666212
 30
0.0
 11
1545.51596104752
 21
103.1786953398303
 31
0.0
  0
LINE
  5
4B7
330
1F
100
AcDbEntity
  8
1
  6
Continuous
 62
     2
100
AcDbLine
 10
1544.932597953041
 20
103.6029594085423
 30
0.0
 11
1545.51596104752
 21
104.5045205545551
 31
0.0
  0
LINE
  5
4B8
330
1F
100
AcDbEntity
  8
1
  6
Continuous
 62
     2
100
AcDbLine
 10
1544.614399901507
 20
103.3377943655973
 30
0.0
 11
1544.932597953041
 21
103.6029594085423
 31
0.0
  0
LINE
  5
4B9
330
1F
100
AcDbEntity
  8
1
  6
Continuous
 62
     2
100
AcDbLine
 10
1544.243168841384
 20
104.1332894944322
 30
0.0
 11
1544.614399901507
 21
103.7090254257203
 31
0.0
  0
LINE
  5
4BA
330
1F
100
AcDbEntity
  8
1
  6
Continuous
 62
     2
100
AcDbLine
 10
1543.659805746905
 20
103.8681244514872
 30
0.0
 11
1543.978003798439
 21
104.5045205545551
 31
0.0
  0
LINE
  5
4BB
330
1F
100
AcDbEntity
  8
1
  6
Continuous
 62
     2
100
AcDbLine
 10
1543.288574686782
 20
103.4438603827753
 30
0.0
 11
1543.659805746905
 21
103.8681244514872
 31
0.0
  0
LINE
  5
4BC
330
1F
100
AcDbEntity
  8
1
  6
Continuous
 62
     2
100
AcDbLine
 10
1543.978003798439
 20
105.193949666212
 30
0.0
 11
1543.978003798439
 21
103.1786953398303
 31
0.0
  0
LINE
  5
4BD
330
1F
100
AcDbEntity
  8
1
  6
Continuous
 62
     2
100
AcDbLine
 10
1544.614399901507
 20
104.5045205545551
 30
0.0
 11
1543.39464070396
 21
104.5045205545551
 31
0.0
  0
LINE
  5
4BE
330
1F
100
AcDbEntity
  8
1
  6
Continuous
 62
     2
100
AcDbLine
 10
1546.258423167765
 20
104.5045205545551
 30
0.0
 11
1544.826531935863
 21
104.5045205545551
 31
0.0
  0
LINE
  5
4BF
330
1F
100
AcDbEntity
  8
1
  6
Continuous
 62
     2
100
AcDbLine
 10
1542.917343626659
 20
105.459114709157
 30
0.0
 11
1546.258423167765
 21
105.459114709157
 31
0.0
  0
LINE
  5
4C0
330
1F
100
AcDbEntity
  8
1
  6
Continuous
 62
     2
100
AcDbLine
 10
1542.917343626659
 20
103.1786953398303
 30
0.0
 11
1542.917343626659
 21
105.459114709157
 31
0.0
  0
LINE
  5
4C1
330
1F
100
AcDbEntity
  8
1
  6
Continuous
 62
     2
100
AcDbLine
 10
1542.811277609481
 20
102.0119691508725
 30
0.0
 11
1542.917343626659
 21
103.1786953398303
 31
0.0
  0
LINE
  5
4C2
330
1F
100
AcDbEntity
  8
1
  6
Continuous
 62
     2
100
AcDbLine
 10
1542.705211592303
 20
101.5877050821606
 30
0.0
 11
1542.811277609481
 21
102.0119691508725
 31
0.0
  0
LINE
  5
4C3
330
1F
100
AcDbEntity
  8
1
  6
Continuous
 62
     2
100
AcDbLine
 10
1541.432419386167
 20
102.8074642797074
 30
0.0
 11
1541.538485403345
 21
103.0726293226524
 31
0.0
  0
LINE
  5
4C4
330
1F
100
AcDbEntity
  8
1
  6
Continuous
 62
     2
100
AcDbLine
 10
1540.796023283099
 20
102.8074642797074
 30
0.0
 11
1541.432419386167
 21
102.8074642797074
 31
0.0
  0
LINE
  5
4C5
330
1F
100
AcDbEntity
  8
1
  6
Continuous
 62
     2
100
AcDbLine
 10
1540.689957265921
 20
103.0726293226524
 30
0.0
 11
1540.796023283099
 21
102.8074642797074
 31
0.0
  0
LINE
  5
4C6
330
1F
100
AcDbEntity
  8
1
  6
Continuous
 62
     2
100
AcDbLine
 10
1540.689957265921
 20
105.193949666212
 30
0.0
 11
1540.689957265921
 21
103.0726293226524
 31
0.0
  0
LINE
  5
4C7
330
1F
100
AcDbEntity
  8
1
  6
Continuous
 62
     2
100
AcDbLine
 10
1538.568636922362
 20
105.193949666212
 30
0.0
 11
1542.121848497824
 21
105.193949666212
 31
0.0
  0
LINE
  5
4C8
330
1F
100
AcDbEntity
  8
1
  6
Continuous
 62
     2
100
AcDbLine
 10
1539.894462137086
 20
103.7090254257203
 30
0.0
 11
1539.894462137086
 21
105.193949666212
 31
0.0
  0
LINE
  5
4C9
330
1F
100
AcDbEntity
  8
1
  6
Continuous
 62
     2
100
AcDbLine
 10
1539.523231076963
 20
102.9135302968854
 30
0.0
 11
1539.894462137086
 21
103.7090254257203
 31
0.0
  0
LINE
  5
4CA
330
1F
100
AcDbEntity
  8
1
  6
Continuous
 62
     2
100
AcDbLine
 10
1539.152000016841
 20
102.5422992367625
 30
0.0
 11
1539.523231076963
 21
102.9135302968854
 31
0.0
  0
LINE
  5
4CB
330
1F
100
AcDbEntity
  8
1
  6
Continuous
 62
     2
100
AcDbLine
 10
1541.750617437701
 20
101.5877050821606
 30
0.0
 11
1538.939867982484
 21
101.5877050821606
 31
0.0
  0
LINE
  5
4CC
330
1F
100
AcDbEntity
  8
1
  6
Continuous
 62
     2
100
AcDbLine
 10
1541.750617437701
 20
104.1332894944322
 30
0.0
 11
1541.750617437701
 21
101.5877050821606
 31
0.0
  0
LINE
  5
4CD
330
1F
100
AcDbEntity
  8
1
  6
Continuous
 62
     2
100
AcDbLine
 10
1538.939867982484
 20
104.1332894944322
 30
0.0
 11
1541.750617437701
 21
104.1332894944322
 31
0.0
  0
LINE
  5
4CE
330
1F
100
AcDbEntity
  8
1
  6
Continuous
 62
     2
100
AcDbLine
 10
1538.939867982484
 20
101.5877050821606
 30
0.0
 11
1538.939867982484
 21
104.1332894944322
 31
0.0
  0
LINE
  5
4CF
330
1F
100
AcDbEntity
  8
1
  6
Continuous
 62
     2
100
AcDbLine
 10
1536.129118527268
 20
101.7468041079276
 30
0.0
 11
1536.341250561624
 21
101.3225400392157
 31
0.0
  0
LINE
  5
4D0
330
1F
100
AcDbEntity
  8
1
  6
Continuous
 62
     2
100
AcDbLine
 10
1535.863953484323
 20
102.3832002109955
 30
0.0
 11
1536.129118527268
 21
101.7468041079276
 31
0.0
  0
LINE
  5
4D1
330
1F
100
AcDbEntity
  8
1
  6
Continuous
 62
     2
100
AcDbLine
 10
1535.863953484323
 20
104.5045205545551
 30
0.0
 11
1535.863953484323
 21
102.3832002109955
 31
0.0
  0
LINE
  5
4D2
330
1F
100
AcDbEntity
  8
1
  6
Continuous
 62
     2
100
AcDbLine
 10
1536.129118527268
 20
105.193949666212
 30
0.0
 11
1535.863953484323
 21
104.5045205545551
 31
0.0
  0
LINE
  5
4D3
330
1F
100
AcDbEntity
  8
1
  6
Continuous
 62
     2
100
AcDbLine
 10
1536.341250561624
 20
105.5651807263349
 30
0.0
 11
1536.129118527268
 21
105.193949666212
 31
0.0
  0
LINE
  5
4D4
330
1F
100
AcDbEntity
  8
1
  6
Continuous
 62
     7
100
AcDbLine
 10
1579.253523251018
 20
132.5258662922074
 30
0.0
 11
1579.253523251018
 21
131.6596604852539
 31
0.0
  0
LINE
  5
4D5
330
1F
100
AcDbEntity
  8
1
  6
Continuous
 62
     7
100
AcDbLine
 10
1575.508049341751
 20
132.5258662922074
 30
0.0
 11
1579.253523251018
 21
132.5258662922074
 31
0.0
  0
LINE
  5
4D6
330
1F
100
AcDbEntity
  8
1
  6
Continuous
 62
     7
100
AcDbLine
 10
1575.508049341751
 20
134.7780013902866
 30
0.0
 11
1575.508049341751
 21
132.5258662922074
 31
0.0
  0
LINE
  5
4D7
330
1F
100
AcDbEntity
  8
1
  6
Continuous
 62
     7
100
AcDbLine
 10
1578.855068579819
 20
134.7780013902866
 30
0.0
 11
1575.508049341751
 21
134.7780013902866
 31
0.0
  0
LINE
  5
4D8
330
1F
100
AcDbEntity
  8
1
  6
Continuous
 62
     7
100
AcDbLine
 10
1578.855068579819
 20
135.6442071972401
 30
0.0
 11
1578.855068579819
 21
134.7780013902866
 31
0.0
  0
LINE
  5
4D9
330
1F
100
AcDbEntity
  8
1
  6
Continuous
 62
     7
100
AcDbLine
 10
1575.508049341751
 20
135.6442071972401
 30
0.0
 11
1578.855068579819
 21
135.6442071972401
 31
0.0
  0
LINE
  5
4DA
330
1F
100
AcDbEntity
  8
1
  6
Continuous
 62
     7
100
AcDbLine
 10
1575.508049341751
 20
137.7231011339286
 30
0.0
 11
1575.508049341751
 21
135.6442071972401
 31
0.0
  0
LINE
  5
4DB
330
1F
100
AcDbEntity
  8
1
  6
Continuous
 62
     7
100
AcDbLine
 10
1579.173832316778
 20
137.7231011339286
 30
0.0
 11
1575.508049341751
 21
137.7231011339286
 31
0.0
  0
LINE
  5
4DC
330
1F
100
AcDbEntity
  8
1
  6
Continuous
 62
     7
100
AcDbLine
 10
1579.173832316778
 20
138.5893069408821
 30
0.0
 11
1579.173832316778
 21
137.7231011339286
 31
0.0
  0
LINE
  5
4DD
330
1F
100
AcDbEntity
  8
1
  6
Continuous
 62
     7
100
AcDbLine
 10
1574.631449065114
 20
138.5893069408821
 30
0.0
 11
1579.173832316778
 21
138.5893069408821
 31
0.0
  0
LINE
  5
4DE
330
1F
100
AcDbEntity
  8
1
  6
Continuous
 62
     7
100
AcDbLine
 10
1574.631449065114
 20
131.6596604852539
 30
0.0
 11
1574.631449065114
 21
138.5893069408821
 31
0.0
  0
LINE
  5
4DF
330
1F
100
AcDbEntity
  8
1
  6
Continuous
 62
     7
100
AcDbLine
 10
1579.253523251018
 20
131.6596604852539
 30
0.0
 11
1574.631449065114
 21
131.6596604852539
 31
0.0
  0
LINE
  5
4E0
330
1F
100
AcDbEntity
  8
1
  6
DOT_CENTER
 62
     2
100
AcDbLine
 10
1628.315336403073
 20
210.5495134629095
 30
0.0
 11
1628.315336403073
 21
141.546071433653
 31
0.0
  0
LINE
  5
4E1
330
1F
100
AcDbEntity
  8
1
  6
Continuous
 62
     2
100
AcDbLine
 10
1593.291196253398
 20
171.1596604852539
 30
0.0
 11
1662.807945867228
 21
171.1596604852539
 31
0.0
  0
LINE
  5
4E2
330
1F
100
AcDbEntity
  8
1
  6
Continuous
 62
     2
100
AcDbLine
 10
1720.315336403073
 20
151.7841604852538
 30
0.0
 11
1720.315336403073
 21
118.535160485254
 31
0.0
  0
LINE
  5
4E3
330
1F
100
AcDbEntity
  8
1
  6
Continuous
 62
     2
100
AcDbLine
 10
1709.315336403073
 20
151.7841604852538
 30
0.0
 11
1709.315336403073
 21
118.535160485254
 31
0.0
  0
LINE
  5
4E4
330
1F
100
AcDbEntity
  8
1
  6
Continuous
 62
     7
100
AcDbLine
 10
1708.315336403073
 20
150.7841604852538
 30
0.0
 11
1708.315336403073
 21
119.535160485254
 31
0.0
  0
LINE
  5
4E5
330
1F
100
AcDbEntity
  8
1
  6
Continuous
 62
     7
100
AcDbLine
 10
1544.315336403073
 20
150.7841604852538
 30
0.0
 11
1544.315336403073
 21
119.535160485254
 31
0.0
  0
LINE
  5
4E6
330
1F
100
AcDbEntity
  8
1
  6
Continuous
 62
     2
100
AcDbLine
 10
1543.315336403073
 20
151.7841604852538
 30
0.0
 11
1543.315336403073
 21
118.535160485254
 31
0.0
  0
LINE
  5
4E7
330
1F
100
AcDbEntity
  8
1
  6
Continuous
 62
     2
100
AcDbLine
 10
1532.315336403073
 20
151.7841604852538
 30
0.0
 11
1532.315336403073
 21
118.535160485254
 31
0.0
  0
LINE
  5
4E8
330
1F
100
AcDbEntity
  8
1
  6
DOT_CENTER
 62
     2
100
AcDbLine
 10
1673.315336403073
 20
164.0182952123701
 30
0.0
 11
1673.315336403073
 21
160.2250075224911
 31
0.0
  0
LINE
  5
4E9
330
1F
100
AcDbEntity
  8
1
  6
DOT_CENTER
 62
     2
100
AcDbLine
 10
1675.160150228302
 20
162.1596604852539
 30
0.0
 11
1671.523609963624
 21
162.1596604852539
 31
0.0
  0
LINE
  5
4EA
330
1F
100
AcDbEntity
  8
1
  6
Continuous
 62
     7
100
AcDbLine
 10
1543.315336403073
 20
151.7841604852538
 30
0.0
 11
1532.315336403073
 21
151.7841604852538
 31
0.0
  0
LINE
  5
4EB
330
1F
100
AcDbEntity
  8
1
  6
Continuous
 62
     7
100
AcDbLine
 10
1721.315336403073
 20
119.535160485254
 30
0.0
 11
1721.315336403073
 21
150.7841604852537
 31
0.0
  0
LINE
  5
4EC
330
1F
100
AcDbEntity
  8
1
  6
Continuous
 62
     7
100
AcDbLine
 10
1720.315336403073
 20
151.7841604852538
 30
0.0
 11
1709.315336403073
 21
151.7841604852538
 31
0.0
  0
LINE
  5
4ED
330
1F
100
AcDbEntity
  8
1
  6
Continuous
 62
     7
100
AcDbLine
 10
1598.315336403073
 20
100.1596604852539
 30
0.0
 11
1658.315336403073
 21
100.1596604852539
 31
0.0
  0
LINE
  5
4EE
330
1F
100
AcDbEntity
  8
1
  6
Continuous
 62
     7
100
AcDbLine
 10
1629.815336403073
 20
101.16848827894
 30
0.0
 11
1629.815336403073
 21
100.1596604852539
 31
0.0
  0
LINE
  5
4EF
330
1F
100
AcDbEntity
  8
1
  6
Continuous
 62
     7
100
AcDbLine
 10
1626.815336403073
 20
100.1596604852539
 30
0.0
 11
1626.815336403073
 21
101.1685637320743
 31
0.0
  0
LINE
  5
4F0
330
1F
100
AcDbEntity
  8
1
  6
Continuous
 62
     7
100
AcDbLine
 10
1598.315336403073
 20
101.3084059320081
 30
0.0
 11
1598.315336403073
 21
100.1596604852539
 31
0.0
  0
LINE
  5
4F1
330
1F
100
AcDbEntity
  8
1
  6
Continuous
 62
     7
100
AcDbLine
 10
1546.315336403073
 20
122.1596604852539
 30
0.0
 11
1551.567670109505
 21
122.1596604852539
 31
0.0
  0
LINE
  5
4F2
330
1F
100
AcDbEntity
  8
1
  6
Continuous
 62
     2
100
AcDbLine
 10
1531.315336403073
 20
119.535160485254
 30
0.0
 11
1544.315336403073
 21
119.535160485254
 31
0.0
  0
LINE
  5
4F3
330
1F
100
AcDbEntity
  8
1
  6
Continuous
 62
     7
100
AcDbLine
 10
1531.315336403073
 20
119.535160485254
 30
0.0
 11
1532.315336403073
 21
118.535160485254
 31
0.0
  0
LINE
  5
4F4
330
1F
100
AcDbEntity
  8
1
  6
Continuous
 62
     7
100
AcDbLine
 10
1543.315336403073
 20
118.535160485254
 30
0.0
 11
1544.315336403073
 21
119.535160485254
 31
0.0
  0
LINE
  5
4F5
330
1F
100
AcDbEntity
  8
1
  6
Continuous
 62
     7
100
AcDbLine
 10
1532.315336403073
 20
118.535160485254
 30
0.0
 11
1543.315336403073
 21
118.535160485254
 31
0.0
  0
LINE
  5
4F6
330
1F
100
AcDbEntity
  8
1
  6
Continuous
 62
     7
100
AcDbLine
 10
1531.315336403073
 20
150.7841604852538
 30
0.0
 11
1531.315336403073
 21
119.535160485254
 31
0.0
  0
LINE
  5
4F7
330
1F
100
AcDbEntity
  8
1
  6
Continuous
 62
     7
100
AcDbLine
 10
1546.332897722219
 20
148.6886117820623
 30
0.0
 11
1580.961497769942
 21
153.2015887342641
 31
0.0
  0
LINE
  5
4F8
330
1F
100
AcDbEntity
  8
1
  6
Continuous
 62
     2
100
AcDbLine
 10
1531.315336403073
 20
150.7841604852538
 30
0.0
 11
1544.315336403073
 21
150.7841604852538
 31
0.0
  0
LINE
  5
4F9
330
1F
100
AcDbEntity
  8
1
  6
Continuous
 62
     7
100
AcDbLine
 10
1532.315336403073
 20
151.7841604852538
 30
0.0
 11
1531.315336403073
 21
150.7841604852538
 31
0.0
  0
LINE
  5
4FA
330
1F
100
AcDbEntity
  8
1
  6
Continuous
 62
     7
100
AcDbLine
 10
1543.315336403073
 20
151.7841604852538
 30
0.0
 11
1544.315336403073
 21
150.7841604852538
 31
0.0
  0
LINE
  5
4FB
330
1F
100
AcDbEntity
  8
1
  6
Continuous
 62
     2
100
AcDbLine
 10
1708.315336403073
 20
119.535160485254
 30
0.0
 11
1721.315336403073
 21
119.535160485254
 31
0.0
  0
LINE
  5
4FC
330
1F
100
AcDbEntity
  8
1
  6
Continuous
 62
     7
100
AcDbLine
 10
1709.315336403073
 20
118.535160485254
 30
0.0
 11
1708.315336403073
 21
119.535160485254
 31
0.0
  0
LINE
  5
4FD
330
1F
100
AcDbEntity
  8
1
  6
Continuous
 62
     7
100
AcDbLine
 10
1721.315336403073
 20
119.535160485254
 30
0.0
 11
1720.315336403073
 21
118.535160485254
 31
0.0
  0
LINE
  5
4FE
330
1F
100
AcDbEntity
  8
1
  6
Continuous
 62
     7
100
AcDbLine
 10
1709.315336403073
 20
118.535160485254
 30
0.0
 11
1720.315336403073
 21
118.535160485254
 31
0.0
  0
LINE
  5
4FF
330
1F
100
AcDbEntity
  8
1
  6
Continuous
 62
     7
100
AcDbLine
 10
1658.315336403073
 20
100.8366116133639
 30
0.0
 11
1658.315336403073
 21
100.1596604852539
 31
0.0
  0
LINE
  5
500
330
1F
100
AcDbEntity
  8
1
  6
Continuous
 62
     7
100
AcDbLine
 10
1698.315336403073
 20
121.6147403803379
 30
0.0
 11
1661.310405826253
 21
105.4170322689511
 31
0.0
  0
LINE
  5
501
330
1F
100
AcDbEntity
  8
1
  6
Continuous
 62
     7
100
AcDbLine
 10
1674.960737908975
 20
120.352329650927
 30
0.0
 11
1706.207385887043
 21
122.0413376497418
 31
0.0
  0
LINE
  5
502
330
1F
100
AcDbEntity
  8
1
  6
Continuous
 62
     7
100
AcDbLine
 10
1668.315336403073
 20
173.1596604852539
 30
0.0
 11
1668.315336403073
 21
174.0696604852538
 31
0.0
  0
LINE
  5
503
330
1F
100
AcDbEntity
  8
1
  6
Continuous
 62
     7
100
AcDbLine
 10
1676.315336403073
 20
157.8346604852541
 30
0.0
 11
1676.315336403073
 21
162.1596604852539
 31
0.0
  0
LINE
  5
504
330
1F
100
AcDbEntity
  8
1
  6
Continuous
 62
     7
100
AcDbLine
 10
1673.315336403073
 20
165.1596604852539
 30
0.0
 11
1667.200187744902
 21
165.1596604852539
 31
0.0
  0
LINE
  5
505
330
1F
100
AcDbEntity
  8
1
  6
Continuous
 62
     2
100
AcDbLine
 10
1708.315336403073
 20
150.7841604852538
 30
0.0
 11
1721.315336403073
 21
150.7841604852537
 31
0.0
  0
LINE
  5
506
330
1F
100
AcDbEntity
  8
1
  6
Continuous
 62
     7
100
AcDbLine
 10
1709.315336403073
 20
151.7841604852538
 30
0.0
 11
1708.315336403073
 21
150.7841604852538
 31
0.0
  0
LINE
  5
507
330
1F
100
AcDbEntity
  8
1
  6
Continuous
 62
     7
100
AcDbLine
 10
1721.315336403073
 20
150.7841604852537
 30
0.0
 11
1720.315336403073
 21
151.7841604852538
 31
0.0
  0
LINE
  5
508
330
1F
100
AcDbEntity
  8
1
  6
Continuous
 62
     7
100
AcDbLine
 10
1672.876312012829
 20
156.2084409730587
 30
0.0
 11
1706.297775083927
 21
148.6886117820623
 31
0.0
  0
LINE
  5
509
330
1F
100
AcDbEntity
  8
1
  6
Continuous
 62
     7
100
AcDbLine
 10
1666.315336403073
 20
171.1596604852539
 30
0.0
 11
1666.315336403073
 21
166.8199145230983
 31
0.0
  0
LINE
  5
50A
330
1F
100
AcDbEntity
  8
1
  6
Continuous
 62
     7
100
AcDbLine
 10
1590.315336403073
 20
171.1596604852539
 30
0.0
 11
1590.315336403073
 21
166.8199145230983
 31
0.0
  0
LINE
  5
50B
330
1F
100
AcDbEntity
  8
1
  6
Continuous
 62
     7
100
AcDbLine
 10
1588.315336403073
 20
173.1596604852539
 30
0.0
 11
1588.315336403073
 21
174.0696604852538
 31
0.0
  0
LINE
  5
50C
330
1F
100
AcDbEntity
  8
1
  6
DOT_CENTER
 62
     2
100
AcDbLine
 10
1526.458578164818
 20
135.1596604852539
 30
0.0
 11
1561.18731424323
 21
135.1596604852539
 31
0.0
  0
LINE
  5
50D
330
1F
100
AcDbEntity
  8
1
  6
Continuous
 62
     2
100
AcDbLine
 10
1667.232836403073
 20
174.0696604852538
 30
0.0
 11
1667.232836403073
 21
173.1596604852539
 31
0.0
  0
LINE
  5
50E
330
1F
100
AcDbEntity
  8
1
  6
Continuous
 62
     7
100
AcDbLine
 10
1668.315336403073
 20
173.1596604852539
 30
0.0
 11
1588.315336403073
 21
173.1596604852539
 31
0.0
  0
LINE
  5
50F
330
1F
100
AcDbEntity
  8
1
  6
Continuous
 62
     2
100
AcDbLine
 10
1589.397836403073
 20
173.1596604852539
 30
0.0
 11
1589.397836403073
 21
174.0696604852538
 31
0.0
  0
LINE
  5
510
330
1F
100
AcDbEntity
  8
1
  6
Continuous
 62
     7
100
AcDbLine
 10
1629.903049643345
 20
152.409660485254
 30
0.0
 11
1628.315336403073
 21
149.6596604852539
 31
0.0
  0
LINE
  5
511
330
1F
100
AcDbEntity
  8
1
  6
Continuous
 62
     7
100
AcDbLine
 10
1628.315336403073
 20
149.6596604852539
 30
0.0
 11
1611.315336403074
 21
149.6596604852539
 31
0.0
  0
LINE
  5
512
330
1F
100
AcDbEntity
  8
1
  6
Continuous
 62
     7
100
AcDbLine
 10
1611.315336403074
 20
149.6596604852539
 30
0.0
 11
1612.903049643344
 21
152.409660485254
 31
0.0
  0
LINE
  5
513
330
1F
100
AcDbEntity
  8
1
  6
Continuous
 62
     7
100
AcDbLine
 10
1628.315336403073
 20
156.659660485254
 30
0.0
 11
1629.903049643345
 21
153.9096604852539
 31
0.0
  0
LINE
  5
514
330
1F
100
AcDbEntity
  8
1
  6
Continuous
 62
     7
100
AcDbLine
 10
1611.315336403074
 20
156.659660485254
 30
0.0
 11
1628.315336403073
 21
156.659660485254
 31
0.0
  0
LINE
  5
515
330
1F
100
AcDbEntity
  8
1
  6
Continuous
 62
     7
100
AcDbLine
 10
1612.903049643344
 20
153.9096604852539
 30
0.0
 11
1611.315336403074
 21
156.659660485254
 31
0.0
  0
LINE
  5
516
330
1F
100
AcDbEntity
  8
1
  6
Continuous
 62
     7
100
AcDbLine
 10
1639.315336403073
 20
152.409660485254
 30
0.0
 11
1639.315336403073
 21
149.6596604852539
 31
0.0
  0
LINE
  5
517
330
1F
100
AcDbEntity
  8
1
  6
Continuous
 62
     7
100
AcDbLine
 10
1639.315336403073
 20
153.9096604852539
 30
0.0
 11
1611.315336403074
 21
153.9096604852539
 31
0.0
  0
LINE
  5
518
330
1F
100
AcDbEntity
  8
1
  6
Continuous
 62
     7
100
AcDbLine
 10
1639.315336403073
 20
156.659660485254
 30
0.0
 11
1639.315336403073
 21
153.9096604852539
 31
0.0
  0
LINE
  5
519
330
1F
100
AcDbEntity
  8
1
  6
Continuous
 62
     7
100
AcDbLine
 10
1639.315336403073
 20
149.6596604852539
 30
0.0
 11
1645.315336403073
 21
153.1596604852539
 31
0.0
  0
LINE
  5
51A
330
1F
100
AcDbEntity
  8
1
  6
Continuous
 62
     7
100
AcDbLine
 10
1639.315336403073
 20
156.659660485254
 30
0.0
 11
1645.315336403073
 21
153.1596604852539
 31
0.0
  0
LINE
  5
51B
330
1F
100
AcDbEntity
  8
1
  6
Continuous
 62
     7
100
AcDbLine
 10
1611.315336403074
 20
153.9096604852539
 30
0.0
 11
1611.315336403074
 21
152.409660485254
 31
0.0
  0
LINE
  5
51C
330
1F
100
AcDbEntity
  8
1
  6
Continuous
 62
     7
100
AcDbLine
 10
1611.315336403074
 20
152.409660485254
 30
0.0
 11
1639.315336403073
 21
152.409660485254
 31
0.0
  0
LINE
  5
51D
330
1F
100
AcDbEntity
  8
1
  6
DOT_CENTER
 62
     2
100
AcDbLine
 10
1648.9047518708
 20
135.1596604852539
 30
0.0
 11
1731.34202015558
 21
135.1596604852539
 31
0.0
  0
LINE
  5
51E
330
1F
100
AcDbEntity
  8
1
  6
DOT_CENTER
 62
     2
100
AcDbLine
 10
1628.315336403073
 20
120.945928965919
 30
0.0
 11
1628.315336403073
 21
95.01733928469187
 31
0.0
  0
LINE
  5
51F
330
1F
100
AcDbEntity
  8
1
  6
DOT_CENTER
 62
     2
100
AcDbLine
 10
1580.5328790204
 20
135.1596604852539
 30
0.0
 11
1606.88046123663
 21
135.1596604852539
 31
0.0
  0
LINE
  5
520
330
1F
100
AcDbEntity
  8
1
  6
Continuous
 62
     7
100
AcDbLine
 10
1581.315336403073
 20
207.5696604852539
 30
0.0
 11
1589.315336403073
 21
207.5696604852539
 31
0.0
  0
LINE
  5
521
330
1F
100
AcDbEntity
  8
1
  6
Continuous
 62
     7
100
AcDbLine
 10
1672.815336403073
 20
204.5696604852539
 30
0.0
 11
1580.315336403073
 21
204.5696604852539
 31
0.0
  0
LINE
  5
522
330
1F
100
AcDbEntity
  8
1
  6
Continuous
 62
     7
100
AcDbLine
 10
1673.815336403073
 20
203.5696604852539
 30
0.0
 11
1673.815336403073
 21
202.0696604852539
 31
0.0
  0
LINE
  5
523
330
1F
100
AcDbEntity
  8
1
  6
Continuous
 62
     7
100
AcDbLine
 10
1668.815336403073
 20
202.0696604852539
 30
0.0
 11
1673.815336403073
 21
202.0696604852539
 31
0.0
  0
LINE
  5
524
330
1F
100
AcDbEntity
  8
1
  6
Continuous
 62
     7
100
AcDbLine
 10
1586.315336403073
 20
197.5696604852539
 30
0.0
 11
1586.315336403073
 21
194.0696604852538
 31
0.0
  0
LINE
  5
525
330
1F
100
AcDbEntity
  8
1
  6
Continuous
 62
     7
100
AcDbLine
 10
1579.315336403073
 20
194.0696604852538
 30
0.0
 11
1579.315336403073
 21
205.5696604852539
 31
0.0
  0
LINE
  5
526
330
1F
100
AcDbEntity
  8
1
  6
Continuous
 62
     7
100
AcDbLine
 10
1670.815336403073
 20
191.5696604852539
 30
0.0
 11
1585.815336403073
 21
191.5696604852538
 31
0.0
  0
LINE
  5
527
330
1F
100
AcDbEntity
  8
1
  6
Continuous
 62
     7
100
AcDbLine
 10
1585.815336403073
 20
174.0696604852538
 30
0.0
 11
1670.815336403073
 21
174.0696604852538
 31
0.0
  0
LINE
  5
528
330
1F
100
AcDbEntity
  8
1
  6
Continuous
 62
     7
100
AcDbLine
 10
1668.815336403073
 20
203.5696604852539
 30
0.0
 11
1668.815336403073
 21
193.5696604852539
 31
0.0
  0
LINE
  5
529
330
1F
100
AcDbEntity
  8
1
  6
Continuous
 62
     7
100
AcDbLine
 10
1677.315336403073
 20
189.5696604852539
 30
0.0
 11
1677.315336403073
 21
177.5696604852539
 31
0.0
  0
LINE
  5
52A
330
1F
100
AcDbEntity
  8
1
  6
Continuous
 62
     7
100
AcDbLine
 10
1670.815336403073
 20
189.5696604852539
 30
0.0
 11
1677.315336403073
 21
189.5696604852539
 31
0.0
  0
LINE
  5
52B
330
1F
100
AcDbEntity
  8
1
  6
Continuous
 62
     7
100
AcDbLine
 10
1670.815336403073
 20
177.5696604852539
 30
0.0
 11
1677.315336403073
 21
177.5696604852539
 31
0.0
  0
LINE
  5
52C
330
1F
100
AcDbEntity
  8
1
  6
Continuous
 62
     7
100
AcDbLine
 10
1670.815336403073
 20
191.5696604852539
 30
0.0
 11
1670.815336403073
 21
174.0696604852538
 31
0.0
  0
LINE
  5
52D
330
1F
100
AcDbEntity
  8
1
  6
Continuous
 62
     7
100
AcDbLine
 10
1587.815336403073
 20
197.5696604852539
 30
0.0
 11
1586.315336403073
 21
197.5696604852539
 31
0.0
  0
LINE
  5
52E
330
1F
100
AcDbEntity
  8
1
  6
Continuous
 62
     7
100
AcDbLine
 10
1587.815336403073
 20
204.5696604852539
 30
0.0
 11
1587.815336403073
 21
193.5696604852539
 31
0.0
  0
LINE
  5
52F
330
1F
100
AcDbEntity
  8
1
  6
Continuous
 62
     7
100
AcDbLine
 10
1585.815336403073
 20
177.5696604852539
 30
0.0
 11
1579.315336403073
 21
177.5696604852539
 31
0.0
  0
LINE
  5
530
330
1F
100
AcDbEntity
  8
1
  6
Continuous
 62
     7
100
AcDbLine
 10
1585.815336403073
 20
191.5696604852538
 30
0.0
 11
1585.815336403073
 21
174.0696604852538
 31
0.0
  0
LINE
  5
531
330
1F
100
AcDbEntity
  8
1
  6
DOT_CENTER
 62
     2
100
AcDbLine
 10
1580.74785344379
 20
194.0696604852538
 30
0.0
 11
1584.759852859291
 21
194.0696604852538
 31
0.0
  0
LINE
  5
532
330
1F
100
AcDbEntity
  8
1
  6
DOT_CENTER
 62
     2
100
AcDbLine
 10
1582.815336403073
 20
196.067519328806
 30
0.0
 11
1582.815336403073
 21
191.9012122434777
 31
0.0
  0
LINE
  5
533
330
1F
100
AcDbEntity
  8
1
  6
Continuous
 62
     7
100
AcDbLine
 10
1579.315336403073
 20
194.0696604852538
 30
0.0
 11
1579.315336403073
 21
177.5696604852539
 31
0.0
  0
LINE
  5
534
330
1F
100
AcDbEntity
  8
1
  6
Continuous
 62
     7
100
AcDbLine
 10
1624.315336403073
 20
189.5696604852539
 30
0.0
 11
1632.315336403073
 21
189.5696604852539
 31
0.0
  0
LINE
  5
535
330
1F
100
AcDbEntity
  8
1
  6
Continuous
 62
     7
100
AcDbLine
 10
1632.315336403073
 20
189.5696604852539
 30
0.0
 11
1632.315336403073
 21
177.5696604852539
 31
0.0
  0
LINE
  5
536
330
1F
100
AcDbEntity
  8
1
  6
Continuous
 62
     7
100
AcDbLine
 10
1632.315336403073
 20
177.5696604852539
 30
0.0
 11
1624.315336403073
 21
177.5696604852539
 31
0.0
  0
LINE
  5
537
330
1F
100
AcDbEntity
  8
1
  6
Continuous
 62
     7
100
AcDbLine
 10
1624.315336403073
 20
177.5696604852539
 30
0.0
 11
1624.315336403073
 21
189.5696604852539
 31
0.0
  0
LINE
  5
538
330
1F
100
AcDbEntity
  8
1
  6
Continuous
 62
     7
100
AcDbLine
 10
1624.315336403074
 20
350.258575991757
 30
0.0
 11
1632.315336403074
 21
350.258575991757
 31
0.0
  0
LINE
  5
539
330
1F
100
AcDbEntity
  8
1
  6
Continuous
 62
     7
100
AcDbLine
 10
1624.315336403074
 20
350.258575991757
 30
0.0
 11
1624.315336403074
 21
343.5699219878371
 31
0.0
  0
LINE
  5
53A
330
1F
100
AcDbEntity
  8
1
  6
Continuous
 62
     7
100
AcDbLine
 10
1632.315336403074
 20
350.258575991757
 30
0.0
 11
1632.315336403074
 21
343.5699219878371
 31
0.0
  0
LINE
  5
53B
330
1F
100
AcDbEntity
  8
1
  6
Continuous
 62
     7
100
AcDbLine
 10
1624.315336403074
 20
252.258575991757
 30
0.0
 11
1632.315336403074
 21
252.258575991757
 31
0.0
  0
LINE
  5
53C
330
1F
100
AcDbEntity
  8
1
  6
Continuous
 62
     7
100
AcDbLine
 10
1632.315336403074
 20
258.947229995677
 30
0.0
 11
1632.315336403074
 21
252.258575991757
 31
0.0
  0
LINE
  5
53D
330
1F
100
AcDbEntity
  8
1
  6
Continuous
 62
     7
100
AcDbLine
 10
1624.315336403074
 20
258.947229995677
 30
0.0
 11
1624.315336403074
 21
252.258575991757
 31
0.0
  0
LINE
  5
53E
330
1F
100
AcDbEntity
  8
1
  6
Continuous
 62
     7
100
AcDbLine
 10
1677.315336403074
 20
297.258575991757
 30
0.0
 11
1677.315336403074
 21
305.258575991757
 31
0.0
  0
LINE
  5
53F
330
1F
100
AcDbEntity
  8
1
  6
Continuous
 62
     7
100
AcDbLine
 10
1674.040712289993
 20
297.258575991757
 30
0.0
 11
1677.315336403074
 21
297.258575991757
 31
0.0
  0
LINE
  5
540
330
1F
100
AcDbEntity
  8
1
  6
Continuous
 62
     7
100
AcDbLine
 10
1674.040712289993
 20
305.258575991757
 30
0.0
 11
1677.315336403074
 21
305.258575991757
 31
0.0
  0
LINE
  5
541
330
1F
100
AcDbEntity
  8
1
  6
DOT_CENTER
 62
     2
100
AcDbLine
 10
1525.67359373824
 20
301.258575991757
 30
0.0
 11
1725.023823669733
 21
301.258575991757
 31
0.0
  0
LINE
  5
542
330
1F
100
AcDbEntity
  8
1
  6
DOT_CENTER
 62
     2
100
AcDbLine
 10
1628.315336403074
 20
352.9248669012094
 30
0.0
 11
1628.315336403074
 21
249.6819489380496
 31
0.0
  0
LINE
  5
543
330
1F
100
AcDbEntity
  8
1
  6
Continuous
 62
     7
100
AcDbLine
 10
1588.689674263496
 20
292.888575991757
 30
0.0
 11
1587.823437213236
 21
292.888575991757
 31
0.0
  0
LINE
  5
544
330
1F
100
AcDbEntity
  8
1
  6
DOT_CENTER
 62
     2
100
AcDbLine
 10
1584.035336403074
 20
312.0166101948881
 30
0.0
 11
1584.035336403074
 21
289.60965422809
 31
0.0
  0
LINE
  5
545
330
1F
100
AcDbEntity
  8
1
  6
Continuous
 62
     7
100
AcDbLine
 10
1591.489276336865
 20
292.888575991757
 30
0.0
 11
1581.335336403074
 21
292.888575991757
 31
0.0
  0
LINE
  5
546
330
1F
100
AcDbEntity
  8
1
  6
Continuous
 62
     7
100
AcDbLine
 10
1580.255336403074
 20
298.2885759917569
 30
0.0
 11
1591.489276336865
 21
298.2885759917569
 31
0.0
  0
LINE
  5
547
330
1F
100
AcDbEntity
  8
1
  6
Continuous
 62
     7
100
AcDbLine
 10
1580.255336403074
 20
308.548575991757
 30
0.0
 11
1580.255336403074
 21
293.968575991757
 31
0.0
  0
LINE
  5
548
330
1F
100
AcDbEntity
  8
1
  6
Continuous
 62
     7
100
AcDbLine
 10
1591.489276336865
 20
304.228575991757
 30
0.0
 11
1580.255336403074
 21
304.228575991757
 31
0.0
  0
LINE
  5
549
330
1F
100
AcDbEntity
  8
1
  6
Continuous
 62
     7
100
AcDbLine
 10
1581.335336403074
 20
309.628575991757
 30
0.0
 11
1591.489276336865
 21
309.628575991757
 31
0.0
  0
LINE
  5
54A
330
1F
100
AcDbEntity
  8
1
  6
Continuous
 62
     7
100
AcDbLine
 10
1614.156776610452
 20
278.8101118341679
 30
0.0
 11
1613.451221582904
 21
284.07790057687
 31
0.0
  0
LINE
  5
54B
330
1F
100
AcDbEntity
  8
1
  6
Continuous
 62
     7
100
AcDbLine
 10
1612.891128327046
 20
278.5987884552354
 30
0.0
 11
1605.615651145601
 21
277.384013038173
 31
0.0
  0
LINE
  5
54C
330
1F
100
AcDbEntity
  8
1
  6
Continuous
 62
     7
100
AcDbLine
 10
1611.952132008273
 20
285.6094878965893
 30
0.0
 11
1612.891128327046
 21
278.5987884552354
 31
0.0
  0
LINE
  5
54D
330
1F
100
AcDbEntity
  8
1
  6
Continuous
 62
     7
100
AcDbLine
 10
1615.772095875542
 20
279.0798192478537
 30
0.0
 11
1617.345960984028
 21
281.1228756637041
 31
0.0
  0
LINE
  5
54E
330
1F
100
AcDbEntity
  8
1
  6
Continuous
 62
     7
100
AcDbLine
 10
1614.622593794152
 20
277.5876344413206
 30
0.0
 11
1606.775850657998
 21
276.2774756121355
 31
0.0
  0
LINE
  5
54F
330
1F
100
AcDbEntity
  8
1
  6
Continuous
 62
     7
100
AcDbLine
 10
1611.058220351973
 20
272.9606711836293
 30
0.0
 11
1614.622593794152
 21
277.5876344413206
 31
0.0
  0
LINE
  5
550
330
1F
100
AcDbEntity
  8
1
  6
Continuous
 62
     7
100
AcDbLine
 10
1615.772095875542
 20
279.0798192478537
 30
0.0
 11
1614.156776610452
 21
278.8101118341679
 31
0.0
  0
LINE
  5
551
330
1F
100
AcDbEntity
  8
1
  6
Continuous
 62
     7
100
AcDbLine
 10
1600.667736838241
 20
288.845430655015
 30
0.0
 11
1607.805881909764
 21
291.2066664312904
 31
0.0
  0
LINE
  5
552
330
1F
100
AcDbEntity
  8
1
  6
Continuous
 62
     7
100
AcDbLine
 10
1603.775264150674
 20
292.8009969287042
 30
0.0
 11
1600.667736838241
 21
288.845430655015
 31
0.0
  0
LINE
  5
553
330
1F
100
AcDbEntity
  8
1
  6
Continuous
 62
     7
100
AcDbLine
 10
1599.001886530604
 20
294.057992691092
 30
0.0
 11
1603.775264150674
 21
292.8009969287042
 31
0.0
  0
LINE
  5
554
330
1F
100
AcDbEntity
  8
1
  6
Continuous
 62
     7
100
AcDbLine
 10
1606.111748328863
 20
296.4098726086634
 30
0.0
 11
1599.001886530604
 21
294.057992691092
 31
0.0
  0
LINE
  5
555
330
1F
100
AcDbEntity
  8
1
  6
Continuous
 62
     7
100
AcDbLine
 10
1601.117669656511
 20
291.909366912779
 30
0.0
 11
1598.023789034097
 21
287.971171487793
 31
0.0
  0
LINE
  5
556
330
1F
100
AcDbEntity
  8
1
  6
Continuous
 62
     7
100
AcDbLine
 10
1596.323217262452
 20
293.1719123935646
 30
0.0
 11
1601.117669656511
 21
291.909366912779
 31
0.0
  0
LINE
  5
557
330
1F
100
AcDbEntity
  8
1
  6
Continuous
 62
     7
100
AcDbLine
 10
1598.171231300336
 20
302.1540674146034
 30
0.0
 11
1605.636259402418
 21
301.258575991757
 31
0.0
  0
LINE
  5
558
330
1F
100
AcDbEntity
  8
1
  6
Continuous
 62
     7
100
AcDbLine
 10
1602.66500409561
 20
304.4144294669111
 30
0.0
 11
1598.171231300336
 21
302.1540674146034
 31
0.0
  0
LINE
  5
559
330
1F
100
AcDbEntity
  8
1
  6
Continuous
 62
     7
100
AcDbLine
 10
1598.878039076622
 20
307.5805103558669
 30
0.0
 11
1602.66500409561
 21
304.4144294669111
 31
0.0
  0
LINE
  5
55A
330
1F
100
AcDbEntity
  8
1
  6
Continuous
 62
     7
100
AcDbLine
 10
1606.313488705921
 20
306.6885671137261
 30
0.0
 11
1598.878039076622
 21
307.5805103558669
 31
0.0
  0
LINE
  5
55B
330
1F
100
AcDbEntity
  8
1
  6
Continuous
 62
     7
100
AcDbLine
 10
1599.880387989543
 20
304.7364942469331
 30
0.0
 11
1595.406349574109
 21
302.4860585628136
 31
0.0
  0
LINE
  5
55C
330
1F
100
AcDbEntity
  8
1
  6
Continuous
 62
     7
100
AcDbLine
 10
1596.076703272632
 20
307.9165535898217
 30
0.0
 11
1599.880387989543
 21
304.7364942469331
 31
0.0
  0
LINE
  5
55D
330
1F
100
AcDbEntity
  8
1
  6
Continuous
 62
     7
100
AcDbLine
 10
1613.254612550303
 20
330.8632582960664
 30
0.0
 11
1619.34102224788
 21
322.4670822081341
 31
0.0
  0
LINE
  5
55E
330
1F
100
AcDbEntity
  8
1
  6
Continuous
 62
     7
100
AcDbLine
 10
1617.965750767803
 20
321.742081706248
 30
0.0
 11
1608.70806245711
 21
325.1897106436886
 31
0.0
  0
LINE
  5
55F
330
1F
100
AcDbEntity
  8
1
  6
Continuous
 62
     7
100
AcDbLine
 10
1608.70806245711
 20
325.1897106436886
 30
0.0
 11
1613.551141499827
 21
318.508703864499
 31
0.0
  0
LINE
  5
560
330
1F
100
AcDbEntity
  8
1
  6
Continuous
 62
     7
100
AcDbLine
 10
1612.443433928091
 20
317.4146000979904
 30
0.0
 11
1606.349409094942
 21
325.8212812328027
 31
0.0
  0
LINE
  5
561
330
1F
100
AcDbEntity
  8
1
  6
Continuous
 62
     7
100
AcDbLine
 10
1607.499219502447
 20
326.8573043178444
 30
0.0
 11
1616.505431278226
 21
323.7565861823448
 31
0.0
  0
LINE
  5
562
330
1F
100
AcDbEntity
  8
1
  6
Continuous
 62
     7
100
AcDbLine
 10
1616.505431278226
 20
323.7565861823448
 30
0.0
 11
1611.918601192733
 21
330.0840986234739
 31
0.0
  0
LINE
  5
563
330
1F
100
AcDbEntity
  8
1
  6
Continuous
 62
     7
100
AcDbLine
 10
1612.370952365772
 20
272.1428993310336
 30
0.0
 11
1618.69951511814
 21
280.3580955791861
 31
0.0
  0
LINE
  5
564
330
1F
100
AcDbEntity
  8
1
  6
Continuous
 62
     7
100
AcDbLine
 10
1595.375224535699
 20
300.9394378538911
 30
0.0
 11
1605.671564108258
 21
299.7043073697379
 31
0.0
  0
LINE
  5
565
330
1F
100
AcDbEntity
  8
1
  6
Continuous
 62
     7
100
AcDbLine
 10
1606.732031639883
 20
308.1883929844031
 30
0.0
 11
1596.422809592163
 21
309.4250688272414
 31
0.0
  0
LINE
  5
566
330
1F
100
AcDbEntity
  8
1
  6
Continuous
 62
     7
100
AcDbLine
 10
1598.653963753365
 20
286.5559166766844
 30
0.0
 11
1608.498648944185
 21
289.8151082021959
 31
0.0
  0
LINE
  5
567
330
1F
100
AcDbEntity
  8
1
  6
Continuous
 62
     7
100
AcDbLine
 10
1605.851784382898
 20
297.9452009505478
 30
0.0
 11
1595.994781813504
 21
294.6819316211158
 31
0.0
  0
LINE
  5
568
330
1F
100
AcDbEntity
  8
1
  6
Continuous
 62
     7
100
AcDbLine
 10
1609.890405358195
 20
288.0786497741885
 30
0.0
 11
1601.541644961038
 21
282.1085586747505
 31
0.0
  0
LINE
  5
569
330
1F
100
AcDbEntity
  8
1
  6
Continuous
 62
     7
100
AcDbLine
 10
1602.43683473571
 20
280.8566975533306
 30
0.0
 11
1610.785595132866
 21
286.8267886527685
 31
0.0
  0
LINE
  5
56A
330
1F
100
AcDbEntity
  8
1
  6
Continuous
 62
     7
100
AcDbLine
 10
1602.232248252431
 20
313.9072994163012
 30
0.0
 11
1603.914703402527
 21
312.9400553526717
 31
0.0
  0
LINE
  5
56B
330
1F
100
AcDbEntity
  8
1
  6
Continuous
 62
     7
100
AcDbLine
 10
1606.405499861416
 20
317.8199246426108
 30
0.0
 11
1604.940919274561
 21
318.6619125424136
 31
0.0
  0
LINE
  5
56C
330
1F
100
AcDbEntity
  8
1
  6
Continuous
 62
     7
100
AcDbLine
 10
1602.717671274281
 20
311.851410103882
 30
0.0
 11
1601.363402920701
 21
312.6315969833383
 31
0.0
  0
LINE
  5
56D
330
1F
100
AcDbEntity
  8
1
  6
Continuous
 62
     7
100
AcDbLine
 10
1606.978428850655
 20
319.2657494860218
 30
0.0
 11
1605.556087233291
 21
320.0834541872557
 31
0.0
  0
LINE
  5
56E
330
1F
100
AcDbEntity
  8
1
  6
Continuous
 62
     7
100
AcDbLine
 10
1623.631686857723
 20
308.1111759917569
 30
0.0
 11
1619.675336403074
 21
305.826975991757
 31
0.0
  0
LINE
  5
56F
330
1F
100
AcDbEntity
  8
1
  6
Continuous
 62
     7
100
AcDbLine
 10
1623.631686857723
 20
303.542775991757
 30
0.0
 11
1623.631686857723
 21
308.1111759917569
 31
0.0
  0
LINE
  5
570
330
1F
100
AcDbEntity
  8
1
  6
Continuous
 62
     7
100
AcDbLine
 10
1627.588037312372
 20
301.258575991757
 30
0.0
 11
1623.631686857723
 21
303.542775991757
 31
0.0
  0
LINE
  5
571
330
1F
100
AcDbEntity
  8
1
  6
Continuous
 62
     7
100
AcDbLine
 10
1623.631686857723
 20
298.974375991757
 30
0.0
 11
1627.588037312372
 21
301.258575991757
 31
0.0
  0
LINE
  5
572
330
1F
100
AcDbEntity
  8
1
  6
Continuous
 62
     7
100
AcDbLine
 10
1623.631686857723
 20
294.405975991757
 30
0.0
 11
1623.631686857723
 21
298.974375991757
 31
0.0
  0
LINE
  5
573
330
1F
100
AcDbEntity
  8
1
  6
Continuous
 62
     7
100
AcDbLine
 10
1619.675336403074
 20
296.690175991757
 30
0.0
 11
1623.631686857723
 21
294.405975991757
 31
0.0
  0
LINE
  5
574
330
1F
100
AcDbEntity
  8
1
  6
Continuous
 62
     7
100
AcDbLine
 10
1615.718985948425
 20
294.405975991757
 30
0.0
 11
1619.675336403074
 21
296.690175991757
 31
0.0
  0
LINE
  5
575
330
1F
100
AcDbEntity
  8
1
  6
Continuous
 62
     7
100
AcDbLine
 10
1615.718985948425
 20
298.974375991757
 30
0.0
 11
1615.718985948425
 21
294.405975991757
 31
0.0
  0
LINE
  5
576
330
1F
100
AcDbEntity
  8
1
  6
Continuous
 62
     7
100
AcDbLine
 10
1611.762635493776
 20
301.258575991757
 30
0.0
 11
1615.718985948425
 21
298.974375991757
 31
0.0
  0
LINE
  5
577
330
1F
100
AcDbEntity
  8
1
  6
Continuous
 62
     7
100
AcDbLine
 10
1615.718985948425
 20
303.542775991757
 30
0.0
 11
1611.762635493776
 21
301.258575991757
 31
0.0
  0
LINE
  5
578
330
1F
100
AcDbEntity
  8
1
  6
Continuous
 62
     7
100
AcDbLine
 10
1615.718985948425
 20
308.1111759917569
 30
0.0
 11
1615.718985948425
 21
303.542775991757
 31
0.0
  0
LINE
  5
579
330
1F
100
AcDbEntity
  8
1
  6
Continuous
 62
     7
100
AcDbLine
 10
1619.675336403074
 20
305.826975991757
 30
0.0
 11
1615.718985948425
 21
308.1111759917569
 31
0.0
  0
LINE
  5
57A
330
1F
100
AcDbEntity
  8
1
  6
Continuous
 62
     7
100
AcDbLine
 10
1625.072060309297
 20
310.605975991757
 30
0.0
 11
1619.675336403074
 21
307.490175991757
 31
0.0
  0
LINE
  5
57B
330
1F
100
AcDbEntity
  8
1
  6
Continuous
 62
     7
100
AcDbLine
 10
1625.072060309297
 20
304.374375991757
 30
0.0
 11
1625.072060309297
 21
310.605975991757
 31
0.0
  0
LINE
  5
57C
330
1F
100
AcDbEntity
  8
1
  6
Continuous
 62
     7
100
AcDbLine
 10
1630.46878421552
 20
301.258575991757
 30
0.0
 11
1625.072060309297
 21
304.374375991757
 31
0.0
  0
LINE
  5
57D
330
1F
100
AcDbEntity
  8
1
  6
Continuous
 62
     7
100
AcDbLine
 10
1625.072060309297
 20
298.1427759917569
 30
0.0
 11
1630.46878421552
 21
301.258575991757
 31
0.0
  0
LINE
  5
57E
330
1F
100
AcDbEntity
  8
1
  6
Continuous
 62
     7
100
AcDbLine
 10
1625.072060309297
 20
291.911175991757
 30
0.0
 11
1625.072060309297
 21
298.1427759917569
 31
0.0
  0
LINE
  5
57F
330
1F
100
AcDbEntity
  8
1
  6
Continuous
 62
     7
100
AcDbLine
 10
1619.675336403074
 20
295.026975991757
 30
0.0
 11
1625.072060309297
 21
291.911175991757
 31
0.0
  0
LINE
  5
580
330
1F
100
AcDbEntity
  8
1
  6
Continuous
 62
     7
100
AcDbLine
 10
1614.278612496851
 20
291.911175991757
 30
0.0
 11
1619.675336403074
 21
295.026975991757
 31
0.0
  0
LINE
  5
581
330
1F
100
AcDbEntity
  8
1
  6
Continuous
 62
     7
100
AcDbLine
 10
1614.278612496851
 20
298.1427759917569
 30
0.0
 11
1614.278612496851
 21
291.911175991757
 31
0.0
  0
LINE
  5
582
330
1F
100
AcDbEntity
  8
1
  6
Continuous
 62
     7
100
AcDbLine
 10
1608.881888590628
 20
301.258575991757
 30
0.0
 11
1614.278612496851
 21
298.1427759917569
 31
0.0
  0
LINE
  5
583
330
1F
100
AcDbEntity
  8
1
  6
Continuous
 62
     7
100
AcDbLine
 10
1614.278612496851
 20
304.374375991757
 30
0.0
 11
1608.881888590628
 21
301.258575991757
 31
0.0
  0
LINE
  5
584
330
1F
100
AcDbEntity
  8
1
  6
Continuous
 62
     7
100
AcDbLine
 10
1614.278612496851
 20
310.605975991757
 30
0.0
 11
1614.278612496851
 21
304.374375991757
 31
0.0
  0
LINE
  5
585
330
1F
100
AcDbEntity
  8
1
  6
Continuous
 62
     7
100
AcDbLine
 10
1619.675336403074
 20
307.490175991757
 30
0.0
 11
1614.278612496851
 21
310.605975991757
 31
0.0
  0
LINE
  5
586
330
1F
100
AcDbEntity
  8
1
  6
Continuous
 62
     7
100
AcDbLine
 10
1618.876136403074
 20
302.057775991757
 30
0.0
 11
1618.876136403074
 21
305.211375991757
 31
0.0
  0
LINE
  5
587
330
1F
100
AcDbEntity
  8
1
  6
Continuous
 62
     7
100
AcDbLine
 10
1615.722536403074
 20
302.057775991757
 30
0.0
 11
1618.876136403074
 21
302.057775991757
 31
0.0
  0
LINE
  5
588
330
1F
100
AcDbEntity
  8
1
  6
Continuous
 62
     7
100
AcDbLine
 10
1615.722536403074
 20
300.459375991757
 30
0.0
 11
1615.722536403074
 21
302.057775991757
 31
0.0
  0
LINE
  5
589
330
1F
100
AcDbEntity
  8
1
  6
Continuous
 62
     7
100
AcDbLine
 10
1618.876136403074
 20
300.459375991757
 30
0.0
 11
1615.722536403074
 21
300.459375991757
 31
0.0
  0
LINE
  5
58A
330
1F
100
AcDbEntity
  8
1
  6
Continuous
 62
     7
100
AcDbLine
 10
1618.876136403074
 20
297.3057759917571
 30
0.0
 11
1618.876136403074
 21
300.459375991757
 31
0.0
  0
LINE
  5
58B
330
1F
100
AcDbEntity
  8
1
  6
Continuous
 62
     7
100
AcDbLine
 10
1620.474536403074
 20
297.3057759917571
 30
0.0
 11
1618.876136403074
 21
297.3057759917571
 31
0.0
  0
LINE
  5
58C
330
1F
100
AcDbEntity
  8
1
  6
Continuous
 62
     7
100
AcDbLine
 10
1620.474536403074
 20
300.459375991757
 30
0.0
 11
1620.474536403074
 21
297.3057759917571
 31
0.0
  0
LINE
  5
58D
330
1F
100
AcDbEntity
  8
1
  6
Continuous
 62
     7
100
AcDbLine
 10
1623.628136403074
 20
300.459375991757
 30
0.0
 11
1620.474536403074
 21
300.459375991757
 31
0.0
  0
LINE
  5
58E
330
1F
100
AcDbEntity
  8
1
  6
Continuous
 62
     7
100
AcDbLine
 10
1623.628136403074
 20
302.057775991757
 30
0.0
 11
1623.628136403074
 21
300.459375991757
 31
0.0
  0
LINE
  5
58F
330
1F
100
AcDbEntity
  8
1
  6
Continuous
 62
     7
100
AcDbLine
 10
1620.474536403074
 20
302.057775991757
 30
0.0
 11
1623.628136403074
 21
302.057775991757
 31
0.0
  0
LINE
  5
590
330
1F
100
AcDbEntity
  8
1
  6
Continuous
 62
     7
100
AcDbLine
 10
1620.474536403074
 20
305.211375991757
 30
0.0
 11
1620.474536403074
 21
302.057775991757
 31
0.0
  0
LINE
  5
591
330
1F
100
AcDbEntity
  8
1
  6
Continuous
 62
     7
100
AcDbLine
 10
1618.876136403074
 20
305.211375991757
 30
0.0
 11
1620.474536403074
 21
305.211375991757
 31
0.0
  0
LINE
  5
592
330
1F
100
AcDbEntity
  8
1
  6
Continuous
 62
     7
100
AcDbLine
 10
1668.562547486576
 20
312.058575991757
 30
0.0
 11
1672.068667704816
 21
312.058575991757
 31
0.0
  0
LINE
  5
593
330
1F
100
AcDbEntity
  8
1
  6
Continuous
 62
     7
100
AcDbLine
 10
1668.562547486576
 20
290.458575991757
 30
0.0
 11
1672.068667704816
 21
290.458575991757
 31
0.0
  0
LINE
  5
594
330
1F
100
AcDbEntity
  8
1
  6
Continuous
 62
     7
100
AcDbLine
 10
1633.175336403074
 20
330.9585759917569
 30
0.0
 11
1644.515336403074
 21
330.9585759917569
 31
0.0
  0
LINE
  5
595
330
1F
100
AcDbEntity
  8
1
  6
Continuous
 62
     7
100
AcDbLine
 10
1644.515336403074
 20
330.9585759917569
 30
0.0
 11
1644.515336403074
 21
271.5585759917569
 31
0.0
  0
LINE
  5
596
330
1F
100
AcDbEntity
  8
1
  6
Continuous
 62
     7
100
AcDbLine
 10
1644.515336403074
 20
271.5585759917569
 30
0.0
 11
1633.175336403074
 21
271.5585759917569
 31
0.0
  0
LINE
  5
597
330
1F
100
AcDbEntity
  8
1
  6
Continuous
 62
     7
100
AcDbLine
 10
1633.175336403074
 20
271.5585759917569
 30
0.0
 11
1633.175336403074
 21
330.9585759917569
 31
0.0
  0
LINE
  5
598
330
1F
100
AcDbEntity
  8
1
  6
Continuous
 62
     7
100
AcDbLine
 10
1532.315336403074
 20
317.8830759917572
 30
0.0
 11
1543.315336403074
 21
317.8830759917572
 31
0.0
  0
LINE
  5
599
330
1F
100
AcDbEntity
  8
1
  6
Continuous
 62
     7
100
AcDbLine
 10
1543.315336403074
 20
284.6340759917571
 30
0.0
 11
1532.315336403074
 21
284.6340759917571
 31
0.0
  0
LINE
  5
59A
330
1F
100
AcDbEntity
  8
1
  6
Continuous
 62
     7
100
AcDbLine
 10
1531.315336403074
 20
285.6340759917571
 30
0.0
 11
1531.315336403074
 21
316.8830759917572
 31
0.0
  0
LINE
  5
59B
330
1F
100
AcDbEntity
  8
1
  6
Continuous
 62
     7
100
AcDbLine
 10
1543.315336403074
 20
317.8830759917572
 30
0.0
 11
1544.315336403074
 21
316.8830759917572
 31
0.0
  0
LINE
  5
59C
330
1F
100
AcDbEntity
  8
1
  6
Continuous
 62
     7
100
AcDbLine
 10
1544.315336403074
 20
316.8830759917572
 30
0.0
 11
1543.315336403074
 21
317.8830759917572
 31
0.0
  0
LINE
  5
59D
330
1F
100
AcDbEntity
  8
1
  6
Continuous
 62
     7
100
AcDbLine
 10
1532.315336403074
 20
317.8830759917572
 30
0.0
 11
1531.315336403074
 21
316.8830759917572
 31
0.0
  0
LINE
  5
59E
330
1F
100
AcDbEntity
  8
1
  6
Continuous
 62
     7
100
AcDbLine
 10
1543.315336403074
 20
284.6340759917571
 30
0.0
 11
1544.315336403074
 21
285.6340759917571
 31
0.0
  0
LINE
  5
59F
330
1F
100
AcDbEntity
  8
1
  6
Continuous
 62
     7
100
AcDbLine
 10
1532.315336403074
 20
284.6340759917571
 30
0.0
 11
1531.315336403074
 21
285.6340759917571
 31
0.0
  0
LINE
  5
5A0
330
1F
100
AcDbEntity
  8
1
  6
Continuous
 62
     2
100
AcDbLine
 10
1531.315336403074
 20
316.8830759917572
 30
0.0
 11
1544.315336403074
 21
316.8830759917572
 31
0.0
  0
LINE
  5
5A1
330
1F
100
AcDbEntity
  8
1
  6
Continuous
 62
     2
100
AcDbLine
 10
1531.315336403074
 20
285.6340759917571
 30
0.0
 11
1544.315336403074
 21
285.6340759917571
 31
0.0
  0
LINE
  5
5A2
330
1F
100
AcDbEntity
  8
1
  6
Continuous
 62
     2
100
AcDbLine
 10
1543.315336403074
 20
284.6340759917571
 30
0.0
 11
1543.315336403074
 21
317.8830759917572
 31
0.0
  0
LINE
  5
5A3
330
1F
100
AcDbEntity
  8
1
  6
Continuous
 62
     2
100
AcDbLine
 10
1532.315336403074
 20
284.6340759917571
 30
0.0
 11
1532.315336403074
 21
317.8830759917572
 31
0.0
  0
LINE
  5
5A4
330
1F
100
AcDbEntity
  8
1
  6
Continuous
 62
     7
100
AcDbLine
 10
1544.315336403074
 20
316.8830759917572
 30
0.0
 11
1544.315336403074
 21
285.6340759917571
 31
0.0
  0
LINE
  5
5A5
330
1F
100
AcDbEntity
  8
1
  6
Continuous
 62
     7
100
AcDbLine
 10
1591.339702615696
 20
274.9111906134079
 30
0.0
 11
1546.894130187191
 21
288.3485986771053
 31
0.0
  0
LINE
  5
5A6
330
1F
100
AcDbEntity
  8
1
  6
Continuous
 62
     7
100
AcDbLine
 10
1709.315336403074
 20
317.8830759917572
 30
0.0
 11
1720.315336403074
 21
317.8830759917572
 31
0.0
  0
LINE
  5
5A7
330
1F
100
AcDbEntity
  8
1
  6
Continuous
 62
     7
100
AcDbLine
 10
1720.315336403074
 20
284.6340759917571
 30
0.0
 11
1709.315336403074
 21
284.6340759917571
 31
0.0
  0
LINE
  5
5A8
330
1F
100
AcDbEntity
  8
1
  6
Continuous
 62
     7
100
AcDbLine
 10
1721.315336403074
 20
285.6340759917571
 30
0.0
 11
1721.315336403074
 21
316.8830759917572
 31
0.0
  0
LINE
  5
5A9
330
1F
100
AcDbEntity
  8
1
  6
Continuous
 62
     7
100
AcDbLine
 10
1708.315336403074
 20
285.6340759917571
 30
0.0
 11
1708.315336403074
 21
316.8830759917572
 31
0.0
  0
LINE
  5
5AA
330
1F
100
AcDbEntity
  8
1
  6
Continuous
 62
     7
100
AcDbLine
 10
1720.315336403074
 20
317.8830759917572
 30
0.0
 11
1721.315336403074
 21
316.8830759917572
 31
0.0
  0
LINE
  5
5AB
330
1F
100
AcDbEntity
  8
1
  6
Continuous
 62
     7
100
AcDbLine
 10
1709.315336403074
 20
317.8830759917572
 30
0.0
 11
1708.315336403074
 21
316.8830759917572
 31
0.0
  0
LINE
  5
5AC
330
1F
100
AcDbEntity
  8
1
  6
Continuous
 62
     7
100
AcDbLine
 10
1720.315336403074
 20
284.6340759917571
 30
0.0
 11
1721.315336403074
 21
285.6340759917571
 31
0.0
  0
LINE
  5
5AD
330
1F
100
AcDbEntity
  8
1
  6
Continuous
 62
     7
100
AcDbLine
 10
1709.315336403074
 20
284.6340759917571
 30
0.0
 11
1708.315336403074
 21
285.6340759917571
 31
0.0
  0
LINE
  5
5AE
330
1F
100
AcDbEntity
  8
1
  6
Continuous
 62
     2
100
AcDbLine
 10
1708.315336403074
 20
316.8830759917572
 30
0.0
 11
1721.315336403074
 21
316.8830759917572
 31
0.0
  0
LINE
  5
5AF
330
1F
100
AcDbEntity
  8
1
  6
Continuous
 62
     2
100
AcDbLine
 10
1708.315336403074
 20
285.6340759917571
 30
0.0
 11
1721.315336403074
 21
285.6340759917571
 31
0.0
  0
LINE
  5
5B0
330
1F
100
AcDbEntity
  8
1
  6
Continuous
 62
     2
100
AcDbLine
 10
1720.315336403074
 20
284.6340759917571
 30
0.0
 11
1720.315336403074
 21
317.8830759917572
 31
0.0
  0
LINE
  5
5B1
330
1F
100
AcDbEntity
  8
1
  6
Continuous
 62
     2
100
AcDbLine
 10
1709.315336403074
 20
284.6340759917571
 30
0.0
 11
1709.315336403074
 21
317.8830759917572
 31
0.0
  0
LINE
  5
5B2
330
1F
100
AcDbEntity
  8
1
  6
Continuous
 62
     7
100
AcDbLine
 10
1705.658240263201
 20
287.3091221465086
 30
0.0
 11
1665.325114614796
 21
274.977788390019
 31
0.0
  0
LINE
  5
5B3
330
1F
100
AcDbEntity
  8
1
  6
Continuous
 62
     7
100
AcDbLine
 10
1546.894130187191
 20
314.1685533064086
 30
0.0
 11
1591.339702615696
 21
327.6059613701062
 31
0.0
  0
LINE
  5
5B4
330
1F
100
AcDbEntity
  8
1
  6
Continuous
 62
     7
100
AcDbLine
 10
1573.176825223581
 20
280.402446137709
 30
0.0
 11
1572.887428331523
 21
279.4452369448642
 31
0.0
  0
LINE
  5
5B5
330
1F
100
AcDbEntity
  8
1
  6
Continuous
 62
     7
100
AcDbLine
 10
1572.887428331523
 20
279.4452369448642
 30
0.0
 11
1569.058591560143
 21
280.6028245130989
 31
0.0
  0
LINE
  5
5B6
330
1F
100
AcDbEntity
  8
1
  6
Continuous
 62
     7
100
AcDbLine
 10
1569.058591560143
 20
280.6028245130989
 30
0.0
 11
1569.347988452202
 21
281.5600337059439
 31
0.0
  0
LINE
  5
5B7
330
1F
100
AcDbEntity
  8
1
  6
Continuous
 62
     7
100
AcDbLine
 10
1567.433570066512
 20
282.1388274900613
 30
0.0
 11
1567.144173174453
 21
281.1816182972162
 31
0.0
  0
LINE
  5
5B8
330
1F
100
AcDbEntity
  8
1
  6
Continuous
 62
     7
100
AcDbLine
 10
1567.144173174453
 20
281.1816182972162
 30
0.0
 11
1563.315336403074
 21
282.339205865451
 31
0.0
  0
LINE
  5
5B9
330
1F
100
AcDbEntity
  8
1
  6
Continuous
 62
     7
100
AcDbLine
 10
1563.315336403074
 20
282.339205865451
 30
0.0
 11
1563.604733295133
 21
283.296415058296
 31
0.0
  0
LINE
  5
5BA
330
1F
100
AcDbEntity
  8
1
  6
Continuous
 62
     7
100
AcDbLine
 10
1665.325114614796
 20
327.539363593495
 30
0.0
 11
1705.658240263201
 21
315.2080298370054
 31
0.0
  0
LINE
  5
5BB
330
1F
100
AcDbEntity
  8
1
  6
Continuous
 62
     7
100
AcDbLine
 10
1578.920080380651
 20
278.666064785357
 30
0.0
 11
1578.630683488593
 21
277.7088555925122
 31
0.0
  0
LINE
  5
5BC
330
1F
100
AcDbEntity
  8
1
  6
Continuous
 62
     7
100
AcDbLine
 10
1578.630683488593
 20
277.7088555925122
 30
0.0
 11
1574.801846717213
 21
278.8664431607469
 31
0.0
  0
LINE
  5
5BD
330
1F
100
AcDbEntity
  8
1
  6
Continuous
 62
     7
100
AcDbLine
 10
1578.630683488593
 20
277.7088555925122
 30
0.0
 11
1574.801846717213
 21
278.8664431607469
 31
0.0
  0
LINE
  5
5BE
330
1F
100
AcDbEntity
  8
1
  6
Continuous
 62
     7
100
AcDbLine
 10
1574.801846717213
 20
278.8664431607469
 30
0.0
 11
1575.091243609272
 21
279.8236523535919
 31
0.0
  0
LINE
  5
5BF
330
1F
100
AcDbEntity
  8
1
  6
PHANTOM
 62
     2
100
AcDbLine
 10
1563.315336403073
 20
138.5893069408821
 30
0.0
 11
1573.356394117278
 21
138.5893069408821
 31
0.0
  0
LINE
  5
5C0
330
1F
100
AcDbEntity
  8
1
  6
PHANTOM
 62
     2
100
AcDbLine
 10
1573.356394117278
 20
138.5893069408821
 30
0.0
 11
1573.356394117278
 21
131.6596604852539
 31
0.0
  0
LINE
  5
5C1
330
1F
100
AcDbEntity
  8
1
  6
PHANTOM
 62
     2
100
AcDbLine
 10
1573.356394117278
 20
131.6596604852539
 30
0.0
 11
1563.315336403073
 21
131.6596604852539
 31
0.0
  0
LINE
  5
5C2
330
1F
100
AcDbEntity
  8
1
  6
PHANTOM
 62
     2
100
AcDbLine
 10
1563.315336403073
 20
131.6596604852539
 30
0.0
 11
1563.315336403073
 21
138.5893069408821
 31
0.0
  0
ARC
  5
5C3
330
1F
100
AcDbEntity
  8
1
  6
Continuous
 62
     7
100
AcDbCircle
 10
1628.315336403073
 20
455.1596604852539
 30
0.0
 40
353.0
100
AcDbArc
 50
270.40463457475
 51
274.2833309031395
  0
ARC
  5
5C4
330
1F
100
AcDbEntity
  8
1
  6
Continuous
 62
     7
100
AcDbCircle
 10
1628.315336403073
 20
452.1596604852539
 30
0.0
 40
349.9999999999994
100
AcDbArc
 50
269.564656414084
 51
269.5919069518449
  0
ARC
  5
5C5
330
1F
100
AcDbEntity
  8
1
  6
Continuous
 62
     7
100
AcDbCircle
 10
1625.121877080827
 20
245.3819676567932
 30
0.0
 40
143.5059523081089
100
AcDbArc
 50
258.4213202018522
 51
264.226699940898
  0
ARC
  5
5C6
330
1F
100
AcDbEntity
  8
1
  6
Continuous
 62
     7
100
AcDbCircle
 10
1593.32681188842
 20
100.767904487499
 30
0.0
 40
5.017720463000053
100
AcDbArc
 50
6.183815136601
 51
53.40273268538601
  0
ARC
  5
5C7
330
1F
100
AcDbEntity
  8
1
  6
Continuous
 62
     7
100
AcDbCircle
 10
1625.121877080827
 20
245.3819676567932
 30
0.0
 40
143.5059523081091
100
AcDbArc
 50
239.1660588036237
 51
258.4213202018522
  0
ARC
  5
5C8
330
1F
100
AcDbEntity
  8
1
  6
Continuous
 62
     7
100
AcDbCircle
 10
1580.315336403073
 20
158.1596604852539
 30
0.0
 40
4.999999999999727
100
AcDbArc
 50
277.4252305952669
 51
0.0
  0
ARC
  5
5C9
330
1F
100
AcDbEntity
  8
1
  6
Continuous
 62
     7
100
AcDbCircle
 10
1546.312664044553
 20
150.6885094290151
 30
0.0
 40
2.000000000000043
100
AcDbArc
 50
182.962227184982
 51
270.5796620555433
  0
ARC
  5
5CA
330
1F
100
AcDbEntity
  8
1
  6
Continuous
 62
     7
100
AcDbCircle
 10
1651.386175543907
 20
122.8724569771448
 30
0.0
 40
19.99999999999998
100
AcDbArc
 50
279.4805069406067
 51
342.5115494086386
  0
ARC
  5
5CB
330
1F
100
AcDbEntity
  8
1
  6
Continuous
 62
     7
100
AcDbCircle
 10
1706.315336403073
 20
120.0442531031858
 30
0.0
 40
2.0
100
AcDbArc
 50
0.0
 51
93.09405805891153
  0
ARC
  5
5CC
330
1F
100
AcDbEntity
  8
1
  6
Continuous
 62
     7
100
AcDbCircle
 10
1675.23061419905
 20
115.3596182845399
 30
0.0
 40
4.999999999999557
100
AcDbArc
 50
93.09405805891724
 51
162.511549408639
  0
ARC
  5
5CD
330
1F
100
AcDbEntity
  8
1
  6
Continuous
 62
     7
100
AcDbCircle
 10
1663.315336403073
 20
100.8366116133639
 30
0.0
 40
4.999999999999775
100
AcDbArc
 50
113.6398397960249
 51
180.0
  0
ARC
  5
5CE
330
1F
100
AcDbEntity
  8
1
  6
Continuous
 62
     7
100
AcDbCircle
 10
1663.315336403073
 20
158.1596604852539
 30
0.0
 40
8.0
100
AcDbArc
 50
0.0
 51
59.99999999999925
  0
ARC
  5
5CF
330
1F
100
AcDbEntity
  8
1
  6
Continuous
 62
     7
100
AcDbCircle
 10
1679.315336403073
 20
157.8346604852541
 30
0.0
 40
3.0
100
AcDbArc
 50
180.0
 51
257.319616508179
  0
ARC
  5
5D0
330
1F
100
AcDbEntity
  8
1
  6
Continuous
 62
     7
100
AcDbCircle
 10
1668.315336403073
 20
166.8199145230983
 30
0.0
 40
1.999999999999766
100
AcDbArc
 50
236.1117881277825
 51
240.0000000000031
  0
ARC
  5
5D1
330
1F
100
AcDbEntity
  8
1
  6
Continuous
 62
     7
100
AcDbCircle
 10
1668.315336403073
 20
166.8199145230983
 30
0.0
 40
2.0
100
AcDbArc
 50
180.0
 51
236.1117881277825
  0
ARC
  5
5D2
330
1F
100
AcDbEntity
  8
1
  6
Continuous
 62
     7
100
AcDbCircle
 10
1673.315336403073
 20
158.1596604852539
 30
0.0
 40
2.0
100
AcDbArc
 50
180.0
 51
257.3196165081791
  0
ARC
  5
5D3
330
1F
100
AcDbEntity
  8
1
  6
Continuous
 62
     7
100
AcDbCircle
 10
1706.318008761593
 20
150.6885094290151
 30
0.0
 40
1.999999999999813
100
AcDbArc
 50
269.4203379444567
 51
357.0377728150177
  0
ARC
  5
5D4
330
1F
100
AcDbEntity
  8
1
  6
Continuous
 62
     7
100
AcDbCircle
 10
1593.315336403073
 20
158.1596604852539
 30
0.0
 40
7.99999999999982
100
AcDbArc
 50
120.0000000000008
 51
180.0
  0
ARC
  5
5D5
330
1F
100
AcDbEntity
  8
1
  6
Continuous
 62
     7
100
AcDbCircle
 10
1588.315336403073
 20
166.8199145230983
 30
0.0
 40
2.000000000000189
100
AcDbArc
 50
299.9999999999969
 51
0.0
  0
ARC
  5
5D6
330
1F
100
AcDbEntity
  8
1
  6
Continuous
 62
     7
100
AcDbCircle
 10
1628.238420938835
 20
127.0701202036995
 30
0.0
 40
25.0339102128879
100
AcDbArc
 50
264.0790096332672
 51
275.8920715193676
  0
ARC
  5
5D7
330
1F
100
AcDbEntity
  8
1
  6
Continuous
 62
     7
100
AcDbCircle
 10
1628.315336403073
 20
452.1596604852539
 30
0.0
 40
349.9999999999999
100
AcDbArc
 50
267.1128543774419
 51
269.564656414084
  0
ARC
  5
5D8
330
1F
100
AcDbEntity
  8
1
  6
Continuous
 62
     2
100
AcDbCircle
 10
1577.760442996939
 20
140.1430773624985
 30
0.0
 40
14.0000000000006
100
AcDbArc
 50
357.9930900950575
 51
57.0051873670641
  0
ARC
  5
5D9
330
1F
100
AcDbEntity
  8
1
  6
Continuous
 62
     2
100
AcDbCircle
 10
1320.496535780445
 20
119.5393314599549
 30
0.0
 40
272.0000000000009
100
AcDbArc
 50
358.659735760884
 51
4.24069682097567
  0
ARC
  5
5DA
330
1F
100
AcDbEntity
  8
1
  6
Continuous
 62
     2
100
AcDbCircle
 10
1702.067724422922
 20
138.7943960142554
 30
0.0
 40
34.00000000000134
100
AcDbArc
 50
152.5468897722508
 51
184.8332452797249
  0
ARC
  5
5DB
330
1F
100
AcDbEntity
  8
1
  6
Continuous
 62
     2
100
AcDbCircle
 10
1804.322771158406
 20
151.3080490782991
 30
0.0
 40
137.0000000000008
100
AcDbArc
 50
186.4450800691777
 51
192.5768406894267
  0
ARC
  5
5DC
330
1F
100
AcDbEntity
  8
1
  6
Continuous
 62
     7
100
AcDbCircle
 10
1582.815336403073
 20
194.0696604852538
 30
0.0
 40
3.5
100
AcDbArc
 50
180.0
 51
0.0
  0
ARC
  5
5DD
330
1F
100
AcDbEntity
  8
1
  6
Continuous
 62
     7
100
AcDbCircle
 10
1551.366429508784
 20
206.3859627833503
 30
0.0
 40
37.49999999999964
100
AcDbArc
 50
318.1852326719634
 51
346.4024002872667
  0
ARC
  5
5DE
330
1F
100
AcDbEntity
  8
1
  6
Continuous
 62
     7
100
AcDbCircle
 10
1628.315336403074
 20
301.258575991757
 30
0.0
 40
42.50000000000004
100
AcDbArc
 50
95.40053716813496
 51
168.6418559193135
  0
ARC
  5
5DF
330
1F
100
AcDbEntity
  8
1
  6
Continuous
 62
     7
100
AcDbCircle
 10
1628.315336403074
 20
301.258575991757
 30
0.0
 40
42.49999999999998
100
AcDbArc
 50
275.4005371681349
 51
345.2786921051807
  0
ARC
  5
5E0
330
1F
100
AcDbEntity
  8
1
  6
Continuous
 62
     7
100
AcDbCircle
 10
1628.315336403074
 20
301.258575991757
 30
0.0
 40
42.50000000000004
100
AcDbArc
 50
84.59946283186504
 51
95.40053716813496
  0
ARC
  5
5E1
330
1F
100
AcDbEntity
  8
1
  6
Continuous
 62
     7
100
AcDbCircle
 10
1628.315336403074
 20
301.258575991757
 30
0.0
 40
42.49999999999942
100
AcDbArc
 50
14.72130789481927
 51
84.59946283186504
  0
ARC
  5
5E2
330
1F
100
AcDbEntity
  8
1
  6
Continuous
 62
     7
100
AcDbCircle
 10
1628.315336403074
 20
301.258575991757
 30
0.0
 40
42.49999999999998
100
AcDbArc
 50
264.5994628318651
 51
275.4005371681349
  0
ARC
  5
5E3
330
1F
100
AcDbEntity
  8
1
  6
Continuous
 62
     7
100
AcDbCircle
 10
1628.315336403074
 20
301.258575991757
 30
0.0
 40
42.5000000000004
100
AcDbArc
 50
191.3581440806866
 51
264.5994628318651
  0
ARC
  5
5E4
330
1F
100
AcDbEntity
  8
1
  6
Continuous
 62
     7
100
AcDbCircle
 10
1628.315336403074
 20
301.258575991757
 30
0.0
 40
36.72000000000001
100
AcDbArc
 50
192.85158872046
 51
0.0
  0
ARC
  5
5E5
330
1F
100
AcDbEntity
  8
1
  6
Continuous
 62
     7
100
AcDbCircle
 10
1628.315336403074
 20
301.258575991757
 30
0.0
 40
36.72000000000003
100
AcDbArc
 50
0.0
 51
167.1484112795403
  0
ARC
  5
5E6
330
1F
100
AcDbEntity
  8
1
  6
Continuous
 62
     7
100
AcDbCircle
 10
1628.315336403074
 20
301.258575991757
 30
0.0
 40
45.89999999999984
100
AcDbArc
 50
347.4748892433578
 51
12.52511075664214
  0
ARC
  5
5E7
330
1F
100
AcDbEntity
  8
1
  6
Continuous
 62
     7
100
AcDbCircle
 10
1628.315336403074
 20
301.258575991757
 30
0.0
 40
40.50000000000038
100
AcDbArc
 50
17.14984979267334
 51
165.7096713094784
  0
ARC
  5
5E8
330
1F
100
AcDbEntity
  8
1
  6
Continuous
 62
     7
100
AcDbCircle
 10
1628.315336403074
 20
301.258575991757
 30
0.0
 40
34.55999999999997
100
AcDbArc
 50
171.2470709231175
 51
188.7529290768826
  0
ARC
  5
5E9
330
1F
100
AcDbEntity
  8
1
  6
Continuous
 62
     7
100
AcDbCircle
 10
1591.489276336865
 20
295.588575991757
 30
0.0
 40
2.699999999999989
100
AcDbArc
 50
270.0
 51
90.0
  0
ARC
  5
5EA
330
1F
100
AcDbEntity
  8
1
  6
Continuous
 62
     7
100
AcDbCircle
 10
1591.489276336865
 20
306.9285759917569
 30
0.0
 40
2.699999999999875
100
AcDbArc
 50
270.0
 51
90.0
  0
ARC
  5
5EB
330
1F
100
AcDbEntity
  8
1
  6
Continuous
 62
     7
100
AcDbCircle
 10
1629.793201579921
 20
301.5725651857471
 30
0.0
 40
23.94000000000017
100
AcDbArc
 50
221.8201967068532
 51
226.9510927821496
  0
ARC
  5
5EC
330
1F
100
AcDbEntity
  8
1
  6
Continuous
 62
     7
100
AcDbCircle
 10
1629.793201579921
 20
301.5725651857471
 30
0.0
 40
34.19999999999998
100
AcDbArc
 50
225.0130329237287
 51
227.6992684694378
  0
ARC
  5
5ED
330
1F
100
AcDbEntity
  8
1
  6
Continuous
 62
     7
100
AcDbCircle
 10
1629.938402764834
 20
301.2087587605554
 30
0.0
 40
24.30511818341929
100
AcDbArc
 50
187.7161610936054
 51
191.3874980509859
  0
ARC
  5
5EE
330
1F
100
AcDbEntity
  8
1
  6
Continuous
 62
     7
100
AcDbCircle
 10
1629.5756585317
 20
301.166607486889
 30
0.0
 40
34.20000000000051
100
AcDbArc
 50
190.9255936995226
 51
193.5187179288938
  0
ARC
  5
5EF
330
1F
100
AcDbEntity
  8
1
  6
Continuous
 62
     7
100
AcDbCircle
 10
1629.5756585317
 20
301.166607486889
 30
0.0
 40
34.20000000000001
100
AcDbArc
 50
202.6953681394774
 51
205.2871909211486
  0
ARC
  5
5F0
330
1F
100
AcDbEntity
  8
1
  6
Continuous
 62
     7
100
AcDbCircle
 10
1629.5756585317
 20
301.166607486889
 30
0.0
 40
23.93999999999978
100
AcDbArc
 50
204.5846785057867
 51
208.3061347611478
  0
ARC
  5
5F1
330
1F
100
AcDbEntity
  8
1
  6
Continuous
 62
     7
100
AcDbCircle
 10
1629.921399087925
 20
300.9088320587946
 30
0.0
 40
24.30511818341887
100
AcDbArc
 50
162.5719856801239
 51
166.2433226375045
  0
ARC
  5
5F2
330
1F
100
AcDbEntity
  8
1
  6
Continuous
 62
     7
100
AcDbCircle
 10
1629.575117994671
 20
301.0248040942105
 30
0.0
 40
34.20000000000005
100
AcDbArc
 50
165.7814182860411
 51
168.374542515412
  0
ARC
  5
5F3
330
1F
100
AcDbEntity
  8
1
  6
Continuous
 62
     7
100
AcDbCircle
 10
1629.81161635534
 20
300.9382582960665
 30
0.0
 40
23.93999999999982
100
AcDbArc
 50
115.9360805318616
 51
119.6575367872226
  0
ARC
  5
5F4
330
1F
100
AcDbEntity
  8
1
  6
Continuous
 62
     7
100
AcDbCircle
 10
1629.81161635534
 20
300.9382582960665
 30
0.0
 40
23.94000000000036
100
AcDbArc
 50
132.7825517332657
 51
136.5094578103624
  0
ARC
  5
5F5
330
1F
100
AcDbEntity
  8
1
  6
Continuous
 62
     7
100
AcDbCircle
 10
1629.81161635534
 20
300.9382582960665
 30
0.0
 40
34.20000000000044
100
AcDbArc
 50
130.7234973641155
 51
133.316621593486
  0
ARC
  5
5F6
330
1F
100
AcDbEntity
  8
1
  6
Continuous
 62
     7
100
AcDbCircle
 10
1629.81161635534
 20
300.9382582960665
 30
0.0
 40
34.20000000000009
100
AcDbArc
 50
118.9550243718605
 51
121.5463118326866
  0
ARC
  5
5F7
330
1F
100
AcDbEntity
  8
1
  6
Continuous
 62
     7
100
AcDbCircle
 10
1629.793201579921
 20
301.5725651857471
 30
0.0
 40
23.94000000000013
100
AcDbArc
 50
238.672117729992
 51
242.3935739853524
  0
ARC
  5
5F8
330
1F
100
AcDbEntity
  8
1
  6
Continuous
 62
     7
100
AcDbCircle
 10
1629.793201579921
 20
301.5725651857471
 30
0.0
 40
34.1999999999999
100
AcDbArc
 50
236.7833426845282
 51
239.3746301453544
  0
ARC
  5
5F9
330
1F
100
AcDbEntity
  8
1
  6
Continuous
 62
     7
100
AcDbCircle
 10
1629.575117994671
 20
301.0248040942105
 30
0.0
 40
34.20000000000005
100
AcDbArc
 50
177.5511927259959
 51
180.1430155076669
  0
ARC
  5
5FA
330
1F
100
AcDbEntity
  8
1
  6
Continuous
 62
     7
100
AcDbCircle
 10
1629.575117994671
 20
301.0248040942105
 30
0.0
 40
23.93999999999926
100
AcDbArc
 50
179.4405030923047
 51
183.1619593476655
  0
ARC
  5
5FB
330
1F
100
AcDbEntity
  8
1
  6
Continuous
 62
     7
100
AcDbCircle
 10
1629.801333269676
 20
301.3706981379208
 30
0.0
 40
23.93999999999978
100
AcDbArc
 50
213.7261038784976
 51
217.4100385268354
  0
ARC
  5
5FC
330
1F
100
AcDbEntity
  8
1
  6
Continuous
 62
     7
100
AcDbCircle
 10
1629.801333269676
 20
301.3706981379208
 30
0.0
 40
34.19999999999993
100
AcDbArc
 50
214.2788073663787
 51
216.8573350389546
  0
ARC
  5
5FD
330
1F
100
AcDbEntity
  8
1
  6
Continuous
 62
     7
100
AcDbCircle
 10
1603.699559258246
 20
316.2225974555506
 30
0.0
 40
4.284029741362398
100
AcDbArc
 50
64.3190034800608
 51
236.9536376728178
  0
ARC
  5
5FE
330
1F
100
AcDbEntity
  8
1
  6
Continuous
 62
     7
100
AcDbCircle
 10
1605.158993047012
 20
315.3798919026219
 30
0.0
 40
4.290715068849181
100
AcDbArc
 50
235.3210221661314
 51
64.91007180298692
  0
ARC
  5
5FF
330
1F
100
AcDbEntity
  8
1
  6
Continuous
 62
     7
100
AcDbCircle
 10
1603.693088450551
 20
316.2239309776497
 30
0.0
 40
2.738765392558948
100
AcDbArc
 50
62.89529519796519
 51
237.7649586501002
  0
ARC
  5
600
330
1F
100
AcDbEntity
  8
1
  6
Continuous
 62
     7
100
AcDbCircle
 10
1605.17025750947
 20
315.3748062063943
 30
0.0
 40
2.739421076644517
100
AcDbArc
 50
242.7207140490411
 51
57.01309575129554
  0
ARC
  5
601
330
1F
100
AcDbEntity
  8
1
  6
Continuous
 62
     7
100
AcDbCircle
 10
1605.17025750947
 20
315.3748062063943
 30
0.0
 40
2.739421076644569
100
AcDbArc
 50
57.01309575129554
 51
63.19768219956742
  0
ARC
  5
602
330
1F
100
AcDbEntity
  8
1
  6
Continuous
 62
     7
100
AcDbCircle
 10
1628.315336403074
 20
301.258575991757
 30
0.0
 40
40.5000000000001
100
AcDbArc
 50
194.290328690522
 51
342.8501502073266
  0
ARC
  5
603
330
1F
100
AcDbEntity
  8
1
  6
Continuous
 62
     7
100
AcDbCircle
 10
1546.315336403074
 20
316.0829716920985
 30
0.0
 40
2.0
100
AcDbArc
 50
180.0
 51
286.821852280411
  0
ARC
  5
604
330
1F
100
AcDbEntity
  8
1
  6
Continuous
 62
     7
100
AcDbCircle
 10
1546.315336403074
 20
286.4341802914155
 30
0.0
 40
1.999999999999901
100
AcDbArc
 50
73.17814771958852
 51
180.0
  0
ARC
  5
605
330
1F
100
AcDbEntity
  8
1
  6
Continuous
 62
     7
100
AcDbCircle
 10
1586.998749234816
 20
341.9640992627795
 30
0.0
 40
14.99999999999986
100
AcDbArc
 50
286.8218522804244
 51
297.2319727450898
  0
ARC
  5
606
330
1F
100
AcDbEntity
  8
1
  6
Continuous
 62
     7
100
AcDbCircle
 10
1628.315336403074
 20
301.258575991757
 30
0.0
 40
43.00000000000075
100
AcDbArc
 50
135.4268450838507
 51
168.7756537807635
  0
ARC
  5
607
330
1F
100
AcDbEntity
  8
1
  6
Continuous
 62
     7
100
AcDbCircle
 10
1706.326396665264
 20
317.0931205569398
 30
0.0
 40
2.00000000000014
100
AcDbArc
 50
250.4835064203869
 51
353.9715496433802
  0
ARC
  5
608
330
1F
100
AcDbEntity
  8
1
  6
Continuous
 62
     7
100
AcDbCircle
 10
1669.710774674708
 20
341.883909101767
 30
0.0
 40
14.99999999999991
100
AcDbArc
 50
224.4620572536167
 51
252.9996625293682
  0
ARC
  5
609
330
1F
100
AcDbEntity
  8
1
  6
Continuous
 62
     7
100
AcDbCircle
 10
1669.710774674708
 20
260.6332428817471
 30
0.0
 40
14.99999999999975
100
AcDbArc
 50
107.0003374706319
 51
135.5379427463836
  0
ARC
  5
60A
330
1F
100
AcDbEntity
  8
1
  6
Continuous
 62
     7
100
AcDbCircle
 10
1706.326396665264
 20
285.4240314265742
 30
0.0
 40
2.000000000000787
100
AcDbArc
 50
6.0284503566279
 51
109.5164935796126
  0
ARC
  5
60B
330
1F
100
AcDbEntity
  8
1
  6
Continuous
 62
     7
100
AcDbCircle
 10
1628.315336403074
 20
301.258575991757
 30
0.0
 40
42.99999999999955
100
AcDbArc
 50
44.46205725361621
 51
67.66806928687191
  0
ARC
  5
60C
330
1F
100
AcDbEntity
  8
1
  6
Continuous
 62
     7
100
AcDbCircle
 10
1586.998749234816
 20
341.9640992627795
 30
0.0
 40
14.99999999999951
100
AcDbArc
 50
297.2319727450898
 51
315.4268450838471
  0
ARC
  5
60D
330
1F
100
AcDbEntity
  8
1
  6
Continuous
 62
     7
100
AcDbCircle
 10
1586.998749234816
 20
260.5530527207346
 30
0.0
 40
14.99999999999937
100
AcDbArc
 50
44.57315491615257
 51
73.17814771957555
  0
ARC
  5
60E
330
1F
100
AcDbEntity
  8
1
  6
Continuous
 62
     7
100
AcDbCircle
 10
1628.315336403074
 20
301.258575991757
 30
0.0
 40
42.99999999999988
100
AcDbArc
 50
191.2243462192369
 51
247.6680692868718
  0
ARC
  5
60F
330
1F
100
AcDbEntity
  8
1
  6
Continuous
 62
     7
100
AcDbCircle
 10
1628.315336403074
 20
301.258575991757
 30
0.0
 40
43.00000000000011
100
AcDbArc
 50
67.66806928687191
 51
135.4268450838507
  0
ARC
  5
610
330
1F
100
AcDbEntity
  8
1
  6
Continuous
 62
     7
100
AcDbCircle
 10
1628.315336403074
 20
301.258575991757
 30
0.0
 40
42.99999999999951
100
AcDbArc
 50
14.54633081162923
 51
44.46205725361621
  0
ARC
  5
611
330
1F
100
AcDbEntity
  8
1
  6
Continuous
 62
     7
100
AcDbCircle
 10
1628.315336403074
 20
301.258575991757
 30
0.0
 40
42.99999999999991
100
AcDbArc
 50
247.6680692868718
 51
345.4536691883711
  0
CIRCLE
  5
612
330
1F
100
AcDbEntity
  8
1
  6
Continuous
 62
     7
100
AcDbCircle
 10
1673.315336403073
 20
162.1596604852539
 30
0.0
 40
1.0
  0
CIRCLE
  5
613
330
1F
100
AcDbEntity
  8
1
  6
Continuous
 62
     7
100
AcDbCircle
 10
1582.815336403073
 20
194.0696604852538
 30
0.0
 40
1.349999999999909
  0
CIRCLE
  5
614
330
1F
100
AcDbEntity
  8
1
  6
Continuous
 62
     7
100
AcDbCircle
 10
1582.815336403073
 20
194.0696604852538
 30
0.0
 40
1.349999999999909
  0
CIRCLE
  5
615
330
1F
100
AcDbEntity
  8
1
  6
Continuous
 62
     1
100
AcDbCircle
 10
1537.728989903958
 20
151.7841604852538
 30
0.0
 40
0.0009999999999764
  0
ARC
  5
616
330
1F
100
AcDbEntity
  8
1
  6
Continuous
 62
     7
100
AcDbCircle
 10
1668.315336403073
 20
171.1596604852539
 30
0.0
 40
2.0
100
AcDbArc
 50
90.0
 51
180.0
  0
ARC
  5
617
330
1F
100
AcDbEntity
  8
1
  6
Continuous
 62
     7
100
AcDbCircle
 10
1588.315336403073
 20
171.1596604852539
 30
0.0
 40
2.0
100
AcDbArc
 50
0.0
 51
90.0
  0
ARC
  5
618
330
1F
100
AcDbEntity
  8
1
  6
Continuous
 62
     7
100
AcDbCircle
 10
1546.315336403073
 20
120.1596604852539
 30
0.0
 40
2.0
100
AcDbArc
 50
90.0
 51
180.0
  0
ARC
  5
619
330
1F
100
AcDbEntity
  8
1
  6
Continuous
 62
     7
100
AcDbCircle
 10
1673.315336403073
 20
162.1596604852539
 30
0.0
 40
3.0
100
AcDbArc
 50
0.0
 51
90.0
  0
ARC
  5
61A
330
1F
100
AcDbEntity
  8
1
  6
Continuous
 62
     7
100
AcDbCircle
 10
1625.815336403073
 20
101.1685637320743
 30
0.0
 40
1.0
100
AcDbArc
 50
0.0
 51
89.59190695181184
  0
ARC
  5
61B
330
1F
100
AcDbEntity
  8
1
  6
Continuous
 62
     7
100
AcDbCircle
 10
1630.815336403073
 20
101.16848827894
 30
0.0
 40
1.000000000000204
100
AcDbArc
 50
90.40463457476113
 51
180.0
  0
ARC
  5
61C
330
1F
100
AcDbEntity
  8
1
  6
Continuous
 62
     7
100
AcDbCircle
 10
1589.315336403073
 20
203.5696604852539
 30
0.0
 40
3.999999999999686
100
AcDbArc
 50
14.47751218593108
 51
90.0
  0
ARC
  5
61D
330
1F
100
AcDbEntity
  8
1
  6
Continuous
 62
     7
100
AcDbCircle
 10
1672.815336403073
 20
203.5696604852539
 30
0.0
 40
1.0
100
AcDbArc
 50
0.0
 51
90.0
  0
ARC
  5
61E
330
1F
100
AcDbEntity
  8
1
  6
Continuous
 62
     7
100
AcDbCircle
 10
1667.815336403073
 20
203.5696604852539
 30
0.0
 40
1.0
100
AcDbArc
 50
0.0
 51
90.0
  0
ARC
  5
61F
330
1F
100
AcDbEntity
  8
1
  6
Continuous
 62
     7
100
AcDbCircle
 10
1580.315336403073
 20
203.5696604852539
 30
0.0
 40
1.0
100
AcDbArc
 50
90.0
 51
180.0
  0
ARC
  5
620
330
1F
100
AcDbEntity
  8
1
  6
Continuous
 62
     7
100
AcDbCircle
 10
1581.315336403073
 20
205.5696604852539
 30
0.0
 40
2.0
100
AcDbArc
 50
90.0
 51
180.0
  0
ARC
  5
621
330
1F
100
AcDbEntity
  8
1
  6
Continuous
 62
     7
100
AcDbCircle
 10
1587.315336403073
 20
197.5696604852539
 30
0.0
 40
1.0
100
AcDbArc
 50
90.0
 51
180.0
  0
ARC
  5
622
330
1F
100
AcDbEntity
  8
1
  6
Continuous
 62
     7
100
AcDbCircle
 10
1670.815336403073
 20
193.5696604852538
 30
0.0
 40
2.0
100
AcDbArc
 50
179.9999999999967
 51
270.0
  0
ARC
  5
623
330
1F
100
AcDbEntity
  8
1
  6
Continuous
 62
     7
100
AcDbCircle
 10
1585.815336403073
 20
193.5696604852538
 30
0.0
 40
2.0
100
AcDbArc
 50
270.0
 51
0.00000000000326
  0
ARC
  5
624
330
1F
100
AcDbEntity
  8
1
  6
Continuous
 62
     7
100
AcDbCircle
 10
1586.975347288416
 20
311.7885759917569
 30
0.0
 40
2.159999999999911
100
AcDbArc
 50
270.0
 51
345.7096713094788
  0
ARC
  5
625
330
1F
100
AcDbEntity
  8
1
  6
Continuous
 62
     7
100
AcDbCircle
 10
1586.975347288416
 20
290.7285759917569
 30
0.0
 40
2.160000000000438
100
AcDbArc
 50
14.29032869052122
 51
90.0
  0
ARC
  5
626
330
1F
100
AcDbEntity
  8
1
  6
Continuous
 62
     7
100
AcDbCircle
 10
1581.335336403074
 20
293.968575991757
 30
0.0
 40
1.080000000000155
100
AcDbArc
 50
180.0
 51
270.0
  0
ARC
  5
627
330
1F
100
AcDbEntity
  8
1
  6
Continuous
 62
     7
100
AcDbCircle
 10
1581.335336403074
 20
308.548575991757
 30
0.0
 40
1.079999999999984
100
AcDbArc
 50
90.0
 51
180.0
  0
ARC
  5
628
330
1F
100
AcDbEntity
  8
1
  6
Continuous
 62
     7
100
AcDbCircle
 10
1668.562547486576
 20
313.678575991757
 30
0.0
 40
1.619999999999156
100
AcDbArc
 50
197.1498497926817
 51
270.0
  0
ARC
  5
629
330
1F
100
AcDbEntity
  8
1
  6
Continuous
 62
     7
100
AcDbCircle
 10
1668.562547486576
 20
288.838575991757
 30
0.0
 40
1.620000000000005
100
AcDbArc
 50
90.0
 51
162.8501502073183
  0
ARC
  5
62A
330
1F
100
AcDbEntity
  8
1
  6
Continuous
 62
     7
100
AcDbCircle
 10
1672.068667704816
 20
310.978575991757
 30
0.0
 40
1.079999999999836
100
AcDbArc
 50
12.52511075664573
 51
90.0
  0
ARC
  5
62B
330
1F
100
AcDbEntity
  8
1
  6
Continuous
 62
     7
100
AcDbCircle
 10
1672.068667704816
 20
291.5385759917569
 30
0.0
 40
1.07999999999987
100
AcDbArc
 50
270.0
 51
347.4748892433602
  0
LINE
  5
62C
330
1F
100
AcDbEntity
  8
1
 62
     2
100
AcDbLine
 10
1576.964179854265
 20
131.0761697832226
 30
0.0
 11
1577.45631235529
 21
128.0095794080738
 31
0.0
  0
LINE
  5
62D
330
1F
100
AcDbEntity
  8
1
 62
     2
100
AcDbLine
 10
1576.964179854265
 20
131.0761697832226
 30
0.0
 11
1575.857083914606
 21
128.1743583648303
 31
0.0
  0
LEADER
  5
62E
330
1F
100
AcDbEntity
  8
1
  6
Continuous
 62
     2
100
AcDbLeader
  3
Standard
 71
     0
 76
     3
 10
1576.964179854265
 20
131.0761697832226
 30
0.0
 10
1573.263930295686
 20
95.16415499575912
 30
0.0
 10
1552.356353848736
 20
95.16415499575912
 30
0.0
  0
LINE
  5
62F
330
1F
100
AcDbEntity
  8
1
 62
     2
100
AcDbLine
 10
1568.44518118552
 20
131.4934762590577
 30
0.0
 11
1568.473973195097
 21
128.387781176197
 31
0.0
  0
LINE
  5
630
330
1F
100
AcDbEntity
  8
1
 62
     2
100
AcDbLine
 10
1568.44518118552
 20
131.4934762590577
 30
0.0
 11
1566.91726825581
 21
128.7894694161033
 31
0.0
  0
LEADER
  5
631
330
1F
100
AcDbEntity
  8
1
  6
Continuous
 62
     2
100
AcDbLeader
  3
Standard
 71
     0
 76
     3
 10
1568.44518118552
 20
131.4934762590577
 30
0.0
 10
1562.104012528866
 20
106.9188743962343
 30
0.0
 10
1535.169533581936
 20
106.9188743962343
 30
0.0
  0
LINE
  5
632
330
1F
100
AcDbEntity
  8
1
 62
     2
100
AcDbLine
 10
1537.727989903958
 20
151.7841604852538
 30
0.0
 11
1535.613317030294
 21
154.0588757564275
 31
0.0
  0
LINE
  5
633
330
1F
100
AcDbEntity
  8
1
 62
     2
100
AcDbLine
 10
1537.727989903958
 20
151.7841604852538
 30
0.0
 11
1537.033987110258
 21
154.8114581332985
 31
0.0
  0
LEADER
  5
634
330
1F
100
AcDbEntity
  8
1
  6
Continuous
 62
     2
100
AcDbLeader
  3
Standard
 71
     0
 76
     3
 10
1537.727989903958
 20
151.7841604852538
 30
0.0
 10
1521.771273500489
 20
181.906085028755
 30
0.0
 10
1572.27026417068
 20
181.906085028755
 30
0.0
  0
DIMENSION
  5
648
330
1F
100
AcDbEntity
  8
1
100
AcDbDimension
  2
*D1
 10
1740.956941808895
 20
350.258575991757
 30
0.0
 11
1738.906941808895
 21
303.868338733427
 31
0.0
 70
    32
  1
<>
 71
     5
 42
-1.0
 53
90.0
  3
ME10_DIM_10
100
AcDbAlignedDimension
 13
1632.315336403074
 23
252.258575991757
 33
0.0
 14
1632.315336403074
 24
350.258575991757
 34
0.0
 50
90.0
100
AcDbRotatedDimension
  0
DIMENSION
  5
655
330
1F
100
AcDbEntity
  8
1
100
AcDbDimension
  2
*D3
 10
1740.956941808895
 20
207.5696604852539
 30
0.0
 11
1738.906941808895
 21
151.0422638715084
 31
0.0
 70
    32
  1
(108
 71
     5
 42
-1.0
 53
90.0
  3
ME10_DIM_11
100
AcDbAlignedDimension
 13
1658.315336403073
 23
100.1596604852539
 33
0.0
 14
1581.315336403073
 24
207.5696604852539
 34
0.0
 50
90.0
100
AcDbRotatedDimension
  0
DIMENSION
  5
662
330
1F
100
AcDbEntity
  8
1
100
AcDbDimension
  2
*D4
 10
1721.315336403073
 20
162.1983740476269
 30
0.0
 11
1714.815336403073
 21
164.7983740476269
 31
0.0
 70
    33
  1
<>
 71
     5
 42
-1.0
 53
0.00013888888889
  3
ME10_DIM_12
100
AcDbAlignedDimension
 13
1708.315336403073
 23
150.7841604852538
 33
0.0
 14
1721.315336403073
 24
150.7841604852537
 34
0.0
  0
DIMENSION
  5
66F
330
1F
100
AcDbEntity
  8
1
100
AcDbDimension
  2
*D5
 10
1531.315336403073
 20
82.8842472262025
 30
0.0
 11
1626.315336403073
 21
84.9342472262025
 31
0.0
 70
    32
  1
<>
 71
     5
 42
-1.0
 53
0.00013888888889
  3
ME10_DIM_13
100
AcDbAlignedDimension
 13
1721.315336403073
 23
119.535160485254
 33
0.0
 14
1531.315336403073
 24
119.535160485254
 34
0.0
100
AcDbRotatedDimension
  0
DIMENSION
  5
67C
330
1F
100
AcDbEntity
  8
1
100
AcDbDimension
  2
*D6
 10
1729.827480345095
 20
135.1596604852539
 30
0.0
 11
1727.777480345095
 21
118.857556044095
 31
0.0
 70
    32
  1
<>
 71
     5
 42
-1.0
 53
90.0
  3
ME10_DIM_14
100
AcDbAlignedDimension
 13
1658.315336403073
 23
100.1596604852539
 33
0.0
 14
1731.34202015558
 24
135.1596604852539
 34
0.0
 50
90.0
100
AcDbRotatedDimension
  0
ENDSEC
  0
SECTION
  2
OBJECTS
  0
DICTIONARY
  5
C
330
0
100
AcDbDictionary
281
     1
  3
ACAD_GROUP
350
D
  3
ACAD_LAYOUT
350
1A
  3
ACAD_MLEADERSTYLE
350
67E
  3
ACAD_MLINESTYLE
350
17
  3
ACAD_PLOTSETTINGS
350
19
  3
ACAD_PLOTSTYLENAME
350
E
  3
ACAD_TABLESTYLE
350
67D
  3
ACAD_VISUALSTYLE
350
2A
  0
DICTIONARY
  5
D
102
{ACAD_REACTORS
330
C
102
}
330
C
100
AcDbDictionary
281
     1
  0
DICTIONARY
  5
1A
102
{ACAD_REACTORS
330
C
102
}
330
C
100
AcDbDictionary
281
     1
  3
Layout1
350
1E
  3
Layout2
350
26
  3
Model
350
22
  0
DICTIONARY
  5
67E
102
{ACAD_REACTORS
330
C
102
}
330
C
100
AcDbDictionary
281
     1
  0
DICTIONARY
  5
17
102
{ACAD_REACTORS
330
C
102
}
330
C
100
AcDbDictionary
281
     1
  3
Standard
350
18
  0
DICTIONARY
  5
19
102
{ACAD_REACTORS
330
C
102
}
330
C
100
AcDbDictionary
281
     1
  0
ACDBDICTIONARYWDFLT
  5
E
102
{ACAD_REACTORS
330
C
102
}
330
C
100
AcDbDictionary
281
     1
  3
Normal
350
F
100
AcDbDictionaryWithDefault
340
F
  0
DICTIONARY
  5
67D
102
{ACAD_REACTORS
330
C
102
}
330
C
100
AcDbDictionary
281
     1
  0
DICTIONARY
  5
2A
102
{ACAD_REACTORS
330
C
102
}
330
C
100
AcDbDictionary
281
     1
  3
2dWireframe
350
2F
  3
3D Hidden
350
31
  3
3dWireframe
350
30
  3
Basic
350
32
  3
Brighten
350
36
  3
ColorChange
350
3A
  3
Conceptual
350
34
  3
Dim
350
35
  3
Facepattern
350
39
  3
Flat
350
2B
  3
FlatWithEdges
350
2C
  3
Gouraud
350
2D
  3
GouraudWithEdges
350
2E
  3
Linepattern
350
38
  3
Realistic
350
33
  3
Thicken
350
37
  0
LAYOUT
  5
1E
102
{ACAD_REACTORS
330
1A
102
}
330
1A
100
AcDbPlotSettings
  1

  2
none_device
  4

  6

 40
0.0
 41
0.0
 42
0.0
 43
0.0
 44
0.0
 45
0.0
 46
0.0
 47
0.0
 48
0.0
 49
0.0
140
0.0
141
0.0
142
1.0
143
1.0
 70
   688
 72
     0
 73
     0
 74
     5
  7

 75
    16
147
1.0
148
0.0
149
0.0
100
AcDbLayout
  1
Layout1
 70
     1
 71
     1
 10
0.0
 20
0.0
 11
12.0
 21
9.0
 12
0.0
 22
0.0
 32
0.0
 14
1.00000000000000E+20
 24
1.00000000000000E+20
 34
1.00000000000000E+20
 15
-1.00000000000000E+20
 25
-1.00000000000000E+20
 35
-1.00000000000000E+20
146
0.0
 13
0.0
 23
0.0
 33
0.0
 16
1.0
 26
0.0
 36
0.0
 17
0.0
 27
1.0
 37
0.0
 76
     0
330
1B
  0
LAYOUT
  5
26
102
{ACAD_REACTORS
330
1A
102
}
330
1A
100
AcDbPlotSettings
  1

  2
none_device
  4

  6

 40
0.0
 41
0.0
 42
0.0
 43
0.0
 44
0.0
 45
0.0
 46
0.0
 47
0.0
 48
0.0
 49
0.0
140
0.0
141
0.0
142
1.0
143
1.0
 70
   688
 72
     0
 73
     0
 74
     5
  7

 75
    16
147
1.0
148
0.0
149
0.0
100
AcDbLayout
  1
Layout2
 70
     1
 71
     2
 10
0.0
 20
0.0
 11
0.0
 21
0.0
 12
0.0
 22
0.0
 32
0.0
 14
0.0
 24
0.0
 34
0.0
 15
0.0
 25
0.0
 35
0.0
146
0.0
 13
0.0
 23
0.0
 33
0.0
 16
1.0
 26
0.0
 36
0.0
 17
0.0
 27
1.0
 37
0.0
 76
     0
330
23
  0
LAYOUT
  5
22
102
{ACAD_REACTORS
330
1A
102
}
330
1A
100
AcDbPlotSettings
  1

  2
none_device
  4

  6

 40
0.0
 41
0.0
 42
0.0
 43
0.0
 44
0.0
 45
0.0
 46
0.0
 47
0.0
 48
0.0
 49
0.0
140
0.0
141
0.0
142
1.0
143
1.0
 70
  1712
 72
     0
 73
     0
 74
     0
  7

 75
     0
147
1.0
148
0.0
149
0.0
100
AcDbLayout
  1
Model
 70
     1
 71
     0
 10
0.0
 20
0.0
 11
12.0
 21
9.0
 12
0.0
 22
0.0
 32
0.0
 14
1515.479633551931
 24
25.6596604852539
 34
0.0
 15
1741.956941808895
 25
352.9248669012094
 35
0.0
146
0.0
 13
0.0
 23
0.0
 33
0.0
 16
1.0
 26
0.0
 36
0.0
 17
0.0
 27
1.0
 37
0.0
 76
     0
330
1F
331
29
  0
MLINESTYLE
  5
18
102
{ACAD_REACTORS
330
17
102
}
330
17
100
AcDbMlineStyle
  2
Standard
 70
     0
  3

 62
   256
 51
90.0
 52
90.0
 71
     2
 49
0.5
 62
   256
  6
BYLAYER
 49
-0.5
 62
   256
  6
BYLAYER
  0
ACDBPLACEHOLDER
  5
F
102
{ACAD_REACTORS
330
E
102
}
330
E
  0
VISUALSTYLE
  5
2F
102
{ACAD_REACTORS
330
2A
102
}
330
2A
100
AcDbVisualStyle
  2
2dWireframe
 70
     4
 71
     0
 72
     2
 73
     0
 90
        0
 40
-0.6
 41
-30.0
 62
     5
 63
     7
 74
     1
 91
        4
 64
     7
 65
   257
 75
     1
175
     1
 42
1.0
 92
        0
 66
   257
 43
1.0
 76
     1
 77
     6
 78
     2
 67
     7
 79
     5
170
     0
171
     0
290
     0
174
     0
 93
        1
 44
0.0
173
     0
291
     0
 45
0.0
1001
ACAD
1000
AcDbSavedByObjectVersion
1070
     0
  0
VISUALSTYLE
  5
31
102
{ACAD_REACTORS
330
2A
102
}
330
2A
100
AcDbVisualStyle
  2
3D Hidden
 70
     6
 71
     1
 72
     2
 73
     2
 90
        0
 40
-0.6
 41
-30.0
 62
     5
 63
     7
 74
     2
 91
        2
 64
     7
 65
   257
 75
     2
175
     1
 42
40.0
 92
        0
 66
   257
 43
1.0
 76
     1
 77
     6
 78
     2
 67
     7
 79
     3
170
     0
171
     0
290
     0
174
     0
 93
        1
 44
0.0
173
     0
291
     0
 45
0.0
1001
ACAD
1000
AcDbSavedByObjectVersion
1070
     0
  0
VISUALSTYLE
  5
30
102
{ACAD_REACTORS
330
2A
102
}
330
2A
100
AcDbVisualStyle
  2
3dWireframe
 70
     5
 71
     0
 72
     2
 73
     0
 90
        0
 40
-0.6
 41
-30.0
 62
     5
 63
     7
 74
     1
 91
        4
 64
     7
 65
   257
 75
     1
175
     1
 42
1.0
 92
        0
 66
   257
 43
1.0
 76
     1
 77
     6
 78
     2
 67
     7
 79
     5
170
     0
171
     0
290
     0
174
     0
 93
        1
 44
0.0
173
     0
291
     0
 45
0.0
1001
ACAD
1000
AcDbSavedByObjectVersion
1070
     0
  0
VISUALSTYLE
  5
32
102
{ACAD_REACTORS
330
2A
102
}
330
2A
100
AcDbVisualStyle
  2
Basic
 70
     7
 71
     1
 72
     0
 73
     1
 90
        0
 40
-0.6
 41
-30.0
 62
     5
 63
     7
 74
     0
 91
        4
 64
     7
 65
   257
 75
     1
175
     1
 42
1.0
 92
        8
 66
     7
 43
1.0
 76
     1
 77
     6
 78
     2
 67
     7
 79
     5
170
     0
171
     0
290
     0
174
     0
 93
        1
 44
0.0
173
     0
291
     1
 45
0.0
1001
ACAD
1000
AcDbSavedByObjectVersion
1070
     0
  0
VISUALSTYLE
  5
36
102
{ACAD_REACTORS
330
2A
102
}
330
2A
100
AcDbVisualStyle
  2
Brighten
 70
    12
 71
     2
 72
     2
 73
     0
 90
        0
 40
-0.6
 41
-30.0
 62
     5
 63
     7
 74
     1
 91
        4
 64
     7
 65
   257
 75
     1
175
     1
 42
1.0
 92
        8
 66
     7
 43
1.0
 76
     1
 77
     6
 78
     2
 67
     7
 79
     5
170
     0
171
     0
290
     0
174
     0
 93
        1
 44
50.0
173
     0
291
     1
 45
0.0
1001
ACAD
1000
AcDbSavedByObjectVersion
1070
     0
  0
VISUALSTYLE
  5
3A
102
{ACAD_REACTORS
330
2A
102
}
330
2A
100
AcDbVisualStyle
  2
ColorChange
 70
    16
 71
     2
 72
     2
 73
     3
 90
        0
 40
-0.6
 41
-30.0
 62
     5
 63
     8
 74
     1
 91
        4
 64
     7
 65
   257
 75
     1
175
     1
 42
1.0
 92
        8
 66
     8
 43
1.0
 76
     1
 77
     6
 78
     2
 67
     7
 79
     5
170
     0
171
     0
290
     0
174
     0
 93
        1
 44
0.0
173
     0
291
     1
 45
0.0
1001
ACAD
1000
AcDbSavedByObjectVersion
1070
     0
  0
VISUALSTYLE
  5
34
102
{ACAD_REACTORS
330
2A
102
}
330
2A
100
AcDbVisualStyle
  2
Conceptual
 70
     9
 71
     3
 72
     2
 73
     0
 90
        0
 40
-0.6
 41
-30.0
 62
     5
 63
     7
 74
     2
 91
        2
 64
     7
 65
   257
 75
     1
175
     1
 42
40.0
 92
        8
 66
     7
 43
1.0
 76
     1
 77
     6
 78
     2
 67
     7
 79
     3
170
     0
171
     0
290
     0
174
     0
 93
        1
 44
0.0
173
     0
291
     0
 45
0.0
1001
ACAD
1000
AcDbSavedByObjectVersion
1070
     0
  0
VISUALSTYLE
  5
35
102
{ACAD_REACTORS
330
2A
102
}
330
2A
100
AcDbVisualStyle
  2
Dim
 70
    11
 71
     2
 72
     2
 73
     0
 90
        0
 40
-0.6
 41
-30.0
 62
     5
 63
     7
 74
     1
 91
        4
 64
     7
 65
   257
 75
     1
175
     1
 42
1.0
 92
        8
 66
     7
 43
1.0
 76
     1
 77
     6
 78
     2
 67
     7
 79
     5
170
     0
171
     0
290
     0
174
     0
 93
        1
 44
-50.0
173
     0
291
     1
 45
0.0
1001
ACAD
1000
AcDbSavedByObjectVersion
1070
     0
  0
VISUALSTYLE
  5
39
102
{ACAD_REACTORS
330
2A
102
}
330
2A
100
AcDbVisualStyle
  2
Facepattern
 70
    15
 71
     2
 72
     2
 73
     0
 90
        0
 40
-0.6
 41
-30.0
 62
     5
 63
     7
 74
     1
 91
        4
 64
     7
 65
   257
 75
     1
175
     1
 42
1.0
 92
        8
 66
     7
 43
1.0
 76
     1
 77
     6
 78
     2
 67
     7
 79
     5
170
     0
171
     0
290
     0
174
     0
 93
        1
 44
0.0
173
     0
291
     1
 45
0.0
1001
ACAD
1000
AcDbSavedByObjectVersion
1070
     0
  0
VISUALSTYLE
  5
2B
102
{ACAD_REACTORS
330
2A
102
}
330
2A
100
AcDbVisualStyle
  2
Flat
 70
     0
 71
     2
 72
     1
 73
     1
 90
        2
 40
-0.6
 41
30.0
 62
     5
 63
     7
 74
     0
 91
        4
 64
     7
 65
   257
 75
     1
175
     1
 42
1.0
 92
        8
 66
     7
 43
1.0
 76
     1
 77
     6
 78
     2
 67
     7
 79
     5
170
     0
171
     0
290
     0
174
     0
 93
       13
 44
0.0
173
     0
291
     1
 45
0.0
1001
ACAD
1000
AcDbSavedByObjectVersion
1070
     0
  0
VISUALSTYLE
  5
2C
102
{ACAD_REACTORS
330
2A
102
}
330
2A
100
AcDbVisualStyle
  2
FlatWithEdges
 70
     1
 71
     2
 72
     1
 73
     1
 90
        2
 40
-0.6
 41
30.0
 62
     5
 63
     7
 74
     1
 91
        4
 64
     7
 65
   257
 75
     1
175
     1
 42
1.0
 92
        0
 66
   257
 43
1.0
 76
     1
 77
     6
 78
     2
 67
     7
 79
     5
170
     0
171
     0
290
     0
174
     0
 93
       13
 44
0.0
173
     0
291
     1
 45
0.0
1001
ACAD
1000
AcDbSavedByObjectVersion
1070
     0
  0
VISUALSTYLE
  5
2D
102
{ACAD_REACTORS
330
2A
102
}
330
2A
100
AcDbVisualStyle
  2
Gouraud
 70
     2
 71
     2
 72
     2
 73
     1
 90
        2
 40
-0.6
 41
30.0
 62
     5
 63
     7
 74
     0
 91
        4
 64
     7
 65
   257
 75
     1
175
     1
 42
1.0
 92
        0
 66
     7
 43
1.0
 76
     1
 77
     6
 78
     2
 67
     7
 79
     5
170
     0
171
     0
290
     0
174
     0
 93
       13
 44
0.0
173
     0
291
     1
 45
0.0
1001
ACAD
1000
AcDbSavedByObjectVersion
1070
     0
  0
VISUALSTYLE
  5
2E
102
{ACAD_REACTORS
330
2A
102
}
330
2A
100
AcDbVisualStyle
  2
GouraudWithEdges
 70
     3
 71
     2
 72
     2
 73
     1
 90
        2
 40
-0.6
 41
30.0
 62
     5
 63
     7
 74
     1
 91
        4
 64
     7
 65
   257
 75
     1
175
     1
 42
1.0
 92
        0
 66
   257
 43
1.0
 76
     1
 77
     6
 78
     2
 67
     7
 79
     5
170
     0
171
     0
290
     0
174
     0
 93
       13
 44
0.0
173
     0
291
     1
 45
0.0
1001
ACAD
1000
AcDbSavedByObjectVersion
1070
     0
  0
VISUALSTYLE
  5
38
102
{ACAD_REACTORS
330
2A
102
}
330
2A
100
AcDbVisualStyle
  2
Linepattern
 70
    14
 71
     2
 72
     2
 73
     0
 90
        0
 40
-0.6
 41
-30.0
 62
     5
 63
     7
 74
     1
 91
        4
 64
     7
 65
   257
 75
     7
175
     7
 42
1.0
 92
        8
 66
     7
 43
1.0
 76
     1
 77
     6
 78
     2
 67
     7
 79
     5
170
     0
171
     0
290
     0
174
     0
 93
        1
 44
0.0
173
     0
291
     1
 45
0.0
1001
ACAD
1000
AcDbSavedByObjectVersion
1070
     0
  0
VISUALSTYLE
  5
33
102
{ACAD_REACTORS
330
2A
102
}
330
2A
100
AcDbVisualStyle
  2
Realistic
 70
     8
 71
     2
 72
     2
 73
     0
 90
        0
 40
-0.6
 41
-30.0
 62
     5
 63
     7
 74
     1
 91
        0
 64
     7
 65
   257
 75
     1
175
     1
 42
1.0
 92
        8
 66
     8
 43
1.0
 76
     1
 77
     6
 78
     2
 67
     7
 79
     5
170
     0
171
     0
290
     0
174
     0
 93
       13
 44
0.0
173
     0
291
     0
 45
0.0
1001
ACAD
1000
AcDbSavedByObjectVersion
1070
     0
  0
VISUALSTYLE
  5
37
102
{ACAD_REACTORS
330
2A
102
}
330
2A
100
AcDbVisualStyle
  2
Thicken
 70
    13
 71
     2
 72
     2
 73
     0
 90
        0
 40
-0.6
 41
-30.0
 62
     5
 63
     7
 74
     1
 91
        4
 64
     7
 65
   257
 75
     1
175
     1
 42
1.0
 92
       12
 66
     7
 43
1.0
 76
     1
 77
     6
 78
     2
 67
     7
 79
     5
170
     0
171
     0
290
     0
174
     0
 93
        1
 44
0.0
173
     0
291
     1
 45
0.0
1001
ACAD
1000
AcDbSavedByObjectVersion
1070
     0
  0
ENDSEC
  0
EOF
