  0
SECTION
  2
HEADER
  9
$ACADVER
  1
AC1015
  9
$ACADMAINTVER
 70
     6
  9
$DWGCODEPAGE
  3
ANSI_1252
  9
$INSBASE
 10
0.0
 20
0.0
 30
0.0
  9
$EXTMIN
 10
36.5116316009474
 20
46.44312350083271
 30
0.0
  9
$EXTMAX
 10
277.6841004306734
 20
367.7613556094439
 30
0.0
  9
$LIMMIN
 10
0.0
 20
0.0
  9
$LIMMAX
 10
12.0
 20
9.0
  9
$ORTHOMODE
 70
     0
  9
$REGENMODE
 70
     1
  9
$FILLMODE
 70
     1
  9
$QTEXTMODE
 70
     0
  9
$MIRRTEXT
 70
     1
  9
$LTSCALE
 40
1.0
  9
$ATTMODE
 70
     1
  9
$TEXTSIZE
 40
0.2
  9
$TRACEWID
 40
0.05
  9
$TEXTSTYLE
  7
Standard
  9
$CLAYER
  8
0
  9
$CELTYPE
  6
ByLayer
  9
$CECOLOR
 62
   256
  9
$CELTSCALE
 40
1.0
  9
$DISPSILH
 70
     0
  9
$DIMSCALE
 40
1.0
  9
$DIMASZ
 40
0.18
  9
$DIMEXO
 40
0.0625
  9
$DIMDLI
 40
0.38
  9
$DIMRND
 40
0.0
  9
$DIMDLE
 40
0.0
  9
$DIMEXE
 40
0.18
  9
$DIMTP
 40
0.0
  9
$DIMTM
 40
0.0
  9
$DIMTXT
 40
0.18
  9
$DIMCEN
 40
0.09
  9
$DIMTSZ
 40
0.0
  9
$DIMTOL
 70
     0
  9
$DIMLIM
 70
     0
  9
$DIMTIH
 70
     1
  9
$DIMTOH
 70
     1
  9
$DIMSE1
 70
     0
  9
$DIMSE2
 70
     0
  9
$DIMTAD
 70
     0
  9
$DIMZIN
 70
     0
  9
$DIMBLK
  1

  9
$DIMASO
 70
     1
  9
$DIMSHO
 70
     1
  9
$DIMPOST
  1

  9
$DIMAPOST
  1

  9
$DIMALT
 70
     0
  9
$DIMALTD
 70
     2
  9
$DIMALTF
 40
25.4
  9
$DIMLFAC
 40
1.0
  9
$DIMTOFL
 70
     0
  9
$DIMTVP
 40
0.0
  9
$DIMTIX
 70
     0
  9
$DIMSOXD
 70
     0
  9
$DIMSAH
 70
     0
  9
$DIMBLK1
  1

  9
$DIMBLK2
  1

  9
$DIMSTYLE
  2
Standard
  9
$DIMCLRD
 70
     0
  9
$DIMCLRE
 70
     0
  9
$DIMCLRT
 70
     0
  9
$DIMTFAC
 40
1.0
  9
$DIMGAP
 40
0.09
  9
$DIMJUST
 70
     0
  9
$DIMSD1
 70
     0
  9
$DIMSD2
 70
     0
  9
$DIMTOLJ
 70
     1
  9
$DIMTZIN
 70
     0
  9
$DIMALTZ
 70
     0
  9
$DIMALTTZ
 70
     0
  9
$DIMUPT
 70
     0
  9
$DIMDEC
 70
     4
  9
$DIMTDEC
 70
     4
  9
$DIMALTU
 70
     2
  9
$DIMALTTD
 70
     2
  9
$DIMTXSTY
  7
Standard
  9
$DIMAUNIT
 70
     0
  9
$DIMADEC
 70
     0
  9
$DIMALTRND
 40
0.0
  9
$DIMAZIN
 70
     0
  9
$DIMDSEP
 70
    46
  9
$DIMATFIT
 70
     3
  9
$DIMFRAC
 70
     0
  9
$DIMLDRBLK
  1

  9
$DIMLUNIT
 70
     2
  9
$DIMLWD
 70
    -2
  9
$DIMLWE
 70
    -2
  9
$DIMTMOVE
 70
     0
  9
$LUNITS
 70
     2
  9
$LUPREC
 70
     4
  9
$SKETCHINC
 40
0.1
  9
$FILLETRAD
 40
0.5
  9
$AUNITS
 70
     0
  9
$AUPREC
 70
     0
  9
$MENU
  1
.
  9
$ELEVATION
 40
0.0
  9
$PELEVATION
 40
0.0
  9
$THICKNESS
 40
0.0
  9
$LIMCHECK
 70
     0
  9
$CHAMFERA
 40
0.5
  9
$CHAMFERB
 40
0.5
  9
$CHAMFERC
 40
1.0
  9
$CHAMFERD
 40
0.0
  9
$SKPOLY
 70
     0
  9
$TDCREATE
 40
2456911.476133426
  9
$TDUCREATE
 40
2456911.101133426
  9
$TDUPDATE
 40
2456911.476133437
  9
$TDUUPDATE
 40
2456911.101133437
  9
$TDINDWG
 40
0.0000000116
  9
$TDUSRTIMER
 40
0.0000000116
  9
$USRTIMER
 70
     1
  9
$ANGBASE
 50
0.0
  9
$ANGDIR
 70
     0
  9
$PDMODE
 70
     0
  9
$PDSIZE
 40
0.0
  9
$PLINEWID
 40
0.0
  9
$SPLFRAME
 70
     0
  9
$SPLINETYPE
 70
     6
  9
$SPLINESEGS
 70
     8
  9
$HANDSEED
  5
5B2
  9
$SURFTAB1
 70
     6
  9
$SURFTAB2
 70
     6
  9
$SURFTYPE
 70
     6
  9
$SURFU
 70
     6
  9
$SURFV
 70
     6
  9
$UCSBASE
  2

  9
$UCSNAME
  2

  9
$UCSORG
 10
0.0
 20
0.0
 30
0.0
  9
$UCSXDIR
 10
1.0
 20
0.0
 30
0.0
  9
$UCSYDIR
 10
0.0
 20
1.0
 30
0.0
  9
$UCSORTHOREF
  2

  9
$UCSORTHOVIEW
 70
     0
  9
$UCSORGTOP
 10
0.0
 20
0.0
 30
0.0
  9
$UCSORGBOTTOM
 10
0.0
 20
0.0
 30
0.0
  9
$UCSORGLEFT
 10
0.0
 20
0.0
 30
0.0
  9
$UCSORGRIGHT
 10
0.0
 20
0.0
 30
0.0
  9
$UCSORGFRONT
 10
0.0
 20
0.0
 30
0.0
  9
$UCSORGBACK
 10
0.0
 20
0.0
 30
0.0
  9
$PUCSBASE
  2

  9
$PUCSNAME
  2

  9
$PUCSORG
 10
0.0
 20
0.0
 30
0.0
  9
$PUCSXDIR
 10
1.0
 20
0.0
 30
0.0
  9
$PUCSYDIR
 10
0.0
 20
1.0
 30
0.0
  9
$PUCSORTHOREF
  2

  9
$PUCSORTHOVIEW
 70
     0
  9
$PUCSORGTOP
 10
0.0
 20
0.0
 30
0.0
  9
$PUCSORGBOTTOM
 10
0.0
 20
0.0
 30
0.0
  9
$PUCSORGLEFT
 10
0.0
 20
0.0
 30
0.0
  9
$PUCSORGRIGHT
 10
0.0
 20
0.0
 30
0.0
  9
$PUCSORGFRONT
 10
0.0
 20
0.0
 30
0.0
  9
$PUCSORGBACK
 10
0.0
 20
0.0
 30
0.0
  9
$USERI1
 70
     0
  9
$USERI2
 70
     0
  9
$USERI3
 70
     0
  9
$USERI4
 70
     0
  9
$USERI5
 70
     0
  9
$USERR1
 40
16.0
  9
$USERR2
 40
0.0
  9
$USERR3
 40
0.0
  9
$USERR4
 40
0.0
  9
$USERR5
 40
0.0
  9
$WORLDVIEW
 70
     1
  9
$SHADEDGE
 70
     3
  9
$SHADEDIF
 70
    70
  9
$TILEMODE
 70
     1
  9
$MAXACTVP
 70
    64
  9
$PINSBASE
 10
0.0
 20
0.0
 30
0.0
  9
$PLIMCHECK
 70
     0
  9
$PEXTMIN
 10
1.00000000000000E+20
 20
1.00000000000000E+20
 30
1.00000000000000E+20
  9
$PEXTMAX
 10
-1.00000000000000E+20
 20
-1.00000000000000E+20
 30
-1.00000000000000E+20
  9
$PLIMMIN
 10
0.0
 20
0.0
  9
$PLIMMAX
 10
12.0
 20
9.0
  9
$UNITMODE
 70
     0
  9
$VISRETAIN
 70
     1
  9
$PLINEGEN
 70
     0
  9
$PSLTSCALE
 70
     1
  9
$TREEDEPTH
 70
  3020
  9
$CMLSTYLE
  2
Standard
  9
$CMLJUST
 70
     0
  9
$CMLSCALE
 40
1.0
  9
$PROXYGRAPHICS
 70
     1
  9
$MEASUREMENT
 70
     1
  9
$CELWEIGHT
370
    -1
  9
$ENDCAPS
280
     0
  9
$JOINSTYLE
280
     0
  9
$LWDISPLAY
290
     0
  9
$INSUNITS
 70
     1
  9
$HYPERLINKBASE
  1

  9
$STYLESHEET
  1

  9
$XEDIT
290
     1
  9
$CEPSNTYPE
380
     0
  9
$PSTYLEMODE
290
     1
  9
$FINGERPRINTGUID
  2
{4EC4A28C-F7CD-4E32-B473-820CE6C2039F}
  9
$VERSIONGUID
  2
{FAEB1C32-E019-11D5-929B-00C0DF256EC4}
  9
$EXTNAMES
290
     1
  9
$PSVPSCALE
 40
0.0
  9
$OLESTARTUP
290
     0
  0
ENDSEC
  0
SECTION
  2
CLASSES
  0
CLASS
  1
ACDBDICTIONARYWDFLT
  2
AcDbDictionaryWithDefault
  3
ObjectDBX Classes
 90
        0
280
     0
281
     0
  0
CLASS
  1
VISUALSTYLE
  2
AcDbVisualStyle
  3
ObjectDBX Classes
 90
     4095
280
     0
281
     0
  0
CLASS
  1

  2
exOdDbCircle
  3

 90
        0
280
     0
281
     1
  0
CLASS
  1

  2
exOdDbSpline
  3

 90
        0
280
     0
281
     1
  0
CLASS
  1

  2
exOdDbPolyline
  3

 90
        0
280
     0
281
     1
  0
CLASS
  1
ACDBPLACEHOLDER
  2
AcDbPlaceHolder
  3
ObjectDBX Classes
 90
        0
280
     0
281
     0
  0
CLASS
  1
LAYOUT
  2
AcDbLayout
  3
ObjectDBX Classes
 90
        0
280
     0
281
     0
  0
ENDSEC
  0
SECTION
  2
TABLES
  0
TABLE
  2
VPORT
  5
8
330
0
100
AcDbSymbolTable
 70
     1
  0
VPORT
  5
29
330
8
100
AcDbSymbolTableRecord
100
AcDbViewportTableRecord
  2
*Active
 70
     0
 10
0.0
 20
0.0
 11
1.0
 21
1.0
 12
157.0978660158104
 22
207.1022395551383
 13
0.0
 23
0.0
 14
0.5
 24
0.5
 15
0.5
 25
0.5
 16
0.0
 26
0.0
 36
1.0
 17
0.0
 27
0.0
 37
0.0
 40
353.4500553194724
 41
1.60267857142857
 42
50.0
 43
0.0
 44
0.0
 50
0.0
 51
0.0
 71
     0
 72
   100
 73
     1
 74
     3
 75
     0
 76
     0
 77
     0
 78
     0
281
     0
 65
     1
110
0.0
120
0.0
130
0.0
111
1.0
121
0.0
131
0.0
112
0.0
122
1.0
132
0.0
 79
     0
146
0.0
  0
ENDTAB
  0
TABLE
  2
LTYPE
  5
5
330
0
100
AcDbSymbolTable
 70
     8
  0
LTYPE
  5
14
330
5
100
AcDbSymbolTableRecord
100
AcDbLinetypeTableRecord
  2
ByBlock
 70
     0
  3

 72
    65
 73
     0
 40
0.0
  0
LTYPE
  5
15
330
5
100
AcDbSymbolTableRecord
100
AcDbLinetypeTableRecord
  2
ByLayer
 70
     0
  3

 72
    65
 73
     0
 40
0.0
  0
LTYPE
  5
16
330
5
100
AcDbSymbolTableRecord
100
AcDbLinetypeTableRecord
  2
Continuous
 70
     0
  3
Solid line
 72
    65
 73
     0
 40
0.0
  0
LTYPE
  5
3B
330
5
100
AcDbSymbolTableRecord
100
AcDbLinetypeTableRecord
  2
DASHED
 70
     0
  3
Dashed
 72
    65
 73
     2
 40
15.0
 49
7.0
 74
     0
 49
-8.0
 74
     0
  0
LTYPE
  5
3C
330
5
100
AcDbSymbolTableRecord
100
AcDbLinetypeTableRecord
  2
DOTTED
 70
     0
  3
Dotted
 72
    65
 73
     2
 40
1.0
 49
0.0
 74
     0
 49
-1.0
 74
     0
  0
LTYPE
  5
3D
330
5
100
AcDbSymbolTableRecord
100
AcDbLinetypeTableRecord
  2
DOT_CENTER
 70
     0
  3
Dot_Center
 72
    65
 73
     4
 40
14.0
 49
12.0
 74
     0
 49
-1.0
 74
     0
 49
0.0
 74
     0
 49
-1.0
 74
     0
  0
LTYPE
  5
3E
330
5
100
AcDbSymbolTableRecord
100
AcDbLinetypeTableRecord
  2
LONG_DASHED
 70
     0
  3
Long_Dashed
 72
    65
 73
     2
 40
15.0
 49
10.0
 74
     0
 49
-5.0
 74
     0
  0
LTYPE
  5
3F
330
5
100
AcDbSymbolTableRecord
100
AcDbLinetypeTableRecord
  2
DASH_CENTER
 70
     0
  3
Dash_Center
 72
    65
 73
     4
 40
14.0
 49
11.0
 74
     0
 49
-1.0
 74
     0
 49
1.0
 74
     0
 49
-1.0
 74
     0
  0
LTYPE
  5
40
330
5
100
AcDbSymbolTableRecord
100
AcDbLinetypeTableRecord
  2
PHANTOM
 70
     0
  3
Phantom
 72
    65
 73
     6
 40
13.0
 49
10.0
 74
     0
 49
-1.0
 74
     0
 49
0.0
 74
     0
 49
-1.0
 74
     0
 49
0.0
 74
     0
 49
-1.0
 74
     0
  0
LTYPE
  5
41
330
5
100
AcDbSymbolTableRecord
100
AcDbLinetypeTableRecord
  2
CENTER_DASH_DASH
 70
     0
  3
Center_Dash_Dash
 72
    65
 73
     6
 40
14.0
 49
9.0
 74
     0
 49
-1.0
 74
     0
 49
1.0
 74
     0
 49
-1.0
 74
     0
 49
1.0
 74
     0
 49
-1.0
 74
     0
  0
ENDTAB
  0
TABLE
  2
LAYER
  5
2
330
0
100
AcDbSymbolTable
 70
     2
  0
LAYER
  5
10
330
2
100
AcDbSymbolTableRecord
100
AcDbLayerTableRecord
  2
0
 70
     0
 62
     7
  6
Continuous
370
    -3
390
F
  0
LAYER
  5
42
330
2
100
AcDbSymbolTableRecord
100
AcDbLayerTableRecord
  2
1
 70
     0
 62
     7
  6
Continuous
370
    -3
390
F
  0
ENDTAB
  0
TABLE
  2
STYLE
  5
3
330
0
100
AcDbSymbolTable
 70
     2
  0
STYLE
  5
11
330
3
100
AcDbSymbolTableRecord
100
AcDbTextStyleTableRecord
  2
Standard
 70
     0
 40
0.0
 41
1.0
 50
0.0
 71
     0
 42
0.2
  3
txt
  4

  0
STYLE
  5
570
330
3
100
AcDbSymbolTableRecord
100
AcDbTextStyleTableRecord
  2
CONVERTER_11
 70
     0
 40
0.0
 41
0.9
 50
15.0
 71
     0
 42
0.2
  3
txt.shx
  4

  0
ENDTAB
  0
TABLE
  2
VIEW
  5
6
330
0
100
AcDbSymbolTable
 70
     0
  0
ENDTAB
  0
TABLE
  2
UCS
  5
7
330
0
100
AcDbSymbolTable
 70
     0
  0
ENDTAB
  0
TABLE
  2
APPID
  5
9
330
0
100
AcDbSymbolTable
 70
     1
  0
APPID
  5
12
330
9
100
AcDbSymbolTableRecord
100
AcDbRegAppTableRecord
  2
ACAD
 70
     0
  0
ENDTAB
  0
TABLE
  2
DIMSTYLE
  5
A
330
0
100
AcDbSymbolTable
 70
     6
100
AcDbDimStyleTable
  0
DIMSTYLE
105
27
330
A
100
AcDbSymbolTableRecord
100
AcDbDimStyleTableRecord
  2
Standard
 70
     0
340
11
  0
DIMSTYLE
105
57A
102
{ACAD_REACTORS
330
57B
102
}
330
A
100
AcDbSymbolTableRecord
100
AcDbDimStyleTableRecord
  2
ME10_DIM_10
 70
     0
 41
3.0
 42
0.5
 44
1.0
 73
     0
 74
     0
 77
     1
 78
     8
140
3.0
147
0.8
172
     1
173
     1
176
     2
177
     2
178
     2
271
     2
340
570
343
574
344
574
  0
DIMSTYLE
105
587
102
{ACAD_REACTORS
330
588
102
}
330
A
100
AcDbSymbolTableRecord
100
AcDbDimStyleTableRecord
  2
ME10_DIM_11
 70
     0
  3
(<>)
 41
3.2
 42
0.5
 44
1.5
 73
     0
 74
     0
 77
     1
 78
     8
140
3.2
147
1.0
172
     1
173
     1
176
     2
177
     2
178
     2
271
     2
340
570
343
574
344
574
  0
DIMSTYLE
105
594
102
{ACAD_REACTORS
330
595
102
}
330
A
100
AcDbSymbolTableRecord
100
AcDbDimStyleTableRecord
  2
ME10_DIM_12
 70
     0
 41
3.2
 42
0.5
 44
1.5
 73
     0
 74
     0
 77
     1
 78
     8
140
3.2
147
1.0
172
     1
173
     1
176
     2
177
     2
178
     2
271
     2
340
570
343
574
344
574
  0
DIMSTYLE
105
5A1
102
{ACAD_REACTORS
330
5A2
102
}
330
A
100
AcDbSymbolTableRecord
100
AcDbDimStyleTableRecord
  2
ME10_DIM_13
 70
     0
 41
3.0
 42
0.5
 44
1.0
 73
     0
 74
     0
 77
     1
 78
     8
140
3.0
147
0.8
172
     1
173
     1
176
     2
177
     2
178
     2
271
     2
340
570
343
574
344
574
  0
DIMSTYLE
105
5AE
102
{ACAD_REACTORS
330
5AF
102
}
330
A
100
AcDbSymbolTableRecord
100
AcDbDimStyleTableRecord
  2
ME10_DIM_14
 70
     0
 41
3.0
 42
0.5
 44
1.0
 73
     0
 74
     0
 77
     1
 78
     8
140
3.0
147
0.8
172
     1
173
     1
176
     2
177
     2
178
     2
271
     2
340
570
343
574
344
574
  0
ENDTAB
  0
TABLE
  2
BLOCK_RECORD
  5
1
330
0
100
AcDbSymbolTable
 70
     7
  0
BLOCK_RECORD
  5
1F
330
1
100
AcDbSymbolTableRecord
100
AcDbBlockTableRecord
  2
*Model_Space
340
22
  0
BLOCK_RECORD
  5
1B
330
1
100
AcDbSymbolTableRecord
100
AcDbBlockTableRecord
  2
*Paper_Space
340
1E
  0
BLOCK_RECORD
  5
23
330
1
100
AcDbSymbolTableRecord
100
AcDbBlockTableRecord
  2
*Paper_Space0
340
26
  0
BLOCK_RECORD
  5
568
330
1
100
AcDbSymbolTableRecord
100
AcDbBlockTableRecord
  2
*D1
340
0
  0
BLOCK_RECORD
  5
574
330
1
100
AcDbSymbolTableRecord
100
AcDbBlockTableRecord
  2
_OPEN30
340
0
  0
BLOCK_RECORD
  5
57C
330
1
100
AcDbSymbolTableRecord
100
AcDbBlockTableRecord
  2
*D3
340
0
  0
BLOCK_RECORD
  5
589
330
1
100
AcDbSymbolTableRecord
100
AcDbBlockTableRecord
  2
*D4
340
0
  0
BLOCK_RECORD
  5
596
330
1
100
AcDbSymbolTableRecord
100
AcDbBlockTableRecord
  2
*D5
340
0
  0
BLOCK_RECORD
  5
5A3
330
1
100
AcDbSymbolTableRecord
100
AcDbBlockTableRecord
  2
*D6
340
0
  0
ENDTAB
  0
ENDSEC
  0
SECTION
  2
BLOCKS
  0
BLOCK
  5
20
330
1F
100
AcDbEntity
  8
0
100
AcDbBlockBegin
  2
*Model_Space
 70
     0
 10
0.0
 20
0.0
 30
0.0
  3
*Model_Space
  1

  0
ENDBLK
  5
21
330
1F
100
AcDbEntity
  8
0
100
AcDbBlockEnd
  0
BLOCK
  5
1C
330
1B
100
AcDbEntity
 67
     1
  8
0
100
AcDbBlockBegin
  2
*Paper_Space
 70
     0
 10
0.0
 20
0.0
 30
0.0
  3
*Paper_Space
  1

  0
ENDBLK
  5
1D
330
1B
100
AcDbEntity
 67
     1
  8
0
100
AcDbBlockEnd
  0
BLOCK
  5
24
330
23
100
AcDbEntity
  8
0
100
AcDbBlockBegin
  2
*Paper_Space0
 70
     0
 10
0.0
 20
0.0
 30
0.0
  3
*Paper_Space0
  1

  0
ENDBLK
  5
25
330
23
100
AcDbEntity
  8
0
100
AcDbBlockEnd
  0
BLOCK
  5
572
330
568
100
AcDbEntity
  8
0
100
AcDbBlockBegin
  2
*D1
 70
     1
 10
0.0
 20
0.0
 30
0.0
  3
*D1
  1

  0
LINE
  5
569
330
568
100
AcDbEntity
  8
1
  6
Continuous
 62
     2
100
AcDbLine
 10
268.609096659924
 20
155.9431235008327
 30
0.0
 11
268.609096659924
 21
120.9431235008327
 31
0.0
  0
LINE
  5
56A
330
568
100
AcDbEntity
  8
1
  6
Continuous
 62
     2
100
AcDbLine
 10
263.5116316009473
 20
155.9431235008327
 30
0.0
 11
269.609096659924
 21
155.9431235008327
 31
0.0
  0
LINE
  5
56B
330
568
100
AcDbEntity
  8
1
  6
Continuous
 62
     2
100
AcDbLine
 10
185.9975600051384
 20
120.9431235008327
 30
0.0
 11
269.609096659924
 21
120.9431235008327
 31
0.0
  0
LINE
  5
56C
330
568
100
AcDbEntity
  8
1
 62
     2
100
AcDbLine
 10
268.609096659924
 20
155.9431235008327
 30
0.0
 11
269.4129442372174
 21
152.9431235008327
 31
0.0
  0
LINE
  5
56D
330
568
100
AcDbEntity
  8
1
 62
     2
100
AcDbLine
 10
268.609096659924
 20
155.9431235008327
 30
0.0
 11
267.8052490826307
 21
152.9431235008327
 31
0.0
  0
LINE
  5
56E
330
568
100
AcDbEntity
  8
1
 62
     2
100
AcDbLine
 10
268.609096659924
 20
120.9431235008327
 30
0.0
 11
267.8052490826307
 21
123.9431235008327
 31
0.0
  0
LINE
  5
56F
330
568
100
AcDbEntity
  8
1
 62
     2
100
AcDbLine
 10
268.609096659924
 20
120.9431235008327
 30
0.0
 11
269.4129442372174
 21
123.9431235008327
 31
0.0
  0
MTEXT
  5
571
330
568
100
AcDbEntity
  8
1
 62
     2
100
AcDbMText
 10
267.809096659924
 20
135.791199712186
 30
0.0
 40
3.0
 41
0.0
 71
     7
 72
     1
  1
35
  7
CONVERTER_11
 11
0.0
 21
1.0
 31
0.0
 73
     1
 44
0.45454545454545
  0
ENDBLK
  5
573
330
568
100
AcDbEntity
  8
0
100
AcDbBlockEnd
  0
BLOCK
  5
575
330
574
100
AcDbEntity
  8
0
100
AcDbBlockBegin
  2
_OPEN30
 70
     0
 10
0.0
 20
0.0
 30
0.0
  3
_OPEN30
  1

  0
LINE
  5
577
330
574
100
AcDbEntity
  8
0
  6
ByBlock
 62
     0
370
    -2
100
AcDbLine
 10
-1.0
 20
0.267949
 30
0.0
 11
0.0
 21
0.0
 31
0.0
  0
LINE
  5
578
330
574
100
AcDbEntity
  8
0
  6
ByBlock
 62
     0
370
    -2
100
AcDbLine
 10
0.0
 20
0.0
 30
0.0
 11
-1.0
 21
-0.267949
 31
0.0
  0
LINE
  5
579
330
574
100
AcDbEntity
  8
0
  6
ByBlock
 62
     0
370
    -2
100
AcDbLine
 10
0.0
 20
0.0
 30
0.0
 11
-1.0
 21
0.0
 31
0.0
  0
ENDBLK
  5
576
330
574
100
AcDbEntity
  8
0
100
AcDbBlockEnd
  0
BLOCK
  5
585
330
57C
100
AcDbEntity
  8
0
100
AcDbBlockBegin
  2
*D3
 70
     1
 10
0.0
 20
0.0
 30
0.0
  3
*D3
  1

  0
LINE
  5
57D
330
57C
100
AcDbEntity
  8
1
  6
Continuous
 62
     2
100
AcDbLine
 10
276.1841004306734
 20
228.3531235008329
 30
0.0
 11
276.1841004306734
 21
120.9431235008327
 31
0.0
  0
LINE
  5
57E
330
57C
100
AcDbEntity
  8
1
  6
Continuous
 62
     2
100
AcDbLine
 10
116.9975600051383
 20
228.3531235008329
 30
0.0
 11
277.6841004306734
 21
228.3531235008329
 31
0.0
  0
LINE
  5
57F
330
57C
100
AcDbEntity
  8
1
  6
Continuous
 62
     2
100
AcDbLine
 10
185.9975600051384
 20
120.9431235008327
 30
0.0
 11
277.6841004306734
 21
120.9431235008327
 31
0.0
  0
LINE
  5
580
330
57C
100
AcDbEntity
  8
1
 62
     2
100
AcDbLine
 10
276.1841004306734
 20
228.3531235008329
 30
0.0
 11
277.041537846453
 21
225.1531235008329
 31
0.0
  0
LINE
  5
581
330
57C
100
AcDbEntity
  8
1
 62
     2
100
AcDbLine
 10
276.1841004306734
 20
228.3531235008329
 30
0.0
 11
275.3266630148938
 21
225.1531235008329
 31
0.0
  0
LINE
  5
582
330
57C
100
AcDbEntity
  8
1
 62
     2
100
AcDbLine
 10
276.1841004306734
 20
120.9431235008327
 30
0.0
 11
275.3266630148938
 21
124.1431235008327
 31
0.0
  0
LINE
  5
583
330
57C
100
AcDbEntity
  8
1
 62
     2
100
AcDbLine
 10
276.1841004306734
 20
120.9431235008327
 30
0.0
 11
277.041537846453
 21
124.1431235008327
 31
0.0
  0
MTEXT
  5
584
330
57C
100
AcDbEntity
  8
1
 62
     2
100
AcDbMText
 10
275.1841004306734
 20
168.235404792943
 30
0.0
 40
3.2
 41
0.0
 71
     7
 72
     1
  1
\C2;(\C2;108\C2;)
  7
CONVERTER_11
 11
0.0
 21
1.0
 31
0.0
 73
     1
 44
0.45454545454545
  0
ENDBLK
  5
586
330
57C
100
AcDbEntity
  8
0
100
AcDbBlockEnd
  0
BLOCK
  5
592
330
589
100
AcDbEntity
  8
0
100
AcDbBlockBegin
  2
*D4
 70
     1
 10
0.0
 20
0.0
 30
0.0
  3
*D4
  1

  0
LINE
  5
58A
330
589
100
AcDbEntity
  8
1
  6
Continuous
 62
     2
100
AcDbLine
 10
242.9881951209511
 20
185.8573370632058
 30
0.0
 11
257.9975600051331
 21
185.8573370632058
 31
0.0
  0
LINE
  5
58B
330
589
100
AcDbEntity
  8
1
  6
Continuous
 62
     2
100
AcDbLine
 10
242.9881951209511
 20
174.9431235008328
 30
0.0
 11
242.9881951209511
 21
187.3573370632058
 31
0.0
  0
LINE
  5
58C
330
589
100
AcDbEntity
  8
1
  6
Continuous
 62
     2
100
AcDbLine
 10
257.9975600051331
 20
174.9431235008357
 30
0.0
 11
257.9975600051331
 21
187.3573370632058
 31
0.0
  0
LINE
  5
58D
330
589
100
AcDbEntity
  8
1
 62
     2
100
AcDbLine
 10
242.9881951209511
 20
185.8573370632058
 30
0.0
 11
246.1881951209511
 21
186.7147744789854
 31
0.0
  0
LINE
  5
58E
330
589
100
AcDbEntity
  8
1
 62
     2
100
AcDbLine
 10
242.9881951209511
 20
185.8573370632058
 30
0.0
 11
246.1881951209511
 21
184.9998996474262
 31
0.0
  0
LINE
  5
58F
330
589
100
AcDbEntity
  8
1
 62
     2
100
AcDbLine
 10
257.9975600051331
 20
185.8573370632058
 30
0.0
 11
254.7975600051331
 21
184.9998996474262
 31
0.0
  0
LINE
  5
590
330
589
100
AcDbEntity
  8
1
 62
     2
100
AcDbLine
 10
257.9975600051331
 20
185.8573370632058
 30
0.0
 11
254.7975600051331
 21
186.7147744789854
 31
0.0
  0
MTEXT
  5
591
330
589
100
AcDbEntity
  8
1
 62
     2
100
AcDbMText
 10
248.1441588551522
 20
186.8573370632058
 30
0.0
 40
3.2
 41
0.0
 71
     7
 72
     1
  1
15
  7
CONVERTER_11
 11
0.9999999999970619
 21
2.424068405545306E-6
 31
0.0
 73
     1
 44
0.45454545454545
  0
ENDBLK
  5
593
330
589
100
AcDbEntity
  8
0
100
AcDbBlockEnd
  0
BLOCK
  5
59F
330
596
100
AcDbEntity
  8
0
100
AcDbBlockBegin
  2
*D5
 70
     1
 10
0.0
 20
0.0
 30
0.0
  3
*D5
  1

  0
LINE
  5
597
330
596
100
AcDbEntity
  8
1
  6
Continuous
 62
     2
100
AcDbLine
 10
47.99756000513831
 20
102.7676219171508
 30
0.0
 11
257.9975600051382
 21
102.7676219171508
 31
0.0
  0
LINE
  5
598
330
596
100
AcDbEntity
  8
1
  6
Continuous
 62
     2
100
AcDbLine
 10
47.99756000513831
 20
136.9431235008327
 30
0.0
 11
47.99756000513831
 21
101.7676219171508
 31
0.0
  0
LINE
  5
599
330
596
100
AcDbEntity
  8
1
  6
Continuous
 62
     2
100
AcDbLine
 10
257.9975600051382
 20
136.9431235008327
 30
0.0
 11
257.9975600051382
 21
101.7676219171508
 31
0.0
  0
LINE
  5
59A
330
596
100
AcDbEntity
  8
1
 62
     2
100
AcDbLine
 10
47.99756000513831
 20
102.7676219171508
 30
0.0
 11
50.99756000513831
 21
103.5714694944442
 31
0.0
  0
LINE
  5
59B
330
596
100
AcDbEntity
  8
1
 62
     2
100
AcDbLine
 10
47.99756000513831
 20
102.7676219171508
 30
0.0
 11
50.99756000513831
 21
101.9637743398574
 31
0.0
  0
LINE
  5
59C
330
596
100
AcDbEntity
  8
1
 62
     2
100
AcDbLine
 10
257.9975600051382
 20
102.7676219171508
 30
0.0
 11
254.9975600051382
 21
101.9637743398574
 31
0.0
  0
LINE
  5
59D
330
596
100
AcDbEntity
  8
1
 62
     2
100
AcDbLine
 10
257.9975600051382
 20
102.7676219171508
 30
0.0
 11
254.9975600051382
 21
103.5714694944442
 31
0.0
  0
MTEXT
  5
59E
330
596
100
AcDbEntity
  8
1
 62
     2
100
AcDbMText
 10
149.4456362164915
 20
103.5676219171508
 30
0.0
 40
3.0
 41
0.0
 71
     7
 72
     1
  1
210
  7
CONVERTER_11
 11
0.9999999999970619
 21
2.424068405545306E-6
 31
0.0
 73
     1
 44
0.45454545454545
  0
ENDBLK
  5
5A0
330
596
100
AcDbEntity
  8
0
100
AcDbBlockEnd
  0
BLOCK
  5
5AC
330
5A3
100
AcDbEntity
  8
0
100
AcDbBlockBegin
  2
*D6
 70
     1
 10
0.0
 20
0.0
 30
0.0
  3
*D6
  1

  0
LINE
  5
5A4
330
5A3
100
AcDbEntity
  8
1
  6
Continuous
 62
     2
100
AcDbLine
 10
276.2669431431479
 20
365.0950646999914
 30
0.0
 11
276.2669431431479
 21
267.0950646999916
 31
0.0
  0
LINE
  5
5A5
330
5A3
100
AcDbEntity
  8
1
  6
Continuous
 62
     2
100
AcDbLine
 10
159.9975600051382
 20
365.0950646999914
 30
0.0
 11
277.2669431431479
 21
365.0950646999914
 31
0.0
  0
LINE
  5
5A6
330
5A3
100
AcDbEntity
  8
1
  6
Continuous
 62
     2
100
AcDbLine
 10
159.9975600051382
 20
267.0950646999916
 30
0.0
 11
277.2669431431479
 21
267.0950646999916
 31
0.0
  0
LINE
  5
5A7
330
5A3
100
AcDbEntity
  8
1
 62
     2
100
AcDbLine
 10
276.2669431431479
 20
365.0950646999914
 30
0.0
 11
277.0707907204413
 21
362.0950646999914
 31
0.0
  0
LINE
  5
5A8
330
5A3
100
AcDbEntity
  8
1
 62
     2
100
AcDbLine
 10
276.2669431431479
 20
365.0950646999914
 30
0.0
 11
275.4630955658545
 21
362.0950646999914
 31
0.0
  0
LINE
  5
5A9
330
5A3
100
AcDbEntity
  8
1
 62
     2
100
AcDbLine
 10
276.2669431431479
 20
267.0950646999916
 30
0.0
 11
275.4630955658545
 21
270.0950646999916
 31
0.0
  0
LINE
  5
5AA
330
5A3
100
AcDbEntity
  8
1
 62
     2
100
AcDbLine
 10
276.2669431431479
 20
267.0950646999916
 30
0.0
 11
277.0707907204413
 21
270.0950646999916
 31
0.0
  0
MTEXT
  5
5AB
330
5A3
100
AcDbEntity
  8
1
 62
     2
100
AcDbMText
 10
275.4669431431479
 20
313.4431409113447
 30
0.0
 40
3.0
 41
0.0
 71
     7
 72
     1
  1
98
  7
CONVERTER_11
 11
0.0
 21
1.0
 31
0.0
 73
     1
 44
0.45454545454545
  0
ENDBLK
  5
5AD
330
5A3
100
AcDbEntity
  8
0
100
AcDbBlockEnd
  0
ENDSEC
  0
SECTION
  2
ENTITIES
  0
LINE
  5
43
330
1F
100
AcDbEntity
  8
1
  6
Continuous
 62
     2
100
AcDbLine
 10
198.5441329295798
 20
47.00562350083271
 30
0.0
 11
203.2691329295798
 21
47.00562350083271
 31
0.0
  0
LINE
  5
44
330
1F
100
AcDbEntity
  8
1
  6
Continuous
 62
     2
100
AcDbLine
 10
201.0191329295798
 20
55.21812350083271
 30
0.0
 11
201.0191329295798
 21
47.00562350083271
 31
0.0
  0
LINE
  5
45
330
1F
100
AcDbEntity
  8
1
  6
Continuous
 62
     2
100
AcDbLine
 10
199.3316329295798
 20
51.84312350083271
 30
0.0
 11
202.8191329295798
 21
51.84312350083271
 31
0.0
  0
LINE
  5
46
330
1F
100
AcDbEntity
  8
1
  6
Continuous
 62
     2
100
AcDbLine
 10
197.7566329295798
 20
51.50562350083271
 30
0.0
 11
198.9941329295798
 21
50.15562350083271
 31
0.0
  0
LINE
  5
47
330
1F
100
AcDbEntity
  8
1
  6
Continuous
 62
     2
100
AcDbLine
 10
197.3066329295798
 20
53.53062350083271
 30
0.0
 11
197.3066329295798
 21
55.21812350083271
 31
0.0
  0
LINE
  5
48
330
1F
100
AcDbEntity
  8
1
  6
Continuous
 62
     2
100
AcDbLine
 10
198.5441329295798
 20
53.53062350083271
 30
0.0
 11
195.7316329295798
 21
53.53062350083271
 31
0.0
  0
LINE
  5
49
330
1F
100
AcDbEntity
  8
1
  6
Continuous
 62
     2
100
AcDbLine
 10
197.5316329295798
 20
52.06812350083271
 30
0.0
 11
198.5441329295798
 21
53.53062350083271
 31
0.0
  0
LINE
  5
4A
330
1F
100
AcDbEntity
  8
1
  6
Continuous
 62
     2
100
AcDbLine
 10
196.2941329295798
 20
50.71812350083271
 30
0.0
 11
197.5316329295798
 21
52.06812350083271
 31
0.0
  0
LINE
  5
4B
330
1F
100
AcDbEntity
  8
1
  6
Continuous
 62
     2
100
AcDbLine
 10
195.2816329295798
 20
49.81812350083271
 30
0.0
 11
196.2941329295798
 21
50.71812350083271
 31
0.0
  0
LINE
  5
4C
330
1F
100
AcDbEntity
  8
1
  6
Continuous
 62
     2
100
AcDbLine
 10
197.3066329295798
 20
46.78062350083271
 30
0.0
 11
197.3066329295798
 21
51.84312350083271
 31
0.0
  0
LINE
  5
4D
330
1F
100
AcDbEntity
  8
1
  6
Continuous
 62
     2
100
AcDbLine
 10
190.3316329295798
 20
49.81812350083271
 30
0.0
 11
187.7441329295798
 21
46.78062350083271
 31
0.0
  0
LINE
  5
4E
330
1F
100
AcDbEntity
  8
1
  6
Continuous
 62
     2
100
AcDbLine
 10
192.5816329295798
 20
47.34312350083271
 30
0.0
 11
191.5691329295798
 21
48.46812350083271
 31
0.0
  0
LINE
  5
4F
330
1F
100
AcDbEntity
  8
1
  6
Continuous
 62
     2
100
AcDbLine
 10
193.2566329295798
 20
46.44312350083271
 30
0.0
 11
192.5816329295798
 21
47.34312350083271
 31
0.0
  0
LINE
  5
50
330
1F
100
AcDbEntity
  8
1
  6
Continuous
 62
     2
100
AcDbLine
 10
187.0691329295798
 20
46.78062350083271
 30
0.0
 11
192.5816329295798
 21
47.34312350083271
 31
0.0
  0
LINE
  5
51
330
1F
100
AcDbEntity
  8
1
  6
Continuous
 62
     2
100
AcDbLine
 10
187.5191329295798
 20
50.15562350083271
 30
0.0
 11
193.2566329295798
 21
50.15562350083271
 31
0.0
  0
LINE
  5
52
330
1F
100
AcDbEntity
  8
1
  6
Continuous
 62
     2
100
AcDbLine
 10
188.5316329295798
 20
51.50562350083271
 30
0.0
 11
192.0191329295798
 21
51.50562350083271
 31
0.0
  0
LINE
  5
53
330
1F
100
AcDbEntity
  8
1
  6
Continuous
 62
     2
100
AcDbLine
 10
190.3316329295798
 20
55.21812350083271
 30
0.0
 11
194.2691329295798
 21
50.94312350083271
 31
0.0
  0
LINE
  5
54
330
1F
100
AcDbEntity
  8
1
  6
Continuous
 62
     2
100
AcDbLine
 10
190.3316329295798
 20
55.21812350083271
 30
0.0
 11
186.2816329295798
 21
50.94312350083271
 31
0.0
  0
LINE
  5
55
330
1F
100
AcDbEntity
  8
1
  6
Continuous
 62
     2
100
AcDbLine
 10
184.4816329295798
 20
46.78062350083271
 30
0.0
 11
185.2691329295798
 21
47.56812350083271
 31
0.0
  0
LINE
  5
56
330
1F
100
AcDbEntity
  8
1
  6
Continuous
 62
     2
100
AcDbLine
 10
183.5816329295798
 20
47.90562350083271
 30
0.0
 11
184.4816329295798
 21
46.78062350083271
 31
0.0
  0
LINE
  5
57
330
1F
100
AcDbEntity
  8
1
  6
Continuous
 62
     2
100
AcDbLine
 10
182.5691329295798
 20
49.81812350083271
 30
0.0
 11
183.5816329295798
 21
47.90562350083271
 31
0.0
  0
LINE
  5
58
330
1F
100
AcDbEntity
  8
1
  6
Continuous
 62
     2
100
AcDbLine
 10
182.0066329295798
 20
52.06812350083271
 30
0.0
 11
182.5691329295798
 21
49.81812350083271
 31
0.0
  0
LINE
  5
59
330
1F
100
AcDbEntity
  8
1
  6
Continuous
 62
     2
100
AcDbLine
 10
181.7816329295798
 20
55.44312350083271
 30
0.0
 11
182.0066329295798
 21
52.06812350083271
 31
0.0
  0
LINE
  5
5A
330
1F
100
AcDbEntity
  8
1
  6
Continuous
 62
     2
100
AcDbLine
 10
183.2441329295798
 20
54.31812350083271
 30
0.0
 11
182.5691329295798
 21
55.21812350083271
 31
0.0
  0
LINE
  5
5B
330
1F
100
AcDbEntity
  8
1
  6
Continuous
 62
     2
100
AcDbLine
 10
177.2816329295798
 20
53.53062350083271
 30
0.0
 11
184.4816329295798
 21
53.53062350083271
 31
0.0
  0
LINE
  5
5C
330
1F
100
AcDbEntity
  8
1
  6
Continuous
 62
     2
100
AcDbLine
 10
179.5316329295798
 20
51.28062350083271
 30
0.0
 11
179.5316329295798
 21
48.13062350083271
 31
0.0
  0
LINE
  5
5D
330
1F
100
AcDbEntity
  8
1
  6
Continuous
 62
     2
100
AcDbLine
 10
181.3316329295798
 20
51.28062350083271
 30
0.0
 11
177.7316329295798
 21
51.28062350083271
 31
0.0
  0
LINE
  5
5E
330
1F
100
AcDbEntity
  8
1
  6
Continuous
 62
     2
100
AcDbLine
 10
177.7316329295798
 20
47.56812350083271
 30
0.0
 11
181.3316329295798
 21
48.69312350083271
 31
0.0
  0
LINE
  5
5F
330
1F
100
AcDbEntity
  8
1
  6
Continuous
 62
     2
100
AcDbLine
 10
175.0316329295798
 20
48.69312350083271
 30
0.0
 11
176.0441329295798
 21
46.78062350083271
 31
0.0
  0
LINE
  5
60
330
1F
100
AcDbEntity
  8
1
  6
Continuous
 62
     2
100
AcDbLine
 10
173.7941329295798
 20
51.28062350083271
 30
0.0
 11
175.0316329295798
 21
48.69312350083271
 31
0.0
  0
LINE
  5
61
330
1F
100
AcDbEntity
  8
1
  6
Continuous
 62
     2
100
AcDbLine
 10
173.0066329295798
 20
49.25562350083271
 30
0.0
 11
173.7941329295798
 21
51.28062350083271
 31
0.0
  0
LINE
  5
62
330
1F
100
AcDbEntity
  8
1
  6
Continuous
 62
     2
100
AcDbLine
 10
171.9941329295798
 20
47.90562350083271
 30
0.0
 11
173.0066329295798
 21
49.25562350083271
 31
0.0
  0
LINE
  5
63
330
1F
100
AcDbEntity
  8
1
  6
Continuous
 62
     2
100
AcDbLine
 10
171.3191329295798
 20
46.78062350083271
 30
0.0
 11
171.9941329295798
 21
47.90562350083271
 31
0.0
  0
LINE
  5
64
330
1F
100
AcDbEntity
  8
1
  6
Continuous
 62
     2
100
AcDbLine
 10
173.7941329295798
 20
55.44312350083271
 30
0.0
 11
173.7941329295798
 21
46.44312350083271
 31
0.0
  0
LINE
  5
65
330
1F
100
AcDbEntity
  8
1
  6
Continuous
 62
     2
100
AcDbLine
 10
176.0441329295798
 20
51.28062350083271
 30
0.0
 11
171.7691329295798
 21
51.28062350083271
 31
0.0
  0
LINE
  5
66
330
1F
100
AcDbEntity
  8
1
  6
Continuous
 62
     2
100
AcDbLine
 10
172.5566329295798
 20
53.19312350083271
 30
0.0
 11
175.8191329295798
 21
53.19312350083271
 31
0.0
  0
LINE
  5
67
330
1F
100
AcDbEntity
  8
1
  6
Continuous
 62
     2
100
AcDbLine
 10
172.5566329295798
 20
53.19312350083271
 30
0.0
 11
172.7816329295798
 21
54.65562350083271
 31
0.0
  0
LINE
  5
68
330
1F
100
AcDbEntity
  8
1
  6
Continuous
 62
     2
100
AcDbLine
 10
171.7691329295798
 20
51.84312350083271
 30
0.0
 11
172.5566329295798
 21
53.19312350083271
 31
0.0
  0
LINE
  5
69
330
1F
100
AcDbEntity
  8
1
  6
Continuous
 62
     2
100
AcDbLine
 10
170.0816329295798
 20
52.96812350083271
 30
0.0
 11
171.3191329295798
 21
50.71812350083271
 31
0.0
  0
LINE
  5
6A
330
1F
100
AcDbEntity
  8
1
  6
Continuous
 62
     2
100
AcDbLine
 10
168.5066329295798
 20
49.03062350083271
 30
0.0
 11
170.0816329295798
 21
52.96812350083271
 31
0.0
  0
LINE
  5
6B
330
1F
100
AcDbEntity
  8
1
  6
Continuous
 62
     2
100
AcDbLine
 10
171.3191329295798
 20
52.96812350083271
 30
0.0
 11
168.7316329295798
 21
52.96812350083271
 31
0.0
  0
LINE
  5
6C
330
1F
100
AcDbEntity
  8
1
  6
Continuous
 62
     2
100
AcDbLine
 10
170.0816329295798
 20
46.78062350083271
 30
0.0
 11
170.0816329295798
 21
55.44312350083271
 31
0.0
  0
LINE
  5
6D
330
1F
100
AcDbEntity
  8
1
  6
Continuous
 62
     2
100
AcDbLine
 10
164.0066329295798
 20
53.53062350083271
 30
0.0
 11
166.4816329295798
 21
53.53062350083271
 31
0.0
  0
LINE
  5
6E
330
1F
100
AcDbEntity
  8
1
  6
Continuous
 62
     2
100
AcDbLine
 10
164.0066329295798
 20
52.06812350083271
 30
0.0
 11
166.4816329295798
 21
52.06812350083271
 31
0.0
  0
LINE
  5
6F
330
1F
100
AcDbEntity
  8
1
  6
Continuous
 62
     2
100
AcDbLine
 10
164.0066329295798
 20
54.88062350083271
 30
0.0
 11
164.0066329295798
 21
52.06812350083271
 31
0.0
  0
LINE
  5
70
330
1F
100
AcDbEntity
  8
1
  6
Continuous
 62
     2
100
AcDbLine
 10
166.4816329295798
 20
54.88062350083271
 30
0.0
 11
164.0066329295798
 21
54.88062350083271
 31
0.0
  0
LINE
  5
71
330
1F
100
AcDbEntity
  8
1
  6
Continuous
 62
     2
100
AcDbLine
 10
166.4816329295798
 20
47.00562350083271
 30
0.0
 11
166.4816329295798
 21
54.88062350083271
 31
0.0
  0
LINE
  5
72
330
1F
100
AcDbEntity
  8
1
  6
Continuous
 62
     2
100
AcDbLine
 10
166.2566329295798
 20
46.78062350083271
 30
0.0
 11
166.4816329295798
 21
47.00562350083271
 31
0.0
  0
LINE
  5
73
330
1F
100
AcDbEntity
  8
1
  6
Continuous
 62
     2
100
AcDbLine
 10
165.5816329295798
 20
46.78062350083271
 30
0.0
 11
166.2566329295798
 21
46.78062350083271
 31
0.0
  0
LINE
  5
74
330
1F
100
AcDbEntity
  8
1
  6
Continuous
 62
     2
100
AcDbLine
 10
162.5441329295798
 20
53.53062350083271
 30
0.0
 11
160.0691329295798
 21
53.53062350083271
 31
0.0
  0
LINE
  5
75
330
1F
100
AcDbEntity
  8
1
  6
Continuous
 62
     2
100
AcDbLine
 10
162.5441329295798
 20
52.06812350083271
 30
0.0
 11
160.0691329295798
 21
52.06812350083271
 31
0.0
  0
LINE
  5
76
330
1F
100
AcDbEntity
  8
1
  6
Continuous
 62
     2
100
AcDbLine
 10
162.5441329295798
 20
54.88062350083271
 30
0.0
 11
162.5441329295798
 21
52.06812350083271
 31
0.0
  0
LINE
  5
77
330
1F
100
AcDbEntity
  8
1
  6
Continuous
 62
     2
100
AcDbLine
 10
160.0691329295798
 20
54.88062350083271
 30
0.0
 11
162.5441329295798
 21
54.88062350083271
 31
0.0
  0
LINE
  5
78
330
1F
100
AcDbEntity
  8
1
  6
Continuous
 62
     2
100
AcDbLine
 10
160.0691329295798
 20
46.78062350083271
 30
0.0
 11
160.0691329295798
 21
54.88062350083271
 31
0.0
  0
LINE
  5
79
330
1F
100
AcDbEntity
  8
1
  6
Continuous
 62
     2
100
AcDbLine
 10
157.2566329295798
 20
51.84312350083271
 30
0.0
 11
158.2691329295798
 21
50.94312350083271
 31
0.0
  0
LINE
  5
7A
330
1F
100
AcDbEntity
  8
1
  6
Continuous
 62
     2
100
AcDbLine
 10
155.5691329295798
 20
53.75562350083271
 30
0.0
 11
157.2566329295798
 21
51.84312350083271
 31
0.0
  0
LINE
  5
7B
330
1F
100
AcDbEntity
  8
1
  6
Continuous
 62
     2
100
AcDbLine
 10
154.3316329295798
 20
55.44312350083271
 30
0.0
 11
155.5691329295798
 21
53.75562350083271
 31
0.0
  0
LINE
  5
7C
330
1F
100
AcDbEntity
  8
1
  6
Continuous
 62
     2
100
AcDbLine
 10
152.9816329295798
 20
53.75562350083271
 30
0.0
 11
154.3316329295798
 21
55.44312350083271
 31
0.0
  0
LINE
  5
7D
330
1F
100
AcDbEntity
  8
1
  6
Continuous
 62
     2
100
AcDbLine
 10
151.2941329295798
 20
51.84312350083271
 30
0.0
 11
152.9816329295798
 21
53.75562350083271
 31
0.0
  0
LINE
  5
7E
330
1F
100
AcDbEntity
  8
1
  6
Continuous
 62
     2
100
AcDbLine
 10
150.2816329295798
 20
50.94312350083271
 30
0.0
 11
151.2941329295798
 21
51.84312350083271
 31
0.0
  0
LINE
  5
7F
330
1F
100
AcDbEntity
  8
1
  6
Continuous
 62
     2
100
AcDbLine
 10
155.5691329295798
 20
47.90562350083271
 30
0.0
 11
156.0191329295798
 21
49.25562350083271
 31
0.0
  0
LINE
  5
80
330
1F
100
AcDbEntity
  8
1
  6
Continuous
 62
     2
100
AcDbLine
 10
152.5316329295798
 20
49.25562350083271
 30
0.0
 11
152.9816329295798
 21
47.90562350083271
 31
0.0
  0
LINE
  5
81
330
1F
100
AcDbEntity
  8
1
  6
Continuous
 62
     2
100
AcDbLine
 10
156.8066329295798
 20
50.38062350083271
 30
0.0
 11
151.7441329295798
 21
50.38062350083271
 31
0.0
  0
LINE
  5
82
330
1F
100
AcDbEntity
  8
1
  6
Continuous
 62
     2
100
AcDbLine
 10
152.5316329295798
 20
52.06812350083271
 30
0.0
 11
156.0191329295798
 21
52.06812350083271
 31
0.0
  0
LINE
  5
83
330
1F
100
AcDbEntity
  8
1
  6
Continuous
 62
     2
100
AcDbLine
 10
154.3316329295798
 20
46.78062350083271
 30
0.0
 11
154.3316329295798
 21
52.06812350083271
 31
0.0
  0
LINE
  5
84
330
1F
100
AcDbEntity
  8
1
  6
Continuous
 62
     2
100
AcDbLine
 10
151.0691329295798
 20
46.78062350083271
 30
0.0
 11
157.2566329295798
 21
46.78062350083271
 31
0.0
  0
LINE
  5
85
330
1F
100
AcDbEntity
  8
1
  6
Continuous
 62
     2
100
AcDbLine
 10
147.5816329295798
 20
49.25562350083271
 30
0.0
 11
148.8191329295798
 21
50.94312350083271
 31
0.0
  0
LINE
  5
86
330
1F
100
AcDbEntity
  8
1
  6
Continuous
 62
     2
100
AcDbLine
 10
145.5566329295798
 20
48.13062350083271
 30
0.0
 11
147.5816329295798
 21
49.25562350083271
 31
0.0
  0
LINE
  5
87
330
1F
100
AcDbEntity
  8
1
  6
Continuous
 62
     2
100
AcDbLine
 10
145.5566329295798
 20
53.19312350083271
 30
0.0
 11
145.5566329295798
 21
48.13062350083271
 31
0.0
  0
LINE
  5
88
330
1F
100
AcDbEntity
  8
1
  6
Continuous
 62
     2
100
AcDbLine
 10
143.5316329295798
 20
50.94312350083271
 30
0.0
 11
143.7566329295798
 21
53.19312350083271
 31
0.0
  0
LINE
  5
89
330
1F
100
AcDbEntity
  8
1
  6
Continuous
 62
     2
100
AcDbLine
 10
143.0816329295798
 20
49.25562350083271
 30
0.0
 11
143.5316329295798
 21
50.94312350083271
 31
0.0
  0
LINE
  5
8A
330
1F
100
AcDbEntity
  8
1
  6
Continuous
 62
     2
100
AcDbLine
 10
142.2941329295798
 20
47.90562350083271
 30
0.0
 11
143.0816329295798
 21
49.25562350083271
 31
0.0
  0
LINE
  5
8B
330
1F
100
AcDbEntity
  8
1
  6
Continuous
 62
     2
100
AcDbLine
 10
136.5566329295798
 20
47.34312350083271
 30
0.0
 11
138.0191329295798
 21
47.56812350083271
 31
0.0
  0
LINE
  5
8C
330
1F
100
AcDbEntity
  8
1
  6
Continuous
 62
     2
100
AcDbLine
 10
134.0816329295798
 20
47.56812350083271
 30
0.0
 11
136.5566329295798
 21
47.34312350083271
 31
0.0
  0
LINE
  5
8D
330
1F
100
AcDbEntity
  8
1
  6
Continuous
 62
     2
100
AcDbLine
 10
133.7441329295798
 20
48.46812350083271
 30
0.0
 11
134.0816329295798
 21
47.56812350083271
 31
0.0
  0
LINE
  5
8E
330
1F
100
AcDbEntity
  8
1
  6
Continuous
 62
     2
100
AcDbLine
 10
133.7441329295798
 20
53.19312350083271
 30
0.0
 11
133.7441329295798
 21
48.46812350083271
 31
0.0
  0
LINE
  5
8F
330
1F
100
AcDbEntity
  8
1
  6
Continuous
 62
     2
100
AcDbLine
 10
138.5816329295798
 20
53.75562350083271
 30
0.0
 11
139.2566329295798
 21
52.96812350083271
 31
0.0
  0
LINE
  5
90
330
1F
100
AcDbEntity
  8
1
  6
Continuous
 62
     2
100
AcDbLine
 10
138.8066329295798
 20
52.40562350083271
 30
0.0
 11
138.0191329295798
 21
53.19312350083271
 31
0.0
  0
LINE
  5
91
330
1F
100
AcDbEntity
  8
1
  6
Continuous
 62
     2
100
AcDbLine
 10
135.9941329295798
 20
50.94312350083271
 30
0.0
 11
137.5691329295798
 21
51.84312350083271
 31
0.0
  0
LINE
  5
92
330
1F
100
AcDbEntity
  8
1
  6
Continuous
 62
     2
100
AcDbLine
 10
133.7441329295798
 20
50.15562350083271
 30
0.0
 11
135.9941329295798
 21
50.94312350083271
 31
0.0
  0
LINE
  5
93
330
1F
100
AcDbEntity
  8
1
  6
Continuous
 62
     2
100
AcDbLine
 10
128.2316329295798
 20
49.25562350083271
 30
0.0
 11
129.8066329295798
 21
47.56812350083271
 31
0.0
  0
LINE
  5
94
330
1F
100
AcDbEntity
  8
1
  6
Continuous
 62
     2
100
AcDbLine
 10
126.9941329295798
 20
50.38062350083271
 30
0.0
 11
128.2316329295798
 21
49.25562350083271
 31
0.0
  0
LINE
  5
95
330
1F
100
AcDbEntity
  8
1
  6
Continuous
 62
     2
100
AcDbLine
 10
130.0316329295798
 20
54.31812350083271
 30
0.0
 11
130.8191329295798
 21
53.53062350083271
 31
0.0
  0
LINE
  5
96
330
1F
100
AcDbEntity
  8
1
  6
Continuous
 62
     2
100
AcDbLine
 10
129.5816329295798
 20
53.75562350083271
 30
0.0
 11
130.2566329295798
 21
52.96812350083271
 31
0.0
  0
LINE
  5
97
330
1F
100
AcDbEntity
  8
1
  6
Continuous
 62
     2
100
AcDbLine
 10
128.5691329295798
 20
53.19312350083271
 30
0.0
 11
125.3066329295798
 21
53.19312350083271
 31
0.0
  0
LINE
  5
98
330
1F
100
AcDbEntity
  8
1
  6
Continuous
 62
     2
100
AcDbLine
 10
127.7816329295798
 20
51.50562350083271
 30
0.0
 11
128.5691329295798
 21
53.19312350083271
 31
0.0
  0
LINE
  5
99
330
1F
100
AcDbEntity
  8
1
  6
Continuous
 62
     2
100
AcDbLine
 10
125.9816329295798
 20
49.03062350083271
 30
0.0
 11
127.7816329295798
 21
51.50562350083271
 31
0.0
  0
LINE
  5
9A
330
1F
100
AcDbEntity
  8
1
  6
Continuous
 62
     2
100
AcDbLine
 10
124.2941329295798
 20
47.56812350083271
 30
0.0
 11
125.9816329295798
 21
49.03062350083271
 31
0.0
  0
LINE
  5
9B
330
1F
100
AcDbEntity
  8
1
  6
Continuous
 62
     2
100
AcDbLine
 10
121.2566329295798
 20
52.96812350083271
 30
0.0
 11
119.0066329295798
 21
50.38062350083271
 31
0.0
  0
LINE
  5
9C
330
1F
100
AcDbEntity
  8
1
  6
Continuous
 62
     2
100
AcDbLine
 10
115.5191329295798
 20
52.96812350083271
 30
0.0
 11
121.2566329295798
 21
52.96812350083271
 31
0.0
  0
LINE
  5
9D
330
1F
100
AcDbEntity
  8
1
  6
Continuous
 62
     2
100
AcDbLine
 10
118.3316329295798
 20
50.38062350083271
 30
0.0
 11
118.5566329295798
 21
51.84312350083271
 31
0.0
  0
LINE
  5
9E
330
1F
100
AcDbEntity
  8
1
  6
Continuous
 62
     2
100
AcDbLine
 10
117.7691329295798
 20
48.69312350083271
 30
0.0
 11
118.3316329295798
 21
50.38062350083271
 31
0.0
  0
LINE
  5
9F
330
1F
100
AcDbEntity
  8
1
  6
Continuous
 62
     2
100
AcDbLine
 10
116.7566329295798
 20
47.00562350083271
 30
0.0
 11
117.7691329295798
 21
48.69312350083271
 31
0.0
  0
LINE
  5
A0
330
1F
100
AcDbEntity
  8
1
  6
Continuous
 62
     2
100
AcDbLine
 10
222.6753829295798
 20
74.25562350083271
 30
0.0
 11
223.2378829295798
 21
73.46812350083272
 31
0.0
  0
LINE
  5
A1
330
1F
100
AcDbEntity
  8
1
  6
Continuous
 62
     2
100
AcDbLine
 10
222.0003829295798
 20
75.15562350083272
 30
0.0
 11
222.6753829295798
 21
74.25562350083271
 31
0.0
  0
LINE
  5
A2
330
1F
100
AcDbEntity
  8
1
  6
Continuous
 62
     2
100
AcDbLine
 10
220.9878829295798
 20
75.94312350083271
 30
0.0
 11
222.0003829295798
 21
75.15562350083272
 31
0.0
  0
LINE
  5
A3
330
1F
100
AcDbEntity
  8
1
  6
Continuous
 62
     2
100
AcDbLine
 10
220.4253829295798
 20
77.06812350083271
 30
0.0
 11
219.7503829295798
 21
78.53062350083272
 31
0.0
  0
LINE
  5
A4
330
1F
100
AcDbEntity
  8
1
  6
Continuous
 62
     2
100
AcDbLine
 10
221.7753829295798
 20
77.40562350083272
 30
0.0
 11
221.2128829295798
 21
78.75562350083271
 31
0.0
  0
LINE
  5
A5
330
1F
100
AcDbEntity
  8
1
  6
Continuous
 62
     2
100
AcDbLine
 10
223.2378829295798
 20
76.84312350083272
 30
0.0
 11
224.0253829295798
 21
78.53062350083272
 31
0.0
  0
LINE
  5
A6
330
1F
100
AcDbEntity
  8
1
  6
Continuous
 62
     2
100
AcDbLine
 10
221.7753829295798
 20
74.59312350083272
 30
0.0
 11
223.2378829295798
 21
76.84312350083272
 31
0.0
  0
LINE
  5
A7
330
1F
100
AcDbEntity
  8
1
  6
Continuous
 62
     2
100
AcDbLine
 10
220.9878829295798
 20
73.69312350083271
 30
0.0
 11
221.7753829295798
 21
74.59312350083272
 31
0.0
  0
LINE
  5
A8
330
1F
100
AcDbEntity
  8
1
  6
Continuous
 62
     2
100
AcDbLine
 10
219.7503829295798
 20
72.90562350083272
 30
0.0
 11
220.9878829295798
 21
73.69312350083271
 31
0.0
  0
LINE
  5
A9
330
1F
100
AcDbEntity
  8
1
  6
Continuous
 62
     2
100
AcDbLine
 10
218.5128829295798
 20
79.88062350083271
 30
0.0
 11
218.5128829295798
 21
71.78062350083272
 31
0.0
  0
LINE
  5
AA
330
1F
100
AcDbEntity
  8
1
  6
Continuous
 62
     2
100
AcDbLine
 10
224.9253829295798
 20
79.88062350083271
 30
0.0
 11
218.5128829295798
 21
79.88062350083271
 31
0.0
  0
LINE
  5
AB
330
1F
100
AcDbEntity
  8
1
  6
Continuous
 62
     2
100
AcDbLine
 10
224.9253829295798
 20
71.78062350083272
 30
0.0
 11
224.9253829295798
 21
79.88062350083271
 31
0.0
  0
LINE
  5
AC
330
1F
100
AcDbEntity
  8
1
  6
Continuous
 62
     2
100
AcDbLine
 10
218.5128829295798
 20
71.78062350083272
 30
0.0
 11
224.9253829295798
 21
71.78062350083272
 31
0.0
  0
LINE
  5
AD
330
1F
100
AcDbEntity
  8
1
  6
Continuous
 62
     2
100
AcDbLine
 10
214.6878829295798
 20
74.03062350083272
 30
0.0
 11
216.2628829295798
 21
71.44312350083271
 31
0.0
  0
LINE
  5
AE
330
1F
100
AcDbEntity
  8
1
  6
Continuous
 62
     2
100
AcDbLine
 10
211.2003829295798
 20
71.78062350083272
 30
0.0
 11
215.4753829295798
 21
72.56812350083271
 31
0.0
  0
LINE
  5
AF
330
1F
100
AcDbEntity
  8
1
  6
Continuous
 62
     2
100
AcDbLine
 10
213.4503829295798
 20
75.71812350083272
 30
0.0
 11
212.2128829295798
 21
72.00562350083271
 31
0.0
  0
LINE
  5
B0
330
1F
100
AcDbEntity
  8
1
  6
Continuous
 62
     2
100
AcDbLine
 10
210.7503829295798
 20
75.71812350083272
 30
0.0
 11
216.4878829295798
 21
75.71812350083272
 31
0.0
  0
LINE
  5
B1
330
1F
100
AcDbEntity
  8
1
  6
Continuous
 62
     2
100
AcDbLine
 10
213.6753829295798
 20
80.21812350083272
 30
0.0
 11
213.6753829295798
 21
75.71812350083272
 31
0.0
  0
LINE
  5
B2
330
1F
100
AcDbEntity
  8
1
  6
Continuous
 62
     2
100
AcDbLine
 10
211.4253829295798
 20
77.96812350083272
 30
0.0
 11
216.2628829295798
 21
77.96812350083272
 31
0.0
  0
LINE
  5
B3
330
1F
100
AcDbEntity
  8
1
  6
Continuous
 62
     2
100
AcDbLine
 10
209.5128829295798
 20
79.88062350083271
 30
0.0
 11
210.1878829295798
 21
78.75562350083271
 31
0.0
  0
LINE
  5
B4
330
1F
100
AcDbEntity
  8
1
  6
Continuous
 62
     2
100
AcDbLine
 10
209.5128829295798
 20
76.50562350083271
 30
0.0
 11
208.7253829295798
 21
77.40562350083272
 31
0.0
  0
LINE
  5
B5
330
1F
100
AcDbEntity
  8
1
  6
Continuous
 62
     2
100
AcDbLine
 10
208.9503829295798
 20
71.44312350083271
 30
0.0
 11
210.1878829295798
 21
75.15562350083272
 31
0.0
  0
LINE
  5
B6
330
1F
100
AcDbEntity
  8
1
  6
Continuous
 62
     2
100
AcDbLine
 10
203.2128829295798
 20
74.81812350083271
 30
0.0
 11
202.2003829295798
 21
76.28062350083272
 31
0.0
  0
LINE
  5
B7
330
1F
100
AcDbEntity
  8
1
  6
Continuous
 62
     2
100
AcDbLine
 10
205.2378829295798
 20
71.78062350083272
 30
0.0
 11
204.0003829295798
 21
71.78062350083272
 31
0.0
  0
LINE
  5
B8
330
1F
100
AcDbEntity
  8
1
  6
Continuous
 62
     2
100
AcDbLine
 10
205.2378829295798
 20
79.88062350083271
 30
0.0
 11
205.2378829295798
 21
71.78062350083272
 31
0.0
  0
LINE
  5
B9
330
1F
100
AcDbEntity
  8
1
  6
Continuous
 62
     2
100
AcDbLine
 10
200.5128829295798
 20
77.63062350083271
 30
0.0
 11
207.2628829295798
 21
77.63062350083271
 31
0.0
  0
LINE
  5
BA
330
1F
100
AcDbEntity
  8
1
  6
Continuous
 62
     2
100
AcDbLine
 10
198.4878829295798
 20
71.44312350083271
 30
0.0
 11
198.7128829295798
 21
72.00562350083271
 31
0.0
  0
LINE
  5
BB
330
1F
100
AcDbEntity
  8
1
  6
Continuous
 62
     2
100
AcDbLine
 10
197.4753829295798
 20
71.44312350083271
 30
0.0
 11
198.4878829295798
 21
71.44312350083271
 31
0.0
  0
LINE
  5
BC
330
1F
100
AcDbEntity
  8
1
  6
Continuous
 62
     2
100
AcDbLine
 10
196.6878829295798
 20
72.00562350083271
 30
0.0
 11
197.4753829295798
 21
71.44312350083271
 31
0.0
  0
LINE
  5
BD
330
1F
100
AcDbEntity
  8
1
  6
Continuous
 62
     2
100
AcDbLine
 10
196.6878829295798
 20
74.59312350083272
 30
0.0
 11
196.6878829295798
 21
72.00562350083271
 31
0.0
  0
LINE
  5
BE
330
1F
100
AcDbEntity
  8
1
  6
Continuous
 62
     2
100
AcDbLine
 10
195.2253829295798
 20
72.34312350083272
 30
0.0
 11
194.4378829295798
 21
71.44312350083271
 31
0.0
  0
LINE
  5
BF
330
1F
100
AcDbEntity
  8
1
  6
Continuous
 62
     2
100
AcDbLine
 10
195.6753829295798
 20
73.69312350083271
 30
0.0
 11
195.2253829295798
 21
72.34312350083272
 31
0.0
  0
LINE
  5
C0
330
1F
100
AcDbEntity
  8
1
  6
Continuous
 62
     2
100
AcDbLine
 10
196.0128829295798
 20
74.59312350083272
 30
0.0
 11
195.6753829295798
 21
73.69312350083271
 31
0.0
  0
LINE
  5
C1
330
1F
100
AcDbEntity
  8
1
  6
Continuous
 62
     2
100
AcDbLine
 10
197.7003829295798
 20
76.28062350083272
 30
0.0
 11
195.2253829295798
 21
76.28062350083272
 31
0.0
  0
LINE
  5
C2
330
1F
100
AcDbEntity
  8
1
  6
Continuous
 62
     2
100
AcDbLine
 10
195.2253829295798
 20
77.96812350083272
 30
0.0
 11
197.7003829295798
 21
77.96812350083272
 31
0.0
  0
LINE
  5
C3
330
1F
100
AcDbEntity
  8
1
  6
Continuous
 62
     2
100
AcDbLine
 10
197.7003829295798
 20
79.65562350083272
 30
0.0
 11
195.2253829295798
 21
79.65562350083272
 31
0.0
  0
LINE
  5
C4
330
1F
100
AcDbEntity
  8
1
  6
Continuous
 62
     2
100
AcDbLine
 10
197.7003829295798
 20
74.59312350083272
 30
0.0
 11
197.7003829295798
 21
79.65562350083272
 31
0.0
  0
LINE
  5
C5
330
1F
100
AcDbEntity
  8
1
  6
Continuous
 62
     2
100
AcDbLine
 10
195.2253829295798
 20
74.59312350083272
 30
0.0
 11
197.7003829295798
 21
74.59312350083272
 31
0.0
  0
LINE
  5
C6
330
1F
100
AcDbEntity
  8
1
  6
Continuous
 62
     2
100
AcDbLine
 10
195.2253829295798
 20
79.65562350083272
 30
0.0
 11
195.2253829295798
 21
74.59312350083272
 31
0.0
  0
LINE
  5
C7
330
1F
100
AcDbEntity
  8
1
  6
Continuous
 62
     2
100
AcDbLine
 10
191.7378829295798
 20
79.09312350083272
 30
0.0
 11
192.1878829295798
 21
80.21812350083272
 31
0.0
  0
LINE
  5
C8
330
1F
100
AcDbEntity
  8
1
  6
Continuous
 62
     2
100
AcDbLine
 10
190.9503829295798
 20
78.19312350083271
 30
0.0
 11
191.7378829295798
 21
79.09312350083272
 31
0.0
  0
LINE
  5
C9
330
1F
100
AcDbEntity
  8
1
  6
Continuous
 62
     2
100
AcDbLine
 10
194.4378829295798
 20
79.09312350083272
 30
0.0
 11
191.9628829295798
 21
79.09312350083272
 31
0.0
  0
LINE
  5
CA
330
1F
100
AcDbEntity
  8
1
  6
Continuous
 62
     2
100
AcDbLine
 10
191.9628829295798
 20
76.50562350083271
 30
0.0
 11
192.9753829295798
 21
79.09312350083272
 31
0.0
  0
LINE
  5
CB
330
1F
100
AcDbEntity
  8
1
  6
Continuous
 62
     2
100
AcDbLine
 10
190.7253829295798
 20
74.81812350083271
 30
0.0
 11
191.9628829295798
 21
76.50562350083271
 31
0.0
  0
LINE
  5
CC
330
1F
100
AcDbEntity
  8
1
  6
Continuous
 62
     2
100
AcDbLine
 10
194.7753829295798
 20
77.63062350083271
 30
0.0
 11
190.9503829295798
 21
77.63062350083271
 31
0.0
  0
LINE
  5
CD
330
1F
100
AcDbEntity
  8
1
  6
Continuous
 62
     2
100
AcDbLine
 10
193.2003829295798
 20
76.28062350083272
 30
0.0
 11
193.4253829295798
 21
76.84312350083272
 31
0.0
  0
LINE
  5
CE
330
1F
100
AcDbEntity
  8
1
  6
Continuous
 62
     2
100
AcDbLine
 10
193.2003829295798
 20
72.00562350083271
 30
0.0
 11
193.2003829295798
 21
76.28062350083272
 31
0.0
  0
LINE
  5
CF
330
1F
100
AcDbEntity
  8
1
  6
Continuous
 62
     2
100
AcDbLine
 10
194.4378829295798
 20
72.00562350083271
 30
0.0
 11
191.7378829295798
 21
72.00562350083271
 31
0.0
  0
LINE
  5
D0
330
1F
100
AcDbEntity
  8
1
  6
Continuous
 62
     2
100
AcDbLine
 10
191.7378829295798
 20
73.46812350083272
 30
0.0
 11
194.4378829295798
 21
73.46812350083272
 31
0.0
  0
LINE
  5
D1
330
1F
100
AcDbEntity
  8
1
  6
Continuous
 62
     2
100
AcDbLine
 10
194.4378829295798
 20
74.81812350083271
 30
0.0
 11
191.7378829295798
 21
74.81812350083271
 31
0.0
  0
LINE
  5
D2
330
1F
100
AcDbEntity
  8
1
  6
Continuous
 62
     2
100
AcDbLine
 10
191.7378829295798
 20
76.28062350083272
 30
0.0
 11
194.4378829295798
 21
76.28062350083272
 31
0.0
  0
LINE
  5
D3
330
1F
100
AcDbEntity
  8
1
  6
Continuous
 62
     2
100
AcDbLine
 10
191.7378829295798
 20
71.44312350083271
 30
0.0
 11
191.7378829295798
 21
76.28062350083272
 31
0.0
  0
LINE
  5
D4
330
1F
100
AcDbEntity
  8
1
  6
Continuous
 62
     2
100
AcDbLine
 10
188.4753829295798
 20
76.28062350083272
 30
0.0
 11
189.7128829295798
 21
74.81812350083271
 31
0.0
  0
LINE
  5
D5
330
1F
100
AcDbEntity
  8
1
  6
Continuous
 62
     2
100
AcDbLine
 10
186.4503829295798
 20
78.19312350083271
 30
0.0
 11
188.4753829295798
 21
76.28062350083272
 31
0.0
  0
LINE
  5
D6
330
1F
100
AcDbEntity
  8
1
  6
Continuous
 62
     2
100
AcDbLine
 10
187.0128829295798
 20
80.44312350083271
 30
0.0
 11
187.0128829295798
 21
71.44312350083271
 31
0.0
  0
LINE
  5
D7
330
1F
100
AcDbEntity
  8
1
  6
Continuous
 62
     2
100
AcDbLine
 10
182.7378829295798
 20
76.84312350083272
 30
0.0
 11
184.4253829295798
 21
75.38062350083271
 31
0.0
  0
LINE
  5
D8
330
1F
100
AcDbEntity
  8
1
  6
Continuous
 62
     2
100
AcDbLine
 10
182.7378829295798
 20
77.06812350083271
 30
0.0
 11
181.7253829295798
 21
75.71812350083272
 31
0.0
  0
LINE
  5
D9
330
1F
100
AcDbEntity
  8
1
  6
Continuous
 62
     2
100
AcDbLine
 10
183.5253829295798
 20
78.75562350083271
 30
0.0
 11
182.7378829295798
 21
77.06812350083271
 31
0.0
  0
LINE
  5
DA
330
1F
100
AcDbEntity
  8
1
  6
Continuous
 62
     2
100
AcDbLine
 10
183.9753829295798
 20
80.44312350083271
 30
0.0
 11
183.5253829295798
 21
78.75562350083271
 31
0.0
  0
LINE
  5
DB
330
1F
100
AcDbEntity
  8
1
  6
Continuous
 62
     2
100
AcDbLine
 10
185.7753829295798
 20
78.53062350083272
 30
0.0
 11
183.5253829295798
 21
78.53062350083272
 31
0.0
  0
LINE
  5
DC
330
1F
100
AcDbEntity
  8
1
  6
Continuous
 62
     2
100
AcDbLine
 10
185.2128829295798
 20
76.84312350083272
 30
0.0
 11
185.7753829295798
 21
78.53062350083272
 31
0.0
  0
LINE
  5
DD
330
1F
100
AcDbEntity
  8
1
  6
Continuous
 62
     2
100
AcDbLine
 10
184.7628829295798
 20
75.71812350083272
 30
0.0
 11
185.2128829295798
 21
76.84312350083272
 31
0.0
  0
LINE
  5
DE
330
1F
100
AcDbEntity
  8
1
  6
Continuous
 62
     2
100
AcDbLine
 10
183.7503829295798
 20
74.03062350083272
 30
0.0
 11
184.7628829295798
 21
75.71812350083272
 31
0.0
  0
LINE
  5
DF
330
1F
100
AcDbEntity
  8
1
  6
Continuous
 62
     2
100
AcDbLine
 10
182.1753829295798
 20
72.00562350083271
 30
0.0
 11
183.7503829295798
 21
74.03062350083272
 31
0.0
  0
LINE
  5
E0
330
1F
100
AcDbEntity
  8
1
  6
Continuous
 62
     2
100
AcDbLine
 10
166.8753829295798
 20
77.74312350083271
 30
0.0
 11
166.8753829295798
 21
71.44312350083271
 31
0.0
  0
LINE
  5
E1
330
1F
100
AcDbEntity
  8
1
  6
Continuous
 62
     2
100
AcDbLine
 10
170.0253829295798
 20
76.61812350083271
 30
0.0
 11
170.0253829295798
 21
71.44312350083271
 31
0.0
  0
LINE
  5
E2
330
1F
100
AcDbEntity
  8
1
  6
Continuous
 62
     2
100
AcDbLine
 10
169.8003829295798
 20
77.06812350083271
 30
0.0
 11
170.0253829295798
 21
76.61812350083271
 31
0.0
  0
LINE
  5
E3
330
1F
100
AcDbEntity
  8
1
  6
Continuous
 62
     2
100
AcDbLine
 10
169.3503829295798
 20
77.51812350083271
 30
0.0
 11
169.8003829295798
 21
77.06812350083271
 31
0.0
  0
LINE
  5
E4
330
1F
100
AcDbEntity
  8
1
  6
Continuous
 62
     2
100
AcDbLine
 10
168.6753829295798
 20
77.74312350083271
 30
0.0
 11
169.3503829295798
 21
77.51812350083271
 31
0.0
  0
LINE
  5
E5
330
1F
100
AcDbEntity
  8
1
  6
Continuous
 62
     2
100
AcDbLine
 10
163.7253829295798
 20
77.74312350083271
 30
0.0
 11
168.6753829295798
 21
77.74312350083271
 31
0.0
  0
LINE
  5
E6
330
1F
100
AcDbEntity
  8
1
  6
Continuous
 62
     2
100
AcDbLine
 10
163.7253829295798
 20
71.44312350083271
 30
0.0
 11
163.7253829295798
 21
77.74312350083271
 31
0.0
  0
LINE
  5
E7
330
1F
100
AcDbEntity
  8
1
  6
Continuous
 62
     2
100
AcDbLine
 10
157.8753829295798
 20
77.74312350083271
 30
0.0
 11
157.8753829295798
 21
71.44312350083271
 31
0.0
  0
LINE
  5
E8
330
1F
100
AcDbEntity
  8
1
  6
Continuous
 62
     2
100
AcDbLine
 10
161.0253829295798
 20
76.61812350083271
 30
0.0
 11
161.0253829295798
 21
71.44312350083271
 31
0.0
  0
LINE
  5
E9
330
1F
100
AcDbEntity
  8
1
  6
Continuous
 62
     2
100
AcDbLine
 10
160.8003829295798
 20
77.06812350083271
 30
0.0
 11
161.0253829295798
 21
76.61812350083271
 31
0.0
  0
LINE
  5
EA
330
1F
100
AcDbEntity
  8
1
  6
Continuous
 62
     2
100
AcDbLine
 10
160.3503829295798
 20
77.51812350083271
 30
0.0
 11
160.8003829295798
 21
77.06812350083271
 31
0.0
  0
LINE
  5
EB
330
1F
100
AcDbEntity
  8
1
  6
Continuous
 62
     2
100
AcDbLine
 10
159.6753829295798
 20
77.74312350083271
 30
0.0
 11
160.3503829295798
 21
77.51812350083271
 31
0.0
  0
LINE
  5
EC
330
1F
100
AcDbEntity
  8
1
  6
Continuous
 62
     2
100
AcDbLine
 10
154.7253829295798
 20
77.74312350083271
 30
0.0
 11
159.6753829295798
 21
77.74312350083271
 31
0.0
  0
LINE
  5
ED
330
1F
100
AcDbEntity
  8
1
  6
Continuous
 62
     2
100
AcDbLine
 10
154.7253829295798
 20
71.44312350083271
 30
0.0
 11
154.7253829295798
 21
77.74312350083271
 31
0.0
  0
LINE
  5
EE
330
1F
100
AcDbEntity
  8
1
  6
Continuous
 62
     2
100
AcDbLine
 10
150.0003829295798
 20
71.44312350083271
 30
0.0
 11
146.6253829295798
 21
71.44312350083271
 31
0.0
  0
LINE
  5
EF
330
1F
100
AcDbEntity
  8
1
  6
Continuous
 62
     2
100
AcDbLine
 10
150.6753829295798
 20
71.6681235008327
 30
0.0
 11
150.0003829295798
 21
71.44312350083271
 31
0.0
  0
LINE
  5
F0
330
1F
100
AcDbEntity
  8
1
  6
Continuous
 62
     2
100
AcDbLine
 10
151.3503829295798
 20
72.11812350083271
 30
0.0
 11
150.6753829295798
 21
71.6681235008327
 31
0.0
  0
LINE
  5
F1
330
1F
100
AcDbEntity
  8
1
  6
Continuous
 62
     2
100
AcDbLine
 10
151.8003829295798
 20
72.7931235008327
 30
0.0
 11
151.3503829295798
 21
72.11812350083271
 31
0.0
  0
LINE
  5
F2
330
1F
100
AcDbEntity
  8
1
  6
Continuous
 62
     2
100
AcDbLine
 10
152.0253829295798
 20
73.69312350083271
 30
0.0
 11
151.8003829295798
 21
72.7931235008327
 31
0.0
  0
LINE
  5
F3
330
1F
100
AcDbEntity
  8
1
  6
Continuous
 62
     2
100
AcDbLine
 10
152.0253829295798
 20
75.0431235008327
 30
0.0
 11
152.0253829295798
 21
73.69312350083271
 31
0.0
  0
LINE
  5
F4
330
1F
100
AcDbEntity
  8
1
  6
Continuous
 62
     2
100
AcDbLine
 10
151.8003829295798
 20
75.94312350083271
 30
0.0
 11
152.0253829295798
 21
75.0431235008327
 31
0.0
  0
LINE
  5
F5
330
1F
100
AcDbEntity
  8
1
  6
Continuous
 62
     2
100
AcDbLine
 10
151.1253829295798
 20
76.61812350083271
 30
0.0
 11
151.8003829295798
 21
75.94312350083271
 31
0.0
  0
LINE
  5
F6
330
1F
100
AcDbEntity
  8
1
  6
Continuous
 62
     2
100
AcDbLine
 10
150.0003829295798
 20
76.84312350083272
 30
0.0
 11
151.1253829295798
 21
76.61812350083271
 31
0.0
  0
LINE
  5
F7
330
1F
100
AcDbEntity
  8
1
  6
Continuous
 62
     2
100
AcDbLine
 10
146.6253829295798
 20
76.84312350083272
 30
0.0
 11
150.0003829295798
 21
76.84312350083272
 31
0.0
  0
LINE
  5
F8
330
1F
100
AcDbEntity
  8
1
  6
Continuous
 62
     2
100
AcDbLine
 10
146.6253829295798
 20
80.44312350083271
 30
0.0
 11
146.6253829295798
 21
76.84312350083272
 31
0.0
  0
LINE
  5
F9
330
1F
100
AcDbEntity
  8
1
  6
Continuous
 62
     2
100
AcDbLine
 10
151.5753829295798
 20
80.44312350083271
 30
0.0
 11
146.6253829295798
 21
80.44312350083271
 31
0.0
  0
LINE
  5
FA
330
1F
100
AcDbEntity
  8
1
  6
Continuous
 62
     2
100
AcDbLine
 10
138.5253829295798
 20
71.44312350083271
 30
0.0
 11
143.9253829295798
 21
71.44312350083271
 31
0.0
  0
LINE
  5
FB
330
1F
100
AcDbEntity
  8
1
  6
Continuous
 62
     2
100
AcDbLine
 10
143.4753829295798
 20
77.2931235008327
 30
0.0
 11
138.5253829295798
 21
71.44312350083271
 31
0.0
  0
LINE
  5
FC
330
1F
100
AcDbEntity
  8
1
  6
Continuous
 62
     2
100
AcDbLine
 10
143.9253829295798
 20
78.19312350083271
 30
0.0
 11
143.4753829295798
 21
77.2931235008327
 31
0.0
  0
LINE
  5
FD
330
1F
100
AcDbEntity
  8
1
  6
Continuous
 62
     2
100
AcDbLine
 10
143.9253829295798
 20
79.09312350083272
 30
0.0
 11
143.9253829295798
 21
78.19312350083271
 31
0.0
  0
LINE
  5
FE
330
1F
100
AcDbEntity
  8
1
  6
Continuous
 62
     2
100
AcDbLine
 10
143.4753829295798
 20
79.76812350083271
 30
0.0
 11
143.9253829295798
 21
79.09312350083272
 31
0.0
  0
LINE
  5
FF
330
1F
100
AcDbEntity
  8
1
  6
Continuous
 62
     2
100
AcDbLine
 10
142.8003829295798
 20
80.21812350083272
 30
0.0
 11
143.4753829295798
 21
79.76812350083271
 31
0.0
  0
LINE
  5
100
330
1F
100
AcDbEntity
  8
1
  6
Continuous
 62
     2
100
AcDbLine
 10
141.9003829295798
 20
80.44312350083271
 30
0.0
 11
142.8003829295798
 21
80.21812350083272
 31
0.0
  0
LINE
  5
101
330
1F
100
AcDbEntity
  8
1
  6
Continuous
 62
     2
100
AcDbLine
 10
140.5503829295798
 20
80.44312350083271
 30
0.0
 11
141.9003829295798
 21
80.44312350083271
 31
0.0
  0
LINE
  5
102
330
1F
100
AcDbEntity
  8
1
  6
Continuous
 62
     2
100
AcDbLine
 10
139.6503829295798
 20
80.21812350083272
 30
0.0
 11
140.5503829295798
 21
80.44312350083271
 31
0.0
  0
LINE
  5
103
330
1F
100
AcDbEntity
  8
1
  6
Continuous
 62
     2
100
AcDbLine
 10
138.9753829295798
 20
79.76812350083271
 30
0.0
 11
139.6503829295798
 21
80.21812350083272
 31
0.0
  0
LINE
  5
104
330
1F
100
AcDbEntity
  8
1
  6
Continuous
 62
     2
100
AcDbLine
 10
138.5253829295798
 20
79.09312350083272
 30
0.0
 11
138.9753829295798
 21
79.76812350083271
 31
0.0
  0
LINE
  5
105
330
1F
100
AcDbEntity
  8
1
  6
Continuous
 62
     2
100
AcDbLine
 10
133.8003829295798
 20
75.15562350083272
 30
0.0
 11
133.8003829295798
 21
71.78062350083272
 31
0.0
  0
LINE
  5
106
330
1F
100
AcDbEntity
  8
1
  6
Continuous
 62
     2
100
AcDbLine
 10
136.7253829295798
 20
75.15562350083272
 30
0.0
 11
136.0503829295798
 21
75.15562350083272
 31
0.0
  0
LINE
  5
107
330
1F
100
AcDbEntity
  8
1
  6
Continuous
 62
     2
100
AcDbLine
 10
136.7253829295798
 20
80.21812350083272
 30
0.0
 11
136.7253829295798
 21
75.15562350083272
 31
0.0
  0
LINE
  5
108
330
1F
100
AcDbEntity
  8
1
  6
Continuous
 62
     2
100
AcDbLine
 10
135.0378829295798
 20
76.28062350083272
 30
0.0
 11
135.0378829295798
 21
79.88062350083271
 31
0.0
  0
LINE
  5
109
330
1F
100
AcDbEntity
  8
1
  6
Continuous
 62
     2
100
AcDbLine
 10
132.5628829295798
 20
79.88062350083271
 30
0.0
 11
132.5628829295798
 21
75.15562350083272
 31
0.0
  0
LINE
  5
10A
330
1F
100
AcDbEntity
  8
1
  6
Continuous
 62
     2
100
AcDbLine
 10
129.7503829295798
 20
77.96812350083272
 30
0.0
 11
134.0253829295798
 21
77.96812350083272
 31
0.0
  0
LINE
  5
10B
330
1F
100
AcDbEntity
  8
1
  6
Continuous
 62
     2
100
AcDbLine
 10
133.8003829295798
 20
79.88062350083271
 30
0.0
 11
129.9753829295798
 21
79.88062350083271
 31
0.0
  0
LINE
  5
10C
330
1F
100
AcDbEntity
  8
1
  6
Continuous
 62
     2
100
AcDbLine
 10
131.3253829295798
 20
77.96812350083272
 30
0.0
 11
131.3253829295798
 21
79.88062350083271
 31
0.0
  0
LINE
  5
10D
330
1F
100
AcDbEntity
  8
1
  6
Continuous
 62
     2
100
AcDbLine
 10
130.7628829295798
 20
75.94312350083271
 30
0.0
 11
131.3253829295798
 21
77.96812350083272
 31
0.0
  0
LINE
  5
10E
330
1F
100
AcDbEntity
  8
1
  6
Continuous
 62
     2
100
AcDbLine
 10
129.9753829295798
 20
74.81812350083271
 30
0.0
 11
130.7628829295798
 21
75.94312350083271
 31
0.0
  0
LINE
  5
10F
330
1F
100
AcDbEntity
  8
1
  6
Continuous
 62
     2
100
AcDbLine
 10
136.2753829295798
 20
73.69312350083271
 30
0.0
 11
130.7628829295798
 21
73.69312350083271
 31
0.0
  0
LINE
  5
110
330
1F
100
AcDbEntity
  8
1
  6
Continuous
 62
     2
100
AcDbLine
 10
129.9753829295798
 20
71.78062350083272
 30
0.0
 11
137.2878829295798
 21
71.78062350083272
 31
0.0
  0
LINE
  5
111
330
1F
100
AcDbEntity
  8
1
  6
Continuous
 62
     2
100
AcDbLine
 10
123.2253829295798
 20
80.44312350083271
 30
0.0
 11
126.8253829295798
 21
71.44312350083271
 31
0.0
  0
LINE
  5
112
330
1F
100
AcDbEntity
  8
1
  6
Continuous
 62
     2
100
AcDbLine
 10
119.6253829295798
 20
71.44312350083271
 30
0.0
 11
123.2253829295798
 21
80.44312350083271
 31
0.0
  0
LINE
  5
113
330
1F
100
AcDbEntity
  8
1
  6
Continuous
 62
     2
100
AcDbLine
 10
120.7503829295798
 20
74.14312350083271
 30
0.0
 11
125.7003829295798
 21
74.14312350083271
 31
0.0
  0
LINE
  5
114
330
1F
100
AcDbEntity
  8
1
  6
Continuous
 62
     2
100
AcDbLine
 10
116.7003829295798
 20
78.64312350083271
 30
0.0
 11
116.9253829295798
 21
77.74312350083271
 31
0.0
  0
LINE
  5
115
330
1F
100
AcDbEntity
  8
1
  6
Continuous
 62
     2
100
AcDbLine
 10
116.2503829295798
 20
79.31812350083271
 30
0.0
 11
116.7003829295798
 21
78.64312350083271
 31
0.0
  0
LINE
  5
116
330
1F
100
AcDbEntity
  8
1
  6
Continuous
 62
     2
100
AcDbLine
 10
115.8003829295798
 20
79.76812350083271
 30
0.0
 11
116.2503829295798
 21
79.31812350083271
 31
0.0
  0
LINE
  5
117
330
1F
100
AcDbEntity
  8
1
  6
Continuous
 62
     2
100
AcDbLine
 10
115.1253829295798
 20
80.21812350083272
 30
0.0
 11
115.8003829295798
 21
79.76812350083271
 31
0.0
  0
LINE
  5
118
330
1F
100
AcDbEntity
  8
1
  6
Continuous
 62
     2
100
AcDbLine
 10
114.2253829295798
 20
80.44312350083271
 30
0.0
 11
115.1253829295798
 21
80.21812350083272
 31
0.0
  0
LINE
  5
119
330
1F
100
AcDbEntity
  8
1
  6
Continuous
 62
     2
100
AcDbLine
 10
110.6253829295798
 20
80.44312350083271
 30
0.0
 11
114.2253829295798
 21
80.44312350083271
 31
0.0
  0
LINE
  5
11A
330
1F
100
AcDbEntity
  8
1
  6
Continuous
 62
     2
100
AcDbLine
 10
110.6253829295798
 20
71.44312350083271
 30
0.0
 11
110.6253829295798
 21
80.44312350083271
 31
0.0
  0
LINE
  5
11B
330
1F
100
AcDbEntity
  8
1
  6
Continuous
 62
     2
100
AcDbLine
 10
114.2253829295798
 20
71.44312350083271
 30
0.0
 11
110.6253829295798
 21
71.44312350083271
 31
0.0
  0
LINE
  5
11C
330
1F
100
AcDbEntity
  8
1
  6
Continuous
 62
     2
100
AcDbLine
 10
115.1253829295798
 20
71.6681235008327
 30
0.0
 11
114.2253829295798
 21
71.44312350083271
 31
0.0
  0
LINE
  5
11D
330
1F
100
AcDbEntity
  8
1
  6
Continuous
 62
     2
100
AcDbLine
 10
115.8003829295798
 20
72.11812350083271
 30
0.0
 11
115.1253829295798
 21
71.6681235008327
 31
0.0
  0
LINE
  5
11E
330
1F
100
AcDbEntity
  8
1
  6
Continuous
 62
     2
100
AcDbLine
 10
116.2503829295798
 20
72.56812350083271
 30
0.0
 11
115.8003829295798
 21
72.11812350083271
 31
0.0
  0
LINE
  5
11F
330
1F
100
AcDbEntity
  8
1
  6
Continuous
 62
     2
100
AcDbLine
 10
116.7003829295798
 20
73.24312350083271
 30
0.0
 11
116.2503829295798
 21
72.56812350083271
 31
0.0
  0
LINE
  5
120
330
1F
100
AcDbEntity
  8
1
  6
Continuous
 62
     2
100
AcDbLine
 10
116.9253829295798
 20
74.14312350083271
 30
0.0
 11
116.7003829295798
 21
73.24312350083271
 31
0.0
  0
LINE
  5
121
330
1F
100
AcDbEntity
  8
1
  6
Continuous
 62
     2
100
AcDbLine
 10
116.9253829295798
 20
77.74312350083271
 30
0.0
 11
116.9253829295798
 21
74.14312350083271
 31
0.0
  0
LINE
  5
122
330
1F
100
AcDbEntity
  8
1
  6
Continuous
 62
     2
100
AcDbLine
 10
101.6253829295798
 20
71.44312350083271
 30
0.0
 11
101.6253829295798
 21
80.44312350083271
 31
0.0
  0
LINE
  5
123
330
1F
100
AcDbEntity
  8
1
  6
Continuous
 62
     2
100
AcDbLine
 10
103.4253829295798
 20
75.94312350083271
 30
0.0
 11
107.9253829295798
 21
71.44312350083271
 31
0.0
  0
LINE
  5
124
330
1F
100
AcDbEntity
  8
1
  6
Continuous
 62
     2
100
AcDbLine
 10
107.9253829295798
 20
80.44312350083271
 30
0.0
 11
101.6253829295798
 21
74.14312350083271
 31
0.0
  0
LINE
  5
125
330
1F
100
AcDbEntity
  8
1
  6
Continuous
 62
     2
100
AcDbLine
 10
98.92538292957978
 20
71.44312350083271
 30
0.0
 11
98.92538292957978
 21
80.44312350083271
 31
0.0
  0
LINE
  5
126
330
1F
100
AcDbEntity
  8
1
  6
Continuous
 62
     2
100
AcDbLine
 10
92.62538292957979
 20
80.44312350083271
 30
0.0
 11
98.92538292957978
 21
71.44312350083271
 31
0.0
  0
LINE
  5
127
330
1F
100
AcDbEntity
  8
1
  6
Continuous
 62
     2
100
AcDbLine
 10
92.62538292957979
 20
71.44312350083271
 30
0.0
 11
92.62538292957979
 21
80.44312350083271
 31
0.0
  0
LINE
  5
128
330
1F
100
AcDbEntity
  8
1
  6
PHANTOM
 62
     2
100
AcDbLine
 10
90.49756000513827
 20
152.4431235008327
 30
0.0
 11
90.49756000513827
 21
159.372769956461
 31
0.0
  0
LINE
  5
129
330
1F
100
AcDbEntity
  8
1
  6
PHANTOM
 62
     2
100
AcDbLine
 10
100.5386177193435
 20
152.4431235008327
 30
0.0
 11
90.49756000513827
 21
152.4431235008327
 31
0.0
  0
LINE
  5
12A
330
1F
100
AcDbEntity
  8
1
  6
PHANTOM
 62
     2
100
AcDbLine
 10
100.5386177193435
 20
159.372769956461
 30
0.0
 11
100.5386177193435
 21
152.4431235008327
 31
0.0
  0
LINE
  5
12B
330
1F
100
AcDbEntity
  8
1
  6
PHANTOM
 62
     2
100
AcDbLine
 10
90.49756000513827
 20
159.372769956461
 30
0.0
 11
100.5386177193435
 21
159.372769956461
 31
0.0
  0
LINE
  5
12C
330
1F
100
AcDbEntity
  8
1
  6
DOT_CENTER
 62
     2
100
AcDbLine
 10
37.55076585915958
 20
316.0950646999916
 30
0.0
 11
267.8868234265452
 21
316.0950646999916
 31
0.0
  0
LINE
  5
12D
330
1F
100
AcDbEntity
  8
1
  6
Continuous
 62
     7
100
AcDbLine
 10
100.628096371509
 20
292.3382229494121
 30
0.0
 11
100.7817702560275
 21
293.1236302625031
 31
0.0
  0
LINE
  5
12E
330
1F
100
AcDbEntity
  8
1
  6
Continuous
 62
     7
100
AcDbLine
 10
96.72357413590692
 20
293.2138449384476
 30
0.0
 11
100.628096371509
 21
292.3382229494121
 31
0.0
  0
LINE
  5
12F
330
1F
100
AcDbEntity
  8
1
  6
Continuous
 62
     7
100
AcDbLine
 10
96.87724802042527
 20
293.9992522515386
 30
0.0
 11
96.72357413590692
 21
293.2138449384476
 31
0.0
  0
LINE
  5
130
330
1F
100
AcDbEntity
  8
1
  6
Continuous
 62
     7
100
AcDbLine
 10
94.5862199986293
 20
293.6931646011431
 30
0.0
 11
94.73989388314777
 21
294.4785719142342
 31
0.0
  0
LINE
  5
131
330
1F
100
AcDbEntity
  8
1
  6
Continuous
 62
     7
100
AcDbLine
 10
90.68169776302739
 20
294.5687865901787
 30
0.0
 11
94.5862199986293
 21
293.6931646011431
 31
0.0
  0
LINE
  5
132
330
1F
100
AcDbEntity
  8
1
  6
Continuous
 62
     7
100
AcDbLine
 10
90.83537164754591
 20
295.3541939032697
 30
0.0
 11
90.68169776302739
 21
294.5687865901787
 31
0.0
  0
LINE
  5
133
330
1F
100
AcDbEntity
  8
1
  6
Continuous
 62
     7
100
AcDbLine
 10
106.6699727443884
 20
290.9832812976811
 30
0.0
 11
106.8236466289071
 21
291.768688610772
 31
0.0
  0
LINE
  5
134
330
1F
100
AcDbEntity
  8
1
  6
Continuous
 62
     7
100
AcDbLine
 10
102.7654505087865
 20
291.8589032867164
 30
0.0
 11
106.6699727443884
 21
290.9832812976811
 31
0.0
  0
LINE
  5
135
330
1F
100
AcDbEntity
  8
1
  6
Continuous
 62
     7
100
AcDbLine
 10
102.9191243933049
 20
292.6443105998075
 30
0.0
 11
102.7654505087865
 21
291.8589032867164
 31
0.0
  0
LINE
  5
136
330
1F
100
AcDbEntity
  8
1
  6
Continuous
 62
     7
100
AcDbLine
 10
66.5736209501473
 20
300.7950957911966
 30
0.0
 11
117.8887487138637
 21
289.2872462954571
 31
0.0
  0
LINE
  5
137
330
1F
100
AcDbEntity
  8
1
  6
Continuous
 62
     2
100
AcDbLine
 10
48.57491027432741
 20
295.1400646999915
 30
0.0
 11
48.57491027432741
 21
337.0500646999916
 31
0.0
  0
LINE
  5
138
330
1F
100
AcDbEntity
  8
1
  6
Continuous
 62
     2
100
AcDbLine
 10
62.42104190331639
 20
337.0500646999916
 30
0.0
 11
62.42104190331639
 21
295.1400646999915
 31
0.0
  0
LINE
  5
139
330
1F
100
AcDbEntity
  8
1
  6
Continuous
 62
     2
100
AcDbLine
 10
243.5380471528943
 20
337.0500646999916
 30
0.0
 11
243.5380471528943
 21
295.1400646999915
 31
0.0
  0
LINE
  5
13A
330
1F
100
AcDbEntity
  8
1
  6
Continuous
 62
     2
100
AcDbLine
 10
257.4202097359482
 20
295.1400646999915
 30
0.0
 11
257.4202097359482
 21
337.0500646999916
 31
0.0
  0
LINE
  5
13B
330
1F
100
AcDbEntity
  8
1
  6
Continuous
 62
     7
100
AcDbLine
 10
239.4205346184524
 20
299.8368803777155
 30
0.0
 11
193.1040836968714
 21
289.2887732674965
 31
0.0
  0
LINE
  5
13C
330
1F
100
AcDbEntity
  8
1
  6
Continuous
 62
     7
100
AcDbLine
 10
193.1040836968714
 20
342.9013561324865
 30
0.0
 11
239.4205346184524
 21
332.3532490222676
 31
0.0
  0
LINE
  5
13D
330
1F
100
AcDbEntity
  8
1
  6
Continuous
 62
     7
100
AcDbLine
 10
242.9975600051382
 20
335.5500646999915
 30
0.0
 11
242.9975600051382
 21
296.6400646999916
 31
0.0
  0
LINE
  5
13E
330
1F
100
AcDbEntity
  8
1
  6
Continuous
 62
     7
100
AcDbLine
 10
62.99756000513827
 20
296.6400646999916
 30
0.0
 11
62.99756000513827
 21
335.5500646999915
 31
0.0
  0
LINE
  5
13F
330
1F
100
AcDbEntity
  8
1
  6
Continuous
 62
     7
100
AcDbLine
 10
117.8887487138637
 20
342.902883104526
 30
0.0
 11
66.5736209501473
 21
331.3950336087867
 31
0.0
  0
LINE
  5
140
330
1F
100
AcDbEntity
  8
1
  6
Continuous
 62
     7
100
AcDbLine
 10
257.9975600051382
 20
296.6400646999916
 30
0.0
 11
257.9975600051382
 21
335.5500646999915
 31
0.0
  0
LINE
  5
141
330
1F
100
AcDbEntity
  8
1
  6
Continuous
 62
     7
100
AcDbLine
 10
243.5380471528943
 20
337.0500646999916
 30
0.0
 11
257.4202097359482
 21
337.0500646999916
 31
0.0
  0
LINE
  5
142
330
1F
100
AcDbEntity
  8
1
  6
Continuous
 62
     7
100
AcDbLine
 10
243.5380471528943
 20
295.1400646999915
 30
0.0
 11
257.4202097359482
 21
295.1400646999915
 31
0.0
  0
LINE
  5
143
330
1F
100
AcDbEntity
  8
1
  6
Continuous
 62
     7
100
AcDbLine
 10
257.9975600051382
 20
296.6400646999916
 30
0.0
 11
257.4202097359482
 21
295.1400646999915
 31
0.0
  0
LINE
  5
144
330
1F
100
AcDbEntity
  8
1
  6
Continuous
 62
     7
100
AcDbLine
 10
257.9975600051382
 20
335.5500646999915
 30
0.0
 11
257.4202097359482
 21
337.0500646999916
 31
0.0
  0
LINE
  5
145
330
1F
100
AcDbEntity
  8
1
  6
Continuous
 62
     7
100
AcDbLine
 10
243.5380471528943
 20
337.0500646999916
 30
0.0
 11
242.9975600051382
 21
335.5500646999915
 31
0.0
  0
LINE
  5
146
330
1F
100
AcDbEntity
  8
1
  6
Continuous
 62
     7
100
AcDbLine
 10
243.5380471528943
 20
295.1400646999915
 30
0.0
 11
242.9975600051382
 21
296.6400646999916
 31
0.0
  0
LINE
  5
147
330
1F
100
AcDbEntity
  8
1
  6
Continuous
 62
     2
100
AcDbLine
 10
242.9975600051382
 20
335.5500646999915
 30
0.0
 11
257.9975600051382
 21
335.5500646999915
 31
0.0
  0
LINE
  5
148
330
1F
100
AcDbEntity
  8
1
  6
Continuous
 62
     2
100
AcDbLine
 10
242.9975600051382
 20
296.6400646999916
 30
0.0
 11
257.9975600051382
 21
296.6400646999916
 31
0.0
  0
LINE
  5
149
330
1F
100
AcDbEntity
  8
1
  6
Continuous
 62
     7
100
AcDbLine
 10
47.99756000513827
 20
335.5500646999915
 30
0.0
 11
47.99756000513827
 21
296.6400646999916
 31
0.0
  0
LINE
  5
14A
330
1F
100
AcDbEntity
  8
1
  6
Continuous
 62
     7
100
AcDbLine
 10
48.57491027432741
 20
337.0500646999916
 30
0.0
 11
62.42104190331639
 21
337.0500646999916
 31
0.0
  0
LINE
  5
14B
330
1F
100
AcDbEntity
  8
1
  6
Continuous
 62
     7
100
AcDbLine
 10
48.57491027432741
 20
295.1400646999915
 30
0.0
 11
62.42104190331639
 21
295.1400646999915
 31
0.0
  0
LINE
  5
14C
330
1F
100
AcDbEntity
  8
1
  6
Continuous
 62
     7
100
AcDbLine
 10
62.42104190331639
 20
337.0500646999916
 30
0.0
 11
62.99756000513827
 21
335.5500646999915
 31
0.0
  0
LINE
  5
14D
330
1F
100
AcDbEntity
  8
1
  6
Continuous
 62
     7
100
AcDbLine
 10
47.99756000513827
 20
335.5500646999915
 30
0.0
 11
48.57491027432741
 21
337.0500646999916
 31
0.0
  0
LINE
  5
14E
330
1F
100
AcDbEntity
  8
1
  6
Continuous
 62
     7
100
AcDbLine
 10
47.99756000513827
 20
296.6400646999916
 30
0.0
 11
48.57491027432741
 21
295.1400646999915
 31
0.0
  0
LINE
  5
14F
330
1F
100
AcDbEntity
  8
1
  6
Continuous
 62
     7
100
AcDbLine
 10
62.42104190331639
 20
295.1400646999915
 30
0.0
 11
62.99756000513827
 21
296.6400646999916
 31
0.0
  0
LINE
  5
150
330
1F
100
AcDbEntity
  8
1
  6
Continuous
 62
     2
100
AcDbLine
 10
47.99756000513827
 20
335.5500646999915
 30
0.0
 11
62.99756000513827
 21
335.5500646999915
 31
0.0
  0
LINE
  5
151
330
1F
100
AcDbEntity
  8
1
  6
Continuous
 62
     2
100
AcDbLine
 10
47.99756000513827
 20
296.6400646999916
 30
0.0
 11
62.99756000513827
 21
296.6400646999916
 31
0.0
  0
LINE
  5
152
330
1F
100
AcDbEntity
  8
1
  6
Continuous
 62
     7
100
AcDbLine
 10
242.9881980272962
 20
137.443088097705
 30
0.0
 11
243.4872418772051
 21
136.4431235008327
 31
0.0
  0
LINE
  5
153
330
1F
100
AcDbEntity
  8
1
  6
Continuous
 62
     7
100
AcDbLine
 10
243.4872418772051
 20
136.4431235008327
 30
0.0
 11
243.5380471528943
 21
136.4431235008327
 31
0.0
  0
LINE
  5
154
330
1F
100
AcDbEntity
  8
1
  6
Continuous
 62
     7
100
AcDbLine
 10
200.8265912494843
 20
137.7976934219342
 30
0.0
 11
239.9182705719837
 21
140.2614241699289
 31
0.0
  0
LINE
  5
155
330
1F
100
AcDbEntity
  8
1
  6
Continuous
 62
     7
100
AcDbLine
 10
257.9975600051382
 20
137.4431235008327
 30
0.0
 11
257.9975600051331
 21
174.4431235008356
 31
0.0
  0
LINE
  5
156
330
1F
100
AcDbEntity
  8
1
  6
DOT_CENTER
 62
     2
100
AcDbLine
 10
174.4030180000634
 20
155.9431235008327
 30
0.0
 11
263.0116316009473
 21
155.9431235008327
 31
0.0
  0
LINE
  5
157
330
1F
100
AcDbEntity
  8
1
  6
Continuous
 62
     2
100
AcDbLine
 10
191.7475600051381
 20
192.9431235008327
 30
0.0
 11
119.2475600051385
 21
192.9431235008327
 31
0.0
  0
LINE
  5
158
330
1F
100
AcDbEntity
  8
1
  6
Continuous
 62
     7
100
AcDbLine
 10
195.4975600051381
 20
194.8531235008329
 30
0.0
 11
195.4975600051382
 21
193.9431235008327
 31
0.0
  0
LINE
  5
159
330
1F
100
AcDbEntity
  8
1
  6
Continuous
 62
     2
100
AcDbLine
 10
194.3975600051382
 20
193.6134528096818
 30
0.0
 11
194.3975600051382
 21
194.8531235008329
 31
0.0
  0
LINE
  5
15A
330
1F
100
AcDbEntity
  8
1
  6
Continuous
 62
     7
100
AcDbLine
 10
48.57491027432741
 20
136.4431235008327
 30
0.0
 11
62.42104190331639
 21
136.4431235008327
 31
0.0
  0
LINE
  5
15B
330
1F
100
AcDbEntity
  8
1
  6
Continuous
 62
     2
100
AcDbLine
 10
48.57491027432741
 20
175.4431235008327
 30
0.0
 11
48.57491027432741
 21
136.4431235008327
 31
0.0
  0
LINE
  5
15C
330
1F
100
AcDbEntity
  8
1
  6
Continuous
 62
     7
100
AcDbLine
 10
205.9804190098813
 20
179.2792142506397
 30
0.0
 11
199.5453150809802
 21
180.4053574381975
 31
0.0
  0
LINE
  5
15D
330
1F
100
AcDbEntity
  8
1
  6
DOT_CENTER
 62
     2
100
AcDbLine
 10
199.0202262513504
 20
184.4431235008327
 30
0.0
 11
199.4975600051383
 21
184.4431235008327
 31
0.0
  0
LINE
  5
15E
330
1F
100
AcDbEntity
  8
1
  6
Continuous
 62
     7
100
AcDbLine
 10
108.5566720350524
 20
176.3078636348536
 30
0.0
 11
66.27739476690931
 21
171.6581962711874
 31
0.0
  0
LINE
  5
15F
330
1F
100
AcDbEntity
  8
1
  6
Continuous
 62
     7
100
AcDbLine
 10
185.4975600051383
 20
121.6200746289431
 30
0.0
 11
185.4975600051383
 21
120.9431235008327
 31
0.0
  0
LINE
  5
160
330
1F
100
AcDbEntity
  8
1
  6
Continuous
 62
     7
100
AcDbLine
 10
257.9975600051382
 20
174.4431235008327
 30
0.0
 11
257.4202097359482
 21
175.4431235008327
 31
0.0
  0
LINE
  5
161
330
1F
100
AcDbEntity
  8
1
  6
Continuous
 62
     7
100
AcDbLine
 10
47.99756000513827
 20
137.4431235008327
 30
0.0
 11
48.57491027432741
 21
136.4431235008327
 31
0.0
  0
LINE
  5
162
330
1F
100
AcDbEntity
  8
1
  6
Continuous
 62
     7
100
AcDbLine
 10
125.4975600051383
 20
122.0918689475872
 30
0.0
 11
125.4975600051383
 21
120.9431235008327
 31
0.0
  0
LINE
  5
163
330
1F
100
AcDbEntity
  8
1
  6
Continuous
 62
     7
100
AcDbLine
 10
156.9975600051383
 20
121.951951294519
 30
0.0
 11
156.9975600051383
 21
120.9431235008327
 31
0.0
  0
LINE
  5
164
330
1F
100
AcDbEntity
  8
1
  6
Continuous
 62
     2
100
AcDbLine
 10
47.99756000513827
 20
174.4431235008327
 30
0.0
 11
62.99839217250531
 21
174.4431235008327
 31
0.0
  0
LINE
  5
165
330
1F
100
AcDbEntity
  8
1
  6
Continuous
 62
     2
100
AcDbLine
 10
47.99756000513827
 20
137.4431235008327
 30
0.0
 11
62.99839217250531
 21
137.4431235008327
 31
0.0
  0
LINE
  5
166
330
1F
100
AcDbEntity
  8
1
  6
Continuous
 62
     2
100
AcDbLine
 10
242.9881951209511
 20
137.4431235008327
 30
0.0
 11
257.9975600051382
 21
137.4431235008327
 31
0.0
  0
LINE
  5
167
330
1F
100
AcDbEntity
  8
1
  6
Continuous
 62
     7
100
AcDbLine
 10
200.4975600051383
 20
187.4431235008327
 30
0.0
 11
193.4975600051383
 21
187.4431235008327
 31
0.0
  0
LINE
  5
168
330
1F
100
AcDbEntity
  8
1
  6
Continuous
 62
     7
100
AcDbLine
 10
203.4975600051383
 20
182.2343056521069
 30
0.0
 11
203.4975600051383
 21
184.4431235008327
 31
0.0
  0
LINE
  5
169
330
1F
100
AcDbEntity
  8
1
  6
DOT_CENTER
 62
     2
100
AcDbLine
 10
199.4975600051383
 20
184.4431235008327
 30
0.0
 11
202.0352770136993
 21
184.4431235008327
 31
0.0
  0
LINE
  5
16A
330
1F
100
AcDbEntity
  8
1
  6
DOT_CENTER
 62
     2
100
AcDbLine
 10
200.4975600051383
 20
182.9416443646697
 30
0.0
 11
200.4975600051383
 21
185.8544900164304
 31
0.0
  0
LINE
  5
16B
330
1F
100
AcDbEntity
  8
1
  6
Continuous
 62
     7
100
AcDbLine
 10
188.5139074991774
 20
126.3040652331794
 30
0.0
 11
235.4975600051382
 21
139.6310665269216
 31
0.0
  0
LINE
  5
16C
330
1F
100
AcDbEntity
  8
1
  6
Continuous
 62
     7
100
AcDbLine
 10
47.99756000513827
 20
137.4431235008327
 30
0.0
 11
48.57491027432741
 21
136.4431235008327
 31
0.0
  0
LINE
  5
16D
330
1F
100
AcDbEntity
  8
1
  6
Continuous
 62
     7
100
AcDbLine
 10
257.4202097359482
 20
136.4431235008327
 30
0.0
 11
257.9975600051382
 21
137.4431235008327
 31
0.0
  0
LINE
  5
16E
330
1F
100
AcDbEntity
  8
1
  6
Continuous
 62
     7
100
AcDbLine
 10
48.57491027432741
 20
175.4431235008327
 30
0.0
 11
47.99756000513827
 21
174.4431235008327
 31
0.0
  0
LINE
  5
16F
330
1F
100
AcDbEntity
  8
1
  6
Continuous
 62
     7
100
AcDbLine
 10
47.99756000513827
 20
174.4431235008327
 30
0.0
 11
47.99756000513827
 21
137.4431235008327
 31
0.0
  0
LINE
  5
170
330
1F
100
AcDbEntity
  8
1
  6
Continuous
 62
     7
100
AcDbLine
 10
153.9975600051383
 20
120.9431235008327
 30
0.0
 11
153.9975600051383
 21
121.952026747653
 31
0.0
  0
LINE
  5
171
330
1F
100
AcDbEntity
  8
1
  6
Continuous
 62
     7
100
AcDbLine
 10
62.42104190331639
 20
136.4431235008327
 30
0.0
 11
62.99839217250531
 21
137.4431235008327
 31
0.0
  0
LINE
  5
172
330
1F
100
AcDbEntity
  8
1
  6
Continuous
 62
     7
100
AcDbLine
 10
62.42104190331639
 20
136.4431235008327
 30
0.0
 11
62.99839217250531
 21
137.4431235008327
 31
0.0
  0
LINE
  5
173
330
1F
100
AcDbEntity
  8
1
  6
Continuous
 62
     7
100
AcDbLine
 10
47.99756000513827
 20
137.4431235008327
 30
0.0
 11
48.57491027432741
 21
136.4431235008327
 31
0.0
  0
LINE
  5
174
330
1F
100
AcDbEntity
  8
1
  6
Continuous
 62
     7
100
AcDbLine
 10
47.99756000513827
 20
137.4431235008327
 30
0.0
 11
48.57491027432741
 21
136.4431235008327
 31
0.0
  0
LINE
  5
175
330
1F
100
AcDbEntity
  8
1
  6
Continuous
 62
     7
100
AcDbLine
 10
62.99839217250531
 20
174.4431235008327
 30
0.0
 11
62.42104190331639
 21
175.4431235008327
 31
0.0
  0
LINE
  5
176
330
1F
100
AcDbEntity
  8
1
  6
Continuous
 62
     7
100
AcDbLine
 10
62.99839217250531
 20
137.4431235008327
 30
0.0
 11
62.99839217250531
 21
174.4431235008327
 31
0.0
  0
LINE
  5
177
330
1F
100
AcDbEntity
  8
1
  6
Continuous
 62
     2
100
AcDbLine
 10
62.42104190331639
 20
136.4431235008327
 30
0.0
 11
62.42104190331639
 21
175.4431235008327
 31
0.0
  0
LINE
  5
178
330
1F
100
AcDbEntity
  8
1
  6
Continuous
 62
     2
100
AcDbLine
 10
257.4202097359482
 20
175.4431235008327
 30
0.0
 11
257.4202097359482
 21
136.4431235008327
 31
0.0
  0
LINE
  5
179
330
1F
100
AcDbEntity
  8
1
  6
Continuous
 62
     7
100
AcDbLine
 10
243.5380471528943
 20
175.4431235008327
 30
0.0
 11
257.4202097359482
 21
175.4431235008327
 31
0.0
  0
LINE
  5
17A
330
1F
100
AcDbEntity
  8
1
  6
Continuous
 62
     7
100
AcDbLine
 10
242.9566663548451
 20
174.4431235008327
 30
0.0
 11
257.9975600051382
 21
174.4431235008327
 31
0.0
  0
LINE
  5
17B
330
1F
100
AcDbEntity
  8
1
  6
Continuous
 62
     7
100
AcDbLine
 10
239.6816942893013
 20
171.6581962711874
 30
0.0
 11
205.9519145670493
 21
179.2843444564479
 31
0.0
  0
LINE
  5
17C
330
1F
100
AcDbEntity
  8
1
  6
Continuous
 62
     7
100
AcDbLine
 10
243.5380471528943
 20
175.4431235008327
 30
0.0
 11
242.9606968837053
 21
174.4431235008327
 31
0.0
  0
LINE
  5
17D
330
1F
100
AcDbEntity
  8
1
  6
Continuous
 62
     7
100
AcDbLine
 10
242.9881951209511
 20
174.4431235008327
 30
0.0
 11
242.9881951209511
 21
137.4431235008327
 31
0.0
  0
LINE
  5
17E
330
1F
100
AcDbEntity
  8
1
  6
Continuous
 62
     2
100
AcDbLine
 10
243.5380471528943
 20
175.4431235008327
 30
0.0
 11
243.5380471528943
 21
136.4431235008327
 31
0.0
  0
LINE
  5
17F
330
1F
100
AcDbEntity
  8
1
  6
Continuous
 62
     7
100
AcDbLine
 10
243.5380471528943
 20
136.4431235008327
 30
0.0
 11
257.4202097359482
 21
136.4431235008327
 31
0.0
  0
LINE
  5
180
330
1F
100
AcDbEntity
  8
1
  6
Continuous
 62
     7
100
AcDbLine
 10
115.4975600051382
 20
193.9431235008327
 30
0.0
 11
195.4975600051382
 21
193.9431235008327
 31
0.0
  0
LINE
  5
181
330
1F
100
AcDbEntity
  8
1
  6
Continuous
 62
     7
100
AcDbLine
 10
158.4975600051383
 20
157.2373791361179
 30
0.0
 11
158.4975600051383
 21
158.9431235008327
 31
0.0
  0
LINE
  5
182
330
1F
100
AcDbEntity
  8
1
  6
PHANTOM
 62
     7
100
AcDbLine
 10
149.4975600051383
 20
158.9431235008327
 30
0.0
 11
149.4975600051383
 21
151.6067298774003
 31
0.0
  0
LINE
  5
183
330
1F
100
AcDbEntity
  8
1
  6
Continuous
 62
     7
100
AcDbLine
 10
166.4975600051383
 20
173.1931235008327
 30
0.0
 11
138.4975600051383
 21
173.1931235008327
 31
0.0
  0
LINE
  5
184
330
1F
100
AcDbEntity
  8
1
  6
Continuous
 62
     7
100
AcDbLine
 10
138.4975600051383
 20
174.6931235008327
 30
0.0
 11
166.4975600051383
 21
174.6931235008327
 31
0.0
  0
LINE
  5
185
330
1F
100
AcDbEntity
  8
1
  6
Continuous
 62
     7
100
AcDbLine
 10
138.4975600051383
 20
173.1931235008327
 30
0.0
 11
138.4975600051383
 21
174.6931235008327
 31
0.0
  0
LINE
  5
186
330
1F
100
AcDbEntity
  8
1
  6
Continuous
 62
     7
100
AcDbLine
 10
140.4975600051383
 20
174.6931235008327
 30
0.0
 11
138.4975600051383
 21
177.4431235008327
 31
0.0
  0
LINE
  5
187
330
1F
100
AcDbEntity
  8
1
  6
Continuous
 62
     7
100
AcDbLine
 10
138.4975600051383
 20
177.4431235008327
 30
0.0
 11
155.4975600051383
 21
177.4431235008327
 31
0.0
  0
LINE
  5
188
330
1F
100
AcDbEntity
  8
1
  6
Continuous
 62
     7
100
AcDbLine
 10
155.4975600051383
 20
177.4431235008327
 30
0.0
 11
157.4975600051383
 21
174.6931235008327
 31
0.0
  0
LINE
  5
189
330
1F
100
AcDbEntity
  8
1
  6
Continuous
 62
     7
100
AcDbLine
 10
166.4975600051383
 20
174.6931235008327
 30
0.0
 11
166.4975600051383
 21
177.4431235008327
 31
0.0
  0
LINE
  5
18A
330
1F
100
AcDbEntity
  8
1
  6
Continuous
 62
     7
100
AcDbLine
 10
166.4975600051383
 20
177.4431235008327
 30
0.0
 11
172.4975600051383
 21
173.9431235008327
 31
0.0
  0
LINE
  5
18B
330
1F
100
AcDbEntity
  8
1
  6
Continuous
 62
     7
100
AcDbLine
 10
138.4975600051383
 20
170.4431235008327
 30
0.0
 11
140.4975600051383
 21
173.1931235008327
 31
0.0
  0
LINE
  5
18C
330
1F
100
AcDbEntity
  8
1
  6
Continuous
 62
     7
100
AcDbLine
 10
155.4975600051383
 20
170.4431235008327
 30
0.0
 11
138.4975600051383
 21
170.4431235008327
 31
0.0
  0
LINE
  5
18D
330
1F
100
AcDbEntity
  8
1
  6
Continuous
 62
     7
100
AcDbLine
 10
157.4975600051383
 20
173.1931235008327
 30
0.0
 11
155.4975600051383
 21
170.4431235008327
 31
0.0
  0
LINE
  5
18E
330
1F
100
AcDbEntity
  8
1
  6
Continuous
 62
     7
100
AcDbLine
 10
166.4975600051383
 20
170.4431235008327
 30
0.0
 11
166.4975600051383
 21
173.1931235008327
 31
0.0
  0
LINE
  5
18F
330
1F
100
AcDbEntity
  8
1
  6
Continuous
 62
     7
100
AcDbLine
 10
172.4975600051383
 20
173.9431235008327
 30
0.0
 11
166.4975600051383
 21
170.4431235008327
 31
0.0
  0
LINE
  5
190
330
1F
100
AcDbEntity
  8
1
  6
Continuous
 62
     7
100
AcDbLine
 10
149.4975600051383
 20
151.6067298774003
 30
0.0
 11
154.7852385796605
 21
151.6067298774003
 31
0.0
  0
LINE
  5
191
330
1F
100
AcDbEntity
  8
1
  6
Continuous
 62
     7
100
AcDbLine
 10
151.2521507022703
 20
148.8272265142678
 30
0.0
 11
149.4975600051383
 21
148.6378433638511
 31
0.0
  0
LINE
  5
192
330
1F
100
AcDbEntity
  8
1
  6
Continuous
 62
     7
100
AcDbLine
 10
155.0550844799805
 20
153.0842429994856
 30
0.0
 11
151.4269659180394
 21
153.0842429994856
 31
0.0
  0
LINE
  5
193
330
1F
100
AcDbEntity
  8
1
  6
Continuous
 62
     7
100
AcDbLine
 10
151.4269659180394
 20
153.0842429994856
 30
0.0
 11
151.4269659180394
 21
157.2373791361179
 31
0.0
  0
LINE
  5
194
330
1F
100
AcDbEntity
  8
1
  6
Continuous
 62
     7
100
AcDbLine
 10
151.4269659180394
 20
157.2373791361179
 30
0.0
 11
158.4975600051383
 21
157.2373791361179
 31
0.0
  0
LINE
  5
195
330
1F
100
AcDbEntity
  8
1
  6
Continuous
 62
     7
100
AcDbLine
 10
149.4975600051383
 20
151.6067298774003
 30
0.0
 11
149.4975600051383
 21
158.9431235008327
 31
0.0
  0
LINE
  5
196
330
1F
100
AcDbEntity
  8
1
  6
Continuous
 62
     7
100
AcDbLine
 10
149.4975600051383
 20
158.9431235008327
 30
0.0
 11
158.4975600051383
 21
158.9431235008327
 31
0.0
  0
LINE
  5
197
330
1F
100
AcDbEntity
  8
1
  6
DOT_CENTER
 62
     2
100
AcDbLine
 10
155.4975600051383
 20
161.9725107044291
 30
0.0
 11
155.4975600051383
 21
227.6875032265851
 31
0.0
  0
LINE
  5
198
330
1F
100
AcDbEntity
  8
1
  6
DOT_CENTER
 62
     2
100
AcDbLine
 10
107.8570141151414
 20
155.9431235008327
 30
0.0
 11
137.0459652776614
 21
155.9431235008327
 31
0.0
  0
LINE
  5
199
330
1F
100
AcDbEntity
  8
1
  6
Continuous
 62
     7
100
AcDbLine
 10
106.4357468530831
 20
152.4431235008327
 30
0.0
 11
101.8136726671791
 21
152.4431235008327
 31
0.0
  0
LINE
  5
19A
330
1F
100
AcDbEntity
  8
1
  6
Continuous
 62
     7
100
AcDbLine
 10
101.8136726671791
 20
152.4431235008327
 30
0.0
 11
101.8136726671791
 21
159.372769956461
 31
0.0
  0
LINE
  5
19B
330
1F
100
AcDbEntity
  8
1
  6
Continuous
 62
     7
100
AcDbLine
 10
101.8136726671791
 20
159.372769956461
 30
0.0
 11
106.3560559188433
 21
159.372769956461
 31
0.0
  0
LINE
  5
19C
330
1F
100
AcDbEntity
  8
1
  6
Continuous
 62
     7
100
AcDbLine
 10
106.3560559188433
 20
159.372769956461
 30
0.0
 11
106.3560559188433
 21
158.5065641495073
 31
0.0
  0
LINE
  5
19D
330
1F
100
AcDbEntity
  8
1
  6
Continuous
 62
     7
100
AcDbLine
 10
106.3560559188433
 20
158.5065641495073
 30
0.0
 11
102.690272943816
 21
158.5065641495073
 31
0.0
  0
LINE
  5
19E
330
1F
100
AcDbEntity
  8
1
  6
Continuous
 62
     7
100
AcDbLine
 10
102.690272943816
 20
158.5065641495073
 30
0.0
 11
102.690272943816
 21
156.427670212819
 31
0.0
  0
LINE
  5
19F
330
1F
100
AcDbEntity
  8
1
  6
Continuous
 62
     7
100
AcDbLine
 10
102.690272943816
 20
156.427670212819
 30
0.0
 11
106.0372921818844
 21
156.427670212819
 31
0.0
  0
LINE
  5
1A0
330
1F
100
AcDbEntity
  8
1
  6
Continuous
 62
     7
100
AcDbLine
 10
106.0372921818844
 20
156.427670212819
 30
0.0
 11
106.0372921818844
 21
155.5614644058653
 31
0.0
  0
LINE
  5
1A1
330
1F
100
AcDbEntity
  8
1
  6
Continuous
 62
     7
100
AcDbLine
 10
106.0372921818844
 20
155.5614644058653
 30
0.0
 11
102.690272943816
 21
155.5614644058653
 31
0.0
  0
LINE
  5
1A2
330
1F
100
AcDbEntity
  8
1
  6
Continuous
 62
     7
100
AcDbLine
 10
102.690272943816
 20
155.5614644058653
 30
0.0
 11
102.690272943816
 21
153.3093293077862
 31
0.0
  0
LINE
  5
1A3
330
1F
100
AcDbEntity
  8
1
  6
Continuous
 62
     7
100
AcDbLine
 10
102.690272943816
 20
153.3093293077862
 30
0.0
 11
106.4357468530831
 21
153.3093293077862
 31
0.0
  0
LINE
  5
1A4
330
1F
100
AcDbEntity
  8
1
  6
Continuous
 62
     7
100
AcDbLine
 10
106.4357468530831
 20
153.3093293077862
 30
0.0
 11
106.4357468530831
 21
152.4431235008327
 31
0.0
  0
LINE
  5
1A5
330
1F
100
AcDbEntity
  8
1
  6
DOT_CENTER
 62
     2
100
AcDbLine
 10
36.5116316009474
 20
155.9431235008327
 30
0.0
 11
87.91723677778236
 21
155.9431235008327
 31
0.0
  0
LINE
  5
1A6
330
1F
100
AcDbEntity
  8
1
  6
Continuous
 62
     7
100
AcDbLine
 10
48.57491027432741
 20
175.4431235008327
 30
0.0
 11
62.42104190331639
 21
175.4431235008327
 31
0.0
  0
LINE
  5
1A7
330
1F
100
AcDbEntity
  8
1
  6
DOT_CENTER
 62
     2
100
AcDbLine
 10
155.4975600051383
 20
118.4071750526254
 30
0.0
 11
155.4975600051383
 21
143.1138056323482
 31
0.0
  0
LINE
  5
1A8
330
1F
100
AcDbEntity
  8
1
  6
Continuous
 62
     7
100
AcDbLine
 10
185.4975600051383
 20
120.9431235008327
 30
0.0
 11
125.4975600051383
 21
120.9431235008327
 31
0.0
  0
LINE
  5
1A9
330
1F
100
AcDbEntity
  8
1
  6
Continuous
 62
     7
100
AcDbLine
 10
135.2435377513612
 20
123.4303353866104
 30
0.0
 11
143.5702334193343
 21
123.1464127093851
 31
0.0
  0
LINE
  5
1AA
330
1F
100
AcDbEntity
  8
1
  6
Continuous
 62
     7
100
AcDbLine
 10
193.4975600051383
 20
187.6033775386771
 30
0.0
 11
193.4975600051383
 21
191.9431235008327
 31
0.0
  0
LINE
  5
1AB
330
1F
100
AcDbEntity
  8
1
  6
Continuous
 62
     2
100
AcDbLine
 10
116.597560005138
 20
194.8531235008329
 30
0.0
 11
116.5975600051381
 21
193.6134528096818
 31
0.0
  0
LINE
  5
1AC
330
1F
100
AcDbEntity
  8
1
  6
Continuous
 62
     7
100
AcDbLine
 10
115.4975600051381
 20
194.8531235008329
 30
0.0
 11
115.4975600051382
 21
193.9431235008327
 31
0.0
  0
LINE
  5
1AD
330
1F
100
AcDbEntity
  8
1
  6
Continuous
 62
     7
100
AcDbLine
 10
117.4975600051383
 20
191.9431235008327
 30
0.0
 11
117.4975600051383
 21
187.6033775386771
 31
0.0
  0
LINE
  5
1AE
330
1F
100
AcDbEntity
  8
1
  6
Continuous
 62
     7
100
AcDbLine
 10
201.222935892057
 20
320.0950646999914
 30
0.0
 11
204.4975600051381
 21
320.0950646999914
 31
0.0
  0
LINE
  5
1AF
330
1F
100
AcDbEntity
  8
1
  6
Continuous
 62
     7
100
AcDbLine
 10
201.222935892057
 20
312.0950646999914
 30
0.0
 11
204.4975600051381
 21
312.0950646999914
 31
0.0
  0
LINE
  5
1B0
330
1F
100
AcDbEntity
  8
1
  6
Continuous
 62
     7
100
AcDbLine
 10
204.4975600051381
 20
312.0950646999914
 30
0.0
 11
204.4975600051381
 21
320.0950646999914
 31
0.0
  0
LINE
  5
1B1
330
1F
100
AcDbEntity
  8
1
  6
Continuous
 62
     7
100
AcDbLine
 10
151.4975600051383
 20
267.0950646999916
 30
0.0
 11
159.4975600051383
 21
267.0950646999916
 31
0.0
  0
LINE
  5
1B2
330
1F
100
AcDbEntity
  8
1
  6
Continuous
 62
     7
100
AcDbLine
 10
159.4975600051383
 20
365.0950646999914
 30
0.0
 11
159.4975600051383
 21
358.4064106960715
 31
0.0
  0
LINE
  5
1B3
330
1F
100
AcDbEntity
  8
1
  6
Continuous
 62
     7
100
AcDbLine
 10
151.4975600051383
 20
365.0950646999914
 30
0.0
 11
151.4975600051383
 21
358.4064106960715
 31
0.0
  0
LINE
  5
1B4
330
1F
100
AcDbEntity
  8
1
  6
Continuous
 62
     7
100
AcDbLine
 10
151.4975600051383
 20
365.0950646999914
 30
0.0
 11
159.4975600051383
 21
365.0950646999914
 31
0.0
  0
LINE
  5
1B5
330
1F
100
AcDbEntity
  8
1
  6
Continuous
 62
     7
100
AcDbLine
 10
159.4975600051383
 20
273.7837187039114
 30
0.0
 11
159.4975600051383
 21
267.0950646999916
 31
0.0
  0
LINE
  5
1B6
330
1F
100
AcDbEntity
  8
1
  6
Continuous
 62
     7
100
AcDbLine
 10
151.4975600051383
 20
273.7837187039114
 30
0.0
 11
151.4975600051383
 21
267.0950646999916
 31
0.0
  0
LINE
  5
1B7
330
1F
100
AcDbEntity
  8
1
  6
Continuous
 62
     7
100
AcDbLine
 10
160.3575600051382
 20
286.3950646999914
 30
0.0
 11
160.3575600051382
 21
345.7950646999915
 31
0.0
  0
LINE
  5
1B8
330
1F
100
AcDbEntity
  8
1
  6
Continuous
 62
     7
100
AcDbLine
 10
171.6975600051383
 20
286.3950646999914
 30
0.0
 11
160.3575600051382
 21
286.3950646999914
 31
0.0
  0
LINE
  5
1B9
330
1F
100
AcDbEntity
  8
1
  6
Continuous
 62
     7
100
AcDbLine
 10
171.6975600051383
 20
345.7950646999915
 30
0.0
 11
171.6975600051383
 21
286.3950646999914
 31
0.0
  0
LINE
  5
1BA
330
1F
100
AcDbEntity
  8
1
  6
Continuous
 62
     7
100
AcDbLine
 10
160.3575600051382
 20
345.7950646999915
 30
0.0
 11
171.6975600051383
 21
345.7950646999915
 31
0.0
  0
LINE
  5
1BB
330
1F
100
AcDbEntity
  8
1
  6
Continuous
 62
     7
100
AcDbLine
 10
195.7447710886408
 20
305.2950646999915
 30
0.0
 11
199.2508913068804
 21
305.2950646999915
 31
0.0
  0
LINE
  5
1BC
330
1F
100
AcDbEntity
  8
1
  6
Continuous
 62
     7
100
AcDbLine
 10
195.7447710886408
 20
326.8950646999914
 30
0.0
 11
199.2508913068804
 21
326.8950646999914
 31
0.0
  0
LINE
  5
1BD
330
1F
100
AcDbEntity
  8
1
  6
Continuous
 62
     7
100
AcDbLine
 10
146.0583600051383
 20
320.0478646999915
 30
0.0
 11
147.6567600051383
 21
320.0478646999915
 31
0.0
  0
LINE
  5
1BE
330
1F
100
AcDbEntity
  8
1
  6
Continuous
 62
     7
100
AcDbLine
 10
147.6567600051383
 20
320.0478646999915
 30
0.0
 11
147.6567600051383
 21
316.8942646999915
 31
0.0
  0
LINE
  5
1BF
330
1F
100
AcDbEntity
  8
1
  6
Continuous
 62
     7
100
AcDbLine
 10
147.6567600051383
 20
316.8942646999915
 30
0.0
 11
150.8103600051383
 21
316.8942646999915
 31
0.0
  0
LINE
  5
1C0
330
1F
100
AcDbEntity
  8
1
  6
Continuous
 62
     7
100
AcDbLine
 10
150.8103600051383
 20
316.8942646999915
 30
0.0
 11
150.8103600051383
 21
315.2958646999914
 31
0.0
  0
LINE
  5
1C1
330
1F
100
AcDbEntity
  8
1
  6
Continuous
 62
     7
100
AcDbLine
 10
150.8103600051383
 20
315.2958646999914
 30
0.0
 11
147.6567600051383
 21
315.2958646999914
 31
0.0
  0
LINE
  5
1C2
330
1F
100
AcDbEntity
  8
1
  6
Continuous
 62
     7
100
AcDbLine
 10
147.6567600051383
 20
315.2958646999914
 30
0.0
 11
147.6567600051383
 21
312.1422646999914
 31
0.0
  0
LINE
  5
1C3
330
1F
100
AcDbEntity
  8
1
  6
Continuous
 62
     7
100
AcDbLine
 10
147.6567600051383
 20
312.1422646999914
 30
0.0
 11
146.0583600051383
 21
312.1422646999914
 31
0.0
  0
LINE
  5
1C4
330
1F
100
AcDbEntity
  8
1
  6
Continuous
 62
     7
100
AcDbLine
 10
146.0583600051383
 20
312.1422646999914
 30
0.0
 11
146.0583600051383
 21
315.2958646999914
 31
0.0
  0
LINE
  5
1C5
330
1F
100
AcDbEntity
  8
1
  6
Continuous
 62
     7
100
AcDbLine
 10
146.0583600051383
 20
315.2958646999914
 30
0.0
 11
142.9047600051382
 21
315.2958646999914
 31
0.0
  0
LINE
  5
1C6
330
1F
100
AcDbEntity
  8
1
  6
Continuous
 62
     7
100
AcDbLine
 10
142.9047600051382
 20
315.2958646999914
 30
0.0
 11
142.9047600051382
 21
316.8942646999915
 31
0.0
  0
LINE
  5
1C7
330
1F
100
AcDbEntity
  8
1
  6
Continuous
 62
     7
100
AcDbLine
 10
142.9047600051382
 20
316.8942646999915
 30
0.0
 11
146.0583600051383
 21
316.8942646999915
 31
0.0
  0
LINE
  5
1C8
330
1F
100
AcDbEntity
  8
1
  6
Continuous
 62
     7
100
AcDbLine
 10
146.0583600051383
 20
316.8942646999915
 30
0.0
 11
146.0583600051383
 21
320.0478646999915
 31
0.0
  0
LINE
  5
1C9
330
1F
100
AcDbEntity
  8
1
  6
Continuous
 62
     7
100
AcDbLine
 10
146.8575600051382
 20
322.3266646999914
 30
0.0
 11
141.4608360989152
 21
325.4424646999914
 31
0.0
  0
LINE
  5
1CA
330
1F
100
AcDbEntity
  8
1
  6
Continuous
 62
     7
100
AcDbLine
 10
141.4608360989152
 20
325.4424646999914
 30
0.0
 11
141.4608360989152
 21
319.2108646999915
 31
0.0
  0
LINE
  5
1CB
330
1F
100
AcDbEntity
  8
1
  6
Continuous
 62
     7
100
AcDbLine
 10
141.4608360989152
 20
319.2108646999915
 30
0.0
 11
136.0641121926921
 21
316.0950646999914
 31
0.0
  0
LINE
  5
1CC
330
1F
100
AcDbEntity
  8
1
  6
Continuous
 62
     7
100
AcDbLine
 10
136.0641121926921
 20
316.0950646999914
 30
0.0
 11
141.4608360989152
 21
312.9792646999914
 31
0.0
  0
LINE
  5
1CD
330
1F
100
AcDbEntity
  8
1
  6
Continuous
 62
     7
100
AcDbLine
 10
141.4608360989152
 20
312.9792646999914
 30
0.0
 11
141.4608360989152
 21
306.7476646999916
 31
0.0
  0
LINE
  5
1CE
330
1F
100
AcDbEntity
  8
1
  6
Continuous
 62
     7
100
AcDbLine
 10
141.4608360989152
 20
306.7476646999916
 30
0.0
 11
146.8575600051382
 21
309.8634646999915
 31
0.0
  0
LINE
  5
1CF
330
1F
100
AcDbEntity
  8
1
  6
Continuous
 62
     7
100
AcDbLine
 10
146.8575600051382
 20
309.8634646999915
 30
0.0
 11
152.2542839113613
 21
306.7476646999916
 31
0.0
  0
LINE
  5
1D0
330
1F
100
AcDbEntity
  8
1
  6
Continuous
 62
     7
100
AcDbLine
 10
152.2542839113613
 20
306.7476646999916
 30
0.0
 11
152.2542839113613
 21
312.9792646999914
 31
0.0
  0
LINE
  5
1D1
330
1F
100
AcDbEntity
  8
1
  6
Continuous
 62
     7
100
AcDbLine
 10
152.2542839113613
 20
312.9792646999914
 30
0.0
 11
157.6510078175846
 21
316.0950646999914
 31
0.0
  0
LINE
  5
1D2
330
1F
100
AcDbEntity
  8
1
  6
Continuous
 62
     7
100
AcDbLine
 10
157.6510078175846
 20
316.0950646999914
 30
0.0
 11
152.2542839113613
 21
319.2108646999915
 31
0.0
  0
LINE
  5
1D3
330
1F
100
AcDbEntity
  8
1
  6
Continuous
 62
     7
100
AcDbLine
 10
152.2542839113613
 20
319.2108646999915
 30
0.0
 11
152.2542839113613
 21
325.4424646999914
 31
0.0
  0
LINE
  5
1D4
330
1F
100
AcDbEntity
  8
1
  6
Continuous
 62
     7
100
AcDbLine
 10
152.2542839113613
 20
325.4424646999914
 30
0.0
 11
146.8575600051382
 21
322.3266646999914
 31
0.0
  0
LINE
  5
1D5
330
1F
100
AcDbEntity
  8
1
  6
Continuous
 62
     7
100
AcDbLine
 10
146.8575600051382
 20
320.6634646999914
 30
0.0
 11
142.9012095504894
 21
322.9476646999915
 31
0.0
  0
LINE
  5
1D6
330
1F
100
AcDbEntity
  8
1
  6
Continuous
 62
     7
100
AcDbLine
 10
142.9012095504894
 20
322.9476646999915
 30
0.0
 11
142.9012095504894
 21
318.3792646999915
 31
0.0
  0
LINE
  5
1D7
330
1F
100
AcDbEntity
  8
1
  6
Continuous
 62
     7
100
AcDbLine
 10
142.9012095504894
 20
318.3792646999915
 30
0.0
 11
138.9448590958407
 21
316.0950646999914
 31
0.0
  0
LINE
  5
1D8
330
1F
100
AcDbEntity
  8
1
  6
Continuous
 62
     7
100
AcDbLine
 10
138.9448590958407
 20
316.0950646999914
 30
0.0
 11
142.9012095504894
 21
313.8108646999915
 31
0.0
  0
LINE
  5
1D9
330
1F
100
AcDbEntity
  8
1
  6
Continuous
 62
     7
100
AcDbLine
 10
142.9012095504894
 20
313.8108646999915
 30
0.0
 11
142.9012095504894
 21
309.2424646999915
 31
0.0
  0
LINE
  5
1DA
330
1F
100
AcDbEntity
  8
1
  6
Continuous
 62
     7
100
AcDbLine
 10
142.9012095504894
 20
309.2424646999915
 30
0.0
 11
146.8575600051382
 21
311.5266646999914
 31
0.0
  0
LINE
  5
1DB
330
1F
100
AcDbEntity
  8
1
  6
Continuous
 62
     7
100
AcDbLine
 10
146.8575600051382
 20
311.5266646999914
 30
0.0
 11
150.8139104597871
 21
309.2424646999915
 31
0.0
  0
LINE
  5
1DC
330
1F
100
AcDbEntity
  8
1
  6
Continuous
 62
     7
100
AcDbLine
 10
150.8139104597871
 20
309.2424646999915
 30
0.0
 11
150.8139104597871
 21
313.8108646999915
 31
0.0
  0
LINE
  5
1DD
330
1F
100
AcDbEntity
  8
1
  6
Continuous
 62
     7
100
AcDbLine
 10
150.8139104597871
 20
313.8108646999915
 30
0.0
 11
154.7702609144361
 21
316.0950646999917
 31
0.0
  0
LINE
  5
1DE
330
1F
100
AcDbEntity
  8
1
  6
Continuous
 62
     7
100
AcDbLine
 10
154.7702609144361
 20
316.0950646999917
 30
0.0
 11
150.8139104597871
 21
318.3792646999915
 31
0.0
  0
LINE
  5
1DF
330
1F
100
AcDbEntity
  8
1
  6
Continuous
 62
     7
100
AcDbLine
 10
150.8139104597871
 20
318.3792646999915
 30
0.0
 11
150.8139104597871
 21
322.9476646999915
 31
0.0
  0
LINE
  5
1E0
330
1F
100
AcDbEntity
  8
1
  6
Continuous
 62
     7
100
AcDbLine
 10
150.8139104597871
 20
322.9476646999915
 30
0.0
 11
146.8575600051382
 21
320.6634646999914
 31
0.0
  0
LINE
  5
1E1
330
1F
100
AcDbEntity
  8
1
  6
Continuous
 62
     7
100
AcDbLine
 10
134.1606524527189
 20
334.1022381942562
 30
0.0
 11
132.7383108353547
 21
334.9199428954902
 31
0.0
  0
LINE
  5
1E2
330
1F
100
AcDbEntity
  8
1
  6
Continuous
 62
     7
100
AcDbLine
 10
129.8998948763457
 20
326.6878988121165
 30
0.0
 11
128.5456265227656
 21
327.4680856915728
 31
0.0
  0
LINE
  5
1E3
330
1F
100
AcDbEntity
  8
1
  6
Continuous
 62
     7
100
AcDbLine
 10
133.5877234634796
 20
332.6564133508452
 30
0.0
 11
132.1231428766256
 21
333.498401250648
 31
0.0
  0
LINE
  5
1E4
330
1F
100
AcDbEntity
  8
1
  6
Continuous
 62
     7
100
AcDbLine
 10
129.4144718544957
 20
328.7437881245356
 30
0.0
 11
131.0969270045914
 21
327.7765440609062
 31
0.0
  0
LINE
  5
1E5
330
1F
100
AcDbEntity
  8
1
  6
Continuous
 62
     7
100
AcDbLine
 10
129.619058337774
 20
295.6931862615651
 30
0.0
 11
137.9678187349308
 21
301.663277361003
 31
0.0
  0
LINE
  5
1E6
330
1F
100
AcDbEntity
  8
1
  6
Continuous
 62
     7
100
AcDbLine
 10
137.0726289602589
 20
302.9151384824231
 30
0.0
 11
128.723868563102
 21
296.945047382985
 31
0.0
  0
LINE
  5
1E7
330
1F
100
AcDbEntity
  8
1
  6
Continuous
 62
     7
100
AcDbLine
 10
133.0355422796561
 20
312.7821976039492
 30
0.0
 11
123.178213216031
 21
309.518820185004
 31
0.0
  0
LINE
  5
1E8
330
1F
100
AcDbEntity
  8
1
  6
Continuous
 62
     7
100
AcDbLine
 10
125.8359565582602
 20
301.3923289769725
 30
0.0
 11
135.6803343851093
 21
304.6514187462543
 31
0.0
  0
LINE
  5
1E9
330
1F
100
AcDbEntity
  8
1
  6
Continuous
 62
     7
100
AcDbLine
 10
133.9142552419472
 20
323.0248816926377
 30
0.0
 11
123.6050331942276
 21
324.2615575354758
 31
0.0
  0
LINE
  5
1EA
330
1F
100
AcDbEntity
  8
1
  6
Continuous
 62
     7
100
AcDbLine
 10
122.5574481377637
 20
315.7759265621256
 30
0.0
 11
132.8537877103223
 21
314.5407960779724
 31
0.0
  0
LINE
  5
1EB
330
1F
100
AcDbEntity
  8
1
  6
Continuous
 62
     7
100
AcDbLine
 10
139.5531759678364
 20
286.9793880392682
 30
0.0
 11
145.8817387202047
 21
295.1945842874205
 31
0.0
  0
LINE
  5
1EC
330
1F
100
AcDbEntity
  8
1
  6
Continuous
 62
     7
100
AcDbLine
 10
143.6876548802906
 20
338.5930748905793
 30
0.0
 11
139.1008247947974
 21
344.9205873317083
 31
0.0
  0
LINE
  5
1ED
330
1F
100
AcDbEntity
  8
1
  6
Continuous
 62
     7
100
AcDbLine
 10
134.6814431045117
 20
341.6937930260789
 30
0.0
 11
143.6876548802906
 21
338.5930748905793
 31
0.0
  0
LINE
  5
1EE
330
1F
100
AcDbEntity
  8
1
  6
Continuous
 62
     7
100
AcDbLine
 10
139.6256575301559
 20
332.251088806225
 30
0.0
 11
133.5316326970064
 21
340.6577699410372
 31
0.0
  0
LINE
  5
1EF
330
1F
100
AcDbEntity
  8
1
  6
Continuous
 62
     7
100
AcDbLine
 10
135.890286059174
 20
340.0261993519231
 30
0.0
 11
140.7333651018918
 21
333.3451925727335
 31
0.0
  0
LINE
  5
1F0
330
1F
100
AcDbEntity
  8
1
  6
Continuous
 62
     7
100
AcDbLine
 10
145.1479743698674
 20
336.5785704144823
 30
0.0
 11
135.890286059174
 21
340.0261993519231
 31
0.0
  0
LINE
  5
1F1
330
1F
100
AcDbEntity
  8
1
  6
Continuous
 62
     7
100
AcDbLine
 10
140.4368361523674
 20
345.6997470043009
 30
0.0
 11
146.5232458499439
 21
337.3035709163687
 31
0.0
  0
LINE
  5
1F2
330
1F
100
AcDbEntity
  8
1
  6
Continuous
 62
     7
100
AcDbLine
 10
123.2589268746962
 20
322.7530422980561
 30
0.0
 11
127.0626115916069
 21
319.5729829551677
 31
0.0
  0
LINE
  5
1F3
330
1F
100
AcDbEntity
  8
1
  6
Continuous
 62
     7
100
AcDbLine
 10
127.0626115916069
 20
319.5729829551677
 30
0.0
 11
122.5885731761736
 21
317.3225472710481
 31
0.0
  0
LINE
  5
1F4
330
1F
100
AcDbEntity
  8
1
  6
Continuous
 62
     7
100
AcDbLine
 10
133.495712307985
 20
321.5250558219606
 30
0.0
 11
126.0602626786866
 21
322.4169990641013
 31
0.0
  0
LINE
  5
1F5
330
1F
100
AcDbEntity
  8
1
  6
Continuous
 62
     7
100
AcDbLine
 10
126.0602626786866
 20
322.4169990641013
 30
0.0
 11
129.8472276976746
 21
319.2509181751457
 31
0.0
  0
LINE
  5
1F6
330
1F
100
AcDbEntity
  8
1
  6
Continuous
 62
     7
100
AcDbLine
 10
129.8472276976746
 20
319.2509181751457
 30
0.0
 11
125.3534549023999
 21
316.990556122838
 31
0.0
  0
LINE
  5
1F7
330
1F
100
AcDbEntity
  8
1
  6
Continuous
 62
     7
100
AcDbLine
 10
125.3534549023999
 20
316.990556122838
 30
0.0
 11
132.8184830044819
 21
316.0950646999914
 31
0.0
  0
LINE
  5
1F8
330
1F
100
AcDbEntity
  8
1
  6
Continuous
 62
     7
100
AcDbLine
 10
123.5054408645165
 20
308.008401101799
 30
0.0
 11
128.2998932585757
 21
306.7458556210135
 31
0.0
  0
LINE
  5
1F9
330
1F
100
AcDbEntity
  8
1
  6
Continuous
 62
     7
100
AcDbLine
 10
128.2998932585757
 20
306.7458556210135
 30
0.0
 11
125.2060126361614
 21
302.8076601960273
 31
0.0
  0
LINE
  5
1FA
330
1F
100
AcDbEntity
  8
1
  6
Continuous
 62
     7
100
AcDbLine
 10
133.293971930928
 20
311.2463613168978
 30
0.0
 11
126.1841101326683
 21
308.8944813993265
 31
0.0
  0
LINE
  5
1FB
330
1F
100
AcDbEntity
  8
1
  6
Continuous
 62
     7
100
AcDbLine
 10
126.1841101326683
 20
308.8944813993265
 30
0.0
 11
130.9574877527386
 21
307.6374856369387
 31
0.0
  0
LINE
  5
1FC
330
1F
100
AcDbEntity
  8
1
  6
Continuous
 62
     7
100
AcDbLine
 10
130.9574877527386
 20
307.6374856369387
 30
0.0
 11
127.8499604403056
 21
303.6819193632495
 31
0.0
  0
LINE
  5
1FD
330
1F
100
AcDbEntity
  8
1
  6
Continuous
 62
     7
100
AcDbLine
 10
127.8499604403056
 20
303.6819193632495
 30
0.0
 11
134.988105511828
 21
306.0431551395249
 31
0.0
  0
LINE
  5
1FE
330
1F
100
AcDbEntity
  8
1
  6
Continuous
 62
     7
100
AcDbLine
 10
142.954319477606
 20
293.9163079560882
 30
0.0
 11
141.339000212516
 21
293.6466005424023
 31
0.0
  0
LINE
  5
1FF
330
1F
100
AcDbEntity
  8
1
  6
Continuous
 62
     7
100
AcDbLine
 10
138.2404439540373
 20
287.7971598918637
 30
0.0
 11
141.8048173962162
 21
292.424123149555
 31
0.0
  0
LINE
  5
200
330
1F
100
AcDbEntity
  8
1
  6
Continuous
 62
     7
100
AcDbLine
 10
141.8048173962162
 20
292.424123149555
 30
0.0
 11
133.9580742600621
 21
291.11396432037
 31
0.0
  0
LINE
  5
201
330
1F
100
AcDbEntity
  8
1
  6
Continuous
 62
     7
100
AcDbLine
 10
142.954319477606
 20
293.9163079560882
 30
0.0
 11
144.5281845860926
 21
295.9593643719386
 31
0.0
  0
LINE
  5
202
330
1F
100
AcDbEntity
  8
1
  6
Continuous
 62
     7
100
AcDbLine
 10
139.1343556103377
 20
300.4459766048238
 30
0.0
 11
140.0733519291106
 21
293.43527716347
 31
0.0
  0
LINE
  5
203
330
1F
100
AcDbEntity
  8
1
  6
Continuous
 62
     7
100
AcDbLine
 10
140.0733519291106
 20
293.43527716347
 30
0.0
 11
132.7978747476656
 21
292.2205017464074
 31
0.0
  0
LINE
  5
204
330
1F
100
AcDbEntity
  8
1
  6
Continuous
 62
     7
100
AcDbLine
 10
141.339000212516
 20
293.6466005424023
 30
0.0
 11
140.6334451849686
 21
298.9143892851043
 31
0.0
  0
LINE
  5
205
330
1F
100
AcDbEntity
  8
1
  6
Continuous
 62
     7
100
AcDbLine
 10
108.5175600051383
 20
324.4650646999914
 30
0.0
 11
118.6714999389298
 21
324.4650646999914
 31
0.0
  0
LINE
  5
206
330
1F
100
AcDbEntity
  8
1
  6
Continuous
 62
     7
100
AcDbLine
 10
118.6714999389298
 20
319.0650646999915
 30
0.0
 11
107.4375600051383
 21
319.0650646999915
 31
0.0
  0
LINE
  5
207
330
1F
100
AcDbEntity
  8
1
  6
Continuous
 62
     7
100
AcDbLine
 10
107.4375600051383
 20
323.3850646999914
 30
0.0
 11
107.4375600051383
 21
308.8050646999915
 31
0.0
  0
LINE
  5
208
330
1F
100
AcDbEntity
  8
1
  6
Continuous
 62
     7
100
AcDbLine
 10
107.4375600051383
 20
313.1250646999914
 30
0.0
 11
118.6714999389298
 21
313.1250646999914
 31
0.0
  0
LINE
  5
209
330
1F
100
AcDbEntity
  8
1
  6
Continuous
 62
     7
100
AcDbLine
 10
118.6714999389298
 20
307.7250646999914
 30
0.0
 11
108.5175600051383
 21
307.7250646999914
 31
0.0
  0
LINE
  5
20A
330
1F
100
AcDbEntity
  8
1
  6
DOT_CENTER
 62
     2
100
AcDbLine
 10
111.2175600051384
 20
326.8530989031226
 30
0.0
 11
111.2175600051384
 21
304.4461429363245
 31
0.0
  0
LINE
  5
20B
330
1F
100
AcDbEntity
  8
1
  6
Continuous
 62
     7
100
AcDbLine
 10
115.8718978655602
 20
307.7250646999914
 30
0.0
 11
115.0056608153003
 21
307.7250646999914
 31
0.0
  0
LINE
  5
20C
330
1F
100
AcDbEntity
  8
1
  6
DOT_CENTER
 62
     2
100
AcDbLine
 10
155.4975600051383
 20
367.7613556094439
 30
0.0
 11
155.4975600051383
 21
264.5184376462842
 31
0.0
  0
LINE
  5
20D
330
1F
100
AcDbEntity
  8
1
  6
Continuous
 62
     7
100
AcDbLine
 10
186.0203336951137
 20
312.864558017825
 30
0.0
 11
186.0203336951137
 21
311.3907798254239
 31
0.0
  0
LINE
  5
20E
330
1F
100
AcDbEntity
  8
1
  6
Continuous
 62
     7
100
AcDbLine
 10
184.5788834604131
 20
308.8986802948252
 30
0.0
 11
183.9056614759004
 21
310.2451242638506
 31
0.0
  0
LINE
  5
20F
330
1F
100
AcDbEntity
  8
1
  6
Continuous
 62
     7
100
AcDbLine
 10
184.5203336951137
 20
311.3907798254239
 30
0.0
 11
184.5203336951137
 21
313.1407798254239
 31
0.0
  0
LINE
  5
210
330
1F
100
AcDbEntity
  8
1
  6
Continuous
 62
     7
100
AcDbLine
 10
181.058906973911
 20
313.1407798254239
 30
0.0
 11
181.058906973911
 21
309.0157798254239
 31
0.0
  0
LINE
  5
211
330
1F
100
AcDbEntity
  8
1
  6
Continuous
 62
     7
100
AcDbLine
 10
181.058906973911
 20
309.0157798254239
 30
0.0
 11
176.0203336951137
 21
309.0157798254239
 31
0.0
  0
LINE
  5
212
330
1F
100
AcDbEntity
  8
1
  6
Continuous
 62
     7
100
AcDbLine
 10
176.0203336951137
 20
309.0157798254239
 30
0.0
 11
176.0203336951137
 21
315.4849167468043
 31
0.0
  0
LINE
  5
213
330
1F
100
AcDbEntity
  8
1
  6
Continuous
 62
     7
100
AcDbLine
 10
176.0203336951137
 20
315.4849167468043
 30
0.0
 11
177.5203336951137
 21
315.4849167468043
 31
0.0
  0
LINE
  5
214
330
1F
100
AcDbEntity
  8
1
  6
Continuous
 62
     7
100
AcDbLine
 10
177.5203336951137
 20
315.4849167468043
 30
0.0
 11
177.5203336951137
 21
310.5157798254239
 31
0.0
  0
LINE
  5
215
330
1F
100
AcDbEntity
  8
1
  6
Continuous
 62
     7
100
AcDbLine
 10
177.5203336951137
 20
310.5157798254239
 30
0.0
 11
179.558906973911
 21
310.5157798254239
 31
0.0
  0
LINE
  5
216
330
1F
100
AcDbEntity
  8
1
  6
Continuous
 62
     7
100
AcDbLine
 10
179.558906973911
 20
310.5157798254239
 30
0.0
 11
179.558906973911
 21
312.864558017825
 31
0.0
  0
LINE
  5
217
330
1F
100
AcDbEntity
  8
1
  6
Continuous
 62
     7
100
AcDbLine
 10
151.4975600051383
 20
198.3531235008329
 30
0.0
 11
151.4975600051383
 21
210.3531235008329
 31
0.0
  0
LINE
  5
218
330
1F
100
AcDbEntity
  8
1
  6
Continuous
 62
     7
100
AcDbLine
 10
159.4975600051383
 20
198.3531235008329
 30
0.0
 11
151.4975600051383
 21
198.3531235008329
 31
0.0
  0
LINE
  5
219
330
1F
100
AcDbEntity
  8
1
  6
Continuous
 62
     7
100
AcDbLine
 10
159.4975600051383
 20
210.3531235008329
 30
0.0
 11
159.4975600051383
 21
198.3531235008329
 31
0.0
  0
LINE
  5
21A
330
1F
100
AcDbEntity
  8
1
  6
Continuous
 62
     7
100
AcDbLine
 10
151.4975600051383
 20
210.3531235008329
 30
0.0
 11
159.4975600051383
 21
210.3531235008329
 31
0.0
  0
LINE
  5
21B
330
1F
100
AcDbEntity
  8
1
  6
Continuous
 62
     7
100
AcDbLine
 10
112.9975600051383
 20
212.3531235008329
 30
0.0
 11
112.9975600051383
 21
194.8531235008329
 31
0.0
  0
LINE
  5
21C
330
1F
100
AcDbEntity
  8
1
  6
Continuous
 62
     7
100
AcDbLine
 10
112.9975600051383
 20
198.3531235008329
 30
0.0
 11
106.4975600051383
 21
198.3531235008329
 31
0.0
  0
LINE
  5
21D
330
1F
100
AcDbEntity
  8
1
  6
Continuous
 62
     7
100
AcDbLine
 10
114.9975600051383
 20
225.3531235008329
 30
0.0
 11
114.9975600051383
 21
214.3531235008329
 31
0.0
  0
LINE
  5
21E
330
1F
100
AcDbEntity
  8
1
  6
Continuous
 62
     7
100
AcDbLine
 10
114.9975600051383
 20
218.3531235008329
 30
0.0
 11
113.4975600051383
 21
218.3531235008329
 31
0.0
  0
LINE
  5
21F
330
1F
100
AcDbEntity
  8
1
  6
Continuous
 62
     7
100
AcDbLine
 10
197.9975600051383
 20
212.3531235008329
 30
0.0
 11
197.9975600051383
 21
194.8531235008329
 31
0.0
  0
LINE
  5
220
330
1F
100
AcDbEntity
  8
1
  6
Continuous
 62
     7
100
AcDbLine
 10
197.9975600051383
 20
198.3531235008329
 30
0.0
 11
204.4975600051381
 21
198.3531235008329
 31
0.0
  0
LINE
  5
221
330
1F
100
AcDbEntity
  8
1
  6
Continuous
 62
     7
100
AcDbLine
 10
197.9975600051383
 20
210.3531235008329
 30
0.0
 11
204.4975600051381
 21
210.3531235008329
 31
0.0
  0
LINE
  5
222
330
1F
100
AcDbEntity
  8
1
  6
Continuous
 62
     7
100
AcDbLine
 10
204.4975600051381
 20
210.3531235008329
 30
0.0
 11
204.4975600051381
 21
198.3531235008329
 31
0.0
  0
LINE
  5
223
330
1F
100
AcDbEntity
  8
1
  6
Continuous
 62
     7
100
AcDbLine
 10
112.9975600051383
 20
194.8531235008329
 30
0.0
 11
197.9975600051383
 21
194.8531235008329
 31
0.0
  0
LINE
  5
224
330
1F
100
AcDbEntity
  8
1
  6
Continuous
 62
     7
100
AcDbLine
 10
197.9975600051383
 20
212.3531235008329
 30
0.0
 11
112.9975600051383
 21
212.3531235008329
 31
0.0
  0
LINE
  5
225
330
1F
100
AcDbEntity
  8
1
  6
Continuous
 62
     7
100
AcDbLine
 10
106.4975600051383
 20
198.3531235008329
 30
0.0
 11
106.4975600051383
 21
226.3531235008329
 31
0.0
  0
LINE
  5
226
330
1F
100
AcDbEntity
  8
1
  6
DOT_CENTER
 62
     2
100
AcDbLine
 10
109.9975600051383
 20
216.7343873807677
 30
0.0
 11
109.9975600051383
 21
212.8988416432632
 31
0.0
  0
LINE
  5
227
330
1F
100
AcDbEntity
  8
1
  6
DOT_CENTER
 62
     2
100
AcDbLine
 10
107.9862190102872
 20
214.8531235008329
 30
0.0
 11
111.8668888152921
 21
214.8531235008329
 31
0.0
  0
LINE
  5
228
330
1F
100
AcDbEntity
  8
1
  6
Continuous
 62
     7
100
AcDbLine
 10
113.4975600051383
 20
218.3531235008329
 30
0.0
 11
113.4975600051383
 21
214.8531235008329
 31
0.0
  0
LINE
  5
229
330
1F
100
AcDbEntity
  8
1
  6
Continuous
 62
     7
100
AcDbLine
 10
107.4975600051383
 20
225.3531235008329
 30
0.0
 11
199.9975600051381
 21
225.3531235008329
 31
0.0
  0
LINE
  5
22A
330
1F
100
AcDbEntity
  8
1
  6
Continuous
 62
     7
100
AcDbLine
 10
195.9975600051383
 20
224.3531235008329
 30
0.0
 11
195.9975600051383
 21
214.3531235008329
 31
0.0
  0
LINE
  5
22B
330
1F
100
AcDbEntity
  8
1
  6
Continuous
 62
     7
100
AcDbLine
 10
195.9975600051383
 20
222.8531235008329
 30
0.0
 11
200.9975600051383
 21
222.8531235008329
 31
0.0
  0
LINE
  5
22C
330
1F
100
AcDbEntity
  8
1
  6
Continuous
 62
     7
100
AcDbLine
 10
200.9975600051383
 20
224.3531235008329
 30
0.0
 11
200.9975600051383
 21
222.8531235008329
 31
0.0
  0
LINE
  5
22D
330
1F
100
AcDbEntity
  8
1
  6
Continuous
 62
     7
100
AcDbLine
 10
108.4975600051383
 20
228.3531235008329
 30
0.0
 11
116.4975600051383
 21
228.3531235008329
 31
0.0
  0
LINE
  5
22E
330
1F
100
AcDbEntity
  8
1
  6
Continuous
 62
     2
100
AcDbLine
 10
55.12510378469334
 20
123.3518086271699
 30
0.0
 11
54.91297175033737
 21
122.980577567047
 31
0.0
  0
LINE
  5
22F
330
1F
100
AcDbEntity
  8
1
  6
Continuous
 62
     2
100
AcDbLine
 10
54.91297175033737
 20
122.980577567047
 30
0.0
 11
54.64780670739241
 21
122.2911484553901
 31
0.0
  0
LINE
  5
230
330
1F
100
AcDbEntity
  8
1
  6
Continuous
 62
     2
100
AcDbLine
 10
54.64780670739241
 20
122.2911484553901
 30
0.0
 11
54.64780670739241
 21
120.1698281118305
 31
0.0
  0
LINE
  5
231
330
1F
100
AcDbEntity
  8
1
  6
Continuous
 62
     2
100
AcDbLine
 10
54.64780670739241
 20
120.1698281118305
 30
0.0
 11
54.91297175033737
 21
119.5334320087626
 31
0.0
  0
LINE
  5
232
330
1F
100
AcDbEntity
  8
1
  6
Continuous
 62
     2
100
AcDbLine
 10
54.91297175033737
 20
119.5334320087626
 30
0.0
 11
55.12510378469334
 21
119.1091679400507
 31
0.0
  0
LINE
  5
233
330
1F
100
AcDbEntity
  8
1
  6
Continuous
 62
     2
100
AcDbLine
 10
57.72372120555389
 20
119.3743329829956
 30
0.0
 11
57.72372120555389
 21
121.9199173952672
 31
0.0
  0
LINE
  5
234
330
1F
100
AcDbEntity
  8
1
  6
Continuous
 62
     2
100
AcDbLine
 10
57.72372120555389
 20
121.9199173952672
 30
0.0
 11
60.53447066077042
 21
121.9199173952672
 31
0.0
  0
LINE
  5
235
330
1F
100
AcDbEntity
  8
1
  6
Continuous
 62
     2
100
AcDbLine
 10
60.53447066077042
 20
121.9199173952672
 30
0.0
 11
60.53447066077042
 21
119.3743329829956
 31
0.0
  0
LINE
  5
236
330
1F
100
AcDbEntity
  8
1
  6
Continuous
 62
     2
100
AcDbLine
 10
60.53447066077042
 20
119.3743329829956
 30
0.0
 11
57.72372120555389
 21
119.3743329829956
 31
0.0
  0
LINE
  5
237
330
1F
100
AcDbEntity
  8
1
  6
Continuous
 62
     2
100
AcDbLine
 10
57.93585323990986
 20
120.3289271375975
 30
0.0
 11
58.3070843000328
 21
120.7001581977204
 31
0.0
  0
LINE
  5
238
330
1F
100
AcDbEntity
  8
1
  6
Continuous
 62
     2
100
AcDbLine
 10
58.3070843000328
 20
120.7001581977204
 30
0.0
 11
58.67831536015574
 21
121.4956533265553
 31
0.0
  0
LINE
  5
239
330
1F
100
AcDbEntity
  8
1
  6
Continuous
 62
     2
100
AcDbLine
 10
58.67831536015574
 20
121.4956533265553
 30
0.0
 11
58.67831536015574
 21
122.980577567047
 31
0.0
  0
LINE
  5
23A
330
1F
100
AcDbEntity
  8
1
  6
Continuous
 62
     2
100
AcDbLine
 10
57.35249014543096
 20
122.980577567047
 30
0.0
 11
60.90570172089336
 21
122.980577567047
 31
0.0
  0
LINE
  5
23B
330
1F
100
AcDbEntity
  8
1
  6
Continuous
 62
     2
100
AcDbLine
 10
59.4738104889906
 20
122.980577567047
 30
0.0
 11
59.4738104889906
 21
120.8592572234874
 31
0.0
  0
LINE
  5
23C
330
1F
100
AcDbEntity
  8
1
  6
Continuous
 62
     2
100
AcDbLine
 10
59.4738104889906
 20
120.8592572234874
 30
0.0
 11
59.57987650616858
 21
120.5940921805424
 31
0.0
  0
LINE
  5
23D
330
1F
100
AcDbEntity
  8
1
  6
Continuous
 62
     2
100
AcDbLine
 10
59.57987650616858
 20
120.5940921805424
 30
0.0
 11
60.21627260923648
 21
120.5940921805424
 31
0.0
  0
LINE
  5
23E
330
1F
100
AcDbEntity
  8
1
  6
Continuous
 62
     2
100
AcDbLine
 10
60.21627260923648
 20
120.5940921805424
 30
0.0
 11
60.32233862641446
 21
120.8592572234874
 31
0.0
  0
LINE
  5
23F
330
1F
100
AcDbEntity
  8
1
  6
Continuous
 62
     2
100
AcDbLine
 10
61.48906481537226
 20
119.3743329829956
 30
0.0
 11
61.59513083255024
 21
119.7985970517075
 31
0.0
  0
LINE
  5
240
330
1F
100
AcDbEntity
  8
1
  6
Continuous
 62
     2
100
AcDbLine
 10
61.59513083255024
 20
119.7985970517075
 30
0.0
 11
61.70119684972823
 21
120.9653232406653
 31
0.0
  0
LINE
  5
241
330
1F
100
AcDbEntity
  8
1
  6
Continuous
 62
     2
100
AcDbLine
 10
61.70119684972823
 20
120.9653232406653
 30
0.0
 11
61.70119684972823
 21
123.245742609992
 31
0.0
  0
LINE
  5
242
330
1F
100
AcDbEntity
  8
1
  6
Continuous
 62
     2
100
AcDbLine
 10
61.70119684972823
 20
123.245742609992
 30
0.0
 11
65.04227639083466
 21
123.245742609992
 31
0.0
  0
LINE
  5
243
330
1F
100
AcDbEntity
  8
1
  6
Continuous
 62
     2
100
AcDbLine
 10
65.04227639083466
 20
122.2911484553901
 30
0.0
 11
63.61038515893191
 21
122.2911484553901
 31
0.0
  0
LINE
  5
244
330
1F
100
AcDbEntity
  8
1
  6
Continuous
 62
     2
100
AcDbLine
 10
63.39825312457594
 20
122.2911484553901
 30
0.0
 11
62.17849392702915
 21
122.2911484553901
 31
0.0
  0
LINE
  5
245
330
1F
100
AcDbEntity
  8
1
  6
Continuous
 62
     2
100
AcDbLine
 10
62.76185702150804
 20
122.980577567047
 30
0.0
 11
62.76185702150804
 21
120.9653232406653
 31
0.0
  0
LINE
  5
246
330
1F
100
AcDbEntity
  8
1
  6
Continuous
 62
     2
100
AcDbLine
 10
62.07242790985116
 20
121.2304882836103
 30
0.0
 11
62.4436589699741
 21
121.6547523523222
 31
0.0
  0
LINE
  5
247
330
1F
100
AcDbEntity
  8
1
  6
Continuous
 62
     2
100
AcDbLine
 10
62.4436589699741
 20
121.6547523523222
 30
0.0
 11
62.76185702150804
 21
122.2911484553901
 31
0.0
  0
LINE
  5
248
330
1F
100
AcDbEntity
  8
1
  6
Continuous
 62
     2
100
AcDbLine
 10
63.027022064453
 20
121.9199173952672
 30
0.0
 11
63.39825312457594
 21
121.4956533265553
 31
0.0
  0
LINE
  5
249
330
1F
100
AcDbEntity
  8
1
  6
Continuous
 62
     2
100
AcDbLine
 10
63.39825312457594
 20
121.1244222664323
 30
0.0
 11
63.71645117610989
 21
121.3895873093773
 31
0.0
  0
LINE
  5
24A
330
1F
100
AcDbEntity
  8
1
  6
Continuous
 62
     2
100
AcDbLine
 10
63.71645117610989
 20
121.3895873093773
 30
0.0
 11
64.29981427058878
 21
122.2911484553901
 31
0.0
  0
LINE
  5
24B
330
1F
100
AcDbEntity
  8
1
  6
Continuous
 62
     2
100
AcDbLine
 10
64.29981427058878
 20
122.980577567047
 30
0.0
 11
64.29981427058878
 21
120.9653232406653
 31
0.0
  0
LINE
  5
24C
330
1F
100
AcDbEntity
  8
1
  6
Continuous
 62
     2
100
AcDbLine
 10
64.29981427058878
 20
122.2911484553901
 30
0.0
 11
64.67104533071172
 21
121.7608183695002
 31
0.0
  0
LINE
  5
24D
330
1F
100
AcDbEntity
  8
1
  6
Continuous
 62
     2
100
AcDbLine
 10
64.67104533071172
 20
121.7608183695002
 30
0.0
 11
65.25440842519062
 21
121.1244222664323
 31
0.0
  0
LINE
  5
24E
330
1F
100
AcDbEntity
  8
1
  6
Continuous
 62
     2
100
AcDbLine
 10
64.56497931353374
 20
120.5940921805424
 30
0.0
 11
62.65579100433006
 21
120.5940921805424
 31
0.0
  0
LINE
  5
24F
330
1F
100
AcDbEntity
  8
1
  6
Continuous
 62
     2
100
AcDbLine
 10
62.65579100433006
 20
120.5940921805424
 30
0.0
 11
62.65579100433006
 21
119.2682669658176
 31
0.0
  0
LINE
  5
250
330
1F
100
AcDbEntity
  8
1
  6
Continuous
 62
     2
100
AcDbLine
 10
62.65579100433006
 20
119.2682669658176
 30
0.0
 11
64.56497931353374
 21
119.2682669658176
 31
0.0
  0
LINE
  5
251
330
1F
100
AcDbEntity
  8
1
  6
Continuous
 62
     2
100
AcDbLine
 10
64.56497931353374
 20
119.2682669658176
 30
0.0
 11
64.56497931353374
 21
120.5940921805424
 31
0.0
  0
LINE
  5
252
330
1F
100
AcDbEntity
  8
1
  6
Continuous
 62
     2
100
AcDbLine
 10
62.65579100433006
 20
119.9046630688855
 30
0.0
 11
64.56497931353374
 21
119.9046630688855
 31
0.0
  0
LINE
  5
253
330
1F
100
AcDbEntity
  8
1
  6
Continuous
 62
     2
100
AcDbLine
 10
67.64089381169524
 20
119.1091679400507
 30
0.0
 11
67.64089381169524
 21
122.82147854128
 31
0.0
  0
LINE
  5
254
330
1F
100
AcDbEntity
  8
1
  6
Continuous
 62
     2
100
AcDbLine
 10
69.39098309513193
 20
122.82147854128
 30
0.0
 11
65.83777151966953
 21
122.82147854128
 31
0.0
  0
LINE
  5
255
330
1F
100
AcDbEntity
  8
1
  6
Continuous
 62
     2
100
AcDbLine
 10
68.22425690617413
 20
121.9199173952672
 30
0.0
 11
68.91368601783101
 21
121.1244222664323
 31
0.0
  0
LINE
  5
256
330
1F
100
AcDbEntity
  8
1
  6
Continuous
 62
     2
100
AcDbLine
 10
70.45164326691174
 20
121.9199173952672
 30
0.0
 11
70.55770928408973
 21
122.1850824382121
 31
0.0
  0
LINE
  5
257
330
1F
100
AcDbEntity
  8
1
  6
Continuous
 62
     2
100
AcDbLine
 10
70.55770928408973
 20
122.1850824382121
 30
0.0
 11
71.03500636139064
 21
122.4502474811571
 31
0.0
  0
LINE
  5
258
330
1F
100
AcDbEntity
  8
1
  6
Continuous
 62
     2
100
AcDbLine
 10
71.03500636139064
 20
122.4502474811571
 30
0.0
 11
71.51230343869157
 21
122.5563134983351
 31
0.0
  0
LINE
  5
259
330
1F
100
AcDbEntity
  8
1
  6
Continuous
 62
     2
100
AcDbLine
 10
71.51230343869157
 20
122.5563134983351
 30
0.0
 11
72.30779856752643
 21
122.5563134983351
 31
0.0
  0
LINE
  5
25A
330
1F
100
AcDbEntity
  8
1
  6
Continuous
 62
     2
100
AcDbLine
 10
72.30779856752643
 20
122.5563134983351
 30
0.0
 11
72.78509564482735
 21
122.4502474811571
 31
0.0
  0
LINE
  5
25B
330
1F
100
AcDbEntity
  8
1
  6
Continuous
 62
     2
100
AcDbLine
 10
72.78509564482735
 20
122.4502474811571
 30
0.0
 11
73.26239272212827
 21
122.1850824382121
 31
0.0
  0
LINE
  5
25C
330
1F
100
AcDbEntity
  8
1
  6
Continuous
 62
     2
100
AcDbLine
 10
73.26239272212827
 20
122.1850824382121
 30
0.0
 11
73.36845873930625
 21
121.9199173952672
 31
0.0
  0
LINE
  5
25D
330
1F
100
AcDbEntity
  8
1
  6
Continuous
 62
     2
100
AcDbLine
 10
73.36845873930625
 20
121.9199173952672
 30
0.0
 11
73.36845873930625
 21
121.2304882836103
 31
0.0
  0
LINE
  5
25E
330
1F
100
AcDbEntity
  8
1
  6
Continuous
 62
     2
100
AcDbLine
 10
73.36845873930625
 20
121.2304882836103
 30
0.0
 11
73.26239272212827
 21
120.9653232406653
 31
0.0
  0
LINE
  5
25F
330
1F
100
AcDbEntity
  8
1
  6
Continuous
 62
     2
100
AcDbLine
 10
73.26239272212827
 20
120.9653232406653
 30
0.0
 11
72.78509564482735
 21
120.7001581977204
 31
0.0
  0
LINE
  5
260
330
1F
100
AcDbEntity
  8
1
  6
Continuous
 62
     2
100
AcDbLine
 10
72.78509564482735
 20
120.7001581977204
 30
0.0
 11
70.92894034421266
 21
120.4349931547754
 31
0.0
  0
LINE
  5
261
330
1F
100
AcDbEntity
  8
1
  6
Continuous
 62
     2
100
AcDbLine
 10
70.92894034421266
 20
120.4349931547754
 30
0.0
 11
70.55770928408973
 21
120.1698281118305
 31
0.0
  0
LINE
  5
262
330
1F
100
AcDbEntity
  8
1
  6
Continuous
 62
     2
100
AcDbLine
 10
70.55770928408973
 20
120.1698281118305
 30
0.0
 11
70.45164326691174
 21
119.9046630688855
 31
0.0
  0
LINE
  5
263
330
1F
100
AcDbEntity
  8
1
  6
Continuous
 62
     2
100
AcDbLine
 10
70.45164326691174
 20
119.9046630688855
 30
0.0
 11
70.34557724973376
 21
119.1091679400507
 31
0.0
  0
LINE
  5
264
330
1F
100
AcDbEntity
  8
1
  6
Continuous
 62
     2
100
AcDbLine
 10
70.34557724973376
 20
119.1091679400507
 30
0.0
 11
73.36845873930625
 21
119.1091679400507
 31
0.0
  0
LINE
  5
265
330
1F
100
AcDbEntity
  8
1
  6
Continuous
 62
     2
100
AcDbLine
 10
74.42911891108608
 20
122.1850824382121
 30
0.0
 11
75.64887810863287
 21
122.1850824382121
 31
0.0
  0
LINE
  5
266
330
1F
100
AcDbEntity
  8
1
  6
Continuous
 62
     2
100
AcDbLine
 10
75.06551501415397
 20
123.245742609992
 30
0.0
 11
75.06551501415397
 21
119.2682669658176
 31
0.0
  0
LINE
  5
267
330
1F
100
AcDbEntity
  8
1
  6
Continuous
 62
     2
100
AcDbLine
 10
75.06551501415397
 20
122.1850824382121
 30
0.0
 11
74.69428395403104
 21
121.1244222664323
 31
0.0
  0
LINE
  5
268
330
1F
100
AcDbEntity
  8
1
  6
Continuous
 62
     2
100
AcDbLine
 10
74.69428395403104
 20
121.1244222664323
 30
0.0
 11
74.42911891108608
 21
120.7001581977204
 31
0.0
  0
LINE
  5
269
330
1F
100
AcDbEntity
  8
1
  6
Continuous
 62
     2
100
AcDbLine
 10
74.42911891108608
 20
120.7001581977204
 30
0.0
 11
74.3230528939081
 21
120.4349931547754
 31
0.0
  0
LINE
  5
26A
330
1F
100
AcDbEntity
  8
1
  6
Continuous
 62
     2
100
AcDbLine
 10
75.06551501415397
 20
122.1850824382121
 30
0.0
 11
75.48977908286591
 21
121.1244222664323
 31
0.0
  0
LINE
  5
26B
330
1F
100
AcDbEntity
  8
1
  6
Continuous
 62
     2
100
AcDbLine
 10
76.33830722028976
 20
123.086643584225
 30
0.0
 11
75.75494412581087
 21
122.1850824382121
 31
0.0
  0
LINE
  5
26C
330
1F
100
AcDbEntity
  8
1
  6
Continuous
 62
     2
100
AcDbLine
 10
76.55043925464572
 20
122.2911484553901
 30
0.0
 11
76.23224120311178
 21
121.6547523523222
 31
0.0
  0
LINE
  5
26D
330
1F
100
AcDbEntity
  8
1
  6
Continuous
 62
     2
100
AcDbLine
 10
76.23224120311178
 20
121.6547523523222
 30
0.0
 11
75.86101014298885
 21
120.9653232406653
 31
0.0
  0
LINE
  5
26E
330
1F
100
AcDbEntity
  8
1
  6
Continuous
 62
     2
100
AcDbLine
 10
75.86101014298885
 20
120.9653232406653
 30
0.0
 11
75.48977908286591
 21
120.5940921805424
 31
0.0
  0
LINE
  5
26F
330
1F
100
AcDbEntity
  8
1
  6
Continuous
 62
     2
100
AcDbLine
 10
76.1261751859338
 20
121.3895873093773
 30
0.0
 11
76.1261751859338
 21
119.2682669658176
 31
0.0
  0
LINE
  5
270
330
1F
100
AcDbEntity
  8
1
  6
Continuous
 62
     2
100
AcDbLine
 10
76.7095382804127
 20
122.82147854128
 30
0.0
 11
77.77019845219252
 21
122.82147854128
 31
0.0
  0
LINE
  5
271
330
1F
100
AcDbEntity
  8
1
  6
Continuous
 62
     2
100
AcDbLine
 10
76.55043925464572
 20
121.7608183695002
 30
0.0
 11
77.98233048654848
 21
121.7608183695002
 31
0.0
  0
LINE
  5
272
330
1F
100
AcDbEntity
  8
1
  6
Continuous
 62
     2
100
AcDbLine
 10
77.39896739206958
 20
121.7608183695002
 30
0.0
 11
77.39896739206958
 21
119.5334320087626
 31
0.0
  0
LINE
  5
273
330
1F
100
AcDbEntity
  8
1
  6
Continuous
 62
     2
100
AcDbLine
 10
77.39896739206958
 20
119.5334320087626
 30
0.0
 11
77.2929013748916
 21
119.2682669658176
 31
0.0
  0
LINE
  5
274
330
1F
100
AcDbEntity
  8
1
  6
Continuous
 62
     2
100
AcDbLine
 10
77.2929013748916
 20
119.2682669658176
 30
0.0
 11
76.92167031476866
 21
119.2682669658176
 31
0.0
  0
LINE
  5
275
330
1F
100
AcDbEntity
  8
1
  6
Continuous
 62
     2
100
AcDbLine
 10
80.10365083010812
 20
123.3518086271699
 30
0.0
 11
80.36881587305308
 21
122.980577567047
 31
0.0
  0
LINE
  5
276
330
1F
100
AcDbEntity
  8
1
  6
Continuous
 62
     2
100
AcDbLine
 10
80.36881587305308
 20
122.980577567047
 30
0.0
 11
80.58094790740904
 21
122.2911484553901
 31
0.0
  0
LINE
  5
277
330
1F
100
AcDbEntity
  8
1
  6
Continuous
 62
     2
100
AcDbLine
 10
80.58094790740904
 20
122.2911484553901
 30
0.0
 11
80.58094790740904
 21
120.1698281118305
 31
0.0
  0
LINE
  5
278
330
1F
100
AcDbEntity
  8
1
  6
Continuous
 62
     2
100
AcDbLine
 10
80.58094790740904
 20
120.1698281118305
 30
0.0
 11
80.36881587305308
 21
119.5334320087626
 31
0.0
  0
LINE
  5
279
330
1F
100
AcDbEntity
  8
1
  6
Continuous
 62
     2
100
AcDbLine
 10
80.36881587305308
 20
119.5334320087626
 30
0.0
 11
80.10365083010812
 21
119.1091679400507
 31
0.0
  0
LINE
  5
27A
330
1F
100
AcDbEntity
  8
1
  6
Continuous
 62
     2
100
AcDbLine
 10
88.89604408330187
 20
108.6816669749013
 30
0.0
 11
86.35045967103031
 21
108.6816669749013
 31
0.0
  0
LINE
  5
27B
330
1F
100
AcDbEntity
  8
1
  6
Continuous
 62
     2
100
AcDbLine
 10
89.32030815201381
 20
110.590855284105
 30
0.0
 11
86.35045967103031
 21
110.590855284105
 31
0.0
  0
LINE
  5
27C
330
1F
100
AcDbEntity
  8
1
  6
Continuous
 62
     2
100
AcDbLine
 10
86.35045967103031
 20
110.590855284105
 30
0.0
 11
86.35045967103031
 21
106.3482145969857
 31
0.0
  0
LINE
  5
27D
330
1F
100
AcDbEntity
  8
1
  6
Continuous
 62
     2
100
AcDbLine
 10
86.35045967103031
 20
106.3482145969857
 30
0.0
 11
89.32030815201381
 21
106.3482145969857
 31
0.0
  0
LINE
  5
27E
330
1F
100
AcDbEntity
  8
1
  6
Continuous
 62
     2
100
AcDbLine
 10
82.53465852459408
 20
112.9089019651455
 30
0.0
 11
82.53465852459408
 21
117.1515426522648
 31
0.0
  0
LINE
  5
27F
330
1F
100
AcDbEntity
  8
1
  6
Continuous
 62
     2
100
AcDbLine
 10
83.11802161907299
 20
115.9848164633069
 30
0.0
 11
81.7921964043482
 21
115.9848164633069
 31
0.0
  0
LINE
  5
280
330
1F
100
AcDbEntity
  8
1
  6
Continuous
 62
     2
100
AcDbLine
 10
81.68613038717022
 20
114.2347271798702
 30
0.0
 11
82.16342746447114
 21
115.0302223087051
 31
0.0
  0
LINE
  5
281
330
1F
100
AcDbEntity
  8
1
  6
Continuous
 62
     2
100
AcDbLine
 10
82.16342746447114
 20
115.0302223087051
 30
0.0
 11
82.53465852459408
 21
115.82571743754
 31
0.0
  0
LINE
  5
282
330
1F
100
AcDbEntity
  8
1
  6
Continuous
 62
     2
100
AcDbLine
 10
82.53465852459408
 20
115.82571743754
 30
0.0
 11
83.11802161907299
 21
114.9241562915271
 31
0.0
  0
LINE
  5
283
330
1F
100
AcDbEntity
  8
1
  6
Continuous
 62
     2
100
AcDbLine
 10
83.22408763625097
 20
113.7043970939803
 30
0.0
 11
83.91351674790785
 21
114.4998922228152
 31
0.0
  0
LINE
  5
284
330
1F
100
AcDbEntity
  8
1
  6
Continuous
 62
     2
100
AcDbLine
 10
83.91351674790785
 20
114.4998922228152
 30
0.0
 11
84.54991285097574
 21
115.719651420362
 31
0.0
  0
LINE
  5
285
330
1F
100
AcDbEntity
  8
1
  6
Continuous
 62
     2
100
AcDbLine
 10
85.23934196263262
 20
115.82571743754
 30
0.0
 11
83.48925267919593
 21
115.82571743754
 31
0.0
  0
LINE
  5
286
330
1F
100
AcDbEntity
  8
1
  6
Continuous
 62
     2
100
AcDbLine
 10
84.54991285097574
 20
117.0454766350868
 30
0.0
 11
84.65597886815372
 21
113.1740670080904
 31
0.0
  0
LINE
  5
287
330
1F
100
AcDbEntity
  8
1
  6
Continuous
 62
     2
100
AcDbLine
 10
84.65597886815372
 20
113.1740670080904
 30
0.0
 11
84.28474780803079
 21
113.1740670080904
 31
0.0
  0
LINE
  5
288
330
1F
100
AcDbEntity
  8
1
  6
Continuous
 62
     2
100
AcDbLine
 10
85.9287710742895
 20
113.7043970939803
 30
0.0
 11
86.30000213441244
 21
114.3938262056372
 31
0.0
  0
LINE
  5
289
330
1F
100
AcDbEntity
  8
1
  6
Continuous
 62
     2
100
AcDbLine
 10
86.30000213441244
 20
114.3938262056372
 30
0.0
 11
86.77729921171336
 21
115.560552394595
 31
0.0
  0
LINE
  5
28A
330
1F
100
AcDbEntity
  8
1
  6
Continuous
 62
     2
100
AcDbLine
 10
87.57279434054823
 20
115.560552394595
 30
0.0
 11
85.9287710742895
 21
115.560552394595
 31
0.0
  0
LINE
  5
28B
330
1F
100
AcDbEntity
  8
1
  6
Continuous
 62
     2
100
AcDbLine
 10
86.03483709146748
 20
116.6212125663748
 30
0.0
 11
86.40606815159042
 21
116.0908824804849
 31
0.0
  0
LINE
  5
28C
330
1F
100
AcDbEntity
  8
1
  6
Continuous
 62
     2
100
AcDbLine
 10
87.09549726324731
 20
116.2499815062519
 30
0.0
 11
87.36066230619227
 21
116.7803115921418
 31
0.0
  0
LINE
  5
28D
330
1F
100
AcDbEntity
  8
1
  6
Continuous
 62
     2
100
AcDbLine
 10
86.77729921171336
 20
117.0454766350868
 30
0.0
 11
86.77729921171336
 21
113.0680009909124
 31
0.0
  0
LINE
  5
28E
330
1F
100
AcDbEntity
  8
1
  6
Continuous
 62
     2
100
AcDbLine
 10
87.09549726324731
 20
115.0302223087051
 30
0.0
 11
87.36066230619227
 21
114.4998922228152
 31
0.0
  0
LINE
  5
28F
330
1F
100
AcDbEntity
  8
1
  6
Continuous
 62
     2
100
AcDbLine
 10
87.57279434054823
 20
114.3938262056372
 30
0.0
 11
89.58804866692988
 21
114.7650572657602
 31
0.0
  0
LINE
  5
290
330
1F
100
AcDbEntity
  8
1
  6
Continuous
 62
     2
100
AcDbLine
 10
88.3152564607941
 20
115.2953873516501
 30
0.0
 11
87.94402540067117
 21
115.82571743754
 31
0.0
  0
LINE
  5
291
330
1F
100
AcDbEntity
  8
1
  6
Continuous
 62
     2
100
AcDbLine
 10
88.3152564607941
 20
116.3560475234299
 30
0.0
 11
87.94402540067117
 21
116.8863776093198
 31
0.0
  0
LINE
  5
292
330
1F
100
AcDbEntity
  8
1
  6
Continuous
 62
     2
100
AcDbLine
 10
88.898619555273
 20
117.1515426522648
 30
0.0
 11
88.898619555273
 21
112.9089019651455
 31
0.0
  0
LINE
  5
293
330
1F
100
AcDbEntity
  8
1
  6
Continuous
 62
     2
100
AcDbLine
 10
90.27747777858677
 20
113.1740670080904
 30
0.0
 11
90.27747777858677
 21
114.2347271798702
 31
0.0
  0
LINE
  5
294
330
1F
100
AcDbEntity
  8
1
  6
Continuous
 62
     2
100
AcDbLine
 10
90.27747777858677
 20
114.2347271798702
 30
0.0
 11
91.23207193318862
 21
114.2347271798702
 31
0.0
  0
LINE
  5
295
330
1F
100
AcDbEntity
  8
1
  6
Continuous
 62
     2
100
AcDbLine
 10
91.23207193318862
 20
114.2347271798702
 30
0.0
 11
91.23207193318862
 21
113.1740670080904
 31
0.0
  0
LINE
  5
296
330
1F
100
AcDbEntity
  8
1
  6
Continuous
 62
     2
100
AcDbLine
 10
91.23207193318862
 20
113.1740670080904
 30
0.0
 11
90.27747777858677
 21
113.1740670080904
 31
0.0
  0
LINE
  5
297
330
1F
100
AcDbEntity
  8
1
  6
Continuous
 62
     2
100
AcDbLine
 10
90.27747777858677
 20
114.7650572657602
 30
0.0
 11
91.23207193318862
 21
114.7650572657602
 31
0.0
  0
LINE
  5
298
330
1F
100
AcDbEntity
  8
1
  6
Continuous
 62
     2
100
AcDbLine
 10
91.23207193318862
 20
115.454486377417
 30
0.0
 11
90.27747777858677
 21
115.454486377417
 31
0.0
  0
LINE
  5
299
330
1F
100
AcDbEntity
  8
1
  6
Continuous
 62
     2
100
AcDbLine
 10
90.06534574423081
 20
115.9848164633069
 30
0.0
 11
91.60330299331156
 21
115.9848164633069
 31
0.0
  0
LINE
  5
29A
330
1F
100
AcDbEntity
  8
1
  6
Continuous
 62
     2
100
AcDbLine
 10
90.17141176140879
 20
116.6212125663748
 30
0.0
 11
91.23207193318862
 21
116.6212125663748
 31
0.0
  0
LINE
  5
29B
330
1F
100
AcDbEntity
  8
1
  6
Continuous
 62
     2
100
AcDbLine
 10
91.9745340534345
 20
116.5151465491969
 30
0.0
 11
93.24732625957027
 21
116.5151465491969
 31
0.0
  0
LINE
  5
29C
330
1F
100
AcDbEntity
  8
1
  6
Continuous
 62
     2
100
AcDbLine
 10
93.24732625957027
 20
116.5151465491969
 30
0.0
 11
93.24732625957027
 21
115.1893213344721
 31
0.0
  0
LINE
  5
29D
330
1F
100
AcDbEntity
  8
1
  6
Continuous
 62
     2
100
AcDbLine
 10
93.24732625957027
 20
115.1893213344721
 30
0.0
 11
91.9745340534345
 21
115.1893213344721
 31
0.0
  0
LINE
  5
29E
330
1F
100
AcDbEntity
  8
1
  6
Continuous
 62
     2
100
AcDbLine
 10
91.9745340534345
 20
115.1893213344721
 30
0.0
 11
91.9745340534345
 21
113.1740670080904
 31
0.0
  0
LINE
  5
29F
330
1F
100
AcDbEntity
  8
1
  6
Continuous
 62
     2
100
AcDbLine
 10
91.9745340534345
 20
113.1740670080904
 30
0.0
 11
93.61855731969321
 21
113.1740670080904
 31
0.0
  0
LINE
  5
2A0
330
1F
100
AcDbEntity
  8
1
  6
Continuous
 62
     2
100
AcDbLine
 10
93.61855731969321
 20
113.1740670080904
 30
0.0
 11
93.61855731969321
 21
113.5983310768023
 31
0.0
  0
LINE
  5
2A1
330
1F
100
AcDbEntity
  8
1
  6
Continuous
 62
     2
100
AcDbLine
 10
95.26258058595192
 20
116.8863776093198
 30
0.0
 11
95.26258058595192
 21
115.9848164633069
 31
0.0
  0
LINE
  5
2A2
330
1F
100
AcDbEntity
  8
1
  6
Continuous
 62
     2
100
AcDbLine
 10
95.26258058595192
 20
115.9848164633069
 30
0.0
 11
97.11873588656661
 21
115.9848164633069
 31
0.0
  0
LINE
  5
2A3
330
1F
100
AcDbEntity
  8
1
  6
Continuous
 62
     2
100
AcDbLine
 10
97.11873588656661
 20
115.9848164633069
 30
0.0
 11
97.11873588656661
 21
116.8863776093198
 31
0.0
  0
LINE
  5
2A4
330
1F
100
AcDbEntity
  8
1
  6
Continuous
 62
     2
100
AcDbLine
 10
97.11873588656661
 20
116.8863776093198
 30
0.0
 11
95.26258058595192
 21
116.8863776093198
 31
0.0
  0
LINE
  5
2A5
330
1F
100
AcDbEntity
  8
1
  6
Continuous
 62
     2
100
AcDbLine
 10
94.41405244852807
 20
115.2953873516501
 30
0.0
 11
97.86119800681249
 21
115.2953873516501
 31
0.0
  0
LINE
  5
2A6
330
1F
100
AcDbEntity
  8
1
  6
Continuous
 62
     2
100
AcDbLine
 10
95.73987766325284
 20
115.2953873516501
 30
0.0
 11
95.3686466031299
 21
113.9695621369253
 31
0.0
  0
LINE
  5
2A7
330
1F
100
AcDbEntity
  8
1
  6
Continuous
 62
     2
100
AcDbLine
 10
95.4747126203079
 20
114.4998922228152
 30
0.0
 11
97.11873588656661
 21
114.4998922228152
 31
0.0
  0
LINE
  5
2A8
330
1F
100
AcDbEntity
  8
1
  6
Continuous
 62
     2
100
AcDbLine
 10
97.11873588656661
 20
114.4998922228152
 30
0.0
 11
96.90660385221065
 21
113.7043970939803
 31
0.0
  0
LINE
  5
2A9
330
1F
100
AcDbEntity
  8
1
  6
Continuous
 62
     2
100
AcDbLine
 10
96.90660385221065
 20
113.7043970939803
 30
0.0
 11
96.53537279208771
 21
113.0680009909124
 31
0.0
  0
LINE
  5
2AA
330
1F
100
AcDbEntity
  8
1
  6
Continuous
 62
     2
100
AcDbLine
 10
96.53537279208771
 20
113.0680009909124
 30
0.0
 11
96.32324075773175
 21
112.9089019651455
 31
0.0
  0
LINE
  5
2AB
330
1F
100
AcDbEntity
  8
1
  6
Continuous
 62
     2
100
AcDbLine
 10
96.32324075773175
 20
112.9089019651455
 30
0.0
 11
95.84594368043084
 21
113.1740670080904
 31
0.0
  0
LINE
  5
2AC
330
1F
100
AcDbEntity
  8
1
  6
Continuous
 62
     2
100
AcDbLine
 10
60.87918521659886
 20
126.2119652222232
 30
0.0
 11
62.20501043132364
 21
126.7422953081131
 31
0.0
  0
LINE
  5
2AD
330
1F
100
AcDbEntity
  8
1
  6
Continuous
 62
     2
100
AcDbLine
 10
61.93984538837868
 20
126.8483613252911
 30
0.0
 11
62.09894441414566
 21
127.537790436948
 31
0.0
  0
LINE
  5
2AE
330
1F
100
AcDbEntity
  8
1
  6
Continuous
 62
     2
100
AcDbLine
 10
62.20501043132364
 20
127.909021497071
 30
0.0
 11
61.03828424236583
 21
127.909021497071
 31
0.0
  0
LINE
  5
2AF
330
1F
100
AcDbEntity
  8
1
  6
Continuous
 62
     2
100
AcDbLine
 10
61.14435025954381
 20
128.5984506087278
 30
0.0
 11
62.20501043132364
 21
128.5984506087278
 31
0.0
  0
LINE
  5
2B0
330
1F
100
AcDbEntity
  8
1
  6
Continuous
 62
     2
100
AcDbLine
 10
62.31107644850162
 20
129.2348467117957
 30
0.0
 11
61.62164733684474
 21
130.0303418406306
 31
0.0
  0
LINE
  5
2B1
330
1F
100
AcDbEntity
  8
1
  6
Continuous
 62
     2
100
AcDbLine
 10
61.62164733684474
 20
130.0303418406306
 30
0.0
 11
61.14435025954381
 21
129.1287806946178
 31
0.0
  0
LINE
  5
2B2
330
1F
100
AcDbEntity
  8
1
  6
Continuous
 62
     2
100
AcDbLine
 10
61.14435025954381
 20
129.1287806946178
 30
0.0
 11
60.6670531822429
 21
128.1741865400159
 31
0.0
  0
LINE
  5
2B3
330
1F
100
AcDbEntity
  8
1
  6
Continuous
 62
     2
100
AcDbLine
 10
61.03828424236583
 20
127.537790436948
 30
0.0
 11
61.2504162767218
 21
126.8483613252911
 31
0.0
  0
LINE
  5
2B4
330
1F
100
AcDbEntity
  8
1
  6
Continuous
 62
     2
100
AcDbLine
 10
61.62164733684474
 20
126.4771302651682
 30
0.0
 11
61.62164733684474
 21
128.5984506087278
 31
0.0
  0
LINE
  5
2B5
330
1F
100
AcDbEntity
  8
1
  6
Continuous
 62
     2
100
AcDbLine
 10
62.31107644850162
 20
128.4393515829609
 30
0.0
 11
64.43239679206125
 21
128.4393515829609
 31
0.0
  0
LINE
  5
2B6
330
1F
100
AcDbEntity
  8
1
  6
Continuous
 62
     2
100
AcDbLine
 10
64.43239679206125
 20
127.643856454126
 30
0.0
 11
62.4171424656796
 21
127.643856454126
 31
0.0
  0
LINE
  5
2B7
330
1F
100
AcDbEntity
  8
1
  6
Continuous
 62
     2
100
AcDbLine
 10
62.31107644850162
 20
126.3180312394012
 30
0.0
 11
62.78837352580254
 21
127.1135263682361
 31
0.0
  0
LINE
  5
2B8
330
1F
100
AcDbEntity
  8
1
  6
Continuous
 62
     2
100
AcDbLine
 10
62.78837352580254
 20
127.1135263682361
 30
0.0
 11
63.15960458592548
 21
128.4393515829609
 31
0.0
  0
LINE
  5
2B9
330
1F
100
AcDbEntity
  8
1
  6
Continuous
 62
     2
100
AcDbLine
 10
63.15960458592548
 20
128.4393515829609
 30
0.0
 11
63.26567060310346
 21
130.0303418406306
 31
0.0
  0
LINE
  5
2BA
330
1F
100
AcDbEntity
  8
1
  6
Continuous
 62
     2
100
AcDbLine
 10
62.4171424656796
 20
129.6591107805077
 30
0.0
 11
64.2202647577053
 21
129.6591107805077
 31
0.0
  0
LINE
  5
2BB
330
1F
100
AcDbEntity
  8
1
  6
Continuous
 62
     2
100
AcDbLine
 10
64.2202647577053
 20
128.9696816688508
 30
0.0
 11
62.57624149144657
 21
128.9696816688508
 31
0.0
  0
LINE
  5
2BC
330
1F
100
AcDbEntity
  8
1
  6
Continuous
 62
     2
100
AcDbLine
 10
63.95509971476034
 20
128.1741865400159
 30
0.0
 11
63.95509971476034
 21
126.0528661964563
 31
0.0
  0
LINE
  5
2BD
330
1F
100
AcDbEntity
  8
1
  6
Continuous
 62
     2
100
AcDbLine
 10
63.95509971476034
 20
126.0528661964563
 30
0.0
 11
63.47780263745942
 21
126.0528661964563
 31
0.0
  0
LINE
  5
2BE
330
1F
100
AcDbEntity
  8
1
  6
Continuous
 62
     2
100
AcDbLine
 10
63.47780263745942
 20
126.5831962823462
 30
0.0
 11
63.26567060310346
 21
127.2726253940031
 31
0.0
  0
LINE
  5
2BF
330
1F
100
AcDbEntity
  8
1
  6
Continuous
 62
     2
100
AcDbLine
 10
65.12182590371815
 20
126.4771302651682
 30
0.0
 11
65.75822200678604
 21
127.0074603510581
 31
0.0
  0
LINE
  5
2C0
330
1F
100
AcDbEntity
  8
1
  6
Continuous
 62
     2
100
AcDbLine
 10
65.75822200678604
 20
127.0074603510581
 30
0.0
 11
65.75822200678604
 21
128.4393515829609
 31
0.0
  0
LINE
  5
2C1
330
1F
100
AcDbEntity
  8
1
  6
Continuous
 62
     2
100
AcDbLine
 10
65.75822200678604
 20
128.4393515829609
 30
0.0
 11
65.01575988654017
 21
128.4393515829609
 31
0.0
  0
LINE
  5
2C2
330
1F
100
AcDbEntity
  8
1
  6
Continuous
 62
     2
100
AcDbLine
 10
65.75822200678604
 20
127.0074603510581
 30
0.0
 11
65.970354041142
 21
126.4771302651682
 31
0.0
  0
LINE
  5
2C3
330
1F
100
AcDbEntity
  8
1
  6
Continuous
 62
     2
100
AcDbLine
 10
65.970354041142
 20
126.4771302651682
 30
0.0
 11
66.18248607549798
 21
126.3180312394012
 31
0.0
  0
LINE
  5
2C4
330
1F
100
AcDbEntity
  8
1
  6
Continuous
 62
     2
100
AcDbLine
 10
66.18248607549798
 20
126.3180312394012
 30
0.0
 11
68.56897146200257
 21
126.3180312394012
 31
0.0
  0
LINE
  5
2C5
330
1F
100
AcDbEntity
  8
1
  6
Continuous
 62
     2
100
AcDbLine
 10
67.98560836752367
 20
127.0074603510581
 30
0.0
 11
67.98560836752367
 21
128.0681205228379
 31
0.0
  0
LINE
  5
2C6
330
1F
100
AcDbEntity
  8
1
  6
Continuous
 62
     2
100
AcDbLine
 10
67.98560836752367
 20
128.0681205228379
 30
0.0
 11
66.6597831527989
 21
128.0681205228379
 31
0.0
  0
LINE
  5
2C7
330
1F
100
AcDbEntity
  8
1
  6
Continuous
 62
     2
100
AcDbLine
 10
66.6597831527989
 20
128.0681205228379
 30
0.0
 11
66.6597831527989
 21
127.0074603510581
 31
0.0
  0
LINE
  5
2C8
330
1F
100
AcDbEntity
  8
1
  6
Continuous
 62
     2
100
AcDbLine
 10
66.6597831527989
 20
127.0074603510581
 30
0.0
 11
67.98560836752367
 21
127.0074603510581
 31
0.0
  0
LINE
  5
2C9
330
1F
100
AcDbEntity
  8
1
  6
Continuous
 62
     2
100
AcDbLine
 10
68.46290544482459
 20
128.5984506087278
 30
0.0
 11
66.18248607549798
 21
128.5984506087278
 31
0.0
  0
LINE
  5
2CA
330
1F
100
AcDbEntity
  8
1
  6
Continuous
 62
     2
100
AcDbLine
 10
67.24314624727779
 20
128.5984506087278
 30
0.0
 11
67.24314624727779
 21
130.2955068835755
 31
0.0
  0
LINE
  5
2CB
330
1F
100
AcDbEntity
  8
1
  6
Continuous
 62
     2
100
AcDbLine
 10
68.19774040187963
 20
129.5000117547407
 30
0.0
 11
66.44765111844293
 21
129.5000117547407
 31
0.0
  0
LINE
  5
2CC
330
1F
100
AcDbEntity
  8
1
  6
Continuous
 62
     2
100
AcDbLine
 10
66.6597831527989
 20
130.1894408663976
 30
0.0
 11
66.44765111844293
 21
129.5000117547407
 31
0.0
  0
LINE
  5
2CD
330
1F
100
AcDbEntity
  8
1
  6
Continuous
 62
     2
100
AcDbLine
 10
66.44765111844293
 20
129.5000117547407
 30
0.0
 11
66.18248607549798
 21
129.1287806946178
 31
0.0
  0
LINE
  5
2CE
330
1F
100
AcDbEntity
  8
1
  6
Continuous
 62
     2
100
AcDbLine
 10
65.75822200678604
 20
129.6591107805077
 30
0.0
 11
65.3869909466631
 21
130.1894408663976
 31
0.0
  0
LINE
  5
2CF
330
1F
100
AcDbEntity
  8
1
  6
Continuous
 62
     2
100
AcDbLine
 10
65.12182590371815
 20
126.4771302651682
 30
0.0
 11
65.01575988654017
 21
126.3180312394012
 31
0.0
  0
LINE
  5
2D0
330
1F
100
AcDbEntity
  8
1
  6
Continuous
 62
     2
100
AcDbLine
 10
70.31906074543927
 20
130.2955068835755
 30
0.0
 11
70.1069287110833
 21
129.9242758234526
 31
0.0
  0
LINE
  5
2D1
330
1F
100
AcDbEntity
  8
1
  6
Continuous
 62
     2
100
AcDbLine
 10
70.1069287110833
 20
129.9242758234526
 30
0.0
 11
69.73569765096036
 21
129.3939457375627
 31
0.0
  0
LINE
  5
2D2
330
1F
100
AcDbEntity
  8
1
  6
Continuous
 62
     2
100
AcDbLine
 10
69.73569765096036
 20
129.3939457375627
 30
0.0
 11
69.36446659083742
 21
128.9696816688508
 31
0.0
  0
LINE
  5
2D3
330
1F
100
AcDbEntity
  8
1
  6
Continuous
 62
     2
100
AcDbLine
 10
70.00086269390532
 20
129.6591107805077
 30
0.0
 11
72.33431507182092
 21
129.6591107805077
 31
0.0
  0
LINE
  5
2D4
330
1F
100
AcDbEntity
  8
1
  6
Continuous
 62
     2
100
AcDbLine
 10
71.06152286568515
 20
129.6591107805077
 30
0.0
 11
71.06152286568515
 21
126.0528661964563
 31
0.0
  0
LINE
  5
2D5
330
1F
100
AcDbEntity
  8
1
  6
Continuous
 62
     2
100
AcDbLine
 10
69.84176366813834
 20
128.5984506087278
 30
0.0
 11
72.22824905464294
 21
128.5984506087278
 31
0.0
  0
LINE
  5
2D6
330
1F
100
AcDbEntity
  8
1
  6
Continuous
 62
     2
100
AcDbLine
 10
69.84176366813834
 20
128.4393515829609
 30
0.0
 11
69.84176366813834
 21
127.537790436948
 31
0.0
  0
LINE
  5
2D7
330
1F
100
AcDbEntity
  8
1
  6
Continuous
 62
     2
100
AcDbLine
 10
69.15233455648146
 20
127.537790436948
 30
0.0
 11
72.91767816629982
 21
127.537790436948
 31
0.0
  0
LINE
  5
2D8
330
1F
100
AcDbEntity
  8
1
  6
Continuous
 62
     2
100
AcDbLine
 10
60.47130568900155
 20
196.6914091988425
 30
0.0
 11
63.19366679656976
 21
196.6914091988425
 31
0.0
  0
LINE
  5
2D9
330
1F
100
AcDbEntity
  8
1
  6
Continuous
 62
     2
100
AcDbLine
 10
61.90673245481024
 20
196.6914091988425
 30
0.0
 11
61.90673245481024
 21
199.0177905089462
 31
0.0
  0
LINE
  5
2DA
330
1F
100
AcDbEntity
  8
1
  6
Continuous
 62
     2
100
AcDbLine
 10
61.11477285988131
 20
199.0177905089462
 30
0.0
 11
62.64919457505611
 21
199.0177905089462
 31
0.0
  0
LINE
  5
2DB
330
1F
100
AcDbEntity
  8
1
  6
Continuous
 62
     2
100
AcDbLine
 10
62.99567689783752
 20
198.2753283887003
 30
0.0
 11
60.7682905370999
 21
198.2753283887003
 31
0.0
  0
LINE
  5
2DC
330
1F
100
AcDbEntity
  8
1
  6
Continuous
 62
     2
100
AcDbLine
 10
61.11477285988131
 20
197.7803536418697
 30
0.0
 11
61.31276275861354
 21
197.186383945673
 31
0.0
  0
LINE
  5
2DD
330
1F
100
AcDbEntity
  8
1
  6
Continuous
 62
     2
100
AcDbLine
 10
62.45120467632388
 20
197.186383945673
 30
0.0
 11
62.64919457505611
 21
197.7803536418697
 31
0.0
  0
LINE
  5
2DE
330
1F
100
AcDbEntity
  8
1
  6
Continuous
 62
     2
100
AcDbLine
 10
60.12482336622014
 20
198.5228157621156
 30
0.0
 11
60.57030063836767
 21
198.9187955595801
 31
0.0
  0
LINE
  5
2DF
330
1F
100
AcDbEntity
  8
1
  6
Continuous
 62
     2
100
AcDbLine
 10
60.57030063836767
 20
198.9187955595801
 30
0.0
 11
61.31276275861354
 21
199.7602526291921
 31
0.0
  0
LINE
  5
2E0
330
1F
100
AcDbEntity
  8
1
  6
Continuous
 62
     2
100
AcDbLine
 10
61.31276275861354
 20
199.7602526291921
 30
0.0
 11
61.90673245481024
 21
200.5027147494379
 31
0.0
  0
LINE
  5
2E1
330
1F
100
AcDbEntity
  8
1
  6
Continuous
 62
     2
100
AcDbLine
 10
61.90673245481024
 20
200.5027147494379
 30
0.0
 11
62.45120467632388
 21
199.7602526291921
 31
0.0
  0
LINE
  5
2E2
330
1F
100
AcDbEntity
  8
1
  6
Continuous
 62
     2
100
AcDbLine
 10
62.45120467632388
 20
199.7602526291921
 30
0.0
 11
63.19366679656976
 21
198.9187955595801
 31
0.0
  0
LINE
  5
2E3
330
1F
100
AcDbEntity
  8
1
  6
Continuous
 62
     2
100
AcDbLine
 10
63.19366679656976
 20
198.9187955595801
 30
0.0
 11
63.63914406871728
 21
198.5228157621156
 31
0.0
  0
LINE
  5
2E4
330
1F
100
AcDbEntity
  8
1
  6
Continuous
 62
     2
100
AcDbLine
 10
64.43110366364621
 20
196.6914091988425
 30
0.0
 11
64.43110366364621
 21
200.2552273760227
 31
0.0
  0
LINE
  5
2E5
330
1F
100
AcDbEntity
  8
1
  6
Continuous
 62
     2
100
AcDbLine
 10
64.43110366364621
 20
200.2552273760227
 30
0.0
 11
65.5200481066735
 21
200.2552273760227
 31
0.0
  0
LINE
  5
2E6
330
1F
100
AcDbEntity
  8
1
  6
Continuous
 62
     2
100
AcDbLine
 10
65.5200481066735
 20
200.2552273760227
 30
0.0
 11
65.5200481066735
 21
199.0177905089462
 31
0.0
  0
LINE
  5
2E7
330
1F
100
AcDbEntity
  8
1
  6
Continuous
 62
     2
100
AcDbLine
 10
65.5200481066735
 20
199.0177905089462
 30
0.0
 11
64.43110366364621
 21
199.0177905089462
 31
0.0
  0
LINE
  5
2E8
330
1F
100
AcDbEntity
  8
1
  6
Continuous
 62
     2
100
AcDbLine
 10
65.5200481066735
 20
199.661257679826
 30
0.0
 11
64.43110366364621
 21
199.661257679826
 31
0.0
  0
LINE
  5
2E9
330
1F
100
AcDbEntity
  8
1
  6
Continuous
 62
     2
100
AcDbLine
 10
66.85647992311607
 20
196.6914091988425
 30
0.0
 11
67.15346477121442
 21
196.6914091988425
 31
0.0
  0
LINE
  5
2EA
330
1F
100
AcDbEntity
  8
1
  6
Continuous
 62
     2
100
AcDbLine
 10
67.15346477121442
 20
196.6914091988425
 30
0.0
 11
67.25245972058053
 21
196.7904041482086
 31
0.0
  0
LINE
  5
2EB
330
1F
100
AcDbEntity
  8
1
  6
Continuous
 62
     2
100
AcDbLine
 10
67.25245972058053
 20
196.7904041482086
 30
0.0
 11
67.25245972058053
 21
200.2552273760227
 31
0.0
  0
LINE
  5
2EC
330
1F
100
AcDbEntity
  8
1
  6
Continuous
 62
     2
100
AcDbLine
 10
67.25245972058053
 20
200.2552273760227
 30
0.0
 11
66.16351527755326
 21
200.2552273760227
 31
0.0
  0
LINE
  5
2ED
330
1F
100
AcDbEntity
  8
1
  6
Continuous
 62
     2
100
AcDbLine
 10
66.16351527755326
 20
200.2552273760227
 30
0.0
 11
66.16351527755326
 21
199.0177905089462
 31
0.0
  0
LINE
  5
2EE
330
1F
100
AcDbEntity
  8
1
  6
Continuous
 62
     2
100
AcDbLine
 10
66.16351527755326
 20
199.0177905089462
 30
0.0
 11
67.25245972058053
 21
199.0177905089462
 31
0.0
  0
LINE
  5
2EF
330
1F
100
AcDbEntity
  8
1
  6
Continuous
 62
     2
100
AcDbLine
 10
66.16351527755326
 20
199.661257679826
 30
0.0
 11
67.25245972058053
 21
199.661257679826
 31
0.0
  0
LINE
  5
2F0
330
1F
100
AcDbEntity
  8
1
  6
Continuous
 62
     2
100
AcDbLine
 10
71.8062273914219
 20
198.9187955595801
 30
0.0
 11
72.79617688508307
 21
198.9187955595801
 31
0.0
  0
LINE
  5
2F1
330
1F
100
AcDbEntity
  8
1
  6
Continuous
 62
     2
100
AcDbLine
 10
71.2122576952252
 20
200.5027147494379
 30
0.0
 11
72.69718193571696
 21
200.5027147494379
 31
0.0
  0
LINE
  5
2F2
330
1F
100
AcDbEntity
  8
1
  6
Continuous
 62
     2
100
AcDbLine
 10
72.69718193571696
 20
200.5027147494379
 30
0.0
 11
73.19215668254753
 21
200.4037198000718
 31
0.0
  0
LINE
  5
2F3
330
1F
100
AcDbEntity
  8
1
  6
Continuous
 62
     2
100
AcDbLine
 10
73.19215668254753
 20
200.4037198000718
 30
0.0
 11
73.48914153064588
 21
200.2057299013396
 31
0.0
  0
LINE
  5
2F4
330
1F
100
AcDbEntity
  8
1
  6
Continuous
 62
     2
100
AcDbLine
 10
73.48914153064588
 20
200.2057299013396
 30
0.0
 11
73.588136480012
 21
199.9087450532412
 31
0.0
  0
LINE
  5
2F5
330
1F
100
AcDbEntity
  8
1
  6
Continuous
 62
     2
100
AcDbLine
 10
73.588136480012
 20
199.9087450532412
 30
0.0
 11
73.588136480012
 21
199.6117602051429
 31
0.0
  0
LINE
  5
2F6
330
1F
100
AcDbEntity
  8
1
  6
Continuous
 62
     2
100
AcDbLine
 10
73.588136480012
 20
199.6117602051429
 30
0.0
 11
73.48914153064588
 21
199.3147753570445
 31
0.0
  0
LINE
  5
2F7
330
1F
100
AcDbEntity
  8
1
  6
Continuous
 62
     2
100
AcDbLine
 10
73.48914153064588
 20
199.3147753570445
 30
0.0
 11
73.29115163191365
 21
199.1167854583123
 31
0.0
  0
LINE
  5
2F8
330
1F
100
AcDbEntity
  8
1
  6
Continuous
 62
     2
100
AcDbLine
 10
73.29115163191365
 20
199.1167854583123
 30
0.0
 11
73.09316173318142
 21
199.0177905089462
 31
0.0
  0
LINE
  5
2F9
330
1F
100
AcDbEntity
  8
1
  6
Continuous
 62
     2
100
AcDbLine
 10
73.09316173318142
 20
199.0177905089462
 30
0.0
 11
72.79617688508307
 21
198.9187955595801
 31
0.0
  0
LINE
  5
2FA
330
1F
100
AcDbEntity
  8
1
  6
Continuous
 62
     2
100
AcDbLine
 10
72.79617688508307
 20
198.9187955595801
 30
0.0
 11
73.19215668254753
 21
198.819800610214
 31
0.0
  0
LINE
  5
2FB
330
1F
100
AcDbEntity
  8
1
  6
Continuous
 62
     2
100
AcDbLine
 10
73.19215668254753
 20
198.819800610214
 30
0.0
 11
73.39014658127977
 21
198.6218107114817
 31
0.0
  0
LINE
  5
2FC
330
1F
100
AcDbEntity
  8
1
  6
Continuous
 62
     2
100
AcDbLine
 10
73.39014658127977
 20
198.6218107114817
 30
0.0
 11
73.48914153064588
 21
198.4238208127495
 31
0.0
  0
LINE
  5
2FD
330
1F
100
AcDbEntity
  8
1
  6
Continuous
 62
     2
100
AcDbLine
 10
73.48914153064588
 20
198.4238208127495
 30
0.0
 11
73.588136480012
 21
198.027841015285
 31
0.0
  0
LINE
  5
2FE
330
1F
100
AcDbEntity
  8
1
  6
Continuous
 62
     2
100
AcDbLine
 10
73.588136480012
 20
198.027841015285
 30
0.0
 11
73.588136480012
 21
197.5328662684544
 31
0.0
  0
LINE
  5
2FF
330
1F
100
AcDbEntity
  8
1
  6
Continuous
 62
     2
100
AcDbLine
 10
73.588136480012
 20
197.5328662684544
 30
0.0
 11
73.48914153064588
 21
197.13688647099
 31
0.0
  0
LINE
  5
300
330
1F
100
AcDbEntity
  8
1
  6
Continuous
 62
     2
100
AcDbLine
 10
73.48914153064588
 20
197.13688647099
 30
0.0
 11
73.29115163191365
 21
196.8399016228916
 31
0.0
  0
LINE
  5
301
330
1F
100
AcDbEntity
  8
1
  6
Continuous
 62
     2
100
AcDbLine
 10
73.29115163191365
 20
196.8399016228916
 30
0.0
 11
72.9941667838153
 21
196.6419117241594
 31
0.0
  0
LINE
  5
302
330
1F
100
AcDbEntity
  8
1
  6
Continuous
 62
     2
100
AcDbLine
 10
72.9941667838153
 20
196.6419117241594
 30
0.0
 11
72.69718193571696
 21
196.5429167747933
 31
0.0
  0
LINE
  5
303
330
1F
100
AcDbEntity
  8
1
  6
Continuous
 62
     2
100
AcDbLine
 10
72.69718193571696
 20
196.5429167747933
 30
0.0
 11
71.2122576952252
 21
196.5429167747933
 31
0.0
  0
LINE
  5
304
330
1F
100
AcDbEntity
  8
1
  6
Continuous
 62
     2
100
AcDbLine
 10
77.05295970782608
 20
198.3248258633834
 30
0.0
 11
75.66703041670046
 21
198.3248258633834
 31
0.0
  0
LINE
  5
305
330
1F
100
AcDbEntity
  8
1
  6
Continuous
 62
     2
100
AcDbLine
 10
75.66703041670046
 20
198.3248258633834
 30
0.0
 11
75.3700455686021
 21
198.4238208127495
 31
0.0
  0
LINE
  5
306
330
1F
100
AcDbEntity
  8
1
  6
Continuous
 62
     2
100
AcDbLine
 10
75.3700455686021
 20
198.4238208127495
 30
0.0
 11
75.07306072050375
 21
198.6218107114817
 31
0.0
  0
LINE
  5
307
330
1F
100
AcDbEntity
  8
1
  6
Continuous
 62
     2
100
AcDbLine
 10
75.07306072050375
 20
198.6218107114817
 30
0.0
 11
74.87507082177152
 21
198.9187955595801
 31
0.0
  0
LINE
  5
308
330
1F
100
AcDbEntity
  8
1
  6
Continuous
 62
     2
100
AcDbLine
 10
74.87507082177152
 20
198.9187955595801
 30
0.0
 11
74.7760758724054
 21
199.3147753570445
 31
0.0
  0
LINE
  5
309
330
1F
100
AcDbEntity
  8
1
  6
Continuous
 62
     2
100
AcDbLine
 10
74.7760758724054
 20
199.3147753570445
 30
0.0
 11
74.7760758724054
 21
199.5127652557768
 31
0.0
  0
LINE
  5
30A
330
1F
100
AcDbEntity
  8
1
  6
Continuous
 62
     2
100
AcDbLine
 10
74.7760758724054
 20
199.5127652557768
 30
0.0
 11
74.87507082177152
 21
199.9087450532412
 31
0.0
  0
LINE
  5
30B
330
1F
100
AcDbEntity
  8
1
  6
Continuous
 62
     2
100
AcDbLine
 10
74.87507082177152
 20
199.9087450532412
 30
0.0
 11
75.07306072050375
 21
200.2057299013396
 31
0.0
  0
LINE
  5
30C
330
1F
100
AcDbEntity
  8
1
  6
Continuous
 62
     2
100
AcDbLine
 10
75.07306072050375
 20
200.2057299013396
 30
0.0
 11
75.3700455686021
 21
200.4037198000718
 31
0.0
  0
LINE
  5
30D
330
1F
100
AcDbEntity
  8
1
  6
Continuous
 62
     2
100
AcDbLine
 10
75.3700455686021
 20
200.4037198000718
 30
0.0
 11
75.66703041670046
 21
200.5027147494379
 31
0.0
  0
LINE
  5
30E
330
1F
100
AcDbEntity
  8
1
  6
Continuous
 62
     2
100
AcDbLine
 10
75.66703041670046
 20
200.5027147494379
 30
0.0
 11
76.26100011289715
 21
200.5027147494379
 31
0.0
  0
LINE
  5
30F
330
1F
100
AcDbEntity
  8
1
  6
Continuous
 62
     2
100
AcDbLine
 10
76.26100011289715
 20
200.5027147494379
 30
0.0
 11
76.5579849609955
 21
200.4037198000718
 31
0.0
  0
LINE
  5
310
330
1F
100
AcDbEntity
  8
1
  6
Continuous
 62
     2
100
AcDbLine
 10
76.5579849609955
 20
200.4037198000718
 30
0.0
 11
76.85496980909384
 21
200.2057299013396
 31
0.0
  0
LINE
  5
311
330
1F
100
AcDbEntity
  8
1
  6
Continuous
 62
     2
100
AcDbLine
 10
76.85496980909384
 20
200.2057299013396
 30
0.0
 11
77.05295970782608
 21
199.9087450532412
 31
0.0
  0
LINE
  5
312
330
1F
100
AcDbEntity
  8
1
  6
Continuous
 62
     2
100
AcDbLine
 10
77.05295970782608
 20
199.9087450532412
 30
0.0
 11
77.15195465719219
 21
199.5127652557768
 31
0.0
  0
LINE
  5
313
330
1F
100
AcDbEntity
  8
1
  6
Continuous
 62
     2
100
AcDbLine
 10
77.15195465719219
 20
199.5127652557768
 30
0.0
 11
77.15195465719219
 21
198.819800610214
 31
0.0
  0
LINE
  5
314
330
1F
100
AcDbEntity
  8
1
  6
Continuous
 62
     2
100
AcDbLine
 10
77.15195465719219
 20
198.819800610214
 30
0.0
 11
77.05295970782608
 21
198.3248258633834
 31
0.0
  0
LINE
  5
315
330
1F
100
AcDbEntity
  8
1
  6
Continuous
 62
     2
100
AcDbLine
 10
77.05295970782608
 20
198.3248258633834
 30
0.0
 11
76.95396475845996
 21
197.9288460659189
 31
0.0
  0
LINE
  5
316
330
1F
100
AcDbEntity
  8
1
  6
Continuous
 62
     2
100
AcDbLine
 10
76.95396475845996
 20
197.9288460659189
 30
0.0
 11
76.65697991036161
 21
197.5328662684544
 31
0.0
  0
LINE
  5
317
330
1F
100
AcDbEntity
  8
1
  6
Continuous
 62
     2
100
AcDbLine
 10
76.65697991036161
 20
197.5328662684544
 30
0.0
 11
75.9640152647988
 21
196.9388965722577
 31
0.0
  0
LINE
  5
318
330
1F
100
AcDbEntity
  8
1
  6
Continuous
 62
     2
100
AcDbLine
 10
75.9640152647988
 20
196.9388965722577
 30
0.0
 11
75.07306072050375
 21
196.5429167747933
 31
0.0
  0
LINE
  5
319
330
1F
100
AcDbEntity
  8
1
  6
Continuous
 62
     2
100
AcDbLine
 10
78.63687889768394
 20
196.5429167747933
 30
0.0
 11
78.3398940495856
 21
196.5429167747933
 31
0.0
  0
LINE
  5
31A
330
1F
100
AcDbEntity
  8
1
  6
Continuous
 62
     2
100
AcDbLine
 10
78.3398940495856
 20
196.5429167747933
 30
0.0
 11
78.3398940495856
 21
196.8399016228916
 31
0.0
  0
LINE
  5
31B
330
1F
100
AcDbEntity
  8
1
  6
Continuous
 62
     2
100
AcDbLine
 10
78.3398940495856
 20
196.8399016228916
 30
0.0
 11
78.63687889768394
 21
196.8399016228916
 31
0.0
  0
LINE
  5
31C
330
1F
100
AcDbEntity
  8
1
  6
Continuous
 62
     2
100
AcDbLine
 10
78.63687889768394
 20
196.8399016228916
 30
0.0
 11
78.63687889768394
 21
196.5429167747933
 31
0.0
  0
LINE
  5
31D
330
1F
100
AcDbEntity
  8
1
  6
Continuous
 62
     2
100
AcDbLine
 10
78.53788394831783
 20
196.6419117241594
 30
0.0
 11
78.43888899895171
 21
196.6419117241594
 31
0.0
  0
LINE
  5
31E
330
1F
100
AcDbEntity
  8
1
  6
Continuous
 62
     2
100
AcDbLine
 10
78.43888899895171
 20
196.6419117241594
 30
0.0
 11
78.43888899895171
 21
196.7409066735255
 31
0.0
  0
LINE
  5
31F
330
1F
100
AcDbEntity
  8
1
  6
Continuous
 62
     2
100
AcDbLine
 10
78.43888899895171
 20
196.7409066735255
 30
0.0
 11
78.53788394831783
 21
196.7409066735255
 31
0.0
  0
LINE
  5
320
330
1F
100
AcDbEntity
  8
1
  6
Continuous
 62
     2
100
AcDbLine
 10
78.53788394831783
 20
196.7409066735255
 30
0.0
 11
78.53788394831783
 21
196.6419117241594
 31
0.0
  0
LINE
  5
321
330
1F
100
AcDbEntity
  8
1
  6
Continuous
 62
     2
100
AcDbLine
 10
82.0027071761319
 20
198.027841015285
 30
0.0
 11
81.90371222676579
 21
197.4338713190883
 31
0.0
  0
LINE
  5
322
330
1F
100
AcDbEntity
  8
1
  6
Continuous
 62
     2
100
AcDbLine
 10
81.90371222676579
 20
197.4338713190883
 30
0.0
 11
81.70572232803356
 21
197.0378915216239
 31
0.0
  0
LINE
  5
323
330
1F
100
AcDbEntity
  8
1
  6
Continuous
 62
     2
100
AcDbLine
 10
81.70572232803356
 20
197.0378915216239
 30
0.0
 11
81.50773242930133
 21
196.8399016228916
 31
0.0
  0
LINE
  5
324
330
1F
100
AcDbEntity
  8
1
  6
Continuous
 62
     2
100
AcDbLine
 10
81.50773242930133
 20
196.8399016228916
 30
0.0
 11
81.21074758120298
 21
196.6419117241594
 31
0.0
  0
LINE
  5
325
330
1F
100
AcDbEntity
  8
1
  6
Continuous
 62
     2
100
AcDbLine
 10
81.21074758120298
 20
196.6419117241594
 30
0.0
 11
80.91376273310463
 21
196.5429167747933
 31
0.0
  0
LINE
  5
326
330
1F
100
AcDbEntity
  8
1
  6
Continuous
 62
     2
100
AcDbLine
 10
80.91376273310463
 20
196.5429167747933
 30
0.0
 11
80.7157728343724
 21
196.5429167747933
 31
0.0
  0
LINE
  5
327
330
1F
100
AcDbEntity
  8
1
  6
Continuous
 62
     2
100
AcDbLine
 10
80.7157728343724
 20
196.5429167747933
 30
0.0
 11
80.41878798627404
 21
196.6419117241594
 31
0.0
  0
LINE
  5
328
330
1F
100
AcDbEntity
  8
1
  6
Continuous
 62
     2
100
AcDbLine
 10
80.41878798627404
 20
196.6419117241594
 30
0.0
 11
80.1218031381757
 21
196.8399016228916
 31
0.0
  0
LINE
  5
329
330
1F
100
AcDbEntity
  8
1
  6
Continuous
 62
     2
100
AcDbLine
 10
80.1218031381757
 20
196.8399016228916
 30
0.0
 11
79.92381323944346
 21
197.0378915216239
 31
0.0
  0
LINE
  5
32A
330
1F
100
AcDbEntity
  8
1
  6
Continuous
 62
     2
100
AcDbLine
 10
79.92381323944346
 20
197.0378915216239
 30
0.0
 11
79.72582334071123
 21
197.4338713190883
 31
0.0
  0
LINE
  5
32B
330
1F
100
AcDbEntity
  8
1
  6
Continuous
 62
     2
100
AcDbLine
 10
79.72582334071123
 20
197.4338713190883
 30
0.0
 11
79.62682839134511
 21
198.027841015285
 31
0.0
  0
LINE
  5
32C
330
1F
100
AcDbEntity
  8
1
  6
Continuous
 62
     2
100
AcDbLine
 10
79.62682839134511
 20
198.027841015285
 30
0.0
 11
79.62682839134511
 21
199.0177905089462
 31
0.0
  0
LINE
  5
32D
330
1F
100
AcDbEntity
  8
1
  6
Continuous
 62
     2
100
AcDbLine
 10
79.62682839134511
 20
199.0177905089462
 30
0.0
 11
79.72582334071123
 21
199.6117602051429
 31
0.0
  0
LINE
  5
32E
330
1F
100
AcDbEntity
  8
1
  6
Continuous
 62
     2
100
AcDbLine
 10
79.72582334071123
 20
199.6117602051429
 30
0.0
 11
79.92381323944346
 21
200.0077400026074
 31
0.0
  0
LINE
  5
32F
330
1F
100
AcDbEntity
  8
1
  6
Continuous
 62
     2
100
AcDbLine
 10
79.92381323944346
 20
200.0077400026074
 30
0.0
 11
80.1218031381757
 21
200.2057299013396
 31
0.0
  0
LINE
  5
330
330
1F
100
AcDbEntity
  8
1
  6
Continuous
 62
     2
100
AcDbLine
 10
80.1218031381757
 20
200.2057299013396
 30
0.0
 11
80.41878798627404
 21
200.4037198000718
 31
0.0
  0
LINE
  5
331
330
1F
100
AcDbEntity
  8
1
  6
Continuous
 62
     2
100
AcDbLine
 10
80.41878798627404
 20
200.4037198000718
 30
0.0
 11
80.7157728343724
 21
200.5027147494379
 31
0.0
  0
LINE
  5
332
330
1F
100
AcDbEntity
  8
1
  6
Continuous
 62
     2
100
AcDbLine
 10
80.7157728343724
 20
200.5027147494379
 30
0.0
 11
80.91376273310463
 21
200.5027147494379
 31
0.0
  0
LINE
  5
333
330
1F
100
AcDbEntity
  8
1
  6
Continuous
 62
     2
100
AcDbLine
 10
80.91376273310463
 20
200.5027147494379
 30
0.0
 11
81.21074758120298
 21
200.4037198000718
 31
0.0
  0
LINE
  5
334
330
1F
100
AcDbEntity
  8
1
  6
Continuous
 62
     2
100
AcDbLine
 10
81.21074758120298
 20
200.4037198000718
 30
0.0
 11
81.50773242930133
 21
200.2057299013396
 31
0.0
  0
LINE
  5
335
330
1F
100
AcDbEntity
  8
1
  6
Continuous
 62
     2
100
AcDbLine
 10
81.50773242930133
 20
200.2057299013396
 30
0.0
 11
81.70572232803356
 21
200.0077400026074
 31
0.0
  0
LINE
  5
336
330
1F
100
AcDbEntity
  8
1
  6
Continuous
 62
     2
100
AcDbLine
 10
81.70572232803356
 20
200.0077400026074
 30
0.0
 11
81.90371222676579
 21
199.6117602051429
 31
0.0
  0
LINE
  5
337
330
1F
100
AcDbEntity
  8
1
  6
Continuous
 62
     2
100
AcDbLine
 10
81.90371222676579
 20
199.6117602051429
 30
0.0
 11
82.0027071761319
 21
199.0177905089462
 31
0.0
  0
LINE
  5
338
330
1F
100
AcDbEntity
  8
1
  6
Continuous
 62
     2
100
AcDbLine
 10
82.0027071761319
 20
199.0177905089462
 30
0.0
 11
82.0027071761319
 21
198.027841015285
 31
0.0
  0
LINE
  5
339
330
1F
100
AcDbEntity
  8
1
  6
Continuous
 62
     2
100
AcDbLine
 10
89.87280565073817
 20
199.4137703064106
 30
0.0
 11
89.87280565073817
 21
196.7904041482086
 31
0.0
  0
LINE
  5
33A
330
1F
100
AcDbEntity
  8
1
  6
Continuous
 62
     2
100
AcDbLine
 10
89.87280565073817
 20
196.7904041482086
 30
0.0
 11
92.69416170767249
 21
196.7904041482086
 31
0.0
  0
LINE
  5
33B
330
1F
100
AcDbEntity
  8
1
  6
Continuous
 62
     2
100
AcDbLine
 10
92.69416170767249
 20
196.7904041482086
 30
0.0
 11
92.69416170767249
 21
199.4137703064106
 31
0.0
  0
LINE
  5
33C
330
1F
100
AcDbEntity
  8
1
  6
Continuous
 62
     2
100
AcDbLine
 10
91.30823241654686
 20
200.2552273760227
 30
0.0
 11
91.30823241654686
 21
196.7904041482086
 31
0.0
  0
LINE
  5
33D
330
1F
100
AcDbEntity
  8
1
  6
Continuous
 62
     2
100
AcDbLine
 10
93.48612130260143
 20
199.3147753570445
 30
0.0
 11
94.67406069499484
 21
200.5027147494379
 31
0.0
  0
LINE
  5
33E
330
1F
100
AcDbEntity
  8
1
  6
Continuous
 62
     2
100
AcDbLine
 10
94.67406069499484
 20
200.5027147494379
 30
0.0
 11
94.67406069499484
 21
196.5429167747933
 31
0.0
  0
LINE
  5
33F
330
1F
100
AcDbEntity
  8
1
  6
Continuous
 62
     2
100
AcDbLine
 10
97.64390917597832
 20
200.5027147494379
 30
0.0
 11
95.86200008738822
 21
197.3348763697222
 31
0.0
  0
LINE
  5
340
330
1F
100
AcDbEntity
  8
1
  6
Continuous
 62
     2
100
AcDbLine
 10
95.86200008738822
 20
197.3348763697222
 30
0.0
 11
98.23787887217502
 21
197.3348763697222
 31
0.0
  0
LINE
  5
341
330
1F
100
AcDbEntity
  8
1
  6
Continuous
 62
     2
100
AcDbLine
 10
97.64390917597832
 20
198.1268359646511
 30
0.0
 11
97.64390917597832
 21
196.5429167747933
 31
0.0
  0
LINE
  5
342
330
1F
100
AcDbEntity
  8
1
  6
Continuous
 62
     2
100
AcDbLine
 10
44.91339732108553
 20
279.8375086545761
 30
0.0
 11
45.01946333826351
 21
279.4662775944532
 31
0.0
  0
LINE
  5
343
330
1F
100
AcDbEntity
  8
1
  6
Continuous
 62
     2
100
AcDbLine
 10
45.01946333826351
 20
279.4662775944532
 30
0.0
 11
45.12552935544149
 21
279.2011125515082
 31
0.0
  0
LINE
  5
344
330
1F
100
AcDbEntity
  8
1
  6
Continuous
 62
     2
100
AcDbLine
 10
45.12552935544149
 20
279.2011125515082
 30
0.0
 11
45.49676041556443
 21
279.5723436116312
 31
0.0
  0
LINE
  5
345
330
1F
100
AcDbEntity
  8
1
  6
Continuous
 62
     2
100
AcDbLine
 10
45.97405749286535
 20
279.0420135257413
 30
0.0
 11
46.45135457016627
 21
279.0420135257413
 31
0.0
  0
LINE
  5
346
330
1F
100
AcDbEntity
  8
1
  6
Continuous
 62
     2
100
AcDbLine
 10
46.45135457016627
 20
279.0420135257413
 30
0.0
 11
46.66348660452223
 21
279.3071785686863
 31
0.0
  0
LINE
  5
347
330
1F
100
AcDbEntity
  8
1
  6
Continuous
 62
     2
100
AcDbLine
 10
46.66348660452223
 20
279.3071785686863
 30
0.0
 11
46.55742058734425
 21
279.8375086545761
 31
0.0
  0
LINE
  5
348
330
1F
100
AcDbEntity
  8
1
  6
Continuous
 62
     2
100
AcDbLine
 10
46.55742058734425
 20
279.8375086545761
 30
0.0
 11
46.08012351004333
 21
280.526937766233
 31
0.0
  0
LINE
  5
349
330
1F
100
AcDbEntity
  8
1
  6
Continuous
 62
     2
100
AcDbLine
 10
46.08012351004333
 20
280.526937766233
 30
0.0
 11
46.18618952722132
 21
280.898168826356
 31
0.0
  0
LINE
  5
34A
330
1F
100
AcDbEntity
  8
1
  6
Continuous
 62
     2
100
AcDbLine
 10
46.18618952722132
 20
280.898168826356
 30
0.0
 11
46.66348660452223
 21
281.1633338693009
 31
0.0
  0
LINE
  5
34B
330
1F
100
AcDbEntity
  8
1
  6
Continuous
 62
     2
100
AcDbLine
 10
46.66348660452223
 20
281.1633338693009
 30
0.0
 11
46.55742058734425
 21
281.5875979380128
 31
0.0
  0
LINE
  5
34C
330
1F
100
AcDbEntity
  8
1
  6
Continuous
 62
     2
100
AcDbLine
 10
46.55742058734425
 20
281.5875979380128
 30
0.0
 11
46.18618952722132
 21
281.9588289981358
 31
0.0
  0
LINE
  5
34D
330
1F
100
AcDbEntity
  8
1
  6
Continuous
 62
     2
100
AcDbLine
 10
47.40594872476811
 20
279.9966076803431
 30
0.0
 11
47.72414677630206
 21
279.5723436116312
 31
0.0
  0
LINE
  5
34E
330
1F
100
AcDbEntity
  8
1
  6
Continuous
 62
     2
100
AcDbLine
 10
47.72414677630206
 20
279.5723436116312
 30
0.0
 11
47.98931181924701
 21
279.2011125515082
 31
0.0
  0
LINE
  5
34F
330
1F
100
AcDbEntity
  8
1
  6
Continuous
 62
     2
100
AcDbLine
 10
49.52726906832775
 20
278.9359475085633
 30
0.0
 11
49.8454671198617
 21
280.367838740466
 31
0.0
  0
LINE
  5
350
330
1F
100
AcDbEntity
  8
1
  6
Continuous
 62
     2
100
AcDbLine
 10
49.8454671198617
 20
280.367838740466
 30
0.0
 11
50.11063216280665
 21
282.1179280239028
 31
0.0
  0
LINE
  5
351
330
1F
100
AcDbEntity
  8
1
  6
Continuous
 62
     2
100
AcDbLine
 10
50.90612729164152
 20
281.6936639551909
 30
0.0
 11
50.11063216280665
 21
281.4284989122459
 31
0.0
  0
LINE
  5
352
330
1F
100
AcDbEntity
  8
1
  6
Continuous
 62
     2
100
AcDbLine
 10
50.11063216280665
 20
281.4284989122459
 30
0.0
 11
49.2621040253828
 21
281.3224328950679
 31
0.0
  0
LINE
  5
353
330
1F
100
AcDbEntity
  8
1
  6
Continuous
 62
     2
100
AcDbLine
 10
51.0121933088195
 20
281.1633338693009
 30
0.0
 11
51.38342436894244
 21
281.1633338693009
 31
0.0
  0
LINE
  5
354
330
1F
100
AcDbEntity
  8
1
  6
Continuous
 62
     2
100
AcDbLine
 10
51.38342436894244
 20
281.1633338693009
 30
0.0
 11
51.86072144624335
 21
281.057267852123
 31
0.0
  0
LINE
  5
355
330
1F
100
AcDbEntity
  8
1
  6
Continuous
 62
     2
100
AcDbLine
 10
50.69399525728555
 20
279.4662775944532
 30
0.0
 11
50.90612729164152
 21
279.2011125515082
 31
0.0
  0
LINE
  5
356
330
1F
100
AcDbEntity
  8
1
  6
Continuous
 62
     2
100
AcDbLine
 10
50.90612729164152
 20
279.2011125515082
 30
0.0
 11
51.48949038612042
 21
279.0420135257413
 31
0.0
  0
LINE
  5
357
330
1F
100
AcDbEntity
  8
1
  6
Continuous
 62
     2
100
AcDbLine
 10
51.48949038612042
 20
279.0420135257413
 30
0.0
 11
52.07285348059932
 21
279.2011125515082
 31
0.0
  0
LINE
  5
358
330
1F
100
AcDbEntity
  8
1
  6
Continuous
 62
     2
100
AcDbLine
 10
54.93663594440483
 20
281.8527629809578
 30
0.0
 11
54.5654048842819
 21
280.526937766233
 31
0.0
  0
LINE
  5
359
330
1F
100
AcDbEntity
  8
1
  6
Continuous
 62
     2
100
AcDbLine
 10
54.5654048842819
 20
280.526937766233
 30
0.0
 11
53.982041789803
 21
279.2011125515082
 31
0.0
  0
LINE
  5
35A
330
1F
100
AcDbEntity
  8
1
  6
Continuous
 62
     2
100
AcDbLine
 10
53.982041789803
 20
279.2011125515082
 30
0.0
 11
53.50474471250208
 21
279.4662775944532
 31
0.0
  0
LINE
  5
35B
330
1F
100
AcDbEntity
  8
1
  6
Continuous
 62
     2
100
AcDbLine
 10
53.50474471250208
 20
279.4662775944532
 30
0.0
 11
53.39867869532409
 21
280.1026736975211
 31
0.0
  0
LINE
  5
35C
330
1F
100
AcDbEntity
  8
1
  6
Continuous
 62
     2
100
AcDbLine
 10
53.39867869532409
 20
280.1026736975211
 30
0.0
 11
53.50474471250208
 21
280.898168826356
 31
0.0
  0
LINE
  5
35D
330
1F
100
AcDbEntity
  8
1
  6
Continuous
 62
     2
100
AcDbLine
 10
53.50474471250208
 20
280.898168826356
 30
0.0
 11
53.982041789803
 21
281.5875979380128
 31
0.0
  0
LINE
  5
35E
330
1F
100
AcDbEntity
  8
1
  6
Continuous
 62
     2
100
AcDbLine
 10
53.982041789803
 20
281.5875979380128
 30
0.0
 11
54.67147090145988
 21
281.8527629809578
 31
0.0
  0
LINE
  5
35F
330
1F
100
AcDbEntity
  8
1
  6
Continuous
 62
     2
100
AcDbLine
 10
54.67147090145988
 20
281.8527629809578
 30
0.0
 11
55.41393302170576
 21
281.8527629809578
 31
0.0
  0
LINE
  5
360
330
1F
100
AcDbEntity
  8
1
  6
Continuous
 62
     2
100
AcDbLine
 10
55.41393302170576
 20
281.8527629809578
 30
0.0
 11
55.89123009900668
 21
281.5875979380128
 31
0.0
  0
LINE
  5
361
330
1F
100
AcDbEntity
  8
1
  6
Continuous
 62
     2
100
AcDbLine
 10
55.89123009900668
 20
281.5875979380128
 30
0.0
 11
56.20942815054062
 21
281.057267852123
 31
0.0
  0
LINE
  5
362
330
1F
100
AcDbEntity
  8
1
  6
Continuous
 62
     2
100
AcDbLine
 10
56.20942815054062
 20
281.057267852123
 30
0.0
 11
56.20942815054062
 21
280.1026736975211
 31
0.0
  0
LINE
  5
363
330
1F
100
AcDbEntity
  8
1
  6
Continuous
 62
     2
100
AcDbLine
 10
56.20942815054062
 20
280.1026736975211
 30
0.0
 11
55.89123009900668
 21
279.4662775944532
 31
0.0
  0
LINE
  5
364
330
1F
100
AcDbEntity
  8
1
  6
Continuous
 62
     2
100
AcDbLine
 10
55.89123009900668
 20
279.4662775944532
 30
0.0
 11
55.25483399593878
 21
278.9359475085633
 31
0.0
  0
LINE
  5
365
330
1F
100
AcDbEntity
  8
1
  6
Continuous
 62
     2
100
AcDbLine
 10
57.53525336526541
 20
278.6707824656183
 30
0.0
 11
57.53525336526541
 21
281.8527629809578
 31
0.0
  0
LINE
  5
366
330
1F
100
AcDbEntity
  8
1
  6
Continuous
 62
     2
100
AcDbLine
 10
57.53525336526541
 20
281.8527629809578
 30
0.0
 11
60.5581348548379
 21
281.8527629809578
 31
0.0
  0
LINE
  5
367
330
1F
100
AcDbEntity
  8
1
  6
Continuous
 62
     2
100
AcDbLine
 10
60.5581348548379
 20
281.8527629809578
 30
0.0
 11
60.5581348548379
 21
278.6707824656183
 31
0.0
  0
LINE
  5
368
330
1F
100
AcDbEntity
  8
1
  6
Continuous
 62
     2
100
AcDbLine
 10
60.5581348548379
 20
278.6707824656183
 30
0.0
 11
59.97477176035899
 21
278.6707824656183
 31
0.0
  0
LINE
  5
369
330
1F
100
AcDbEntity
  8
1
  6
Continuous
 62
     2
100
AcDbLine
 10
58.59591353704523
 20
279.8375086545761
 30
0.0
 11
58.59591353704523
 21
280.898168826356
 31
0.0
  0
LINE
  5
36A
330
1F
100
AcDbEntity
  8
1
  6
Continuous
 62
     2
100
AcDbLine
 10
58.59591353704523
 20
280.898168826356
 30
0.0
 11
59.49747468305807
 21
280.898168826356
 31
0.0
  0
LINE
  5
36B
330
1F
100
AcDbEntity
  8
1
  6
Continuous
 62
     2
100
AcDbLine
 10
59.49747468305807
 20
280.898168826356
 30
0.0
 11
59.49747468305807
 21
279.8375086545761
 31
0.0
  0
LINE
  5
36C
330
1F
100
AcDbEntity
  8
1
  6
Continuous
 62
     2
100
AcDbLine
 10
59.49747468305807
 20
279.8375086545761
 30
0.0
 11
58.59591353704523
 21
279.8375086545761
 31
0.0
  0
LINE
  5
36D
330
1F
100
AcDbEntity
  8
1
  6
Continuous
 62
     2
100
AcDbLine
 10
58.11861645974431
 20
281.8527629809578
 30
0.0
 11
58.70197955422321
 21
282.6482581097927
 31
0.0
  0
LINE
  5
36E
330
1F
100
AcDbEntity
  8
1
  6
Continuous
 62
     2
100
AcDbLine
 10
62.46732316404157
 20
280.792102809178
 30
0.0
 11
63.5279833358214
 21
281.057267852123
 31
0.0
  0
LINE
  5
36F
330
1F
100
AcDbEntity
  8
1
  6
Continuous
 62
     2
100
AcDbLine
 10
63.5279833358214
 20
281.057267852123
 30
0.0
 11
64.37651147324524
 21
281.4284989122459
 31
0.0
  0
LINE
  5
370
330
1F
100
AcDbEntity
  8
1
  6
Continuous
 62
     2
100
AcDbLine
 10
63.74011537017736
 20
282.1179280239028
 30
0.0
 11
63.31585130146543
 21
281.8527629809578
 31
0.0
  0
LINE
  5
371
330
1F
100
AcDbEntity
  8
1
  6
Continuous
 62
     2
100
AcDbLine
 10
63.31585130146543
 20
281.8527629809578
 30
0.0
 11
62.46732316404157
 21
281.5875979380128
 31
0.0
  0
LINE
  5
372
330
1F
100
AcDbEntity
  8
1
  6
Continuous
 62
     2
100
AcDbLine
 10
62.83855422416451
 20
282.4891590840257
 30
0.0
 11
63.42191731864341
 21
281.5875979380128
 31
0.0
  0
LINE
  5
373
330
1F
100
AcDbEntity
  8
1
  6
Continuous
 62
     2
100
AcDbLine
 10
63.42191731864341
 20
281.5875979380128
 30
0.0
 11
64.21741244747828
 21
279.9966076803431
 31
0.0
  0
LINE
  5
374
330
1F
100
AcDbEntity
  8
1
  6
Continuous
 62
     2
100
AcDbLine
 10
64.21741244747828
 20
279.9966076803431
 30
0.0
 11
63.74011537017736
 21
280.1026736975211
 31
0.0
  0
LINE
  5
375
330
1F
100
AcDbEntity
  8
1
  6
Continuous
 62
     2
100
AcDbLine
 10
63.74011537017736
 20
280.1026736975211
 30
0.0
 11
63.31585130146543
 21
280.1026736975211
 31
0.0
  0
LINE
  5
376
330
1F
100
AcDbEntity
  8
1
  6
Continuous
 62
     2
100
AcDbLine
 10
63.31585130146543
 20
280.1026736975211
 30
0.0
 11
62.83855422416451
 21
279.8375086545761
 31
0.0
  0
LINE
  5
377
330
1F
100
AcDbEntity
  8
1
  6
Continuous
 62
     2
100
AcDbLine
 10
62.83855422416451
 20
279.8375086545761
 30
0.0
 11
62.57338918121955
 21
279.3071785686863
 31
0.0
  0
LINE
  5
378
330
1F
100
AcDbEntity
  8
1
  6
Continuous
 62
     2
100
AcDbLine
 10
62.57338918121955
 20
279.3071785686863
 30
0.0
 11
63.05068625852047
 21
278.9359475085633
 31
0.0
  0
LINE
  5
379
330
1F
100
AcDbEntity
  8
1
  6
Continuous
 62
     2
100
AcDbLine
 10
63.05068625852047
 20
278.9359475085633
 30
0.0
 11
63.89921439594433
 21
278.7768484827963
 31
0.0
  0
LINE
  5
37A
330
1F
100
AcDbEntity
  8
1
  6
Continuous
 62
     2
100
AcDbLine
 10
66.49783181680489
 20
278.9359475085633
 30
0.0
 11
66.33873279103791
 21
279.8375086545761
 31
0.0
  0
LINE
  5
37B
330
1F
100
AcDbEntity
  8
1
  6
Continuous
 62
     2
100
AcDbLine
 10
66.33873279103791
 20
279.8375086545761
 30
0.0
 11
66.33873279103791
 21
281.057267852123
 31
0.0
  0
LINE
  5
37C
330
1F
100
AcDbEntity
  8
1
  6
Continuous
 62
     2
100
AcDbLine
 10
66.33873279103791
 20
281.057267852123
 30
0.0
 11
66.60389783398287
 21
282.2239940410807
 31
0.0
  0
LINE
  5
37D
330
1F
100
AcDbEntity
  8
1
  6
Continuous
 62
     2
100
AcDbLine
 10
67.29332694563976
 20
281.3224328950679
 30
0.0
 11
68.35398711741958
 21
281.4284989122459
 31
0.0
  0
LINE
  5
37E
330
1F
100
AcDbEntity
  8
1
  6
Continuous
 62
     2
100
AcDbLine
 10
68.35398711741958
 20
281.4284989122459
 30
0.0
 11
68.93735021189848
 21
281.5875979380128
 31
0.0
  0
LINE
  5
37F
330
1F
100
AcDbEntity
  8
1
  6
Continuous
 62
     2
100
AcDbLine
 10
68.2479211002416
 20
282.2239940410807
 30
0.0
 11
68.35398711741958
 21
279.8375086545761
 31
0.0
  0
LINE
  5
380
330
1F
100
AcDbEntity
  8
1
  6
Continuous
 62
     2
100
AcDbLine
 10
68.35398711741958
 20
279.8375086545761
 30
0.0
 11
68.2479211002416
 21
279.3071785686863
 31
0.0
  0
LINE
  5
381
330
1F
100
AcDbEntity
  8
1
  6
Continuous
 62
     2
100
AcDbLine
 10
68.2479211002416
 20
279.3071785686863
 30
0.0
 11
67.98275605729664
 21
279.0420135257413
 31
0.0
  0
LINE
  5
382
330
1F
100
AcDbEntity
  8
1
  6
Continuous
 62
     2
100
AcDbLine
 10
67.98275605729664
 20
279.0420135257413
 30
0.0
 11
67.55849198858472
 21
278.9359475085633
 31
0.0
  0
LINE
  5
383
330
1F
100
AcDbEntity
  8
1
  6
Continuous
 62
     2
100
AcDbLine
 10
67.55849198858472
 20
278.9359475085633
 30
0.0
 11
67.18726092846178
 21
279.2011125515082
 31
0.0
  0
LINE
  5
384
330
1F
100
AcDbEntity
  8
1
  6
Continuous
 62
     2
100
AcDbLine
 10
67.18726092846178
 20
279.2011125515082
 30
0.0
 11
67.18726092846178
 21
279.4662775944532
 31
0.0
  0
LINE
  5
385
330
1F
100
AcDbEntity
  8
1
  6
Continuous
 62
     2
100
AcDbLine
 10
67.18726092846178
 20
279.4662775944532
 30
0.0
 11
67.77062402294068
 21
279.5723436116312
 31
0.0
  0
LINE
  5
386
330
1F
100
AcDbEntity
  8
1
  6
Continuous
 62
     2
100
AcDbLine
 10
67.77062402294068
 20
279.5723436116312
 30
0.0
 11
68.35398711741958
 21
279.4662775944532
 31
0.0
  0
LINE
  5
387
330
1F
100
AcDbEntity
  8
1
  6
Continuous
 62
     2
100
AcDbLine
 10
68.35398711741958
 20
279.4662775944532
 30
0.0
 11
68.93735021189848
 21
279.0420135257413
 31
0.0
  0
LINE
  5
388
330
1F
100
AcDbEntity
  8
1
  6
Continuous
 62
     2
100
AcDbLine
 10
69.9980103836783
 20
280.898168826356
 30
0.0
 11
73.5512219591407
 21
280.898168826356
 31
0.0
  0
LINE
  5
389
330
1F
100
AcDbEntity
  8
1
  6
Continuous
 62
     2
100
AcDbLine
 10
74.34671708797556
 20
278.6707824656183
 30
0.0
 11
74.61188213092052
 21
278.9359475085633
 31
0.0
  0
LINE
  5
38A
330
1F
100
AcDbEntity
  8
1
  6
Continuous
 62
     2
100
AcDbLine
 10
74.61188213092052
 20
278.9359475085633
 30
0.0
 11
74.98311319104346
 21
279.4662775944532
 31
0.0
  0
LINE
  5
38B
330
1F
100
AcDbEntity
  8
1
  6
Continuous
 62
     2
100
AcDbLine
 10
74.98311319104346
 20
279.4662775944532
 30
0.0
 11
75.40737725975539
 21
280.2617727232881
 31
0.0
  0
LINE
  5
38C
330
1F
100
AcDbEntity
  8
1
  6
Continuous
 62
     2
100
AcDbLine
 10
75.08917920822144
 20
279.5723436116312
 30
0.0
 11
75.30131124257741
 21
279.2011125515082
 31
0.0
  0
LINE
  5
38D
330
1F
100
AcDbEntity
  8
1
  6
Continuous
 62
     2
100
AcDbLine
 10
75.30131124257741
 20
279.2011125515082
 30
0.0
 11
75.67254230270035
 21
278.9359475085633
 31
0.0
  0
LINE
  5
38E
330
1F
100
AcDbEntity
  8
1
  6
Continuous
 62
     2
100
AcDbLine
 10
75.67254230270035
 20
278.9359475085633
 30
0.0
 11
76.25590539717925
 21
278.6707824656183
 31
0.0
  0
LINE
  5
38F
330
1F
100
AcDbEntity
  8
1
  6
Continuous
 62
     2
100
AcDbLine
 10
76.25590539717925
 20
278.6707824656183
 30
0.0
 11
77.79386264625998
 21
278.6707824656183
 31
0.0
  0
LINE
  5
390
330
1F
100
AcDbEntity
  8
1
  6
Continuous
 62
     2
100
AcDbLine
 10
77.21049955178108
 20
280.1026736975211
 30
0.0
 11
76.04377336282329
 21
280.1026736975211
 31
0.0
  0
LINE
  5
391
330
1F
100
AcDbEntity
  8
1
  6
Continuous
 62
     2
100
AcDbLine
 10
76.04377336282329
 20
278.7768484827963
 30
0.0
 11
76.04377336282329
 21
281.1633338693009
 31
0.0
  0
LINE
  5
392
330
1F
100
AcDbEntity
  8
1
  6
Continuous
 62
     2
100
AcDbLine
 10
77.1044335346031
 20
281.1633338693009
 30
0.0
 11
74.98311319104346
 21
281.1633338693009
 31
0.0
  0
LINE
  5
393
330
1F
100
AcDbEntity
  8
1
  6
Continuous
 62
     2
100
AcDbLine
 10
74.50581611374254
 20
281.5875979380128
 30
0.0
 11
74.50581611374254
 21
282.2239940410807
 31
0.0
  0
LINE
  5
394
330
1F
100
AcDbEntity
  8
1
  6
Continuous
 62
     2
100
AcDbLine
 10
74.50581611374254
 20
282.2239940410807
 30
0.0
 11
77.52869760331504
 21
282.2239940410807
 31
0.0
  0
LINE
  5
395
330
1F
100
AcDbEntity
  8
1
  6
Continuous
 62
     2
100
AcDbLine
 10
77.52869760331504
 20
282.2239940410807
 30
0.0
 11
77.52869760331504
 21
281.5875979380128
 31
0.0
  0
LINE
  5
396
330
1F
100
AcDbEntity
  8
1
  6
Continuous
 62
     2
100
AcDbLine
 10
76.04377336282329
 20
282.2239940410807
 30
0.0
 11
76.04377336282329
 21
282.6482581097927
 31
0.0
  0
LINE
  5
397
330
1F
100
AcDbEntity
  8
1
  6
Continuous
 62
     2
100
AcDbLine
 10
78.48329175791686
 20
281.057267852123
 30
0.0
 11
79.65001794687467
 21
281.5875979380128
 31
0.0
  0
LINE
  5
398
330
1F
100
AcDbEntity
  8
1
  6
Continuous
 62
     2
100
AcDbLine
 10
79.65001794687467
 20
281.5875979380128
 30
0.0
 11
81.1879751959554
 21
281.8527629809578
 31
0.0
  0
LINE
  5
399
330
1F
100
AcDbEntity
  8
1
  6
Continuous
 62
     2
100
AcDbLine
 10
81.7713382904343
 20
281.8527629809578
 30
0.0
 11
81.45314023890036
 21
282.2239940410807
 31
0.0
  0
LINE
  5
39A
330
1F
100
AcDbEntity
  8
1
  6
Continuous
 62
     2
100
AcDbLine
 10
81.66527227325632
 20
282.4891590840257
 30
0.0
 11
82.03650333337926
 21
282.1179280239028
 31
0.0
  0
LINE
  5
39B
330
1F
100
AcDbEntity
  8
1
  6
Continuous
 62
     2
100
AcDbLine
 10
80.6046121014765
 20
281.6936639551909
 30
0.0
 11
80.12731502417559
 21
281.4284989122459
 31
0.0
  0
LINE
  5
39C
330
1F
100
AcDbEntity
  8
1
  6
Continuous
 62
     2
100
AcDbLine
 10
80.12731502417559
 20
281.4284989122459
 30
0.0
 11
79.80911697264163
 21
280.898168826356
 31
0.0
  0
LINE
  5
39D
330
1F
100
AcDbEntity
  8
1
  6
Continuous
 62
     2
100
AcDbLine
 10
79.80911697264163
 20
280.898168826356
 30
0.0
 11
79.54395192969669
 21
280.2617727232881
 31
0.0
  0
LINE
  5
39E
330
1F
100
AcDbEntity
  8
1
  6
Continuous
 62
     2
100
AcDbLine
 10
79.54395192969669
 20
280.2617727232881
 30
0.0
 11
79.54395192969669
 21
279.8375086545761
 31
0.0
  0
LINE
  5
39F
330
1F
100
AcDbEntity
  8
1
  6
Continuous
 62
     2
100
AcDbLine
 10
79.54395192969669
 20
279.8375086545761
 30
0.0
 11
79.65001794687467
 21
279.3071785686863
 31
0.0
  0
LINE
  5
3A0
330
1F
100
AcDbEntity
  8
1
  6
Continuous
 62
     2
100
AcDbLine
 10
79.65001794687467
 20
279.3071785686863
 30
0.0
 11
80.0212490069976
 21
278.9359475085633
 31
0.0
  0
LINE
  5
3A1
330
1F
100
AcDbEntity
  8
1
  6
Continuous
 62
     2
100
AcDbLine
 10
80.0212490069976
 20
278.9359475085633
 30
0.0
 11
80.6046121014765
 21
278.6707824656183
 31
0.0
  0
LINE
  5
3A2
330
1F
100
AcDbEntity
  8
1
  6
Continuous
 62
     2
100
AcDbLine
 10
83.46839456528203
 20
278.9359475085633
 30
0.0
 11
83.30929553951505
 21
279.8375086545761
 31
0.0
  0
LINE
  5
3A3
330
1F
100
AcDbEntity
  8
1
  6
Continuous
 62
     2
100
AcDbLine
 10
83.30929553951505
 20
279.8375086545761
 30
0.0
 11
83.30929553951505
 21
281.057267852123
 31
0.0
  0
LINE
  5
3A4
330
1F
100
AcDbEntity
  8
1
  6
Continuous
 62
     2
100
AcDbLine
 10
83.30929553951505
 20
281.057267852123
 30
0.0
 11
83.57446058246
 21
282.2239940410807
 31
0.0
  0
LINE
  5
3A5
330
1F
100
AcDbEntity
  8
1
  6
Continuous
 62
     2
100
AcDbLine
 10
84.2638896941169
 20
281.3224328950679
 30
0.0
 11
85.32454986589671
 21
281.4284989122459
 31
0.0
  0
LINE
  5
3A6
330
1F
100
AcDbEntity
  8
1
  6
Continuous
 62
     2
100
AcDbLine
 10
85.32454986589671
 20
281.4284989122459
 30
0.0
 11
85.90791296037561
 21
281.5875979380128
 31
0.0
  0
LINE
  5
3A7
330
1F
100
AcDbEntity
  8
1
  6
Continuous
 62
     2
100
AcDbLine
 10
85.21848384871873
 20
282.2239940410807
 30
0.0
 11
85.32454986589671
 21
279.8375086545761
 31
0.0
  0
LINE
  5
3A8
330
1F
100
AcDbEntity
  8
1
  6
Continuous
 62
     2
100
AcDbLine
 10
85.32454986589671
 20
279.8375086545761
 30
0.0
 11
85.21848384871873
 21
279.3071785686863
 31
0.0
  0
LINE
  5
3A9
330
1F
100
AcDbEntity
  8
1
  6
Continuous
 62
     2
100
AcDbLine
 10
85.21848384871873
 20
279.3071785686863
 30
0.0
 11
84.95331880577378
 21
279.0420135257413
 31
0.0
  0
LINE
  5
3AA
330
1F
100
AcDbEntity
  8
1
  6
Continuous
 62
     2
100
AcDbLine
 10
84.95331880577378
 20
279.0420135257413
 30
0.0
 11
84.52905473706186
 21
278.9359475085633
 31
0.0
  0
LINE
  5
3AB
330
1F
100
AcDbEntity
  8
1
  6
Continuous
 62
     2
100
AcDbLine
 10
84.52905473706186
 20
278.9359475085633
 30
0.0
 11
84.15782367693892
 21
279.2011125515082
 31
0.0
  0
LINE
  5
3AC
330
1F
100
AcDbEntity
  8
1
  6
Continuous
 62
     2
100
AcDbLine
 10
84.15782367693892
 20
279.2011125515082
 30
0.0
 11
84.15782367693892
 21
279.4662775944532
 31
0.0
  0
LINE
  5
3AD
330
1F
100
AcDbEntity
  8
1
  6
Continuous
 62
     2
100
AcDbLine
 10
84.15782367693892
 20
279.4662775944532
 30
0.0
 11
84.74118677141782
 21
279.5723436116312
 31
0.0
  0
LINE
  5
3AE
330
1F
100
AcDbEntity
  8
1
  6
Continuous
 62
     2
100
AcDbLine
 10
84.74118677141782
 20
279.5723436116312
 30
0.0
 11
85.32454986589671
 21
279.4662775944532
 31
0.0
  0
LINE
  5
3AF
330
1F
100
AcDbEntity
  8
1
  6
Continuous
 62
     2
100
AcDbLine
 10
85.32454986589671
 20
279.4662775944532
 30
0.0
 11
85.90791296037561
 21
279.0420135257413
 31
0.0
  0
LINE
  5
3B0
330
1F
100
AcDbEntity
  8
1
  6
Continuous
 62
     2
100
AcDbLine
 10
88.61259639841417
 20
279.4662775944532
 30
0.0
 11
88.50653038123619
 21
280.2617727232881
 31
0.0
  0
LINE
  5
3B1
330
1F
100
AcDbEntity
  8
1
  6
Continuous
 62
     2
100
AcDbLine
 10
88.50653038123619
 20
280.2617727232881
 30
0.0
 11
88.77169542418115
 21
282.3830930668477
 31
0.0
  0
LINE
  5
3B2
330
1F
100
AcDbEntity
  8
1
  6
Continuous
 62
     2
100
AcDbLine
 10
87.8171012695793
 20
281.6936639551909
 30
0.0
 11
88.87776144135913
 21
281.6936639551909
 31
0.0
  0
LINE
  5
3B3
330
1F
100
AcDbEntity
  8
1
  6
Continuous
 62
     2
100
AcDbLine
 10
88.87776144135913
 20
281.6936639551909
 30
0.0
 11
89.567190553016
 21
281.8527629809578
 31
0.0
  0
LINE
  5
3B4
330
1F
100
AcDbEntity
  8
1
  6
Continuous
 62
     2
100
AcDbLine
 10
89.35505851866004
 20
281.4284989122459
 30
0.0
 11
88.77169542418115
 21
280.1026736975211
 31
0.0
  0
LINE
  5
3B5
330
1F
100
AcDbEntity
  8
1
  6
Continuous
 62
     2
100
AcDbLine
 10
88.77169542418115
 20
280.1026736975211
 30
0.0
 11
87.71103525240132
 21
279.3071785686863
 31
0.0
  0
LINE
  5
3B6
330
1F
100
AcDbEntity
  8
1
  6
Continuous
 62
     2
100
AcDbLine
 10
87.71103525240132
 20
279.3071785686863
 30
0.0
 11
87.44587020945636
 21
279.5723436116312
 31
0.0
  0
LINE
  5
3B7
330
1F
100
AcDbEntity
  8
1
  6
Continuous
 62
     2
100
AcDbLine
 10
87.44587020945636
 20
279.5723436116312
 30
0.0
 11
87.71103525240132
 21
280.1026736975211
 31
0.0
  0
LINE
  5
3B8
330
1F
100
AcDbEntity
  8
1
  6
Continuous
 62
     2
100
AcDbLine
 10
87.71103525240132
 20
280.1026736975211
 30
0.0
 11
88.29439834688021
 21
280.633003783411
 31
0.0
  0
LINE
  5
3B9
330
1F
100
AcDbEntity
  8
1
  6
Continuous
 62
     2
100
AcDbLine
 10
88.29439834688021
 20
280.633003783411
 30
0.0
 11
89.19595949289307
 21
280.898168826356
 31
0.0
  0
LINE
  5
3BA
330
1F
100
AcDbEntity
  8
1
  6
Continuous
 62
     2
100
AcDbLine
 10
89.19595949289307
 20
280.898168826356
 30
0.0
 11
89.83235559596096
 21
280.633003783411
 31
0.0
  0
LINE
  5
3BB
330
1F
100
AcDbEntity
  8
1
  6
Continuous
 62
     2
100
AcDbLine
 10
89.83235559596096
 20
280.633003783411
 30
0.0
 11
90.04448763031692
 21
280.2617727232881
 31
0.0
  0
LINE
  5
3BC
330
1F
100
AcDbEntity
  8
1
  6
Continuous
 62
     2
100
AcDbLine
 10
90.04448763031692
 20
280.2617727232881
 30
0.0
 11
90.04448763031692
 21
279.5723436116312
 31
0.0
  0
LINE
  5
3BD
330
1F
100
AcDbEntity
  8
1
  6
Continuous
 62
     2
100
AcDbLine
 10
90.04448763031692
 20
279.5723436116312
 30
0.0
 11
89.567190553016
 21
279.0420135257413
 31
0.0
  0
LINE
  5
3BE
330
1F
100
AcDbEntity
  8
1
  6
Continuous
 62
     2
100
AcDbLine
 10
89.567190553016
 20
279.0420135257413
 30
0.0
 11
88.9838274585371
 21
278.7768484827963
 31
0.0
  0
LINE
  5
3BF
330
1F
100
AcDbEntity
  8
1
  6
Continuous
 62
     2
100
AcDbLine
 10
92.53703903399949
 20
279.9966076803431
 30
0.0
 11
92.37794000823253
 21
280.526937766233
 31
0.0
  0
LINE
  5
3C0
330
1F
100
AcDbEntity
  8
1
  6
Continuous
 62
     2
100
AcDbLine
 10
92.37794000823253
 20
280.526937766233
 30
0.0
 11
92.37794000823253
 21
281.5875979380128
 31
0.0
  0
LINE
  5
3C1
330
1F
100
AcDbEntity
  8
1
  6
Continuous
 62
     2
100
AcDbLine
 10
92.37794000823253
 20
281.5875979380128
 30
0.0
 11
92.53703903399949
 21
282.3830930668477
 31
0.0
  0
LINE
  5
3C2
330
1F
100
AcDbEntity
  8
1
  6
Continuous
 62
     2
100
AcDbLine
 10
92.37794000823253
 20
281.3224328950679
 30
0.0
 11
92.64310505117749
 21
281.8527629809578
 31
0.0
  0
LINE
  5
3C3
330
1F
100
AcDbEntity
  8
1
  6
Continuous
 62
     2
100
AcDbLine
 10
92.64310505117749
 20
281.8527629809578
 30
0.0
 11
93.1204021284784
 21
282.2239940410807
 31
0.0
  0
LINE
  5
3C4
330
1F
100
AcDbEntity
  8
1
  6
Continuous
 62
     2
100
AcDbLine
 10
93.1204021284784
 20
282.2239940410807
 30
0.0
 11
93.43860018001234
 21
282.2239940410807
 31
0.0
  0
LINE
  5
3C5
330
1F
100
AcDbEntity
  8
1
  6
Continuous
 62
     2
100
AcDbLine
 10
93.43860018001234
 20
282.2239940410807
 30
0.0
 11
93.7037652229573
 21
281.8527629809578
 31
0.0
  0
LINE
  5
3C6
330
1F
100
AcDbEntity
  8
1
  6
Continuous
 62
     2
100
AcDbLine
 10
93.7037652229573
 20
281.8527629809578
 30
0.0
 11
93.80983124013528
 21
281.057267852123
 31
0.0
  0
LINE
  5
3C7
330
1F
100
AcDbEntity
  8
1
  6
Continuous
 62
     2
100
AcDbLine
 10
93.80983124013528
 20
281.057267852123
 30
0.0
 11
93.80983124013528
 21
280.367838740466
 31
0.0
  0
LINE
  5
3C8
330
1F
100
AcDbEntity
  8
1
  6
Continuous
 62
     2
100
AcDbLine
 10
93.80983124013528
 20
280.367838740466
 30
0.0
 11
93.59769920577932
 21
279.4662775944532
 31
0.0
  0
LINE
  5
3C9
330
1F
100
AcDbEntity
  8
1
  6
Continuous
 62
     2
100
AcDbLine
 10
93.59769920577932
 20
279.4662775944532
 30
0.0
 11
93.01433611130042
 21
278.7768484827963
 31
0.0
  0
LINE
  5
3CA
330
1F
100
AcDbEntity
  8
1
  6
Continuous
 62
     2
100
AcDbLine
 10
96.19631662663987
 20
280.792102809178
 30
0.0
 11
97.2569767984197
 21
280.792102809178
 31
0.0
  0
LINE
  5
3CB
330
1F
100
AcDbEntity
  8
1
  6
Continuous
 62
     2
100
AcDbLine
 10
97.2569767984197
 20
280.792102809178
 30
0.0
 11
98.15853794443254
 21
281.057267852123
 31
0.0
  0
LINE
  5
3CC
330
1F
100
AcDbEntity
  8
1
  6
Continuous
 62
     2
100
AcDbLine
 10
98.05247192725456
 20
281.8527629809578
 30
0.0
 11
97.2569767984197
 21
281.6936639551909
 31
0.0
  0
LINE
  5
3CD
330
1F
100
AcDbEntity
  8
1
  6
Continuous
 62
     2
100
AcDbLine
 10
97.2569767984197
 20
281.6936639551909
 30
0.0
 11
96.51451467817382
 21
281.6936639551909
 31
0.0
  0
LINE
  5
3CE
330
1F
100
AcDbEntity
  8
1
  6
Continuous
 62
     2
100
AcDbLine
 10
97.36304281559768
 20
282.4891590840257
 30
0.0
 11
97.36304281559768
 21
281.4284989122459
 31
0.0
  0
LINE
  5
3CF
330
1F
100
AcDbEntity
  8
1
  6
Continuous
 62
     2
100
AcDbLine
 10
97.36304281559768
 20
281.4284989122459
 30
0.0
 11
97.46910883277566
 21
279.5723436116312
 31
0.0
  0
LINE
  5
3D0
330
1F
100
AcDbEntity
  8
1
  6
Continuous
 62
     2
100
AcDbLine
 10
97.46910883277566
 20
279.5723436116312
 30
0.0
 11
97.2569767984197
 21
279.0420135257413
 31
0.0
  0
LINE
  5
3D1
330
1F
100
AcDbEntity
  8
1
  6
Continuous
 62
     2
100
AcDbLine
 10
97.2569767984197
 20
279.0420135257413
 30
0.0
 11
96.77967972111877
 21
278.7768484827963
 31
0.0
  0
LINE
  5
3D2
330
1F
100
AcDbEntity
  8
1
  6
Continuous
 62
     2
100
AcDbLine
 10
96.77967972111877
 20
278.7768484827963
 30
0.0
 11
96.30238264381785
 21
278.9359475085633
 31
0.0
  0
LINE
  5
3D3
330
1F
100
AcDbEntity
  8
1
  6
Continuous
 62
     2
100
AcDbLine
 10
96.30238264381785
 20
278.9359475085633
 30
0.0
 11
96.19631662663987
 21
279.2011125515082
 31
0.0
  0
LINE
  5
3D4
330
1F
100
AcDbEntity
  8
1
  6
Continuous
 62
     2
100
AcDbLine
 10
96.19631662663987
 20
279.2011125515082
 30
0.0
 11
96.40844866099583
 21
279.4662775944532
 31
0.0
  0
LINE
  5
3D5
330
1F
100
AcDbEntity
  8
1
  6
Continuous
 62
     2
100
AcDbLine
 10
96.40844866099583
 20
279.4662775944532
 30
0.0
 11
96.99181175547474
 21
279.5723436116312
 31
0.0
  0
LINE
  5
3D6
330
1F
100
AcDbEntity
  8
1
  6
Continuous
 62
     2
100
AcDbLine
 10
96.99181175547474
 20
279.5723436116312
 30
0.0
 11
97.57517484995364
 21
279.3071785686863
 31
0.0
  0
LINE
  5
3D7
330
1F
100
AcDbEntity
  8
1
  6
Continuous
 62
     2
100
AcDbLine
 10
97.57517484995364
 20
279.3071785686863
 30
0.0
 11
98.05247192725456
 21
278.9359475085633
 31
0.0
  0
LINE
  5
3D8
330
1F
100
AcDbEntity
  8
1
  6
Continuous
 62
     2
100
AcDbLine
 10
99.80256121069127
 20
280.633003783411
 30
0.0
 11
101.234452442594
 21
281.057267852123
 31
0.0
  0
LINE
  5
3D9
330
1F
100
AcDbEntity
  8
1
  6
Continuous
 62
     2
100
AcDbLine
 10
101.234452442594
 20
281.057267852123
 30
0.0
 11
102.4011786315518
 21
281.1633338693009
 31
0.0
  0
LINE
  5
3DA
330
1F
100
AcDbEntity
  8
1
  6
Continuous
 62
     2
100
AcDbLine
 10
102.4011786315518
 20
281.1633338693009
 30
0.0
 11
103.1436407517977
 21
281.1633338693009
 31
0.0
  0
LINE
  5
3DB
330
1F
100
AcDbEntity
  8
1
  6
Continuous
 62
     2
100
AcDbLine
 10
101.9238815542509
 20
279.9966076803431
 30
0.0
 11
102.0829805800179
 21
280.898168826356
 31
0.0
  0
LINE
  5
3DC
330
1F
100
AcDbEntity
  8
1
  6
Continuous
 62
     2
100
AcDbLine
 10
102.0829805800179
 20
280.898168826356
 30
0.0
 11
102.0829805800179
 21
282.2239940410807
 31
0.0
  0
LINE
  5
3DD
330
1F
100
AcDbEntity
  8
1
  6
Continuous
 62
     2
100
AcDbLine
 10
100.7571553652931
 20
281.8527629809578
 30
0.0
 11
100.7571553652931
 21
280.2617727232881
 31
0.0
  0
LINE
  5
3DE
330
1F
100
AcDbEntity
  8
1
  6
Continuous
 62
     2
100
AcDbLine
 10
100.7571553652931
 20
280.2617727232881
 30
0.0
 11
101.0223204082381
 21
279.2011125515082
 31
0.0
  0
LINE
  5
3DF
330
1F
100
AcDbEntity
  8
1
  6
Continuous
 62
     2
100
AcDbLine
 10
101.0223204082381
 20
279.2011125515082
 30
0.0
 11
101.605683502717
 21
279.0420135257413
 31
0.0
  0
LINE
  5
3E0
330
1F
100
AcDbEntity
  8
1
  6
Continuous
 62
     2
100
AcDbLine
 10
101.605683502717
 20
279.0420135257413
 30
0.0
 11
102.5602776573188
 21
279.0420135257413
 31
0.0
  0
LINE
  5
3E1
330
1F
100
AcDbEntity
  8
1
  6
Continuous
 62
     2
100
AcDbLine
 10
104.2043009235775
 20
278.9359475085633
 30
0.0
 11
104.6815980008785
 21
280.1026736975211
 31
0.0
  0
LINE
  5
3E2
330
1F
100
AcDbEntity
  8
1
  6
Continuous
 62
     2
100
AcDbLine
 10
104.6815980008785
 20
280.1026736975211
 30
0.0
 11
105.3710271125353
 21
281.4284989122459
 31
0.0
  0
LINE
  5
3E3
330
1F
100
AcDbEntity
  8
1
  6
Continuous
 62
     2
100
AcDbLine
 10
105.3710271125353
 20
281.4284989122459
 30
0.0
 11
105.8483241898363
 21
282.2239940410807
 31
0.0
  0
LINE
  5
3E4
330
1F
100
AcDbEntity
  8
1
  6
Continuous
 62
     2
100
AcDbLine
 10
104.5224989751115
 20
279.8375086545761
 30
0.0
 11
104.8937300352344
 21
280.367838740466
 31
0.0
  0
LINE
  5
3E5
330
1F
100
AcDbEntity
  8
1
  6
Continuous
 62
     2
100
AcDbLine
 10
104.8937300352344
 20
280.367838740466
 30
0.0
 11
105.3710271125353
 21
280.792102809178
 31
0.0
  0
LINE
  5
3E6
330
1F
100
AcDbEntity
  8
1
  6
Continuous
 62
     2
100
AcDbLine
 10
105.3710271125353
 20
280.792102809178
 30
0.0
 11
105.8483241898363
 21
280.792102809178
 31
0.0
  0
LINE
  5
3E7
330
1F
100
AcDbEntity
  8
1
  6
Continuous
 62
     2
100
AcDbLine
 10
105.8483241898363
 20
280.792102809178
 30
0.0
 11
106.0604562241922
 21
280.2617727232881
 31
0.0
  0
LINE
  5
3E8
330
1F
100
AcDbEntity
  8
1
  6
Continuous
 62
     2
100
AcDbLine
 10
106.0604562241922
 20
280.2617727232881
 30
0.0
 11
106.0604562241922
 21
279.3071785686863
 31
0.0
  0
LINE
  5
3E9
330
1F
100
AcDbEntity
  8
1
  6
Continuous
 62
     2
100
AcDbLine
 10
106.0604562241922
 20
279.3071785686863
 30
0.0
 11
106.1665222413702
 21
278.9359475085633
 31
0.0
  0
LINE
  5
3EA
330
1F
100
AcDbEntity
  8
1
  6
Continuous
 62
     2
100
AcDbLine
 10
106.1665222413702
 20
278.9359475085633
 30
0.0
 11
106.6438193186711
 21
278.9359475085633
 31
0.0
  0
LINE
  5
3EB
330
1F
100
AcDbEntity
  8
1
  6
Continuous
 62
     2
100
AcDbLine
 10
106.6438193186711
 20
278.9359475085633
 30
0.0
 11
107.121116395972
 21
279.5723436116312
 31
0.0
  0
LINE
  5
3EC
330
1F
100
AcDbEntity
  8
1
  6
Continuous
 62
     7
100
AcDbLine
 10
163.3532051079087
 20
158.3348114144992
 30
0.0
 11
163.1606952867307
 21
157.7514483200203
 31
0.0
  0
LINE
  5
3ED
330
1F
100
AcDbEntity
  8
1
  6
Continuous
 62
     7
100
AcDbLine
 10
163.1606952867307
 20
157.7514483200203
 30
0.0
 11
162.90401552516
 21
158.2181387956034
 31
0.0
  0
LINE
  5
3EE
330
1F
100
AcDbEntity
  8
1
  6
Continuous
 62
     7
100
AcDbLine
 10
162.90401552516
 20
158.2181387956034
 30
0.0
 11
162.5189958828039
 21
158.6848292711865
 31
0.0
  0
LINE
  5
3EF
330
1F
100
AcDbEntity
  8
1
  6
Continuous
 62
     7
100
AcDbLine
 10
162.5189958828039
 20
158.6848292711865
 30
0.0
 11
162.0698063000552
 21
158.9181745089781
 31
0.0
  0
LINE
  5
3F0
330
1F
100
AcDbEntity
  8
1
  6
Continuous
 62
     7
100
AcDbLine
 10
162.0698063000552
 20
158.9181745089781
 30
0.0
 11
161.8131265384844
 21
158.9181745089781
 31
0.0
  0
LINE
  5
3F1
330
1F
100
AcDbEntity
  8
1
  6
Continuous
 62
     7
100
AcDbLine
 10
161.8131265384844
 20
158.9181745089781
 30
0.0
 11
161.4281068961284
 21
158.6848292711865
 31
0.0
  0
LINE
  5
3F2
330
1F
100
AcDbEntity
  8
1
  6
Continuous
 62
     7
100
AcDbLine
 10
161.4281068961284
 20
158.6848292711865
 30
0.0
 11
161.2355970749503
 21
158.2181387956034
 31
0.0
  0
LINE
  5
3F3
330
1F
100
AcDbEntity
  8
1
  6
Continuous
 62
     7
100
AcDbLine
 10
161.2355970749503
 20
158.2181387956034
 30
0.0
 11
161.2355970749503
 21
158.8015018900823
 31
0.0
  0
LINE
  5
3F4
330
1F
100
AcDbEntity
  8
1
  6
Continuous
 62
     7
100
AcDbLine
 10
161.2355970749503
 20
158.8015018900823
 30
0.0
 11
160.5297277306308
 21
158.8015018900823
 31
0.0
  0
LINE
  5
3F5
330
1F
100
AcDbEntity
  8
1
  6
Continuous
 62
     7
100
AcDbLine
 10
160.5297277306308
 20
158.8015018900823
 30
0.0
 11
160.5297277306308
 21
151.9178173752313
 31
0.0
  0
LINE
  5
3F6
330
1F
100
AcDbEntity
  8
1
  6
Continuous
 62
     7
100
AcDbLine
 10
160.5297277306308
 20
151.9178173752313
 30
0.0
 11
161.2355970749503
 21
151.9178173752313
 31
0.0
  0
LINE
  5
3F7
330
1F
100
AcDbEntity
  8
1
  6
Continuous
 62
     7
100
AcDbLine
 10
161.2355970749503
 20
151.9178173752313
 30
0.0
 11
161.2355970749503
 21
156.7013947499583
 31
0.0
  0
LINE
  5
3F8
330
1F
100
AcDbEntity
  8
1
  6
Continuous
 62
     7
100
AcDbLine
 10
161.2355970749503
 20
156.7013947499583
 30
0.0
 11
161.3639369557357
 21
157.2847578444372
 31
0.0
  0
LINE
  5
3F9
330
1F
100
AcDbEntity
  8
1
  6
Continuous
 62
     7
100
AcDbLine
 10
161.3639369557357
 20
157.2847578444372
 30
0.0
 11
161.6206167173064
 21
157.6347757011245
 31
0.0
  0
LINE
  5
3FA
330
1F
100
AcDbEntity
  8
1
  6
Continuous
 62
     7
100
AcDbLine
 10
161.6206167173064
 20
157.6347757011245
 30
0.0
 11
161.8772964788771
 21
157.7514483200203
 31
0.0
  0
LINE
  5
3FB
330
1F
100
AcDbEntity
  8
1
  6
Continuous
 62
     7
100
AcDbLine
 10
161.8772964788771
 20
157.7514483200203
 30
0.0
 11
162.1981461808405
 21
157.6347757011245
 31
0.0
  0
LINE
  5
3FC
330
1F
100
AcDbEntity
  8
1
  6
Continuous
 62
     7
100
AcDbLine
 10
162.1981461808405
 20
157.6347757011245
 30
0.0
 11
162.3906560020186
 21
157.2847578444372
 31
0.0
  0
LINE
  5
3FD
330
1F
100
AcDbEntity
  8
1
  6
Continuous
 62
     7
100
AcDbLine
 10
162.3906560020186
 20
157.2847578444372
 30
0.0
 11
162.5831658231966
 21
156.7013947499583
 31
0.0
  0
LINE
  5
3FE
330
1F
100
AcDbEntity
  8
1
  6
Continuous
 62
     7
100
AcDbLine
 10
162.5831658231966
 20
156.7013947499583
 30
0.0
 11
162.6473357635892
 21
156.2347042743752
 31
0.0
  0
LINE
  5
3FF
330
1F
100
AcDbEntity
  8
1
  6
Continuous
 62
     7
100
AcDbLine
 10
162.6473357635892
 20
156.2347042743752
 30
0.0
 11
162.6473357635892
 21
151.9178173752313
 31
0.0
  0
LINE
  5
400
330
1F
100
AcDbEntity
  8
1
  6
Continuous
 62
     7
100
AcDbLine
 10
162.6473357635892
 20
151.9178173752313
 30
0.0
 11
163.3532051079087
 21
151.9178173752313
 31
0.0
  0
LINE
  5
401
330
1F
100
AcDbEntity
  8
1
  6
Continuous
 62
     7
100
AcDbLine
 10
163.3532051079087
 20
151.9178173752313
 30
0.0
 11
163.3532051079087
 21
156.7013947499583
 31
0.0
  0
LINE
  5
402
330
1F
100
AcDbEntity
  8
1
  6
Continuous
 62
     7
100
AcDbLine
 10
163.3532051079087
 20
156.7013947499583
 30
0.0
 11
163.4815449886941
 21
157.2847578444372
 31
0.0
  0
LINE
  5
403
330
1F
100
AcDbEntity
  8
1
  6
Continuous
 62
     7
100
AcDbLine
 10
163.4815449886941
 20
157.2847578444372
 30
0.0
 11
163.7382247502648
 21
157.6347757011245
 31
0.0
  0
LINE
  5
404
330
1F
100
AcDbEntity
  8
1
  6
Continuous
 62
     7
100
AcDbLine
 10
163.7382247502648
 20
157.6347757011245
 30
0.0
 11
163.9949045118355
 21
157.7514483200203
 31
0.0
  0
LINE
  5
405
330
1F
100
AcDbEntity
  8
1
  6
Continuous
 62
     7
100
AcDbLine
 10
163.9949045118355
 20
157.7514483200203
 30
0.0
 11
164.3157542137989
 21
157.6347757011245
 31
0.0
  0
LINE
  5
406
330
1F
100
AcDbEntity
  8
1
  6
Continuous
 62
     7
100
AcDbLine
 10
164.3157542137989
 20
157.6347757011245
 30
0.0
 11
164.508264034977
 21
157.2847578444372
 31
0.0
  0
LINE
  5
407
330
1F
100
AcDbEntity
  8
1
  6
Continuous
 62
     7
100
AcDbLine
 10
164.508264034977
 20
157.2847578444372
 30
0.0
 11
164.700773856155
 21
156.7013947499583
 31
0.0
  0
LINE
  5
408
330
1F
100
AcDbEntity
  8
1
  6
Continuous
 62
     7
100
AcDbLine
 10
164.700773856155
 20
156.7013947499583
 30
0.0
 11
164.7649437965477
 21
156.2347042743752
 31
0.0
  0
LINE
  5
409
330
1F
100
AcDbEntity
  8
1
  6
Continuous
 62
     7
100
AcDbLine
 10
164.7649437965477
 20
156.2347042743752
 30
0.0
 11
164.7649437965477
 21
151.9178173752313
 31
0.0
  0
LINE
  5
40A
330
1F
100
AcDbEntity
  8
1
  6
Continuous
 62
     7
100
AcDbLine
 10
164.7649437965477
 20
151.9178173752313
 30
0.0
 11
165.4708131408671
 21
151.9178173752313
 31
0.0
  0
LINE
  5
40B
330
1F
100
AcDbEntity
  8
1
  6
Continuous
 62
     7
100
AcDbLine
 10
165.4708131408671
 20
151.9178173752313
 30
0.0
 11
165.4708131408671
 21
156.1180316554794
 31
0.0
  0
LINE
  5
40C
330
1F
100
AcDbEntity
  8
1
  6
Continuous
 62
     7
100
AcDbLine
 10
165.4708131408671
 20
156.1180316554794
 30
0.0
 11
165.4066432004745
 21
157.0514126066456
 31
0.0
  0
LINE
  5
40D
330
1F
100
AcDbEntity
  8
1
  6
Continuous
 62
     7
100
AcDbLine
 10
165.4066432004745
 20
157.0514126066456
 30
0.0
 11
165.2141333792964
 21
157.7514483200203
 31
0.0
  0
LINE
  5
40E
330
1F
100
AcDbEntity
  8
1
  6
Continuous
 62
     7
100
AcDbLine
 10
165.2141333792964
 20
157.7514483200203
 30
0.0
 11
165.0216235581184
 21
158.2181387956034
 31
0.0
  0
LINE
  5
40F
330
1F
100
AcDbEntity
  8
1
  6
Continuous
 62
     7
100
AcDbLine
 10
165.0216235581184
 20
158.2181387956034
 30
0.0
 11
164.6366039157623
 21
158.6848292711865
 31
0.0
  0
LINE
  5
410
330
1F
100
AcDbEntity
  8
1
  6
Continuous
 62
     7
100
AcDbLine
 10
164.6366039157623
 20
158.6848292711865
 30
0.0
 11
164.1874143330136
 21
158.9181745089781
 31
0.0
  0
LINE
  5
411
330
1F
100
AcDbEntity
  8
1
  6
Continuous
 62
     7
100
AcDbLine
 10
164.1874143330136
 20
158.9181745089781
 30
0.0
 11
163.9307345714428
 21
158.9181745089781
 31
0.0
  0
LINE
  5
412
330
1F
100
AcDbEntity
  8
1
  6
Continuous
 62
     7
100
AcDbLine
 10
163.9307345714428
 20
158.9181745089781
 30
0.0
 11
163.6098848694794
 21
158.6848292711865
 31
0.0
  0
LINE
  5
413
330
1F
100
AcDbEntity
  8
1
  6
Continuous
 62
     7
100
AcDbLine
 10
163.6098848694794
 20
158.6848292711865
 30
0.0
 11
163.3532051079087
 21
158.3348114144992
 31
0.0
  0
LINE
  5
414
330
1F
100
AcDbEntity
  8
1
  6
Continuous
 62
     7
100
AcDbLine
 10
170.3167088429152
 20
158.3348114144992
 30
0.0
 11
170.1241990217371
 21
157.7514483200203
 31
0.0
  0
LINE
  5
415
330
1F
100
AcDbEntity
  8
1
  6
Continuous
 62
     7
100
AcDbLine
 10
170.1241990217371
 20
157.7514483200203
 30
0.0
 11
169.8675192601664
 21
158.2181387956034
 31
0.0
  0
LINE
  5
416
330
1F
100
AcDbEntity
  8
1
  6
Continuous
 62
     7
100
AcDbLine
 10
169.8675192601664
 20
158.2181387956034
 30
0.0
 11
169.4824996178103
 21
158.6848292711865
 31
0.0
  0
LINE
  5
417
330
1F
100
AcDbEntity
  8
1
  6
Continuous
 62
     7
100
AcDbLine
 10
169.4824996178103
 20
158.6848292711865
 30
0.0
 11
169.0333100350616
 21
158.9181745089781
 31
0.0
  0
LINE
  5
418
330
1F
100
AcDbEntity
  8
1
  6
Continuous
 62
     7
100
AcDbLine
 10
169.0333100350616
 20
158.9181745089781
 30
0.0
 11
168.7766302734908
 21
158.9181745089781
 31
0.0
  0
LINE
  5
419
330
1F
100
AcDbEntity
  8
1
  6
Continuous
 62
     7
100
AcDbLine
 10
168.7766302734908
 20
158.9181745089781
 30
0.0
 11
168.3916106311348
 21
158.6848292711865
 31
0.0
  0
LINE
  5
41A
330
1F
100
AcDbEntity
  8
1
  6
Continuous
 62
     7
100
AcDbLine
 10
168.3916106311348
 20
158.6848292711865
 30
0.0
 11
168.1991008099567
 21
158.2181387956034
 31
0.0
  0
LINE
  5
41B
330
1F
100
AcDbEntity
  8
1
  6
Continuous
 62
     7
100
AcDbLine
 10
168.1991008099567
 20
158.2181387956034
 30
0.0
 11
168.1991008099567
 21
158.8015018900823
 31
0.0
  0
LINE
  5
41C
330
1F
100
AcDbEntity
  8
1
  6
Continuous
 62
     7
100
AcDbLine
 10
168.1991008099567
 20
158.8015018900823
 30
0.0
 11
167.4932314656373
 21
158.8015018900823
 31
0.0
  0
LINE
  5
41D
330
1F
100
AcDbEntity
  8
1
  6
Continuous
 62
     7
100
AcDbLine
 10
167.4932314656373
 20
158.8015018900823
 30
0.0
 11
167.4932314656373
 21
151.9178173752313
 31
0.0
  0
LINE
  5
41E
330
1F
100
AcDbEntity
  8
1
  6
Continuous
 62
     7
100
AcDbLine
 10
167.4932314656373
 20
151.9178173752313
 30
0.0
 11
168.1991008099567
 21
151.9178173752313
 31
0.0
  0
LINE
  5
41F
330
1F
100
AcDbEntity
  8
1
  6
Continuous
 62
     7
100
AcDbLine
 10
168.1991008099567
 20
151.9178173752313
 30
0.0
 11
168.1991008099567
 21
156.7013947499583
 31
0.0
  0
LINE
  5
420
330
1F
100
AcDbEntity
  8
1
  6
Continuous
 62
     7
100
AcDbLine
 10
168.1991008099567
 20
156.7013947499583
 30
0.0
 11
168.3274406907421
 21
157.2847578444372
 31
0.0
  0
LINE
  5
421
330
1F
100
AcDbEntity
  8
1
  6
Continuous
 62
     7
100
AcDbLine
 10
168.3274406907421
 20
157.2847578444372
 30
0.0
 11
168.5841204523128
 21
157.6347757011245
 31
0.0
  0
LINE
  5
422
330
1F
100
AcDbEntity
  8
1
  6
Continuous
 62
     7
100
AcDbLine
 10
168.5841204523128
 20
157.6347757011245
 30
0.0
 11
168.8408002138835
 21
157.7514483200203
 31
0.0
  0
LINE
  5
423
330
1F
100
AcDbEntity
  8
1
  6
Continuous
 62
     7
100
AcDbLine
 10
168.8408002138835
 20
157.7514483200203
 30
0.0
 11
169.1616499158469
 21
157.6347757011245
 31
0.0
  0
LINE
  5
424
330
1F
100
AcDbEntity
  8
1
  6
Continuous
 62
     7
100
AcDbLine
 10
169.1616499158469
 20
157.6347757011245
 30
0.0
 11
169.354159737025
 21
157.2847578444372
 31
0.0
  0
LINE
  5
425
330
1F
100
AcDbEntity
  8
1
  6
Continuous
 62
     7
100
AcDbLine
 10
169.354159737025
 20
157.2847578444372
 30
0.0
 11
169.546669558203
 21
156.7013947499583
 31
0.0
  0
LINE
  5
426
330
1F
100
AcDbEntity
  8
1
  6
Continuous
 62
     7
100
AcDbLine
 10
169.546669558203
 20
156.7013947499583
 30
0.0
 11
169.6108394985957
 21
156.2347042743752
 31
0.0
  0
LINE
  5
427
330
1F
100
AcDbEntity
  8
1
  6
Continuous
 62
     7
100
AcDbLine
 10
169.6108394985957
 20
156.2347042743752
 30
0.0
 11
169.6108394985957
 21
151.9178173752313
 31
0.0
  0
LINE
  5
428
330
1F
100
AcDbEntity
  8
1
  6
Continuous
 62
     7
100
AcDbLine
 10
169.6108394985957
 20
151.9178173752313
 30
0.0
 11
170.3167088429152
 21
151.9178173752313
 31
0.0
  0
LINE
  5
429
330
1F
100
AcDbEntity
  8
1
  6
Continuous
 62
     7
100
AcDbLine
 10
170.3167088429152
 20
151.9178173752313
 30
0.0
 11
170.3167088429152
 21
156.7013947499583
 31
0.0
  0
LINE
  5
42A
330
1F
100
AcDbEntity
  8
1
  6
Continuous
 62
     7
100
AcDbLine
 10
170.3167088429152
 20
156.7013947499583
 30
0.0
 11
170.4450487237005
 21
157.2847578444372
 31
0.0
  0
LINE
  5
42B
330
1F
100
AcDbEntity
  8
1
  6
Continuous
 62
     7
100
AcDbLine
 10
170.4450487237005
 20
157.2847578444372
 30
0.0
 11
170.7017284852712
 21
157.6347757011245
 31
0.0
  0
LINE
  5
42C
330
1F
100
AcDbEntity
  8
1
  6
Continuous
 62
     7
100
AcDbLine
 10
170.7017284852712
 20
157.6347757011245
 30
0.0
 11
170.9584082468419
 21
157.7514483200203
 31
0.0
  0
LINE
  5
42D
330
1F
100
AcDbEntity
  8
1
  6
Continuous
 62
     7
100
AcDbLine
 10
170.9584082468419
 20
157.7514483200203
 30
0.0
 11
171.2792579488053
 21
157.6347757011245
 31
0.0
  0
LINE
  5
42E
330
1F
100
AcDbEntity
  8
1
  6
Continuous
 62
     7
100
AcDbLine
 10
171.2792579488053
 20
157.6347757011245
 30
0.0
 11
171.4717677699834
 21
157.2847578444372
 31
0.0
  0
LINE
  5
42F
330
1F
100
AcDbEntity
  8
1
  6
Continuous
 62
     7
100
AcDbLine
 10
171.4717677699834
 20
157.2847578444372
 30
0.0
 11
171.6642775911614
 21
156.7013947499583
 31
0.0
  0
LINE
  5
430
330
1F
100
AcDbEntity
  8
1
  6
Continuous
 62
     7
100
AcDbLine
 10
171.6642775911614
 20
156.7013947499583
 30
0.0
 11
171.7284475315541
 21
156.2347042743752
 31
0.0
  0
LINE
  5
431
330
1F
100
AcDbEntity
  8
1
  6
Continuous
 62
     7
100
AcDbLine
 10
171.7284475315541
 20
156.2347042743752
 30
0.0
 11
171.7284475315541
 21
151.9178173752313
 31
0.0
  0
LINE
  5
432
330
1F
100
AcDbEntity
  8
1
  6
Continuous
 62
     7
100
AcDbLine
 10
171.7284475315541
 20
151.9178173752313
 30
0.0
 11
172.4343168758736
 21
151.9178173752313
 31
0.0
  0
LINE
  5
433
330
1F
100
AcDbEntity
  8
1
  6
Continuous
 62
     7
100
AcDbLine
 10
172.4343168758736
 20
151.9178173752313
 30
0.0
 11
172.4343168758736
 21
156.1180316554794
 31
0.0
  0
LINE
  5
434
330
1F
100
AcDbEntity
  8
1
  6
Continuous
 62
     7
100
AcDbLine
 10
172.4343168758736
 20
156.1180316554794
 30
0.0
 11
172.3701469354809
 21
157.0514126066456
 31
0.0
  0
LINE
  5
435
330
1F
100
AcDbEntity
  8
1
  6
Continuous
 62
     7
100
AcDbLine
 10
172.3701469354809
 20
157.0514126066456
 30
0.0
 11
172.1776371143028
 21
157.7514483200203
 31
0.0
  0
LINE
  5
436
330
1F
100
AcDbEntity
  8
1
  6
Continuous
 62
     7
100
AcDbLine
 10
172.1776371143028
 20
157.7514483200203
 30
0.0
 11
171.9851272931248
 21
158.2181387956034
 31
0.0
  0
LINE
  5
437
330
1F
100
AcDbEntity
  8
1
  6
Continuous
 62
     7
100
AcDbLine
 10
171.9851272931248
 20
158.2181387956034
 30
0.0
 11
171.6001076507687
 21
158.6848292711865
 31
0.0
  0
LINE
  5
438
330
1F
100
AcDbEntity
  8
1
  6
Continuous
 62
     7
100
AcDbLine
 10
171.6001076507687
 20
158.6848292711865
 30
0.0
 11
171.15091806802
 21
158.9181745089781
 31
0.0
  0
LINE
  5
439
330
1F
100
AcDbEntity
  8
1
  6
Continuous
 62
     7
100
AcDbLine
 10
171.15091806802
 20
158.9181745089781
 30
0.0
 11
170.8942383064492
 21
158.9181745089781
 31
0.0
  0
LINE
  5
43A
330
1F
100
AcDbEntity
  8
1
  6
Continuous
 62
     7
100
AcDbLine
 10
170.8942383064492
 20
158.9181745089781
 30
0.0
 11
170.5733886044858
 21
158.6848292711865
 31
0.0
  0
LINE
  5
43B
330
1F
100
AcDbEntity
  8
1
  6
Continuous
 62
     7
100
AcDbLine
 10
170.5733886044858
 20
158.6848292711865
 30
0.0
 11
170.3167088429152
 21
158.3348114144992
 31
0.0
  0
LINE
  5
43C
330
1F
100
AcDbEntity
  8
1
  6
Continuous
 62
     7
100
AcDbLine
 10
138.5429457172734
 20
145.0016334947403
 30
0.0
 11
138.5429457172734
 21
146.0463837639434
 31
0.0
  0
LINE
  5
43D
330
1F
100
AcDbEntity
  8
1
  6
Continuous
 62
     7
100
AcDbLine
 10
138.5429457172734
 20
146.0463837639434
 30
0.0
 11
138.8807483043157
 21
147.2652590780137
 31
0.0
  0
LINE
  5
43E
330
1F
100
AcDbEntity
  8
1
  6
Continuous
 62
     7
100
AcDbLine
 10
138.8807483043157
 20
147.2652590780137
 30
0.0
 11
139.5563534784004
 21
148.4841343920841
 31
0.0
  0
LINE
  5
43F
330
1F
100
AcDbEntity
  8
1
  6
Continuous
 62
     7
100
AcDbLine
 10
139.5563534784004
 20
148.4841343920841
 30
0.0
 11
140.4008599460063
 21
149.5288846612872
 31
0.0
  0
LINE
  5
440
330
1F
100
AcDbEntity
  8
1
  6
Continuous
 62
     7
100
AcDbLine
 10
140.4008599460063
 20
149.5288846612872
 30
0.0
 11
141.4142677071333
 21
150.7477599753575
 31
0.0
  0
LINE
  5
441
330
1F
100
AcDbEntity
  8
1
  6
Continuous
 62
     7
100
AcDbLine
 10
141.4142677071333
 20
150.7477599753575
 30
0.0
 11
142.4276754682603
 21
151.6183851996934
 31
0.0
  0
LINE
  5
442
330
1F
100
AcDbEntity
  8
1
  6
Continuous
 62
     7
100
AcDbLine
 10
142.4276754682603
 20
151.6183851996934
 30
0.0
 11
144.6233922840356
 21
153.8820107829669
 31
0.0
  0
LINE
  5
443
330
1F
100
AcDbEntity
  8
1
  6
Continuous
 62
     7
100
AcDbLine
 10
144.6233922840356
 20
153.8820107829669
 30
0.0
 11
144.9611948710779
 21
154.4043859175684
 31
0.0
  0
LINE
  5
444
330
1F
100
AcDbEntity
  8
1
  6
Continuous
 62
     7
100
AcDbLine
 10
144.9611948710779
 20
154.4043859175684
 30
0.0
 11
145.1300961645991
 21
154.92676105217
 31
0.0
  0
LINE
  5
445
330
1F
100
AcDbEntity
  8
1
  6
Continuous
 62
     7
100
AcDbLine
 10
145.1300961645991
 20
154.92676105217
 30
0.0
 11
145.1300961645991
 21
155.6232612316387
 31
0.0
  0
LINE
  5
446
330
1F
100
AcDbEntity
  8
1
  6
Continuous
 62
     7
100
AcDbLine
 10
145.1300961645991
 20
155.6232612316387
 30
0.0
 11
144.9611948710779
 21
156.1456363662403
 31
0.0
  0
LINE
  5
447
330
1F
100
AcDbEntity
  8
1
  6
Continuous
 62
     7
100
AcDbLine
 10
144.9611948710779
 20
156.1456363662403
 30
0.0
 11
144.6233922840356
 21
156.6680115008419
 31
0.0
  0
LINE
  5
448
330
1F
100
AcDbEntity
  8
1
  6
Continuous
 62
     7
100
AcDbLine
 10
144.6233922840356
 20
156.6680115008419
 30
0.0
 11
144.116688403472
 21
157.0162615905762
 31
0.0
  0
LINE
  5
449
330
1F
100
AcDbEntity
  8
1
  6
Continuous
 62
     7
100
AcDbLine
 10
144.116688403472
 20
157.0162615905762
 30
0.0
 11
143.4410832293874
 21
157.1903866354434
 31
0.0
  0
LINE
  5
44A
330
1F
100
AcDbEntity
  8
1
  6
Continuous
 62
     7
100
AcDbLine
 10
143.4410832293874
 20
157.1903866354434
 30
0.0
 11
142.7654780553027
 21
157.1903866354434
 31
0.0
  0
LINE
  5
44B
330
1F
100
AcDbEntity
  8
1
  6
Continuous
 62
     7
100
AcDbLine
 10
142.7654780553027
 20
157.1903866354434
 30
0.0
 11
142.089872881218
 21
157.0162615905762
 31
0.0
  0
LINE
  5
44C
330
1F
100
AcDbEntity
  8
1
  6
Continuous
 62
     7
100
AcDbLine
 10
142.089872881218
 20
157.0162615905762
 30
0.0
 11
141.5831690006545
 21
156.6680115008419
 31
0.0
  0
LINE
  5
44D
330
1F
100
AcDbEntity
  8
1
  6
Continuous
 62
     7
100
AcDbLine
 10
141.5831690006545
 20
156.6680115008419
 30
0.0
 11
141.2453664136121
 21
156.1456363662403
 31
0.0
  0
LINE
  5
44E
330
1F
100
AcDbEntity
  8
1
  6
Continuous
 62
     7
100
AcDbLine
 10
141.2453664136121
 20
156.1456363662403
 30
0.0
 11
141.0764651200909
 21
155.6232612316387
 31
0.0
  0
LINE
  5
44F
330
1F
100
AcDbEntity
  8
1
  6
Continuous
 62
     7
100
AcDbLine
 10
141.0764651200909
 20
155.6232612316387
 30
0.0
 11
141.0764651200909
 21
154.92676105217
 31
0.0
  0
LINE
  5
450
330
1F
100
AcDbEntity
  8
1
  6
Continuous
 62
     7
100
AcDbLine
 10
141.0764651200909
 20
154.92676105217
 30
0.0
 11
139.2185508913581
 21
154.92676105217
 31
0.0
  0
LINE
  5
451
330
1F
100
AcDbEntity
  8
1
  6
Continuous
 62
     7
100
AcDbLine
 10
139.2185508913581
 20
154.92676105217
 30
0.0
 11
139.2185508913581
 21
155.6232612316387
 31
0.0
  0
LINE
  5
452
330
1F
100
AcDbEntity
  8
1
  6
Continuous
 62
     7
100
AcDbLine
 10
139.2185508913581
 20
155.6232612316387
 30
0.0
 11
139.3874521848792
 21
156.4938864559747
 31
0.0
  0
LINE
  5
453
330
1F
100
AcDbEntity
  8
1
  6
Continuous
 62
     7
100
AcDbLine
 10
139.3874521848792
 20
156.4938864559747
 30
0.0
 11
140.0630573589639
 21
157.5386367251778
 31
0.0
  0
LINE
  5
454
330
1F
100
AcDbEntity
  8
1
  6
Continuous
 62
     7
100
AcDbLine
 10
140.0630573589639
 20
157.5386367251778
 30
0.0
 11
140.7386625330486
 21
158.2351369046465
 31
0.0
  0
LINE
  5
455
330
1F
100
AcDbEntity
  8
1
  6
Continuous
 62
     7
100
AcDbLine
 10
140.7386625330486
 20
158.2351369046465
 30
0.0
 11
141.7520702941756
 21
158.7575120392481
 31
0.0
  0
LINE
  5
456
330
1F
100
AcDbEntity
  8
1
  6
Continuous
 62
     7
100
AcDbLine
 10
141.7520702941756
 20
158.7575120392481
 30
0.0
 11
142.5965767617815
 21
158.9316370841153
 31
0.0
  0
LINE
  5
457
330
1F
100
AcDbEntity
  8
1
  6
Continuous
 62
     7
100
AcDbLine
 10
142.5965767617815
 20
158.9316370841153
 30
0.0
 11
143.6099845229085
 21
158.9316370841153
 31
0.0
  0
LINE
  5
458
330
1F
100
AcDbEntity
  8
1
  6
Continuous
 62
     7
100
AcDbLine
 10
143.6099845229085
 20
158.9316370841153
 30
0.0
 11
144.4544909905144
 21
158.7575120392481
 31
0.0
  0
LINE
  5
459
330
1F
100
AcDbEntity
  8
1
  6
Continuous
 62
     7
100
AcDbLine
 10
144.4544909905144
 20
158.7575120392481
 30
0.0
 11
145.4678987516414
 21
158.2351369046465
 31
0.0
  0
LINE
  5
45A
330
1F
100
AcDbEntity
  8
1
  6
Continuous
 62
     7
100
AcDbLine
 10
145.4678987516414
 20
158.2351369046465
 30
0.0
 11
146.1435039257261
 21
157.5386367251778
 31
0.0
  0
LINE
  5
45B
330
1F
100
AcDbEntity
  8
1
  6
Continuous
 62
     7
100
AcDbLine
 10
146.1435039257261
 20
157.5386367251778
 30
0.0
 11
146.8191090998108
 21
156.4938864559747
 31
0.0
  0
LINE
  5
45C
330
1F
100
AcDbEntity
  8
1
  6
Continuous
 62
     7
100
AcDbLine
 10
146.8191090998108
 20
156.4938864559747
 30
0.0
 11
146.988010393332
 21
155.6232612316387
 31
0.0
  0
LINE
  5
45D
330
1F
100
AcDbEntity
  8
1
  6
Continuous
 62
     7
100
AcDbLine
 10
146.988010393332
 20
155.6232612316387
 30
0.0
 11
146.988010393332
 21
154.92676105217
 31
0.0
  0
LINE
  5
45E
330
1F
100
AcDbEntity
  8
1
  6
Continuous
 62
     7
100
AcDbLine
 10
146.988010393332
 20
154.92676105217
 30
0.0
 11
146.8191090998108
 21
154.0561358278341
 31
0.0
  0
LINE
  5
45F
330
1F
100
AcDbEntity
  8
1
  6
Continuous
 62
     7
100
AcDbLine
 10
146.8191090998108
 20
154.0561358278341
 30
0.0
 11
146.1435039257261
 21
153.0113855586309
 31
0.0
  0
LINE
  5
460
330
1F
100
AcDbEntity
  8
1
  6
Continuous
 62
     7
100
AcDbLine
 10
146.1435039257261
 20
153.0113855586309
 30
0.0
 11
145.8057013386838
 21
152.6631354688965
 31
0.0
  0
LINE
  5
461
330
1F
100
AcDbEntity
  8
1
  6
Continuous
 62
     7
100
AcDbLine
 10
145.8057013386838
 20
152.6631354688965
 30
0.0
 11
144.4544909905144
 21
151.4442601548262
 31
0.0
  0
LINE
  5
462
330
1F
100
AcDbEntity
  8
1
  6
Continuous
 62
     7
100
AcDbLine
 10
144.4544909905144
 20
151.4442601548262
 30
0.0
 11
143.2721819358662
 21
150.3995098856231
 31
0.0
  0
LINE
  5
463
330
1F
100
AcDbEntity
  8
1
  6
Continuous
 62
     7
100
AcDbLine
 10
143.2721819358662
 20
150.3995098856231
 30
0.0
 11
142.089872881218
 21
149.0065095266856
 31
0.0
  0
LINE
  5
464
330
1F
100
AcDbEntity
  8
1
  6
Continuous
 62
     7
100
AcDbLine
 10
142.089872881218
 20
149.0065095266856
 30
0.0
 11
141.2453664136121
 21
147.7876342126153
 31
0.0
  0
LINE
  5
465
330
1F
100
AcDbEntity
  8
1
  6
Continuous
 62
     7
100
AcDbLine
 10
141.2453664136121
 20
147.7876342126153
 30
0.0
 11
140.9075638265698
 21
146.7428839434122
 31
0.0
  0
LINE
  5
466
330
1F
100
AcDbEntity
  8
1
  6
Continuous
 62
     7
100
AcDbLine
 10
140.9075638265698
 20
146.7428839434122
 30
0.0
 11
147.4947142738955
 21
146.7428839434122
 31
0.0
  0
LINE
  5
467
330
1F
100
AcDbEntity
  8
1
  6
Continuous
 62
     7
100
AcDbLine
 10
147.4947142738955
 20
146.7428839434122
 30
0.0
 11
147.4947142738955
 21
145.0016334947403
 31
0.0
  0
LINE
  5
468
330
1F
100
AcDbEntity
  8
1
  6
Continuous
 62
     7
100
AcDbLine
 10
147.4947142738955
 20
145.0016334947403
 30
0.0
 11
138.5429457172734
 21
145.0016334947403
 31
0.0
  0
LINE
  5
469
330
1F
100
AcDbEntity
  8
1
  6
Continuous
 62
     7
100
AcDbLine
 10
180.9237417628586
 20
321.27413011252
 30
0.0
 11
181.3613078403256
 21
321.0706618864979
 31
0.0
  0
LINE
  5
46A
330
1F
100
AcDbEntity
  8
1
  6
Continuous
 62
     7
100
AcDbLine
 10
181.3613078403256
 20
321.0706618864979
 30
0.0
 11
181.011254978352
 21
320.7993709184684
 31
0.0
  0
LINE
  5
46B
330
1F
100
AcDbEntity
  8
1
  6
Continuous
 62
     7
100
AcDbLine
 10
181.011254978352
 20
320.7993709184684
 30
0.0
 11
180.6612021163785
 21
320.3924344664242
 31
0.0
  0
LINE
  5
46C
330
1F
100
AcDbEntity
  8
1
  6
Continuous
 62
     7
100
AcDbLine
 10
180.6612021163785
 20
320.3924344664242
 30
0.0
 11
180.4861756853917
 21
319.9176752723726
 31
0.0
  0
LINE
  5
46D
330
1F
100
AcDbEntity
  8
1
  6
Continuous
 62
     7
100
AcDbLine
 10
180.4861756853917
 20
319.9176752723726
 30
0.0
 11
180.4861756853917
 21
319.6463843043431
 31
0.0
  0
LINE
  5
46E
330
1F
100
AcDbEntity
  8
1
  6
Continuous
 62
     7
100
AcDbLine
 10
180.4861756853917
 20
319.6463843043431
 30
0.0
 11
180.6612021163785
 21
319.2394478522988
 31
0.0
  0
LINE
  5
46F
330
1F
100
AcDbEntity
  8
1
  6
Continuous
 62
     7
100
AcDbLine
 10
180.6612021163785
 20
319.2394478522988
 30
0.0
 11
181.011254978352
 21
319.0359796262767
 31
0.0
  0
LINE
  5
470
330
1F
100
AcDbEntity
  8
1
  6
Continuous
 62
     7
100
AcDbLine
 10
181.011254978352
 20
319.0359796262767
 30
0.0
 11
180.5736889008851
 21
319.0359796262767
 31
0.0
  0
LINE
  5
471
330
1F
100
AcDbEntity
  8
1
  6
Continuous
 62
     7
100
AcDbLine
 10
180.5736889008851
 20
319.0359796262767
 30
0.0
 11
180.5736889008851
 21
318.2899294641956
 31
0.0
  0
LINE
  5
472
330
1F
100
AcDbEntity
  8
1
  6
Continuous
 62
     7
100
AcDbLine
 10
180.5736889008851
 20
318.2899294641956
 30
0.0
 11
185.7369686149948
 21
318.2899294641956
 31
0.0
  0
LINE
  5
473
330
1F
100
AcDbEntity
  8
1
  6
Continuous
 62
     7
100
AcDbLine
 10
185.7369686149948
 20
318.2899294641956
 30
0.0
 11
185.7369686149948
 21
319.0359796262767
 31
0.0
  0
LINE
  5
474
330
1F
100
AcDbEntity
  8
1
  6
Continuous
 62
     7
100
AcDbLine
 10
185.7369686149948
 20
319.0359796262767
 30
0.0
 11
182.148926779766
 21
319.0359796262767
 31
0.0
  0
LINE
  5
475
330
1F
100
AcDbEntity
  8
1
  6
Continuous
 62
     7
100
AcDbLine
 10
182.148926779766
 20
319.0359796262767
 30
0.0
 11
181.7113607022991
 21
319.1716251102915
 31
0.0
  0
LINE
  5
476
330
1F
100
AcDbEntity
  8
1
  6
Continuous
 62
     7
100
AcDbLine
 10
181.7113607022991
 20
319.1716251102915
 30
0.0
 11
181.4488210558189
 21
319.4429160783209
 31
0.0
  0
LINE
  5
477
330
1F
100
AcDbEntity
  8
1
  6
Continuous
 62
     7
100
AcDbLine
 10
181.4488210558189
 20
319.4429160783209
 30
0.0
 11
181.3613078403256
 21
319.7142070463505
 31
0.0
  0
LINE
  5
478
330
1F
100
AcDbEntity
  8
1
  6
Continuous
 62
     7
100
AcDbLine
 10
181.3613078403256
 20
319.7142070463505
 30
0.0
 11
181.4488210558189
 21
320.0533207563873
 31
0.0
  0
LINE
  5
479
330
1F
100
AcDbEntity
  8
1
  6
Continuous
 62
     7
100
AcDbLine
 10
181.4488210558189
 20
320.0533207563873
 30
0.0
 11
181.7113607022991
 21
320.2567889824094
 31
0.0
  0
LINE
  5
47A
330
1F
100
AcDbEntity
  8
1
  6
Continuous
 62
     7
100
AcDbLine
 10
181.7113607022991
 20
320.2567889824094
 30
0.0
 11
182.148926779766
 21
320.4602572084315
 31
0.0
  0
LINE
  5
47B
330
1F
100
AcDbEntity
  8
1
  6
Continuous
 62
     7
100
AcDbLine
 10
182.148926779766
 20
320.4602572084315
 30
0.0
 11
182.4989796417396
 21
320.5280799504389
 31
0.0
  0
LINE
  5
47C
330
1F
100
AcDbEntity
  8
1
  6
Continuous
 62
     7
100
AcDbLine
 10
182.4989796417396
 20
320.5280799504389
 30
0.0
 11
185.7369686149948
 21
320.5280799504389
 31
0.0
  0
LINE
  5
47D
330
1F
100
AcDbEntity
  8
1
  6
Continuous
 62
     7
100
AcDbLine
 10
185.7369686149948
 20
320.5280799504389
 30
0.0
 11
185.7369686149948
 21
321.27413011252
 31
0.0
  0
LINE
  5
47E
330
1F
100
AcDbEntity
  8
1
  6
Continuous
 62
     7
100
AcDbLine
 10
185.7369686149948
 20
321.27413011252
 30
0.0
 11
182.148926779766
 21
321.27413011252
 31
0.0
  0
LINE
  5
47F
330
1F
100
AcDbEntity
  8
1
  6
Continuous
 62
     7
100
AcDbLine
 10
182.148926779766
 20
321.27413011252
 30
0.0
 11
181.7113607022991
 21
321.4097755965348
 31
0.0
  0
LINE
  5
480
330
1F
100
AcDbEntity
  8
1
  6
Continuous
 62
     7
100
AcDbLine
 10
181.7113607022991
 20
321.4097755965348
 30
0.0
 11
181.4488210558189
 21
321.6810665645643
 31
0.0
  0
LINE
  5
481
330
1F
100
AcDbEntity
  8
1
  6
Continuous
 62
     7
100
AcDbLine
 10
181.4488210558189
 20
321.6810665645643
 30
0.0
 11
181.3613078403256
 21
321.9523575325937
 31
0.0
  0
LINE
  5
482
330
1F
100
AcDbEntity
  8
1
  6
Continuous
 62
     7
100
AcDbLine
 10
181.3613078403256
 20
321.9523575325937
 30
0.0
 11
181.4488210558189
 21
322.2914712426306
 31
0.0
  0
LINE
  5
483
330
1F
100
AcDbEntity
  8
1
  6
Continuous
 62
     7
100
AcDbLine
 10
181.4488210558189
 20
322.2914712426306
 30
0.0
 11
181.7113607022991
 21
322.4949394686527
 31
0.0
  0
LINE
  5
484
330
1F
100
AcDbEntity
  8
1
  6
Continuous
 62
     7
100
AcDbLine
 10
181.7113607022991
 20
322.4949394686527
 30
0.0
 11
182.148926779766
 21
322.6984076946749
 31
0.0
  0
LINE
  5
485
330
1F
100
AcDbEntity
  8
1
  6
Continuous
 62
     7
100
AcDbLine
 10
182.148926779766
 20
322.6984076946749
 30
0.0
 11
182.4989796417396
 21
322.7662304366822
 31
0.0
  0
LINE
  5
486
330
1F
100
AcDbEntity
  8
1
  6
Continuous
 62
     7
100
AcDbLine
 10
182.4989796417396
 20
322.7662304366822
 30
0.0
 11
185.7369686149948
 21
322.7662304366822
 31
0.0
  0
LINE
  5
487
330
1F
100
AcDbEntity
  8
1
  6
Continuous
 62
     7
100
AcDbLine
 10
185.7369686149948
 20
322.7662304366822
 30
0.0
 11
185.7369686149948
 21
323.5122805987633
 31
0.0
  0
LINE
  5
488
330
1F
100
AcDbEntity
  8
1
  6
Continuous
 62
     7
100
AcDbLine
 10
185.7369686149948
 20
323.5122805987633
 30
0.0
 11
182.5864928572329
 21
323.5122805987633
 31
0.0
  0
LINE
  5
489
330
1F
100
AcDbEntity
  8
1
  6
Continuous
 62
     7
100
AcDbLine
 10
182.5864928572329
 20
323.5122805987633
 30
0.0
 11
181.8863871332859
 21
323.444457856756
 31
0.0
  0
LINE
  5
48A
330
1F
100
AcDbEntity
  8
1
  6
Continuous
 62
     7
100
AcDbLine
 10
181.8863871332859
 20
323.444457856756
 30
0.0
 11
181.3613078403256
 21
323.2409896307339
 31
0.0
  0
LINE
  5
48B
330
1F
100
AcDbEntity
  8
1
  6
Continuous
 62
     7
100
AcDbLine
 10
181.3613078403256
 20
323.2409896307339
 30
0.0
 11
181.011254978352
 21
323.0375214047117
 31
0.0
  0
LINE
  5
48C
330
1F
100
AcDbEntity
  8
1
  6
Continuous
 62
     7
100
AcDbLine
 10
181.011254978352
 20
323.0375214047117
 30
0.0
 11
180.6612021163785
 21
322.6305849526675
 31
0.0
  0
LINE
  5
48D
330
1F
100
AcDbEntity
  8
1
  6
Continuous
 62
     7
100
AcDbLine
 10
180.6612021163785
 20
322.6305849526675
 30
0.0
 11
180.4861756853917
 21
322.1558257586159
 31
0.0
  0
LINE
  5
48E
330
1F
100
AcDbEntity
  8
1
  6
Continuous
 62
     7
100
AcDbLine
 10
180.4861756853917
 20
322.1558257586159
 30
0.0
 11
180.4861756853917
 21
321.8845347905864
 31
0.0
  0
LINE
  5
48F
330
1F
100
AcDbEntity
  8
1
  6
Continuous
 62
     7
100
AcDbLine
 10
180.4861756853917
 20
321.8845347905864
 30
0.0
 11
180.6612021163785
 21
321.5454210805495
 31
0.0
  0
LINE
  5
490
330
1F
100
AcDbEntity
  8
1
  6
Continuous
 62
     7
100
AcDbLine
 10
180.6612021163785
 20
321.5454210805495
 30
0.0
 11
180.9237417628586
 21
321.27413011252
 31
0.0
  0
LINE
  5
491
330
1F
100
AcDbEntity
  8
1
  6
Continuous
 62
     7
100
AcDbLine
 10
181.0839960882998
 20
328.8328586698882
 30
0.0
 11
181.5215621657668
 21
328.6293904438661
 31
0.0
  0
LINE
  5
492
330
1F
100
AcDbEntity
  8
1
  6
Continuous
 62
     7
100
AcDbLine
 10
181.5215621657668
 20
328.6293904438661
 30
0.0
 11
181.1715093037932
 21
328.3580994758366
 31
0.0
  0
LINE
  5
493
330
1F
100
AcDbEntity
  8
1
  6
Continuous
 62
     7
100
AcDbLine
 10
181.1715093037932
 20
328.3580994758366
 30
0.0
 11
180.8214564418197
 21
327.9511630237923
 31
0.0
  0
LINE
  5
494
330
1F
100
AcDbEntity
  8
1
  6
Continuous
 62
     7
100
AcDbLine
 10
180.8214564418197
 20
327.9511630237923
 30
0.0
 11
180.6464300108329
 21
327.4764038297407
 31
0.0
  0
LINE
  5
495
330
1F
100
AcDbEntity
  8
1
  6
Continuous
 62
     7
100
AcDbLine
 10
180.6464300108329
 20
327.4764038297407
 30
0.0
 11
180.6464300108329
 21
327.2051128617113
 31
0.0
  0
LINE
  5
496
330
1F
100
AcDbEntity
  8
1
  6
Continuous
 62
     7
100
AcDbLine
 10
180.6464300108329
 20
327.2051128617113
 30
0.0
 11
180.8214564418197
 21
326.798176409667
 31
0.0
  0
LINE
  5
497
330
1F
100
AcDbEntity
  8
1
  6
Continuous
 62
     7
100
AcDbLine
 10
180.8214564418197
 20
326.798176409667
 30
0.0
 11
181.1715093037932
 21
326.5947081836449
 31
0.0
  0
LINE
  5
498
330
1F
100
AcDbEntity
  8
1
  6
Continuous
 62
     7
100
AcDbLine
 10
181.1715093037932
 20
326.5947081836449
 30
0.0
 11
180.7339432263263
 21
326.5947081836449
 31
0.0
  0
LINE
  5
499
330
1F
100
AcDbEntity
  8
1
  6
Continuous
 62
     7
100
AcDbLine
 10
180.7339432263263
 20
326.5947081836449
 30
0.0
 11
180.7339432263263
 21
325.8486580215638
 31
0.0
  0
LINE
  5
49A
330
1F
100
AcDbEntity
  8
1
  6
Continuous
 62
     7
100
AcDbLine
 10
180.7339432263263
 20
325.8486580215638
 30
0.0
 11
185.897222940436
 21
325.8486580215638
 31
0.0
  0
LINE
  5
49B
330
1F
100
AcDbEntity
  8
1
  6
Continuous
 62
     7
100
AcDbLine
 10
185.897222940436
 20
325.8486580215638
 30
0.0
 11
185.897222940436
 21
326.5947081836449
 31
0.0
  0
LINE
  5
49C
330
1F
100
AcDbEntity
  8
1
  6
Continuous
 62
     7
100
AcDbLine
 10
185.897222940436
 20
326.5947081836449
 30
0.0
 11
182.3091811052072
 21
326.5947081836449
 31
0.0
  0
LINE
  5
49D
330
1F
100
AcDbEntity
  8
1
  6
Continuous
 62
     7
100
AcDbLine
 10
182.3091811052072
 20
326.5947081836449
 30
0.0
 11
181.8716150277403
 21
326.7303536676596
 31
0.0
  0
LINE
  5
49E
330
1F
100
AcDbEntity
  8
1
  6
Continuous
 62
     7
100
AcDbLine
 10
181.8716150277403
 20
326.7303536676596
 30
0.0
 11
181.6090753812601
 21
327.0016446356891
 31
0.0
  0
LINE
  5
49F
330
1F
100
AcDbEntity
  8
1
  6
Continuous
 62
     7
100
AcDbLine
 10
181.6090753812601
 20
327.0016446356891
 30
0.0
 11
181.5215621657668
 21
327.2729356037186
 31
0.0
  0
LINE
  5
4A0
330
1F
100
AcDbEntity
  8
1
  6
Continuous
 62
     7
100
AcDbLine
 10
181.5215621657668
 20
327.2729356037186
 30
0.0
 11
181.6090753812601
 21
327.6120493137555
 31
0.0
  0
LINE
  5
4A1
330
1F
100
AcDbEntity
  8
1
  6
Continuous
 62
     7
100
AcDbLine
 10
181.6090753812601
 20
327.6120493137555
 30
0.0
 11
181.8716150277403
 21
327.8155175397776
 31
0.0
  0
LINE
  5
4A2
330
1F
100
AcDbEntity
  8
1
  6
Continuous
 62
     7
100
AcDbLine
 10
181.8716150277403
 20
327.8155175397776
 30
0.0
 11
182.3091811052072
 21
328.0189857657997
 31
0.0
  0
LINE
  5
4A3
330
1F
100
AcDbEntity
  8
1
  6
Continuous
 62
     7
100
AcDbLine
 10
182.3091811052072
 20
328.0189857657997
 30
0.0
 11
182.6592339671808
 21
328.0868085078071
 31
0.0
  0
LINE
  5
4A4
330
1F
100
AcDbEntity
  8
1
  6
Continuous
 62
     7
100
AcDbLine
 10
182.6592339671808
 20
328.0868085078071
 30
0.0
 11
185.897222940436
 21
328.0868085078071
 31
0.0
  0
LINE
  5
4A5
330
1F
100
AcDbEntity
  8
1
  6
Continuous
 62
     7
100
AcDbLine
 10
185.897222940436
 20
328.0868085078071
 30
0.0
 11
185.897222940436
 21
328.8328586698882
 31
0.0
  0
LINE
  5
4A6
330
1F
100
AcDbEntity
  8
1
  6
Continuous
 62
     7
100
AcDbLine
 10
185.897222940436
 20
328.8328586698882
 30
0.0
 11
182.3091811052072
 21
328.8328586698882
 31
0.0
  0
LINE
  5
4A7
330
1F
100
AcDbEntity
  8
1
  6
Continuous
 62
     7
100
AcDbLine
 10
182.3091811052072
 20
328.8328586698882
 30
0.0
 11
181.8716150277403
 21
328.9685041539029
 31
0.0
  0
LINE
  5
4A8
330
1F
100
AcDbEntity
  8
1
  6
Continuous
 62
     7
100
AcDbLine
 10
181.8716150277403
 20
328.9685041539029
 30
0.0
 11
181.6090753812601
 21
329.2397951219325
 31
0.0
  0
LINE
  5
4A9
330
1F
100
AcDbEntity
  8
1
  6
Continuous
 62
     7
100
AcDbLine
 10
181.6090753812601
 20
329.2397951219325
 30
0.0
 11
181.5215621657668
 21
329.5110860899619
 31
0.0
  0
LINE
  5
4AA
330
1F
100
AcDbEntity
  8
1
  6
Continuous
 62
     7
100
AcDbLine
 10
181.5215621657668
 20
329.5110860899619
 30
0.0
 11
181.6090753812601
 21
329.8501997999988
 31
0.0
  0
LINE
  5
4AB
330
1F
100
AcDbEntity
  8
1
  6
Continuous
 62
     7
100
AcDbLine
 10
181.6090753812601
 20
329.8501997999988
 30
0.0
 11
181.8716150277403
 21
330.0536680260209
 31
0.0
  0
LINE
  5
4AC
330
1F
100
AcDbEntity
  8
1
  6
Continuous
 62
     7
100
AcDbLine
 10
181.8716150277403
 20
330.0536680260209
 30
0.0
 11
182.3091811052072
 21
330.257136252043
 31
0.0
  0
LINE
  5
4AD
330
1F
100
AcDbEntity
  8
1
  6
Continuous
 62
     7
100
AcDbLine
 10
182.3091811052072
 20
330.257136252043
 30
0.0
 11
182.6592339671808
 21
330.3249589940504
 31
0.0
  0
LINE
  5
4AE
330
1F
100
AcDbEntity
  8
1
  6
Continuous
 62
     7
100
AcDbLine
 10
182.6592339671808
 20
330.3249589940504
 30
0.0
 11
185.897222940436
 21
330.3249589940504
 31
0.0
  0
LINE
  5
4AF
330
1F
100
AcDbEntity
  8
1
  6
Continuous
 62
     7
100
AcDbLine
 10
185.897222940436
 20
330.3249589940504
 30
0.0
 11
185.897222940436
 21
331.0710091561315
 31
0.0
  0
LINE
  5
4B0
330
1F
100
AcDbEntity
  8
1
  6
Continuous
 62
     7
100
AcDbLine
 10
185.897222940436
 20
331.0710091561315
 30
0.0
 11
182.7467471826741
 21
331.0710091561315
 31
0.0
  0
LINE
  5
4B1
330
1F
100
AcDbEntity
  8
1
  6
Continuous
 62
     7
100
AcDbLine
 10
182.7467471826741
 20
331.0710091561315
 30
0.0
 11
182.0466414587271
 21
331.0031864141241
 31
0.0
  0
LINE
  5
4B2
330
1F
100
AcDbEntity
  8
1
  6
Continuous
 62
     7
100
AcDbLine
 10
182.0466414587271
 20
331.0031864141241
 30
0.0
 11
181.5215621657668
 21
330.799718188102
 31
0.0
  0
LINE
  5
4B3
330
1F
100
AcDbEntity
  8
1
  6
Continuous
 62
     7
100
AcDbLine
 10
181.5215621657668
 20
330.799718188102
 30
0.0
 11
181.1715093037932
 21
330.5962499620799
 31
0.0
  0
LINE
  5
4B4
330
1F
100
AcDbEntity
  8
1
  6
Continuous
 62
     7
100
AcDbLine
 10
181.1715093037932
 20
330.5962499620799
 30
0.0
 11
180.8214564418197
 21
330.1893135100357
 31
0.0
  0
LINE
  5
4B5
330
1F
100
AcDbEntity
  8
1
  6
Continuous
 62
     7
100
AcDbLine
 10
180.8214564418197
 20
330.1893135100357
 30
0.0
 11
180.6464300108329
 21
329.7145543159841
 31
0.0
  0
LINE
  5
4B6
330
1F
100
AcDbEntity
  8
1
  6
Continuous
 62
     7
100
AcDbLine
 10
180.6464300108329
 20
329.7145543159841
 30
0.0
 11
180.6464300108329
 21
329.4432633479545
 31
0.0
  0
LINE
  5
4B7
330
1F
100
AcDbEntity
  8
1
  6
Continuous
 62
     7
100
AcDbLine
 10
180.6464300108329
 20
329.4432633479545
 30
0.0
 11
180.8214564418197
 21
329.1041496379177
 31
0.0
  0
LINE
  5
4B8
330
1F
100
AcDbEntity
  8
1
  6
Continuous
 62
     7
100
AcDbLine
 10
180.8214564418197
 20
329.1041496379177
 30
0.0
 11
181.0839960882998
 21
328.8328586698882
 31
0.0
  0
LINE
  5
4B9
330
1F
100
AcDbEntity
  8
1
  6
Continuous
 62
     7
100
AcDbLine
 10
186.0769803419369
 20
300.0757099530259
 30
0.0
 11
185.3268670662793
 21
300.0757099530259
 31
0.0
  0
LINE
  5
4BA
330
1F
100
AcDbEntity
  8
1
  6
Continuous
 62
     7
100
AcDbLine
 10
185.3268670662793
 20
300.0757099530259
 30
0.0
 11
184.4517349113455
 21
300.3257477115785
 31
0.0
  0
LINE
  5
4BB
330
1F
100
AcDbEntity
  8
1
  6
Continuous
 62
     7
100
AcDbLine
 10
184.4517349113455
 20
300.3257477115785
 30
0.0
 11
183.5766027564116
 21
300.8258232286835
 31
0.0
  0
LINE
  5
4BC
330
1F
100
AcDbEntity
  8
1
  6
Continuous
 62
     7
100
AcDbLine
 10
183.5766027564116
 20
300.8258232286835
 30
0.0
 11
182.826489480754
 21
301.4509176250649
 31
0.0
  0
LINE
  5
4BD
330
1F
100
AcDbEntity
  8
1
  6
Continuous
 62
     7
100
AcDbLine
 10
182.826489480754
 20
301.4509176250649
 30
0.0
 11
181.9513573258202
 21
302.2010309007224
 31
0.0
  0
LINE
  5
4BE
330
1F
100
AcDbEntity
  8
1
  6
Continuous
 62
     7
100
AcDbLine
 10
181.9513573258202
 20
302.2010309007224
 30
0.0
 11
181.3262629294389
 21
302.95114417638
 31
0.0
  0
LINE
  5
4BF
330
1F
100
AcDbEntity
  8
1
  6
Continuous
 62
     7
100
AcDbLine
 10
181.3262629294389
 20
302.95114417638
 30
0.0
 11
179.7010174988475
 21
304.5763896069714
 31
0.0
  0
LINE
  5
4C0
330
1F
100
AcDbEntity
  8
1
  6
Continuous
 62
     7
100
AcDbLine
 10
179.7010174988475
 20
304.5763896069714
 30
0.0
 11
179.3259608610186
 21
304.826427365524
 31
0.0
  0
LINE
  5
4C1
330
1F
100
AcDbEntity
  8
1
  6
Continuous
 62
     7
100
AcDbLine
 10
179.3259608610186
 20
304.826427365524
 30
0.0
 11
178.9509042231899
 21
304.9514462448002
 31
0.0
  0
LINE
  5
4C2
330
1F
100
AcDbEntity
  8
1
  6
Continuous
 62
     7
100
AcDbLine
 10
178.9509042231899
 20
304.9514462448002
 30
0.0
 11
178.4508287060848
 21
304.9514462448002
 31
0.0
  0
LINE
  5
4C3
330
1F
100
AcDbEntity
  8
1
  6
Continuous
 62
     7
100
AcDbLine
 10
178.4508287060848
 20
304.9514462448002
 30
0.0
 11
178.075772068256
 21
304.826427365524
 31
0.0
  0
LINE
  5
4C4
330
1F
100
AcDbEntity
  8
1
  6
Continuous
 62
     7
100
AcDbLine
 10
178.075772068256
 20
304.826427365524
 30
0.0
 11
177.7007154304272
 21
304.5763896069714
 31
0.0
  0
LINE
  5
4C5
330
1F
100
AcDbEntity
  8
1
  6
Continuous
 62
     7
100
AcDbLine
 10
177.7007154304272
 20
304.5763896069714
 30
0.0
 11
177.4506776718747
 21
304.2013329691426
 31
0.0
  0
LINE
  5
4C6
330
1F
100
AcDbEntity
  8
1
  6
Continuous
 62
     7
100
AcDbLine
 10
177.4506776718747
 20
304.2013329691426
 30
0.0
 11
177.3256587925984
 21
303.7012574520376
 31
0.0
  0
LINE
  5
4C7
330
1F
100
AcDbEntity
  8
1
  6
Continuous
 62
     7
100
AcDbLine
 10
177.3256587925984
 20
303.7012574520376
 30
0.0
 11
177.3256587925984
 21
303.2011819349325
 31
0.0
  0
LINE
  5
4C8
330
1F
100
AcDbEntity
  8
1
  6
Continuous
 62
     7
100
AcDbLine
 10
177.3256587925984
 20
303.2011819349325
 30
0.0
 11
177.4506776718747
 21
302.7011064178275
 31
0.0
  0
LINE
  5
4C9
330
1F
100
AcDbEntity
  8
1
  6
Continuous
 62
     7
100
AcDbLine
 10
177.4506776718747
 20
302.7011064178275
 30
0.0
 11
177.7007154304272
 21
302.3260497799986
 31
0.0
  0
LINE
  5
4CA
330
1F
100
AcDbEntity
  8
1
  6
Continuous
 62
     7
100
AcDbLine
 10
177.7007154304272
 20
302.3260497799986
 30
0.0
 11
178.075772068256
 21
302.0760120214462
 31
0.0
  0
LINE
  5
4CB
330
1F
100
AcDbEntity
  8
1
  6
Continuous
 62
     7
100
AcDbLine
 10
178.075772068256
 20
302.0760120214462
 30
0.0
 11
178.4508287060848
 21
301.9509931421699
 31
0.0
  0
LINE
  5
4CC
330
1F
100
AcDbEntity
  8
1
  6
Continuous
 62
     7
100
AcDbLine
 10
178.4508287060848
 20
301.9509931421699
 30
0.0
 11
178.9509042231899
 21
301.9509931421699
 31
0.0
  0
LINE
  5
4CD
330
1F
100
AcDbEntity
  8
1
  6
Continuous
 62
     7
100
AcDbLine
 10
178.9509042231899
 20
301.9509931421699
 30
0.0
 11
178.9509042231899
 21
300.575785470131
 31
0.0
  0
LINE
  5
4CE
330
1F
100
AcDbEntity
  8
1
  6
Continuous
 62
     7
100
AcDbLine
 10
178.9509042231899
 20
300.575785470131
 30
0.0
 11
178.4508287060848
 21
300.575785470131
 31
0.0
  0
LINE
  5
4CF
330
1F
100
AcDbEntity
  8
1
  6
Continuous
 62
     7
100
AcDbLine
 10
178.4508287060848
 20
300.575785470131
 30
0.0
 11
177.8257343097035
 21
300.7008043494072
 31
0.0
  0
LINE
  5
4D0
330
1F
100
AcDbEntity
  8
1
  6
Continuous
 62
     7
100
AcDbLine
 10
177.8257343097035
 20
300.7008043494072
 30
0.0
 11
177.0756210340459
 21
301.2008798665123
 31
0.0
  0
LINE
  5
4D1
330
1F
100
AcDbEntity
  8
1
  6
Continuous
 62
     7
100
AcDbLine
 10
177.0756210340459
 20
301.2008798665123
 30
0.0
 11
176.5755455169409
 21
301.7009553836173
 31
0.0
  0
LINE
  5
4D2
330
1F
100
AcDbEntity
  8
1
  6
Continuous
 62
     7
100
AcDbLine
 10
176.5755455169409
 20
301.7009553836173
 30
0.0
 11
176.200488879112
 21
302.4510686592749
 31
0.0
  0
LINE
  5
4D3
330
1F
100
AcDbEntity
  8
1
  6
Continuous
 62
     7
100
AcDbLine
 10
176.200488879112
 20
302.4510686592749
 30
0.0
 11
176.0754699998358
 21
303.0761630556563
 31
0.0
  0
LINE
  5
4D4
330
1F
100
AcDbEntity
  8
1
  6
Continuous
 62
     7
100
AcDbLine
 10
176.0754699998358
 20
303.0761630556563
 30
0.0
 11
176.0754699998358
 21
303.8262763313138
 31
0.0
  0
LINE
  5
4D5
330
1F
100
AcDbEntity
  8
1
  6
Continuous
 62
     7
100
AcDbLine
 10
176.0754699998358
 20
303.8262763313138
 30
0.0
 11
176.200488879112
 21
304.4513707276952
 31
0.0
  0
LINE
  5
4D6
330
1F
100
AcDbEntity
  8
1
  6
Continuous
 62
     7
100
AcDbLine
 10
176.200488879112
 20
304.4513707276952
 30
0.0
 11
176.5755455169409
 21
305.2014840033527
 31
0.0
  0
LINE
  5
4D7
330
1F
100
AcDbEntity
  8
1
  6
Continuous
 62
     7
100
AcDbLine
 10
176.5755455169409
 20
305.2014840033527
 30
0.0
 11
177.0756210340459
 21
305.7015595204578
 31
0.0
  0
LINE
  5
4D8
330
1F
100
AcDbEntity
  8
1
  6
Continuous
 62
     7
100
AcDbLine
 10
177.0756210340459
 20
305.7015595204578
 30
0.0
 11
177.8257343097035
 21
306.2016350375628
 31
0.0
  0
LINE
  5
4D9
330
1F
100
AcDbEntity
  8
1
  6
Continuous
 62
     7
100
AcDbLine
 10
177.8257343097035
 20
306.2016350375628
 30
0.0
 11
178.4508287060848
 21
306.3266539168391
 31
0.0
  0
LINE
  5
4DA
330
1F
100
AcDbEntity
  8
1
  6
Continuous
 62
     7
100
AcDbLine
 10
178.4508287060848
 20
306.3266539168391
 30
0.0
 11
178.9509042231899
 21
306.3266539168391
 31
0.0
  0
LINE
  5
4DB
330
1F
100
AcDbEntity
  8
1
  6
Continuous
 62
     7
100
AcDbLine
 10
178.9509042231899
 20
306.3266539168391
 30
0.0
 11
179.5759986195712
 21
306.2016350375628
 31
0.0
  0
LINE
  5
4DC
330
1F
100
AcDbEntity
  8
1
  6
Continuous
 62
     7
100
AcDbLine
 10
179.5759986195712
 20
306.2016350375628
 30
0.0
 11
180.3261118952288
 21
305.7015595204578
 31
0.0
  0
LINE
  5
4DD
330
1F
100
AcDbEntity
  8
1
  6
Continuous
 62
     7
100
AcDbLine
 10
180.3261118952288
 20
305.7015595204578
 30
0.0
 11
180.5761496537813
 21
305.4515217619053
 31
0.0
  0
LINE
  5
4DE
330
1F
100
AcDbEntity
  8
1
  6
Continuous
 62
     7
100
AcDbLine
 10
180.5761496537813
 20
305.4515217619053
 30
0.0
 11
181.4512818087151
 21
304.4513707276952
 31
0.0
  0
LINE
  5
4DF
330
1F
100
AcDbEntity
  8
1
  6
Continuous
 62
     7
100
AcDbLine
 10
181.4512818087151
 20
304.4513707276952
 30
0.0
 11
182.2013950843727
 21
303.5762385727613
 31
0.0
  0
LINE
  5
4E0
330
1F
100
AcDbEntity
  8
1
  6
Continuous
 62
     7
100
AcDbLine
 10
182.2013950843727
 20
303.5762385727613
 30
0.0
 11
183.2015461185828
 21
302.7011064178275
 31
0.0
  0
LINE
  5
4E1
330
1F
100
AcDbEntity
  8
1
  6
Continuous
 62
     7
100
AcDbLine
 10
183.2015461185828
 20
302.7011064178275
 30
0.0
 11
184.0766782735167
 21
302.0760120214462
 31
0.0
  0
LINE
  5
4E2
330
1F
100
AcDbEntity
  8
1
  6
Continuous
 62
     7
100
AcDbLine
 10
184.0766782735167
 20
302.0760120214462
 30
0.0
 11
184.8267915491743
 21
301.8259742628936
 31
0.0
  0
LINE
  5
4E3
330
1F
100
AcDbEntity
  8
1
  6
Continuous
 62
     7
100
AcDbLine
 10
184.8267915491743
 20
301.8259742628936
 30
0.0
 11
184.8267915491743
 21
306.7017105546679
 31
0.0
  0
LINE
  5
4E4
330
1F
100
AcDbEntity
  8
1
  6
Continuous
 62
     7
100
AcDbLine
 10
184.8267915491743
 20
306.7017105546679
 30
0.0
 11
186.0769803419369
 21
306.7017105546679
 31
0.0
  0
LINE
  5
4E5
330
1F
100
AcDbEntity
  8
1
  6
Continuous
 62
     7
100
AcDbLine
 10
186.0769803419369
 20
306.7017105546679
 30
0.0
 11
186.0769803419369
 21
300.0757099530259
 31
0.0
  0
LINE
  5
4E6
330
1F
100
AcDbEntity
  8
1
  6
Continuous
 62
     7
100
AcDbLine
 10
195.9975600051383
 20
219.3531235008329
 30
0.0
 11
114.4975600051383
 21
219.3531235008329
 31
0.0
  0
ARC
  5
4E7
330
1F
100
AcDbEntity
  8
1
  6
Continuous
 62
     7
100
AcDbCircle
 10
155.4975600051383
 20
316.0950646999916
 30
0.0
 40
42.99999999999994
100
AcDbArc
 50
14.546330811629
 51
84.66244315058512
  0
ARC
  5
4E8
330
1F
100
AcDbEntity
  8
1
  6
Continuous
 62
     7
100
AcDbCircle
 10
155.4975600051383
 20
316.0950646999916
 30
0.0
 40
42.99999999999991
100
AcDbArc
 50
191.2243462192369
 51
264.662443150585
  0
ARC
  5
4E9
330
1F
100
AcDbEntity
  8
1
  6
Continuous
 62
     7
100
AcDbCircle
 10
239.9975600051383
 20
296.8928963928541
 30
0.0
 40
2.999999999999915
100
AcDbArc
 50
0.0
 51
101.0894803555147
  0
ARC
  5
4EA
330
1F
100
AcDbEntity
  8
1
  6
Continuous
 62
     7
100
AcDbCircle
 10
195.9892106303008
 20
274.5688533431899
 30
0.0
 40
14.9999999999999
100
AcDbArc
 50
101.0894803555145
 51
134.2773181517006
  0
ARC
  5
4EB
330
1F
100
AcDbEntity
  8
1
  6
Continuous
 62
     7
100
AcDbCircle
 10
155.4975600051383
 20
316.0950646999916
 30
0.0
 40
42.99999999999978
100
AcDbArc
 50
95.3375568494149
 51
168.7756537807632
  0
ARC
  5
4EC
330
1F
100
AcDbEntity
  8
1
  6
Continuous
 62
     7
100
AcDbCircle
 10
195.9892106303008
 20
357.6212760567933
 30
0.0
 40
15.00000000000001
100
AcDbArc
 50
225.7226818483
 51
258.9105196444857
  0
ARC
  5
4ED
330
1F
100
AcDbEntity
  8
1
  6
Continuous
 62
     7
100
AcDbCircle
 10
239.9975600051383
 20
335.2972330071289
 30
0.0
 40
2.999999999999963
100
AcDbArc
 50
258.9105196444849
 51
0.0
  0
ARC
  5
4EE
330
1F
100
AcDbEntity
  8
1
  6
Continuous
 62
     7
100
AcDbCircle
 10
65.99756000513827
 20
297.8509229383164
 30
0.0
 40
3.000000000000268
100
AcDbArc
 50
78.92928899411437
 51
180.0
  0
ARC
  5
4EF
330
1F
100
AcDbEntity
  8
1
  6
Continuous
 62
     7
100
AcDbCircle
 10
155.4975600051383
 20
316.0950646999916
 30
0.0
 40
43.00000000000001
100
AcDbArc
 50
275.3375568494149
 51
345.4536691883708
  0
ARC
  5
4F0
330
1F
100
AcDbEntity
  8
1
  6
Continuous
 62
     7
100
AcDbCircle
 10
115.0084439888193
 20
274.5663820310571
 30
0.0
 40
15.00000000000003
100
AcDbArc
 50
45.72617887014567
 51
78.92928899411638
  0
ARC
  5
4F1
330
1F
100
AcDbEntity
  8
1
  6
Continuous
 62
     7
100
AcDbCircle
 10
115.0084439888193
 20
357.6237473689258
 30
0.0
 40
14.99999999999991
100
AcDbArc
 50
281.0707110058838
 51
314.2738211298551
  0
ARC
  5
4F2
330
1F
100
AcDbEntity
  8
1
  6
Continuous
 62
     7
100
AcDbCircle
 10
65.99756000513827
 20
334.3392064616666
 30
0.0
 40
3.0
100
AcDbArc
 50
180.0
 51
281.0707110058869
  0
ARC
  5
4F3
330
1F
100
AcDbEntity
  8
1
  6
Continuous
 62
     7
100
AcDbCircle
 10
-13.76977117163753
 20
152.5280567621554
 30
0.0
 40
137.0
100
AcDbArc
 50
353.6747122774171
 51
4.16070048223733
  0
ARC
  5
4F4
330
1F
100
AcDbEntity
  8
1
  6
Continuous
 62
     7
100
AcDbCircle
 10
237.3722840820832
 20
159.1770637483974
 30
0.0
 40
43.99999999999974
100
AcDbArc
 50
175.2963545202532
 51
205.4553353198521
  0
ARC
  5
4F5
330
1F
100
AcDbEntity
  8
1
  6
Continuous
 62
     7
100
AcDbCircle
 10
232.4299049908683
 20
160.1288811033305
 30
0.0
 40
38.99999999999959
100
AcDbArc
 50
151.1263247147809
 51
176.0945946171472
  0
ARC
  5
4F6
330
1F
100
AcDbEntity
  8
1
  6
Continuous
 62
     7
100
AcDbCircle
 10
105.9949447997818
 20
160.4038032019525
 30
0.0
 40
17.00000000000107
100
AcDbArc
 50
6.97415510350578
 51
66.11578954213647
  0
ARC
  5
4F7
330
1F
100
AcDbEntity
  8
1
  6
Continuous
 62
     7
100
AcDbCircle
 10
107.7200755914174
 20
181.2373774435873
 30
0.0
 40
4.999999999999899
100
AcDbArc
 50
279.6319932573301
 51
353.6545960172259
  0
ARC
  5
4F8
330
1F
100
AcDbEntity
  8
1
  6
Continuous
 62
     7
100
AcDbCircle
 10
65.9983921725053
 20
137.4431235008327
 30
0.0
 40
3.000000000000573
100
AcDbArc
 50
65.73016935626613
 51
180.0
  0
ARC
  5
4F9
330
1F
100
AcDbEntity
  8
1
  6
Continuous
 62
     7
100
AcDbCircle
 10
191.4975600051383
 20
121.0985088053158
 30
0.0
 40
5.999999999999894
100
AcDbArc
 50
119.8199061988087
 51
181.4839862698327
  0
ARC
  5
4FA
330
1F
100
AcDbEntity
  8
1
  6
Continuous
 62
     7
100
AcDbCircle
 10
178.5683991459724
 20
143.6559199927237
 30
0.0
 40
19.99999999999978
100
AcDbArc
 50
299.8199061988151
 51
334.2751389910169
  0
ARC
  5
4FB
330
1F
100
AcDbEntity
  8
1
  6
Continuous
 62
     7
100
AcDbCircle
 10
137.7485958506495
 20
280.0753151663995
 30
0.0
 40
156.6650088765553
100
AcDbArc
 50
243.24900714918
 51
269.083807070611
  0
ARC
  5
4FC
330
1F
100
AcDbEntity
  8
1
  6
Continuous
 62
     7
100
AcDbCircle
 10
178.5683991459724
 20
143.6559199927237
 30
0.0
 40
19.99999999999936
100
AcDbArc
 50
279.4805069406062
 51
299.8199061988151
  0
ARC
  5
4FD
330
1F
100
AcDbEntity
  8
1
  6
Continuous
 62
     7
100
AcDbCircle
 10
120.5287453330232
 20
121.5343021317057
 30
0.0
 40
4.999999999999853
100
AcDbArc
 50
6.40256167802819
 51
28.84857470050217
  0
ARC
  5
4FE
330
1F
100
AcDbEntity
  8
1
  6
Continuous
 62
     7
100
AcDbCircle
 10
120.4975600051383
 20
178.9431235008327
 30
0.0
 40
8.000000000000163
100
AcDbArc
 50
119.9999999999993
 51
167.4256965937826
  0
ARC
  5
4FF
330
1F
100
AcDbEntity
  8
1
  6
Continuous
 62
     7
100
AcDbCircle
 10
190.4975600051383
 20
178.9431235008327
 30
0.0
 40
8.00000000000006
100
AcDbArc
 50
20.07375449334791
 51
60.00000000000069
  0
ARC
  5
500
330
1F
100
AcDbEntity
  8
1
  6
Continuous
 62
     7
100
AcDbCircle
 10
199.8900757444843
 20
182.3754183725088
 30
0.0
 40
1.99999999999976
100
AcDbArc
 50
200.0737544933493
 51
260.0737544933588
  0
ARC
  5
501
330
1F
100
AcDbEntity
  8
1
  6
Continuous
 62
     7
100
AcDbCircle
 10
206.4975600051383
 20
182.2343056521069
 30
0.0
 40
3.000000000000202
100
AcDbArc
 50
259.5206107033675
 51
260.0737544933439
  0
ARC
  5
502
330
1F
100
AcDbEntity
  8
1
  6
Continuous
 62
     7
100
AcDbCircle
 10
152.9975600051383
 20
121.952026747653
 30
0.0
 40
1.0
100
AcDbArc
 50
0.0
 51
89.59190695181005
  0
ARC
  5
503
330
1F
100
AcDbEntity
  8
1
  6
Continuous
 62
     7
100
AcDbCircle
 10
157.9975600051383
 20
121.951951294519
 30
0.0
 40
1.000000000000192
100
AcDbArc
 50
90.4046345747758
 51
180.0
  0
ARC
  5
504
330
1F
100
AcDbEntity
  8
1
  6
Continuous
 62
     7
100
AcDbCircle
 10
239.9606968837053
 20
174.6451943549359
 30
0.0
 40
3.000000000000246
100
AcDbArc
 50
264.6637316467616
 51
352.2931031551193
  0
ARC
  5
505
330
1F
100
AcDbEntity
  8
1
  6
Continuous
 62
     7
100
AcDbCircle
 10
206.4975600051383
 20
182.2343056521069
 30
0.0
 40
3.0
100
AcDbArc
 50
180.0
 51
259.5206107033675
  0
ARC
  5
506
330
1F
100
AcDbEntity
  8
1
  6
Continuous
 62
     7
100
AcDbCircle
 10
237.893263221431
 20
174.9249757690035
 30
0.0
 40
5.086278885375078
100
AcDbArc
 50
352.2931031551187
 51
354.5638911918925
  0
ARC
  5
507
330
1F
100
AcDbEntity
  8
1
  6
Continuous
 62
     7
100
AcDbCircle
 10
155.0550844799805
 20
149.7092429994856
 30
0.0
 40
3.374999999999783
100
AcDbArc
 50
358.1244947343129
 51
90.0
  0
ARC
  5
508
330
1F
100
AcDbEntity
  8
1
  6
Continuous
 62
     7
100
AcDbCircle
 10
154.7852385796605
 20
149.3567298774003
 30
0.0
 40
2.249999999999978
100
AcDbArc
 50
10.06068979214849
 51
90.0
  0
ARC
  5
509
330
1F
100
AcDbEntity
  8
1
  6
Continuous
 62
     7
100
AcDbCircle
 10
154.2153553980941
 20
149.359476581242
 30
0.0
 40
2.812500000000372
100
AcDbArc
 50
260.6214524487992
 51
7.9770464676341
  0
ARC
  5
50A
330
1F
100
AcDbEntity
  8
1
  6
Continuous
 62
     7
100
AcDbCircle
 10
65.9983921725053
 20
174.6451943549359
 30
0.0
 40
2.999999999999762
100
AcDbArc
 50
187.7068968448809
 51
275.3362683532384
  0
ARC
  5
50B
330
1F
100
AcDbEntity
  8
1
  6
Continuous
 62
     7
100
AcDbCircle
 10
155.4975600051383
 20
475.9431235008328
 30
0.0
 40
353.0000000000001
100
AcDbArc
 50
270.0
 51
274.2833309031395
  0
ARC
  5
50C
330
1F
100
AcDbEntity
  8
1
  6
Continuous
 62
     7
100
AcDbCircle
 10
155.4975600051383
 20
472.9431235008328
 30
0.0
 40
350.0000000000002
100
AcDbArc
 50
268.0470919588313
 51
270.0
  0
ARC
  5
50D
330
1F
100
AcDbEntity
  8
1
  6
Continuous
 62
     7
100
AcDbCircle
 10
195.4975600051383
 20
187.6033775386771
 30
0.0
 40
2.0
100
AcDbArc
 50
180.0
 51
239.9999999999974
  0
ARC
  5
50E
330
1F
100
AcDbEntity
  8
1
  6
Continuous
 62
     7
100
AcDbCircle
 10
115.4975600051383
 20
187.6033775386771
 30
0.0
 40
1.999999999999844
100
AcDbArc
 50
300.0000000000026
 51
0.0
  0
ARC
  5
50F
330
1F
100
AcDbEntity
  8
1
  6
Continuous
 62
     7
100
AcDbCircle
 10
155.4975600051383
 20
316.0950646999916
 30
0.0
 40
42.99999999999994
100
AcDbArc
 50
14.546330811629
 51
84.66244315058512
  0
ARC
  5
510
330
1F
100
AcDbEntity
  8
1
  6
Continuous
 62
     7
100
AcDbCircle
 10
155.4975600051383
 20
316.0950646999916
 30
0.0
 40
42.99999999999991
100
AcDbArc
 50
191.2243462192369
 51
264.662443150585
  0
ARC
  5
511
330
1F
100
AcDbEntity
  8
1
  6
Continuous
 62
     7
100
AcDbCircle
 10
155.4975600051383
 20
316.0950646999916
 30
0.0
 40
42.49999999999996
100
AcDbArc
 50
191.3581440806871
 51
345.2786921051807
  0
ARC
  5
512
330
1F
100
AcDbEntity
  8
1
  6
Continuous
 62
     7
100
AcDbCircle
 10
155.4975600051383
 20
316.0950646999916
 30
0.0
 40
42.49999999999998
100
AcDbArc
 50
14.72130789481883
 51
168.6418559193135
  0
ARC
  5
513
330
1F
100
AcDbEntity
  8
1
  6
Continuous
 62
     7
100
AcDbCircle
 10
195.9892106303008
 20
274.5688533431899
 30
0.0
 40
14.9999999999999
100
AcDbArc
 50
101.0894803555145
 51
134.2773181517006
  0
ARC
  5
514
330
1F
100
AcDbEntity
  8
1
  6
Continuous
 62
     7
100
AcDbCircle
 10
155.4975600051383
 20
316.0950646999916
 30
0.0
 40
42.99999999999978
100
AcDbArc
 50
95.3375568494149
 51
168.7756537807632
  0
ARC
  5
515
330
1F
100
AcDbEntity
  8
1
  6
Continuous
 62
     7
100
AcDbCircle
 10
195.9892106303008
 20
357.6212760567933
 30
0.0
 40
15.00000000000001
100
AcDbArc
 50
225.7226818483
 51
258.9105196444857
  0
ARC
  5
516
330
1F
100
AcDbEntity
  8
1
  6
Continuous
 62
     7
100
AcDbCircle
 10
155.4975600051383
 20
316.0950646999916
 30
0.0
 40
43.00000000000001
100
AcDbArc
 50
275.3375568494149
 51
345.4536691883708
  0
ARC
  5
517
330
1F
100
AcDbEntity
  8
1
  6
Continuous
 62
     7
100
AcDbCircle
 10
115.0084439888193
 20
274.5663820310571
 30
0.0
 40
15.00000000000003
100
AcDbArc
 50
45.72617887014567
 51
78.92928899411638
  0
ARC
  5
518
330
1F
100
AcDbEntity
  8
1
  6
Continuous
 62
     7
100
AcDbCircle
 10
115.0084439888193
 20
357.6237473689258
 30
0.0
 40
14.99999999999991
100
AcDbArc
 50
281.0707110058838
 51
314.2738211298551
  0
ARC
  5
519
330
1F
100
AcDbEntity
  8
1
  6
Continuous
 62
     7
100
AcDbCircle
 10
155.4975600051383
 20
316.0950646999916
 30
0.0
 40
40.5
100
AcDbArc
 50
194.2903286905223
 51
342.8501502073262
  0
ARC
  5
51A
330
1F
100
AcDbEntity
  8
1
  6
Continuous
 62
     7
100
AcDbCircle
 10
132.3524811115343
 20
330.2112949146289
 30
0.0
 40
2.739421076644616
100
AcDbArc
 50
242.7207140490448
 51
63.19768219957852
  0
ARC
  5
51B
330
1F
100
AcDbEntity
  8
1
  6
Continuous
 62
     7
100
AcDbCircle
 10
130.8753120526153
 20
331.0604196858842
 30
0.0
 40
2.738765392558899
100
AcDbArc
 50
62.89529519796199
 51
237.764958650108
  0
ARC
  5
51C
330
1F
100
AcDbEntity
  8
1
  6
Continuous
 62
     7
100
AcDbCircle
 10
132.3412166490756
 20
330.2163806108565
 30
0.0
 40
4.290715068848612
100
AcDbArc
 50
235.3210221661451
 51
64.91007180298286
  0
ARC
  5
51D
330
1F
100
AcDbEntity
  8
1
  6
Continuous
 62
     7
100
AcDbCircle
 10
130.88178286031
 20
331.0590861637851
 30
0.0
 40
4.284029741362224
100
AcDbArc
 50
64.3190034800656
 51
236.9536376728231
  0
ARC
  5
51E
330
1F
100
AcDbEntity
  8
1
  6
Continuous
 62
     7
100
AcDbCircle
 10
156.98355687174
 20
316.2071868461553
 30
0.0
 40
34.1999999999999
100
AcDbArc
 50
214.2788073663788
 51
216.8573350389547
  0
ARC
  5
51F
330
1F
100
AcDbEntity
  8
1
  6
Continuous
 62
     7
100
AcDbCircle
 10
156.98355687174
 20
316.2071868461553
 30
0.0
 40
23.93999999999986
100
AcDbArc
 50
213.7261038784971
 51
217.4100385268364
  0
ARC
  5
520
330
1F
100
AcDbEntity
  8
1
  6
Continuous
 62
     7
100
AcDbCircle
 10
156.7573415967354
 20
315.8612928024451
 30
0.0
 40
23.93999999999982
100
AcDbArc
 50
179.4405030923053
 51
183.1619593476657
  0
ARC
  5
521
330
1F
100
AcDbEntity
  8
1
  6
Continuous
 62
     7
100
AcDbCircle
 10
156.7573415967354
 20
315.8612928024451
 30
0.0
 40
34.1999999999999
100
AcDbArc
 50
177.5511927259961
 51
180.1430155076671
  0
ARC
  5
522
330
1F
100
AcDbEntity
  8
1
  6
Continuous
 62
     7
100
AcDbCircle
 10
156.9754251819856
 20
316.4090538939815
 30
0.0
 40
34.19999999999997
100
AcDbArc
 50
236.7833426845279
 51
239.374630145354
  0
ARC
  5
523
330
1F
100
AcDbEntity
  8
1
  6
Continuous
 62
     7
100
AcDbCircle
 10
156.9754251819856
 20
316.4090538939815
 30
0.0
 40
23.93999999999994
100
AcDbArc
 50
238.6721177299922
 51
242.3935739853527
  0
ARC
  5
524
330
1F
100
AcDbEntity
  8
1
  6
Continuous
 62
     7
100
AcDbCircle
 10
156.9938399574043
 20
315.7747470043009
 30
0.0
 40
34.20000000000011
100
AcDbArc
 50
118.9550243718601
 51
121.5463118326864
  0
ARC
  5
525
330
1F
100
AcDbEntity
  8
1
  6
Continuous
 62
     7
100
AcDbCircle
 10
156.9938399574043
 20
315.7747470043009
 30
0.0
 40
34.20000000000027
100
AcDbArc
 50
130.7234973641148
 51
133.3166215934858
  0
ARC
  5
526
330
1F
100
AcDbEntity
  8
1
  6
Continuous
 62
     7
100
AcDbCircle
 10
156.9938399574043
 20
315.7747470043009
 30
0.0
 40
23.94000000000016
100
AcDbArc
 50
132.7825517332648
 51
136.509457810361
  0
ARC
  5
527
330
1F
100
AcDbEntity
  8
1
  6
Continuous
 62
     7
100
AcDbCircle
 10
156.9938399574043
 20
315.7747470043009
 30
0.0
 40
23.94000000000016
100
AcDbArc
 50
115.936080531862
 51
119.6575367872225
  0
ARC
  5
528
330
1F
100
AcDbEntity
  8
1
  6
Continuous
 62
     7
100
AcDbCircle
 10
156.7573415967354
 20
315.8612928024451
 30
0.0
 40
34.19999999999981
100
AcDbArc
 50
165.7814182860413
 51
168.3745425154125
  0
ARC
  5
529
330
1F
100
AcDbEntity
  8
1
  6
Continuous
 62
     7
100
AcDbCircle
 10
157.1036226899891
 20
315.7453207670291
 30
0.0
 40
24.30511818341875
100
AcDbArc
 50
162.5719856801236
 51
166.2433226375045
  0
ARC
  5
52A
330
1F
100
AcDbEntity
  8
1
  6
Continuous
 62
     7
100
AcDbCircle
 10
156.7578821337642
 20
316.0030961951235
 30
0.0
 40
23.93999999999997
100
AcDbArc
 50
204.5846785057863
 51
208.3054520854648
  0
ARC
  5
52B
330
1F
100
AcDbEntity
  8
1
  6
Continuous
 62
     7
100
AcDbCircle
 10
156.7578821337642
 20
316.0030961951235
 30
0.0
 40
34.20000000000002
100
AcDbArc
 50
202.6953681394778
 51
205.2909727874134
  0
ARC
  5
52C
330
1F
100
AcDbEntity
  8
1
  6
Continuous
 62
     7
100
AcDbCircle
 10
156.7578821337642
 20
316.0030961951235
 30
0.0
 40
34.19999999999984
100
AcDbArc
 50
190.9293665245508
 51
193.518717928894
  0
ARC
  5
52D
330
1F
100
AcDbEntity
  8
1
  6
Continuous
 62
     7
100
AcDbCircle
 10
157.1206263668978
 20
316.0452474687899
 30
0.0
 40
24.30511818341848
100
AcDbArc
 50
187.7154620145579
 51
191.3874980509868
  0
ARC
  5
52E
330
1F
100
AcDbEntity
  8
1
  6
Continuous
 62
     7
100
AcDbCircle
 10
156.9754251819856
 20
316.4090538939815
 30
0.0
 40
34.19999999999996
100
AcDbArc
 50
225.0130329237286
 51
227.699268469437
  0
ARC
  5
52F
330
1F
100
AcDbEntity
  8
1
  6
Continuous
 62
     7
100
AcDbCircle
 10
156.9754251819856
 20
316.4090538939815
 30
0.0
 40
23.94000000000005
100
AcDbArc
 50
221.8201967068531
 51
226.9510927821497
  0
ARC
  5
530
330
1F
100
AcDbEntity
  8
1
  6
Continuous
 62
     7
100
AcDbCircle
 10
118.6714999389298
 20
321.7650646999914
 30
0.0
 40
2.699999999999875
100
AcDbArc
 50
270.0
 51
90.0
  0
ARC
  5
531
330
1F
100
AcDbEntity
  8
1
  6
Continuous
 62
     7
100
AcDbCircle
 10
118.6714999389298
 20
310.4250646999915
 30
0.0
 40
2.700000000000102
100
AcDbArc
 50
270.0
 51
90.0
  0
ARC
  5
532
330
1F
100
AcDbEntity
  8
1
  6
Continuous
 62
     7
100
AcDbCircle
 10
155.4975600051383
 20
316.0950646999916
 30
0.0
 40
34.55999999999992
100
AcDbArc
 50
171.2470709231176
 51
188.7529290768829
  0
ARC
  5
533
330
1F
100
AcDbEntity
  8
1
  6
Continuous
 62
     7
100
AcDbCircle
 10
155.4975600051383
 20
316.0950646999916
 30
0.0
 40
40.49999999999994
100
AcDbArc
 50
17.14984979267337
 51
165.7096713094782
  0
ARC
  5
534
330
1F
100
AcDbEntity
  8
1
  6
Continuous
 62
     7
100
AcDbCircle
 10
155.4975600051383
 20
316.0950646999916
 30
0.0
 40
45.90000000000006
100
AcDbArc
 50
347.4748892433578
 51
12.52511075664187
  0
ARC
  5
535
330
1F
100
AcDbEntity
  8
1
  6
Continuous
 62
     7
100
AcDbCircle
 10
155.4975600051383
 20
316.0950646999916
 30
0.0
 40
36.71999999999995
100
AcDbArc
 50
192.8515887204602
 51
167.1484112795404
  0
ARC
  5
536
330
1F
100
AcDbEntity
  8
1
  6
Continuous
 62
     7
100
AcDbCircle
 10
183.1453336951137
 20
311.3907798254239
 30
0.0
 40
2.875000000000036
100
AcDbArc
 50
299.9091388009434
 51
0.0
  0
ARC
  5
537
330
1F
100
AcDbEntity
  8
1
  6
Continuous
 62
     7
100
AcDbCircle
 10
183.1453336951137
 20
311.3907798254239
 30
0.0
 40
1.374999999999977
100
AcDbArc
 50
303.5707084127983
 51
0.0
  0
ARC
  5
538
330
1F
100
AcDbEntity
  8
1
  6
Continuous
 62
     7
100
AcDbCircle
 10
183.1453336951137
 20
313.1407798254239
 30
0.0
 40
1.375
100
AcDbArc
 50
0.0
 51
90.0
  0
ARC
  5
539
330
1F
100
AcDbEntity
  8
1
  6
Continuous
 62
     7
100
AcDbCircle
 10
182.7896203345123
 20
312.7850664648227
 30
0.0
 40
1.766890129995037
100
AcDbArc
 50
78.38573971609432
 51
168.3857397161003
  0
ARC
  5
53A
330
1F
100
AcDbEntity
  8
1
  6
Continuous
 62
     7
100
AcDbCircle
 10
182.7896203345123
 20
312.864558017825
 30
0.0
 40
3.230713360601385
100
AcDbArc
 50
0.0
 51
180.0
  0
ARC
  5
53B
330
1F
100
AcDbEntity
  8
1
  6
Continuous
 62
     7
100
AcDbCircle
 10
78.54865311084899
 20
227.1694257989294
 30
0.0
 40
37.49999999999999
100
AcDbArc
 50
318.1852326719637
 51
346.4024002872667
  0
ARC
  5
53C
330
1F
100
AcDbEntity
  8
1
  6
Continuous
 62
     7
100
AcDbCircle
 10
109.9975600051383
 20
214.8531235008329
 30
0.0
 40
3.5
100
AcDbArc
 50
180.0
 51
0.0
  0
CIRCLE
  5
53D
330
1F
100
AcDbEntity
  8
1
  6
Continuous
 62
     7
100
AcDbCircle
 10
53.54901424524638
 20
175.4431235008327
 30
0.0
 40
0.0000999999999181
  0
CIRCLE
  5
53E
330
1F
100
AcDbEntity
  8
1
  6
Continuous
 62
     7
100
AcDbCircle
 10
200.4975600051383
 20
184.4431235008327
 30
0.0
 40
1.0
  0
CIRCLE
  5
53F
330
1F
100
AcDbEntity
  8
1
  6
Continuous
 62
     2
100
AcDbCircle
 10
109.9975600051383
 20
214.8531235008329
 30
0.0
 40
1.349999999999994
  0
CIRCLE
  5
540
330
1F
100
AcDbEntity
  8
1
  6
Continuous
 62
     7
100
AcDbCircle
 10
109.9975600051383
 20
214.8531235008329
 30
0.0
 40
1.349999999999994
  0
SPLINE
  5
541
330
1F
100
AcDbEntity
  8
1
  6
Continuous
 62
     7
100
AcDbSpline
210
0.0
220
0.0
230
1.0
 70
     8
 71
     3
 72
    17
 73
    13
 74
    11
 42
0.0000000001
 43
0.0000000001
 44
0.00000001
 40
0.0
 40
0.0
 40
0.0
 40
0.0
 40
0.7659879649157971
 40
1.545150916798105
 40
2.887495720781276
 40
4.209178818978278
 40
5.341437012623185
 40
6.479474714741079
 40
7.459150790252414
 40
8.43957085244572
 40
9.160753278984057
 40
9.881187813569785
 40
9.881187813569785
 40
9.881187813569785
 40
9.881187813569785
 10
151.4269659180394
 20
145.659213137209
 30
0.0
 10
151.6507955061724
 20
145.5347251272252
 30
0.0
 10
152.1023045495923
 20
145.2836079144658
 30
0.0
 10
153.0328444992132
 20
145.0158530000087
 30
0.0
 10
154.181847960142
 20
144.879351320162
 30
0.0
 10
155.4533369584563
 20
145.0881732828398
 30
0.0
 10
156.5284254761584
 20
145.6494791777053
 30
0.0
 10
157.338702995545
 20
146.3855335634236
 30
0.0
 10
157.9255207792346
 20
147.2455274714757
 30
0.0
 10
158.2585472381004
 20
148.0815625274508
 30
0.0
 10
158.4246651088911
 20
148.8765342457868
 30
0.0
 10
158.4270731118953
 20
149.3581189273883
 30
0.0
 10
158.4282764887773
 20
149.5987863482839
 30
0.0
 11
151.4269659180394
 21
145.659213137209
 31
0.0
 11
152.1098674457715
 21
145.3122505083612
 31
0.0
 11
152.854623513487
 21
145.0832673098793
 31
0.0
 11
154.1895724869764
 21
144.9425519554929
 31
0.0
 11
155.4914196846706
 21
145.1706749177641
 31
0.0
 11
156.4984701519236
 21
145.6882248897296
 31
0.0
 11
157.3415473848935
 21
146.4526531667377
 31
0.0
 11
157.8934517360065
 21
147.2620769124679
 31
0.0
 11
158.2593272676813
 21
148.1716694551335
 31
0.0
 11
158.4005746841334
 21
148.8788845989853
 31
0.0
 11
158.4282764887773
 21
149.5987863482839
 31
0.0
  0
SPLINE
  5
542
330
1F
100
AcDbEntity
  8
1
  6
Continuous
 62
     7
100
AcDbSpline
210
0.0
220
0.0
230
1.0
 70
     8
 71
     3
 72
    13
 73
     9
 74
     7
 42
0.0000000001
 43
0.0000000001
 44
0.00000001
 40
0.0
 40
0.0
 40
0.0
 40
0.0
 40
0.1388330494064022
 40
0.2775778620494037
 40
1.097112524231267
 40
1.936567247306338
 40
2.776048840611221
 40
3.589553742412406
 40
3.589553742412406
 40
3.589553742412406
 40
3.589553742412406
 10
153.757040065968
 20
146.5845705816917
 30
0.0
 10
153.710824397675
 20
146.5872831947707
 30
0.0
 10
153.6184224339292
 20
146.5927066968997
 30
0.0
 10
153.2558605629511
 20
146.6420911352228
 30
0.0
 10
152.6800283786876
 20
146.8531140154433
 30
0.0
 10
152.0168192263465
 20
147.3684512014456
 30
0.0
 10
151.4910990867168
 20
148.0339899912219
 30
0.0
 10
151.3309613084084
 20
148.5655990864995
 30
0.0
 10
151.2521507022703
 20
148.8272265142678
 30
0.0
 11
153.757040065968
 21
146.5845705816917
 31
0.0
 11
153.6185609269163
 21
146.5944773296432
 31
0.0
 11
153.4810447033261
 21
146.6129004478599
 31
0.0
 11
152.7086204879457
 21
146.8867578815943
 31
0.0
 11
152.0397096196719
 21
147.3939486567453
 31
0.0
 11
151.5342427929613
 21
148.0641968440556
 31
0.0
 11
151.2521507022703
 21
148.8272265142678
 31
0.0
  0
SPLINE
  5
543
330
1F
100
AcDbEntity
  8
1
  6
Continuous
 62
     7
100
AcDbSpline
210
0.0
220
0.0
230
1.0
 70
     8
 71
     3
 72
     9
 73
     5
 74
     3
 42
0.0000000001
 43
0.0000000001
 44
0.00000001
 40
0.0
 40
0.0
 40
0.0
 40
0.0
 40
1.82999751983723
 40
3.623290175265665
 40
3.623290175265665
 40
3.623290175265665
 40
3.623290175265665
 10
151.4269659180394
 20
145.659213137209
 30
0.0
 10
150.9476518961209
 20
146.0610671300741
 30
0.0
 10
149.9986376118616
 20
146.8567149976016
 30
0.0
 10
149.663454042029
 20
148.0481571137913
 30
0.0
 10
149.4975600051383
 20
148.6378433638511
 30
0.0
 11
151.4269659180394
 21
145.659213137209
 31
0.0
 11
150.1456064108072
 21
146.9657385812154
 31
0.0
 11
149.4975600051383
 21
148.6378433638511
 31
0.0
  0
SPLINE
  5
544
330
1F
100
AcDbEntity
  8
1
  6
Continuous
 62
     1
100
AcDbSpline
210
0.0
220
0.0
230
1.0
 70
     8
 71
     3
 72
     9
 73
     5
 74
     3
 42
0.0000000001
 43
0.0000000001
 44
0.00000001
 40
0.0
 40
0.0
 40
0.0
 40
0.0
 40
0.0014948963535255
 40
0.0029897689622352
 40
0.0029897689622352
 40
0.0029897689622352
 40
0.0029897689622352
 10
158.4282764887773
 20
149.5987863482839
 30
0.0
 10
158.4282547701492
 20
149.5992841735437
 30
0.0
 10
158.4282113332379
 20
149.6002798161558
 30
0.0
 10
158.4281673759026
 20
149.6012754359271
 30
0.0
 10
158.4281453974095
 20
149.6017732418591
 30
0.0
 11
158.4282764887773
 21
149.5987863482839
 31
0.0
 11
158.4282112027849
 21
149.6002798183529
 31
0.0
 11
158.4281453974095
 21
149.6017732418591
 31
0.0
  0
LWPOLYLINE
  5
545
330
1F
100
AcDbEntity
  8
1
  6
Continuous
 62
     7
 60
     1
100
AcDbPolyline
 90
        2
 70
     0
 43
0.0
 10
62.42104190331639
 20
136.4431235008327
 10
48.57491027432741
 20
136.4431235008327
  0
LWPOLYLINE
  5
546
330
1F
100
AcDbEntity
  8
1
  6
Continuous
 62
     7
 60
     1
100
AcDbPolyline
 90
        2
 70
     0
 43
0.0
 10
47.99756000513827
 20
137.4431235008327
 10
47.99756000513827
 20
174.4431235008327
  0
LWPOLYLINE
  5
547
330
1F
100
AcDbEntity
  8
1
  6
Continuous
 62
     7
 60
     1
100
AcDbPolyline
 90
        2
 70
     0
 43
0.0
 10
193.4975600051383
 20
191.9431235008327
 10
193.4975600051383
 20
187.6033775386771
  0
LWPOLYLINE
  5
548
330
1F
100
AcDbEntity
  8
1
  6
Continuous
 62
     7
 60
     1
100
AcDbPolyline
 90
        5
 70
     0
 43
0.0
 10
194.4975600051383
 20
185.8713267311084
 10
194.0271153330294
 20
186.2477254939892
 10
193.5952926475153
 20
186.9858187154692
 10
193.4975600051383
 20
187.4431235008327
 10
193.4975600051383
 20
191.9431235008327
  0
LWPOLYLINE
  5
549
330
1F
100
AcDbEntity
  8
1
  6
Continuous
 62
     7
 60
     1
100
AcDbPolyline
 90
        2
 70
     0
 43
0.0
 10
117.4975600051383
 20
191.9431235008327
 10
117.4975600051383
 20
187.6033775386771
  0
ARC
  5
54A
330
1F
100
AcDbEntity
  8
1
  6
Continuous
 62
     7
100
AcDbCircle
 10
239.9545326463407
 20
137.219766492796
 30
0.0
 40
3.041873824289623
100
AcDbArc
 50
4.21087209671838
 51
90.68303721636082
  0
ARC
  5
54B
330
1F
100
AcDbEntity
  8
1
  6
Continuous
 62
     7
100
AcDbCircle
 10
195.4975600051382
 20
191.9431235008327
 30
0.0
 40
2.0
100
AcDbArc
 50
90.0
 51
180.0
  0
ARC
  5
54C
330
1F
100
AcDbEntity
  8
1
  6
Continuous
 62
     7
100
AcDbCircle
 10
201.0906183715673
 20
132.8046693203696
 30
0.0
 40
5.000000000000042
100
AcDbArc
 50
93.02693579188904
 51
154.2751389910168
  0
ARC
  5
54D
330
1F
100
AcDbEntity
  8
1
  6
Continuous
 62
     7
100
AcDbCircle
 10
200.4975600051383
 20
184.4431235008327
 30
0.0
 40
3.0
100
AcDbArc
 50
0.0
 51
90.0
  0
ARC
  5
54E
330
1F
100
AcDbEntity
  8
1
  6
Continuous
 62
     7
100
AcDbCircle
 10
115.4975600051382
 20
191.9431235008327
 30
0.0
 40
2.000000000000099
100
AcDbArc
 50
0.0
 51
90.0
  0
ARC
  5
54F
330
1F
100
AcDbEntity
  8
1
  6
Continuous
 62
     7
100
AcDbCircle
 10
199.2508913068804
 20
306.3750646999915
 30
0.0
 40
1.080000000000041
100
AcDbArc
 50
270.0
 51
347.4748892433592
  0
ARC
  5
550
330
1F
100
AcDbEntity
  8
1
  6
Continuous
 62
     7
100
AcDbCircle
 10
199.2508913068804
 20
325.8150646999914
 30
0.0
 40
1.080000000000002
100
AcDbArc
 50
12.52511075664377
 51
90.0
  0
ARC
  5
551
330
1F
100
AcDbEntity
  8
1
  6
Continuous
 62
     7
100
AcDbCircle
 10
195.7447710886408
 20
303.6750646999914
 30
0.0
 40
1.620000000000061
100
AcDbArc
 50
90.0
 51
162.8501502073283
  0
ARC
  5
552
330
1F
100
AcDbEntity
  8
1
  6
Continuous
 62
     7
100
AcDbCircle
 10
195.7447710886408
 20
328.5150646999915
 30
0.0
 40
1.620000000000096
100
AcDbArc
 50
197.1498497926735
 51
270.0
  0
ARC
  5
553
330
1F
100
AcDbEntity
  8
1
  6
Continuous
 62
     7
100
AcDbCircle
 10
108.5175600051383
 20
323.3850646999914
 30
0.0
 40
1.079999999999984
100
AcDbArc
 50
90.0
 51
180.0
  0
ARC
  5
554
330
1F
100
AcDbEntity
  8
1
  6
Continuous
 62
     7
100
AcDbCircle
 10
108.5175600051383
 20
308.8050646999915
 30
0.0
 40
1.079999999999998
100
AcDbArc
 50
180.0
 51
270.0
  0
ARC
  5
555
330
1F
100
AcDbEntity
  8
1
  6
Continuous
 62
     7
100
AcDbCircle
 10
114.1575708904808
 20
305.5650646999915
 30
0.0
 40
2.160000000000025
100
AcDbArc
 50
14.2903286905178
 51
90.0
  0
ARC
  5
556
330
1F
100
AcDbEntity
  8
1
  6
Continuous
 62
     7
100
AcDbCircle
 10
114.1575708904808
 20
326.6250646999914
 30
0.0
 40
2.160000000000025
100
AcDbArc
 50
270.0
 51
345.7096713094793
  0
ARC
  5
557
330
1F
100
AcDbEntity
  8
1
  6
Continuous
 62
     7
100
AcDbCircle
 10
112.9975600051383
 20
214.3531235008329
 30
0.0
 40
2.0
100
AcDbArc
 50
270.0
 51
0.0
  0
ARC
  5
558
330
1F
100
AcDbEntity
  8
1
  6
Continuous
 62
     7
100
AcDbCircle
 10
197.9975600051383
 20
214.3531235008329
 30
0.0
 40
2.0
100
AcDbArc
 50
180.0
 51
270.0
  0
ARC
  5
559
330
1F
100
AcDbEntity
  8
1
  6
Continuous
 62
     7
100
AcDbCircle
 10
114.4975600051383
 20
218.3531235008329
 30
0.0
 40
1.0
100
AcDbArc
 50
90.0
 51
180.0
  0
ARC
  5
55A
330
1F
100
AcDbEntity
  8
1
  6
Continuous
 62
     7
100
AcDbCircle
 10
108.4975600051383
 20
226.3531235008329
 30
0.0
 40
2.0
100
AcDbArc
 50
90.0
 51
180.0
  0
ARC
  5
55B
330
1F
100
AcDbEntity
  8
1
  6
Continuous
 62
     7
100
AcDbCircle
 10
107.4975600051383
 20
224.3531235008329
 30
0.0
 40
1.0
100
AcDbArc
 50
90.0
 51
180.0
  0
ARC
  5
55C
330
1F
100
AcDbEntity
  8
1
  6
Continuous
 62
     7
100
AcDbCircle
 10
194.9975600051381
 20
224.3531235008329
 30
0.0
 40
1.000000000000199
100
AcDbArc
 50
0.0
 51
90.0
  0
ARC
  5
55D
330
1F
100
AcDbEntity
  8
1
  6
Continuous
 62
     7
100
AcDbCircle
 10
199.9975600051381
 20
224.3531235008329
 30
0.0
 40
1.000000000000199
100
AcDbArc
 50
0.0
 51
90.0
  0
ARC
  5
55E
330
1F
100
AcDbEntity
  8
1
  6
Continuous
 62
     7
100
AcDbCircle
 10
116.4975600051383
 20
224.3531235008329
 30
0.0
 40
3.999999999999989
100
AcDbArc
 50
14.47751218592997
 51
90.0
  0
LINE
  5
55F
330
1F
100
AcDbEntity
  8
1
 62
     2
100
AcDbLine
 10
104.1464034563301
 20
151.8596327988016
 30
0.0
 11
104.6698756781596
 21
148.7982364245153
 31
0.0
  0
LINE
  5
560
330
1F
100
AcDbEntity
  8
1
 62
     2
100
AcDbLine
 10
104.1464034563301
 20
151.8596327988016
 30
0.0
 11
103.0690455114668
 21
148.9466496567013
 31
0.0
  0
LEADER
  5
561
330
1F
100
AcDbEntity
  8
1
  6
Continuous
 62
     2
100
AcDbLeader
  3
Standard
 71
     0
 76
     3
 10
104.1464034563301
 20
151.8596327988016
 30
0.0
 10
100.4461538977514
 20
111.9476180113379
 30
0.0
 10
79.53857745080126
 20
111.9476180113379
 30
0.0
  0
LINE
  5
562
330
1F
100
AcDbEntity
  8
1
 62
     2
100
AcDbLine
 10
95.62740478758536
 20
152.2769392746366
 30
0.0
 11
94.95632800657059
 21
149.2444770932561
 31
0.0
  0
LINE
  5
563
330
1F
100
AcDbEntity
  8
1
 62
     2
100
AcDbLine
 10
95.62740478758536
 20
152.2769392746366
 30
0.0
 11
93.53000415664641
 21
149.9862883800529
 31
0.0
  0
LEADER
  5
564
330
1F
100
AcDbEntity
  8
1
  6
Continuous
 62
     2
100
AcDbLeader
  3
Standard
 71
     0
 76
     3
 10
95.62740478758536
 20
152.2769392746366
 30
0.0
 10
81.28623613093106
 20
124.7023374118131
 30
0.0
 10
53.35175718400126
 20
124.7023374118131
 30
0.0
  0
LINE
  5
565
330
1F
100
AcDbEntity
  8
1
 62
     2
100
AcDbLine
 10
52.22190387957937
 20
175.4431235008327
 30
0.0
 11
52.30872190095582
 21
178.5477383817293
 31
0.0
  0
LINE
  5
566
330
1F
100
AcDbEntity
  8
1
 62
     2
100
AcDbLine
 10
52.22190387957937
 20
175.4431235008327
 30
0.0
 11
53.84939793204598
 21
178.0883898459682
 31
0.0
  0
LEADER
  5
567
330
1F
100
AcDbEntity
  8
1
  6
Continuous
 62
     2
100
AcDbLeader
  3
Standard
 71
     0
 76
     3
 10
52.22190387957937
 20
175.4431235008327
 30
0.0
 10
58.2012776745654
 20
195.4982171163991
 30
0.0
 10
98.86101948047138
 20
195.4982171163991
 30
0.0
  0
DIMENSION
  5
57B
330
1F
100
AcDbEntity
  8
1
100
AcDbDimension
  2
*D1
 10
268.609096659924
 20
155.9431235008327
 30
0.0
 11
266.309096659924
 21
138.4431235008327
 31
0.0
 70
    32
  1
<>
 71
     5
 42
-1.0
 53
90.0
  3
ME10_DIM_10
100
AcDbAlignedDimension
 13
185.4975600051383
 23
120.9431235008327
 33
0.0
 14
263.0116316009473
 24
155.9431235008327
 34
0.0
 50
90.0
100
AcDbRotatedDimension
  0
DIMENSION
  5
588
330
1F
100
AcDbEntity
  8
1
100
AcDbDimension
  2
*D3
 10
276.1841004306734
 20
228.3531235008329
 30
0.0
 11
273.5841004306734
 21
174.6481235008328
 31
0.0
 70
    32
  1
(108
 71
     5
 42
-1.0
 53
90.0
  3
ME10_DIM_11
100
AcDbAlignedDimension
 13
185.4975600051383
 23
120.9431235008327
 33
0.0
 14
116.4975600051383
 24
228.3531235008329
 34
0.0
 50
90.0
100
AcDbRotatedDimension
  0
DIMENSION
  5
595
330
1F
100
AcDbEntity
  8
1
100
AcDbDimension
  2
*D4
 10
242.9881951209511
 20
185.8573370632058
 30
0.0
 11
250.492877563042
 21
188.4573370632058
 31
0.0
 70
    32
  1
15
 71
     5
 42
-1.0
 53
0.00013888888889
  3
ME10_DIM_12
100
AcDbAlignedDimension
 13
257.9975600051331
 23
174.4431235008356
 33
0.0
 14
242.9881951209511
 24
174.4431235008327
 34
0.0
100
AcDbRotatedDimension
  0
DIMENSION
  5
5A2
330
1F
100
AcDbEntity
  8
1
100
AcDbDimension
  2
*D5
 10
47.99756000513831
 20
102.7676219171508
 30
0.0
 11
152.9975600051382
 21
105.0676219171508
 31
0.0
 70
    32
  1
<>
 71
     5
 42
-1.0
 53
0.00013888888889
  3
ME10_DIM_13
100
AcDbAlignedDimension
 13
257.9975600051382
 23
137.4431235008327
 33
0.0
 14
47.99756000513827
 24
137.4431235008327
 34
0.0
100
AcDbRotatedDimension
  0
DIMENSION
  5
5AF
330
1F
100
AcDbEntity
  8
1
100
AcDbDimension
  2
*D6
 10
276.2669431431479
 20
365.0950646999914
 30
0.0
 11
273.9669431431479
 21
316.0950646999914
 31
0.0
 70
    32
  1
98
 71
     5
 42
-1.0
 53
90.0
  3
ME10_DIM_14
100
AcDbAlignedDimension
 13
159.4975600051383
 23
267.0950646999916
 33
0.0
 14
159.4975600051383
 24
365.0950646999914
 34
0.0
 50
90.0
100
AcDbRotatedDimension
  0
ENDSEC
  0
SECTION
  2
OBJECTS
  0
DICTIONARY
  5
C
330
0
100
AcDbDictionary
281
     1
  3
ACAD_GROUP
350
D
  3
ACAD_LAYOUT
350
1A
  3
ACAD_MLEADERSTYLE
350
5B1
  3
ACAD_MLINESTYLE
350
17
  3
ACAD_PLOTSETTINGS
350
19
  3
ACAD_PLOTSTYLENAME
350
E
  3
ACAD_TABLESTYLE
350
5B0
  3
ACAD_VISUALSTYLE
350
2A
  0
DICTIONARY
  5
D
102
{ACAD_REACTORS
330
C
102
}
330
C
100
AcDbDictionary
281
     1
  0
DICTIONARY
  5
1A
102
{ACAD_REACTORS
330
C
102
}
330
C
100
AcDbDictionary
281
     1
  3
Layout1
350
1E
  3
Layout2
350
26
  3
Model
350
22
  0
DICTIONARY
  5
5B1
102
{ACAD_REACTORS
330
C
102
}
330
C
100
AcDbDictionary
281
     1
  0
DICTIONARY
  5
17
102
{ACAD_REACTORS
330
C
102
}
330
C
100
AcDbDictionary
281
     1
  3
Standard
350
18
  0
DICTIONARY
  5
19
102
{ACAD_REACTORS
330
C
102
}
330
C
100
AcDbDictionary
281
     1
  0
ACDBDICTIONARYWDFLT
  5
E
102
{ACAD_REACTORS
330
C
102
}
330
C
100
AcDbDictionary
281
     1
  3
Normal
350
F
100
AcDbDictionaryWithDefault
340
F
  0
DICTIONARY
  5
5B0
102
{ACAD_REACTORS
330
C
102
}
330
C
100
AcDbDictionary
281
     1
  0
DICTIONARY
  5
2A
102
{ACAD_REACTORS
330
C
102
}
330
C
100
AcDbDictionary
281
     1
  3
2dWireframe
350
2F
  3
3D Hidden
350
31
  3
3dWireframe
350
30
  3
Basic
350
32
  3
Brighten
350
36
  3
ColorChange
350
3A
  3
Conceptual
350
34
  3
Dim
350
35
  3
Facepattern
350
39
  3
Flat
350
2B
  3
FlatWithEdges
350
2C
  3
Gouraud
350
2D
  3
GouraudWithEdges
350
2E
  3
Linepattern
350
38
  3
Realistic
350
33
  3
Thicken
350
37
  0
LAYOUT
  5
1E
102
{ACAD_REACTORS
330
1A
102
}
330
1A
100
AcDbPlotSettings
  1

  2
none_device
  4

  6

 40
0.0
 41
0.0
 42
0.0
 43
0.0
 44
0.0
 45
0.0
 46
0.0
 47
0.0
 48
0.0
 49
0.0
140
0.0
141
0.0
142
1.0
143
1.0
 70
   688
 72
     0
 73
     0
 74
     5
  7

 75
    16
147
1.0
148
0.0
149
0.0
100
AcDbLayout
  1
Layout1
 70
     1
 71
     1
 10
0.0
 20
0.0
 11
12.0
 21
9.0
 12
0.0
 22
0.0
 32
0.0
 14
1.00000000000000E+20
 24
1.00000000000000E+20
 34
1.00000000000000E+20
 15
-1.00000000000000E+20
 25
-1.00000000000000E+20
 35
-1.00000000000000E+20
146
0.0
 13
0.0
 23
0.0
 33
0.0
 16
1.0
 26
0.0
 36
0.0
 17
0.0
 27
1.0
 37
0.0
 76
     0
330
1B
  0
LAYOUT
  5
26
102
{ACAD_REACTORS
330
1A
102
}
330
1A
100
AcDbPlotSettings
  1

  2
none_device
  4

  6

 40
0.0
 41
0.0
 42
0.0
 43
0.0
 44
0.0
 45
0.0
 46
0.0
 47
0.0
 48
0.0
 49
0.0
140
0.0
141
0.0
142
1.0
143
1.0
 70
   688
 72
     0
 73
     0
 74
     5
  7

 75
    16
147
1.0
148
0.0
149
0.0
100
AcDbLayout
  1
Layout2
 70
     1
 71
     2
 10
0.0
 20
0.0
 11
0.0
 21
0.0
 12
0.0
 22
0.0
 32
0.0
 14
0.0
 24
0.0
 34
0.0
 15
0.0
 25
0.0
 35
0.0
146
0.0
 13
0.0
 23
0.0
 33
0.0
 16
1.0
 26
0.0
 36
0.0
 17
0.0
 27
1.0
 37
0.0
 76
     0
330
23
  0
LAYOUT
  5
22
102
{ACAD_REACTORS
330
1A
102
}
330
1A
100
AcDbPlotSettings
  1

  2
none_device
  4

  6

 40
0.0
 41
0.0
 42
0.0
 43
0.0
 44
0.0
 45
0.0
 46
0.0
 47
0.0
 48
0.0
 49
0.0
140
0.0
141
0.0
142
1.0
143
1.0
 70
  1712
 72
     0
 73
     0
 74
     0
  7

 75
     0
147
1.0
148
0.0
149
0.0
100
AcDbLayout
  1
Model
 70
     1
 71
     0
 10
0.0
 20
0.0
 11
12.0
 21
9.0
 12
0.0
 22
0.0
 32
0.0
 14
36.5116316009474
 24
46.44312350083271
 34
0.0
 15
277.6841004306734
 25
367.7613556094439
 35
0.0
146
0.0
 13
0.0
 23
0.0
 33
0.0
 16
1.0
 26
0.0
 36
0.0
 17
0.0
 27
1.0
 37
0.0
 76
     0
330
1F
331
29
  0
MLINESTYLE
  5
18
102
{ACAD_REACTORS
330
17
102
}
330
17
100
AcDbMlineStyle
  2
Standard
 70
     0
  3

 62
   256
 51
90.0
 52
90.0
 71
     2
 49
0.5
 62
   256
  6
BYLAYER
 49
-0.5
 62
   256
  6
BYLAYER
  0
ACDBPLACEHOLDER
  5
F
102
{ACAD_REACTORS
330
E
102
}
330
E
  0
VISUALSTYLE
  5
2F
102
{ACAD_REACTORS
330
2A
102
}
330
2A
100
AcDbVisualStyle
  2
2dWireframe
 70
     4
 71
     0
 72
     2
 73
     0
 90
        0
 40
-0.6
 41
-30.0
 62
     5
 63
     7
 74
     1
 91
        4
 64
     7
 65
   257
 75
     1
175
     1
 42
1.0
 92
        0
 66
   257
 43
1.0
 76
     1
 77
     6
 78
     2
 67
     7
 79
     5
170
     0
171
     0
290
     0
174
     0
 93
        1
 44
0.0
173
     0
291
     0
 45
0.0
1001
ACAD
1000
AcDbSavedByObjectVersion
1070
     0
  0
VISUALSTYLE
  5
31
102
{ACAD_REACTORS
330
2A
102
}
330
2A
100
AcDbVisualStyle
  2
3D Hidden
 70
     6
 71
     1
 72
     2
 73
     2
 90
        0
 40
-0.6
 41
-30.0
 62
     5
 63
     7
 74
     2
 91
        2
 64
     7
 65
   257
 75
     2
175
     1
 42
40.0
 92
        0
 66
   257
 43
1.0
 76
     1
 77
     6
 78
     2
 67
     7
 79
     3
170
     0
171
     0
290
     0
174
     0
 93
        1
 44
0.0
173
     0
291
     0
 45
0.0
1001
ACAD
1000
AcDbSavedByObjectVersion
1070
     0
  0
VISUALSTYLE
  5
30
102
{ACAD_REACTORS
330
2A
102
}
330
2A
100
AcDbVisualStyle
  2
3dWireframe
 70
     5
 71
     0
 72
     2
 73
     0
 90
        0
 40
-0.6
 41
-30.0
 62
     5
 63
     7
 74
     1
 91
        4
 64
     7
 65
   257
 75
     1
175
     1
 42
1.0
 92
        0
 66
   257
 43
1.0
 76
     1
 77
     6
 78
     2
 67
     7
 79
     5
170
     0
171
     0
290
     0
174
     0
 93
        1
 44
0.0
173
     0
291
     0
 45
0.0
1001
ACAD
1000
AcDbSavedByObjectVersion
1070
     0
  0
VISUALSTYLE
  5
32
102
{ACAD_REACTORS
330
2A
102
}
330
2A
100
AcDbVisualStyle
  2
Basic
 70
     7
 71
     1
 72
     0
 73
     1
 90
        0
 40
-0.6
 41
-30.0
 62
     5
 63
     7
 74
     0
 91
        4
 64
     7
 65
   257
 75
     1
175
     1
 42
1.0
 92
        8
 66
     7
 43
1.0
 76
     1
 77
     6
 78
     2
 67
     7
 79
     5
170
     0
171
     0
290
     0
174
     0
 93
        1
 44
0.0
173
     0
291
     1
 45
0.0
1001
ACAD
1000
AcDbSavedByObjectVersion
1070
     0
  0
VISUALSTYLE
  5
36
102
{ACAD_REACTORS
330
2A
102
}
330
2A
100
AcDbVisualStyle
  2
Brighten
 70
    12
 71
     2
 72
     2
 73
     0
 90
        0
 40
-0.6
 41
-30.0
 62
     5
 63
     7
 74
     1
 91
        4
 64
     7
 65
   257
 75
     1
175
     1
 42
1.0
 92
        8
 66
     7
 43
1.0
 76
     1
 77
     6
 78
     2
 67
     7
 79
     5
170
     0
171
     0
290
     0
174
     0
 93
        1
 44
50.0
173
     0
291
     1
 45
0.0
1001
ACAD
1000
AcDbSavedByObjectVersion
1070
     0
  0
VISUALSTYLE
  5
3A
102
{ACAD_REACTORS
330
2A
102
}
330
2A
100
AcDbVisualStyle
  2
ColorChange
 70
    16
 71
     2
 72
     2
 73
     3
 90
        0
 40
-0.6
 41
-30.0
 62
     5
 63
     8
 74
     1
 91
        4
 64
     7
 65
   257
 75
     1
175
     1
 42
1.0
 92
        8
 66
     8
 43
1.0
 76
     1
 77
     6
 78
     2
 67
     7
 79
     5
170
     0
171
     0
290
     0
174
     0
 93
        1
 44
0.0
173
     0
291
     1
 45
0.0
1001
ACAD
1000
AcDbSavedByObjectVersion
1070
     0
  0
VISUALSTYLE
  5
34
102
{ACAD_REACTORS
330
2A
102
}
330
2A
100
AcDbVisualStyle
  2
Conceptual
 70
     9
 71
     3
 72
     2
 73
     0
 90
        0
 40
-0.6
 41
-30.0
 62
     5
 63
     7
 74
     2
 91
        2
 64
     7
 65
   257
 75
     1
175
     1
 42
40.0
 92
        8
 66
     7
 43
1.0
 76
     1
 77
     6
 78
     2
 67
     7
 79
     3
170
     0
171
     0
290
     0
174
     0
 93
        1
 44
0.0
173
     0
291
     0
 45
0.0
1001
ACAD
1000
AcDbSavedByObjectVersion
1070
     0
  0
VISUALSTYLE
  5
35
102
{ACAD_REACTORS
330
2A
102
}
330
2A
100
AcDbVisualStyle
  2
Dim
 70
    11
 71
     2
 72
     2
 73
     0
 90
        0
 40
-0.6
 41
-30.0
 62
     5
 63
     7
 74
     1
 91
        4
 64
     7
 65
   257
 75
     1
175
     1
 42
1.0
 92
        8
 66
     7
 43
1.0
 76
     1
 77
     6
 78
     2
 67
     7
 79
     5
170
     0
171
     0
290
     0
174
     0
 93
        1
 44
-50.0
173
     0
291
     1
 45
0.0
1001
ACAD
1000
AcDbSavedByObjectVersion
1070
     0
  0
VISUALSTYLE
  5
39
102
{ACAD_REACTORS
330
2A
102
}
330
2A
100
AcDbVisualStyle
  2
Facepattern
 70
    15
 71
     2
 72
     2
 73
     0
 90
        0
 40
-0.6
 41
-30.0
 62
     5
 63
     7
 74
     1
 91
        4
 64
     7
 65
   257
 75
     1
175
     1
 42
1.0
 92
        8
 66
     7
 43
1.0
 76
     1
 77
     6
 78
     2
 67
     7
 79
     5
170
     0
171
     0
290
     0
174
     0
 93
        1
 44
0.0
173
     0
291
     1
 45
0.0
1001
ACAD
1000
AcDbSavedByObjectVersion
1070
     0
  0
VISUALSTYLE
  5
2B
102
{ACAD_REACTORS
330
2A
102
}
330
2A
100
AcDbVisualStyle
  2
Flat
 70
     0
 71
     2
 72
     1
 73
     1
 90
        2
 40
-0.6
 41
30.0
 62
     5
 63
     7
 74
     0
 91
        4
 64
     7
 65
   257
 75
     1
175
     1
 42
1.0
 92
        8
 66
     7
 43
1.0
 76
     1
 77
     6
 78
     2
 67
     7
 79
     5
170
     0
171
     0
290
     0
174
     0
 93
       13
 44
0.0
173
     0
291
     1
 45
0.0
1001
ACAD
1000
AcDbSavedByObjectVersion
1070
     0
  0
VISUALSTYLE
  5
2C
102
{ACAD_REACTORS
330
2A
102
}
330
2A
100
AcDbVisualStyle
  2
FlatWithEdges
 70
     1
 71
     2
 72
     1
 73
     1
 90
        2
 40
-0.6
 41
30.0
 62
     5
 63
     7
 74
     1
 91
        4
 64
     7
 65
   257
 75
     1
175
     1
 42
1.0
 92
        0
 66
   257
 43
1.0
 76
     1
 77
     6
 78
     2
 67
     7
 79
     5
170
     0
171
     0
290
     0
174
     0
 93
       13
 44
0.0
173
     0
291
     1
 45
0.0
1001
ACAD
1000
AcDbSavedByObjectVersion
1070
     0
  0
VISUALSTYLE
  5
2D
102
{ACAD_REACTORS
330
2A
102
}
330
2A
100
AcDbVisualStyle
  2
Gouraud
 70
     2
 71
     2
 72
     2
 73
     1
 90
        2
 40
-0.6
 41
30.0
 62
     5
 63
     7
 74
     0
 91
        4
 64
     7
 65
   257
 75
     1
175
     1
 42
1.0
 92
        0
 66
     7
 43
1.0
 76
     1
 77
     6
 78
     2
 67
     7
 79
     5
170
     0
171
     0
290
     0
174
     0
 93
       13
 44
0.0
173
     0
291
     1
 45
0.0
1001
ACAD
1000
AcDbSavedByObjectVersion
1070
     0
  0
VISUALSTYLE
  5
2E
102
{ACAD_REACTORS
330
2A
102
}
330
2A
100
AcDbVisualStyle
  2
GouraudWithEdges
 70
     3
 71
     2
 72
     2
 73
     1
 90
        2
 40
-0.6
 41
30.0
 62
     5
 63
     7
 74
     1
 91
        4
 64
     7
 65
   257
 75
     1
175
     1
 42
1.0
 92
        0
 66
   257
 43
1.0
 76
     1
 77
     6
 78
     2
 67
     7
 79
     5
170
     0
171
     0
290
     0
174
     0
 93
       13
 44
0.0
173
     0
291
     1
 45
0.0
1001
ACAD
1000
AcDbSavedByObjectVersion
1070
     0
  0
VISUALSTYLE
  5
38
102
{ACAD_REACTORS
330
2A
102
}
330
2A
100
AcDbVisualStyle
  2
Linepattern
 70
    14
 71
     2
 72
     2
 73
     0
 90
        0
 40
-0.6
 41
-30.0
 62
     5
 63
     7
 74
     1
 91
        4
 64
     7
 65
   257
 75
     7
175
     7
 42
1.0
 92
        8
 66
     7
 43
1.0
 76
     1
 77
     6
 78
     2
 67
     7
 79
     5
170
     0
171
     0
290
     0
174
     0
 93
        1
 44
0.0
173
     0
291
     1
 45
0.0
1001
ACAD
1000
AcDbSavedByObjectVersion
1070
     0
  0
VISUALSTYLE
  5
33
102
{ACAD_REACTORS
330
2A
102
}
330
2A
100
AcDbVisualStyle
  2
Realistic
 70
     8
 71
     2
 72
     2
 73
     0
 90
        0
 40
-0.6
 41
-30.0
 62
     5
 63
     7
 74
     1
 91
        0
 64
     7
 65
   257
 75
     1
175
     1
 42
1.0
 92
        8
 66
     8
 43
1.0
 76
     1
 77
     6
 78
     2
 67
     7
 79
     5
170
     0
171
     0
290
     0
174
     0
 93
       13
 44
0.0
173
     0
291
     0
 45
0.0
1001
ACAD
1000
AcDbSavedByObjectVersion
1070
     0
  0
VISUALSTYLE
  5
37
102
{ACAD_REACTORS
330
2A
102
}
330
2A
100
AcDbVisualStyle
  2
Thicken
 70
    13
 71
     2
 72
     2
 73
     0
 90
        0
 40
-0.6
 41
-30.0
 62
     5
 63
     7
 74
     1
 91
        4
 64
     7
 65
   257
 75
     1
175
     1
 42
1.0
 92
       12
 66
     7
 43
1.0
 76
     1
 77
     6
 78
     2
 67
     7
 79
     5
170
     0
171
     0
290
     0
174
     0
 93
        1
 44
0.0
173
     0
291
     1
 45
0.0
1001
ACAD
1000
AcDbSavedByObjectVersion
1070
     0
  0
ENDSEC
  0
EOF
