  0
SECTION
  2
HEADER
  9
$ACADVER
  1
AC1009
  9
$INSBASE
 10
0
 20
0
  9
$EXTMIN
 10
51.56161423499778
 20
-193.9244613549224
  9
$EXTMAX
 10
318.385991165488
 20
169.9557173302233
  9
$LIMMIN
 10
51.56161423499778
 20
-193.9244613549224
  9
$LIMMAX
 10
318.385991165488
 20
169.9557173302233
  9
$VIEWCTR
 10
10
 20
10
  9
$VIEWSIZE
 40
10
  9
$SNAPMODE
 70
0
  9
$SNAPUNIT
 10
1
 20
1
  9
$SNAPBASE
 10
0
 20
0
  9
$SNAPANG
 50
0
  9
$SNAPSTYLE
 70
0
  9
$SNAPISOPAIR
 70
0
  9
$GRIDMODE
 70
0
  9
$GRIDUNIT
 10
0
 20
0
  9
$ORTHOMODE
 70
0
  9
$REGENMODE
 70
1
  9
$FILLMODE
 70
1
  9
$QTEXTMODE
 70
0
  9
$DRAGMODE
 70
2
  9
$LTSCALE
 40
1
  9
$OSMODE
 70
0
  9
$ATTMODE
 70
1
  9
$TEXTSIZE
 40
3.5
  9
$TRACEWID
 40
0.5
  9
$TEXTSTYLE
  7
STANDARD
  9
$CLAYER
  8
0
  9
$CELTYPE
  6
BYLAYER
  9
$CECOLOR
 62
256
  9
$DIMSCALE
 40
1
  9
$DIMASZ
 40
0.18
  9
$DIMEXO
 40
0.0625
  9
$DIMDLI
 40
0.38
  9
$DIMRND
 40
0
  9
$DIMDLE
 40
0
  9
$DIMEXE
 40
0.18
  9
$DIMTP
 40
0
  9
$DIMTM
 40
0
  9
$DIMTXT
 40
0.18
  9
$DIMCEN
 40
0.09
  9
$DIMTSZ
 40
0
  9
$DIMTOL
 70
0
  9
$DIMLIM
 70
0
  9
$DIMTIH
 70
1
  9
$DIMTOH
 70
1
  9
$DIMSE1
 70
0
  9
$DIMSE2
 70
0
  9
$DIMTAD
 70
0
  9
$DIMZIN
 70
0
  9
$DIMBLK
  1

  9
$DIMASO
 70
1
  9
$DIMSHO
 70
1
  9
$DIMPOST
  1

  9
$DIMAPOST
  1

  9
$DIMALT
 70
0
  9
$DIMALTD
 70
2
  9
$DIMALTF
 40
25.4
  9
$DIMLFAC
 40
1
  9
$DIMTOFL
 70
0
  9
$DIMTVP
 40
0
  9
$DIMTIX
 70
0
  9
$DIMSOXD
 70
0
  9
$DIMSAH
 70
0
  9
$DIMBLK1
  1

  9
$DIMBLK2
  1

  9
$DIMSTYLE
  2
*UNNAMED
  9
$DIMCLRD
 70
0
  9
$DIMCLRE
 70
0
  9
$DIMCLRT
 70
0
  9
$DIMTFAC
 40
1
  9
$DIMGAP
 40
0.09
  9
$LUNITS
 70
2
  9
$LUPREC
 70
4
  9
$AXISMODE
 70
0
  9
$AXISUNIT
 10
0
 20
0
  9
$SKETCHINC
 40
0.1
  9
$FILLETRAD
 40
2
  9
$AUNITS
 70
0
  9
$AUPREC
 70
0
  9
$MENU
  1
ACAD
  9
$ELEVATION
 40
0
  9
$THICKNESS
 40
0
  9
$VIEWDIR
 10
0
 20
0
 30
1
  9
$LIMCHECK
 70
0
  9
$BLIPMODE
 70
1
  9
$CHAMFERA
 40
0
  9
$CHAMFERB
 40
0
  9
$FASTZOOM
 70
1
  9
$SKPOLY
 70
0
  9
$ANGBASE
 50
0
  9
$ANGDIR
 70
0
  9
$PDMODE
 70
0
  9
$PDSIZE
 40
0
  9
$PLINEWID
 40
0
  9
$COORDS
 70
2
  0
ENDSEC
  0
SECTION
  2
TABLES
  0
TABLE
  2
DIMSTYLE
 70
2
  0
DIMSTYLE
  2
DMST_1
 70
0
  3

  4

  5

  6

  7

 40
1
 41
3.200000000000001
 42
0.4999999999999998
 43
7
 44
1.5
 45
0
 46
0
 47
0
 48
0
140
3.200000000000001
141
0
142
0
143
25.4
144
1
145
0
146
1
147
0.09
 71
0
 72
0
 73
0
 74
0
 75
0
 76
0
 77
1
 78
9
170
0
171
2
172
0
173
0
174
0
175
0
176
2
177
2
178
2
  0
DIMSTYLE
  2
DMST_2
 70
0
  3

  4

  5

  6

  7

 40
1
 41
3
 42
0.5000000000000001
 43
7
 44
1.000000000000001
 45
0
 46
0
 47
0
 48
0
140
3
141
0
142
0
143
25.4
144
1
145
0
146
1
147
0.09
 71
0
 72
0
 73
0
 74
0
 75
0
 76
0
 77
1
 78
9
170
0
171
2
172
0
173
0
174
0
175
0
176
2
177
2
178
2
  0
ENDTAB
  0
TABLE
  2
LTYPE
 70
9
  0
LTYPE
  2
CONTINUOUS
 70
64
  3
Solid line
 72
65
 73
0
 40
0
  0
LTYPE
  2
BORDER
 70
64
  3
__ __ . __ __ .
 72
65
 73
6
 40
16.75763980786855
 49
4.787897087962444
 49
-2.393948543981222
 49
4.787897087962444
 49
-2.393948543981222
 49
0
 49
-2.393948543981222
  0
LTYPE
  2
CENTER
 70
64
  3
____ _ ____ _
 72
65
 73
4
 40
19.15158835184977
 49
11.96974271990611
 49
-2.393948543981222
 49
2.393948543981222
 49
-2.393948543981222
  0
LTYPE
  2
DASHDOT
 70
64
  3
__ . __ . __ .
 72
65
 73
4
 40
9.575794175924887
 49
4.787897087962444
 49
-2.393948543981222
 49
0
 49
-2.393948543981222
  0
LTYPE
  2
DASHED
 70
64
  3
__ __ __ __ __
 72
65
 73
2
 40
7.181845631943665
 49
4.787897087962444
 49
-2.393948543981222
  0
LTYPE
  2
DIVIDE
 70
64
  3
__ . . __ . . 
 72
65
 73
6
 40
11.96974271990611
 49
4.787897087962444
 49
-2.393948543981222
 49
0
 49
-2.393948543981222
 49
0
 49
-2.393948543981222
  0
LTYPE
  2
DOT
 70
64
  3
..............
 72
65
 73
4
 40
4.787897087962444
 49
0
 49
-2.393948543981222
 49
0
 49
-2.393948543981222
  0
LTYPE
  2
HIDDEN
 70
64
  3
_ _ _ _ _ _ _
 72
65
 73
2
 40
3.590922815971833
 49
2.393948543981222
 49
-1.196974271990611
  0
LTYPE
  2
PHANTOM
 70
64
  3
_____ _ _ _____ _ _ 
 72
65
 73
6
 40
23.93948543981222
 49
11.96974271990611
 49
-2.393948543981222
 49
2.393948543981222
 49
-2.393948543981222
 49
2.393948543981222
 49
-2.393948543981222
  0
ENDTAB
  0
TABLE
  2
LAYER
 70
3
  0
LAYER
  2
1
 70
0
 62
7
  6
CONTINUOUS
  0
LAYER
  2
0
 70
0
 62
7
  6
CONTINUOUS
  0
ENDTAB
  0
TABLE
  2
STYLE
 70
4
  0
STYLE
  2
STANDARD
 70
0
 40
0
 41
1
 50
0
 71
0
 42
3.5
  3
txt
  4

  0
STYLE
  2
SIMPLEX
 70
0
 40
0
 41
1
 50
0
 71
0
 42
3.5
  3
simplex
  4

  0
STYLE
  2
COMPLEX
 70
0
 40
0
 41
1
 50
0
 71
0
 42
3.5
  3
complex
  4

  0
STYLE
  2
ITALIC
 70
0
 40
0
 41
1
 50
0
 71
0
 42
3.5
  3
italic
  4

  0
ENDTAB
  0
TABLE
  2
VIEW
 70
0
  0
ENDTAB
  0
ENDSEC
  0
SECTION
  2
BLOCKS
  0
BLOCK
  8
1
  2
*X0
 70
1
 10
0
 20
0
 30
0
  0
ENDBLK
  8
0
  0
BLOCK
  8
1
  2
*X1
 70
1
 10
0
 20
0
 30
0
  0
ENDBLK
  8
0
  0
BLOCK
  8
1
  2
*D0
 70
1
 10
0
 20
0
 30
0
  0
LINE
  8
1
 62
2
 10
283.9493152395614
 20
-30.85224506149804
 30
0
 11
303.9493152395614
 21
-30.85224506149804
 31
0
  0
LINE
  8
1
 62
2
 10
303.9493152395614
 20
-42.50224506149804
 30
0
 11
303.9493152395614
 21
-29.35224506149804
 31
0
  0
LINE
  8
1
 62
2
 10
283.9493152395614
 20
-41.00224506149804
 30
0
 11
283.9493152395614
 21
-29.35224506149804
 31
0
  0
LINE
  8
1
 62
2
 10
283.9493152395614
 20
-30.85224506149804
 30
0
 11
287.1493152395614
 21
-29.98824506149804
 31
0
  0
LINE
  8
1
 62
2
 10
283.9493152395614
 20
-30.85224506149804
 30
0
 11
287.1493152395614
 21
-31.71624506149804
 31
0
  0
LINE
  8
1
 62
2
 10
303.9493152395614
 20
-30.85224506149804
 30
0
 11
300.7493152395614
 21
-31.71624506149804
 31
0
  0
LINE
  8
1
 62
2
 10
303.9493152395614
 20
-30.85224506149804
 30
0
 11
300.7493152395614
 21
-29.98824506149804
 31
0
  0
TEXT
  8
1
 62
2
 10
291.1205965316716
 20
-29.85224506149804
 30
0
 40
3.200000000000001
  1
20
 41
0.9
 51
15
  0
ENDBLK
  8
0
  0
BLOCK
  8
1
  2
*D1
 70
1
 10
0
 20
0
 30
0
  0
LINE
  8
1
 62
2
 10
58.94931523956171
 20
-137.4474346003073
 30
0
 11
303.9493152395614
 21
-137.4474346003073
 31
0
  0
LINE
  8
1
 62
2
 10
303.9493152395614
 20
-96.50224506149803
 30
0
 11
303.9493152395614
 21
-138.4474346003073
 31
0
  0
LINE
  8
1
 62
2
 10
58.94931523956171
 20
-96.50224506149803
 30
0
 11
58.94931523956171
 21
-138.4474346003073
 31
0
  0
LINE
  8
1
 62
2
 10
58.94931523956171
 20
-137.4474346003073
 30
0
 11
61.94931523956171
 21
-136.6374346003073
 31
0
  0
LINE
  8
1
 62
2
 10
58.94931523956171
 20
-137.4474346003073
 30
0
 11
61.94931523956171
 21
-138.2574346003073
 31
0
  0
LINE
  8
1
 62
2
 10
303.9493152395614
 20
-137.4474346003073
 30
0
 11
300.9493152395614
 21
-138.2574346003073
 31
0
  0
LINE
  8
1
 62
2
 10
303.9493152395614
 20
-137.4474346003073
 30
0
 11
300.9493152395614
 21
-136.6374346003073
 31
0
  0
TEXT
  8
1
 62
2
 10
178.6320608057542
 20
-136.6474346003073
 30
0
 40
3
  1
245
 41
0.9
 51
15
  0
ENDBLK
  8
0
  0
BLOCK
  8
1
  2
*D2
 70
1
 10
0
 20
0
 30
0
  0
LINE
  8
1
 62
2
 10
317.385991165488
 20
-114.5022450614981
 30
0
 11
317.385991165488
 21
4.047754938501967
 31
0
  0
LINE
  8
1
 62
2
 10
226.4493152395617
 20
4.047754938501967
 30
0
 11
318.385991165488
 21
4.047754938501967
 31
0
  0
LINE
  8
1
 62
2
 10
217.4493152395617
 20
-114.5022450614981
 30
0
 11
318.385991165488
 21
-114.5022450614981
 31
0
  0
LINE
  8
1
 62
2
 10
317.385991165488
 20
4.047754938501967
 30
0
 11
318.195991165488
 21
1.047754938501967
 31
0
  0
LINE
  8
1
 62
2
 10
317.385991165488
 20
4.047754938501967
 30
0
 11
316.575991165488
 21
1.047754938501967
 31
0
  0
LINE
  8
1
 62
2
 10
317.385991165488
 20
-114.5022450614981
 30
0
 11
316.575991165488
 21
-111.5022450614981
 31
0
  0
LINE
  8
1
 62
2
 10
317.385991165488
 20
-114.5022450614981
 30
0
 11
318.195991165488
 21
-111.5022450614981
 31
0
  0
TEXT
  8
1
 62
2
 10
316.585991165488
 20
-58.32916885014474
 30
0
 40
3
  1
118
 50
90
 41
0.9
 51
15
  0
ENDBLK
  8
0
  0
BLOCK
  8
1
  2
*D3
 70
1
 10
0
 20
0
 30
0
  0
LINE
  8
1
 62
2
 10
317.385991165488
 20
57.26685425448918
 30
0
 11
317.385991165488
 21
165.2668542544891
 31
0
  0
LINE
  8
1
 62
2
 10
184.9493152395617
 20
165.2668542544891
 30
0
 11
318.385991165488
 21
165.2668542544891
 31
0
  0
LINE
  8
1
 62
2
 10
184.9493152395617
 20
57.26685425448918
 30
0
 11
318.385991165488
 21
57.26685425448918
 31
0
  0
LINE
  8
1
 62
2
 10
317.385991165488
 20
165.2668542544891
 30
0
 11
318.195991165488
 21
162.2668542544891
 31
0
  0
LINE
  8
1
 62
2
 10
317.385991165488
 20
165.2668542544891
 30
0
 11
316.575991165488
 21
162.2668542544891
 31
0
  0
LINE
  8
1
 62
2
 10
317.385991165488
 20
57.26685425448918
 30
0
 11
316.575991165488
 21
60.26685425448918
 31
0
  0
LINE
  8
1
 62
2
 10
317.385991165488
 20
57.26685425448918
 30
0
 11
318.195991165488
 21
60.26685425448918
 31
0
  0
TEXT
  8
1
 62
2
 10
316.585991165488
 20
107.7149304658425
 30
0
 40
3
  1
108
 50
90
 41
0.9
 51
15
  0
ENDBLK
  8
0
  0
BLOCK
  8
1
  2
*D4
 70
1
 10
0
 20
0
 30
0
  0
LINE
  8
1
 62
2
 10
254.664567427737
 20
-114.5022450614981
 30
0
 11
254.664567427737
 21
-69.50124916074461
 31
0
  0
LINE
  8
1
 62
2
 10
259.3189341558783
 20
-69.50124916074461
 30
0
 11
253.664567427737
 21
-69.50124916074461
 31
0
  0
LINE
  8
1
 62
2
 10
217.4493152395617
 20
-114.5022450614981
 30
0
 11
255.664567427737
 21
-114.5022450614981
 31
0
  0
LINE
  8
1
 62
2
 10
254.664567427737
 20
-114.5022450614981
 30
0
 11
253.854567427737
 21
-111.5022450614981
 31
0
  0
LINE
  8
1
 62
2
 10
254.664567427737
 20
-114.5022450614981
 30
0
 11
255.474567427737
 21
-111.5022450614981
 31
0
  0
LINE
  8
1
 62
2
 10
254.664567427737
 20
-69.50124916074461
 30
0
 11
255.474567427737
 21
-72.50124916074461
 31
0
  0
LINE
  8
1
 62
2
 10
254.664567427737
 20
-69.50124916074461
 30
0
 11
253.854567427737
 21
-72.50124916074461
 31
0
  0
TEXT
  8
1
 62
2
 10
253.864567427737
 20
-104.6627236217201
 30
0
 40
3.000000000000001
  1
45
 50
90
 41
0.9
 51
15
  0
ENDBLK
  8
0
  0
ENDSEC
  0
SECTION
  2
ENTITIES
  0
INSERT
  8
1
  2
*X0
 10
0
 20
0
 30
0
  0
INSERT
  8
1
  2
*X1
 10
0
 20
0
 30
0
  0
LINE
  8
1
 62
2
 10
245.8743152395617
 20
-166.1119613549224
 30
0
 11
246.3743152395617
 21
-166.9557113549224
 31
0
  0
LINE
  8
1
 62
2
 10
245.1243152395617
 20
-165.2682113549224
 30
0
 11
245.8743152395617
 21
-166.1119613549224
 31
0
  0
LINE
  8
1
 62
2
 10
244.1243152395617
 20
-164.4244613549224
 30
0
 11
245.1243152395617
 21
-165.2682113549224
 31
0
  0
LINE
  8
1
 62
2
 10
243.6243152395617
 20
-163.2994613549224
 30
0
 11
242.8743152395617
 21
-161.8932113549224
 31
0
  0
LINE
  8
1
 62
2
 10
244.8743152395617
 20
-163.0182113549224
 30
0
 11
244.3743152395617
 21
-161.6119613549224
 31
0
  0
LINE
  8
1
 62
2
 10
246.3743152395617
 20
-163.5807113549224
 30
0
 11
247.1243152395617
 21
-161.8932113549224
 31
0
  0
LINE
  8
1
 62
2
 10
244.8743152395617
 20
-165.8307113549224
 30
0
 11
246.3743152395617
 21
-163.5807113549224
 31
0
  0
LINE
  8
1
 62
2
 10
244.1243152395617
 20
-166.6744613549224
 30
0
 11
244.8743152395617
 21
-165.8307113549224
 31
0
  0
LINE
  8
1
 62
2
 10
242.8743152395617
 20
-167.5182113549224
 30
0
 11
244.1243152395617
 21
-166.6744613549224
 31
0
  0
LINE
  8
1
 62
2
 10
241.6243152395617
 20
-160.4869613549224
 30
0
 11
241.6243152395617
 21
-168.6432113549224
 31
0
  0
LINE
  8
1
 62
2
 10
248.1243152395617
 20
-160.4869613549224
 30
0
 11
241.6243152395617
 21
-160.4869613549224
 31
0
  0
LINE
  8
1
 62
2
 10
248.1243152395617
 20
-168.6432113549224
 30
0
 11
248.1243152395617
 21
-160.4869613549224
 31
0
  0
LINE
  8
1
 62
2
 10
241.6243152395617
 20
-168.6432113549224
 30
0
 11
248.1243152395617
 21
-168.6432113549224
 31
0
  0
LINE
  8
1
 62
2
 10
237.8743152395617
 20
-166.3932113549224
 30
0
 11
239.3743152395617
 21
-168.9244613549224
 31
0
  0
LINE
  8
1
 62
2
 10
234.3743152395617
 20
-168.6432113549224
 30
0
 11
238.6243152395617
 21
-167.7994613549224
 31
0
  0
LINE
  8
1
 62
2
 10
236.6243152395617
 20
-164.7057113549224
 30
0
 11
235.3743152395617
 21
-168.3619613549224
 31
0
  0
LINE
  8
1
 62
2
 10
233.8743152395617
 20
-164.7057113549224
 30
0
 11
239.6243152395617
 21
-164.7057113549224
 31
0
  0
LINE
  8
1
 62
2
 10
236.8743152395617
 20
-160.2057113549224
 30
0
 11
236.8743152395617
 21
-164.7057113549224
 31
0
  0
LINE
  8
1
 62
2
 10
234.6243152395617
 20
-162.4557113549224
 30
0
 11
239.3743152395617
 21
-162.4557113549224
 31
0
  0
LINE
  8
1
 62
2
 10
232.6243152395617
 20
-160.4869613549224
 30
0
 11
233.3743152395617
 21
-161.6119613549224
 31
0
  0
LINE
  8
1
 62
2
 10
232.6243152395617
 20
-163.8619613549224
 30
0
 11
231.8743152395617
 21
-163.0182113549224
 31
0
  0
LINE
  8
1
 62
2
 10
232.1243152395617
 20
-168.9244613549224
 30
0
 11
233.3743152395617
 21
-165.2682113549224
 31
0
  0
LINE
  8
1
 62
2
 10
226.3743152395617
 20
-165.5494613549224
 30
0
 11
225.3743152395617
 21
-164.1432113549224
 31
0
  0
LINE
  8
1
 62
2
 10
228.3743152395617
 20
-168.6432113549224
 30
0
 11
227.1243152395617
 21
-168.6432113549224
 31
0
  0
LINE
  8
1
 62
2
 10
228.3743152395617
 20
-160.4869613549224
 30
0
 11
228.3743152395617
 21
-168.6432113549224
 31
0
  0
LINE
  8
1
 62
2
 10
223.6243152395617
 20
-162.7369613549224
 30
0
 11
230.3743152395617
 21
-162.7369613549224
 31
0
  0
LINE
  8
1
 62
2
 10
221.6243152395617
 20
-168.9244613549224
 30
0
 11
221.8743152395617
 21
-168.3619613549224
 31
0
  0
LINE
  8
1
 62
2
 10
220.6243152395617
 20
-168.9244613549224
 30
0
 11
221.6243152395617
 21
-168.9244613549224
 31
0
  0
LINE
  8
1
 62
2
 10
219.8743152395617
 20
-168.3619613549224
 30
0
 11
220.6243152395617
 21
-168.9244613549224
 31
0
  0
LINE
  8
1
 62
2
 10
219.8743152395617
 20
-165.8307113549224
 30
0
 11
219.8743152395617
 21
-168.3619613549224
 31
0
  0
LINE
  8
1
 62
2
 10
218.3743152395617
 20
-168.0807113549224
 30
0
 11
217.6243152395617
 21
-168.9244613549224
 31
0
  0
LINE
  8
1
 62
2
 10
218.8743152395617
 20
-166.6744613549224
 30
0
 11
218.3743152395617
 21
-168.0807113549224
 31
0
  0
LINE
  8
1
 62
2
 10
219.1243152395617
 20
-165.8307113549224
 30
0
 11
218.8743152395617
 21
-166.6744613549224
 31
0
  0
LINE
  8
1
 62
2
 10
220.8743152395617
 20
-164.1432113549224
 30
0
 11
218.3743152395617
 21
-164.1432113549224
 31
0
  0
LINE
  8
1
 62
2
 10
218.3743152395617
 20
-162.4557113549224
 30
0
 11
220.8743152395617
 21
-162.4557113549224
 31
0
  0
LINE
  8
1
 62
2
 10
220.8743152395617
 20
-160.7682113549224
 30
0
 11
218.3743152395617
 21
-160.7682113549224
 31
0
  0
LINE
  8
1
 62
2
 10
220.8743152395617
 20
-165.8307113549224
 30
0
 11
220.8743152395617
 21
-160.7682113549224
 31
0
  0
LINE
  8
1
 62
2
 10
218.3743152395617
 20
-165.8307113549224
 30
0
 11
220.8743152395617
 21
-165.8307113549224
 31
0
  0
LINE
  8
1
 62
2
 10
218.3743152395617
 20
-160.7682113549224
 30
0
 11
218.3743152395617
 21
-165.8307113549224
 31
0
  0
LINE
  8
1
 62
2
 10
214.8743152395617
 20
-161.3307113549224
 30
0
 11
215.3743152395617
 21
-160.2057113549224
 31
0
  0
LINE
  8
1
 62
2
 10
214.1243152395617
 20
-162.1744613549224
 30
0
 11
214.8743152395617
 21
-161.3307113549224
 31
0
  0
LINE
  8
1
 62
2
 10
217.6243152395617
 20
-161.3307113549224
 30
0
 11
215.1243152395617
 21
-161.3307113549224
 31
0
  0
LINE
  8
1
 62
2
 10
215.1243152395617
 20
-163.8619613549224
 30
0
 11
216.1243152395617
 21
-161.3307113549224
 31
0
  0
LINE
  8
1
 62
2
 10
213.8743152395617
 20
-165.5494613549224
 30
0
 11
215.1243152395617
 21
-163.8619613549224
 31
0
  0
LINE
  8
1
 62
2
 10
217.8743152395617
 20
-162.7369613549224
 30
0
 11
214.1243152395617
 21
-162.7369613549224
 31
0
  0
LINE
  8
1
 62
2
 10
216.3743152395617
 20
-164.1432113549224
 30
0
 11
216.6243152395617
 21
-163.5807113549224
 31
0
  0
LINE
  8
1
 62
2
 10
216.3743152395617
 20
-168.3619613549224
 30
0
 11
216.3743152395617
 21
-164.1432113549224
 31
0
  0
LINE
  8
1
 62
2
 10
217.6243152395617
 20
-168.3619613549224
 30
0
 11
214.8743152395617
 21
-168.3619613549224
 31
0
  0
LINE
  8
1
 62
2
 10
214.8743152395617
 20
-166.9557113549224
 30
0
 11
217.6243152395617
 21
-166.9557113549224
 31
0
  0
LINE
  8
1
 62
2
 10
217.6243152395617
 20
-165.5494613549224
 30
0
 11
214.8743152395617
 21
-165.5494613549224
 31
0
  0
LINE
  8
1
 62
2
 10
214.8743152395617
 20
-164.1432113549224
 30
0
 11
217.6243152395617
 21
-164.1432113549224
 31
0
  0
LINE
  8
1
 62
2
 10
214.8743152395617
 20
-168.9244613549224
 30
0
 11
214.8743152395617
 21
-164.1432113549224
 31
0
  0
LINE
  8
1
 62
2
 10
211.6243152395617
 20
-164.1432113549224
 30
0
 11
212.8743152395617
 21
-165.5494613549224
 31
0
  0
LINE
  8
1
 62
2
 10
209.6243152395617
 20
-162.1744613549224
 30
0
 11
211.6243152395617
 21
-164.1432113549224
 31
0
  0
LINE
  8
1
 62
2
 10
210.1243152395617
 20
-159.9244613549224
 30
0
 11
210.1243152395617
 21
-168.9244613549224
 31
0
  0
LINE
  8
1
 62
2
 10
205.8743152395617
 20
-163.5807113549224
 30
0
 11
207.6243152395617
 21
-164.9869613549224
 31
0
  0
LINE
  8
1
 62
2
 10
205.8743152395617
 20
-163.2994613549224
 30
0
 11
204.8743152395617
 21
-164.7057113549224
 31
0
  0
LINE
  8
1
 62
2
 10
206.6243152395617
 20
-161.6119613549224
 30
0
 11
205.8743152395617
 21
-163.2994613549224
 31
0
  0
LINE
  8
1
 62
2
 10
207.1243152395617
 20
-159.9244613549224
 30
0
 11
206.6243152395617
 21
-161.6119613549224
 31
0
  0
LINE
  8
1
 62
2
 10
208.8743152395617
 20
-161.8932113549224
 30
0
 11
206.6243152395617
 21
-161.8932113549224
 31
0
  0
LINE
  8
1
 62
2
 10
208.3743152395617
 20
-163.5807113549224
 30
0
 11
208.8743152395617
 21
-161.8932113549224
 31
0
  0
LINE
  8
1
 62
2
 10
207.8743152395617
 20
-164.7057113549224
 30
0
 11
208.3743152395617
 21
-163.5807113549224
 31
0
  0
LINE
  8
1
 62
2
 10
206.8743152395617
 20
-166.3932113549224
 30
0
 11
207.8743152395617
 21
-164.7057113549224
 31
0
  0
LINE
  8
1
 62
2
 10
205.3743152395617
 20
-168.3619613549224
 30
0
 11
206.8743152395617
 21
-166.3932113549224
 31
0
  0
LINE
  8
1
 62
2
 10
190.0243152395617
 20
-162.6244613549224
 30
0
 11
190.0243152395617
 21
-168.9244613549224
 31
0
  0
LINE
  8
1
 62
2
 10
193.1743152395617
 20
-163.7494613549224
 30
0
 11
193.1743152395617
 21
-168.9244613549224
 31
0
  0
LINE
  8
1
 62
2
 10
192.9493152395617
 20
-163.2994613549224
 30
0
 11
193.1743152395617
 21
-163.7494613549224
 31
0
  0
LINE
  8
1
 62
2
 10
192.4993152395617
 20
-162.8494613549224
 30
0
 11
192.9493152395617
 21
-163.2994613549224
 31
0
  0
LINE
  8
1
 62
2
 10
191.8243152395617
 20
-162.6244613549224
 30
0
 11
192.4993152395617
 21
-162.8494613549224
 31
0
  0
LINE
  8
1
 62
2
 10
186.8743152395617
 20
-162.6244613549224
 30
0
 11
191.8243152395617
 21
-162.6244613549224
 31
0
  0
LINE
  8
1
 62
2
 10
186.8743152395617
 20
-168.9244613549224
 30
0
 11
186.8743152395617
 21
-162.6244613549224
 31
0
  0
LINE
  8
1
 62
2
 10
181.0243152395617
 20
-162.6244613549224
 30
0
 11
181.0243152395617
 21
-168.9244613549224
 31
0
  0
LINE
  8
1
 62
2
 10
184.1743152395617
 20
-163.7494613549224
 30
0
 11
184.1743152395617
 21
-168.9244613549224
 31
0
  0
LINE
  8
1
 62
2
 10
183.9493152395617
 20
-163.2994613549224
 30
0
 11
184.1743152395617
 21
-163.7494613549224
 31
0
  0
LINE
  8
1
 62
2
 10
183.4993152395617
 20
-162.8494613549224
 30
0
 11
183.9493152395617
 21
-163.2994613549224
 31
0
  0
LINE
  8
1
 62
2
 10
182.8243152395617
 20
-162.6244613549224
 30
0
 11
183.4993152395617
 21
-162.8494613549224
 31
0
  0
LINE
  8
1
 62
2
 10
177.8743152395617
 20
-162.6244613549224
 30
0
 11
182.8243152395617
 21
-162.6244613549224
 31
0
  0
LINE
  8
1
 62
2
 10
177.8743152395617
 20
-168.9244613549224
 30
0
 11
177.8743152395617
 21
-162.6244613549224
 31
0
  0
LINE
  8
1
 62
2
 10
175.1743152395617
 20
-163.2994613549224
 30
0
 11
175.1743152395617
 21
-165.5494613549224
 31
0
  0
LINE
  8
1
 62
2
 10
174.9493152395617
 20
-161.9494613549224
 30
0
 11
175.1743152395617
 21
-163.2994613549224
 31
0
  0
LINE
  8
1
 62
2
 10
174.4993152395617
 20
-161.0494613549224
 30
0
 11
174.9493152395617
 21
-161.9494613549224
 31
0
  0
LINE
  8
1
 62
2
 10
174.0493152395617
 20
-160.5994613549224
 30
0
 11
174.4993152395617
 21
-161.0494613549224
 31
0
  0
LINE
  8
1
 62
2
 10
173.3743152395617
 20
-160.1494613549224
 30
0
 11
174.0493152395617
 21
-160.5994613549224
 31
0
  0
LINE
  8
1
 62
2
 10
172.6993152395617
 20
-159.9244613549224
 30
0
 11
173.3743152395617
 21
-160.1494613549224
 31
0
  0
LINE
  8
1
 62
2
 10
172.2493152395617
 20
-159.9244613549224
 30
0
 11
172.6993152395617
 21
-159.9244613549224
 31
0
  0
LINE
  8
1
 62
2
 10
171.5743152395617
 20
-160.1494613549224
 30
0
 11
172.2493152395617
 21
-159.9244613549224
 31
0
  0
LINE
  8
1
 62
2
 10
170.8993152395617
 20
-160.5994613549224
 30
0
 11
171.5743152395617
 21
-160.1494613549224
 31
0
  0
LINE
  8
1
 62
2
 10
170.4493152395617
 20
-161.0494613549224
 30
0
 11
170.8993152395617
 21
-160.5994613549224
 31
0
  0
LINE
  8
1
 62
2
 10
169.9993152395617
 20
-161.9494613549224
 30
0
 11
170.4493152395617
 21
-161.0494613549224
 31
0
  0
LINE
  8
1
 62
2
 10
169.7743152395617
 20
-163.2994613549224
 30
0
 11
169.9993152395617
 21
-161.9494613549224
 31
0
  0
LINE
  8
1
 62
2
 10
169.7743152395617
 20
-165.5494613549224
 30
0
 11
169.7743152395617
 21
-163.2994613549224
 31
0
  0
LINE
  8
1
 62
2
 10
169.9993152395617
 20
-166.8994613549224
 30
0
 11
169.7743152395617
 21
-165.5494613549224
 31
0
  0
LINE
  8
1
 62
2
 10
170.4493152395617
 20
-167.7994613549224
 30
0
 11
169.9993152395617
 21
-166.8994613549224
 31
0
  0
LINE
  8
1
 62
2
 10
170.8993152395617
 20
-168.2494613549224
 30
0
 11
170.4493152395617
 21
-167.7994613549224
 31
0
  0
LINE
  8
1
 62
2
 10
171.5743152395617
 20
-168.6994613549224
 30
0
 11
170.8993152395617
 21
-168.2494613549224
 31
0
  0
LINE
  8
1
 62
2
 10
172.2493152395617
 20
-168.9244613549224
 30
0
 11
171.5743152395617
 21
-168.6994613549224
 31
0
  0
LINE
  8
1
 62
2
 10
172.6993152395617
 20
-168.9244613549224
 30
0
 11
172.2493152395617
 21
-168.9244613549224
 31
0
  0
LINE
  8
1
 62
2
 10
173.3743152395617
 20
-168.6994613549224
 30
0
 11
172.6993152395617
 21
-168.9244613549224
 31
0
  0
LINE
  8
1
 62
2
 10
174.0493152395617
 20
-168.2494613549224
 30
0
 11
173.3743152395617
 21
-168.6994613549224
 31
0
  0
LINE
  8
1
 62
2
 10
174.4993152395617
 20
-167.7994613549224
 30
0
 11
174.0493152395617
 21
-168.2494613549224
 31
0
  0
LINE
  8
1
 62
2
 10
174.9493152395617
 20
-166.8994613549224
 30
0
 11
174.4993152395617
 21
-167.7994613549224
 31
0
  0
LINE
  8
1
 62
2
 10
175.1743152395617
 20
-165.5494613549224
 30
0
 11
174.9493152395617
 21
-166.8994613549224
 31
0
  0
LINE
  8
1
 62
2
 10
165.7243152395617
 20
-165.3244613549224
 30
0
 11
165.7243152395617
 21
-168.9244613549224
 31
0
  0
LINE
  8
1
 62
2
 10
161.6743152395617
 20
-167.1244613549224
 30
0
 11
167.0743152395617
 21
-167.1244613549224
 31
0
  0
LINE
  8
1
 62
2
 10
165.7243152395617
 20
-159.9244613549224
 30
0
 11
161.6743152395617
 21
-167.1244613549224
 31
0
  0
LINE
  8
1
 62
2
 10
156.9243152395617
 20
-165.2682113549224
 30
0
 11
156.9243152395617
 21
-168.6432113549224
 31
0
  0
LINE
  8
1
 62
2
 10
159.9243152395617
 20
-165.2682113549224
 30
0
 11
159.1743152395617
 21
-165.2682113549224
 31
0
  0
LINE
  8
1
 62
2
 10
159.9243152395617
 20
-160.2057113549224
 30
0
 11
159.9243152395617
 21
-165.2682113549224
 31
0
  0
LINE
  8
1
 62
2
 10
158.1743152395617
 20
-164.1432113549224
 30
0
 11
158.1743152395617
 21
-160.4869613549224
 31
0
  0
LINE
  8
1
 62
2
 10
155.6743152395617
 20
-160.4869613549224
 30
0
 11
155.6743152395617
 21
-165.2682113549224
 31
0
  0
LINE
  8
1
 62
2
 10
152.9243152395617
 20
-162.4557113549224
 30
0
 11
157.1743152395617
 21
-162.4557113549224
 31
0
  0
LINE
  8
1
 62
2
 10
156.9243152395617
 20
-160.4869613549224
 30
0
 11
153.1743152395617
 21
-160.4869613549224
 31
0
  0
LINE
  8
1
 62
2
 10
154.4243152395617
 20
-162.4557113549224
 30
0
 11
154.4243152395617
 21
-160.4869613549224
 31
0
  0
LINE
  8
1
 62
2
 10
153.9243152395617
 20
-164.4244613549224
 30
0
 11
154.4243152395617
 21
-162.4557113549224
 31
0
  0
LINE
  8
1
 62
2
 10
153.1743152395617
 20
-165.5494613549224
 30
0
 11
153.9243152395617
 21
-164.4244613549224
 31
0
  0
LINE
  8
1
 62
2
 10
159.4243152395617
 20
-166.6744613549224
 30
0
 11
153.9243152395617
 21
-166.6744613549224
 31
0
  0
LINE
  8
1
 62
2
 10
153.1743152395617
 20
-168.6432113549224
 30
0
 11
160.4243152395617
 21
-168.6432113549224
 31
0
  0
LINE
  8
1
 62
2
 10
146.3743152395617
 20
-159.9244613549224
 30
0
 11
149.9743152395617
 21
-168.9244613549224
 31
0
  0
LINE
  8
1
 62
2
 10
142.7743152395617
 20
-168.9244613549224
 30
0
 11
146.3743152395617
 21
-159.9244613549224
 31
0
  0
LINE
  8
1
 62
2
 10
143.8993152395617
 20
-166.2244613549224
 30
0
 11
148.8493152395617
 21
-166.2244613549224
 31
0
  0
LINE
  8
1
 62
2
 10
139.8493152395617
 20
-161.7244613549224
 30
0
 11
140.0743152395617
 21
-162.6244613549224
 31
0
  0
LINE
  8
1
 62
2
 10
139.3993152395617
 20
-161.0494613549224
 30
0
 11
139.8493152395617
 21
-161.7244613549224
 31
0
  0
LINE
  8
1
 62
2
 10
138.9493152395617
 20
-160.5994613549224
 30
0
 11
139.3993152395617
 21
-161.0494613549224
 31
0
  0
LINE
  8
1
 62
2
 10
138.2743152395617
 20
-160.1494613549224
 30
0
 11
138.9493152395617
 21
-160.5994613549224
 31
0
  0
LINE
  8
1
 62
2
 10
137.3743152395617
 20
-159.9244613549224
 30
0
 11
138.2743152395617
 21
-160.1494613549224
 31
0
  0
LINE
  8
1
 62
2
 10
133.7743152395617
 20
-159.9244613549224
 30
0
 11
137.3743152395617
 21
-159.9244613549224
 31
0
  0
LINE
  8
1
 62
2
 10
133.7743152395617
 20
-168.9244613549224
 30
0
 11
133.7743152395617
 21
-159.9244613549224
 31
0
  0
LINE
  8
1
 62
2
 10
137.3743152395617
 20
-168.9244613549224
 30
0
 11
133.7743152395617
 21
-168.9244613549224
 31
0
  0
LINE
  8
1
 62
2
 10
138.2743152395617
 20
-168.6994613549224
 30
0
 11
137.3743152395617
 21
-168.9244613549224
 31
0
  0
LINE
  8
1
 62
2
 10
138.9493152395617
 20
-168.2494613549224
 30
0
 11
138.2743152395617
 21
-168.6994613549224
 31
0
  0
LINE
  8
1
 62
2
 10
139.3993152395617
 20
-167.7994613549224
 30
0
 11
138.9493152395617
 21
-168.2494613549224
 31
0
  0
LINE
  8
1
 62
2
 10
139.8493152395617
 20
-167.1244613549224
 30
0
 11
139.3993152395617
 21
-167.7994613549224
 31
0
  0
LINE
  8
1
 62
2
 10
140.0743152395617
 20
-166.2244613549224
 30
0
 11
139.8493152395617
 21
-167.1244613549224
 31
0
  0
LINE
  8
1
 62
2
 10
140.0743152395617
 20
-162.6244613549224
 30
0
 11
140.0743152395617
 21
-166.2244613549224
 31
0
  0
LINE
  8
1
 62
2
 10
124.7743152395617
 20
-168.9244613549224
 30
0
 11
124.7743152395617
 21
-159.9244613549224
 31
0
  0
LINE
  8
1
 62
2
 10
126.5743152395617
 20
-164.4244613549224
 30
0
 11
131.0743152395617
 21
-168.9244613549224
 31
0
  0
LINE
  8
1
 62
2
 10
131.0743152395617
 20
-159.9244613549224
 30
0
 11
124.7743152395617
 21
-166.2244613549224
 31
0
  0
LINE
  8
1
 62
2
 10
122.0743152395617
 20
-168.9244613549224
 30
0
 11
122.0743152395617
 21
-159.9244613549224
 31
0
  0
LINE
  8
1
 62
2
 10
115.7743152395617
 20
-159.9244613549224
 30
0
 11
122.0743152395617
 21
-168.9244613549224
 31
0
  0
LINE
  8
1
 62
2
 10
115.7743152395617
 20
-168.9244613549224
 30
0
 11
115.7743152395617
 21
-159.9244613549224
 31
0
  0
LINE
  8
1
 62
2
 10
221.6993152395617
 20
-193.3619613549224
 30
0
 11
226.4493152395617
 21
-193.3619613549224
 31
0
  0
LINE
  8
1
 62
2
 10
224.1993152395617
 20
-185.2057113549224
 30
0
 11
224.1993152395617
 21
-193.3619613549224
 31
0
  0
LINE
  8
1
 62
2
 10
222.4493152395617
 20
-188.5807113549224
 30
0
 11
225.9493152395617
 21
-188.5807113549224
 31
0
  0
LINE
  8
1
 62
2
 10
220.9493152395617
 20
-188.8619613549224
 30
0
 11
222.1993152395617
 21
-190.2682113549224
 31
0
  0
LINE
  8
1
 62
2
 10
220.4493152395617
 20
-186.8932113549224
 30
0
 11
220.4493152395617
 21
-185.2057113549224
 31
0
  0
LINE
  8
1
 62
2
 10
221.6993152395617
 20
-186.8932113549224
 30
0
 11
218.9493152395617
 21
-186.8932113549224
 31
0
  0
LINE
  8
1
 62
2
 10
220.6993152395617
 20
-188.2994613549224
 30
0
 11
221.6993152395617
 21
-186.8932113549224
 31
0
  0
LINE
  8
1
 62
2
 10
219.4493152395617
 20
-189.7057113549224
 30
0
 11
220.6993152395617
 21
-188.2994613549224
 31
0
  0
LINE
  8
1
 62
2
 10
218.4493152395617
 20
-190.5494613549224
 30
0
 11
219.4493152395617
 21
-189.7057113549224
 31
0
  0
LINE
  8
1
 62
2
 10
220.4493152395617
 20
-193.6432113549224
 30
0
 11
220.4493152395617
 21
-188.5807113549224
 31
0
  0
LINE
  8
1
 62
2
 10
213.4493152395617
 20
-190.5494613549224
 30
0
 11
210.9493152395617
 21
-193.6432113549224
 31
0
  0
LINE
  8
1
 62
2
 10
216.4493152395617
 20
-193.9244613549224
 30
0
 11
214.6993152395617
 21
-191.9557113549224
 31
0
  0
LINE
  8
1
 62
2
 10
210.1993152395617
 20
-193.6432113549224
 30
0
 11
215.6993152395617
 21
-193.0807113549224
 31
0
  0
LINE
  8
1
 62
2
 10
210.6993152395617
 20
-190.2682113549224
 30
0
 11
216.4493152395617
 21
-190.2682113549224
 31
0
  0
LINE
  8
1
 62
2
 10
211.6993152395617
 20
-188.8619613549224
 30
0
 11
215.1993152395617
 21
-188.8619613549224
 31
0
  0
LINE
  8
1
 62
2
 10
213.4493152395617
 20
-185.2057113549224
 30
0
 11
217.4493152395617
 21
-189.4244613549224
 31
0
  0
LINE
  8
1
 62
2
 10
213.4493152395617
 20
-185.2057113549224
 30
0
 11
209.4493152395617
 21
-189.4244613549224
 31
0
  0
LINE
  8
1
 62
2
 10
207.6993152395617
 20
-193.6432113549224
 30
0
 11
208.4493152395617
 21
-192.7994613549224
 31
0
  0
LINE
  8
1
 62
2
 10
206.6993152395617
 20
-192.5182113549224
 30
0
 11
207.6993152395617
 21
-193.6432113549224
 31
0
  0
LINE
  8
1
 62
2
 10
205.6993152395617
 20
-190.5494613549224
 30
0
 11
206.6993152395617
 21
-192.5182113549224
 31
0
  0
LINE
  8
1
 62
2
 10
205.1993152395617
 20
-188.2994613549224
 30
0
 11
205.6993152395617
 21
-190.5494613549224
 31
0
  0
LINE
  8
1
 62
2
 10
204.9493152395617
 20
-184.9244613549224
 30
0
 11
205.1993152395617
 21
-188.2994613549224
 31
0
  0
LINE
  8
1
 62
2
 10
206.4493152395617
 20
-186.0494613549224
 30
0
 11
205.6993152395617
 21
-185.2057113549224
 31
0
  0
LINE
  8
1
 62
2
 10
200.4493152395617
 20
-186.8932113549224
 30
0
 11
207.6993152395617
 21
-186.8932113549224
 31
0
  0
LINE
  8
1
 62
2
 10
202.6993152395617
 20
-189.1432113549224
 30
0
 11
202.6993152395617
 21
-192.2369613549224
 31
0
  0
LINE
  8
1
 62
2
 10
204.4493152395617
 20
-189.1432113549224
 30
0
 11
200.9493152395617
 21
-189.1432113549224
 31
0
  0
LINE
  8
1
 62
2
 10
200.9493152395617
 20
-192.7994613549224
 30
0
 11
204.4493152395617
 21
-191.6744613549224
 31
0
  0
LINE
  8
1
 62
2
 10
198.1993152395617
 20
-191.6744613549224
 30
0
 11
199.1993152395617
 21
-193.6432113549224
 31
0
  0
LINE
  8
1
 62
2
 10
196.9493152395617
 20
-189.1432113549224
 30
0
 11
198.1993152395617
 21
-191.6744613549224
 31
0
  0
LINE
  8
1
 62
2
 10
196.1993152395617
 20
-191.1119613549224
 30
0
 11
196.9493152395617
 21
-189.1432113549224
 31
0
  0
LINE
  8
1
 62
2
 10
195.1993152395617
 20
-192.5182113549224
 30
0
 11
196.1993152395617
 21
-191.1119613549224
 31
0
  0
LINE
  8
1
 62
2
 10
194.4493152395617
 20
-193.6432113549224
 30
0
 11
195.1993152395617
 21
-192.5182113549224
 31
0
  0
LINE
  8
1
 62
2
 10
196.9493152395617
 20
-184.9244613549224
 30
0
 11
196.9493152395617
 21
-193.9244613549224
 31
0
  0
LINE
  8
1
 62
2
 10
199.1993152395617
 20
-189.1432113549224
 30
0
 11
194.9493152395617
 21
-189.1432113549224
 31
0
  0
LINE
  8
1
 62
2
 10
195.6993152395617
 20
-187.1744613549224
 30
0
 11
198.9493152395617
 21
-187.1744613549224
 31
0
  0
LINE
  8
1
 62
2
 10
195.6993152395617
 20
-187.1744613549224
 30
0
 11
195.9493152395617
 21
-185.7682113549224
 31
0
  0
LINE
  8
1
 62
2
 10
194.9493152395617
 20
-188.5807113549224
 30
0
 11
195.6993152395617
 21
-187.1744613549224
 31
0
  0
LINE
  8
1
 62
2
 10
193.1993152395617
 20
-187.4557113549224
 30
0
 11
194.4493152395617
 21
-189.7057113549224
 31
0
  0
LINE
  8
1
 62
2
 10
191.6993152395617
 20
-191.3932113549224
 30
0
 11
193.1993152395617
 21
-187.4557113549224
 31
0
  0
LINE
  8
1
 62
2
 10
194.4493152395617
 20
-187.4557113549224
 30
0
 11
191.9493152395617
 21
-187.4557113549224
 31
0
  0
LINE
  8
1
 62
2
 10
193.1993152395617
 20
-193.6432113549224
 30
0
 11
193.1993152395617
 21
-184.9244613549224
 31
0
  0
LINE
  8
1
 62
2
 10
187.1993152395617
 20
-186.8932113549224
 30
0
 11
189.6993152395617
 21
-186.8932113549224
 31
0
  0
LINE
  8
1
 62
2
 10
187.1993152395617
 20
-188.2994613549224
 30
0
 11
189.6993152395617
 21
-188.2994613549224
 31
0
  0
LINE
  8
1
 62
2
 10
187.1993152395617
 20
-185.4869613549224
 30
0
 11
187.1993152395617
 21
-188.2994613549224
 31
0
  0
LINE
  8
1
 62
2
 10
189.6993152395617
 20
-185.4869613549224
 30
0
 11
187.1993152395617
 21
-185.4869613549224
 31
0
  0
LINE
  8
1
 62
2
 10
189.6993152395617
 20
-193.3619613549224
 30
0
 11
189.6993152395617
 21
-185.4869613549224
 31
0
  0
LINE
  8
1
 62
2
 10
189.4493152395617
 20
-193.6432113549224
 30
0
 11
189.6993152395617
 21
-193.3619613549224
 31
0
  0
LINE
  8
1
 62
2
 10
188.6993152395617
 20
-193.6432113549224
 30
0
 11
189.4493152395617
 21
-193.6432113549224
 31
0
  0
LINE
  8
1
 62
2
 10
185.6993152395617
 20
-186.8932113549224
 30
0
 11
183.1993152395617
 21
-186.8932113549224
 31
0
  0
LINE
  8
1
 62
2
 10
185.6993152395617
 20
-188.2994613549224
 30
0
 11
183.1993152395617
 21
-188.2994613549224
 31
0
  0
LINE
  8
1
 62
2
 10
185.6993152395617
 20
-185.4869613549224
 30
0
 11
185.6993152395617
 21
-188.2994613549224
 31
0
  0
LINE
  8
1
 62
2
 10
183.1993152395617
 20
-185.4869613549224
 30
0
 11
185.6993152395617
 21
-185.4869613549224
 31
0
  0
LINE
  8
1
 62
2
 10
183.1993152395617
 20
-193.6432113549224
 30
0
 11
183.1993152395617
 21
-185.4869613549224
 31
0
  0
LINE
  8
1
 62
2
 10
180.4493152395617
 20
-188.5807113549224
 30
0
 11
181.4493152395617
 21
-189.4244613549224
 31
0
  0
LINE
  8
1
 62
2
 10
178.6993152395617
 20
-186.6119613549224
 30
0
 11
180.4493152395617
 21
-188.5807113549224
 31
0
  0
LINE
  8
1
 62
2
 10
177.4493152395617
 20
-184.9244613549224
 30
0
 11
178.6993152395617
 21
-186.6119613549224
 31
0
  0
LINE
  8
1
 62
2
 10
176.1993152395617
 20
-186.6119613549224
 30
0
 11
177.4493152395617
 21
-184.9244613549224
 31
0
  0
LINE
  8
1
 62
2
 10
174.4493152395617
 20
-188.5807113549224
 30
0
 11
176.1993152395617
 21
-186.6119613549224
 31
0
  0
LINE
  8
1
 62
2
 10
173.4493152395617
 20
-189.4244613549224
 30
0
 11
174.4493152395617
 21
-188.5807113549224
 31
0
  0
LINE
  8
1
 62
2
 10
178.6993152395617
 20
-192.5182113549224
 30
0
 11
179.1993152395617
 21
-191.1119613549224
 31
0
  0
LINE
  8
1
 62
2
 10
175.6993152395617
 20
-191.1119613549224
 30
0
 11
176.1993152395617
 21
-192.5182113549224
 31
0
  0
LINE
  8
1
 62
2
 10
179.9493152395617
 20
-189.9869613549224
 30
0
 11
174.9493152395617
 21
-189.9869613549224
 31
0
  0
LINE
  8
1
 62
2
 10
175.6993152395617
 20
-188.2994613549224
 30
0
 11
179.1993152395617
 21
-188.2994613549224
 31
0
  0
LINE
  8
1
 62
2
 10
177.4493152395617
 20
-193.6432113549224
 30
0
 11
177.4493152395617
 21
-188.2994613549224
 31
0
  0
LINE
  8
1
 62
2
 10
174.1993152395617
 20
-193.6432113549224
 30
0
 11
180.4493152395617
 21
-193.6432113549224
 31
0
  0
LINE
  8
1
 62
2
 10
170.6993152395617
 20
-191.1119613549224
 30
0
 11
171.9493152395617
 21
-189.4244613549224
 31
0
  0
LINE
  8
1
 62
2
 10
168.6993152395617
 20
-192.2369613549224
 30
0
 11
170.6993152395617
 21
-191.1119613549224
 31
0
  0
LINE
  8
1
 62
2
 10
168.6993152395617
 20
-187.1744613549224
 30
0
 11
168.6993152395617
 21
-192.2369613549224
 31
0
  0
LINE
  8
1
 62
2
 10
166.6993152395617
 20
-189.4244613549224
 30
0
 11
166.9493152395617
 21
-187.1744613549224
 31
0
  0
LINE
  8
1
 62
2
 10
166.1993152395617
 20
-191.1119613549224
 30
0
 11
166.6993152395617
 21
-189.4244613549224
 31
0
  0
LINE
  8
1
 62
2
 10
165.4493152395617
 20
-192.5182113549224
 30
0
 11
166.1993152395617
 21
-191.1119613549224
 31
0
  0
LINE
  8
1
 62
2
 10
159.6993152395617
 20
-193.0807113549224
 30
0
 11
161.1993152395617
 21
-192.7994613549224
 31
0
  0
LINE
  8
1
 62
2
 10
157.1993152395617
 20
-192.7994613549224
 30
0
 11
159.6993152395617
 21
-193.0807113549224
 31
0
  0
LINE
  8
1
 62
2
 10
156.9493152395617
 20
-191.9557113549224
 30
0
 11
157.1993152395617
 21
-192.7994613549224
 31
0
  0
LINE
  8
1
 62
2
 10
156.9493152395617
 20
-187.1744613549224
 30
0
 11
156.9493152395617
 21
-191.9557113549224
 31
0
  0
LINE
  8
1
 62
2
 10
161.6993152395617
 20
-186.6119613549224
 30
0
 11
162.4493152395617
 21
-187.4557113549224
 31
0
  0
LINE
  8
1
 62
2
 10
161.9493152395617
 20
-188.0182113549224
 30
0
 11
161.1993152395617
 21
-187.1744613549224
 31
0
  0
LINE
  8
1
 62
2
 10
159.1993152395617
 20
-189.4244613549224
 30
0
 11
160.6993152395617
 21
-188.5807113549224
 31
0
  0
LINE
  8
1
 62
2
 10
156.9493152395617
 20
-190.2682113549224
 30
0
 11
159.1993152395617
 21
-189.4244613549224
 31
0
  0
LINE
  8
1
 62
2
 10
151.4493152395617
 20
-191.1119613549224
 30
0
 11
152.9493152395617
 21
-192.7994613549224
 31
0
  0
LINE
  8
1
 62
2
 10
150.1993152395617
 20
-189.9869613549224
 30
0
 11
151.4493152395617
 21
-191.1119613549224
 31
0
  0
LINE
  8
1
 62
2
 10
153.1993152395617
 20
-186.0494613549224
 30
0
 11
153.9493152395617
 21
-186.8932113549224
 31
0
  0
LINE
  8
1
 62
2
 10
152.6993152395617
 20
-186.6119613549224
 30
0
 11
153.4493152395617
 21
-187.4557113549224
 31
0
  0
LINE
  8
1
 62
2
 10
151.6993152395617
 20
-187.1744613549224
 30
0
 11
148.4493152395617
 21
-187.1744613549224
 31
0
  0
LINE
  8
1
 62
2
 10
150.9493152395617
 20
-188.8619613549224
 30
0
 11
151.6993152395617
 21
-187.1744613549224
 31
0
  0
LINE
  8
1
 62
2
 10
149.1993152395617
 20
-191.3932113549224
 30
0
 11
150.9493152395617
 21
-188.8619613549224
 31
0
  0
LINE
  8
1
 62
2
 10
147.4493152395617
 20
-192.7994613549224
 30
0
 11
149.1993152395617
 21
-191.3932113549224
 31
0
  0
LINE
  8
1
 62
2
 10
144.4493152395617
 20
-187.4557113549224
 30
0
 11
142.1993152395617
 21
-189.9869613549224
 31
0
  0
LINE
  8
1
 62
2
 10
138.6993152395617
 20
-187.4557113549224
 30
0
 11
144.4493152395617
 21
-187.4557113549224
 31
0
  0
LINE
  8
1
 62
2
 10
141.4493152395617
 20
-189.9869613549224
 30
0
 11
141.6993152395617
 21
-188.5807113549224
 31
0
  0
LINE
  8
1
 62
2
 10
140.9493152395617
 20
-191.6744613549224
 30
0
 11
141.4493152395617
 21
-189.9869613549224
 31
0
  0
LINE
  8
1
 62
2
 10
139.9493152395617
 20
-193.3619613549224
 30
0
 11
140.9493152395617
 21
-191.6744613549224
 31
0
  0
LINE
  8
1
 62
7
 10
210.6048629653698
 20
99.01729165879192
 30
0
 11
205.9415504653698
 21
99.01729165879192
 31
0
  0
LINE
  8
1
 62
7
 10
210.6048629653698
 20
95.54723853379193
 30
0
 11
210.6048629653698
 21
99.01729165879192
 31
0
  0
LINE
  8
1
 62
7
 10
205.9415504653698
 20
99.01729165879192
 30
0
 11
210.6048629653698
 21
95.54723853379193
 31
0
  0
LINE
  8
1
 62
7
 10
210.4677067153698
 20
93.88764790879192
 30
0
 11
203.4727379653698
 21
99.01729165879192
 31
0
  0
LINE
  8
1
 62
7
 10
211.9764254653698
 20
93.88764790879192
 30
0
 11
210.4677067153698
 21
93.88764790879192
 31
0
  0
LINE
  8
1
 62
7
 10
211.9764254653698
 20
99.01729165879192
 30
0
 11
211.9764254653698
 21
93.88764790879192
 31
0
  0
LINE
  8
1
 62
7
 10
214.4452379653698
 20
99.01729165879192
 30
0
 11
211.9764254653698
 21
99.01729165879192
 31
0
  0
LINE
  8
1
 62
7
 10
214.4452379653698
 20
100.6768822837919
 30
0
 11
214.4452379653698
 21
99.01729165879192
 31
0
  0
LINE
  8
1
 62
7
 10
211.9764254653698
 20
100.6768822837919
 30
0
 11
214.4452379653698
 21
100.6768822837919
 31
0
  0
LINE
  8
1
 62
7
 10
211.9764254653698
 20
102.1856010337919
 30
0
 11
211.9764254653698
 21
100.6768822837919
 31
0
  0
LINE
  8
1
 62
7
 10
210.6048629653698
 20
102.1856010337919
 30
0
 11
211.9764254653698
 21
102.1856010337919
 31
0
  0
LINE
  8
1
 62
7
 10
210.6048629653698
 20
100.6768822837919
 30
0
 11
210.6048629653698
 21
102.1856010337919
 31
0
  0
LINE
  8
1
 62
7
 10
203.4727379653698
 20
100.6768822837919
 30
0
 11
210.6048629653698
 21
100.6768822837919
 31
0
  0
LINE
  8
1
 62
7
 10
203.4727379653698
 20
99.01729165879192
 30
0
 11
203.4727379653698
 21
100.6768822837919
 31
0
  0
LINE
  8
1
 62
2
 10
90.62897893639557
 20
-119.0564741108942
 30
0
 11
90.13397893639557
 21
-120.0464741108942
 31
0
  0
LINE
  8
1
 62
2
 10
90.87647893639557
 20
-118.0664741108942
 30
0
 11
90.62897893639557
 21
-119.0564741108942
 31
0
  0
LINE
  8
1
 62
2
 10
90.87647893639557
 20
-117.0764741108942
 30
0
 11
90.87647893639557
 21
-118.0664741108942
 31
0
  0
LINE
  8
1
 62
2
 10
90.62897893639557
 20
-116.0864741108942
 30
0
 11
90.87647893639557
 21
-117.0764741108942
 31
0
  0
LINE
  8
1
 62
2
 10
90.13397893639557
 20
-115.0964741108942
 30
0
 11
90.62897893639557
 21
-116.0864741108942
 31
0
  0
LINE
  8
1
 62
2
 10
88.75897893639557
 20
-119.8917866108942
 30
0
 11
88.34647893639556
 21
-119.8917866108942
 31
0
  0
LINE
  8
1
 62
2
 10
88.89647893639557
 20
-119.5824116108942
 30
0
 11
88.75897893639557
 21
-119.8917866108942
 31
0
  0
LINE
  8
1
 62
2
 10
88.89647893639557
 20
-116.9527241108942
 30
0
 11
88.89647893639557
 21
-119.5824116108942
 31
0
  0
LINE
  8
1
 62
2
 10
87.93397893639556
 20
-116.9527241108942
 30
0
 11
89.58397893639557
 21
-116.9527241108942
 31
0
  0
LINE
  8
1
 62
2
 10
88.07147893639557
 20
-115.7152241108942
 30
0
 11
89.30897893639556
 21
-115.7152241108942
 31
0
  0
LINE
  8
1
 62
2
 10
87.38397893639557
 20
-117.4167866108942
 30
0
 11
87.38397893639557
 21
-119.8917866108942
 31
0
  0
LINE
  8
1
 62
2
 10
87.10897893639556
 20
-117.8808491108942
 30
0
 11
86.69647893639557
 21
-118.3449116108942
 31
0
  0
LINE
  8
1
 62
2
 10
87.93397893639556
 20
-116.3339741108942
 30
0
 11
87.10897893639556
 21
-117.8808491108942
 31
0
  0
LINE
  8
1
 62
2
 10
87.65897893639556
 20
-115.4058491108942
 30
0
 11
86.97147893639556
 21
-116.4886616108942
 31
0
  0
LINE
  8
1
 62
2
 10
86.14647893639557
 20
-116.4886616108942
 30
0
 11
86.69647893639557
 21
-117.7261616108942
 31
0
  0
LINE
  8
1
 62
2
 10
85.45897893639557
 20
-118.1902241108942
 30
0
 11
85.32147893639557
 21
-118.4995991108942
 31
0
  0
LINE
  8
1
 62
2
 10
85.73397893639556
 20
-117.7261616108942
 30
0
 11
85.45897893639557
 21
-118.1902241108942
 31
0
  0
LINE
  8
1
 62
2
 10
86.14647893639557
 20
-116.4886616108942
 30
0
 11
85.73397893639556
 21
-117.7261616108942
 31
0
  0
LINE
  8
1
 62
2
 10
86.14647893639557
 20
-115.2511616108942
 30
0
 11
86.14647893639557
 21
-119.8917866108942
 31
0
  0
LINE
  8
1
 62
2
 10
85.45897893639557
 20
-116.4886616108942
 30
0
 11
86.83397893639557
 21
-116.4886616108942
 31
0
  0
LINE
  8
1
 62
2
 10
80.64647893639557
 20
-120.0464741108942
 30
0
 11
84.22147893639557
 21
-120.0464741108942
 31
0
  0
LINE
  8
1
 62
2
 10
80.78397893639557
 20
-119.1183491108942
 30
0
 11
80.64647893639557
 21
-120.0464741108942
 31
0
  0
LINE
  8
1
 62
2
 10
80.92147893639557
 20
-118.8089741108942
 30
0
 11
80.78397893639557
 21
-119.1183491108942
 31
0
  0
LINE
  8
1
 62
2
 10
81.33397893639557
 20
-118.4995991108942
 30
0
 11
80.92147893639557
 21
-118.8089741108942
 31
0
  0
LINE
  8
1
 62
2
 10
83.53397893639557
 20
-118.1902241108942
 30
0
 11
81.33397893639557
 21
-118.4995991108942
 31
0
  0
LINE
  8
1
 62
2
 10
84.08397893639557
 20
-117.8808491108942
 30
0
 11
83.53397893639557
 21
-118.1902241108942
 31
0
  0
LINE
  8
1
 62
2
 10
84.22147893639557
 20
-117.5714741108942
 30
0
 11
84.08397893639557
 21
-117.8808491108942
 31
0
  0
LINE
  8
1
 62
2
 10
84.22147893639557
 20
-116.7980366108942
 30
0
 11
84.22147893639557
 21
-117.5714741108942
 31
0
  0
LINE
  8
1
 62
2
 10
84.08397893639557
 20
-116.4886616108942
 30
0
 11
84.22147893639557
 21
-116.7980366108942
 31
0
  0
LINE
  8
1
 62
2
 10
83.53397893639557
 20
-116.1792866108942
 30
0
 11
84.08397893639557
 21
-116.4886616108942
 31
0
  0
LINE
  8
1
 62
2
 10
82.98397893639557
 20
-116.0245991108942
 30
0
 11
83.53397893639557
 21
-116.1792866108942
 31
0
  0
LINE
  8
1
 62
2
 10
82.02147893639557
 20
-116.0245991108942
 30
0
 11
82.98397893639557
 21
-116.0245991108942
 31
0
  0
LINE
  8
1
 62
2
 10
81.47147893639557
 20
-116.1792866108942
 30
0
 11
82.02147893639557
 21
-116.0245991108942
 31
0
  0
LINE
  8
1
 62
2
 10
80.92147893639557
 20
-116.4886616108942
 30
0
 11
81.47147893639557
 21
-116.1792866108942
 31
0
  0
LINE
  8
1
 62
2
 10
80.78397893639557
 20
-116.7980366108942
 30
0
 11
80.92147893639557
 21
-116.4886616108942
 31
0
  0
LINE
  8
1
 62
2
 10
78.17147893639557
 20
-116.7980366108942
 30
0
 11
78.99647893639558
 21
-117.7261616108942
 31
0
  0
LINE
  8
1
 62
2
 10
79.54647893639557
 20
-115.7152241108942
 30
0
 11
75.42147893639557
 21
-115.7152241108942
 31
0
  0
LINE
  8
1
 62
2
 10
77.48397893639557
 20
-120.0464741108942
 30
0
 11
77.48397893639557
 21
-115.7152241108942
 31
0
  0
LINE
  8
1
 62
2
 10
71.70897893639557
 20
-119.1183491108942
 30
0
 11
73.90897893639557
 21
-119.1183491108942
 31
0
  0
LINE
  8
1
 62
2
 10
73.90897893639557
 20
-119.8917866108942
 30
0
 11
73.90897893639557
 21
-118.3449116108942
 31
0
  0
LINE
  8
1
 62
2
 10
71.70897893639557
 20
-119.8917866108942
 30
0
 11
73.90897893639557
 21
-119.8917866108942
 31
0
  0
LINE
  8
1
 62
2
 10
71.70897893639557
 20
-118.3449116108942
 30
0
 11
71.70897893639557
 21
-119.8917866108942
 31
0
  0
LINE
  8
1
 62
2
 10
73.90897893639557
 20
-118.3449116108942
 30
0
 11
71.70897893639557
 21
-118.3449116108942
 31
0
  0
LINE
  8
1
 62
2
 10
74.04647893639557
 20
-116.9527241108942
 30
0
 11
74.73397893639557
 21
-117.7261616108942
 31
0
  0
LINE
  8
1
 62
2
 10
73.63397893639557
 20
-116.3339741108942
 30
0
 11
74.04647893639557
 21
-116.9527241108942
 31
0
  0
LINE
  8
1
 62
2
 10
73.63397893639557
 20
-115.5605366108942
 30
0
 11
73.63397893639557
 21
-117.8808491108942
 31
0
  0
LINE
  8
1
 62
2
 10
72.94647893639557
 20
-117.4167866108942
 30
0
 11
73.63397893639557
 21
-116.3339741108942
 31
0
  0
LINE
  8
1
 62
2
 10
72.53397893639557
 20
-117.7261616108942
 30
0
 11
72.94647893639557
 21
-117.4167866108942
 31
0
  0
LINE
  8
1
 62
2
 10
72.12147893639556
 20
-116.7980366108942
 30
0
 11
72.53397893639557
 21
-117.2620991108942
 31
0
  0
LINE
  8
1
 62
2
 10
71.43397893639556
 20
-117.1074116108942
 30
0
 11
71.84647893639557
 21
-116.3339741108942
 31
0
  0
LINE
  8
1
 62
2
 10
71.02147893639557
 20
-117.5714741108942
 30
0
 11
71.43397893639556
 21
-117.1074116108942
 31
0
  0
LINE
  8
1
 62
2
 10
71.84647893639557
 20
-115.5605366108942
 30
0
 11
71.84647893639557
 21
-117.8808491108942
 31
0
  0
LINE
  8
1
 62
2
 10
72.53397893639557
 20
-116.3339741108942
 30
0
 11
71.15897893639557
 21
-116.3339741108942
 31
0
  0
LINE
  8
1
 62
2
 10
74.45897893639557
 20
-116.3339741108942
 30
0
 11
72.80897893639556
 21
-116.3339741108942
 31
0
  0
LINE
  8
1
 62
2
 10
70.60897893639557
 20
-115.2511616108942
 30
0
 11
74.45897893639557
 21
-115.2511616108942
 31
0
  0
LINE
  8
1
 62
2
 10
70.60897893639557
 20
-117.8808491108942
 30
0
 11
70.60897893639557
 21
-115.2511616108942
 31
0
  0
LINE
  8
1
 62
2
 10
70.47147893639557
 20
-119.2730366108942
 30
0
 11
70.60897893639557
 21
-117.8808491108942
 31
0
  0
LINE
  8
1
 62
2
 10
70.33397893639557
 20
-119.7370991108942
 30
0
 11
70.47147893639557
 21
-119.2730366108942
 31
0
  0
LINE
  8
1
 62
2
 10
68.82147893639558
 20
-118.3449116108942
 30
0
 11
68.95897893639558
 21
-118.0355366108942
 31
0
  0
LINE
  8
1
 62
2
 10
68.13397893639558
 20
-118.3449116108942
 30
0
 11
68.82147893639558
 21
-118.3449116108942
 31
0
  0
LINE
  8
1
 62
2
 10
67.99647893639558
 20
-118.0355366108942
 30
0
 11
68.13397893639558
 21
-118.3449116108942
 31
0
  0
LINE
  8
1
 62
2
 10
67.99647893639558
 20
-115.5605366108942
 30
0
 11
67.99647893639558
 21
-118.0355366108942
 31
0
  0
LINE
  8
1
 62
2
 10
65.52147893639558
 20
-115.5605366108942
 30
0
 11
69.64647893639558
 21
-115.5605366108942
 31
0
  0
LINE
  8
1
 62
2
 10
67.03397893639558
 20
-117.2620991108942
 30
0
 11
67.03397893639558
 21
-115.5605366108942
 31
0
  0
LINE
  8
1
 62
2
 10
66.62147893639558
 20
-118.1902241108942
 30
0
 11
67.03397893639558
 21
-117.2620991108942
 31
0
  0
LINE
  8
1
 62
2
 10
66.20897893639558
 20
-118.6542866108942
 30
0
 11
66.62147893639558
 21
-118.1902241108942
 31
0
  0
LINE
  8
1
 62
2
 10
69.23397893639557
 20
-119.7370991108942
 30
0
 11
65.93397893639558
 21
-119.7370991108942
 31
0
  0
LINE
  8
1
 62
2
 10
69.23397893639557
 20
-116.7980366108942
 30
0
 11
69.23397893639557
 21
-119.7370991108942
 31
0
  0
LINE
  8
1
 62
2
 10
65.93397893639558
 20
-116.7980366108942
 30
0
 11
69.23397893639557
 21
-116.7980366108942
 31
0
  0
LINE
  8
1
 62
2
 10
65.93397893639558
 20
-119.7370991108942
 30
0
 11
65.93397893639558
 21
-116.7980366108942
 31
0
  0
LINE
  8
1
 62
2
 10
63.40397893639558
 20
-119.0564741108942
 30
0
 11
63.89897893639557
 21
-120.0464741108942
 31
0
  0
LINE
  8
1
 62
2
 10
63.15647893639557
 20
-118.0664741108942
 30
0
 11
63.40397893639558
 21
-119.0564741108942
 31
0
  0
LINE
  8
1
 62
2
 10
63.15647893639557
 20
-117.0764741108942
 30
0
 11
63.15647893639557
 21
-118.0664741108942
 31
0
  0
LINE
  8
1
 62
2
 10
63.40397893639558
 20
-116.0864741108942
 30
0
 11
63.15647893639557
 21
-117.0764741108942
 31
0
  0
LINE
  8
1
 62
2
 10
63.89897893639557
 20
-115.0964741108942
 30
0
 11
63.40397893639558
 21
-116.0864741108942
 31
0
  0
LINE
  8
1
 62
7
 10
199.3152152395617
 20
-67.95924449818475
 30
0
 11
198.9513902395617
 21
-68.34905699818475
 31
0
  0
LINE
  8
1
 62
7
 10
199.7699964895617
 20
-67.69936949818475
 30
0
 11
199.3152152395617
 21
-67.95924449818475
 31
0
  0
LINE
  8
1
 62
7
 10
200.1338214895617
 20
-67.69936949818475
 30
0
 11
199.7699964895617
 21
-67.69936949818475
 31
0
  0
LINE
  8
1
 62
7
 10
200.7705152395617
 20
-67.95924449818475
 30
0
 11
200.1338214895617
 21
-67.69936949818475
 31
0
  0
LINE
  8
1
 62
7
 10
201.3162527395617
 20
-68.47899449818475
 30
0
 11
200.7705152395617
 21
-67.95924449818475
 31
0
  0
LINE
  8
1
 62
7
 10
201.5891214895617
 20
-68.99874449818475
 30
0
 11
201.3162527395617
 21
-68.47899449818475
 31
0
  0
LINE
  8
1
 62
7
 10
201.8619902395617
 20
-69.77836949818476
 30
0
 11
201.5891214895617
 21
-68.99874449818475
 31
0
  0
LINE
  8
1
 62
7
 10
201.9529464895617
 20
-70.81786949818475
 30
0
 11
201.8619902395617
 21
-69.77836949818476
 31
0
  0
LINE
  8
1
 62
7
 10
201.9529464895617
 20
-75.49561949818475
 30
0
 11
201.9529464895617
 21
-70.81786949818475
 31
0
  0
LINE
  8
1
 62
7
 10
200.9524277395617
 20
-75.49561949818475
 30
0
 11
201.9529464895617
 21
-75.49561949818475
 31
0
  0
LINE
  8
1
 62
7
 10
200.9524277395617
 20
-70.68793199818475
 30
0
 11
200.9524277395617
 21
-75.49561949818475
 31
0
  0
LINE
  8
1
 62
7
 10
200.8614714895617
 20
-70.16818199818475
 30
0
 11
200.9524277395617
 21
-70.68793199818475
 31
0
  0
LINE
  8
1
 62
7
 10
200.5886027395617
 20
-69.51849449818475
 30
0
 11
200.8614714895617
 21
-70.16818199818475
 31
0
  0
LINE
  8
1
 62
7
 10
200.3157339895617
 20
-69.12868199818475
 30
0
 11
200.5886027395617
 21
-69.51849449818475
 31
0
  0
LINE
  8
1
 62
7
 10
199.8609527395617
 20
-68.99874449818475
 30
0
 11
200.3157339895617
 21
-69.12868199818475
 31
0
  0
LINE
  8
1
 62
7
 10
199.4971277395617
 20
-69.12868199818475
 30
0
 11
199.8609527395617
 21
-68.99874449818475
 31
0
  0
LINE
  8
1
 62
7
 10
199.1333027395617
 20
-69.51849449818475
 30
0
 11
199.4971277395617
 21
-69.12868199818475
 31
0
  0
LINE
  8
1
 62
7
 10
198.9513902395617
 20
-70.16818199818475
 30
0
 11
199.1333027395617
 21
-69.51849449818475
 31
0
  0
LINE
  8
1
 62
7
 10
198.9513902395617
 20
-75.49561949818475
 30
0
 11
198.9513902395617
 21
-70.16818199818475
 31
0
  0
LINE
  8
1
 62
7
 10
197.9508714895617
 20
-75.49561949818475
 30
0
 11
198.9513902395617
 21
-75.49561949818475
 31
0
  0
LINE
  8
1
 62
7
 10
197.9508714895617
 20
-70.68793199818475
 30
0
 11
197.9508714895617
 21
-75.49561949818475
 31
0
  0
LINE
  8
1
 62
7
 10
197.8599152395617
 20
-70.16818199818475
 30
0
 11
197.9508714895617
 21
-70.68793199818475
 31
0
  0
LINE
  8
1
 62
7
 10
197.5870464895617
 20
-69.51849449818475
 30
0
 11
197.8599152395617
 21
-70.16818199818475
 31
0
  0
LINE
  8
1
 62
7
 10
197.3141777395617
 20
-69.12868199818475
 30
0
 11
197.5870464895617
 21
-69.51849449818475
 31
0
  0
LINE
  8
1
 62
7
 10
196.8593964895617
 20
-68.99874449818475
 30
0
 11
197.3141777395617
 21
-69.12868199818475
 31
0
  0
LINE
  8
1
 62
7
 10
196.4955714895617
 20
-69.12868199818475
 30
0
 11
196.8593964895617
 21
-68.99874449818475
 31
0
  0
LINE
  8
1
 62
7
 10
196.1317464895617
 20
-69.51849449818475
 30
0
 11
196.4955714895617
 21
-69.12868199818475
 31
0
  0
LINE
  8
1
 62
7
 10
195.9498339895617
 20
-70.16818199818475
 30
0
 11
196.1317464895617
 21
-69.51849449818475
 31
0
  0
LINE
  8
1
 62
7
 10
195.9498339895617
 20
-75.49561949818475
 30
0
 11
195.9498339895617
 21
-70.16818199818475
 31
0
  0
LINE
  8
1
 62
7
 10
194.9493152395617
 20
-75.49561949818475
 30
0
 11
195.9498339895617
 21
-75.49561949818475
 31
0
  0
LINE
  8
1
 62
7
 10
194.9493152395617
 20
-67.82930699818475
 30
0
 11
194.9493152395617
 21
-75.49561949818475
 31
0
  0
LINE
  8
1
 62
7
 10
195.9498339895617
 20
-67.82930699818475
 30
0
 11
194.9493152395617
 21
-67.82930699818475
 31
0
  0
LINE
  8
1
 62
7
 10
195.9498339895617
 20
-68.47899449818475
 30
0
 11
195.9498339895617
 21
-67.82930699818475
 31
0
  0
LINE
  8
1
 62
7
 10
196.2227027395617
 20
-67.95924449818475
 30
0
 11
195.9498339895617
 21
-68.47899449818475
 31
0
  0
LINE
  8
1
 62
7
 10
196.7684402395617
 20
-67.69936949818475
 30
0
 11
196.2227027395617
 21
-67.95924449818475
 31
0
  0
LINE
  8
1
 62
7
 10
197.1322652395617
 20
-67.69936949818475
 30
0
 11
196.7684402395617
 21
-67.69936949818475
 31
0
  0
LINE
  8
1
 62
7
 10
197.7689589895617
 20
-67.95924449818475
 30
0
 11
197.1322652395617
 21
-67.69936949818475
 31
0
  0
LINE
  8
1
 62
7
 10
198.3146964895617
 20
-68.47899449818475
 30
0
 11
197.7689589895617
 21
-67.95924449818475
 31
0
  0
LINE
  8
1
 62
7
 10
198.6785214895617
 20
-68.99874449818475
 30
0
 11
198.3146964895617
 21
-68.47899449818475
 31
0
  0
LINE
  8
1
 62
7
 10
198.9513902395617
 20
-68.34905699818475
 30
0
 11
198.6785214895617
 21
-68.99874449818475
 31
0
  0
LINE
  8
1
 62
7
 10
190.3152152395617
 20
-67.95924449818475
 30
0
 11
189.9513902395617
 21
-68.34905699818475
 31
0
  0
LINE
  8
1
 62
7
 10
190.7699964895617
 20
-67.69936949818475
 30
0
 11
190.3152152395617
 21
-67.95924449818475
 31
0
  0
LINE
  8
1
 62
7
 10
191.1338214895617
 20
-67.69936949818475
 30
0
 11
190.7699964895617
 21
-67.69936949818475
 31
0
  0
LINE
  8
1
 62
7
 10
191.7705152395617
 20
-67.95924449818475
 30
0
 11
191.1338214895617
 21
-67.69936949818475
 31
0
  0
LINE
  8
1
 62
7
 10
192.3162527395617
 20
-68.47899449818475
 30
0
 11
191.7705152395617
 21
-67.95924449818475
 31
0
  0
LINE
  8
1
 62
7
 10
192.5891214895617
 20
-68.99874449818475
 30
0
 11
192.3162527395617
 21
-68.47899449818475
 31
0
  0
LINE
  8
1
 62
7
 10
192.8619902395617
 20
-69.77836949818476
 30
0
 11
192.5891214895617
 21
-68.99874449818475
 31
0
  0
LINE
  8
1
 62
7
 10
192.9529464895617
 20
-70.81786949818475
 30
0
 11
192.8619902395617
 21
-69.77836949818476
 31
0
  0
LINE
  8
1
 62
7
 10
192.9529464895617
 20
-75.49561949818475
 30
0
 11
192.9529464895617
 21
-70.81786949818475
 31
0
  0
LINE
  8
1
 62
7
 10
191.9524277395617
 20
-75.49561949818475
 30
0
 11
192.9529464895617
 21
-75.49561949818475
 31
0
  0
LINE
  8
1
 62
7
 10
191.9524277395617
 20
-70.68793199818475
 30
0
 11
191.9524277395617
 21
-75.49561949818475
 31
0
  0
LINE
  8
1
 62
7
 10
191.8614714895617
 20
-70.16818199818475
 30
0
 11
191.9524277395617
 21
-70.68793199818475
 31
0
  0
LINE
  8
1
 62
7
 10
191.5886027395617
 20
-69.51849449818475
 30
0
 11
191.8614714895617
 21
-70.16818199818475
 31
0
  0
LINE
  8
1
 62
7
 10
191.3157339895617
 20
-69.12868199818475
 30
0
 11
191.5886027395617
 21
-69.51849449818475
 31
0
  0
LINE
  8
1
 62
7
 10
190.8609527395617
 20
-68.99874449818475
 30
0
 11
191.3157339895617
 21
-69.12868199818475
 31
0
  0
LINE
  8
1
 62
7
 10
190.4971277395617
 20
-69.12868199818475
 30
0
 11
190.8609527395617
 21
-68.99874449818475
 31
0
  0
LINE
  8
1
 62
7
 10
190.1333027395617
 20
-69.51849449818475
 30
0
 11
190.4971277395617
 21
-69.12868199818475
 31
0
  0
LINE
  8
1
 62
7
 10
189.9513902395617
 20
-70.16818199818475
 30
0
 11
190.1333027395617
 21
-69.51849449818475
 31
0
  0
LINE
  8
1
 62
7
 10
189.9513902395617
 20
-75.49561949818475
 30
0
 11
189.9513902395617
 21
-70.16818199818475
 31
0
  0
LINE
  8
1
 62
7
 10
188.9508714895617
 20
-75.49561949818475
 30
0
 11
189.9513902395617
 21
-75.49561949818475
 31
0
  0
LINE
  8
1
 62
7
 10
188.9508714895617
 20
-70.68793199818475
 30
0
 11
188.9508714895617
 21
-75.49561949818475
 31
0
  0
LINE
  8
1
 62
7
 10
188.8599152395617
 20
-70.16818199818475
 30
0
 11
188.9508714895617
 21
-70.68793199818475
 31
0
  0
LINE
  8
1
 62
7
 10
188.5870464895617
 20
-69.51849449818475
 30
0
 11
188.8599152395617
 21
-70.16818199818475
 31
0
  0
LINE
  8
1
 62
7
 10
188.3141777395617
 20
-69.12868199818475
 30
0
 11
188.5870464895617
 21
-69.51849449818475
 31
0
  0
LINE
  8
1
 62
7
 10
187.8593964895617
 20
-68.99874449818475
 30
0
 11
188.3141777395617
 21
-69.12868199818475
 31
0
  0
LINE
  8
1
 62
7
 10
187.4955714895617
 20
-69.12868199818475
 30
0
 11
187.8593964895617
 21
-68.99874449818475
 31
0
  0
LINE
  8
1
 62
7
 10
187.1317464895617
 20
-69.51849449818475
 30
0
 11
187.4955714895617
 21
-69.12868199818475
 31
0
  0
LINE
  8
1
 62
7
 10
186.9498339895617
 20
-70.16818199818475
 30
0
 11
187.1317464895617
 21
-69.51849449818475
 31
0
  0
LINE
  8
1
 62
7
 10
186.9498339895617
 20
-75.49561949818475
 30
0
 11
186.9498339895617
 21
-70.16818199818475
 31
0
  0
LINE
  8
1
 62
7
 10
185.9493152395617
 20
-75.49561949818475
 30
0
 11
186.9498339895617
 21
-75.49561949818475
 31
0
  0
LINE
  8
1
 62
7
 10
185.9493152395617
 20
-67.82930699818475
 30
0
 11
185.9493152395617
 21
-75.49561949818475
 31
0
  0
LINE
  8
1
 62
7
 10
186.9498339895617
 20
-67.82930699818475
 30
0
 11
185.9493152395617
 21
-67.82930699818475
 31
0
  0
LINE
  8
1
 62
7
 10
186.9498339895617
 20
-68.47899449818475
 30
0
 11
186.9498339895617
 21
-67.82930699818475
 31
0
  0
LINE
  8
1
 62
7
 10
187.2227027395617
 20
-67.95924449818475
 30
0
 11
186.9498339895617
 21
-68.47899449818475
 31
0
  0
LINE
  8
1
 62
7
 10
187.7684402395617
 20
-67.69936949818475
 30
0
 11
187.2227027395617
 21
-67.95924449818475
 31
0
  0
LINE
  8
1
 62
7
 10
188.1322652395617
 20
-67.69936949818475
 30
0
 11
187.7684402395617
 21
-67.69936949818475
 31
0
  0
LINE
  8
1
 62
7
 10
188.7689589895617
 20
-67.95924449818475
 30
0
 11
188.1322652395617
 21
-67.69936949818475
 31
0
  0
LINE
  8
1
 62
7
 10
189.3146964895617
 20
-68.47899449818475
 30
0
 11
188.7689589895617
 21
-67.95924449818475
 31
0
  0
LINE
  8
1
 62
7
 10
189.6785214895617
 20
-68.99874449818475
 30
0
 11
189.3146964895617
 21
-68.47899449818475
 31
0
  0
LINE
  8
1
 62
7
 10
189.9513902395617
 20
-68.34905699818475
 30
0
 11
189.6785214895617
 21
-68.99874449818475
 31
0
  0
LINE
  8
1
 62
7
 10
179.4713374348688
 20
-75.04702574818475
 30
0
 11
179.9603046223688
 21
-74.74796324818475
 31
0
  0
LINE
  8
1
 62
7
 10
178.6563921223688
 20
-75.34608824818476
 30
0
 11
179.4713374348688
 21
-75.04702574818475
 31
0
  0
LINE
  8
1
 62
7
 10
178.0044358723688
 20
-75.49561949818475
 30
0
 11
178.6563921223688
 21
-75.34608824818476
 31
0
  0
LINE
  8
1
 62
7
 10
176.8635124348688
 20
-75.49561949818475
 30
0
 11
178.0044358723688
 21
-75.49561949818475
 31
0
  0
LINE
  8
1
 62
7
 10
176.2115561848688
 20
-75.34608824818476
 30
0
 11
176.8635124348688
 21
-75.49561949818475
 31
0
  0
LINE
  8
1
 62
7
 10
175.3966108723688
 20
-75.04702574818475
 30
0
 11
176.2115561848688
 21
-75.34608824818476
 31
0
  0
LINE
  8
1
 62
7
 10
174.9076436848688
 20
-74.74796324818475
 30
0
 11
175.3966108723688
 21
-75.04702574818475
 31
0
  0
LINE
  8
1
 62
7
 10
174.4186764973688
 20
-74.29936949818475
 30
0
 11
174.9076436848688
 21
-74.74796324818475
 31
0
  0
LINE
  8
1
 62
7
 10
173.9297093098688
 20
-73.70124449818475
 30
0
 11
174.4186764973688
 21
-74.29936949818475
 31
0
  0
LINE
  8
1
 62
7
 10
173.6037311848688
 20
-73.10311949818475
 30
0
 11
173.9297093098688
 21
-73.70124449818475
 31
0
  0
LINE
  8
1
 62
7
 10
173.2777530598688
 20
-72.35546324818475
 30
0
 11
173.6037311848688
 21
-73.10311949818475
 31
0
  0
LINE
  8
1
 62
7
 10
173.1147639973688
 20
-71.45827574818475
 30
0
 11
173.2777530598688
 21
-72.35546324818475
 31
0
  0
LINE
  8
1
 62
7
 10
172.9517749348688
 20
-70.11249449818476
 30
0
 11
173.1147639973688
 21
-71.45827574818475
 31
0
  0
LINE
  8
1
 62
7
 10
172.9517749348688
 20
-68.91624449818475
 30
0
 11
172.9517749348688
 21
-70.11249449818476
 31
0
  0
LINE
  8
1
 62
7
 10
173.1147639973688
 20
-67.57046324818475
 30
0
 11
172.9517749348688
 21
-68.91624449818475
 31
0
  0
LINE
  8
1
 62
7
 10
173.2777530598688
 20
-66.67327574818475
 30
0
 11
173.1147639973688
 21
-67.57046324818475
 31
0
  0
LINE
  8
1
 62
7
 10
173.6037311848688
 20
-65.92561949818476
 30
0
 11
173.2777530598688
 21
-66.67327574818475
 31
0
  0
LINE
  8
1
 62
7
 10
173.9297093098688
 20
-65.32749449818475
 30
0
 11
173.6037311848688
 21
-65.92561949818476
 31
0
  0
LINE
  8
1
 62
7
 10
174.4186764973688
 20
-64.72936949818475
 30
0
 11
173.9297093098688
 21
-65.32749449818475
 31
0
  0
LINE
  8
1
 62
7
 10
174.9076436848688
 20
-64.28077574818475
 30
0
 11
174.4186764973688
 21
-64.72936949818475
 31
0
  0
LINE
  8
1
 62
7
 10
175.3966108723688
 20
-63.98171324818475
 30
0
 11
174.9076436848688
 21
-64.28077574818475
 31
0
  0
LINE
  8
1
 62
7
 10
176.2115561848688
 20
-63.68265074818476
 30
0
 11
175.3966108723688
 21
-63.98171324818475
 31
0
  0
LINE
  8
1
 62
7
 10
176.8635124348688
 20
-63.53311949818475
 30
0
 11
176.2115561848688
 21
-63.68265074818476
 31
0
  0
LINE
  8
1
 62
7
 10
178.0044358723688
 20
-63.53311949818475
 30
0
 11
176.8635124348688
 21
-63.53311949818475
 31
0
  0
LINE
  8
1
 62
7
 10
178.6563921223688
 20
-63.68265074818476
 30
0
 11
178.0044358723688
 21
-63.53311949818475
 31
0
  0
LINE
  8
1
 62
7
 10
179.4713374348688
 20
-63.98171324818475
 30
0
 11
178.6563921223688
 21
-63.68265074818476
 31
0
  0
LINE
  8
1
 62
7
 10
179.9603046223688
 20
-64.28077574818475
 30
0
 11
179.4713374348688
 21
-63.98171324818475
 31
0
  0
LINE
  8
1
 62
7
 10
180.4492718098688
 20
-64.72936949818475
 30
0
 11
179.9603046223688
 21
-64.28077574818475
 31
0
  0
LINE
  8
1
 62
7
 10
180.9382389973688
 20
-65.32749449818475
 30
0
 11
180.4492718098688
 21
-64.72936949818475
 31
0
  0
LINE
  8
1
 62
7
 10
181.2642171223688
 20
-65.92561949818476
 30
0
 11
180.9382389973688
 21
-65.32749449818475
 31
0
  0
LINE
  8
1
 62
7
 10
181.5901952473688
 20
-66.67327574818475
 30
0
 11
181.2642171223688
 21
-65.92561949818476
 31
0
  0
LINE
  8
1
 62
7
 10
181.7531843098688
 20
-67.57046324818475
 30
0
 11
181.5901952473688
 21
-66.67327574818475
 31
0
  0
LINE
  8
1
 62
7
 10
181.9161733723688
 20
-68.91624449818475
 30
0
 11
181.7531843098688
 21
-67.57046324818475
 31
0
  0
LINE
  8
1
 62
7
 10
181.9161733723688
 20
-70.11249449818476
 30
0
 11
181.9161733723688
 21
-68.91624449818475
 31
0
  0
LINE
  8
1
 62
7
 10
181.7531843098688
 20
-71.45827574818475
 30
0
 11
181.9161733723688
 21
-70.11249449818476
 31
0
  0
LINE
  8
1
 62
7
 10
181.5901952473688
 20
-72.35546324818475
 30
0
 11
181.7531843098688
 21
-71.45827574818475
 31
0
  0
LINE
  8
1
 62
7
 10
181.2642171223688
 20
-73.10311949818475
 30
0
 11
181.5901952473688
 21
-72.35546324818475
 31
0
  0
LINE
  8
1
 62
7
 10
180.9382389973688
 20
-73.70124449818475
 30
0
 11
181.2642171223688
 21
-73.10311949818475
 31
0
  0
LINE
  8
1
 62
7
 10
180.4492718098688
 20
-74.29936949818475
 30
0
 11
180.9382389973688
 21
-73.70124449818475
 31
0
  0
LINE
  8
1
 62
7
 10
179.9603046223688
 20
-74.74796324818475
 30
0
 11
180.4492718098688
 21
-74.29936949818475
 31
0
  0
LINE
  8
1
 62
7
 10
176.2115561848688
 20
-73.70124449818475
 30
0
 11
176.8635124348688
 21
-74.00030699818476
 31
0
  0
LINE
  8
1
 62
7
 10
175.5595999348688
 20
-73.25265074818475
 30
0
 11
176.2115561848688
 21
-73.70124449818475
 31
0
  0
LINE
  8
1
 62
7
 10
175.2336218098688
 20
-72.80405699818475
 30
0
 11
175.5595999348688
 21
-73.25265074818475
 31
0
  0
LINE
  8
1
 62
7
 10
174.9076436848688
 20
-72.05640074818476
 30
0
 11
175.2336218098688
 21
-72.80405699818475
 31
0
  0
LINE
  8
1
 62
7
 10
174.7446546223688
 20
-70.41155699818475
 30
0
 11
174.9076436848688
 21
-72.05640074818476
 31
0
  0
LINE
  8
1
 62
7
 10
174.7446546223688
 20
-68.61718199818475
 30
0
 11
174.7446546223688
 21
-70.41155699818475
 31
0
  0
LINE
  8
1
 62
7
 10
174.9076436848688
 20
-66.97233824818476
 30
0
 11
174.7446546223688
 21
-68.61718199818475
 31
0
  0
LINE
  8
1
 62
7
 10
175.2336218098688
 20
-66.22468199818475
 30
0
 11
174.9076436848688
 21
-66.97233824818476
 31
0
  0
LINE
  8
1
 62
7
 10
175.5595999348688
 20
-65.77608824818475
 30
0
 11
175.2336218098688
 21
-66.22468199818475
 31
0
  0
LINE
  8
1
 62
7
 10
176.2115561848688
 20
-65.32749449818475
 30
0
 11
175.5595999348688
 21
-65.77608824818475
 31
0
  0
LINE
  8
1
 62
7
 10
176.8635124348688
 20
-65.02843199818476
 30
0
 11
176.2115561848688
 21
-65.32749449818475
 31
0
  0
LINE
  8
1
 62
7
 10
178.0044358723688
 20
-65.02843199818476
 30
0
 11
176.8635124348688
 21
-65.02843199818476
 31
0
  0
LINE
  8
1
 62
7
 10
178.6563921223688
 20
-65.32749449818475
 30
0
 11
178.0044358723688
 21
-65.02843199818476
 31
0
  0
LINE
  8
1
 62
7
 10
179.3083483723688
 20
-65.77608824818475
 30
0
 11
178.6563921223688
 21
-65.32749449818475
 31
0
  0
LINE
  8
1
 62
7
 10
179.6343264973688
 20
-66.22468199818475
 30
0
 11
179.3083483723688
 21
-65.77608824818475
 31
0
  0
LINE
  8
1
 62
7
 10
179.9603046223688
 20
-66.97233824818476
 30
0
 11
179.6343264973688
 21
-66.22468199818475
 31
0
  0
LINE
  8
1
 62
7
 10
180.1232936848688
 20
-68.61718199818475
 30
0
 11
179.9603046223688
 21
-66.97233824818476
 31
0
  0
LINE
  8
1
 62
7
 10
180.1232936848688
 20
-70.41155699818475
 30
0
 11
180.1232936848688
 21
-68.61718199818475
 31
0
  0
LINE
  8
1
 62
7
 10
179.9603046223688
 20
-72.05640074818476
 30
0
 11
180.1232936848688
 21
-70.41155699818475
 31
0
  0
LINE
  8
1
 62
7
 10
179.6343264973688
 20
-72.80405699818475
 30
0
 11
179.9603046223688
 21
-72.05640074818476
 31
0
  0
LINE
  8
1
 62
7
 10
179.3083483723688
 20
-73.25265074818475
 30
0
 11
179.6343264973688
 21
-72.80405699818475
 31
0
  0
LINE
  8
1
 62
7
 10
178.6563921223688
 20
-73.70124449818475
 30
0
 11
179.3083483723688
 21
-73.25265074818475
 31
0
  0
LINE
  8
1
 62
7
 10
178.0044358723688
 20
-74.00030699818476
 30
0
 11
178.6563921223688
 21
-73.70124449818475
 31
0
  0
LINE
  8
1
 62
7
 10
176.8635124348688
 20
-74.00030699818476
 30
0
 11
178.0044358723688
 21
-74.00030699818476
 31
0
  0
LINE
  8
1
 62
7
 10
167.4934030598688
 20
-71.30874449818475
 30
0
 11
167.4934030598688
 21
-66.22468199818475
 31
0
  0
LINE
  8
1
 62
7
 10
163.7446546223688
 20
-71.30874449818475
 30
0
 11
167.4934030598688
 21
-71.30874449818475
 31
0
  0
LINE
  8
1
 62
7
 10
167.4934030598688
 20
-66.22468199818475
 30
0
 11
163.7446546223688
 21
-71.30874449818475
 31
0
  0
LINE
  8
1
 62
7
 10
161.9517749348688
 20
-71.15921324818476
 30
0
 11
167.4934030598688
 21
-63.53311949818475
 31
0
  0
LINE
  8
1
 62
7
 10
161.9517749348688
 20
-72.80405699818475
 30
0
 11
161.9517749348688
 21
-71.15921324818476
 31
0
  0
LINE
  8
1
 62
7
 10
167.4934030598688
 20
-72.80405699818475
 30
0
 11
161.9517749348688
 21
-72.80405699818475
 31
0
  0
LINE
  8
1
 62
7
 10
167.4934030598688
 20
-75.49561949818475
 30
0
 11
167.4934030598688
 21
-72.80405699818475
 31
0
  0
LINE
  8
1
 62
7
 10
169.2862827473688
 20
-75.49561949818475
 30
0
 11
167.4934030598688
 21
-75.49561949818475
 31
0
  0
LINE
  8
1
 62
7
 10
169.2862827473688
 20
-72.80405699818475
 30
0
 11
169.2862827473688
 21
-75.49561949818475
 31
0
  0
LINE
  8
1
 62
7
 10
170.9161733723688
 20
-72.80405699818475
 30
0
 11
169.2862827473688
 21
-72.80405699818475
 31
0
  0
LINE
  8
1
 62
7
 10
170.9161733723688
 20
-71.30874449818475
 30
0
 11
170.9161733723688
 21
-72.80405699818475
 31
0
  0
LINE
  8
1
 62
7
 10
169.2862827473688
 20
-71.30874449818475
 30
0
 11
170.9161733723688
 21
-71.30874449818475
 31
0
  0
LINE
  8
1
 62
7
 10
169.2862827473688
 20
-63.53311949818475
 30
0
 11
169.2862827473688
 21
-71.30874449818475
 31
0
  0
LINE
  8
1
 62
7
 10
167.4934030598688
 20
-63.53311949818475
 30
0
 11
169.2862827473688
 21
-63.53311949818475
 31
0
  0
LINE
  8
1
 62
7
 10
132.9147952901027
 20
-71.835995061498
 30
0
 11
132.9147952901027
 21
-72.70224506149799
 31
0
  0
LINE
  8
1
 62
7
 10
129.1691302901027
 20
-71.835995061498
 30
0
 11
132.9147952901027
 21
-71.835995061498
 31
0
  0
LINE
  8
1
 62
7
 10
129.1691302901027
 20
-69.58374506149799
 30
0
 11
129.1691302901027
 21
-71.835995061498
 31
0
  0
LINE
  8
1
 62
7
 10
132.5163202901027
 20
-69.58374506149799
 30
0
 11
129.1691302901027
 21
-69.58374506149799
 31
0
  0
LINE
  8
1
 62
7
 10
132.5163202901027
 20
-68.71749506149799
 30
0
 11
132.5163202901027
 21
-69.58374506149799
 31
0
  0
LINE
  8
1
 62
7
 10
129.1691302901027
 20
-68.71749506149799
 30
0
 11
132.5163202901027
 21
-68.71749506149799
 31
0
  0
LINE
  8
1
 62
7
 10
129.1691302901027
 20
-66.63849506149799
 30
0
 11
129.1691302901027
 21
-68.71749506149799
 31
0
  0
LINE
  8
1
 62
7
 10
132.8351002901027
 20
-66.63849506149799
 30
0
 11
129.1691302901027
 21
-66.63849506149799
 31
0
  0
LINE
  8
1
 62
7
 10
132.8351002901027
 20
-65.77224506149798
 30
0
 11
132.8351002901027
 21
-66.63849506149799
 31
0
  0
LINE
  8
1
 62
7
 10
128.2924852901027
 20
-65.77224506149798
 30
0
 11
132.8351002901027
 21
-65.77224506149798
 31
0
  0
LINE
  8
1
 62
7
 10
128.2924852901027
 20
-72.70224506149799
 30
0
 11
128.2924852901027
 21
-65.77224506149798
 31
0
  0
LINE
  8
1
 62
7
 10
132.9147952901027
 20
-72.70224506149799
 30
0
 11
128.2924852901027
 21
-72.70224506149799
 31
0
  0
LINE
  8
1
 62
2
 10
118.3385189397078
 20
-118.6390815184781
 30
0
 11
117.7885189397078
 21
-118.3297065184781
 31
0
  0
LINE
  8
1
 62
2
 10
118.6135189397078
 20
-118.4843940184781
 30
0
 11
118.3385189397078
 21
-118.6390815184781
 31
0
  0
LINE
  8
1
 62
2
 10
119.0260189397078
 20
-117.7109565184781
 30
0
 11
118.6135189397078
 21
-118.4843940184781
 31
0
  0
LINE
  8
1
 62
2
 10
119.3010189397078
 20
-116.7828315184781
 30
0
 11
119.0260189397078
 21
-117.7109565184781
 31
0
  0
LINE
  8
1
 62
2
 10
117.3760189397078
 20
-116.7828315184781
 30
0
 11
119.3010189397078
 21
-116.7828315184781
 31
0
  0
LINE
  8
1
 62
2
 10
117.6510189397078
 20
-115.8547065184781
 30
0
 11
117.2385189397078
 21
-117.4015815184781
 31
0
  0
LINE
  8
1
 62
2
 10
116.1385189397078
 20
-115.8547065184781
 30
0
 11
120.1260189397078
 21
-115.8547065184781
 31
0
  0
LINE
  8
1
 62
2
 10
119.3010189397078
 20
-113.9984565184781
 30
0
 11
117.1010189397078
 21
-113.9984565184781
 31
0
  0
LINE
  8
1
 62
2
 10
119.3010189397078
 20
-115.0812690184781
 30
0
 11
119.3010189397078
 21
-113.9984565184781
 31
0
  0
LINE
  8
1
 62
2
 10
117.1010189397078
 20
-115.0812690184781
 30
0
 11
119.3010189397078
 21
-115.0812690184781
 31
0
  0
LINE
  8
1
 62
2
 10
117.1010189397078
 20
-113.9984565184781
 30
0
 11
117.1010189397078
 21
-115.0812690184781
 31
0
  0
LINE
  8
1
 62
2
 10
115.1760189397078
 20
-118.3297065184781
 30
0
 11
115.1760189397078
 21
-117.8656440184781
 31
0
  0
LINE
  8
1
 62
2
 10
113.2510189397078
 20
-118.3297065184781
 30
0
 11
115.1760189397078
 21
-118.3297065184781
 31
0
  0
LINE
  8
1
 62
2
 10
113.2510189397078
 20
-116.0093940184781
 30
0
 11
113.2510189397078
 21
-118.3297065184781
 31
0
  0
LINE
  8
1
 62
2
 10
114.7635189397078
 20
-116.0093940184781
 30
0
 11
113.2510189397078
 21
-116.0093940184781
 31
0
  0
LINE
  8
1
 62
2
 10
114.7635189397078
 20
-114.4625190184781
 30
0
 11
114.7635189397078
 21
-116.0093940184781
 31
0
  0
LINE
  8
1
 62
2
 10
113.2510189397078
 20
-114.4625190184781
 30
0
 11
114.7635189397078
 21
-114.4625190184781
 31
0
  0
LINE
  8
1
 62
2
 10
111.1885189397078
 20
-114.3078315184781
 30
0
 11
112.4260189397078
 21
-114.3078315184781
 31
0
  0
LINE
  8
1
 62
2
 10
111.0510189397078
 20
-115.0812690184781
 30
0
 11
112.8385189397078
 21
-115.0812690184781
 31
0
  0
LINE
  8
1
 62
2
 10
112.4260189397078
 20
-115.7000190184781
 30
0
 11
111.3260189397078
 21
-115.7000190184781
 31
0
  0
LINE
  8
1
 62
2
 10
111.3260189397078
 20
-116.4734565184781
 30
0
 11
112.4260189397078
 21
-116.4734565184781
 31
0
  0
LINE
  8
1
 62
2
 10
112.4260189397078
 20
-118.3297065184781
 30
0
 11
111.3260189397078
 21
-118.3297065184781
 31
0
  0
LINE
  8
1
 62
2
 10
112.4260189397078
 20
-117.0922065184781
 30
0
 11
112.4260189397078
 21
-118.3297065184781
 31
0
  0
LINE
  8
1
 62
2
 10
111.3260189397078
 20
-117.0922065184781
 30
0
 11
112.4260189397078
 21
-117.0922065184781
 31
0
  0
LINE
  8
1
 62
2
 10
111.3260189397078
 20
-118.3297065184781
 30
0
 11
111.3260189397078
 21
-117.0922065184781
 31
0
  0
LINE
  8
1
 62
2
 10
109.6760189397078
 20
-113.6890815184781
 30
0
 11
109.6760189397078
 21
-118.6390815184781
 31
0
  0
LINE
  8
1
 62
2
 10
108.9885189397078
 20
-114.6172065184781
 30
0
 11
108.5760189397078
 21
-113.9984565184781
 31
0
  0
LINE
  8
1
 62
2
 10
108.9885189397078
 20
-115.8547065184781
 30
0
 11
108.5760189397078
 21
-115.2359565184781
 31
0
  0
LINE
  8
1
 62
2
 10
108.1635189397078
 20
-116.9375190184781
 30
0
 11
110.5010189397078
 21
-116.4734565184781
 31
0
  0
LINE
  8
1
 62
2
 10
107.6135189397078
 20
-116.1640815184781
 30
0
 11
107.8885189397078
 21
-116.7828315184781
 31
0
  0
LINE
  8
1
 62
2
 10
107.2010189397078
 20
-113.8437690184781
 30
0
 11
107.2010189397078
 21
-118.4843940184781
 31
0
  0
LINE
  8
1
 62
2
 10
107.6135189397078
 20
-114.7718940184781
 30
0
 11
107.8885189397078
 21
-114.1531440184781
 31
0
  0
LINE
  8
1
 62
2
 10
106.3760189397078
 20
-114.3078315184781
 30
0
 11
106.7885189397078
 21
-114.9265815184781
 31
0
  0
LINE
  8
1
 62
2
 10
108.1635189397078
 20
-115.5453315184781
 30
0
 11
106.2385189397078
 21
-115.5453315184781
 31
0
  0
LINE
  8
1
 62
2
 10
106.6510189397078
 20
-116.9375190184781
 30
0
 11
107.2010189397078
 21
-115.5453315184781
 31
0
  0
LINE
  8
1
 62
2
 10
106.2385189397078
 20
-117.7109565184781
 30
0
 11
106.6510189397078
 21
-116.9375190184781
 31
0
  0
LINE
  8
1
 62
2
 10
104.7260189397078
 20
-118.3297065184781
 30
0
 11
104.3135189397078
 21
-118.3297065184781
 31
0
  0
LINE
  8
1
 62
2
 10
104.5885189397078
 20
-113.8437690184781
 30
0
 11
104.7260189397078
 21
-118.3297065184781
 31
0
  0
LINE
  8
1
 62
2
 10
105.4135189397078
 20
-115.2359565184781
 30
0
 11
103.3510189397078
 21
-115.2359565184781
 31
0
  0
LINE
  8
1
 62
2
 10
103.9010189397078
 20
-116.7828315184781
 30
0
 11
104.5885189397078
 21
-115.3906440184781
 31
0
  0
LINE
  8
1
 62
2
 10
103.0760189397078
 20
-117.7109565184781
 30
0
 11
103.9010189397078
 21
-116.7828315184781
 31
0
  0
LINE
  8
1
 62
2
 10
102.2510189397078
 20
-115.2359565184781
 30
0
 11
102.9385189397078
 21
-116.3187690184781
 31
0
  0
LINE
  8
1
 62
2
 10
101.8385189397078
 20
-116.1640815184781
 30
0
 11
102.2510189397078
 21
-115.2359565184781
 31
0
  0
LINE
  8
1
 62
2
 10
101.2885189397078
 20
-117.0922065184781
 30
0
 11
101.8385189397078
 21
-116.1640815184781
 31
0
  0
LINE
  8
1
 62
2
 10
102.9385189397078
 20
-115.0812690184781
 30
0
 11
101.4260189397078
 21
-115.0812690184781
 31
0
  0
LINE
  8
1
 62
2
 10
102.2510189397078
 20
-118.6390815184781
 30
0
 11
102.2510189397078
 21
-113.6890815184781
 31
0
  0
LINE
  8
1
 62
2
 10
106.9920990783728
 20
-126.5522478624452
 30
0
 11
110.4570990783728
 21
-126.5522478624452
 31
0
  0
LINE
  8
1
 62
2
 10
106.9920990783728
 20
-121.6022478624452
 30
0
 11
106.9920990783728
 21
-126.5522478624452
 31
0
  0
LINE
  8
1
 62
2
 10
110.4570990783728
 20
-121.6022478624452
 30
0
 11
106.9920990783728
 21
-121.6022478624452
 31
0
  0
LINE
  8
1
 62
2
 10
109.9620990783728
 20
-123.8297478624452
 30
0
 11
106.9920990783728
 21
-123.8297478624452
 31
0
  0
LINE
  8
1
 62
2
 10
78.97600697987377
 20
-110.1767013935022
 30
0
 11
83.37600697987378
 21
-110.1767013935022
 31
0
  0
LINE
  8
1
 62
2
 10
79.80100697987378
 20
-109.0938888935022
 30
0
 11
79.80100697987378
 21
-110.1767013935022
 31
0
  0
LINE
  8
1
 62
2
 10
79.80100697987378
 20
-108.9392013935022
 30
0
 11
82.55100697987378
 21
-108.9392013935022
 31
0
  0
LINE
  8
1
 62
2
 10
81.17600697987378
 20
-107.7017013935022
 30
0
 11
81.17600697987378
 21
-111.8782638935022
 31
0
  0
LINE
  8
1
 62
2
 10
79.93850697987378
 20
-107.7017013935022
 30
0
 11
82.68850697987378
 21
-107.7017013935022
 31
0
  0
LINE
  8
1
 62
2
 10
79.66350697987377
 20
-108.0110763935022
 30
0
 11
79.25100697987378
 21
-108.4751388935022
 31
0
  0
LINE
  8
1
 62
2
 10
80.07600697987377
 20
-107.3923263935022
 30
0
 11
79.66350697987377
 21
-108.0110763935022
 31
0
  0
LINE
  8
1
 62
2
 10
80.35100697987377
 20
-106.9282638935022
 30
0
 11
80.07600697987377
 21
-107.3923263935022
 31
0
  0
LINE
  8
1
 62
2
 10
74.30100697987378
 20
-111.4142013935022
 30
0
 11
74.16350697987377
 21
-111.5688888935022
 31
0
  0
LINE
  8
1
 62
2
 10
74.98850697987378
 20
-107.7017013935022
 30
0
 11
74.57600697987377
 21
-107.0829513935022
 31
0
  0
LINE
  8
1
 62
2
 10
75.81350697987377
 20
-107.8563888935022
 30
0
 11
75.53850697987377
 21
-108.3204513935022
 31
0
  0
LINE
  8
1
 62
2
 10
76.08850697987377
 20
-107.0829513935022
 30
0
 11
75.81350697987377
 21
-107.8563888935022
 31
0
  0
LINE
  8
1
 62
2
 10
77.87600697987377
 20
-107.8563888935022
 30
0
 11
75.81350697987377
 21
-107.8563888935022
 31
0
  0
LINE
  8
1
 62
2
 10
76.77600697987377
 20
-108.9392013935022
 30
0
 11
76.77600697987377
 21
-106.9282638935022
 31
0
  0
LINE
  8
1
 62
2
 10
78.15100697987377
 20
-108.9392013935022
 30
0
 11
75.53850697987377
 21
-108.9392013935022
 31
0
  0
LINE
  8
1
 62
2
 10
76.08850697987377
 20
-110.7954513935022
 30
0
 11
77.60100697987377
 21
-110.7954513935022
 31
0
  0
LINE
  8
1
 62
2
 10
76.08850697987377
 20
-109.5579513935022
 30
0
 11
76.08850697987377
 21
-110.7954513935022
 31
0
  0
LINE
  8
1
 62
2
 10
77.60100697987377
 20
-109.5579513935022
 30
0
 11
76.08850697987377
 21
-109.5579513935022
 31
0
  0
LINE
  8
1
 62
2
 10
77.60100697987377
 20
-110.7954513935022
 30
0
 11
77.60100697987377
 21
-109.5579513935022
 31
0
  0
LINE
  8
1
 62
2
 10
75.53850697987377
 20
-111.5688888935022
 30
0
 11
78.28850697987377
 21
-111.5688888935022
 31
0
  0
LINE
  8
1
 62
2
 10
75.26350697987377
 20
-111.4142013935022
 30
0
 11
75.53850697987377
 21
-111.5688888935022
 31
0
  0
LINE
  8
1
 62
2
 10
74.98850697987378
 20
-110.7954513935022
 30
0
 11
75.26350697987377
 21
-111.4142013935022
 31
0
  0
LINE
  8
1
 62
2
 10
74.98850697987378
 20
-109.0938888935022
 30
0
 11
74.16350697987377
 21
-109.0938888935022
 31
0
  0
LINE
  8
1
 62
2
 10
74.98850697987378
 20
-110.7954513935022
 30
0
 11
74.98850697987378
 21
-109.0938888935022
 31
0
  0
LINE
  8
1
 62
2
 10
74.30100697987378
 20
-111.4142013935022
 30
0
 11
74.98850697987378
 21
-110.7954513935022
 31
0
  0
LINE
  8
1
 62
2
 10
72.37600697987377
 20
-111.2595138935022
 30
0
 11
72.10100697987377
 21
-110.4860763935022
 31
0
  0
LINE
  8
1
 62
2
 10
72.92600697987376
 20
-111.8782638935022
 30
0
 11
72.37600697987377
 21
-111.8782638935022
 31
0
  0
LINE
  8
1
 62
2
 10
72.92600697987376
 20
-109.4032638935022
 30
0
 11
72.92600697987376
 21
-111.8782638935022
 31
0
  0
LINE
  8
1
 62
2
 10
73.20100697987377
 20
-108.4751388935022
 30
0
 11
71.27600697987377
 21
-108.4751388935022
 31
0
  0
LINE
  8
1
 62
2
 10
71.13850697987377
 20
-107.7017013935022
 30
0
 11
73.20100697987377
 21
-107.7017013935022
 31
0
  0
LINE
  8
1
 62
2
 10
71.96350697987377
 20
-109.0938888935022
 30
0
 11
72.10100697987377
 21
-107.2376388935022
 31
0
  0
LINE
  8
1
 62
2
 10
71.55100697987376
 20
-110.6407638935022
 30
0
 11
71.96350697987377
 21
-109.0938888935022
 31
0
  0
LINE
  8
1
 62
2
 10
71.00100697987377
 20
-111.5688888935022
 30
0
 11
71.55100697987376
 21
-110.6407638935022
 31
0
  0
LINE
  8
1
 62
2
 10
73.47600697987377
 20
-110.0220138935022
 30
0
 11
71.13850697987377
 21
-110.0220138935022
 31
0
  0
LINE
  8
1
 62
2
 10
71.00100697987377
 20
-109.0938888935022
 30
0
 11
73.47600697987377
 21
-109.0938888935022
 31
0
  0
LINE
  8
1
 62
2
 10
70.17600697987376
 20
-111.4142013935022
 30
0
 11
70.17600697987376
 21
-108.9392013935022
 31
0
  0
LINE
  8
1
 62
2
 10
69.48850697987376
 20
-110.1767013935022
 30
0
 11
69.76350697987377
 21
-110.9501388935022
 31
0
  0
LINE
  8
1
 62
2
 10
70.17600697987376
 20
-107.2376388935022
 30
0
 11
69.07600697987377
 21
-109.4032638935022
 31
0
  0
LINE
  8
1
 62
2
 10
71.00100697987377
 20
-108.1657638935022
 30
0
 11
70.17600697987376
 21
-107.2376388935022
 31
0
  0
LINE
  8
1
 62
2
 10
69.62600697987377
 20
-108.9392013935022
 30
0
 11
70.86350697987376
 21
-108.9392013935022
 31
0
  0
LINE
  8
1
 62
2
 10
70.86350697987376
 20
-109.7126388935022
 30
0
 11
69.48850697987376
 21
-109.7126388935022
 31
0
  0
LINE
  8
1
 62
2
 10
70.58850697987377
 20
-110.9501388935022
 30
0
 11
70.72600697987377
 21
-110.1767013935022
 31
0
  0
LINE
  8
1
 62
2
 10
69.35100697987377
 20
-111.7235763935022
 30
0
 11
70.86350697987376
 21
-111.1048263935022
 31
0
  0
LINE
  8
1
 62
2
 10
91.9971602059552
 20
-9.253340045088061
 30
0
 11
91.9971602059552
 21
-13.27521504508806
 31
0
  0
LINE
  8
1
 62
2
 10
90.7596602059552
 20
-10.80021504508806
 30
0
 11
91.9971602059552
 21
-9.253340045088061
 31
0
  0
LINE
  8
1
 62
2
 10
90.7596602059552
 20
-13.27521504508806
 30
0
 11
92.9596602059552
 21
-13.27521504508806
 31
0
  0
LINE
  8
1
 62
2
 10
87.04716020595519
 20
-9.253340045088061
 30
0
 11
87.04716020595519
 21
-13.27521504508806
 31
0
  0
LINE
  8
1
 62
2
 10
85.8096602059552
 20
-10.80021504508806
 30
0
 11
87.04716020595519
 21
-9.253340045088061
 31
0
  0
LINE
  8
1
 62
2
 10
85.8096602059552
 20
-13.27521504508806
 30
0
 11
88.0096602059552
 21
-13.27521504508806
 31
0
  0
LINE
  8
1
 62
2
 10
81.68466020595521
 20
-8.634590045088061
 30
0
 11
81.68466020595521
 21
-12.96584004508806
 31
0
  0
LINE
  8
1
 62
2
 10
83.47216020595521
 20
-12.96584004508806
 30
0
 11
83.47216020595521
 21
-9.717402545088062
 31
0
  0
LINE
  8
1
 62
2
 10
79.8971602059552
 20
-12.96584004508806
 30
0
 11
83.47216020595521
 21
-12.96584004508806
 31
0
  0
LINE
  8
1
 62
2
 10
79.8971602059552
 20
-9.717402545088062
 30
0
 11
79.8971602059552
 21
-12.96584004508806
 31
0
  0
LINE
  8
1
 62
2
 10
76.87216020595521
 20
-13.27521504508806
 30
0
 11
76.3221602059552
 21
-13.27521504508806
 31
0
  0
LINE
  8
1
 62
2
 10
77.42216020595521
 20
-13.12052754508806
 30
0
 11
76.87216020595521
 21
-13.27521504508806
 31
0
  0
LINE
  8
1
 62
2
 10
77.8346602059552
 20
-12.81115254508806
 30
0
 11
77.42216020595521
 21
-13.12052754508806
 31
0
  0
LINE
  8
1
 62
2
 10
78.10966020595521
 20
-12.34709004508806
 30
0
 11
77.8346602059552
 21
-12.81115254508806
 31
0
  0
LINE
  8
1
 62
2
 10
78.24716020595521
 20
-11.72834004508806
 30
0
 11
78.10966020595521
 21
-12.34709004508806
 31
0
  0
LINE
  8
1
 62
2
 10
78.24716020595521
 20
-10.80021504508806
 30
0
 11
78.24716020595521
 21
-11.72834004508806
 31
0
  0
LINE
  8
1
 62
2
 10
78.10966020595521
 20
-10.18146504508806
 30
0
 11
78.24716020595521
 21
-10.80021504508806
 31
0
  0
LINE
  8
1
 62
2
 10
77.8346602059552
 20
-9.717402545088062
 30
0
 11
78.10966020595521
 21
-10.18146504508806
 31
0
  0
LINE
  8
1
 62
2
 10
77.42216020595521
 20
-9.408027545088061
 30
0
 11
77.8346602059552
 21
-9.717402545088062
 31
0
  0
LINE
  8
1
 62
2
 10
76.87216020595521
 20
-9.253340045088061
 30
0
 11
77.42216020595521
 21
-9.408027545088061
 31
0
  0
LINE
  8
1
 62
2
 10
76.3221602059552
 20
-9.253340045088061
 30
0
 11
76.87216020595521
 21
-9.253340045088061
 31
0
  0
LINE
  8
1
 62
2
 10
75.7721602059552
 20
-9.408027545088061
 30
0
 11
76.3221602059552
 21
-9.253340045088061
 31
0
  0
LINE
  8
1
 62
2
 10
75.35966020595521
 20
-9.717402545088062
 30
0
 11
75.7721602059552
 21
-9.408027545088061
 31
0
  0
LINE
  8
1
 62
2
 10
75.0846602059552
 20
-10.18146504508806
 30
0
 11
75.35966020595521
 21
-9.717402545088062
 31
0
  0
LINE
  8
1
 62
2
 10
74.9471602059552
 20
-10.80021504508806
 30
0
 11
75.0846602059552
 21
-10.18146504508806
 31
0
  0
LINE
  8
1
 62
2
 10
74.9471602059552
 20
-11.72834004508806
 30
0
 11
74.9471602059552
 21
-10.80021504508806
 31
0
  0
LINE
  8
1
 62
2
 10
75.0846602059552
 20
-12.34709004508806
 30
0
 11
74.9471602059552
 21
-11.72834004508806
 31
0
  0
LINE
  8
1
 62
2
 10
75.35966020595521
 20
-12.81115254508806
 30
0
 11
75.0846602059552
 21
-12.34709004508806
 31
0
  0
LINE
  8
1
 62
2
 10
75.7721602059552
 20
-13.12052754508806
 30
0
 11
75.35966020595521
 21
-12.81115254508806
 31
0
  0
LINE
  8
1
 62
2
 10
76.3221602059552
 20
-13.27521504508806
 30
0
 11
75.7721602059552
 21
-13.12052754508806
 31
0
  0
LINE
  8
1
 62
2
 10
72.92591020595521
 20
-13.27521504508806
 30
0
 11
72.8021602059552
 21
-13.27521504508806
 31
0
  0
LINE
  8
1
 62
2
 10
72.92591020595521
 20
-13.15146504508806
 30
0
 11
72.92591020595521
 21
-13.27521504508806
 31
0
  0
LINE
  8
1
 62
2
 10
72.8021602059552
 20
-13.15146504508806
 30
0
 11
72.92591020595521
 21
-13.15146504508806
 31
0
  0
LINE
  8
1
 62
2
 10
72.8021602059552
 20
-13.27521504508806
 30
0
 11
72.8021602059552
 21
-13.15146504508806
 31
0
  0
LINE
  8
1
 62
2
 10
71.4271602059552
 20
-9.408027545088061
 30
0
 11
71.7021602059552
 21
-9.562715045088062
 31
0
  0
LINE
  8
1
 62
2
 10
70.87716020595521
 20
-9.253340045088061
 30
0
 11
71.4271602059552
 21
-9.408027545088061
 31
0
  0
LINE
  8
1
 62
2
 10
69.3646602059552
 20
-9.253340045088061
 30
0
 11
70.87716020595521
 21
-9.253340045088061
 31
0
  0
LINE
  8
1
 62
2
 10
68.6771602059552
 20
-9.408027545088061
 30
0
 11
69.3646602059552
 21
-9.253340045088061
 31
0
  0
LINE
  8
1
 62
2
 10
68.4021602059552
 20
-9.717402545088062
 30
0
 11
68.6771602059552
 21
-9.408027545088061
 31
0
  0
LINE
  8
1
 62
2
 10
68.2646602059552
 20
-10.18146504508806
 30
0
 11
68.4021602059552
 21
-9.717402545088062
 31
0
  0
LINE
  8
1
 62
2
 10
68.2646602059552
 20
-12.19240254508806
 30
0
 11
68.2646602059552
 21
-10.18146504508806
 31
0
  0
LINE
  8
1
 62
2
 10
68.5396602059552
 20
-12.96584004508806
 30
0
 11
68.2646602059552
 21
-12.19240254508806
 31
0
  0
LINE
  8
1
 62
2
 10
68.81466020595521
 20
-13.12052754508806
 30
0
 11
68.5396602059552
 21
-12.96584004508806
 31
0
  0
LINE
  8
1
 62
2
 10
69.3646602059552
 20
-13.27521504508806
 30
0
 11
68.81466020595521
 21
-13.12052754508806
 31
0
  0
LINE
  8
1
 62
2
 10
70.7396602059552
 20
-13.27521504508806
 30
0
 11
69.3646602059552
 21
-13.27521504508806
 31
0
  0
LINE
  8
1
 62
2
 10
71.2896602059552
 20
-13.12052754508806
 30
0
 11
70.7396602059552
 21
-13.27521504508806
 31
0
  0
LINE
  8
1
 62
2
 10
71.56466020595521
 20
-12.96584004508806
 30
0
 11
71.2896602059552
 21
-13.12052754508806
 31
0
  0
LINE
  8
1
 62
2
 10
71.8396602059552
 20
-12.50177754508806
 30
0
 11
71.56466020595521
 21
-12.96584004508806
 31
0
  0
LINE
  8
1
 62
2
 10
71.8396602059552
 20
-11.57365254508806
 30
0
 11
71.8396602059552
 21
-12.50177754508806
 31
0
  0
LINE
  8
1
 62
2
 10
71.7021602059552
 20
-11.26427754508806
 30
0
 11
71.8396602059552
 21
-11.57365254508806
 31
0
  0
LINE
  8
1
 62
2
 10
71.4271602059552
 20
-11.10959004508806
 30
0
 11
71.7021602059552
 21
-11.26427754508806
 31
0
  0
LINE
  8
1
 62
2
 10
70.7396602059552
 20
-10.95490254508806
 30
0
 11
71.4271602059552
 21
-11.10959004508806
 31
0
  0
LINE
  8
1
 62
2
 10
69.3646602059552
 20
-10.95490254508806
 30
0
 11
70.7396602059552
 21
-10.95490254508806
 31
0
  0
LINE
  8
1
 62
2
 10
68.6771602059552
 20
-11.10959004508806
 30
0
 11
69.3646602059552
 21
-10.95490254508806
 31
0
  0
LINE
  8
1
 62
2
 10
68.4021602059552
 20
-11.26427754508806
 30
0
 11
68.6771602059552
 21
-11.10959004508806
 31
0
  0
LINE
  8
1
 62
2
 10
68.2646602059552
 20
-11.57365254508806
 30
0
 11
68.4021602059552
 21
-11.26427754508806
 31
0
  0
LINE
  8
1
 62
2
 10
63.31466020595521
 20
-9.253340045088061
 30
0
 11
66.75216020595521
 21
-9.253340045088061
 31
0
  0
LINE
  8
1
 62
2
 10
63.31466020595521
 20
-11.26427754508806
 30
0
 11
63.31466020595521
 21
-9.253340045088061
 31
0
  0
LINE
  8
1
 62
2
 10
63.72716020595521
 20
-10.80021504508806
 30
0
 11
63.31466020595521
 21
-11.26427754508806
 31
0
  0
LINE
  8
1
 62
2
 10
64.2771602059552
 20
-10.64552754508806
 30
0
 11
63.72716020595521
 21
-10.80021504508806
 31
0
  0
LINE
  8
1
 62
2
 10
65.9271602059552
 20
-10.64552754508806
 30
0
 11
64.2771602059552
 21
-10.64552754508806
 31
0
  0
LINE
  8
1
 62
2
 10
66.4771602059552
 20
-10.80021504508806
 30
0
 11
65.9271602059552
 21
-10.64552754508806
 31
0
  0
LINE
  8
1
 62
2
 10
66.75216020595521
 20
-11.10959004508806
 30
0
 11
66.4771602059552
 21
-10.80021504508806
 31
0
  0
LINE
  8
1
 62
2
 10
66.88966020595521
 20
-11.57365254508806
 30
0
 11
66.75216020595521
 21
-11.10959004508806
 31
0
  0
LINE
  8
1
 62
2
 10
66.88966020595521
 20
-12.34709004508806
 30
0
 11
66.88966020595521
 21
-11.57365254508806
 31
0
  0
LINE
  8
1
 62
2
 10
66.75216020595521
 20
-12.81115254508806
 30
0
 11
66.88966020595521
 21
-12.34709004508806
 31
0
  0
LINE
  8
1
 62
2
 10
66.4771602059552
 20
-13.12052754508806
 30
0
 11
66.75216020595521
 21
-12.81115254508806
 31
0
  0
LINE
  8
1
 62
2
 10
65.9271602059552
 20
-13.27521504508806
 30
0
 11
66.4771602059552
 21
-13.12052754508806
 31
0
  0
LINE
  8
1
 62
2
 10
64.2771602059552
 20
-13.27521504508806
 30
0
 11
65.9271602059552
 21
-13.27521504508806
 31
0
  0
LINE
  8
1
 62
2
 10
63.72716020595521
 20
-13.12052754508806
 30
0
 11
64.2771602059552
 21
-13.27521504508806
 31
0
  0
LINE
  8
1
 62
2
 10
63.4521602059552
 20
-12.96584004508806
 30
0
 11
63.72716020595521
 21
-13.12052754508806
 31
0
  0
LINE
  8
1
 62
2
 10
63.31466020595521
 20
-12.65646504508806
 30
0
 11
63.4521602059552
 21
-12.96584004508806
 31
0
  0
LINE
  8
1
 62
2
 10
60.56466020595521
 20
-9.408027545088061
 30
0
 11
61.93966020595521
 21
-9.408027545088061
 31
0
  0
LINE
  8
1
 62
2
 10
60.56466020595521
 20
-10.18146504508806
 30
0
 11
61.93966020595521
 21
-10.18146504508806
 31
0
  0
LINE
  8
1
 62
2
 10
60.56466020595521
 20
-8.634590045088061
 30
0
 11
60.56466020595521
 21
-10.18146504508806
 31
0
  0
LINE
  8
1
 62
2
 10
61.93966020595521
 20
-8.634590045088061
 30
0
 11
60.56466020595521
 21
-8.634590045088061
 31
0
  0
LINE
  8
1
 62
2
 10
61.93966020595521
 20
-12.96584004508806
 30
0
 11
61.93966020595521
 21
-8.634590045088061
 31
0
  0
LINE
  8
1
 62
2
 10
61.80216020595521
 20
-13.12052754508806
 30
0
 11
61.93966020595521
 21
-12.96584004508806
 31
0
  0
LINE
  8
1
 62
2
 10
61.38966020595521
 20
-13.12052754508806
 30
0
 11
61.80216020595521
 21
-13.12052754508806
 31
0
  0
LINE
  8
1
 62
2
 10
59.73966020595521
 20
-9.408027545088061
 30
0
 11
58.36466020595521
 21
-9.408027545088061
 31
0
  0
LINE
  8
1
 62
2
 10
59.73966020595521
 20
-10.18146504508806
 30
0
 11
58.36466020595521
 21
-10.18146504508806
 31
0
  0
LINE
  8
1
 62
2
 10
59.73966020595521
 20
-8.634590045088061
 30
0
 11
59.73966020595521
 21
-10.18146504508806
 31
0
  0
LINE
  8
1
 62
2
 10
58.36466020595521
 20
-8.634590045088061
 30
0
 11
59.73966020595521
 21
-8.634590045088061
 31
0
  0
LINE
  8
1
 62
2
 10
58.36466020595521
 20
-13.12052754508806
 30
0
 11
58.36466020595521
 21
-8.634590045088061
 31
0
  0
LINE
  8
1
 62
2
 10
56.85216020595521
 20
-10.33615254508806
 30
0
 11
57.40216020595521
 21
-10.80021504508806
 31
0
  0
LINE
  8
1
 62
2
 10
55.88966020595521
 20
-9.253340045088061
 30
0
 11
56.85216020595521
 21
-10.33615254508806
 31
0
  0
LINE
  8
1
 62
2
 10
55.20216020595521
 20
-8.325215045088061
 30
0
 11
55.88966020595521
 21
-9.253340045088061
 31
0
  0
LINE
  8
1
 62
2
 10
54.51466020595521
 20
-9.253340045088061
 30
0
 11
55.20216020595521
 21
-8.325215045088061
 31
0
  0
LINE
  8
1
 62
2
 10
53.5521602059552
 20
-10.33615254508806
 30
0
 11
54.51466020595521
 21
-9.253340045088061
 31
0
  0
LINE
  8
1
 62
2
 10
53.00216020595521
 20
-10.80021504508806
 30
0
 11
53.5521602059552
 21
-10.33615254508806
 31
0
  0
LINE
  8
1
 62
2
 10
55.88966020595521
 20
-12.50177754508806
 30
0
 11
56.16466020595521
 21
-11.72834004508806
 31
0
  0
LINE
  8
1
 62
2
 10
54.2396602059552
 20
-11.72834004508806
 30
0
 11
54.51466020595521
 21
-12.50177754508806
 31
0
  0
LINE
  8
1
 62
2
 10
56.57716020595521
 20
-11.10959004508806
 30
0
 11
53.82716020595521
 21
-11.10959004508806
 31
0
  0
LINE
  8
1
 62
2
 10
54.2396602059552
 20
-10.18146504508806
 30
0
 11
56.16466020595521
 21
-10.18146504508806
 31
0
  0
LINE
  8
1
 62
2
 10
55.20216020595521
 20
-13.12052754508806
 30
0
 11
55.20216020595521
 21
-10.18146504508806
 31
0
  0
LINE
  8
1
 62
2
 10
53.41466020595521
 20
-13.12052754508806
 30
0
 11
56.85216020595521
 21
-13.12052754508806
 31
0
  0
LINE
  8
1
 62
2
 10
102.1643328207576
 20
-0.3446847030440727
 30
0
 11
102.1643328207576
 21
-4.366559703044072
 31
0
  0
LINE
  8
1
 62
2
 10
100.9268328207576
 20
-1.891559703044073
 30
0
 11
102.1643328207576
 21
-0.3446847030440727
 31
0
  0
LINE
  8
1
 62
2
 10
100.9268328207576
 20
-4.366559703044072
 30
0
 11
103.1268328207576
 21
-4.366559703044072
 31
0
  0
LINE
  8
1
 62
2
 10
97.21433282075761
 20
-0.3446847030440727
 30
0
 11
97.21433282075761
 21
-4.366559703044072
 31
0
  0
LINE
  8
1
 62
2
 10
95.97683282075761
 20
-1.891559703044073
 30
0
 11
97.21433282075761
 21
-0.3446847030440727
 31
0
  0
LINE
  8
1
 62
2
 10
95.97683282075761
 20
-4.366559703044072
 30
0
 11
98.17683282075761
 21
-4.366559703044072
 31
0
  0
LINE
  8
1
 62
2
 10
91.85183282075762
 20
0.2740652969559267
 30
0
 11
91.85183282075762
 21
-4.057184703044072
 31
0
  0
LINE
  8
1
 62
2
 10
93.63933282075762
 20
-4.057184703044072
 30
0
 11
93.63933282075762
 21
-0.808747203044073
 31
0
  0
LINE
  8
1
 62
2
 10
90.06433282075761
 20
-4.057184703044072
 30
0
 11
93.63933282075762
 21
-4.057184703044072
 31
0
  0
LINE
  8
1
 62
2
 10
90.06433282075761
 20
-0.808747203044073
 30
0
 11
90.06433282075761
 21
-4.057184703044072
 31
0
  0
LINE
  8
1
 62
2
 10
85.11433282075761
 20
-3.283747203044073
 30
0
 11
88.68933282075761
 21
-3.283747203044073
 31
0
  0
LINE
  8
1
 62
2
 10
88.13933282075762
 20
-0.3446847030440727
 30
0
 11
85.11433282075761
 21
-3.283747203044073
 31
0
  0
LINE
  8
1
 62
2
 10
88.13933282075762
 20
-4.366559703044072
 30
0
 11
88.13933282075762
 21
-0.3446847030440727
 31
0
  0
LINE
  8
1
 62
2
 10
82.36433282075761
 20
-0.3446847030440727
 30
0
 11
82.36433282075761
 21
-4.366559703044072
 31
0
  0
LINE
  8
1
 62
2
 10
81.12683282075761
 20
-1.891559703044073
 30
0
 11
82.36433282075761
 21
-0.3446847030440727
 31
0
  0
LINE
  8
1
 62
2
 10
81.12683282075761
 20
-4.366559703044072
 30
0
 11
83.32683282075762
 21
-4.366559703044072
 31
0
  0
LINE
  8
1
 62
2
 10
78.37683282075761
 20
-0.4993722030440728
 30
0
 11
78.65183282075761
 21
-0.6540597030440729
 31
0
  0
LINE
  8
1
 62
2
 10
77.82683282075762
 20
-0.3446847030440727
 30
0
 11
78.37683282075761
 21
-0.4993722030440728
 31
0
  0
LINE
  8
1
 62
2
 10
76.31433282075761
 20
-0.3446847030440727
 30
0
 11
77.82683282075762
 21
-0.3446847030440727
 31
0
  0
LINE
  8
1
 62
2
 10
75.62683282075761
 20
-0.4993722030440728
 30
0
 11
76.31433282075761
 21
-0.3446847030440727
 31
0
  0
LINE
  8
1
 62
2
 10
75.35183282075761
 20
-0.808747203044073
 30
0
 11
75.62683282075761
 21
-0.4993722030440728
 31
0
  0
LINE
  8
1
 62
2
 10
75.21433282075761
 20
-1.272809703044073
 30
0
 11
75.35183282075761
 21
-0.808747203044073
 31
0
  0
LINE
  8
1
 62
2
 10
75.21433282075761
 20
-3.283747203044073
 30
0
 11
75.21433282075761
 21
-1.272809703044073
 31
0
  0
LINE
  8
1
 62
2
 10
75.48933282075761
 20
-4.057184703044072
 30
0
 11
75.21433282075761
 21
-3.283747203044073
 31
0
  0
LINE
  8
1
 62
2
 10
75.76433282075762
 20
-4.211872203044073
 30
0
 11
75.48933282075761
 21
-4.057184703044072
 31
0
  0
LINE
  8
1
 62
2
 10
76.31433282075761
 20
-4.366559703044072
 30
0
 11
75.76433282075762
 21
-4.211872203044073
 31
0
  0
LINE
  8
1
 62
2
 10
77.68933282075761
 20
-4.366559703044072
 30
0
 11
76.31433282075761
 21
-4.366559703044072
 31
0
  0
LINE
  8
1
 62
2
 10
78.23933282075761
 20
-4.211872203044073
 30
0
 11
77.68933282075761
 21
-4.366559703044072
 31
0
  0
LINE
  8
1
 62
2
 10
78.51433282075762
 20
-4.057184703044072
 30
0
 11
78.23933282075761
 21
-4.211872203044073
 31
0
  0
LINE
  8
1
 62
2
 10
78.78933282075761
 20
-3.593122203044072
 30
0
 11
78.51433282075762
 21
-4.057184703044072
 31
0
  0
LINE
  8
1
 62
2
 10
78.78933282075761
 20
-2.664997203044073
 30
0
 11
78.78933282075761
 21
-3.593122203044072
 31
0
  0
LINE
  8
1
 62
2
 10
78.65183282075761
 20
-2.355622203044073
 30
0
 11
78.78933282075761
 21
-2.664997203044073
 31
0
  0
LINE
  8
1
 62
2
 10
78.37683282075761
 20
-2.200934703044073
 30
0
 11
78.65183282075761
 21
-2.355622203044073
 31
0
  0
LINE
  8
1
 62
2
 10
77.68933282075761
 20
-2.046247203044073
 30
0
 11
78.37683282075761
 21
-2.200934703044073
 31
0
  0
LINE
  8
1
 62
2
 10
76.31433282075761
 20
-2.046247203044073
 30
0
 11
77.68933282075761
 21
-2.046247203044073
 31
0
  0
LINE
  8
1
 62
2
 10
75.62683282075761
 20
-2.200934703044073
 30
0
 11
76.31433282075761
 21
-2.046247203044073
 31
0
  0
LINE
  8
1
 62
2
 10
75.35183282075761
 20
-2.355622203044073
 30
0
 11
75.62683282075761
 21
-2.200934703044073
 31
0
  0
LINE
  8
1
 62
2
 10
75.21433282075761
 20
-2.664997203044073
 30
0
 11
75.35183282075761
 21
-2.355622203044073
 31
0
  0
LINE
  8
1
 62
2
 10
73.19308282075761
 20
-4.366559703044072
 30
0
 11
73.06933282075761
 21
-4.366559703044072
 31
0
  0
LINE
  8
1
 62
2
 10
73.19308282075761
 20
-4.242809703044072
 30
0
 11
73.19308282075761
 21
-4.366559703044072
 31
0
  0
LINE
  8
1
 62
2
 10
73.06933282075761
 20
-4.242809703044072
 30
0
 11
73.19308282075761
 21
-4.242809703044072
 31
0
  0
LINE
  8
1
 62
2
 10
73.06933282075761
 20
-4.366559703044072
 30
0
 11
73.06933282075761
 21
-4.242809703044072
 31
0
  0
LINE
  8
1
 62
2
 10
71.96933282075761
 20
-2.355622203044073
 30
0
 11
72.10683282075762
 21
-2.046247203044073
 31
0
  0
LINE
  8
1
 62
2
 10
71.69433282075762
 20
-2.510309703044073
 30
0
 11
71.96933282075761
 21
-2.355622203044073
 31
0
  0
LINE
  8
1
 62
2
 10
71.00683282075762
 20
-2.664997203044073
 30
0
 11
71.69433282075762
 21
-2.510309703044073
 31
0
  0
LINE
  8
1
 62
2
 10
69.63183282075762
 20
-2.664997203044073
 30
0
 11
71.00683282075762
 21
-2.664997203044073
 31
0
  0
LINE
  8
1
 62
2
 10
68.94433282075762
 20
-2.510309703044073
 30
0
 11
69.63183282075762
 21
-2.664997203044073
 31
0
  0
LINE
  8
1
 62
2
 10
68.66933282075762
 20
-2.355622203044073
 30
0
 11
68.94433282075762
 21
-2.510309703044073
 31
0
  0
LINE
  8
1
 62
2
 10
68.53183282075761
 20
-2.046247203044073
 30
0
 11
68.66933282075762
 21
-2.355622203044073
 31
0
  0
LINE
  8
1
 62
2
 10
68.53183282075761
 20
-1.118122203044073
 30
0
 11
68.53183282075761
 21
-2.046247203044073
 31
0
  0
LINE
  8
1
 62
2
 10
68.66933282075762
 20
-0.6540597030440729
 30
0
 11
68.53183282075761
 21
-1.118122203044073
 31
0
  0
LINE
  8
1
 62
2
 10
68.94433282075762
 20
-0.4993722030440728
 30
0
 11
68.66933282075762
 21
-0.6540597030440729
 31
0
  0
LINE
  8
1
 62
2
 10
69.63183282075762
 20
-0.3446847030440727
 30
0
 11
68.94433282075762
 21
-0.4993722030440728
 31
0
  0
LINE
  8
1
 62
2
 10
71.00683282075762
 20
-0.3446847030440727
 30
0
 11
69.63183282075762
 21
-0.3446847030440727
 31
0
  0
LINE
  8
1
 62
2
 10
71.69433282075762
 20
-0.4993722030440728
 30
0
 11
71.00683282075762
 21
-0.3446847030440727
 31
0
  0
LINE
  8
1
 62
2
 10
71.96933282075761
 20
-0.808747203044073
 30
0
 11
71.69433282075762
 21
-0.4993722030440728
 31
0
  0
LINE
  8
1
 62
2
 10
72.10683282075762
 20
-1.272809703044073
 30
0
 11
71.96933282075761
 21
-0.808747203044073
 31
0
  0
LINE
  8
1
 62
2
 10
72.10683282075762
 20
-3.283747203044073
 30
0
 11
72.10683282075762
 21
-1.272809703044073
 31
0
  0
LINE
  8
1
 62
2
 10
71.96933282075761
 20
-3.902497203044073
 30
0
 11
72.10683282075762
 21
-3.283747203044073
 31
0
  0
LINE
  8
1
 62
2
 10
71.69433282075762
 20
-4.211872203044073
 30
0
 11
71.96933282075761
 21
-3.902497203044073
 31
0
  0
LINE
  8
1
 62
2
 10
71.00683282075762
 20
-4.366559703044072
 30
0
 11
71.69433282075762
 21
-4.211872203044073
 31
0
  0
LINE
  8
1
 62
2
 10
69.49433282075762
 20
-4.366559703044072
 30
0
 11
71.00683282075762
 21
-4.366559703044072
 31
0
  0
LINE
  8
1
 62
2
 10
68.94433282075762
 20
-4.211872203044073
 30
0
 11
69.49433282075762
 21
-4.366559703044072
 31
0
  0
LINE
  8
1
 62
2
 10
68.66933282075762
 20
-4.057184703044072
 30
0
 11
68.94433282075762
 21
-4.211872203044073
 31
0
  0
LINE
  8
1
 62
2
 10
63.58183282075762
 20
-0.3446847030440727
 30
0
 11
67.01933282075761
 21
-0.3446847030440727
 31
0
  0
LINE
  8
1
 62
2
 10
63.58183282075762
 20
-2.355622203044073
 30
0
 11
63.58183282075762
 21
-0.3446847030440727
 31
0
  0
LINE
  8
1
 62
2
 10
63.99433282075762
 20
-1.891559703044073
 30
0
 11
63.58183282075762
 21
-2.355622203044073
 31
0
  0
LINE
  8
1
 62
2
 10
64.54433282075762
 20
-1.736872203044073
 30
0
 11
63.99433282075762
 21
-1.891559703044073
 31
0
  0
LINE
  8
1
 62
2
 10
66.19433282075762
 20
-1.736872203044073
 30
0
 11
64.54433282075762
 21
-1.736872203044073
 31
0
  0
LINE
  8
1
 62
2
 10
66.74433282075762
 20
-1.891559703044073
 30
0
 11
66.19433282075762
 21
-1.736872203044073
 31
0
  0
LINE
  8
1
 62
2
 10
67.01933282075761
 20
-2.200934703044073
 30
0
 11
66.74433282075762
 21
-1.891559703044073
 31
0
  0
LINE
  8
1
 62
2
 10
67.15683282075761
 20
-2.664997203044073
 30
0
 11
67.01933282075761
 21
-2.200934703044073
 31
0
  0
LINE
  8
1
 62
2
 10
67.15683282075761
 20
-3.438434703044073
 30
0
 11
67.15683282075761
 21
-2.664997203044073
 31
0
  0
LINE
  8
1
 62
2
 10
67.01933282075761
 20
-3.902497203044073
 30
0
 11
67.15683282075761
 21
-3.438434703044073
 31
0
  0
LINE
  8
1
 62
2
 10
66.74433282075762
 20
-4.211872203044073
 30
0
 11
67.01933282075761
 21
-3.902497203044073
 31
0
  0
LINE
  8
1
 62
2
 10
66.19433282075762
 20
-4.366559703044072
 30
0
 11
66.74433282075762
 21
-4.211872203044073
 31
0
  0
LINE
  8
1
 62
2
 10
64.54433282075762
 20
-4.366559703044072
 30
0
 11
66.19433282075762
 21
-4.366559703044072
 31
0
  0
LINE
  8
1
 62
2
 10
63.99433282075762
 20
-4.211872203044073
 30
0
 11
64.54433282075762
 21
-4.366559703044072
 31
0
  0
LINE
  8
1
 62
2
 10
63.71933282075761
 20
-4.057184703044072
 30
0
 11
63.99433282075762
 21
-4.211872203044073
 31
0
  0
LINE
  8
1
 62
2
 10
63.58183282075762
 20
-3.747809703044073
 30
0
 11
63.71933282075761
 21
-4.057184703044072
 31
0
  0
LINE
  8
1
 62
2
 10
61.93183282075761
 20
-2.819684703044072
 30
0
 11
62.61933282075761
 21
-3.593122203044072
 31
0
  0
LINE
  8
1
 62
2
 10
61.38183282075762
 20
-1.891559703044073
 30
0
 11
61.93183282075761
 21
-2.819684703044072
 31
0
  0
LINE
  8
1
 62
2
 10
60.96933282075761
 20
-0.808747203044073
 30
0
 11
61.38183282075762
 21
-1.891559703044073
 31
0
  0
LINE
  8
1
 62
2
 10
62.20683282075761
 20
-0.6540597030440729
 30
0
 11
61.24433282075761
 21
-1.427497203044073
 31
0
  0
LINE
  8
1
 62
2
 10
60.55683282075761
 20
-4.366559703044072
 30
0
 11
60.14433282075761
 21
-4.211872203044073
 31
0
  0
LINE
  8
1
 62
2
 10
60.55683282075761
 20
0.4287527969559273
 30
0
 11
60.55683282075761
 21
-4.366559703044072
 31
0
  0
LINE
  8
1
 62
2
 10
59.86933282075761
 20
-1.118122203044073
 30
0
 11
58.49433282075761
 21
-1.118122203044073
 31
0
  0
LINE
  8
1
 62
2
 10
59.59433282075761
 20
-2.046247203044073
 30
0
 11
59.86933282075761
 21
-1.118122203044073
 31
0
  0
LINE
  8
1
 62
2
 10
59.04433282075762
 20
-2.974372203044073
 30
0
 11
59.59433282075761
 21
-2.046247203044073
 31
0
  0
LINE
  8
1
 62
2
 10
58.49433282075761
 20
-3.593122203044072
 30
0
 11
59.04433282075762
 21
-2.974372203044073
 31
0
  0
LINE
  8
1
 62
2
 10
55.33183282075762
 20
0.5834402969559269
 30
0
 11
55.33183282075762
 21
-4.211872203044073
 31
0
  0
LINE
  8
1
 62
2
 10
56.98183282075762
 20
-1.272809703044073
 30
0
 11
55.33183282075762
 21
-1.272809703044073
 31
0
  0
LINE
  8
1
 62
2
 10
53.26933282075762
 20
-4.211872203044073
 30
0
 11
57.66933282075762
 21
-4.211872203044073
 31
0
  0
LINE
  8
1
 62
2
 10
144.7379918248151
 20
60.45314858239379
 30
0
 11
145.4243697239567
 21
61.22658608239379
 31
0
  0
LINE
  8
1
 62
2
 10
144.187991824815
 20
60.45314858239379
 30
0
 11
144.7379918248151
 21
60.45314858239379
 31
0
  0
LINE
  8
1
 62
2
 10
144.1323185643001
 20
60.91721108239379
 30
0
 11
144.187991824815
 21
60.45314858239379
 31
0
  0
LINE
  8
1
 62
2
 10
144.3232476230984
 20
62.00002358239379
 30
0
 11
144.1323185643001
 21
60.91721108239379
 31
0
  0
LINE
  8
1
 62
2
 10
144.1573499424118
 20
62.61877358239379
 30
0
 11
144.3232476230984
 21
62.00002358239379
 31
0
  0
LINE
  8
1
 62
2
 10
143.6073499424118
 20
62.61877358239379
 30
0
 11
144.1573499424118
 21
62.61877358239379
 31
0
  0
LINE
  8
1
 62
2
 10
142.9755232029268
 20
62.15471108239379
 30
0
 11
143.6073499424118
 21
62.61877358239379
 31
0
  0
LINE
  8
1
 62
2
 10
142.4539208836134
 20
61.53596108239379
 30
0
 11
142.9755232029268
 21
62.15471108239379
 31
0
  0
LINE
  8
1
 62
2
 10
143.7437278415535
 20
63.39221108239379
 30
0
 11
144.4573813205236
 21
64.32033608239379
 31
0
  0
LINE
  8
1
 62
2
 10
142.6459720432701
 20
61.84533608239379
 30
0
 11
143.7437278415535
 21
63.39221108239379
 31
0
  0
LINE
  8
1
 62
2
 10
141.850491824815
 20
60.45314858239379
 30
0
 11
142.6459720432701
 21
61.84533608239379
 31
0
  0
LINE
  8
1
 62
2
 10
138.8527674046434
 20
60.60783608239379
 30
0
 11
139.9527674046434
 21
60.60783608239379
 31
0
  0
LINE
  8
1
 62
2
 10
138.1925429844717
 20
60.76252358239379
 30
0
 11
138.8527674046434
 21
60.60783608239379
 31
0
  0
LINE
  8
1
 62
2
 10
138.1357476230985
 20
62.00002358239379
 30
0
 11
138.1925429844717
 21
60.76252358239379
 31
0
  0
LINE
  8
1
 62
2
 10
138.4630545810385
 20
63.85627358239379
 30
0
 11
138.1357476230985
 21
62.00002358239379
 31
0
  0
LINE
  8
1
 62
2
 10
139.7846255222402
 20
62.77346108239379
 30
0
 11
140.0573813205236
 21
64.32033608239379
 31
0
  0
LINE
  8
1
 62
2
 10
139.4561964634418
 20
61.69064858239379
 30
0
 11
139.7846255222402
 21
62.77346108239379
 31
0
  0
LINE
  8
1
 62
2
 10
140.2516766818968
 20
63.08283608239379
 30
0
 11
141.0766766818969
 21
63.08283608239379
 31
0
  0
LINE
  8
1
 62
2
 10
138.8494011020685
 20
62.92814858239379
 30
0
 11
140.2516766818968
 21
63.08283608239379
 31
0
  0
LINE
  8
1
 62
2
 10
137.1175743625835
 20
62.46408608239379
 30
0
 11
138.8494011020685
 21
62.92814858239379
 31
0
  0
LINE
  8
1
 62
2
 10
134.2323185643001
 20
60.91721108239379
 30
0
 11
134.7004918248151
 21
60.45314858239379
 31
0
  0
LINE
  8
1
 62
2
 10
133.5993697239568
 20
61.22658608239379
 30
0
 11
134.2323185643001
 21
60.91721108239379
 31
0
  0
LINE
  8
1
 62
2
 10
132.8845941441284
 20
61.07189858239379
 30
0
 11
133.5993697239568
 21
61.22658608239379
 31
0
  0
LINE
  8
1
 62
2
 10
132.5550429844718
 20
60.76252358239379
 30
0
 11
132.8845941441284
 21
61.07189858239379
 31
0
  0
LINE
  8
1
 62
2
 10
132.6379918248151
 20
60.45314858239379
 30
0
 11
132.5550429844718
 21
60.76252358239379
 31
0
  0
LINE
  8
1
 62
2
 10
133.1607162449867
 20
60.29846108239379
 30
0
 11
132.6379918248151
 21
60.45314858239379
 31
0
  0
LINE
  8
1
 62
2
 10
133.7652674046434
 20
60.60783608239379
 30
0
 11
133.1607162449867
 21
60.29846108239379
 31
0
  0
LINE
  8
1
 62
2
 10
134.1493697239568
 20
61.22658608239379
 30
0
 11
133.7652674046434
 21
60.60783608239379
 31
0
  0
LINE
  8
1
 62
2
 10
134.3937278415535
 20
63.39221108239379
 30
0
 11
134.1493697239568
 21
61.22658608239379
 31
0
  0
LINE
  8
1
 62
2
 10
134.6119324801803
 20
64.62971108239378
 30
0
 11
134.3937278415535
 21
63.39221108239379
 31
0
  0
LINE
  8
1
 62
2
 10
134.3107790012102
 20
63.70158608239379
 30
0
 11
133.4857790012102
 21
63.70158608239379
 31
0
  0
LINE
  8
1
 62
2
 10
135.3005545810386
 20
63.85627358239379
 30
0
 11
134.3107790012102
 21
63.70158608239379
 31
0
  0
LINE
  8
1
 62
2
 10
134.1198499424118
 20
62.61877358239379
 30
0
 11
135.2744011020685
 21
62.92814858239379
 31
0
  0
LINE
  8
1
 62
2
 10
132.8823499424118
 20
62.61877358239379
 30
0
 11
134.1198499424118
 21
62.61877358239379
 31
0
  0
LINE
  8
1
 62
2
 10
129.5845941441284
 20
61.07189858239379
 30
0
 11
128.7607162449867
 21
60.29846108239379
 31
0
  0
LINE
  8
1
 62
2
 10
130.0505232029268
 20
62.15471108239379
 30
0
 11
129.5845941441284
 21
61.07189858239379
 31
0
  0
LINE
  8
1
 62
2
 10
130.1869011020685
 20
62.92814858239379
 30
0
 11
130.0505232029268
 21
62.15471108239379
 31
0
  0
LINE
  8
1
 62
2
 10
130.2130545810385
 20
63.85627358239379
 30
0
 11
130.1869011020685
 21
62.92814858239379
 31
0
  0
LINE
  8
1
 62
2
 10
130.0198813205236
 20
64.32033608239379
 30
0
 11
130.2130545810385
 21
63.85627358239379
 31
0
  0
LINE
  8
1
 62
2
 10
129.6073813205236
 20
64.32033608239379
 30
0
 11
130.0198813205236
 21
64.32033608239379
 31
0
  0
LINE
  8
1
 62
2
 10
128.9755545810386
 20
63.85627358239379
 30
0
 11
129.6073813205236
 21
64.32033608239379
 31
0
  0
LINE
  8
1
 62
2
 10
128.5914522617252
 20
63.23752358239379
 30
0
 11
128.9755545810386
 21
63.85627358239379
 31
0
  0
LINE
  8
1
 62
2
 10
128.6460034213819
 20
63.54689858239379
 30
0
 11
128.9471569003519
 21
64.47502358239379
 31
0
  0
LINE
  8
1
 62
2
 10
128.4277987827551
 20
62.30939858239379
 30
0
 11
128.6460034213819
 21
63.54689858239379
 31
0
  0
LINE
  8
1
 62
2
 10
128.4561964634418
 20
61.69064858239379
 30
0
 11
128.4277987827551
 21
62.30939858239379
 31
0
  0
LINE
  8
1
 62
2
 10
124.8277674046434
 20
60.60783608239379
 30
0
 11
124.0857162449867
 21
60.29846108239379
 31
0
  0
LINE
  8
1
 62
2
 10
125.4868697239567
 20
61.22658608239379
 30
0
 11
124.8277674046434
 21
60.60783608239379
 31
0
  0
LINE
  8
1
 62
2
 10
125.6232476230985
 20
62.00002358239379
 30
0
 11
125.4868697239567
 21
61.22658608239379
 31
0
  0
LINE
  8
1
 62
2
 10
125.4300743625835
 20
62.46408608239379
 30
0
 11
125.6232476230985
 21
62.00002358239379
 31
0
  0
LINE
  8
1
 62
2
 10
124.7971255222402
 20
62.77346108239379
 30
0
 11
125.4300743625835
 21
62.46408608239379
 31
0
  0
LINE
  8
1
 62
2
 10
123.6425743625835
 20
62.46408608239379
 30
0
 11
124.7971255222402
 21
62.77346108239379
 31
0
  0
LINE
  8
1
 62
2
 10
122.8459720432701
 20
61.84533608239379
 30
0
 11
123.6425743625835
 21
62.46408608239379
 31
0
  0
LINE
  8
1
 62
2
 10
122.4618697239568
 20
61.22658608239379
 30
0
 11
122.8459720432701
 21
61.84533608239379
 31
0
  0
LINE
  8
1
 62
2
 10
122.6823185643001
 20
60.91721108239379
 30
0
 11
122.4618697239568
 21
61.22658608239379
 31
0
  0
LINE
  8
1
 62
2
 10
124.0834720432701
 20
61.84533608239379
 30
0
 11
122.6823185643001
 21
60.91721108239379
 31
0
  0
LINE
  8
1
 62
2
 10
125.0437278415535
 20
63.39221108239379
 30
0
 11
124.0834720432701
 21
61.84533608239379
 31
0
  0
LINE
  8
1
 62
2
 10
124.5482790012102
 20
63.70158608239379
 30
0
 11
125.4005545810385
 21
63.85627358239379
 31
0
  0
LINE
  8
1
 62
2
 10
123.3107790012102
 20
63.70158608239379
 30
0
 11
124.5482790012102
 21
63.70158608239379
 31
0
  0
LINE
  8
1
 62
2
 10
123.8357476230985
 20
62.00002358239379
 30
0
 11
124.5471569003519
 21
64.47502358239379
 31
0
  0
LINE
  8
1
 62
2
 10
123.8095941441284
 20
61.07189858239379
 30
0
 11
123.8357476230985
 21
62.00002358239379
 31
0
  0
LINE
  8
1
 62
2
 10
119.9595941441284
 20
61.07189858239379
 30
0
 11
120.5652674046434
 21
60.60783608239379
 31
0
  0
LINE
  8
1
 62
2
 10
119.2993697239567
 20
61.22658608239379
 30
0
 11
119.9595941441284
 21
61.07189858239379
 31
0
  0
LINE
  8
1
 62
2
 10
118.5845941441284
 20
61.07189858239379
 30
0
 11
119.2993697239567
 21
61.22658608239379
 31
0
  0
LINE
  8
1
 62
2
 10
118.5300429844717
 20
60.76252358239379
 30
0
 11
118.5845941441284
 21
61.07189858239379
 31
0
  0
LINE
  8
1
 62
2
 10
118.8879918248151
 20
60.45314858239379
 30
0
 11
118.5300429844717
 21
60.76252358239379
 31
0
  0
LINE
  8
1
 62
2
 10
119.4652674046434
 20
60.60783608239379
 30
0
 11
118.8879918248151
 21
60.45314858239379
 31
0
  0
LINE
  8
1
 62
2
 10
119.7948185643001
 20
60.91721108239379
 30
0
 11
119.4652674046434
 21
60.60783608239379
 31
0
  0
LINE
  8
1
 62
2
 10
120.0414208836134
 20
61.53596108239379
 30
0
 11
119.7948185643001
 21
60.91721108239379
 31
0
  0
LINE
  8
1
 62
2
 10
120.3948813205236
 20
64.32033608239379
 30
0
 11
120.0414208836134
 21
61.53596108239379
 31
0
  0
LINE
  8
1
 62
2
 10
120.3687278415535
 20
63.39221108239379
 30
0
 11
121.0835034213819
 21
63.54689858239379
 31
0
  0
LINE
  8
1
 62
2
 10
119.1039522617252
 20
63.23752358239379
 30
0
 11
120.3687278415535
 21
63.39221108239379
 31
0
  0
LINE
  8
1
 62
2
 10
117.9494011020685
 20
62.92814858239379
 30
0
 11
118.4698813205236
 21
64.32033608239379
 31
0
  0
LINE
  8
1
 62
2
 10
117.7039208836134
 20
61.53596108239379
 30
0
 11
117.9494011020685
 21
62.92814858239379
 31
0
  0
LINE
  8
1
 62
2
 10
117.650491824815
 20
60.45314858239379
 30
0
 11
117.7039208836134
 21
61.53596108239379
 31
0
  0
LINE
  8
1
 62
2
 10
113.662991824815
 20
60.45314858239379
 30
0
 11
114.2959406651584
 21
60.14377358239379
 31
0
  0
LINE
  8
1
 62
2
 10
113.3323185643001
 20
60.91721108239379
 30
0
 11
113.662991824815
 21
60.45314858239379
 31
0
  0
LINE
  8
1
 62
2
 10
113.3039208836134
 20
61.53596108239379
 30
0
 11
113.3323185643001
 21
60.91721108239379
 31
0
  0
LINE
  8
1
 62
2
 10
113.3857476230984
 20
62.00002358239379
 30
0
 11
113.3039208836134
 21
61.53596108239379
 31
0
  0
LINE
  8
1
 62
2
 10
113.7971255222402
 20
62.77346108239379
 30
0
 11
113.3857476230984
 21
62.00002358239379
 31
0
  0
LINE
  8
1
 62
2
 10
114.3187278415535
 20
63.39221108239379
 30
0
 11
113.7971255222402
 21
62.77346108239379
 31
0
  0
LINE
  8
1
 62
2
 10
114.9232790012102
 20
63.70158608239379
 30
0
 11
114.3187278415535
 21
63.39221108239379
 31
0
  0
LINE
  8
1
 62
2
 10
116.3244324801802
 20
64.62971108239378
 30
0
 11
116.6551057406952
 21
64.16564858239379
 31
0
  0
LINE
  8
1
 62
2
 10
116.3255545810385
 20
63.85627358239379
 30
0
 11
115.9948813205236
 21
64.32033608239379
 31
0
  0
LINE
  8
1
 62
2
 10
113.7960034213819
 20
63.54689858239379
 30
0
 11
115.6380545810385
 21
63.85627358239379
 31
0
  0
LINE
  8
1
 62
2
 10
112.3119011020685
 20
62.92814858239379
 30
0
 11
113.7960034213819
 21
63.54689858239379
 31
0
  0
LINE
  8
1
 62
2
 10
109.6698813205236
 20
64.32033608239379
 30
0
 11
109.7517080600086
 21
64.78439858239379
 31
0
  0
LINE
  8
1
 62
2
 10
111.4573813205236
 20
64.32033608239379
 30
0
 11
111.3210034213819
 21
63.54689858239379
 31
0
  0
LINE
  8
1
 62
2
 10
107.8823813205236
 20
64.32033608239379
 30
0
 11
111.4573813205236
 21
64.32033608239379
 31
0
  0
LINE
  8
1
 62
2
 10
107.7460034213818
 20
63.54689858239379
 30
0
 11
107.8823813205236
 21
64.32033608239379
 31
0
  0
LINE
  8
1
 62
2
 10
110.6891766818968
 20
63.08283608239379
 30
0
 11
108.2141766818968
 21
63.08283608239379
 31
0
  0
LINE
  8
1
 62
2
 10
108.9607162449867
 20
60.29846108239379
 30
0
 11
109.4516766818968
 21
63.08283608239379
 31
0
  0
LINE
  8
1
 62
2
 10
110.6084720432701
 20
61.84533608239379
 30
0
 11
109.2334720432701
 21
61.84533608239379
 31
0
  0
LINE
  8
1
 62
2
 10
109.2084406651584
 20
60.14377358239379
 30
0
 11
110.9959406651584
 21
60.14377358239379
 31
0
  0
LINE
  8
1
 62
2
 10
108.575491824815
 20
60.45314858239379
 30
0
 11
109.2084406651584
 21
60.14377358239379
 31
0
  0
LINE
  8
1
 62
2
 10
108.2175429844717
 20
60.76252358239379
 30
0
 11
108.575491824815
 21
60.45314858239379
 31
0
  0
LINE
  8
1
 62
2
 10
108.0243697239567
 20
61.22658608239379
 30
0
 11
108.2175429844717
 21
60.76252358239379
 31
0
  0
LINE
  8
1
 62
2
 10
107.8595941441284
 20
61.07189858239379
 30
0
 11
108.5732476230984
 21
62.00002358239379
 31
0
  0
LINE
  8
1
 62
2
 10
107.337991824815
 20
60.45314858239379
 30
0
 11
107.8595941441284
 21
61.07189858239379
 31
0
  0
LINE
  8
1
 62
2
 10
107.0084406651584
 20
60.14377358239379
 30
0
 11
107.337991824815
 21
60.45314858239379
 31
0
  0
LINE
  8
1
 62
2
 10
102.3846255222402
 20
62.77346108239379
 30
0
 11
106.5096255222402
 21
62.77346108239379
 31
0
  0
LINE
  8
1
 62
2
 10
100.1595941441284
 20
61.07189858239379
 30
0
 11
100.7652674046434
 21
60.60783608239379
 31
0
  0
LINE
  8
1
 62
2
 10
99.49936972395675
 20
61.22658608239379
 30
0
 11
100.1595941441284
 21
61.07189858239379
 31
0
  0
LINE
  8
1
 62
2
 10
98.78459414412841
 20
61.07189858239379
 30
0
 11
99.49936972395675
 21
61.22658608239379
 31
0
  0
LINE
  8
1
 62
2
 10
98.73004298447172
 20
60.76252358239379
 30
0
 11
98.78459414412841
 21
61.07189858239379
 31
0
  0
LINE
  8
1
 62
2
 10
99.08799182481505
 20
60.45314858239379
 30
0
 11
98.73004298447172
 21
60.76252358239379
 31
0
  0
LINE
  8
1
 62
2
 10
99.66526740464339
 20
60.60783608239379
 30
0
 11
99.08799182481505
 21
60.45314858239379
 31
0
  0
LINE
  8
1
 62
2
 10
99.99481856430006
 20
60.91721108239379
 30
0
 11
99.66526740464339
 21
60.60783608239379
 31
0
  0
LINE
  8
1
 62
2
 10
100.2414208836134
 20
61.53596108239379
 30
0
 11
99.99481856430006
 21
60.91721108239379
 31
0
  0
LINE
  8
1
 62
2
 10
100.5948813205236
 20
64.32033608239379
 30
0
 11
100.2414208836134
 21
61.53596108239379
 31
0
  0
LINE
  8
1
 62
2
 10
100.5687278415535
 20
63.39221108239379
 30
0
 11
101.2835034213819
 21
63.54689858239379
 31
0
  0
LINE
  8
1
 62
2
 10
99.30395226172517
 20
63.23752358239379
 30
0
 11
100.5687278415535
 21
63.39221108239379
 31
0
  0
LINE
  8
1
 62
2
 10
98.1494011020685
 20
62.92814858239379
 30
0
 11
98.66988132052356
 21
64.32033608239379
 31
0
  0
LINE
  8
1
 62
2
 10
97.90392088361342
 20
61.53596108239379
 30
0
 11
98.1494011020685
 21
62.92814858239379
 31
0
  0
LINE
  8
1
 62
2
 10
97.85049182481504
 20
60.45314858239379
 30
0
 11
97.90392088361342
 21
61.53596108239379
 31
0
  0
LINE
  8
1
 62
2
 10
93.86299182481504
 20
60.45314858239379
 30
0
 11
94.79821624498671
 21
60.29846108239379
 31
0
  0
LINE
  8
1
 62
2
 10
93.39481856430007
 20
60.91721108239379
 30
0
 11
93.86299182481504
 21
60.45314858239379
 31
0
  0
LINE
  8
1
 62
2
 10
93.77892088361342
 20
61.53596108239379
 30
0
 11
93.39481856430007
 21
60.91721108239379
 31
0
  0
LINE
  8
1
 62
2
 10
94.3834720432701
 20
61.84533608239379
 30
0
 11
93.77892088361342
 21
61.53596108239379
 31
0
  0
LINE
  8
1
 62
2
 10
94.9334720432701
 20
61.84533608239379
 30
0
 11
94.3834720432701
 21
61.84533608239379
 31
0
  0
LINE
  8
1
 62
2
 10
95.45619646344177
 20
61.69064858239379
 30
0
 11
94.9334720432701
 21
61.84533608239379
 31
0
  0
LINE
  8
1
 62
2
 10
94.82100342138186
 20
63.54689858239379
 30
0
 11
95.45619646344177
 21
61.69064858239379
 31
0
  0
LINE
  8
1
 62
2
 10
94.32443248018024
 20
64.62971108239378
 30
0
 11
94.82100342138186
 21
63.54689858239379
 31
0
  0
LINE
  8
1
 62
2
 10
94.73805458103854
 20
63.85627358239379
 30
0
 11
93.72100342138185
 21
63.54689858239379
 31
0
  0
LINE
  8
1
 62
2
 10
95.34260574069522
 20
64.16564858239379
 30
0
 11
94.73805458103854
 21
63.85627358239379
 31
0
  0
LINE
  8
1
 62
2
 10
94.8494011020685
 20
62.92814858239379
 30
0
 11
95.89372784155351
 21
63.39221108239379
 31
0
  0
LINE
  8
1
 62
2
 10
93.5573499424118
 20
62.61877358239379
 30
0
 11
94.8494011020685
 21
62.92814858239379
 31
0
  0
LINE
  8
1
 62
2
 10
88.68805458103853
 20
63.85627358239379
 30
0
 11
89.53920806000858
 21
64.78439858239379
 31
0
  0
LINE
  8
1
 62
2
 10
89.92892088361343
 20
61.53596108239379
 30
0
 11
88.82892088361342
 21
61.53596108239379
 31
0
  0
LINE
  8
1
 62
2
 10
90.14712552224015
 20
62.77346108239379
 30
0
 11
89.92892088361343
 21
61.53596108239379
 31
0
  0
LINE
  8
1
 62
2
 10
89.04712552224015
 20
62.77346108239379
 30
0
 11
90.14712552224015
 21
62.77346108239379
 31
0
  0
LINE
  8
1
 62
2
 10
88.82892088361342
 20
61.53596108239379
 30
0
 11
89.04712552224015
 21
62.77346108239379
 31
0
  0
LINE
  8
1
 62
2
 10
90.92094066515836
 20
60.14377358239379
 30
0
 11
90.23344066515836
 21
60.14377358239379
 31
0
  0
LINE
  8
1
 62
2
 10
91.57555458103853
 20
63.85627358239379
 30
0
 11
90.92094066515836
 21
60.14377358239379
 31
0
  0
LINE
  8
1
 62
2
 10
88.00055458103853
 20
63.85627358239379
 30
0
 11
91.57555458103853
 21
63.85627358239379
 31
0
  0
LINE
  8
1
 62
2
 10
87.34594066515835
 20
60.14377358239379
 30
0
 11
88.00055458103853
 21
63.85627358239379
 31
0
  0
LINE
  8
1
 62
2
 10
85.5845941441284
 20
61.07189858239379
 30
0
 11
84.78799182481504
 21
60.45314858239379
 31
0
  0
LINE
  8
1
 62
2
 10
86.1334720432701
 20
61.84533608239379
 30
0
 11
85.5845941441284
 21
61.07189858239379
 31
0
  0
LINE
  8
1
 62
2
 10
86.32440110206849
 20
62.92814858239379
 30
0
 11
86.1334720432701
 21
61.84533608239379
 31
0
  0
LINE
  8
1
 62
2
 10
86.02100342138185
 20
63.54689858239379
 30
0
 11
86.32440110206849
 21
62.92814858239379
 31
0
  0
LINE
  8
1
 62
2
 10
85.52555458103853
 20
63.85627358239379
 30
0
 11
86.02100342138185
 21
63.54689858239379
 31
0
  0
LINE
  8
1
 62
2
 10
84.70055458103853
 20
63.85627358239379
 30
0
 11
85.52555458103853
 21
63.85627358239379
 31
0
  0
LINE
  8
1
 62
2
 10
83.82100342138185
 20
63.54689858239379
 30
0
 11
84.70055458103853
 21
63.85627358239379
 31
0
  0
LINE
  8
1
 62
2
 10
83.13462552224014
 20
62.77346108239379
 30
0
 11
83.82100342138185
 21
63.54689858239379
 31
0
  0
LINE
  8
1
 62
2
 10
82.83347204327011
 20
61.84533608239379
 30
0
 11
83.13462552224014
 21
62.77346108239379
 31
0
  0
LINE
  8
1
 62
2
 10
82.8345941441284
 20
61.07189858239379
 30
0
 11
82.83347204327011
 21
61.84533608239379
 31
0
  0
LINE
  8
1
 62
2
 10
83.33004298447172
 20
60.76252358239379
 30
0
 11
82.8345941441284
 21
61.07189858239379
 31
0
  0
LINE
  8
1
 62
2
 10
84.29029878275512
 20
62.30939858239379
 30
0
 11
83.33004298447172
 21
60.76252358239379
 31
0
  0
LINE
  8
1
 62
2
 10
84.97555458103852
 20
63.85627358239379
 30
0
 11
84.29029878275512
 21
62.30939858239379
 31
0
  0
LINE
  8
1
 62
2
 10
80.41526740464339
 20
60.60783608239379
 30
0
 11
81.13004298447173
 21
60.76252358239379
 31
0
  0
LINE
  8
1
 62
2
 10
79.75504298447173
 20
60.76252358239379
 30
0
 11
80.41526740464339
 21
60.60783608239379
 31
0
  0
LINE
  8
1
 62
2
 10
79.53459414412841
 20
61.07189858239379
 30
0
 11
79.75504298447173
 21
60.76252358239379
 31
0
  0
LINE
  8
1
 62
2
 10
80.71417668189683
 20
63.08283608239379
 30
0
 11
81.2369011020685
 21
62.92814858239379
 31
0
  0
LINE
  8
1
 62
2
 10
80.30167668189684
 20
63.08283608239379
 30
0
 11
80.71417668189683
 21
63.08283608239379
 31
0
  0
LINE
  8
1
 62
2
 10
79.25622784155353
 20
63.39221108239379
 30
0
 11
78.26645226172518
 21
63.23752358239379
 31
0
  0
LINE
  8
1
 62
2
 10
80.2732790012102
 20
63.70158608239379
 30
0
 11
79.25622784155353
 21
63.39221108239379
 31
0
  0
LINE
  8
1
 62
2
 10
78.76302320292679
 20
62.15471108239379
 30
0
 11
79.39260574069522
 21
64.16564858239379
 31
0
  0
LINE
  8
1
 62
2
 10
78.05049182481504
 20
60.45314858239379
 30
0
 11
78.76302320292679
 21
62.15471108239379
 31
0
  0
LINE
  8
1
 62
2
 10
76.12436972395675
 20
61.22658608239379
 30
0
 11
76.31754298447173
 21
60.76252358239379
 31
0
  0
LINE
  8
1
 62
2
 10
75.79369646344176
 20
61.69064858239379
 30
0
 11
76.12436972395675
 21
61.22658608239379
 31
0
  0
LINE
  8
1
 62
2
 10
75.15850342138185
 20
63.54689858239379
 30
0
 11
74.82783016086688
 21
64.01096108239379
 31
0
  0
LINE
  8
1
 62
2
 10
75.21417668189683
 20
63.08283608239379
 30
0
 11
75.15850342138185
 21
63.54689858239379
 31
0
  0
LINE
  8
1
 62
2
 10
74.60962552224015
 20
62.77346108239379
 30
0
 11
75.21417668189683
 21
63.08283608239379
 31
0
  0
LINE
  8
1
 62
2
 10
74.39029878275514
 20
62.30939858239379
 30
0
 11
74.60962552224015
 21
62.77346108239379
 31
0
  0
LINE
  8
1
 62
2
 10
74.80392088361343
 20
61.53596108239379
 30
0
 11
74.39029878275514
 21
62.30939858239379
 31
0
  0
LINE
  8
1
 62
2
 10
74.83231856430007
 20
60.91721108239379
 30
0
 11
74.80392088361343
 21
61.53596108239379
 31
0
  0
LINE
  8
1
 62
2
 10
74.50276740464338
 20
60.60783608239379
 30
0
 11
74.83231856430007
 21
60.91721108239379
 31
0
  0
LINE
  8
1
 62
2
 10
73.95276740464338
 20
60.60783608239379
 30
0
 11
74.50276740464338
 21
60.60783608239379
 31
0
  0
LINE
  8
1
 62
2
 10
73.01754298447173
 20
60.76252358239379
 30
0
 11
73.51186972395675
 21
61.22658608239379
 31
0
  0
LINE
  8
1
 62
2
 10
72.93459414412841
 20
61.07189858239379
 30
0
 11
73.01754298447173
 21
60.76252358239379
 31
0
  0
LINE
  8
1
 62
2
 10
72.87892088361343
 20
61.53596108239379
 30
0
 11
72.93459414412841
 21
61.07189858239379
 31
0
  0
LINE
  8
1
 62
2
 10
184.0312388333118
 20
59.8359735911482
 30
0
 11
184.0312388333118
 21
59.1862860911482
 31
0
  0
LINE
  8
1
 62
2
 10
180.6570868020618
 20
59.8359735911482
 30
0
 11
184.0312388333118
 21
59.8359735911482
 31
0
  0
LINE
  8
1
 62
2
 10
180.6570868020618
 20
61.5251610911482
 30
0
 11
180.6570868020618
 21
59.8359735911482
 31
0
  0
LINE
  8
1
 62
2
 10
183.6722864895618
 20
61.5251610911482
 30
0
 11
180.6570868020618
 21
61.5251610911482
 31
0
  0
LINE
  8
1
 62
2
 10
183.6722864895618
 20
62.1748485911482
 30
0
 11
183.6722864895618
 21
61.5251610911482
 31
0
  0
LINE
  8
1
 62
2
 10
180.6570868020618
 20
62.1748485911482
 30
0
 11
183.6722864895618
 21
62.1748485911482
 31
0
  0
LINE
  8
1
 62
2
 10
180.6570868020618
 20
63.7340985911482
 30
0
 11
180.6570868020618
 21
62.1748485911482
 31
0
  0
LINE
  8
1
 62
2
 10
183.9594483645618
 20
63.7340985911482
 30
0
 11
180.6570868020618
 21
63.7340985911482
 31
0
  0
LINE
  8
1
 62
2
 10
183.9594483645618
 20
64.3837860911482
 30
0
 11
183.9594483645618
 21
63.7340985911482
 31
0
  0
LINE
  8
1
 62
2
 10
179.8673916458118
 20
64.3837860911482
 30
0
 11
183.9594483645618
 21
64.3837860911482
 31
0
  0
LINE
  8
1
 62
2
 10
179.8673916458118
 20
59.1862860911482
 30
0
 11
179.8673916458118
 21
64.3837860911482
 31
0
  0
LINE
  8
1
 62
2
 10
184.0312388333118
 20
59.1862860911482
 30
0
 11
179.8673916458118
 21
59.1862860911482
 31
0
  0
LINE
  8
1
 62
2
 10
179.8673916458118
 20
162.7159167544891
 30
0
 11
179.8673916458118
 21
163.3656042544891
 31
0
  0
LINE
  8
1
 62
2
 10
183.2415436770618
 20
162.7159167544891
 30
0
 11
179.8673916458118
 21
162.7159167544891
 31
0
  0
LINE
  8
1
 62
2
 10
183.2415436770618
 20
161.0267292544891
 30
0
 11
183.2415436770618
 21
162.7159167544891
 31
0
  0
LINE
  8
1
 62
2
 10
180.2263439895618
 20
161.0267292544891
 30
0
 11
183.2415436770618
 21
161.0267292544891
 31
0
  0
LINE
  8
1
 62
2
 10
180.2263439895618
 20
160.3770417544891
 30
0
 11
180.2263439895618
 21
161.0267292544891
 31
0
  0
LINE
  8
1
 62
2
 10
183.2415436770618
 20
160.3770417544891
 30
0
 11
180.2263439895618
 21
160.3770417544891
 31
0
  0
LINE
  8
1
 62
2
 10
183.2415436770618
 20
158.8177917544891
 30
0
 11
183.2415436770618
 21
160.3770417544891
 31
0
  0
LINE
  8
1
 62
2
 10
179.9391821145618
 20
158.8177917544891
 30
0
 11
183.2415436770618
 21
158.8177917544891
 31
0
  0
LINE
  8
1
 62
2
 10
179.9391821145618
 20
158.1681042544891
 30
0
 11
179.9391821145618
 21
158.8177917544891
 31
0
  0
LINE
  8
1
 62
2
 10
184.0312388333118
 20
158.1681042544891
 30
0
 11
179.9391821145618
 21
158.1681042544891
 31
0
  0
LINE
  8
1
 62
2
 10
184.0312388333118
 20
163.3656042544891
 30
0
 11
184.0312388333118
 21
158.1681042544891
 31
0
  0
LINE
  8
1
 62
2
 10
179.8673916458118
 20
163.3656042544891
 30
0
 11
184.0312388333118
 21
163.3656042544891
 31
0
  0
LINE
  8
1
 62
2
 10
183.5680009629806
 20
17.64773138322758
 30
0
 11
187.0330009629806
 21
17.64773138322758
 31
0
  0
LINE
  8
1
 62
2
 10
183.5680009629806
 20
22.59773138322758
 30
0
 11
183.5680009629806
 21
17.64773138322758
 31
0
  0
LINE
  8
1
 62
2
 10
187.0330009629806
 20
22.59773138322758
 30
0
 11
183.5680009629806
 21
22.59773138322758
 31
0
  0
LINE
  8
1
 62
2
 10
186.5380009629806
 20
20.37023138322758
 30
0
 11
183.5680009629806
 21
20.37023138322758
 31
0
  0
LINE
  8
1
 62
2
 10
194.0800570603394
 20
26.79077183018026
 30
0
 11
193.5300570603394
 21
27.10014683018026
 31
0
  0
LINE
  8
1
 62
2
 10
194.3550570603394
 20
26.94545933018026
 30
0
 11
194.0800570603394
 21
26.79077183018026
 31
0
  0
LINE
  8
1
 62
2
 10
194.7675570603394
 20
27.71889683018026
 30
0
 11
194.3550570603394
 21
26.94545933018026
 31
0
  0
LINE
  8
1
 62
2
 10
195.0425570603394
 20
28.64702183018026
 30
0
 11
194.7675570603394
 21
27.71889683018026
 31
0
  0
LINE
  8
1
 62
2
 10
193.1175570603394
 20
28.64702183018026
 30
0
 11
195.0425570603394
 21
28.64702183018026
 31
0
  0
LINE
  8
1
 62
2
 10
193.3925570603394
 20
29.57514683018026
 30
0
 11
192.9800570603394
 21
28.02827183018026
 31
0
  0
LINE
  8
1
 62
2
 10
191.8800570603394
 20
29.57514683018026
 30
0
 11
195.8675570603394
 21
29.57514683018026
 31
0
  0
LINE
  8
1
 62
2
 10
195.0425570603394
 20
31.43139683018026
 30
0
 11
192.8425570603394
 21
31.43139683018026
 31
0
  0
LINE
  8
1
 62
2
 10
195.0425570603394
 20
30.34858433018026
 30
0
 11
195.0425570603394
 21
31.43139683018026
 31
0
  0
LINE
  8
1
 62
2
 10
192.8425570603394
 20
30.34858433018026
 30
0
 11
195.0425570603394
 21
30.34858433018026
 31
0
  0
LINE
  8
1
 62
2
 10
192.8425570603394
 20
31.43139683018026
 30
0
 11
192.8425570603394
 21
30.34858433018026
 31
0
  0
LINE
  8
1
 62
2
 10
190.9175570603394
 20
27.10014683018026
 30
0
 11
190.9175570603394
 21
27.56420933018026
 31
0
  0
LINE
  8
1
 62
2
 10
188.9925570603394
 20
27.10014683018026
 30
0
 11
190.9175570603394
 21
27.10014683018026
 31
0
  0
LINE
  8
1
 62
2
 10
188.9925570603394
 20
29.42045933018026
 30
0
 11
188.9925570603394
 21
27.10014683018026
 31
0
  0
LINE
  8
1
 62
2
 10
190.5050570603394
 20
29.42045933018026
 30
0
 11
188.9925570603394
 21
29.42045933018026
 31
0
  0
LINE
  8
1
 62
2
 10
190.5050570603394
 20
30.96733433018026
 30
0
 11
190.5050570603394
 21
29.42045933018026
 31
0
  0
LINE
  8
1
 62
2
 10
188.9925570603394
 20
30.96733433018026
 30
0
 11
190.5050570603394
 21
30.96733433018026
 31
0
  0
LINE
  8
1
 62
2
 10
186.9300570603394
 20
31.12202183018026
 30
0
 11
188.1675570603394
 21
31.12202183018026
 31
0
  0
LINE
  8
1
 62
2
 10
186.7925570603394
 20
30.34858433018026
 30
0
 11
188.5800570603394
 21
30.34858433018026
 31
0
  0
LINE
  8
1
 62
2
 10
188.1675570603394
 20
29.72983433018026
 30
0
 11
187.0675570603394
 21
29.72983433018026
 31
0
  0
LINE
  8
1
 62
2
 10
187.0675570603394
 20
28.95639683018026
 30
0
 11
188.1675570603394
 21
28.95639683018026
 31
0
  0
LINE
  8
1
 62
2
 10
188.1675570603394
 20
27.10014683018026
 30
0
 11
187.0675570603394
 21
27.10014683018026
 31
0
  0
LINE
  8
1
 62
2
 10
188.1675570603394
 20
28.33764683018026
 30
0
 11
188.1675570603394
 21
27.10014683018026
 31
0
  0
LINE
  8
1
 62
2
 10
187.0675570603394
 20
28.33764683018026
 30
0
 11
188.1675570603394
 21
28.33764683018026
 31
0
  0
LINE
  8
1
 62
2
 10
187.0675570603394
 20
27.10014683018026
 30
0
 11
187.0675570603394
 21
28.33764683018026
 31
0
  0
LINE
  8
1
 62
2
 10
185.4175570603394
 20
31.74077183018026
 30
0
 11
185.4175570603394
 21
26.79077183018026
 31
0
  0
LINE
  8
1
 62
2
 10
184.7300570603394
 20
30.81264683018026
 30
0
 11
184.3175570603394
 21
31.43139683018026
 31
0
  0
LINE
  8
1
 62
2
 10
184.7300570603394
 20
29.57514683018026
 30
0
 11
184.3175570603394
 21
30.19389683018026
 31
0
  0
LINE
  8
1
 62
2
 10
183.9050570603394
 20
28.49233433018026
 30
0
 11
186.2425570603394
 21
28.95639683018026
 31
0
  0
LINE
  8
1
 62
2
 10
183.3550570603394
 20
29.26577183018026
 30
0
 11
183.6300570603394
 21
28.64702183018026
 31
0
  0
LINE
  8
1
 62
2
 10
182.9425570603394
 20
31.58608433018026
 30
0
 11
182.9425570603394
 21
26.94545933018026
 31
0
  0
LINE
  8
1
 62
2
 10
183.3550570603394
 20
30.65795933018026
 30
0
 11
183.6300570603394
 21
31.27670933018026
 31
0
  0
LINE
  8
1
 62
2
 10
182.1175570603394
 20
31.12202183018026
 30
0
 11
182.5300570603394
 21
30.50327183018026
 31
0
  0
LINE
  8
1
 62
2
 10
183.9050570603394
 20
29.88452183018026
 30
0
 11
181.9800570603394
 21
29.88452183018026
 31
0
  0
LINE
  8
1
 62
2
 10
182.3925570603394
 20
28.49233433018026
 30
0
 11
182.9425570603394
 21
29.88452183018026
 31
0
  0
LINE
  8
1
 62
2
 10
181.9800570603394
 20
27.71889683018026
 30
0
 11
182.3925570603394
 21
28.49233433018026
 31
0
  0
LINE
  8
1
 62
2
 10
180.4675570603394
 20
27.10014683018026
 30
0
 11
180.0550570603394
 21
27.10014683018026
 31
0
  0
LINE
  8
1
 62
2
 10
180.3300570603394
 20
31.58608433018026
 30
0
 11
180.4675570603394
 21
27.10014683018026
 31
0
  0
LINE
  8
1
 62
2
 10
181.1550570603394
 20
30.19389683018026
 30
0
 11
179.0925570603394
 21
30.19389683018026
 31
0
  0
LINE
  8
1
 62
2
 10
179.6425570603394
 20
28.64702183018026
 30
0
 11
180.3300570603394
 21
30.03920933018026
 31
0
  0
LINE
  8
1
 62
2
 10
178.8175570603394
 20
27.71889683018026
 30
0
 11
179.6425570603394
 21
28.64702183018026
 31
0
  0
LINE
  8
1
 62
2
 10
177.9925570603394
 20
30.19389683018026
 30
0
 11
178.6800570603394
 21
29.11108433018026
 31
0
  0
LINE
  8
1
 62
2
 10
177.5800570603394
 20
29.26577183018026
 30
0
 11
177.9925570603394
 21
30.19389683018026
 31
0
  0
LINE
  8
1
 62
2
 10
177.0300570603394
 20
28.33764683018026
 30
0
 11
177.5800570603394
 21
29.26577183018026
 31
0
  0
LINE
  8
1
 62
2
 10
178.6800570603394
 20
30.34858433018026
 30
0
 11
177.1675570603394
 21
30.34858433018026
 31
0
  0
LINE
  8
1
 62
2
 10
177.9925570603394
 20
26.79077183018026
 30
0
 11
177.9925570603394
 21
31.74077183018026
 31
0
  0
LINE
  8
1
 62
7
 10
101.5367190671667
 20
142.6228559578622
 30
0
 11
152.0916973514906
 21
147.4734541678492
 31
0
  0
LINE
  8
1
 62
7
 10
152.0916973514906
 20
75.06025434112922
 30
0
 11
101.5367190671667
 21
79.91085255111722
 31
0
  0
LINE
  8
1
 62
7
 10
212.3669978290049
 20
146.6361644524791
 30
0
 11
278.0629566370314
 21
134.8027099193212
 31
0
  0
LINE
  8
1
 62
7
 10
278.0629566370314
 20
87.73099858965725
 30
0
 11
212.3669978290046
 21
75.89754405649916
 31
0
  0
LINE
  8
1
 62
7
 10
78.94931523956174
 20
139.2668542544892
 30
0
 11
59.81534064334615
 21
139.2668542544892
 31
0
  0
LINE
  8
1
 62
7
 10
59.81534064334615
 20
139.2668542544892
 30
0
 11
58.94931523956173
 21
137.7668542544892
 31
0
  0
LINE
  8
1
 62
2
 10
79.89715195430119
 20
84.76685425448915
 30
0
 11
58.94931523956173
 21
84.76685425448915
 31
0
  0
LINE
  8
1
 62
7
 10
58.94931523956173
 20
137.7668542544892
 30
0
 11
58.94931523956173
 21
84.76685425448915
 31
0
  0
LINE
  8
1
 62
2
 10
79.89715195430139
 20
137.7668542544892
 30
0
 11
58.94931523956173
 21
137.7668542544892
 31
0
  0
LINE
  8
1
 62
7
 10
58.94931523956173
 20
84.76685425448915
 30
0
 11
59.81534064334615
 21
83.26685425448915
 31
0
  0
LINE
  8
1
 62
2
 10
59.81534064334615
 20
139.2668542544892
 30
0
 11
59.81534064334615
 21
83.26685425448915
 31
0
  0
LINE
  8
1
 62
7
 10
78.93374359641061
 20
139.2668542544892
 30
0
 11
78.93374359641061
 21
83.26685425448915
 31
0
  0
LINE
  8
1
 62
7
 10
59.81534064334615
 20
83.26685425448915
 30
0
 11
78.94931523956174
 21
83.26685425448915
 31
0
  0
LINE
  8
1
 62
7
 10
303.083289835777
 20
139.2668542544892
 30
0
 11
283.9284172383646
 21
139.2668542544892
 31
0
  0
LINE
  8
1
 62
7
 10
303.083289835777
 20
139.2668542544892
 30
0
 11
303.9493152395614
 21
137.7668542544892
 31
0
  0
LINE
  8
1
 62
7
 10
303.083289835777
 20
83.26685425448915
 30
0
 11
283.9284172383645
 21
83.26685425448915
 31
0
  0
LINE
  8
1
 62
7
 10
303.083289835777
 20
83.26685425448915
 30
0
 11
303.9493152395614
 21
84.76685425448915
 31
0
  0
LINE
  8
1
 62
7
 10
303.9493152395614
 20
84.76685425448915
 30
0
 11
303.9493152395614
 21
137.7668542544892
 31
0
  0
LINE
  8
1
 62
2
 10
283.5422286176473
 20
84.76685425448915
 30
0
 11
303.9493152395614
 21
84.76685425448915
 31
0
  0
LINE
  8
1
 62
2
 10
283.5505607797596
 20
137.7668542544892
 30
0
 11
303.9493152395614
 21
137.7668542544892
 31
0
  0
LINE
  8
1
 62
7
 10
283.9493152395614
 20
139.2668542544892
 30
0
 11
283.9493152395614
 21
83.26685425448915
 31
0
  0
LINE
  8
1
 62
2
 10
303.083289835777
 20
139.2668542544892
 30
0
 11
303.083289835777
 21
83.26685425448915
 31
0
  0
LINE
  8
1
 62
2
  6
DASHDOT
 10
181.9493152395617
 20
169.9557173302233
 30
0
 11
181.9493152395617
 21
54.44030439960852
 31
0
  0
LINE
  8
1
 62
2
  6
DASHDOT
 10
56.94931523956173
 20
111.2668542544891
 30
0
 11
306.7935732312314
 21
111.2668542544891
 31
0
  0
LINE
  8
1
 62
7
 10
184.4493152395617
 20
57.26685425448918
 30
0
 11
179.4493152395617
 21
57.26685425448918
 31
0
  0
LINE
  8
1
 62
7
 10
177.9493152395617
 20
63.58299954453524
 30
0
 11
177.9493152395617
 21
58.76685425448918
 31
0
  0
LINE
  8
1
 62
7
 10
185.9493152395617
 20
63.58299954453524
 30
0
 11
185.9493152395617
 21
58.76685425448918
 31
0
  0
LINE
  8
1
 62
7
 10
234.4493152395617
 20
107.2668542544891
 30
0
 11
229.6331699495156
 21
107.2668542544891
 31
0
  0
LINE
  8
1
 62
7
 10
235.9493152395617
 20
113.7668542544891
 30
0
 11
235.9493152395617
 21
108.7668542544891
 31
0
  0
LINE
  8
1
 62
7
 10
179.4493152395617
 20
165.2668542544891
 30
0
 11
184.4493152395617
 21
165.2668542544891
 31
0
  0
LINE
  8
1
 62
7
 10
177.9493152395617
 20
163.7668542544891
 30
0
 11
177.9493152395617
 21
158.9507089644431
 31
0
  0
LINE
  8
1
 62
7
 10
185.9493152395617
 20
163.7668542544891
 30
0
 11
185.9493152395617
 21
158.9507089644431
 31
0
  0
LINE
  8
1
 62
7
 10
229.6331699495156
 20
115.2668542544891
 30
0
 11
234.4493152395617
 21
115.2668542544891
 31
0
  0
LINE
  8
1
 62
7
 10
133.7859211098692
 20
75.81204618071814
 30
0
 11
133.8814294944613
 21
76.80747480622233
 31
0
  0
LINE
  8
1
 62
7
 10
129.8042066078536
 20
76.19407971908805
 30
0
 11
133.7859211098692
 21
75.81204618071814
 31
0
  0
LINE
  8
1
 62
7
 10
129.899714992446
 20
77.18950834459201
 30
0
 11
129.8042066078536
 21
76.19407971908805
 31
0
  0
LINE
  8
1
 62
7
 10
197.9493152395617
 20
138.7668542544891
 30
0
 11
197.9493152395617
 21
83.76685425448915
 31
0
  0
LINE
  8
1
 62
7
 10
187.9493152395617
 20
83.76685425448915
 30
0
 11
187.9493152395617
 21
138.7668542544891
 31
0
  0
LINE
  8
1
 62
7
 10
187.9493152395617
 20
138.7668542544891
 30
0
 11
197.9493152395617
 21
138.7668542544891
 31
0
  0
LINE
  8
1
 62
7
 10
197.9493152395617
 20
83.76685425448915
 30
0
 11
187.9493152395617
 21
83.76685425448915
 31
0
  0
LINE
  8
1
 62
7
 10
227.273150028776
 20
115.2668542544891
 30
0
 11
229.9493152395616
 21
115.2668542544891
 31
0
  0
LINE
  8
1
 62
7
 10
227.273150028776
 20
107.2668542544891
 30
0
 11
229.9493152395616
 21
107.2668542544891
 31
0
  0
LINE
  8
1
 62
7
 10
231.9493152395616
 20
113.2668542544891
 30
0
 11
231.9493152395616
 21
109.2668542544891
 31
0
  0
LINE
  8
1
 62
7
 10
127.4493152395617
 20
119.0168542544891
 30
0
 11
127.4493152395617
 21
103.5168542544892
 31
0
  0
LINE
  8
1
 62
7
 10
128.4493152395617
 20
120.0168542544891
 30
0
 11
137.298587361956
 21
120.0168542544891
 31
0
  0
LINE
  8
1
 62
7
 10
128.4493152395617
 20
102.5168542544892
 30
0
 11
137.298587361956
 21
102.5168542544892
 31
0
  0
LINE
  8
1
 62
7
 10
155.3822348087409
 20
127.6369486862803
 30
0
 11
153.9545932775734
 21
128.2011955010872
 31
0
  0
LINE
  8
1
 62
7
 10
152.4425650869301
 20
120.1952191050302
 30
0
 11
151.0830312315546
 21
120.7339585764083
 31
0
  0
LINE
  8
1
 62
7
 10
155.0477850779515
 20
126.2207436560959
 30
0
 11
153.5777471869071
 21
126.8017467857742
 31
0
  0
LINE
  8
1
 62
7
 10
151.7144999450791
 20
122.0327727831356
 30
0
 11
153.4032242411839
 21
121.3653382175519
 31
0
  0
LINE
  8
1
 62
7
 10
152.2473052894674
 20
91.99109117413781
 30
0
 11
159.8928643671669
 21
97.80247032275281
 31
0
  0
LINE
  8
1
 62
7
 10
159.0214727746549
 20
98.94888939643371
 30
0
 11
151.3759136969551
 21
93.13751024781874
 31
0
  0
LINE
  8
1
 62
7
 10
156.1961816428106
 20
108.1426309655535
 30
0
 11
146.8471038692771
 21
105.4994655400491
 31
0
  0
LINE
  8
1
 62
7
 10
148.9956657904394
 20
97.79333023867108
 30
0
 11
158.3324601026923
 21
100.4330228916784
 31
0
  0
LINE
  8
1
 62
7
 10
156.5034021220328
 20
117.1156171185565
 30
0
 11
146.8005006265327
 21
117.6045225110882
 31
0
  0
LINE
  8
1
 62
7
 10
146.3703877633703
 20
109.6160456614577
 30
0
 11
156.0611644460643
 21
109.1277512084853
 31
0
  0
LINE
  8
1
 62
7
 10
158.3464325426849
 20
84.17193104800674
 30
0
 11
165.7390745930495
 21
90.47707759915924
 31
0
  0
LINE
  8
1
 62
7
 10
162.7396987572867
 20
132.312386918038
 30
0
 11
157.3670473353737
 21
137.2728295275405
 31
0
  0
LINE
  8
1
 62
7
 10
153.9067462369572
 20
133.4991013322796
 30
0
 11
162.7396987572867
 21
132.312386918038
 31
0
  0
LINE
  8
1
 62
7
 10
160.1806948391406
 20
125.7466095977094
 30
0
 11
153.0426342232602
 21
132.3370129661113
 31
0
  0
LINE
  8
1
 62
7
 10
155.3226896440993
 20
132.1917941094837
 30
0
 11
161.205925443043
 21
126.7599409615571
 31
0
  0
LINE
  8
1
 62
7
 10
164.4502019666679
 20
130.733119562464
 30
0
 11
155.3226896440993
 21
132.1917941094837
 31
0
  0
LINE
  8
1
 62
7
 10
158.4492604734812
 20
138.2335502586722
 30
0
 11
165.578401319455
 21
131.6513823038933
 31
0
  0
LINE
  8
1
 62
7
 10
146.5748048265222
 20
116.1740679159133
 30
0
 11
150.3306018874201
 21
113.4511911655891
 31
0
  0
LINE
  8
1
 62
7
 10
150.3306018874201
 20
113.4511911655891
 30
0
 11
146.2996066941369
 21
111.0617374782616
 31
0
  0
LINE
  8
1
 62
7
 10
156.2095299522402
 20
115.6885977633297
 30
0
 11
149.2113845059706
 21
116.0412171368221
 31
0
  0
LINE
  8
1
 62
7
 10
149.2113845059706
 20
116.0412171368221
 30
0
 11
152.9506723667135
 21
113.330309222018
 31
0
  0
LINE
  8
1
 62
7
 10
152.9506723667135
 20
113.330309222018
 30
0
 11
148.9018969974692
 21
110.9303159768456
 31
0
  0
LINE
  8
1
 62
7
 10
148.9018969974692
 20
110.9303159768456
 30
0
 11
155.9278813055346
 21
110.5762938714322
 31
0
  0
LINE
  8
1
 62
7
 10
147.0905720462097
 20
104.0740655018737
 30
0
 11
151.5200640778133
 21
102.6957804435255
 31
0
  0
LINE
  8
1
 62
7
 10
151.5200640778133
 20
102.6957804435255
 30
0
 11
148.4653015790673
 21
99.14235431534851
 31
0
  0
LINE
  8
1
 62
7
 10
156.3742899773302
 20
106.6963147067712
 30
0
 11
149.6310972534712
 21
104.7916541074507
 31
0
  0
LINE
  8
1
 62
7
 10
149.6310972534712
 20
104.7916541074507
 30
0
 11
154.0411187520965
 21
103.4194275191237
 31
0
  0
LINE
  8
1
 62
7
 10
154.0411187520965
 20
103.4194275191237
 30
0
 11
150.9728821080978
 21
99.85032770770121
 31
0
  0
LINE
  8
1
 62
7
 10
150.9728821080978
 20
99.85032770770121
 30
0
 11
157.7428994831079
 21
101.7625651119908
 31
0
  0
LINE
  8
1
 62
7
 10
162.7591546416082
 20
89.89768621797765
 30
0
 11
161.2277768024913
 21
89.95177947630691
 31
0
  0
LINE
  8
1
 62
7
 10
157.2871850502723
 20
85.1595523249478
 30
0
 11
161.426788609019
 21
88.74400132416395
 31
0
  0
LINE
  8
1
 62
7
 10
161.426788609019
 20
88.74400132416395
 30
0
 11
153.9878080881745
 21
89.00677037092794
 31
0
  0
LINE
  8
1
 62
7
 10
162.7591546416082
 20
89.89768621797765
 30
0
 11
164.5833917999174
 21
91.47727831264052
 31
0
  0
LINE
  8
1
 62
7
 10
160.4749927486071
 20
96.59733983334483
 30
0
 11
160.0278989980156
 21
89.99416307255814
 31
0
  0
LINE
  8
1
 62
7
 10
160.0278989980156
 20
89.99416307255814
 30
0
 11
153.1304981154445
 21
90.23780176068004
 31
0
  0
LINE
  8
1
 62
7
 10
161.2277768024913
 20
89.95177947630691
 30
0
 11
161.5637198058963
 21
94.91335863078662
 31
0
  0
LINE
  8
1
 62
7
 10
172.6953820798893
 20
107.606854254489
 30
0
 11
171.2153820798893
 21
107.6068542544892
 31
0
  0
LINE
  8
1
 62
7
 10
171.2153820798893
 20
107.6068542544892
 30
0
 11
171.2153820798893
 21
110.5268542544891
 31
0
  0
LINE
  8
1
 62
7
 10
171.2153820798893
 20
110.5268542544891
 30
0
 11
168.2953820798892
 21
110.5268542544891
 31
0
  0
LINE
  8
1
 62
7
 10
168.2953820798892
 20
110.5268542544891
 30
0
 11
168.2953820798892
 21
112.0068542544891
 31
0
  0
LINE
  8
1
 62
7
 10
168.2953820798892
 20
112.0068542544891
 30
0
 11
171.2153820798893
 21
112.0068542544891
 31
0
  0
LINE
  8
1
 62
7
 10
171.2153820798893
 20
112.0068542544891
 30
0
 11
171.2153820798893
 21
114.926854254489
 31
0
  0
LINE
  8
1
 62
7
 10
171.2153820798893
 20
114.926854254489
 30
0
 11
172.6953820798893
 21
114.926854254489
 31
0
  0
LINE
  8
1
 62
7
 10
172.6953820798893
 20
114.926854254489
 30
0
 11
172.6953820798893
 21
112.0068542544891
 31
0
  0
LINE
  8
1
 62
7
 10
172.6953820798893
 20
112.0068542544891
 30
0
 11
175.6153820798893
 21
112.0068542544891
 31
0
  0
LINE
  8
1
 62
7
 10
175.6153820798893
 20
112.0068542544891
 30
0
 11
175.6153820798893
 21
110.5268542544891
 31
0
  0
LINE
  8
1
 62
7
 10
175.6153820798893
 20
110.5268542544891
 30
0
 11
172.6953820798893
 21
110.5268542544891
 31
0
  0
LINE
  8
1
 62
7
 10
172.6953820798893
 20
110.5268542544891
 30
0
 11
172.6953820798893
 21
107.606854254489
 31
0
  0
LINE
  8
1
 62
7
 10
171.9553820798893
 20
105.4968542544891
 30
0
 11
176.9523486597256
 21
102.6118542544892
 31
0
  0
LINE
  8
1
 62
7
 10
176.9523486597256
 20
102.6118542544892
 30
0
 11
176.9523486597256
 21
108.3818542544891
 31
0
  0
LINE
  8
1
 62
7
 10
176.9523486597256
 20
108.3818542544891
 30
0
 11
181.9493152395617
 21
111.2668542544891
 31
0
  0
LINE
  8
1
 62
7
 10
181.9493152395617
 20
111.2668542544891
 30
0
 11
176.9523486597256
 21
114.1518542544891
 31
0
  0
LINE
  8
1
 62
7
 10
176.9523486597256
 20
114.1518542544891
 30
0
 11
176.9523486597256
 21
119.921854254489
 31
0
  0
LINE
  8
1
 62
7
 10
176.9523486597256
 20
119.921854254489
 30
0
 11
171.9553820798893
 21
117.0368542544891
 31
0
  0
LINE
  8
1
 62
7
 10
171.9553820798893
 20
117.0368542544891
 30
0
 11
166.9584155000531
 21
119.921854254489
 31
0
  0
LINE
  8
1
 62
7
 10
166.9584155000531
 20
119.921854254489
 30
0
 11
166.9584155000531
 21
114.1518542544891
 31
0
  0
LINE
  8
1
 62
7
 10
166.9584155000531
 20
114.1518542544891
 30
0
 11
161.9614489202169
 21
111.2668542544891
 31
0
  0
LINE
  8
1
 62
7
 10
161.9614489202169
 20
111.2668542544891
 30
0
 11
166.9584155000531
 21
108.3818542544891
 31
0
  0
LINE
  8
1
 62
7
 10
166.9584155000531
 20
108.3818542544891
 30
0
 11
166.9584155000531
 21
102.6118542544892
 31
0
  0
LINE
  8
1
 62
7
 10
166.9584155000531
 20
102.6118542544892
 30
0
 11
171.9553820798893
 21
105.4968542544891
 31
0
  0
LINE
  8
1
 62
7
 10
171.9553820798893
 20
107.0368542544891
 30
0
 11
175.6186695378975
 21
104.921854254489
 31
0
  0
LINE
  8
1
 62
7
 10
175.6186695378975
 20
104.921854254489
 30
0
 11
175.6186695378975
 21
109.1518542544891
 31
0
  0
LINE
  8
1
 62
7
 10
175.6186695378975
 20
109.1518542544891
 30
0
 11
179.2819569959056
 21
111.2668542544891
 31
0
  0
LINE
  8
1
 62
7
 10
179.2819569959056
 20
111.2668542544891
 30
0
 11
175.6186695378975
 21
113.3818542544891
 31
0
  0
LINE
  8
1
 62
7
 10
175.6186695378975
 20
113.3818542544891
 30
0
 11
175.6186695378975
 21
117.6118542544892
 31
0
  0
LINE
  8
1
 62
7
 10
175.6186695378975
 20
117.6118542544892
 30
0
 11
171.9553820798893
 21
115.4968542544891
 31
0
  0
LINE
  8
1
 62
7
 10
171.9553820798893
 20
115.4968542544891
 30
0
 11
168.2920946218811
 21
117.6118542544892
 31
0
  0
LINE
  8
1
 62
7
 10
168.2920946218811
 20
117.6118542544892
 30
0
 11
168.2920946218811
 21
113.3818542544891
 31
0
  0
LINE
  8
1
 62
7
 10
168.2920946218811
 20
113.3818542544891
 30
0
 11
164.6288071638729
 21
111.2668542544891
 31
0
  0
LINE
  8
1
 62
7
 10
164.6288071638729
 20
111.2668542544891
 30
0
 11
168.2920946218811
 21
109.1518542544891
 31
0
  0
LINE
  8
1
 62
7
 10
168.2920946218811
 20
109.1518542544891
 30
0
 11
168.2920946218811
 21
104.921854254489
 31
0
  0
LINE
  8
1
 62
7
 10
168.2920946218811
 20
104.921854254489
 30
0
 11
171.9553820798893
 21
107.0368542544891
 31
0
  0
LINE
  8
1
 62
7
 10
209.6930652395616
 20
128.2668542544891
 30
0
 11
213.9493152395617
 21
128.2668542544891
 31
0
  0
LINE
  8
1
 62
7
 10
207.9493152395617
 20
123.2418542544891
 30
0
 11
207.9493152395617
 21
122.2668542544891
 31
0
  0
LINE
  8
1
 62
7
 10
213.9493152395617
 20
125.754354254489
 30
0
 11
213.9493152395617
 21
124.7793542544891
 31
0
  0
LINE
  8
1
 62
7
 10
213.9493152395618
 20
123.2418542544891
 30
0
 11
213.9493152395618
 21
122.2668542544891
 31
0
  0
LINE
  8
1
 62
7
 10
207.9493152395617
 20
122.2668542544891
 30
0
 11
213.9493152395618
 21
122.2668542544891
 31
0
  0
LINE
  8
1
 62
7
 10
213.9493152395617
 20
128.2668542544891
 30
0
 11
213.9493152395617
 21
127.291854254489
 31
0
  0
LINE
  8
1
 62
7
 10
207.9493152395617
 20
123.2418542544891
 30
0
 11
208.1279174829584
 21
123.2418542544891
 31
0
  0
LINE
  8
1
 62
7
 10
209.6930652395616
 20
123.2418542544891
 30
0
 11
213.9493152395618
 21
123.2418542544891
 31
0
  0
LINE
  8
1
 62
7
 10
209.6930652395616
 20
124.7793542544891
 30
0
 11
213.9493152395617
 21
124.7793542544891
 31
0
  0
LINE
  8
1
 62
7
 10
209.6930652395616
 20
125.754354254489
 30
0
 11
213.9493152395617
 21
125.754354254489
 31
0
  0
LINE
  8
1
 62
7
 10
209.6930652395616
 20
127.291854254489
 30
0
 11
213.9493152395617
 21
127.291854254489
 31
0
  0
LINE
  8
1
 62
7
 10
213.9493152395617
 20
117.754354254489
 30
0
 11
213.9493152395617
 21
116.7793542544891
 31
0
  0
LINE
  8
1
 62
7
 10
213.9493152395618
 20
115.241854254489
 30
0
 11
213.9493152395618
 21
114.2668542544891
 31
0
  0
LINE
  8
1
 62
7
 10
207.9493152395617
 20
115.241854254489
 30
0
 11
207.9493152395617
 21
114.2668542544891
 31
0
  0
LINE
  8
1
 62
7
 10
207.9493152395617
 20
114.2668542544891
 30
0
 11
213.9493152395618
 21
114.2668542544891
 31
0
  0
LINE
  8
1
 62
7
 10
209.6930652395616
 20
120.2668542544891
 30
0
 11
213.9493152395617
 21
120.2668542544891
 31
0
  0
LINE
  8
1
 62
7
 10
213.9493152395617
 20
120.2668542544891
 30
0
 11
213.9493152395617
 21
119.2918542544889
 31
0
  0
LINE
  8
1
 62
7
 10
207.9493152395617
 20
115.241854254489
 30
0
 11
208.1279174829584
 21
115.241854254489
 31
0
  0
LINE
  8
1
 62
7
 10
209.6930652395616
 20
115.241854254489
 30
0
 11
213.9493152395618
 21
115.241854254489
 31
0
  0
LINE
  8
1
 62
7
 10
209.6930652395616
 20
116.7793542544891
 30
0
 11
213.9493152395617
 21
116.7793542544891
 31
0
  0
LINE
  8
1
 62
7
 10
209.6930652395616
 20
117.754354254489
 30
0
 11
213.9493152395617
 21
117.754354254489
 31
0
  0
LINE
  8
1
 62
7
 10
209.6930652395616
 20
119.2918542544889
 30
0
 11
213.9493152395617
 21
119.2918542544889
 31
0
  0
LINE
  8
1
 62
7
 10
207.6993152395617
 20
103.7668542544891
 30
0
 11
210.1993152395617
 21
103.7668542544891
 31
0
  0
LINE
  8
1
 62
7
 10
207.6993152395617
 20
105.1168542544891
 30
0
 11
210.1993152395617
 21
105.1168542544891
 31
0
  0
LINE
  8
1
 62
7
 10
207.6115557542331
 20
111.2658272168795
 30
0
 11
210.1993152395617
 21
111.2658272168795
 31
0
  0
LINE
  8
1
 62
7
 10
207.6993152395617
 20
109.9168542544889
 30
0
 11
210.1993152395617
 21
109.9168542544889
 31
0
  0
LINE
  8
1
 62
7
 10
210.1993152395617
 20
111.2668542544891
 30
0
 11
207.6993152395617
 21
111.2668542544891
 31
0
  0
LINE
  8
1
 62
7
 10
207.6993152395617
 20
103.7668542544891
 30
0
 11
210.1993152395617
 21
103.7668542544891
 31
0
  0
LINE
  8
1
 62
7
 10
127.7485433888913
 20
76.39131442610631
 30
0
 11
127.8440517734834
 21
77.38674305161055
 31
0
  0
LINE
  8
1
 62
7
 10
123.7668288868757
 20
76.77334796447622
 30
0
 11
127.7485433888913
 21
76.39131442610631
 31
0
  0
LINE
  8
1
 62
7
 10
123.8623372714681
 20
77.76877658998023
 30
0
 11
123.7668288868757
 21
76.77334796447622
 31
0
  0
LINE
  8
1
 62
7
 10
121.7759716358682
 20
76.96436473366123
 30
0
 11
121.8714800204604
 21
77.95979335916536
 31
0
  0
LINE
  8
1
 62
7
 10
117.7942571338525
 20
77.34639827203012
 30
0
 11
121.7759716358682
 21
76.96436473366123
 31
0
  0
LINE
  8
1
 62
7
 10
117.8897655184448
 20
78.34182689753413
 30
0
 11
117.7942571338525
 21
77.34639827203012
 31
0
  0
LINE
  8
1
 62
2
  6
DASHDOT
 10
131.4493152395617
 20
-5.452245061498023
 30
0
 11
131.4493152395617
 21
-9.452245061498022
 31
0
  0
LINE
  8
1
 62
2
  6
DASHDOT
 10
133.4493152395617
 20
-7.452245061498027
 30
0
 11
129.4493152395617
 21
-7.45224506149803
 31
0
  0
LINE
  8
1
 62
7
 10
226.9493152395617
 20
3.047754938501972
 30
0
 11
226.9493152395617
 21
-9.452245061498022
 31
0
  0
LINE
  8
1
 62
7
 10
226.9493152395617
 20
-2.952245061498021
 30
0
 11
134.9493152395617
 21
-2.952245061498029
 31
0
  0
LINE
  8
1
 62
7
 10
128.9493152395617
 20
4.047754938501972
 30
0
 11
225.9493152395617
 21
4.047754938501972
 31
0
  0
LINE
  8
1
 62
7
 10
225.9493152395617
 20
4.047754938501972
 30
0
 11
230.9493152395617
 21
4.047754938501972
 31
0
  0
LINE
  8
1
 62
7
 10
226.9493152395617
 20
1.547754938501972
 30
0
 11
231.9493152395617
 21
1.547754938501972
 31
0
  0
LINE
  8
1
 62
7
 10
231.9493152395617
 20
1.547754938501972
 30
0
 11
231.9493152395617
 21
3.047754938501972
 31
0
  0
LINE
  8
1
 62
7
 10
134.9493152395617
 20
-7.45224506149803
 30
0
 11
134.9493152395617
 21
-2.952245061498029
 31
0
  0
LINE
  8
1
 62
7
 10
136.9493152395617
 20
-8.952245061498022
 30
0
 11
136.9493152395617
 21
3.047754938501972
 31
0
  0
LINE
  8
1
 62
2
 10
127.001214183903
 20
-65.77312262383241
 30
0
 11
116.920774384271
 21
-65.77312262383241
 31
0
  0
LINE
  8
1
 62
2
 10
127.001214183903
 20
-72.70743790001249
 30
0
 11
127.001214183903
 21
-65.77312262383241
 31
0
  0
LINE
  8
1
 62
2
 10
116.920774384271
 20
-72.70743790001249
 30
0
 11
127.001214183903
 21
-72.70743790001249
 31
0
  0
LINE
  8
1
 62
2
 10
116.920774384271
 20
-65.77312262383241
 30
0
 11
116.920774384271
 21
-72.70743790001249
 31
0
  0
LINE
  8
1
 62
7
 10
201.9493152395618
 20
-49.50224506149793
 30
0
 11
191.9493152395618
 21
-45.50224506149793
 31
0
  0
LINE
  8
1
 62
7
 10
191.9493152395618
 20
-45.50224506149793
 30
0
 11
191.9493152395618
 21
-48.00224506149793
 31
0
  0
LINE
  8
1
 62
7
 10
191.9493152395618
 20
-48.00224506149793
 30
0
 11
161.9493152395618
 21
-48.00224506149793
 31
0
  0
LINE
  8
1
 62
7
 10
161.9493152395618
 20
-48.00224506149793
 30
0
 11
161.9493152395618
 21
-51.00224506149793
 31
0
  0
LINE
  8
1
 62
7
 10
161.9493152395618
 20
-51.00224506149793
 30
0
 11
191.9493152395618
 21
-51.00224506149793
 31
0
  0
LINE
  8
1
 62
7
 10
191.9493152395618
 20
-51.00224506149793
 30
0
 11
191.9493152395618
 21
-53.50224506149804
 31
0
  0
LINE
  8
1
 62
7
 10
191.9493152395618
 20
-53.50224506149804
 30
0
 11
201.9493152395618
 21
-49.50224506149793
 31
0
  0
LINE
  8
1
 62
7
 10
161.9493152395618
 20
-45.50224506149793
 30
0
 11
163.3926909125359
 21
-48.00224506149793
 31
0
  0
LINE
  8
1
 62
7
 10
161.9493152395618
 20
-53.50224506149804
 30
0
 11
163.3926909125359
 21
-51.00224506149793
 31
0
  0
LINE
  8
1
 62
7
 10
181.9493152395617
 20
-45.50224506149793
 30
0
 11
183.3926909125359
 21
-48.00224506149793
 31
0
  0
LINE
  8
1
 62
7
 10
181.9493152395617
 20
-53.50224506149804
 30
0
 11
183.3926909125359
 21
-51.00224506149793
 31
0
  0
LINE
  8
1
 62
7
 10
161.9493152395618
 20
-45.50224506149793
 30
0
 11
181.9493152395617
 21
-45.50224506149793
 31
0
  0
LINE
  8
1
 62
7
 10
161.9493152395618
 20
-53.50224506149804
 30
0
 11
181.9493152395617
 21
-53.50224506149804
 31
0
  0
LINE
  8
1
 62
2
 10
141.7835557477776
 20
-31.87060251866525
 30
0
 11
222.1150747313457
 21
-31.87060251866525
 31
0
  0
LINE
  8
1
 62
7
 10
224.4493152395617
 20
-29.00224506149801
 30
0
 11
139.4493152395617
 21
-29.00224506149801
 31
0
  0
LINE
  8
1
 62
7
 10
224.4493152395617
 20
-27.45224506149802
 30
0
 11
224.4493152395617
 21
-29.00224506149801
 31
0
  0
LINE
  8
1
 62
2
 10
140.5318152395614
 20
-27.45224506149802
 30
0
 11
140.5318152395619
 21
-31.29853379744283
 31
0
  0
LINE
  8
1
 62
2
  6
CENTER
 10
134.4694481589853
 20
-33.60484711861652
 30
0
 11
134.4694481589853
 21
-37.16617542909872
 31
0
  0
LINE
  8
1
 62
2
  6
CENTER
 10
132.3562512405827
 20
-35.53894174065274
 30
0
 11
136.4394983551873
 21
-35.53894174065274
 31
0
  0
LINE
  8
1
 62
7
 10
104.5452331818269
 20
-38.00224506149802
 30
0
 11
135.6513672840178
 21
-38.00224506149802
 31
0
  0
LINE
  8
1
 62
7
 10
133.5594731679801
 20
-33.00224506149802
 30
0
 11
126.1628522681693
 21
-38.00224506149802
 31
0
  0
LINE
  8
1
 62
7
 10
140.3642181975851
 20
-33.00224506149802
 30
0
 11
133.5594731679801
 21
-33.00224506149802
 31
0
  0
LINE
  8
1
 62
7
 10
144.5237274337594
 20
-111.0210618289704
 30
0
 11
146.9493152395617
 21
-114.5022450614981
 31
0
  0
LINE
  8
1
 62
7
 10
227.4493152395617
 20
-87.63931681577732
 30
0
 11
227.4493152395617
 21
-93.62318504920076
 31
0
  0
LINE
  8
1
 62
7
 10
279.9096763217853
 20
-93.45232596761795
 30
0
 11
230.9756750326965
 21
-84.68585353207614
 31
0
  0
LINE
  8
1
 62
7
 10
226.5573416359303
 20
-35.69070964364533
 30
0
 11
278.1467763036426
 21
-45.97276244117431
 31
0
  0
LINE
  8
1
 62
7
 10
180.4493152395617
 20
-114.5022450614981
 30
0
 11
179.9493152395617
 21
-113.4951902999996
 31
0
  0
LINE
  8
1
 62
7
 10
139.4493152395617
 20
-29.00224506149801
 30
0
 11
139.4493152395617
 21
-27.45224506149802
 31
0
  0
LINE
  8
1
 62
7
 10
146.9493152395617
 20
-114.5022450614981
 30
0
 11
216.9493152395617
 21
-114.5022450614981
 31
0
  0
LINE
  8
1
 62
7
 10
183.9493152395617
 20
-113.4951902999996
 30
0
 11
183.4493152395617
 21
-114.5022450614981
 31
0
  0
LINE
  8
1
 62
7
 10
216.9493152395617
 20
-114.5022450614981
 30
0
 11
224.1280953969356
 21
-104.1993201151928
 31
0
  0
LINE
  8
1
 62
2
 10
223.366815239562
 20
-31.29853379744283
 30
0
 11
223.366815239562
 21
-27.45224506149802
 31
0
  0
LINE
  8
1
 62
7
 10
59.81534064334615
 20
-97.50224506149802
 30
0
 11
78.94931523956174
 21
-97.50224506149803
 31
0
  0
LINE
  8
1
 62
7
 10
58.94931523956173
 20
-96.00224506149803
 30
0
 11
59.81534064334615
 21
-97.50224506149802
 31
0
  0
LINE
  8
1
 62
2
 10
58.94931523956173
 20
-43.00224506149804
 30
0
 11
79.87796049477365
 21
-43.00224506149804
 31
0
  0
LINE
  8
1
 62
7
 10
58.94931523956173
 20
-43.00224506149804
 30
0
 11
58.94931523956173
 21
-96.00224506149803
 31
0
  0
LINE
  8
1
 62
2
 10
58.94931523956173
 20
-96.00224506149803
 30
0
 11
79.89715195430139
 21
-96.00224506149803
 31
0
  0
LINE
  8
1
 62
7
 10
59.81534064334615
 20
-41.50224506149804
 30
0
 11
58.94931523956173
 21
-43.00224506149804
 31
0
  0
LINE
  8
1
 62
2
 10
59.81534064334615
 20
-41.50224506149804
 30
0
 11
59.81534064334615
 21
-97.50224506149802
 31
0
  0
LINE
  8
1
 62
7
 10
78.93374359641061
 20
-41.50224506149804
 30
0
 11
78.93374359641061
 21
-97.50224506149803
 31
0
  0
LINE
  8
1
 62
7
 10
78.93374359641061
 20
-41.50224506149804
 30
0
 11
59.81534064334615
 21
-41.50224506149804
 31
0
  0
LINE
  8
1
 62
7
 10
283.9493152395614
 20
-97.50224506149803
 30
0
 11
303.083289835777
 21
-97.50224506149803
 31
0
  0
LINE
  8
1
 62
7
 10
303.9493152395614
 20
-96.00224506149803
 30
0
 11
303.083289835777
 21
-97.50224506149803
 31
0
  0
LINE
  8
1
 62
7
 10
283.9493152395614
 20
-41.50224506149804
 30
0
 11
303.083289835777
 21
-41.50224506149804
 31
0
  0
LINE
  8
1
 62
7
 10
303.9493152395614
 20
-43.00224506149804
 30
0
 11
303.083289835777
 21
-41.50224506149804
 31
0
  0
LINE
  8
1
 62
7
 10
283.9493152395614
 20
-41.50224506149804
 30
0
 11
283.9230012208724
 21
-41.50224506149804
 31
0
  0
LINE
  8
1
 62
7
 10
303.9493152395614
 20
-96.00224506149803
 30
0
 11
303.9493152395614
 21
-43.00224506149804
 31
0
  0
LINE
  8
1
 62
2
 10
303.9493152395614
 20
-43.00224506149804
 30
0
 11
283.5422286176473
 21
-43.00224506149804
 31
0
  0
LINE
  8
1
 62
2
 10
303.9493152395614
 20
-96.00224506149803
 30
0
 11
283.4277260217107
 21
-96.00224506149803
 31
0
  0
LINE
  8
1
 62
7
 10
283.9493152395614
 20
-41.50224506149804
 30
0
 11
283.9493152395614
 21
-97.50224506149803
 31
0
  0
LINE
  8
1
 62
2
 10
303.083289835777
 20
-41.50224506149804
 30
0
 11
303.083289835777
 21
-97.50224506149803
 31
0
  0
LINE
  8
1
 62
7
 10
135.4493152395617
 20
-10.45224506149802
 30
0
 11
135.4493152395617
 21
-27.45224506149802
 31
0
  0
LINE
  8
1
 62
7
 10
135.4493152395617
 20
-26.45224506149802
 30
0
 11
128.9493152395617
 21
-26.45224506149802
 31
0
  0
LINE
  8
1
 62
7
 10
136.9493152395617
 20
-3.952245061498133
 30
0
 11
134.9493152395617
 21
-3.952245061498133
 31
0
  0
LINE
  8
1
 62
7
 10
235.9493152395617
 20
-11.45224506149801
 30
0
 11
235.9493152395617
 21
-25.45224506149802
 31
0
  0
LINE
  8
1
 62
7
 10
228.4493152395617
 20
-27.45224506149802
 30
0
 11
228.4493152395617
 21
-10.45224506149803
 31
0
  0
LINE
  8
1
 62
7
 10
228.4493152395617
 20
-26.45224506149802
 30
0
 11
234.9493152395617
 21
-26.45224506149802
 31
0
  0
LINE
  8
1
 62
7
 10
234.9493152395617
 20
-10.45224506149802
 30
0
 11
135.4493152395617
 21
-10.45224506149802
 31
0
  0
LINE
  8
1
 62
7
 10
136.9493152395617
 20
-2.952245061498021
 30
0
 11
226.9493152395617
 21
-2.952245061498021
 31
0
  0
LINE
  8
1
 62
7
 10
228.4493152395617
 20
-27.45224506149802
 30
0
 11
135.4493152395617
 21
-27.45224506149802
 31
0
  0
LINE
  8
1
 62
7
 10
177.9493152395617
 20
-11.45224506149802
 30
0
 11
177.9493152395617
 21
-25.45224506149802
 31
0
  0
LINE
  8
1
 62
7
 10
185.9493152395617
 20
-25.45224506149802
 30
0
 11
185.9493152395617
 21
-11.45224506149802
 31
0
  0
LINE
  8
1
 62
7
 10
178.9493152395616
 20
-26.45224506149802
 30
0
 11
184.9493152395617
 21
-26.45224506149802
 31
0
  0
LINE
  8
1
 62
7
 10
127.9493152395617
 20
3.047754938501972
 30
0
 11
127.9493152395617
 21
-25.45224506149802
 31
0
  0
LINE
  8
1
 62
2
  6
DASHDOT
 10
55.14931523956184
 20
-69.45888041854622
 30
0
 11
113.649901993527
 21
-69.47099064913029
 31
0
  0
LINE
  8
1
 62
2
  6
DASHDOT
 10
181.9493152395617
 20
-119.7617683464798
 30
0
 11
181.9493152395617
 21
7.379575862732131
 31
0
  0
LINE
  8
1
 62
2
  6
DASHDOT
 10
259.8189341558783
 20
-69.50124916074459
 30
0
 11
312.4818152395617
 21
-69.51215092547095
 31
0
  0
LINE
  8
1
 62
2
  6
DASHDOT
 10
206.1034501970243
 20
-69.49012949626305
 30
0
 11
259.8189341558783
 21
-69.50124916074459
 31
0
  0
LINE
  8
1
 62
2
  6
DASHDOT
 10
136.1678622117088
 20
-69.47565210135934
 30
0
 11
158.0363107067914
 21
-69.4801790978988
 31
0
  0
ARC
  8
1
 62
7
 10
104.5452331818272
 20
111.2668542544891
 30
0
 40
31.50000000000077
 50
95.48058115612092
 51
125.2591601072234
  0
ARC
  8
1
 62
7
 10
104.5452331818272
 20
111.2668542544891
 30
0
 40
31.4999999999998
 50
234.7408398928421
 51
264.5194188438789
  0
ARC
  8
1
 62
7
 10
278.9493152395617
 20
139.7235196522531
 30
0
 40
4.999999999999683
 50
259.7891146042226
 51
354.7596971850738
  0
ARC
  8
1
 62
7
 10
278.9493152395617
 20
82.81018885672535
 30
0
 40
4.999999999999656
 50
5.240302814925326
 51
100.2108853957774
  0
ARC
  8
1
 62
7
 10
83.58301115411288
 20
141.1453808503862
 30
0
 40
5.00000000000203
 50
202.0679125728938
 51
303.7525493393783
  0
ARC
  8
1
 62
7
 10
83.58301115411288
 20
81.388327658592
 30
0
 40
5.00000000000195
 50
56.2474506606222
 51
157.9320874271047
  0
ARC
  8
1
 62
7
 10
181.9493152395617
 20
111.2668542544891
 30
0
 40
46.49999999999987
 50
167.5361268952464
 51
169.1538740980021
  0
ARC
  8
1
 62
7
 10
181.9493152395617
 20
111.2668542544891
 30
0
 40
46.50000000000002
 50
190.8461259019978
 51
192.463873104753
  0
ARC
  8
1
 62
7
 10
181.9493152395617
 20
111.2668542544891
 30
0
 40
46.49999999999995
 50
192.463873104753
 51
263.4204070550223
  0
ARC
  8
1
 62
7
 10
181.9493152395617
 20
111.2668542544891
 30
0
 40
46.49999999999989
 50
276.5795929449776
 51
353.4204070550224
  0
ARC
  8
1
 62
7
 10
181.9493152395617
 20
111.2668542544891
 30
0
 40
46.49999999999996
 50
6.579592944977513
 51
83.42040705502237
  0
ARC
  8
1
 62
7
 10
181.9493152395617
 20
111.2668542544891
 30
0
 40
46.49999999999999
 50
96.57959294497763
 51
167.5361268952464
  0
ARC
  8
1
 62
7
 10
181.9493152395617
 20
111.2668542544891
 30
0
 40
45.49999999999992
 50
191.0874892109705
 51
354.9564976310526
  0
ARC
  8
1
 62
7
 10
228.0968879776156
 20
104.7368338166013
 30
0
 40
2.660741931207996
 50
108.0344977871276
 51
130.7465182828997
  0
ARC
  8
1
 62
7
 10
228.0968879776156
 20
117.7968746923768
 30
0
 40
2.660741931207924
 50
229.2534817171004
 51
251.9655022128718
  0
ARC
  8
1
 62
7
 10
181.9493152395617
 20
111.2668542544891
 30
0
 40
45.49999999999992
 50
5.043502368947453
 51
168.9125107890294
  0
ARC
  8
1
 62
7
 10
137.0265599762955
 20
98.63136524932561
 30
0
 40
3.894999834120285
 50
64.83572944225304
 51
85.99519379077526
  0
ARC
  8
1
 62
7
 10
137.0265599762955
 20
123.9023432596527
 30
0
 40
3.894999834120209
 50
274.0048062092247
 51
295.1642705577469
  0
ARC
  8
1
 62
7
 10
154.2356096234329
 20
123.789618312691
 30
0
 40
2.563201007386962
 50
251.0499047959132
 51
71.52687294645526
  0
ARC
  8
1
 62
7
 10
152.7529499407686
 20
124.37552251601
 30
0
 40
2.56258750180955
 50
71.22448594483075
 51
246.0941493969789
  0
ARC
  8
1
 62
7
 10
154.224491624099
 20
123.7927998605227
 30
0
 40
4.014704157986824
 50
243.6502129130149
 51
73.23926254985598
  0
ARC
  8
1
 62
7
 10
152.7591213829177
 20
124.3751650021065
 30
0
 40
4.008448880806911
 50
72.64819422693415
 51
245.2828284196945
  0
ARC
  8
1
 62
7
 10
177.2811394846912
 20
111.9236561241398
 30
0
 40
32.00000000000004
 50
215.9491528491642
 51
218.5276805217404
  0
ARC
  8
1
 62
7
 10
177.2811394846912
 20
111.9236561241398
 30
0
 40
22.39999999999993
 50
215.3964493612828
 51
219.0803840096218
  0
ARC
  8
1
 62
7
 10
178.2885377558091
 20
111.9033368672681
 30
0
 40
22.39999999999998
 50
183.3963620427605
 51
187.1178182981213
  0
ARC
  8
1
 62
7
 10
178.2885377558091
 20
111.9033368672681
 30
0
 40
31.99999999999988
 50
181.5070516764516
 51
184.0988744581226
  0
ARC
  8
1
 62
7
 10
179.6334784541811
 20
108.0646428313488
 30
0
 40
31.99999999999999
 50
225.7074941258737
 51
228.300780418117
  0
ARC
  8
1
 62
7
 10
179.8114983179309
 20
107.9048396616674
 30
0
 40
22.40000000000016
 50
227.169938071334
 51
231.0801086589046
  0
ARC
  8
1
 62
7
 10
179.1469632103356
 20
113.8285282054797
 30
0
 40
32.00000000000005
 50
130.3010090182872
 51
132.8922964791132
  0
ARC
  8
1
 62
7
 10
179.1469632103356
 20
113.8285282054797
 30
0
 40
32.00000000000003
 50
142.069482010542
 51
144.662606239913
  0
ARC
  8
1
 62
7
 10
176.4316257652205
 20
110.3301494321668
 30
0
 40
22.39999999999959
 50
132.8216702078645
 51
136.509457810361
  0
ARC
  8
1
 62
7
 10
179.1469632103356
 20
113.8285282054797
 30
0
 40
22.39999999999992
 50
127.2820651782888
 51
131.0035214336493
  0
ARC
  8
1
 62
7
 10
178.2885377558091
 20
111.9033368672681
 30
0
 40
31.99999999999983
 50
169.7372772364967
 51
172.3304014658678
  0
ARC
  8
1
 62
7
 10
178.6192575188088
 20
111.8174360316913
 30
0
 40
22.7416310488127
 50
166.5278446305792
 51
170.1991815879603
  0
ARC
  8
1
 62
7
 10
178.503957406094
 20
110.1731818502816
 30
0
 40
22.40000000000004
 50
202.0536095775501
 51
205.7743831572283
  0
ARC
  8
1
 62
7
 10
178.503957406094
 20
110.1731818502816
 30
0
 40
32.00000000000005
 50
200.1642992112414
 51
202.7599038591768
  0
ARC
  8
1
 62
7
 10
178.503957406094
 20
110.1731818502816
 30
0
 40
32.00000000000015
 50
188.3982975963148
 51
190.9876490006576
  0
ARC
  8
1
 62
7
 10
178.8447777993037
 20
110.1975944446477
 30
0
 40
22.74163104881278
 50
185.1843930863214
 51
188.8564291227502
  0
ARC
  8
1
 62
7
 10
179.8114983179309
 20
107.9048396616674
 30
0
 40
32.00000000000004
 50
213.5108532650702
 51
216.1970888107789
  0
ARC
  8
1
 62
7
 10
179.8114983179309
 20
107.9048396616674
 30
0
 40
22.40000000000012
 50
210.3180170481949
 51
215.4489131234918
  0
ARC
  8
1
 62
7
 10
209.6930652395616
 20
124.010604254489
 30
0
 40
1.743749999999886
 50
133.9099976644661
 51
206.1587791261824
  0
ARC
  8
1
 62
7
 10
209.6930652395616
 20
126.5231042544891
 30
0
 40
1.743749999999992
 50
90
 51
226.0900023355313
  0
ARC
  8
1
 62
7
 10
209.6930652395616
 20
124.010604254489
 30
0
 40
0.7687500000001108
 50
90
 51
270
  0
ARC
  8
1
 62
7
 10
209.6930652395616
 20
126.5231042544891
 30
0
 40
0.7687499999998977
 50
90
 51
270
  0
ARC
  8
1
 62
7
 10
209.6930652395616
 20
116.010604254489
 30
0
 40
1.743749999999886
 50
133.9099976644661
 51
206.1587791261854
  0
ARC
  8
1
 62
7
 10
209.6930652395616
 20
118.523104254489
 30
0
 40
1.743750000000105
 50
90
 51
226.090002335529
  0
ARC
  8
1
 62
7
 10
209.6930652395616
 20
116.010604254489
 30
0
 40
0.7687500000001108
 50
90
 51
270
  0
ARC
  8
1
 62
7
 10
209.6930652395616
 20
118.523104254489
 30
0
 40
0.7687499999998977
 50
90
 51
270
  0
ARC
  8
1
 62
7
 10
207.6993152395617
 20
107.5168542544891
 30
0
 40
3.75
 50
90
 51
270
  0
ARC
  8
1
 62
7
 10
210.1993152395617
 20
107.5168542544891
 30
0
 40
2.400000000000006
 50
270
 51
90
  0
ARC
  8
1
 62
7
 10
210.1993152395617
 20
107.5168542544891
 30
0
 40
3.75
 50
270
 51
90
  0
ARC
  8
1
 62
7
 10
207.6993152395617
 20
107.5168542544891
 30
0
 40
2.399999999999793
 50
90
 51
270
  0
ARC
  8
1
 62
7
 10
181.9493152395617
 20
111.2668542544891
 30
0
 40
45.0000000000103
 50
5.912231078495267
 51
6.106851729865752
  0
ARC
  8
1
 62
7
 10
131.4493152395617
 20
-7.45224506149803
 30
0
 40
3.500000000000014
 50
180.0000000000017
 51
0
  0
ARC
  8
1
 62
2
 10
261.4566413400551
 20
-59.93686901467777
 30
0
 40
45
 50
151.7271214029317
 51
209.8006755189268
  0
ARC
  8
1
 62
2
 10
102.9873267379339
 20
-76.65516258680273
 30
0
 40
50.00000000000007
 50
355.1929627963172
 51
43.23238083805223
  0
ARC
  8
1
 62
7
 10
181.9493152395617
 20
-51.51652538087575
 30
0
 40
45.49999999999996
 50
156.4866421561078
 51
159.2786222402318
  0
ARC
  8
1
 62
7
 10
135.6513672840178
 20
-34.00224506149802
 30
0
 40
4
 50
270
 51
339.2786222402326
  0
ARC
  8
1
 62
7
 10
104.5452331818269
 20
-69.50224506149802
 30
0
 40
31.49999999999999
 50
90
 51
125.0755077115808
  0
ARC
  8
1
 62
7
 10
105.0116502968782
 20
-69.97015065132344
 30
0
 40
31.50000000000012
 50
232.1510192012058
 51
252.2232934360465
  0
ARC
  8
1
 62
7
 10
230.4493152395617
 20
-87.63931681577732
 30
0
 40
2.999999999999978
 50
79.89496363496349
 51
180
  0
ARC
  8
1
 62
7
 10
208.9493152395617
 20
-93.62318504920076
 30
0
 40
18.50000000000002
 50
275.8478307565206
 51
0
  0
ARC
  8
1
 62
7
 10
181.9493152395617
 20
169.9977549385019
 30
0
 40
283.5000000000001
 50
252.2232934360468
 51
275.8478307565209
  0
ARC
  8
1
 62
7
 10
227.3391859847072
 20
-31.76786381258272
 30
0
 40
3.999999999999887
 50
136.2585948140243
 51
258.7283397247326
  0
ARC
  8
1
 62
7
 10
136.559444494416
 20
-31.76786381258272
 30
0
 40
4.000000000000132
 50
336.4866421561076
 51
43.74140518597343
  0
ARC
  8
1
 62
7
 10
83.58301115411288
 20
-99.38077165739512
 30
0
 40
5.000000000001858
 50
65.15535809547249
 51
157.9320874271052
  0
ARC
  8
1
 62
7
 10
83.57030873927451
 20
-39.63081147304767
 30
0
 40
5.000000000000076
 50
201.9802345002092
 51
305.0755077115798
  0
ARC
  8
1
 62
7
 10
279.0258241952137
 20
-98.37358651938254
 30
0
 40
4.999999999999989
 50
10.03608002145953
 51
79.81829758841815
  0
ARC
  8
1
 62
7
 10
278.9447082844759
 20
-41.03684261261502
 30
0
 40
5.000000000000043
 50
260.8324032406166
 51
354.6591495962111
  0
ARC
  8
1
 62
7
 10
116.9844048598884
 20
-2.768034973881108
 30
0
 40
19.99999999999997
 50
303.2467313087444
 51
356.6055025700734
  0
CIRCLE
  8
1
 62
7
 10
181.9493152395617
 20
111.2668542544891
 30
0
 40
42
  0
CIRCLE
  8
1
 62
7
 10
131.4493152395617
 20
-7.45224506149803
 30
0
 40
1.350000000000193
  0
CIRCLE
  8
1
 62
2
 10
134.4694481589853
 20
-35.53894174065274
 30
0
 40
1
  0
ARC
  8
1
 62
7
 10
151.1366135055665
 20
65.10596808609131
 30
0
 40
9.999999999999176
 50
79.76842581282207
 51
84.51941884387756
  0
ARC
  8
1
 62
7
 10
214.1397150340656
 20
156.4777839183441
 30
0
 40
10.00000000000019
 50
258.0407529520101
 51
259.7891146042235
  0
ARC
  8
1
 62
7
 10
151.1366135055668
 20
157.4277404228883
 30
0
 40
10.00000000000023
 50
275.48058115612
 51
280.2315741871779
  0
ARC
  8
1
 62
7
 10
214.1397150340654
 20
66.05592459063524
 30
0
 40
9.999999999999508
 50
100.2108853957782
 51
101.9592470479849
  0
ARC
  8
1
 62
7
 10
179.4493152395617
 20
58.76685425448915
 30
0
 40
1.5
 50
180
 51
270
  0
ARC
  8
1
 62
7
 10
184.4493152395617
 20
58.76685425448915
 30
0
 40
1.499999999999965
 50
270
 51
0
  0
ARC
  8
1
 62
7
 10
187.4493152395617
 20
63.58299954453514
 30
0
 40
1.500000000000105
 50
96.57959294497717
 51
180
  0
ARC
  8
1
 62
7
 10
176.4493152395617
 20
63.58299954453514
 30
0
 40
1.5
 50
0
 51
83.42040705502284
  0
ARC
  8
1
 62
7
 10
229.6331699495156
 20
105.7668542544891
 30
0
 40
1.5
 50
90
 51
173.4204070550222
  0
ARC
  8
1
 62
7
 10
234.4493152395617
 20
108.7668542544891
 30
0
 40
1.5
 50
270
 51
0
  0
ARC
  8
1
 62
7
 10
179.4493152395617
 20
163.7668542544891
 30
0
 40
1.5
 50
90
 51
180
  0
ARC
  8
1
 62
7
 10
184.4493152395617
 20
163.7668542544891
 30
0
 40
1.5
 50
0
 51
90
  0
ARC
  8
1
 62
7
 10
187.4493152395617
 20
158.9507089644431
 30
0
 40
1.5
 50
180
 51
263.4204070550226
  0
ARC
  8
1
 62
7
 10
176.4493152395617
 20
158.9507089644431
 30
0
 40
1.500000000000034
 50
276.5795929449775
 51
0
  0
ARC
  8
1
 62
7
 10
229.6331699495156
 20
116.766854254489
 30
0
 40
1.49999999999995
 50
186.5795929449779
 51
270
  0
ARC
  8
1
 62
7
 10
234.4493152395617
 20
113.7668542544891
 30
0
 40
1.5
 50
0
 51
90
  0
ARC
  8
1
 62
7
 10
229.9493152395616
 20
113.2668542544891
 30
0
 40
2
 50
0
 51
90
  0
ARC
  8
1
 62
7
 10
229.9493152395616
 20
109.2668542544891
 30
0
 40
2
 50
270
 51
0
  0
ARC
  8
1
 62
7
 10
128.4493152395617
 20
119.0168542544891
 30
0
 40
1
 50
90
 51
180
  0
ARC
  8
1
 62
7
 10
128.4493152395617
 20
103.5168542544892
 30
0
 40
1.000000000000014
 50
180
 51
270
  0
ARC
  8
1
 62
7
 10
128.9493152395617
 20
3.047754938501972
 30
0
 40
1
 50
90
 51
180
  0
ARC
  8
1
 62
7
 10
137.9493152395617
 20
3.047754938501972
 30
0
 40
1
 50
90
 51
180
  0
ARC
  8
1
 62
7
 10
225.9493152395617
 20
3.047754938501972
 30
0
 40
1
 50
0
 51
90
  0
ARC
  8
1
 62
7
 10
230.9493152395617
 20
3.047754938501972
 30
0
 40
1
 50
0
 51
90
  0
ARC
  8
1
 62
7
 10
227.9493152395617
 20
-9.452245061498022
 30
0
 40
1
 50
180
 51
270
  0
ARC
  8
1
 62
7
 10
234.9493152395617
 20
-25.45224506149802
 30
0
 40
1
 50
270
 51
0
  0
ARC
  8
1
 62
7
 10
234.9493152395617
 20
-11.45224506149801
 30
0
 40
1
 50
0
 51
90
  0
ARC
  8
1
 62
7
 10
128.9493152395617
 20
-25.45224506149802
 30
0
 40
1.000000000000014
 50
180
 51
270
  0
ARC
  8
1
 62
7
 10
135.4493152395617
 20
-8.952245061498022
 30
0
 40
1.499999999999998
 50
270
 51
0
  0
ARC
  8
1
 62
7
 10
178.9493152395617
 20
-25.45224506149802
 30
0
 40
1
 50
180
 51
270
  0
ARC
  8
1
 62
7
 10
178.9493152395617
 20
-11.45224506149802
 30
0
 40
1
 50
90
 51
180
  0
ARC
  8
1
 62
7
 10
184.9493152395617
 20
-11.45224506149802
 30
0
 40
1
 50
0
 51
90
  0
ARC
  8
1
 62
7
 10
184.9493152395617
 20
-25.45224506149802
 30
0
 40
1
 50
270
 51
0
  0
LINE
  8
1
 62
2
 10
67.94800629154537
 20
-113.6605213903562
 30
0
 11
85.21355058434443
 21
-113.6605213903562
 31
0
  0
LINE
  8
1
 62
2
 10
85.21355058434443
 20
-113.6605213903562
 30
0
 11
121.7760538179946
 21
-73.12850620481399
 31
0
  0
LINE
  8
1
 62
2
 10
120.3635017757834
 20
-75.89452638832047
 30
0
 11
121.7760538179946
 21
-73.12850620481399
 31
0
  0
LINE
  8
1
 62
2
 10
119.1697377735188
 20
-74.81767393000548
 30
0
 11
121.7760538179946
 21
-73.12850620481399
 31
0
  0
LINE
  8
1
 62
2
 10
99.68030870044279
 20
-120.0155426172302
 30
0
 11
121.1286932164408
 21
-120.0155426172302
 31
0
  0
LINE
  8
1
 62
2
 10
121.1286932164408
 20
-120.0155426172302
 30
0
 11
130.8563897644872
 21
-73.60513127013647
 31
0
  0
LINE
  8
1
 62
2
 10
131.0277097013032
 20
-76.70623114062916
 30
0
 11
130.8563897644872
 21
-73.60513127013647
 31
0
  0
LINE
  8
1
 62
2
 10
129.4542072466983
 20
-76.37642250606376
 30
0
 11
130.8563897644872
 21
-73.60513127013647
 31
0
  0
LINE
  8
1
 62
2
 10
51.56161423499778
 20
-6.628042301030892
 30
0
 11
112.1580436728818
 21
-6.628042301030892
 31
0
  0
LINE
  8
1
 62
2
 10
112.1580436728818
 20
-6.628042301030892
 30
0
 11
74.10348598589084
 21
-41.50224506149804
 31
0
  0
LINE
  8
1
 62
2
 10
75.77211080558931
 20
-38.88272943096504
 30
0
 11
74.10348598589084
 21
-41.50224506149804
 31
0
  0
LINE
  8
1
 62
2
 10
76.85831528440144
 20
-40.06799038969529
 30
0
 11
74.10348598589084
 21
-41.50224506149804
 31
0
  0
LINE
  8
1
 62
2
 10
199.3905681558135
 20
24.7593039298007
 30
0
 11
168.7149167678221
 21
24.75930392980071
 31
0
  0
LINE
  8
1
 62
2
 10
168.7149167678221
 20
24.75930392980071
 30
0
 11
180.6241583922681
 21
59.20264755586118
 31
0
  0
LINE
  8
1
 62
2
 10
180.4035322302768
 20
56.10466514400579
 30
0
 11
180.6241583922681
 21
59.20264755586118
 31
0
  0
LINE
  8
1
 62
2
 10
178.8840993253165
 20
56.63002916771268
 30
0
 11
180.6241583922681
 21
59.20264755586118
 31
0
  0
DIMENSION
  8
1
  6
CONTINUOUS
 62
2
  2
*D0
  3
DMST_1
 10
303.9493152395614
 20
-30.85224506149804
 30
0
 11
293.9493152395614
 21
-28.25224506149804
 31
0
 12
0
 22
0
 32
0
 70
128
 13
283.9493152395614
 23
-41.50224506149804
 33
0
 14
303.9493152395614
 24
-43.00224506149804
 34
0
 53
0
  0
DIMENSION
  8
1
  6
CONTINUOUS
 62
2
  2
*D1
  3
DMST_2
 10
303.9493152395614
 20
-137.4474346003073
 30
0
 11
182.6339845944009
 21
-135.1474346003073
 31
0
 12
0
 22
0
 32
0
 70
128
 13
58.94931523956173
 23
-96.00224506149803
 33
0
 14
303.9493152395614
 24
-96.00224506149803
 34
0
 53
0
  0
DIMENSION
  8
1
  6
CONTINUOUS
 62
2
  2
*D2
  3
DMST_2
 10
317.385991165488
 20
4.047754938501967
 30
0
 11
315.085991165488
 21
-55.22724506149806
 31
0
 12
0
 22
0
 32
0
 70
128
  1
118
 13
216.9493152395617
 23
-114.5022450614981
 33
0
 14
225.9493152395617
 24
4.047754938501972
 34
0
 50
90
 53
0
  0
DIMENSION
  8
1
  6
CONTINUOUS
 62
2
  2
*D3
  3
DMST_2
 10
317.385991165488
 20
165.2668542544891
 30
0
 11
315.085991165488
 21
111.2668542544892
 31
0
 12
0
 22
0
 32
0
 70
128
 13
184.4493152395617
 23
57.26685425448918
 33
0
 14
184.4493152395617
 24
165.2668542544891
 34
0
 50
90
 53
0
  0
DIMENSION
  8
1
  6
CONTINUOUS
 62
2
  2
*D4
  3
DMST_2
 10
254.664567427737
 20
-114.5022450614981
 30
0
 11
252.364567427737
 21
-102.0107998330734
 31
0
 12
0
 22
0
 32
0
 70
128
 13
259.8189341558783
 23
-69.50124916074459
 33
0
 14
216.9493152395617
 24
-114.5022450614981
 34
0
 50
90
 53
0
  0
ENDSEC
  0
EOF
