  0
SECTION
  2
HEADER
  9
$ACADVER
  1
AC1015
  9
$ACADMAINTVER
 70
     6
  9
$DWGCODEPAGE
  3
ANSI_1252
  9
$INSBASE
 10
0.0
 20
0.0
 30
0.0
  9
$EXTMIN
 10
304.892456537163
 20
288.2728782368495
 30
0.0
  9
$EXTMAX
 10
544.9213203435596
 20
609.5911103454608
 30
0.0
  9
$LIMMIN
 10
0.0
 20
0.0
  9
$LIMMAX
 10
12.0
 20
9.0
  9
$ORTHOMODE
 70
     0
  9
$REGENMODE
 70
     1
  9
$FILLMODE
 70
     1
  9
$QTEXTMODE
 70
     0
  9
$MIRRTEXT
 70
     1
  9
$LTSCALE
 40
1.0
  9
$ATTMODE
 70
     1
  9
$TEXTSIZE
 40
0.2
  9
$TRACEWID
 40
0.05
  9
$TEXTSTYLE
  7
Standard
  9
$CLAYER
  8
0
  9
$CELTYPE
  6
ByLayer
  9
$CECOLOR
 62
   256
  9
$CELTSCALE
 40
1.0
  9
$DISPSILH
 70
     0
  9
$DIMSCALE
 40
1.0
  9
$DIMASZ
 40
0.18
  9
$DIMEXO
 40
0.0625
  9
$DIMDLI
 40
0.38
  9
$DIMRND
 40
0.0
  9
$DIMDLE
 40
0.0
  9
$DIMEXE
 40
0.18
  9
$DIMTP
 40
0.0
  9
$DIMTM
 40
0.0
  9
$DIMTXT
 40
0.18
  9
$DIMCEN
 40
0.09
  9
$DIMTSZ
 40
0.0
  9
$DIMTOL
 70
     0
  9
$DIMLIM
 70
     0
  9
$DIMTIH
 70
     1
  9
$DIMTOH
 70
     1
  9
$DIMSE1
 70
     0
  9
$DIMSE2
 70
     0
  9
$DIMTAD
 70
     0
  9
$DIMZIN
 70
     0
  9
$DIMBLK
  1

  9
$DIMASO
 70
     1
  9
$DIMSHO
 70
     1
  9
$DIMPOST
  1

  9
$DIMAPOST
  1

  9
$DIMALT
 70
     0
  9
$DIMALTD
 70
     2
  9
$DIMALTF
 40
25.4
  9
$DIMLFAC
 40
1.0
  9
$DIMTOFL
 70
     0
  9
$DIMTVP
 40
0.0
  9
$DIMTIX
 70
     0
  9
$DIMSOXD
 70
     0
  9
$DIMSAH
 70
     0
  9
$DIMBLK1
  1

  9
$DIMBLK2
  1

  9
$DIMSTYLE
  2
Standard
  9
$DIMCLRD
 70
     0
  9
$DIMCLRE
 70
     0
  9
$DIMCLRT
 70
     0
  9
$DIMTFAC
 40
1.0
  9
$DIMGAP
 40
0.09
  9
$DIMJUST
 70
     0
  9
$DIMSD1
 70
     0
  9
$DIMSD2
 70
     0
  9
$DIMTOLJ
 70
     1
  9
$DIMTZIN
 70
     0
  9
$DIMALTZ
 70
     0
  9
$DIMALTTZ
 70
     0
  9
$DIMUPT
 70
     0
  9
$DIMDEC
 70
     4
  9
$DIMTDEC
 70
     4
  9
$DIMALTU
 70
     2
  9
$DIMALTTD
 70
     2
  9
$DIMTXSTY
  7
Standard
  9
$DIMAUNIT
 70
     0
  9
$DIMADEC
 70
     0
  9
$DIMALTRND
 40
0.0
  9
$DIMAZIN
 70
     0
  9
$DIMDSEP
 70
    46
  9
$DIMATFIT
 70
     3
  9
$DIMFRAC
 70
     0
  9
$DIMLDRBLK
  1

  9
$DIMLUNIT
 70
     2
  9
$DIMLWD
 70
    -2
  9
$DIMLWE
 70
    -2
  9
$DIMTMOVE
 70
     0
  9
$LUNITS
 70
     2
  9
$LUPREC
 70
     4
  9
$SKETCHINC
 40
0.1
  9
$FILLETRAD
 40
0.5
  9
$AUNITS
 70
     0
  9
$AUPREC
 70
     0
  9
$MENU
  1
.
  9
$ELEVATION
 40
0.0
  9
$PELEVATION
 40
0.0
  9
$THICKNESS
 40
0.0
  9
$LIMCHECK
 70
     0
  9
$CHAMFERA
 40
0.5
  9
$CHAMFERB
 40
0.5
  9
$CHAMFERC
 40
1.0
  9
$CHAMFERD
 40
0.0
  9
$SKPOLY
 70
     0
  9
$TDCREATE
 40
2456911.664593762
  9
$TDUCREATE
 40
2456911.289593762
  9
$TDUPDATE
 40
2456911.664593773
  9
$TDUUPDATE
 40
2456911.289593773
  9
$TDINDWG
 40
0.0000000116
  9
$TDUSRTIMER
 40
0.0000000116
  9
$USRTIMER
 70
     1
  9
$ANGBASE
 50
0.0
  9
$ANGDIR
 70
     0
  9
$PDMODE
 70
     0
  9
$PDSIZE
 40
0.0
  9
$PLINEWID
 40
0.0
  9
$SPLFRAME
 70
     0
  9
$SPLINETYPE
 70
     6
  9
$SPLINESEGS
 70
     8
  9
$HANDSEED
  5
604
  9
$SURFTAB1
 70
     6
  9
$SURFTAB2
 70
     6
  9
$SURFTYPE
 70
     6
  9
$SURFU
 70
     6
  9
$SURFV
 70
     6
  9
$UCSBASE
  2

  9
$UCSNAME
  2

  9
$UCSORG
 10
0.0
 20
0.0
 30
0.0
  9
$UCSXDIR
 10
1.0
 20
0.0
 30
0.0
  9
$UCSYDIR
 10
0.0
 20
1.0
 30
0.0
  9
$UCSORTHOREF
  2

  9
$UCSORTHOVIEW
 70
     0
  9
$UCSORGTOP
 10
0.0
 20
0.0
 30
0.0
  9
$UCSORGBOTTOM
 10
0.0
 20
0.0
 30
0.0
  9
$UCSORGLEFT
 10
0.0
 20
0.0
 30
0.0
  9
$UCSORGRIGHT
 10
0.0
 20
0.0
 30
0.0
  9
$UCSORGFRONT
 10
0.0
 20
0.0
 30
0.0
  9
$UCSORGBACK
 10
0.0
 20
0.0
 30
0.0
  9
$PUCSBASE
  2

  9
$PUCSNAME
  2

  9
$PUCSORG
 10
0.0
 20
0.0
 30
0.0
  9
$PUCSXDIR
 10
1.0
 20
0.0
 30
0.0
  9
$PUCSYDIR
 10
0.0
 20
1.0
 30
0.0
  9
$PUCSORTHOREF
  2

  9
$PUCSORTHOVIEW
 70
     0
  9
$PUCSORGTOP
 10
0.0
 20
0.0
 30
0.0
  9
$PUCSORGBOTTOM
 10
0.0
 20
0.0
 30
0.0
  9
$PUCSORGLEFT
 10
0.0
 20
0.0
 30
0.0
  9
$PUCSORGRIGHT
 10
0.0
 20
0.0
 30
0.0
  9
$PUCSORGFRONT
 10
0.0
 20
0.0
 30
0.0
  9
$PUCSORGBACK
 10
0.0
 20
0.0
 30
0.0
  9
$USERI1
 70
     0
  9
$USERI2
 70
     0
  9
$USERI3
 70
     0
  9
$USERI4
 70
     0
  9
$USERI5
 70
     0
  9
$USERR1
 40
16.0
  9
$USERR2
 40
0.0
  9
$USERR3
 40
0.0
  9
$USERR4
 40
0.0
  9
$USERR5
 40
0.0
  9
$WORLDVIEW
 70
     1
  9
$SHADEDGE
 70
     3
  9
$SHADEDIF
 70
    70
  9
$TILEMODE
 70
     1
  9
$MAXACTVP
 70
    64
  9
$PINSBASE
 10
0.0
 20
0.0
 30
0.0
  9
$PLIMCHECK
 70
     0
  9
$PEXTMIN
 10
1.00000000000000E+20
 20
1.00000000000000E+20
 30
1.00000000000000E+20
  9
$PEXTMAX
 10
-1.00000000000000E+20
 20
-1.00000000000000E+20
 30
-1.00000000000000E+20
  9
$PLIMMIN
 10
0.0
 20
0.0
  9
$PLIMMAX
 10
12.0
 20
9.0
  9
$UNITMODE
 70
     0
  9
$VISRETAIN
 70
     1
  9
$PLINEGEN
 70
     0
  9
$PSLTSCALE
 70
     1
  9
$TREEDEPTH
 70
  3020
  9
$CMLSTYLE
  2
Standard
  9
$CMLJUST
 70
     0
  9
$CMLSCALE
 40
1.0
  9
$PROXYGRAPHICS
 70
     1
  9
$MEASUREMENT
 70
     1
  9
$CELWEIGHT
370
    -1
  9
$ENDCAPS
280
     0
  9
$JOINSTYLE
280
     0
  9
$LWDISPLAY
290
     0
  9
$INSUNITS
 70
     1
  9
$HYPERLINKBASE
  1

  9
$STYLESHEET
  1

  9
$XEDIT
290
     1
  9
$CEPSNTYPE
380
     0
  9
$PSTYLEMODE
290
     1
  9
$FINGERPRINTGUID
  2
{25A9E775-75DB-4A80-9FAA-3FD5D4335739}
  9
$VERSIONGUID
  2
{FAEB1C32-E019-11D5-929B-00C0DF256EC4}
  9
$EXTNAMES
290
     1
  9
$PSVPSCALE
 40
0.0
  9
$OLESTARTUP
290
     0
  0
ENDSEC
  0
SECTION
  2
CLASSES
  0
CLASS
  1
ACDBDICTIONARYWDFLT
  2
AcDbDictionaryWithDefault
  3
ObjectDBX Classes
 90
        0
280
     0
281
     0
  0
CLASS
  1
VISUALSTYLE
  2
AcDbVisualStyle
  3
ObjectDBX Classes
 90
     4095
280
     0
281
     0
  0
CLASS
  1

  2
exOdDbCircle
  3

 90
        0
280
     0
281
     1
  0
CLASS
  1

  2
exOdDbSpline
  3

 90
        0
280
     0
281
     1
  0
CLASS
  1

  2
exOdDbPolyline
  3

 90
        0
280
     0
281
     1
  0
CLASS
  1
ACDBPLACEHOLDER
  2
AcDbPlaceHolder
  3
ObjectDBX Classes
 90
        0
280
     0
281
     0
  0
CLASS
  1
LAYOUT
  2
AcDbLayout
  3
ObjectDBX Classes
 90
        0
280
     0
281
     0
  0
ENDSEC
  0
SECTION
  2
TABLES
  0
TABLE
  2
VPORT
  5
8
330
0
100
AcDbSymbolTable
 70
     1
  0
VPORT
  5
29
330
8
100
AcDbSymbolTableRecord
100
AcDbViewportTableRecord
  2
*Active
 70
     0
 10
0.0
 20
0.0
 11
1.0
 21
1.0
 12
424.9068884403613
 22
448.9319942911552
 13
0.0
 23
0.0
 14
0.5
 24
0.5
 15
0.5
 25
0.5
 16
0.0
 26
0.0
 36
1.0
 17
0.0
 27
0.0
 37
0.0
 40
353.4500553194725
 41
1.60267857142857
 42
50.0
 43
0.0
 44
0.0
 50
0.0
 51
0.0
 71
     0
 72
   100
 73
     1
 74
     3
 75
     0
 76
     0
 77
     0
 78
     0
281
     0
 65
     1
110
0.0
120
0.0
130
0.0
111
1.0
121
0.0
131
0.0
112
0.0
122
1.0
132
0.0
 79
     0
146
0.0
  0
ENDTAB
  0
TABLE
  2
LTYPE
  5
5
330
0
100
AcDbSymbolTable
 70
     8
  0
LTYPE
  5
14
330
5
100
AcDbSymbolTableRecord
100
AcDbLinetypeTableRecord
  2
ByBlock
 70
     0
  3

 72
    65
 73
     0
 40
0.0
  0
LTYPE
  5
15
330
5
100
AcDbSymbolTableRecord
100
AcDbLinetypeTableRecord
  2
ByLayer
 70
     0
  3

 72
    65
 73
     0
 40
0.0
  0
LTYPE
  5
16
330
5
100
AcDbSymbolTableRecord
100
AcDbLinetypeTableRecord
  2
Continuous
 70
     0
  3
Solid line
 72
    65
 73
     0
 40
0.0
  0
LTYPE
  5
3B
330
5
100
AcDbSymbolTableRecord
100
AcDbLinetypeTableRecord
  2
DASHED
 70
     0
  3
Dashed
 72
    65
 73
     2
 40
15.0
 49
7.0
 74
     0
 49
-8.0
 74
     0
  0
LTYPE
  5
3C
330
5
100
AcDbSymbolTableRecord
100
AcDbLinetypeTableRecord
  2
DOTTED
 70
     0
  3
Dotted
 72
    65
 73
     2
 40
1.0
 49
0.0
 74
     0
 49
-1.0
 74
     0
  0
LTYPE
  5
3D
330
5
100
AcDbSymbolTableRecord
100
AcDbLinetypeTableRecord
  2
DOT_CENTER
 70
     0
  3
Dot_Center
 72
    65
 73
     4
 40
14.0
 49
12.0
 74
     0
 49
-1.0
 74
     0
 49
0.0
 74
     0
 49
-1.0
 74
     0
  0
LTYPE
  5
3E
330
5
100
AcDbSymbolTableRecord
100
AcDbLinetypeTableRecord
  2
LONG_DASHED
 70
     0
  3
Long_Dashed
 72
    65
 73
     2
 40
15.0
 49
10.0
 74
     0
 49
-5.0
 74
     0
  0
LTYPE
  5
3F
330
5
100
AcDbSymbolTableRecord
100
AcDbLinetypeTableRecord
  2
DASH_CENTER
 70
     0
  3
Dash_Center
 72
    65
 73
     4
 40
14.0
 49
11.0
 74
     0
 49
-1.0
 74
     0
 49
1.0
 74
     0
 49
-1.0
 74
     0
  0
LTYPE
  5
40
330
5
100
AcDbSymbolTableRecord
100
AcDbLinetypeTableRecord
  2
PHANTOM
 70
     0
  3
Phantom
 72
    65
 73
     6
 40
13.0
 49
10.0
 74
     0
 49
-1.0
 74
     0
 49
0.0
 74
     0
 49
-1.0
 74
     0
 49
0.0
 74
     0
 49
-1.0
 74
     0
  0
LTYPE
  5
41
330
5
100
AcDbSymbolTableRecord
100
AcDbLinetypeTableRecord
  2
CENTER_DASH_DASH
 70
     0
  3
Center_Dash_Dash
 72
    65
 73
     6
 40
14.0
 49
9.0
 74
     0
 49
-1.0
 74
     0
 49
1.0
 74
     0
 49
-1.0
 74
     0
 49
1.0
 74
     0
 49
-1.0
 74
     0
  0
ENDTAB
  0
TABLE
  2
LAYER
  5
2
330
0
100
AcDbSymbolTable
 70
     2
  0
LAYER
  5
10
330
2
100
AcDbSymbolTableRecord
100
AcDbLayerTableRecord
  2
0
 70
     0
 62
     7
  6
Continuous
370
    -3
390
F
  0
LAYER
  5
42
330
2
100
AcDbSymbolTableRecord
100
AcDbLayerTableRecord
  2
1
 70
     0
 62
     7
  6
Continuous
370
    -3
390
F
  0
ENDTAB
  0
TABLE
  2
STYLE
  5
3
330
0
100
AcDbSymbolTable
 70
     4
  0
STYLE
  5
11
330
3
100
AcDbSymbolTableRecord
100
AcDbTextStyleTableRecord
  2
Standard
 70
     0
 40
0.0
 41
1.0
 50
0.0
 71
     0
 42
0.2
  3
txt
  4

  0
STYLE
  5
5B7
330
3
100
AcDbSymbolTableRecord
100
AcDbTextStyleTableRecord
  2
CONVERTER_11
 70
     0
 40
0.0
 41
0.9
 50
10.0
 71
     0
 42
0.2
  3
txt.shx
  4

  0
STYLE
  5
5CB
330
3
100
AcDbSymbolTableRecord
100
AcDbTextStyleTableRecord
  2
CONVERTER_12
 70
     0
 40
0.0
 41
0.9
 50
15.0
 71
     0
 42
0.2
  3
txt.shx
  4

  0
STYLE
  5
5FD
330
3
100
AcDbSymbolTableRecord
100
AcDbTextStyleTableRecord
  2
CONVERTER_13
 70
     0
 40
0.0
 41
0.9
 50
0.0
 71
     0
 42
0.2
  3
txt.shx
  4

  0
ENDTAB
  0
TABLE
  2
VIEW
  5
6
330
0
100
AcDbSymbolTable
 70
     0
  0
ENDTAB
  0
TABLE
  2
UCS
  5
7
330
0
100
AcDbSymbolTable
 70
     0
  0
ENDTAB
  0
TABLE
  2
APPID
  5
9
330
0
100
AcDbSymbolTable
 70
     1
  0
APPID
  5
12
330
9
100
AcDbSymbolTableRecord
100
AcDbRegAppTableRecord
  2
ACAD
 70
     0
  0
ENDTAB
  0
TABLE
  2
DIMSTYLE
  5
A
330
0
100
AcDbSymbolTable
 70
     6
100
AcDbDimStyleTable
  0
DIMSTYLE
105
27
330
A
100
AcDbSymbolTableRecord
100
AcDbDimStyleTableRecord
  2
Standard
 70
     0
340
11
  0
DIMSTYLE
105
5C1
102
{ACAD_REACTORS
330
5C2
102
}
330
A
100
AcDbSymbolTableRecord
100
AcDbDimStyleTableRecord
  2
ME10_DIM_10
 70
     0
 41
3.0
 42
1.0
 44
1.0
 73
     0
 74
     0
 77
     1
 78
     8
140
3.0
147
1.0
172
     1
173
     1
176
     2
177
     2
178
     2
271
     2
340
5B7
343
5BB
344
5BB
  0
DIMSTYLE
105
5CF
102
{ACAD_REACTORS
330
5D0
102
}
330
A
100
AcDbSymbolTableRecord
100
AcDbDimStyleTableRecord
  2
ME10_DIM_11
 70
     0
 41
3.2
 42
0.5
 44
1.5
 73
     0
 74
     0
 77
     1
 78
     8
140
3.2
147
1.0
172
     1
173
     1
176
     2
177
     2
178
     2
271
     2
340
5CB
343
5BB
344
5BB
  0
DIMSTYLE
105
5DC
102
{ACAD_REACTORS
330
5DD
102
}
330
A
100
AcDbSymbolTableRecord
100
AcDbDimStyleTableRecord
  2
ME10_DIM_12
 70
     0
  3
(<>)
 41
3.0
 42
0.5
 44
1.0
 73
     0
 74
     0
 77
     1
 78
     8
140
3.0
147
0.8
172
     1
173
     1
176
     2
177
     2
178
     2
271
     2
340
5CB
343
5BB
344
5BB
  0
DIMSTYLE
105
5E9
102
{ACAD_REACTORS
330
5EA
102
}
330
A
100
AcDbSymbolTableRecord
100
AcDbDimStyleTableRecord
  2
ME10_DIM_13
 70
     0
 41
3.0
 42
0.5
 44
1.0
 73
     0
 74
     0
 77
     1
 78
     8
140
3.0
147
0.8
172
     1
173
     1
176
     2
177
     2
178
     2
271
     2
340
5CB
343
5BB
344
5BB
  0
DIMSTYLE
105
5F6
102
{ACAD_REACTORS
330
5F7
102
}
330
A
100
AcDbSymbolTableRecord
100
AcDbDimStyleTableRecord
  2
ME10_DIM_14
 70
     0
 41
3.0
 42
0.5
 44
1.0
 73
     0
 74
     0
 77
     1
 78
     8
140
3.0
147
0.8
172
     1
173
     1
176
     2
177
     2
178
     2
271
     2
340
5CB
343
5BB
344
5BB
  0
ENDTAB
  0
TABLE
  2
BLOCK_RECORD
  5
1
330
0
100
AcDbSymbolTable
 70
     8
  0
BLOCK_RECORD
  5
1F
330
1
100
AcDbSymbolTableRecord
100
AcDbBlockTableRecord
  2
*Model_Space
340
22
  0
BLOCK_RECORD
  5
1B
330
1
100
AcDbSymbolTableRecord
100
AcDbBlockTableRecord
  2
*Paper_Space
340
1E
  0
BLOCK_RECORD
  5
23
330
1
100
AcDbSymbolTableRecord
100
AcDbBlockTableRecord
  2
*Paper_Space0
340
26
  0
BLOCK_RECORD
  5
5AF
330
1
100
AcDbSymbolTableRecord
100
AcDbBlockTableRecord
  2
*D1
340
0
  0
BLOCK_RECORD
  5
5BB
330
1
100
AcDbSymbolTableRecord
100
AcDbBlockTableRecord
  2
_OPEN30
340
0
  0
BLOCK_RECORD
  5
5C3
330
1
100
AcDbSymbolTableRecord
100
AcDbBlockTableRecord
  2
*D3
340
0
  0
BLOCK_RECORD
  5
5D1
330
1
100
AcDbSymbolTableRecord
100
AcDbBlockTableRecord
  2
*D4
340
0
  0
BLOCK_RECORD
  5
5DE
330
1
100
AcDbSymbolTableRecord
100
AcDbBlockTableRecord
  2
*D5
340
0
  0
BLOCK_RECORD
  5
5EB
330
1
100
AcDbSymbolTableRecord
100
AcDbBlockTableRecord
  2
*D6
340
0
  0
BLOCK_RECORD
  5
5F8
330
1
100
AcDbSymbolTableRecord
100
AcDbBlockTableRecord
  2
*D7
340
0
102
{BLKREFS
331
601
102
}
  0
ENDTAB
  0
ENDSEC
  0
SECTION
  2
BLOCKS
  0
BLOCK
  5
20
330
1F
100
AcDbEntity
  8
0
100
AcDbBlockBegin
  2
*Model_Space
 70
     0
 10
0.0
 20
0.0
 30
0.0
  3
*Model_Space
  1

  0
ENDBLK
  5
21
330
1F
100
AcDbEntity
  8
0
100
AcDbBlockEnd
  0
BLOCK
  5
1C
330
1B
100
AcDbEntity
 67
     1
  8
0
100
AcDbBlockBegin
  2
*Paper_Space
 70
     0
 10
0.0
 20
0.0
 30
0.0
  3
*Paper_Space
  1

  0
ENDBLK
  5
1D
330
1B
100
AcDbEntity
 67
     1
  8
0
100
AcDbBlockEnd
  0
BLOCK
  5
24
330
23
100
AcDbEntity
  8
0
100
AcDbBlockBegin
  2
*Paper_Space0
 70
     0
 10
0.0
 20
0.0
 30
0.0
  3
*Paper_Space0
  1

  0
ENDBLK
  5
25
330
23
100
AcDbEntity
  8
0
100
AcDbBlockEnd
  0
BLOCK
  5
5B9
330
5AF
100
AcDbEntity
  8
0
100
AcDbBlockBegin
  2
*D1
 70
     1
 10
0.0
 20
0.0
 30
0.0
  3
*D1
  1

  0
LINE
  5
5B0
330
5AF
100
AcDbEntity
  8
1
  6
Continuous
 62
     2
100
AcDbLine
 10
511.3952819691066
 20
397.7728782368495
 30
0.0
 11
511.3952819691066
 21
362.7728782368495
 31
0.0
  0
LINE
  5
5B1
330
5AF
100
AcDbEntity
  8
1
  6
Continuous
 62
     2
100
AcDbLine
 10
507.085820046316
 20
397.7728782368495
 30
0.0
 11
512.3952819691066
 21
397.7728782368495
 31
0.0
  0
LINE
  5
5B2
330
5AF
100
AcDbEntity
  8
1
  6
Continuous
 62
     2
100
AcDbLine
 10
454.8783849413539
 20
362.7728782368495
 30
0.0
 11
512.3952819691066
 21
362.7728782368495
 31
0.0
  0
LINE
  5
5B3
330
5AF
100
AcDbEntity
  8
1
 62
     2
100
AcDbLine
 10
511.3952819691066
 20
397.7728782368495
 30
0.0
 11
512.1991295464
 21
394.7728782368495
 31
0.0
  0
LINE
  5
5B4
330
5AF
100
AcDbEntity
  8
1
 62
     2
100
AcDbLine
 10
511.3952819691066
 20
397.7728782368495
 30
0.0
 11
510.5914343918132
 21
394.7728782368495
 31
0.0
  0
LINE
  5
5B5
330
5AF
100
AcDbEntity
  8
1
 62
     2
100
AcDbLine
 10
511.3952819691066
 20
362.7728782368495
 30
0.0
 11
510.5914343918132
 21
365.7728782368495
 31
0.0
  0
LINE
  5
5B6
330
5AF
100
AcDbEntity
  8
1
 62
     2
100
AcDbLine
 10
511.3952819691066
 20
362.7728782368495
 30
0.0
 11
512.1991295464
 21
365.7728782368495
 31
0.0
  0
MTEXT
  5
5B8
330
5AF
100
AcDbEntity
  8
1
 62
     2
100
AcDbMText
 10
510.3952819691066
 20
369.4028332129688
 30
0.0
 40
3.0
 41
0.0
 71
     7
 72
     1
  1
35
  7
CONVERTER_11
 11
0.0
 21
1.0
 31
0.0
 73
     1
 44
0.60024009603842
  0
ENDBLK
  5
5BA
330
5AF
100
AcDbEntity
  8
0
100
AcDbBlockEnd
  0
BLOCK
  5
5BC
330
5BB
100
AcDbEntity
  8
0
100
AcDbBlockBegin
  2
_OPEN30
 70
     0
 10
0.0
 20
0.0
 30
0.0
  3
_OPEN30
  1

  0
LINE
  5
5BE
330
5BB
100
AcDbEntity
  8
0
  6
ByBlock
 62
     0
370
    -2
100
AcDbLine
 10
-1.0
 20
0.267949
 30
0.0
 11
0.0
 21
0.0
 31
0.0
  0
LINE
  5
5BF
330
5BB
100
AcDbEntity
  8
0
  6
ByBlock
 62
     0
370
    -2
100
AcDbLine
 10
0.0
 20
0.0
 30
0.0
 11
-1.0
 21
-0.267949
 31
0.0
  0
LINE
  5
5C0
330
5BB
100
AcDbEntity
  8
0
  6
ByBlock
 62
     0
370
    -2
100
AcDbLine
 10
0.0
 20
0.0
 30
0.0
 11
-1.0
 21
0.0
 31
0.0
  0
ENDBLK
  5
5BD
330
5BB
100
AcDbEntity
  8
0
100
AcDbBlockEnd
  0
BLOCK
  5
5CD
330
5C3
100
AcDbEntity
  8
0
100
AcDbBlockBegin
  2
*D3
 70
     1
 10
0.0
 20
0.0
 30
0.0
  3
*D3
  1

  0
LINE
  5
5C4
330
5C3
100
AcDbEntity
  8
1
  6
Continuous
 62
     2
100
AcDbLine
 10
533.8783849413487
 20
427.6870917992226
 30
0.0
 11
518.8690200571667
 21
427.6870917992226
 31
0.0
  0
LINE
  5
5C5
330
5C3
100
AcDbEntity
  8
1
  6
Continuous
 62
     2
100
AcDbLine
 10
533.8783849413487
 20
416.7728782368524
 30
0.0
 11
533.8783849413487
 21
429.1870917992226
 31
0.0
  0
LINE
  5
5C6
330
5C3
100
AcDbEntity
  8
1
  6
Continuous
 62
     2
100
AcDbLine
 10
518.8690200571667
 20
416.7728782368495
 30
0.0
 11
518.8690200571667
 21
429.1870917992226
 31
0.0
  0
LINE
  5
5C7
330
5C3
100
AcDbEntity
  8
1
 62
     2
100
AcDbLine
 10
533.8783849413487
 20
427.6870917992226
 30
0.0
 11
530.6783849413487
 21
426.829654383443
 31
0.0
  0
LINE
  5
5C8
330
5C3
100
AcDbEntity
  8
1
 62
     2
100
AcDbLine
 10
533.8783849413487
 20
427.6870917992226
 30
0.0
 11
530.6783849413487
 21
428.5445292150022
 31
0.0
  0
LINE
  5
5C9
330
5C3
100
AcDbEntity
  8
1
 62
     2
100
AcDbLine
 10
518.8690200571667
 20
427.6870917992226
 30
0.0
 11
522.0690200571668
 21
428.5445292150022
 31
0.0
  0
LINE
  5
5CA
330
5C3
100
AcDbEntity
  8
1
 62
     2
100
AcDbLine
 10
518.8690200571667
 20
427.6870917992226
 30
0.0
 11
522.0690200571668
 21
426.829654383443
 31
0.0
  0
MTEXT
  5
5CC
330
5C3
100
AcDbEntity
  8
1
 62
     2
100
AcDbMText
 10
524.0249837913678
 20
428.6870917992226
 30
0.0
 40
3.2
 41
0.0
 71
     7
 72
     1
  1
15
  7
CONVERTER_12
 11
0.9999999999970619
 21
2.424068405545306E-6
 31
0.0
 73
     1
 44
0.45454545454545
  0
ENDBLK
  5
5CE
330
5C3
100
AcDbEntity
  8
0
100
AcDbBlockEnd
  0
BLOCK
  5
5DA
330
5D1
100
AcDbEntity
  8
0
100
AcDbBlockBegin
  2
*D4
 70
     1
 10
0.0
 20
0.0
 30
0.0
  3
*D4
  1

  0
LINE
  5
5D2
330
5D1
100
AcDbEntity
  8
1
  6
Continuous
 62
     2
100
AcDbLine
 10
543.9213203435596
 20
362.7728782368495
 30
0.0
 11
543.9213203435596
 21
470.1828782368497
 31
0.0
  0
LINE
  5
5D3
330
5D1
100
AcDbEntity
  8
1
  6
Continuous
 62
     2
100
AcDbLine
 10
454.3783849413539
 20
362.7728782368495
 30
0.0
 11
544.9213203435596
 21
362.7728782368495
 31
0.0
  0
LINE
  5
5D4
330
5D1
100
AcDbEntity
  8
1
  6
Continuous
 62
     2
100
AcDbLine
 10
385.3783849413538
 20
470.1828782368497
 30
0.0
 11
544.9213203435596
 21
470.1828782368497
 31
0.0
  0
LINE
  5
5D5
330
5D1
100
AcDbEntity
  8
1
 62
     2
100
AcDbLine
 10
543.9213203435596
 20
362.7728782368495
 30
0.0
 11
543.1174727662662
 21
365.7728782368495
 31
0.0
  0
LINE
  5
5D6
330
5D1
100
AcDbEntity
  8
1
 62
     2
100
AcDbLine
 10
543.9213203435596
 20
362.7728782368495
 30
0.0
 11
544.725167920853
 21
365.7728782368495
 31
0.0
  0
LINE
  5
5D7
330
5D1
100
AcDbEntity
  8
1
 62
     2
100
AcDbLine
 10
543.9213203435596
 20
470.1828782368497
 30
0.0
 11
544.725167920853
 21
467.1828782368497
 31
0.0
  0
LINE
  5
5D8
330
5D1
100
AcDbEntity
  8
1
 62
     2
100
AcDbLine
 10
543.9213203435596
 20
470.1828782368497
 30
0.0
 11
543.1174727662662
 21
467.1828782368497
 31
0.0
  0
MTEXT
  5
5D9
330
5D1
100
AcDbEntity
  8
1
 62
     2
100
AcDbMText
 10
543.1213203435597
 20
415.2161085200494
 30
0.0
 40
3.0
 41
0.0
 71
     7
 72
     1
  1
\C2;(\C2;108\C2;)
  7
CONVERTER_12
 11
0.0
 21
1.0
 31
0.0
 73
     1
 44
0.45454545454545
  0
ENDBLK
  5
5DB
330
5D1
100
AcDbEntity
  8
0
100
AcDbBlockEnd
  0
BLOCK
  5
5E7
330
5DE
100
AcDbEntity
  8
0
100
AcDbBlockBegin
  2
*D5
 70
     1
 10
0.0
 20
0.0
 30
0.0
  3
*D5
  1

  0
LINE
  5
5DF
330
5DE
100
AcDbEntity
  8
1
  6
Continuous
 62
     2
100
AcDbLine
 10
508.1667219509896
 20
606.9248194360084
 30
0.0
 11
508.1667219509896
 21
508.9248194360084
 31
0.0
  0
LINE
  5
5E0
330
5DE
100
AcDbEntity
  8
1
  6
Continuous
 62
     2
100
AcDbLine
 10
428.3783849413538
 20
606.9248194360084
 30
0.0
 11
509.1667219509896
 21
606.9248194360084
 31
0.0
  0
LINE
  5
5E1
330
5DE
100
AcDbEntity
  8
1
  6
Continuous
 62
     2
100
AcDbLine
 10
428.3783849413538
 20
508.9248194360084
 30
0.0
 11
509.1667219509896
 21
508.9248194360084
 31
0.0
  0
LINE
  5
5E2
330
5DE
100
AcDbEntity
  8
1
 62
     2
100
AcDbLine
 10
508.1667219509896
 20
606.9248194360084
 30
0.0
 11
508.970569528283
 21
603.9248194360084
 31
0.0
  0
LINE
  5
5E3
330
5DE
100
AcDbEntity
  8
1
 62
     2
100
AcDbLine
 10
508.1667219509896
 20
606.9248194360084
 30
0.0
 11
507.3628743736962
 21
603.9248194360084
 31
0.0
  0
LINE
  5
5E4
330
5DE
100
AcDbEntity
  8
1
 62
     2
100
AcDbLine
 10
508.1667219509896
 20
508.9248194360084
 30
0.0
 11
507.3628743736962
 21
511.9248194360084
 31
0.0
  0
LINE
  5
5E5
330
5DE
100
AcDbEntity
  8
1
 62
     2
100
AcDbLine
 10
508.1667219509896
 20
508.9248194360084
 30
0.0
 11
508.970569528283
 21
511.9248194360084
 31
0.0
  0
MTEXT
  5
5E6
330
5DE
100
AcDbEntity
  8
1
 62
     2
100
AcDbMText
 10
507.3667219509896
 20
562.5174312057813
 30
0.0
 40
3.0
 41
0.0
 71
     7
 72
     1
  1
98
  7
CONVERTER_12
 11
0.0
 21
1.0
 31
0.0
 73
     1
 44
0.45454545454545
  0
ENDBLK
  5
5E8
330
5DE
100
AcDbEntity
  8
0
100
AcDbBlockEnd
  0
BLOCK
  5
5F4
330
5EB
100
AcDbEntity
  8
0
100
AcDbBlockBegin
  2
*D6
 70
     1
 10
0.0
 20
0.0
 30
0.0
  3
*D6
  1

  0
LINE
  5
5EC
330
5EB
100
AcDbEntity
  8
1
  6
Continuous
 62
     2
100
AcDbLine
 10
308.8783849413539
 20
344.5973766531678
 30
0.0
 11
533.8783849413538
 21
344.5973766531678
 31
0.0
  0
LINE
  5
5ED
330
5EB
100
AcDbEntity
  8
1
  6
Continuous
 62
     2
100
AcDbLine
 10
308.8783849413539
 20
378.7728782368496
 30
0.0
 11
308.8783849413539
 21
343.5973766531678
 31
0.0
  0
LINE
  5
5EE
330
5EB
100
AcDbEntity
  8
1
  6
Continuous
 62
     2
100
AcDbLine
 10
533.8783849413538
 20
378.7728782368496
 30
0.0
 11
533.8783849413538
 21
343.5973766531678
 31
0.0
  0
LINE
  5
5EF
330
5EB
100
AcDbEntity
  8
1
 62
     2
100
AcDbLine
 10
308.8783849413539
 20
344.5973766531678
 30
0.0
 11
311.8783849413539
 21
345.4012242304611
 31
0.0
  0
LINE
  5
5F0
330
5EB
100
AcDbEntity
  8
1
 62
     2
100
AcDbLine
 10
308.8783849413539
 20
344.5973766531678
 30
0.0
 11
311.8783849413539
 21
343.7935290758744
 31
0.0
  0
LINE
  5
5F1
330
5EB
100
AcDbEntity
  8
1
 62
     2
100
AcDbLine
 10
533.8783849413538
 20
344.5973766531678
 30
0.0
 11
530.8783849413538
 21
343.7935290758744
 31
0.0
  0
LINE
  5
5F2
330
5EB
100
AcDbEntity
  8
1
 62
     2
100
AcDbLine
 10
533.8783849413538
 20
344.5973766531678
 30
0.0
 11
530.8783849413538
 21
345.4012242304611
 31
0.0
  0
MTEXT
  5
5F3
330
5EB
100
AcDbEntity
  8
1
 62
     2
100
AcDbMText
 10
416.3240937365813
 20
346.0437521289886
 30
0.0
 40
3.0
 41
0.0
 71
     7
 72
     1
  1
225
  7
CONVERTER_12
 11
0.9999999999970619
 21
2.424068405545306E-6
 31
0.0
 73
     1
 44
0.45454545454545
  0
ENDBLK
  5
5F5
330
5EB
100
AcDbEntity
  8
0
100
AcDbBlockEnd
  0
BLOCK
  5
5FF
330
5F8
100
AcDbEntity
  8
0
100
AcDbBlockBegin
  2
*D7
 70
     1
 10
0.0
 20
0.0
 30
0.0
  3
*D7
  1

  0
LINE
  5
5F9
330
5F8
100
AcDbEntity
  8
1
  6
Continuous
 62
     2
100
AcDbLine
 10
316.3788010250376
 20
417.2728782368495
 30
0.0
 11
329.861606133725
 21
438.3849479562421
 31
0.0
  0
LINE
  5
5FA
330
5F8
100
AcDbEntity
  8
1
  6
Continuous
 62
     2
100
AcDbLine
 10
329.861606133725
 20
438.3849479562421
 30
0.0
 11
367.461606133725
 21
438.3849479562421
 31
0.0
  0
LINE
  5
5FB
330
5F8
100
AcDbEntity
  8
1
 62
     2
100
AcDbLine
 10
316.3788548484812
 20
417.272962516366
 30
0.0
 11
317.3160793075763
 21
420.2340064607873
 31
0.0
  0
LINE
  5
5FC
330
5F8
100
AcDbEntity
  8
1
 62
     2
100
AcDbLine
 10
316.3788548484812
 20
417.272962516366
 30
0.0
 11
318.6710370113164
 21
419.3686895644094
 31
0.0
  0
MTEXT
  5
5FE
330
5F8
100
AcDbEntity
  8
1
 62
     2
100
AcDbMText
 10
333.861606133725
 20
439.1849479562421
 30
0.0
 40
3.0
 41
0.0
 71
     7
 72
     1
  1
              
  7
CONVERTER_13
 11
0.9999999999970619
 21
2.424068405545306E-6
 31
0.0
 73
     1
 44
0.45454545454545
  0
ENDBLK
  5
600
330
5F8
100
AcDbEntity
  8
0
100
AcDbBlockEnd
  0
ENDSEC
  0
SECTION
  2
ENTITIES
  0
LINE
  5
43
330
1F
100
AcDbEntity
  8
1
  6
Continuous
 62
     2
100
AcDbLine
 10
463.6471349413539
 20
288.8353782368495
 30
0.0
 11
468.3721349413539
 21
288.8353782368495
 31
0.0
  0
LINE
  5
44
330
1F
100
AcDbEntity
  8
1
  6
Continuous
 62
     2
100
AcDbLine
 10
466.1221349413539
 20
297.0478782368495
 30
0.0
 11
466.1221349413539
 21
288.8353782368495
 31
0.0
  0
LINE
  5
45
330
1F
100
AcDbEntity
  8
1
  6
Continuous
 62
     2
100
AcDbLine
 10
464.4346349413539
 20
293.6728782368495
 30
0.0
 11
467.9221349413539
 21
293.6728782368495
 31
0.0
  0
LINE
  5
46
330
1F
100
AcDbEntity
  8
1
  6
Continuous
 62
     2
100
AcDbLine
 10
462.8596349413539
 20
293.3353782368495
 30
0.0
 11
464.0971349413539
 21
291.9853782368495
 31
0.0
  0
LINE
  5
47
330
1F
100
AcDbEntity
  8
1
  6
Continuous
 62
     2
100
AcDbLine
 10
462.4096349413539
 20
295.3603782368495
 30
0.0
 11
462.4096349413539
 21
297.0478782368495
 31
0.0
  0
LINE
  5
48
330
1F
100
AcDbEntity
  8
1
  6
Continuous
 62
     2
100
AcDbLine
 10
463.6471349413539
 20
295.3603782368495
 30
0.0
 11
460.8346349413539
 21
295.3603782368495
 31
0.0
  0
LINE
  5
49
330
1F
100
AcDbEntity
  8
1
  6
Continuous
 62
     2
100
AcDbLine
 10
462.6346349413539
 20
293.8978782368495
 30
0.0
 11
463.6471349413539
 21
295.3603782368495
 31
0.0
  0
LINE
  5
4A
330
1F
100
AcDbEntity
  8
1
  6
Continuous
 62
     2
100
AcDbLine
 10
461.3971349413539
 20
292.5478782368495
 30
0.0
 11
462.6346349413539
 21
293.8978782368495
 31
0.0
  0
LINE
  5
4B
330
1F
100
AcDbEntity
  8
1
  6
Continuous
 62
     2
100
AcDbLine
 10
460.3846349413539
 20
291.6478782368495
 30
0.0
 11
461.3971349413539
 21
292.5478782368495
 31
0.0
  0
LINE
  5
4C
330
1F
100
AcDbEntity
  8
1
  6
Continuous
 62
     2
100
AcDbLine
 10
462.4096349413539
 20
288.6103782368495
 30
0.0
 11
462.4096349413539
 21
293.6728782368495
 31
0.0
  0
LINE
  5
4D
330
1F
100
AcDbEntity
  8
1
  6
Continuous
 62
     2
100
AcDbLine
 10
455.4346349413539
 20
291.6478782368495
 30
0.0
 11
452.8471349413539
 21
288.6103782368495
 31
0.0
  0
LINE
  5
4E
330
1F
100
AcDbEntity
  8
1
  6
Continuous
 62
     2
100
AcDbLine
 10
457.6846349413539
 20
289.1728782368495
 30
0.0
 11
456.6721349413539
 21
290.2978782368495
 31
0.0
  0
LINE
  5
4F
330
1F
100
AcDbEntity
  8
1
  6
Continuous
 62
     2
100
AcDbLine
 10
458.3596349413539
 20
288.2728782368495
 30
0.0
 11
457.6846349413539
 21
289.1728782368495
 31
0.0
  0
LINE
  5
50
330
1F
100
AcDbEntity
  8
1
  6
Continuous
 62
     2
100
AcDbLine
 10
452.1721349413539
 20
288.6103782368495
 30
0.0
 11
457.6846349413539
 21
289.1728782368495
 31
0.0
  0
LINE
  5
51
330
1F
100
AcDbEntity
  8
1
  6
Continuous
 62
     2
100
AcDbLine
 10
452.6221349413539
 20
291.9853782368495
 30
0.0
 11
458.3596349413539
 21
291.9853782368495
 31
0.0
  0
LINE
  5
52
330
1F
100
AcDbEntity
  8
1
  6
Continuous
 62
     2
100
AcDbLine
 10
453.6346349413539
 20
293.3353782368495
 30
0.0
 11
457.1221349413539
 21
293.3353782368495
 31
0.0
  0
LINE
  5
53
330
1F
100
AcDbEntity
  8
1
  6
Continuous
 62
     2
100
AcDbLine
 10
455.4346349413539
 20
297.0478782368495
 30
0.0
 11
459.3721349413539
 21
292.7728782368495
 31
0.0
  0
LINE
  5
54
330
1F
100
AcDbEntity
  8
1
  6
Continuous
 62
     2
100
AcDbLine
 10
455.4346349413539
 20
297.0478782368495
 30
0.0
 11
451.3846349413539
 21
292.7728782368495
 31
0.0
  0
LINE
  5
55
330
1F
100
AcDbEntity
  8
1
  6
Continuous
 62
     2
100
AcDbLine
 10
449.5846349413539
 20
288.6103782368495
 30
0.0
 11
450.3721349413539
 21
289.3978782368495
 31
0.0
  0
LINE
  5
56
330
1F
100
AcDbEntity
  8
1
  6
Continuous
 62
     2
100
AcDbLine
 10
448.6846349413539
 20
289.7353782368495
 30
0.0
 11
449.5846349413539
 21
288.6103782368495
 31
0.0
  0
LINE
  5
57
330
1F
100
AcDbEntity
  8
1
  6
Continuous
 62
     2
100
AcDbLine
 10
447.6721349413539
 20
291.6478782368495
 30
0.0
 11
448.6846349413539
 21
289.7353782368495
 31
0.0
  0
LINE
  5
58
330
1F
100
AcDbEntity
  8
1
  6
Continuous
 62
     2
100
AcDbLine
 10
447.1096349413539
 20
293.8978782368495
 30
0.0
 11
447.6721349413539
 21
291.6478782368495
 31
0.0
  0
LINE
  5
59
330
1F
100
AcDbEntity
  8
1
  6
Continuous
 62
     2
100
AcDbLine
 10
446.8846349413539
 20
297.2728782368495
 30
0.0
 11
447.1096349413539
 21
293.8978782368495
 31
0.0
  0
LINE
  5
5A
330
1F
100
AcDbEntity
  8
1
  6
Continuous
 62
     2
100
AcDbLine
 10
448.3471349413539
 20
296.1478782368495
 30
0.0
 11
447.6721349413539
 21
297.0478782368495
 31
0.0
  0
LINE
  5
5B
330
1F
100
AcDbEntity
  8
1
  6
Continuous
 62
     2
100
AcDbLine
 10
442.3846349413539
 20
295.3603782368495
 30
0.0
 11
449.5846349413539
 21
295.3603782368495
 31
0.0
  0
LINE
  5
5C
330
1F
100
AcDbEntity
  8
1
  6
Continuous
 62
     2
100
AcDbLine
 10
444.6346349413539
 20
293.1103782368495
 30
0.0
 11
444.6346349413539
 21
289.9603782368495
 31
0.0
  0
LINE
  5
5D
330
1F
100
AcDbEntity
  8
1
  6
Continuous
 62
     2
100
AcDbLine
 10
446.4346349413539
 20
293.1103782368495
 30
0.0
 11
442.8346349413539
 21
293.1103782368495
 31
0.0
  0
LINE
  5
5E
330
1F
100
AcDbEntity
  8
1
  6
Continuous
 62
     2
100
AcDbLine
 10
442.8346349413539
 20
289.3978782368495
 30
0.0
 11
446.4346349413539
 21
290.5228782368495
 31
0.0
  0
LINE
  5
5F
330
1F
100
AcDbEntity
  8
1
  6
Continuous
 62
     2
100
AcDbLine
 10
440.1346349413539
 20
290.5228782368495
 30
0.0
 11
441.1471349413539
 21
288.6103782368495
 31
0.0
  0
LINE
  5
60
330
1F
100
AcDbEntity
  8
1
  6
Continuous
 62
     2
100
AcDbLine
 10
438.8971349413539
 20
293.1103782368495
 30
0.0
 11
440.1346349413539
 21
290.5228782368495
 31
0.0
  0
LINE
  5
61
330
1F
100
AcDbEntity
  8
1
  6
Continuous
 62
     2
100
AcDbLine
 10
438.1096349413539
 20
291.0853782368495
 30
0.0
 11
438.8971349413539
 21
293.1103782368495
 31
0.0
  0
LINE
  5
62
330
1F
100
AcDbEntity
  8
1
  6
Continuous
 62
     2
100
AcDbLine
 10
437.0971349413539
 20
289.7353782368495
 30
0.0
 11
438.1096349413539
 21
291.0853782368495
 31
0.0
  0
LINE
  5
63
330
1F
100
AcDbEntity
  8
1
  6
Continuous
 62
     2
100
AcDbLine
 10
436.4221349413539
 20
288.6103782368495
 30
0.0
 11
437.0971349413539
 21
289.7353782368495
 31
0.0
  0
LINE
  5
64
330
1F
100
AcDbEntity
  8
1
  6
Continuous
 62
     2
100
AcDbLine
 10
438.8971349413539
 20
297.2728782368495
 30
0.0
 11
438.8971349413539
 21
288.2728782368495
 31
0.0
  0
LINE
  5
65
330
1F
100
AcDbEntity
  8
1
  6
Continuous
 62
     2
100
AcDbLine
 10
441.1471349413539
 20
293.1103782368495
 30
0.0
 11
436.8721349413539
 21
293.1103782368495
 31
0.0
  0
LINE
  5
66
330
1F
100
AcDbEntity
  8
1
  6
Continuous
 62
     2
100
AcDbLine
 10
437.6596349413539
 20
295.0228782368495
 30
0.0
 11
440.9221349413539
 21
295.0228782368495
 31
0.0
  0
LINE
  5
67
330
1F
100
AcDbEntity
  8
1
  6
Continuous
 62
     2
100
AcDbLine
 10
437.6596349413539
 20
295.0228782368495
 30
0.0
 11
437.8846349413539
 21
296.4853782368495
 31
0.0
  0
LINE
  5
68
330
1F
100
AcDbEntity
  8
1
  6
Continuous
 62
     2
100
AcDbLine
 10
436.8721349413539
 20
293.6728782368495
 30
0.0
 11
437.6596349413539
 21
295.0228782368495
 31
0.0
  0
LINE
  5
69
330
1F
100
AcDbEntity
  8
1
  6
Continuous
 62
     2
100
AcDbLine
 10
435.1846349413539
 20
294.7978782368495
 30
0.0
 11
436.4221349413539
 21
292.5478782368495
 31
0.0
  0
LINE
  5
6A
330
1F
100
AcDbEntity
  8
1
  6
Continuous
 62
     2
100
AcDbLine
 10
433.6096349413539
 20
290.8603782368495
 30
0.0
 11
435.1846349413539
 21
294.7978782368495
 31
0.0
  0
LINE
  5
6B
330
1F
100
AcDbEntity
  8
1
  6
Continuous
 62
     2
100
AcDbLine
 10
436.4221349413539
 20
294.7978782368495
 30
0.0
 11
433.8346349413539
 21
294.7978782368495
 31
0.0
  0
LINE
  5
6C
330
1F
100
AcDbEntity
  8
1
  6
Continuous
 62
     2
100
AcDbLine
 10
435.1846349413539
 20
288.6103782368495
 30
0.0
 11
435.1846349413539
 21
297.2728782368495
 31
0.0
  0
LINE
  5
6D
330
1F
100
AcDbEntity
  8
1
  6
Continuous
 62
     2
100
AcDbLine
 10
429.1096349413539
 20
295.3603782368495
 30
0.0
 11
431.5846349413539
 21
295.3603782368495
 31
0.0
  0
LINE
  5
6E
330
1F
100
AcDbEntity
  8
1
  6
Continuous
 62
     2
100
AcDbLine
 10
429.1096349413539
 20
293.8978782368495
 30
0.0
 11
431.5846349413539
 21
293.8978782368495
 31
0.0
  0
LINE
  5
6F
330
1F
100
AcDbEntity
  8
1
  6
Continuous
 62
     2
100
AcDbLine
 10
429.1096349413539
 20
296.7103782368495
 30
0.0
 11
429.1096349413539
 21
293.8978782368495
 31
0.0
  0
LINE
  5
70
330
1F
100
AcDbEntity
  8
1
  6
Continuous
 62
     2
100
AcDbLine
 10
431.5846349413539
 20
296.7103782368495
 30
0.0
 11
429.1096349413539
 21
296.7103782368495
 31
0.0
  0
LINE
  5
71
330
1F
100
AcDbEntity
  8
1
  6
Continuous
 62
     2
100
AcDbLine
 10
431.5846349413539
 20
288.8353782368495
 30
0.0
 11
431.5846349413539
 21
296.7103782368495
 31
0.0
  0
LINE
  5
72
330
1F
100
AcDbEntity
  8
1
  6
Continuous
 62
     2
100
AcDbLine
 10
431.3596349413539
 20
288.6103782368495
 30
0.0
 11
431.5846349413539
 21
288.8353782368495
 31
0.0
  0
LINE
  5
73
330
1F
100
AcDbEntity
  8
1
  6
Continuous
 62
     2
100
AcDbLine
 10
430.6846349413539
 20
288.6103782368495
 30
0.0
 11
431.3596349413539
 21
288.6103782368495
 31
0.0
  0
LINE
  5
74
330
1F
100
AcDbEntity
  8
1
  6
Continuous
 62
     2
100
AcDbLine
 10
427.6471349413539
 20
295.3603782368495
 30
0.0
 11
425.1721349413539
 21
295.3603782368495
 31
0.0
  0
LINE
  5
75
330
1F
100
AcDbEntity
  8
1
  6
Continuous
 62
     2
100
AcDbLine
 10
427.6471349413539
 20
293.8978782368495
 30
0.0
 11
425.1721349413539
 21
293.8978782368495
 31
0.0
  0
LINE
  5
76
330
1F
100
AcDbEntity
  8
1
  6
Continuous
 62
     2
100
AcDbLine
 10
427.6471349413539
 20
296.7103782368495
 30
0.0
 11
427.6471349413539
 21
293.8978782368495
 31
0.0
  0
LINE
  5
77
330
1F
100
AcDbEntity
  8
1
  6
Continuous
 62
     2
100
AcDbLine
 10
425.1721349413539
 20
296.7103782368495
 30
0.0
 11
427.6471349413539
 21
296.7103782368495
 31
0.0
  0
LINE
  5
78
330
1F
100
AcDbEntity
  8
1
  6
Continuous
 62
     2
100
AcDbLine
 10
425.1721349413539
 20
288.6103782368495
 30
0.0
 11
425.1721349413539
 21
296.7103782368495
 31
0.0
  0
LINE
  5
79
330
1F
100
AcDbEntity
  8
1
  6
Continuous
 62
     2
100
AcDbLine
 10
422.3596349413539
 20
293.6728782368495
 30
0.0
 11
423.3721349413539
 21
292.7728782368495
 31
0.0
  0
LINE
  5
7A
330
1F
100
AcDbEntity
  8
1
  6
Continuous
 62
     2
100
AcDbLine
 10
420.6721349413539
 20
295.5853782368495
 30
0.0
 11
422.3596349413539
 21
293.6728782368495
 31
0.0
  0
LINE
  5
7B
330
1F
100
AcDbEntity
  8
1
  6
Continuous
 62
     2
100
AcDbLine
 10
419.4346349413539
 20
297.2728782368495
 30
0.0
 11
420.6721349413539
 21
295.5853782368495
 31
0.0
  0
LINE
  5
7C
330
1F
100
AcDbEntity
  8
1
  6
Continuous
 62
     2
100
AcDbLine
 10
418.0846349413539
 20
295.5853782368495
 30
0.0
 11
419.4346349413539
 21
297.2728782368495
 31
0.0
  0
LINE
  5
7D
330
1F
100
AcDbEntity
  8
1
  6
Continuous
 62
     2
100
AcDbLine
 10
416.3971349413539
 20
293.6728782368495
 30
0.0
 11
418.0846349413539
 21
295.5853782368495
 31
0.0
  0
LINE
  5
7E
330
1F
100
AcDbEntity
  8
1
  6
Continuous
 62
     2
100
AcDbLine
 10
415.3846349413539
 20
292.7728782368495
 30
0.0
 11
416.3971349413539
 21
293.6728782368495
 31
0.0
  0
LINE
  5
7F
330
1F
100
AcDbEntity
  8
1
  6
Continuous
 62
     2
100
AcDbLine
 10
420.6721349413539
 20
289.7353782368495
 30
0.0
 11
421.1221349413539
 21
291.0853782368495
 31
0.0
  0
LINE
  5
80
330
1F
100
AcDbEntity
  8
1
  6
Continuous
 62
     2
100
AcDbLine
 10
417.6346349413539
 20
291.0853782368495
 30
0.0
 11
418.0846349413539
 21
289.7353782368495
 31
0.0
  0
LINE
  5
81
330
1F
100
AcDbEntity
  8
1
  6
Continuous
 62
     2
100
AcDbLine
 10
421.9096349413539
 20
292.2103782368495
 30
0.0
 11
416.8471349413539
 21
292.2103782368495
 31
0.0
  0
LINE
  5
82
330
1F
100
AcDbEntity
  8
1
  6
Continuous
 62
     2
100
AcDbLine
 10
417.6346349413539
 20
293.8978782368495
 30
0.0
 11
421.1221349413539
 21
293.8978782368495
 31
0.0
  0
LINE
  5
83
330
1F
100
AcDbEntity
  8
1
  6
Continuous
 62
     2
100
AcDbLine
 10
419.4346349413539
 20
288.6103782368495
 30
0.0
 11
419.4346349413539
 21
293.8978782368495
 31
0.0
  0
LINE
  5
84
330
1F
100
AcDbEntity
  8
1
  6
Continuous
 62
     2
100
AcDbLine
 10
416.1721349413539
 20
288.6103782368495
 30
0.0
 11
422.3596349413539
 21
288.6103782368495
 31
0.0
  0
LINE
  5
85
330
1F
100
AcDbEntity
  8
1
  6
Continuous
 62
     2
100
AcDbLine
 10
412.6846349413539
 20
291.0853782368495
 30
0.0
 11
413.9221349413539
 21
292.7728782368495
 31
0.0
  0
LINE
  5
86
330
1F
100
AcDbEntity
  8
1
  6
Continuous
 62
     2
100
AcDbLine
 10
410.6596349413539
 20
289.9603782368495
 30
0.0
 11
412.6846349413539
 21
291.0853782368495
 31
0.0
  0
LINE
  5
87
330
1F
100
AcDbEntity
  8
1
  6
Continuous
 62
     2
100
AcDbLine
 10
410.6596349413539
 20
295.0228782368495
 30
0.0
 11
410.6596349413539
 21
289.9603782368495
 31
0.0
  0
LINE
  5
88
330
1F
100
AcDbEntity
  8
1
  6
Continuous
 62
     2
100
AcDbLine
 10
408.6346349413539
 20
292.7728782368495
 30
0.0
 11
408.8596349413539
 21
295.0228782368495
 31
0.0
  0
LINE
  5
89
330
1F
100
AcDbEntity
  8
1
  6
Continuous
 62
     2
100
AcDbLine
 10
408.1846349413539
 20
291.0853782368495
 30
0.0
 11
408.6346349413539
 21
292.7728782368495
 31
0.0
  0
LINE
  5
8A
330
1F
100
AcDbEntity
  8
1
  6
Continuous
 62
     2
100
AcDbLine
 10
407.3971349413539
 20
289.7353782368495
 30
0.0
 11
408.1846349413539
 21
291.0853782368495
 31
0.0
  0
LINE
  5
8B
330
1F
100
AcDbEntity
  8
1
  6
Continuous
 62
     2
100
AcDbLine
 10
401.6596349413539
 20
289.1728782368495
 30
0.0
 11
403.1221349413539
 21
289.3978782368495
 31
0.0
  0
LINE
  5
8C
330
1F
100
AcDbEntity
  8
1
  6
Continuous
 62
     2
100
AcDbLine
 10
399.1846349413539
 20
289.3978782368495
 30
0.0
 11
401.6596349413539
 21
289.1728782368495
 31
0.0
  0
LINE
  5
8D
330
1F
100
AcDbEntity
  8
1
  6
Continuous
 62
     2
100
AcDbLine
 10
398.8471349413539
 20
290.2978782368495
 30
0.0
 11
399.1846349413539
 21
289.3978782368495
 31
0.0
  0
LINE
  5
8E
330
1F
100
AcDbEntity
  8
1
  6
Continuous
 62
     2
100
AcDbLine
 10
398.8471349413539
 20
295.0228782368495
 30
0.0
 11
398.8471349413539
 21
290.2978782368495
 31
0.0
  0
LINE
  5
8F
330
1F
100
AcDbEntity
  8
1
  6
Continuous
 62
     2
100
AcDbLine
 10
403.6846349413539
 20
295.5853782368495
 30
0.0
 11
404.3596349413539
 21
294.7978782368495
 31
0.0
  0
LINE
  5
90
330
1F
100
AcDbEntity
  8
1
  6
Continuous
 62
     2
100
AcDbLine
 10
403.9096349413539
 20
294.2353782368495
 30
0.0
 11
403.1221349413539
 21
295.0228782368495
 31
0.0
  0
LINE
  5
91
330
1F
100
AcDbEntity
  8
1
  6
Continuous
 62
     2
100
AcDbLine
 10
401.0971349413539
 20
292.7728782368495
 30
0.0
 11
402.6721349413539
 21
293.6728782368495
 31
0.0
  0
LINE
  5
92
330
1F
100
AcDbEntity
  8
1
  6
Continuous
 62
     2
100
AcDbLine
 10
398.8471349413539
 20
291.9853782368495
 30
0.0
 11
401.0971349413539
 21
292.7728782368495
 31
0.0
  0
LINE
  5
93
330
1F
100
AcDbEntity
  8
1
  6
Continuous
 62
     2
100
AcDbLine
 10
393.3346349413539
 20
291.0853782368495
 30
0.0
 11
394.9096349413539
 21
289.3978782368495
 31
0.0
  0
LINE
  5
94
330
1F
100
AcDbEntity
  8
1
  6
Continuous
 62
     2
100
AcDbLine
 10
392.0971349413539
 20
292.2103782368495
 30
0.0
 11
393.3346349413539
 21
291.0853782368495
 31
0.0
  0
LINE
  5
95
330
1F
100
AcDbEntity
  8
1
  6
Continuous
 62
     2
100
AcDbLine
 10
395.1346349413539
 20
296.1478782368495
 30
0.0
 11
395.9221349413539
 21
295.3603782368495
 31
0.0
  0
LINE
  5
96
330
1F
100
AcDbEntity
  8
1
  6
Continuous
 62
     2
100
AcDbLine
 10
394.6846349413539
 20
295.5853782368495
 30
0.0
 11
395.3596349413539
 21
294.7978782368495
 31
0.0
  0
LINE
  5
97
330
1F
100
AcDbEntity
  8
1
  6
Continuous
 62
     2
100
AcDbLine
 10
393.6721349413539
 20
295.0228782368495
 30
0.0
 11
390.4096349413539
 21
295.0228782368495
 31
0.0
  0
LINE
  5
98
330
1F
100
AcDbEntity
  8
1
  6
Continuous
 62
     2
100
AcDbLine
 10
392.8846349413539
 20
293.3353782368495
 30
0.0
 11
393.6721349413539
 21
295.0228782368495
 31
0.0
  0
LINE
  5
99
330
1F
100
AcDbEntity
  8
1
  6
Continuous
 62
     2
100
AcDbLine
 10
391.0846349413539
 20
290.8603782368495
 30
0.0
 11
392.8846349413539
 21
293.3353782368495
 31
0.0
  0
LINE
  5
9A
330
1F
100
AcDbEntity
  8
1
  6
Continuous
 62
     2
100
AcDbLine
 10
389.3971349413539
 20
289.3978782368495
 30
0.0
 11
391.0846349413539
 21
290.8603782368495
 31
0.0
  0
LINE
  5
9B
330
1F
100
AcDbEntity
  8
1
  6
Continuous
 62
     2
100
AcDbLine
 10
386.3596349413539
 20
294.7978782368495
 30
0.0
 11
384.1096349413539
 21
292.2103782368495
 31
0.0
  0
LINE
  5
9C
330
1F
100
AcDbEntity
  8
1
  6
Continuous
 62
     2
100
AcDbLine
 10
380.6221349413539
 20
294.7978782368495
 30
0.0
 11
386.3596349413539
 21
294.7978782368495
 31
0.0
  0
LINE
  5
9D
330
1F
100
AcDbEntity
  8
1
  6
Continuous
 62
     2
100
AcDbLine
 10
383.4346349413539
 20
292.2103782368495
 30
0.0
 11
383.6596349413539
 21
293.6728782368495
 31
0.0
  0
LINE
  5
9E
330
1F
100
AcDbEntity
  8
1
  6
Continuous
 62
     2
100
AcDbLine
 10
382.8721349413539
 20
290.5228782368495
 30
0.0
 11
383.4346349413539
 21
292.2103782368495
 31
0.0
  0
LINE
  5
9F
330
1F
100
AcDbEntity
  8
1
  6
Continuous
 62
     2
100
AcDbLine
 10
381.8596349413539
 20
288.8353782368495
 30
0.0
 11
382.8721349413539
 21
290.5228782368495
 31
0.0
  0
LINE
  5
A0
330
1F
100
AcDbEntity
  8
1
  6
Continuous
 62
     2
100
AcDbLine
 10
486.8783849413539
 20
316.0853782368495
 30
0.0
 11
487.4408849413539
 21
315.2978782368495
 31
0.0
  0
LINE
  5
A1
330
1F
100
AcDbEntity
  8
1
  6
Continuous
 62
     2
100
AcDbLine
 10
486.2033849413539
 20
316.9853782368495
 30
0.0
 11
486.8783849413539
 21
316.0853782368495
 31
0.0
  0
LINE
  5
A2
330
1F
100
AcDbEntity
  8
1
  6
Continuous
 62
     2
100
AcDbLine
 10
485.1908849413539
 20
317.7728782368495
 30
0.0
 11
486.2033849413539
 21
316.9853782368495
 31
0.0
  0
LINE
  5
A3
330
1F
100
AcDbEntity
  8
1
  6
Continuous
 62
     2
100
AcDbLine
 10
484.6283849413539
 20
318.8978782368495
 30
0.0
 11
483.9533849413539
 21
320.3603782368495
 31
0.0
  0
LINE
  5
A4
330
1F
100
AcDbEntity
  8
1
  6
Continuous
 62
     2
100
AcDbLine
 10
485.9783849413539
 20
319.2353782368495
 30
0.0
 11
485.4158849413539
 21
320.5853782368495
 31
0.0
  0
LINE
  5
A5
330
1F
100
AcDbEntity
  8
1
  6
Continuous
 62
     2
100
AcDbLine
 10
487.4408849413539
 20
318.6728782368495
 30
0.0
 11
488.2283849413539
 21
320.3603782368495
 31
0.0
  0
LINE
  5
A6
330
1F
100
AcDbEntity
  8
1
  6
Continuous
 62
     2
100
AcDbLine
 10
485.9783849413539
 20
316.4228782368495
 30
0.0
 11
487.4408849413539
 21
318.6728782368495
 31
0.0
  0
LINE
  5
A7
330
1F
100
AcDbEntity
  8
1
  6
Continuous
 62
     2
100
AcDbLine
 10
485.1908849413539
 20
315.5228782368495
 30
0.0
 11
485.9783849413539
 21
316.4228782368495
 31
0.0
  0
LINE
  5
A8
330
1F
100
AcDbEntity
  8
1
  6
Continuous
 62
     2
100
AcDbLine
 10
483.9533849413539
 20
314.7353782368495
 30
0.0
 11
485.1908849413539
 21
315.5228782368495
 31
0.0
  0
LINE
  5
A9
330
1F
100
AcDbEntity
  8
1
  6
Continuous
 62
     2
100
AcDbLine
 10
482.7158849413539
 20
321.7103782368495
 30
0.0
 11
482.7158849413539
 21
313.6103782368495
 31
0.0
  0
LINE
  5
AA
330
1F
100
AcDbEntity
  8
1
  6
Continuous
 62
     2
100
AcDbLine
 10
489.1283849413539
 20
321.7103782368495
 30
0.0
 11
482.7158849413539
 21
321.7103782368495
 31
0.0
  0
LINE
  5
AB
330
1F
100
AcDbEntity
  8
1
  6
Continuous
 62
     2
100
AcDbLine
 10
489.1283849413539
 20
313.6103782368495
 30
0.0
 11
489.1283849413539
 21
321.7103782368495
 31
0.0
  0
LINE
  5
AC
330
1F
100
AcDbEntity
  8
1
  6
Continuous
 62
     2
100
AcDbLine
 10
482.7158849413539
 20
313.6103782368495
 30
0.0
 11
489.1283849413539
 21
313.6103782368495
 31
0.0
  0
LINE
  5
AD
330
1F
100
AcDbEntity
  8
1
  6
Continuous
 62
     2
100
AcDbLine
 10
478.8908849413539
 20
315.8603782368495
 30
0.0
 11
480.4658849413539
 21
313.2728782368495
 31
0.0
  0
LINE
  5
AE
330
1F
100
AcDbEntity
  8
1
  6
Continuous
 62
     2
100
AcDbLine
 10
475.4033849413539
 20
313.6103782368495
 30
0.0
 11
479.6783849413539
 21
314.3978782368495
 31
0.0
  0
LINE
  5
AF
330
1F
100
AcDbEntity
  8
1
  6
Continuous
 62
     2
100
AcDbLine
 10
477.6533849413539
 20
317.5478782368495
 30
0.0
 11
476.4158849413539
 21
313.8353782368495
 31
0.0
  0
LINE
  5
B0
330
1F
100
AcDbEntity
  8
1
  6
Continuous
 62
     2
100
AcDbLine
 10
474.9533849413539
 20
317.5478782368495
 30
0.0
 11
480.6908849413539
 21
317.5478782368495
 31
0.0
  0
LINE
  5
B1
330
1F
100
AcDbEntity
  8
1
  6
Continuous
 62
     2
100
AcDbLine
 10
477.8783849413539
 20
322.0478782368495
 30
0.0
 11
477.8783849413539
 21
317.5478782368495
 31
0.0
  0
LINE
  5
B2
330
1F
100
AcDbEntity
  8
1
  6
Continuous
 62
     2
100
AcDbLine
 10
475.6283849413539
 20
319.7978782368495
 30
0.0
 11
480.4658849413539
 21
319.7978782368495
 31
0.0
  0
LINE
  5
B3
330
1F
100
AcDbEntity
  8
1
  6
Continuous
 62
     2
100
AcDbLine
 10
473.7158849413539
 20
321.7103782368495
 30
0.0
 11
474.3908849413539
 21
320.5853782368495
 31
0.0
  0
LINE
  5
B4
330
1F
100
AcDbEntity
  8
1
  6
Continuous
 62
     2
100
AcDbLine
 10
473.7158849413539
 20
318.3353782368495
 30
0.0
 11
472.9283849413539
 21
319.2353782368495
 31
0.0
  0
LINE
  5
B5
330
1F
100
AcDbEntity
  8
1
  6
Continuous
 62
     2
100
AcDbLine
 10
473.1533849413539
 20
313.2728782368495
 30
0.0
 11
474.3908849413539
 21
316.9853782368495
 31
0.0
  0
LINE
  5
B6
330
1F
100
AcDbEntity
  8
1
  6
Continuous
 62
     2
100
AcDbLine
 10
467.4158849413539
 20
316.6478782368495
 30
0.0
 11
466.4033849413539
 21
318.1103782368495
 31
0.0
  0
LINE
  5
B7
330
1F
100
AcDbEntity
  8
1
  6
Continuous
 62
     2
100
AcDbLine
 10
469.4408849413539
 20
313.6103782368495
 30
0.0
 11
468.2033849413539
 21
313.6103782368495
 31
0.0
  0
LINE
  5
B8
330
1F
100
AcDbEntity
  8
1
  6
Continuous
 62
     2
100
AcDbLine
 10
469.4408849413539
 20
321.7103782368495
 30
0.0
 11
469.4408849413539
 21
313.6103782368495
 31
0.0
  0
LINE
  5
B9
330
1F
100
AcDbEntity
  8
1
  6
Continuous
 62
     2
100
AcDbLine
 10
464.7158849413539
 20
319.4603782368495
 30
0.0
 11
471.4658849413539
 21
319.4603782368495
 31
0.0
  0
LINE
  5
BA
330
1F
100
AcDbEntity
  8
1
  6
Continuous
 62
     2
100
AcDbLine
 10
462.6908849413539
 20
313.2728782368495
 30
0.0
 11
462.9158849413539
 21
313.8353782368495
 31
0.0
  0
LINE
  5
BB
330
1F
100
AcDbEntity
  8
1
  6
Continuous
 62
     2
100
AcDbLine
 10
461.6783849413539
 20
313.2728782368495
 30
0.0
 11
462.6908849413539
 21
313.2728782368495
 31
0.0
  0
LINE
  5
BC
330
1F
100
AcDbEntity
  8
1
  6
Continuous
 62
     2
100
AcDbLine
 10
460.8908849413539
 20
313.8353782368495
 30
0.0
 11
461.6783849413539
 21
313.2728782368495
 31
0.0
  0
LINE
  5
BD
330
1F
100
AcDbEntity
  8
1
  6
Continuous
 62
     2
100
AcDbLine
 10
460.8908849413539
 20
316.4228782368495
 30
0.0
 11
460.8908849413539
 21
313.8353782368495
 31
0.0
  0
LINE
  5
BE
330
1F
100
AcDbEntity
  8
1
  6
Continuous
 62
     2
100
AcDbLine
 10
459.4283849413539
 20
314.1728782368495
 30
0.0
 11
458.6408849413539
 21
313.2728782368495
 31
0.0
  0
LINE
  5
BF
330
1F
100
AcDbEntity
  8
1
  6
Continuous
 62
     2
100
AcDbLine
 10
459.8783849413539
 20
315.5228782368495
 30
0.0
 11
459.4283849413539
 21
314.1728782368495
 31
0.0
  0
LINE
  5
C0
330
1F
100
AcDbEntity
  8
1
  6
Continuous
 62
     2
100
AcDbLine
 10
460.2158849413539
 20
316.4228782368495
 30
0.0
 11
459.8783849413539
 21
315.5228782368495
 31
0.0
  0
LINE
  5
C1
330
1F
100
AcDbEntity
  8
1
  6
Continuous
 62
     2
100
AcDbLine
 10
461.9033849413539
 20
318.1103782368495
 30
0.0
 11
459.4283849413539
 21
318.1103782368495
 31
0.0
  0
LINE
  5
C2
330
1F
100
AcDbEntity
  8
1
  6
Continuous
 62
     2
100
AcDbLine
 10
459.4283849413539
 20
319.7978782368495
 30
0.0
 11
461.9033849413539
 21
319.7978782368495
 31
0.0
  0
LINE
  5
C3
330
1F
100
AcDbEntity
  8
1
  6
Continuous
 62
     2
100
AcDbLine
 10
461.9033849413539
 20
321.4853782368495
 30
0.0
 11
459.4283849413539
 21
321.4853782368495
 31
0.0
  0
LINE
  5
C4
330
1F
100
AcDbEntity
  8
1
  6
Continuous
 62
     2
100
AcDbLine
 10
461.9033849413539
 20
316.4228782368495
 30
0.0
 11
461.9033849413539
 21
321.4853782368495
 31
0.0
  0
LINE
  5
C5
330
1F
100
AcDbEntity
  8
1
  6
Continuous
 62
     2
100
AcDbLine
 10
459.4283849413539
 20
316.4228782368495
 30
0.0
 11
461.9033849413539
 21
316.4228782368495
 31
0.0
  0
LINE
  5
C6
330
1F
100
AcDbEntity
  8
1
  6
Continuous
 62
     2
100
AcDbLine
 10
459.4283849413539
 20
321.4853782368495
 30
0.0
 11
459.4283849413539
 21
316.4228782368495
 31
0.0
  0
LINE
  5
C7
330
1F
100
AcDbEntity
  8
1
  6
Continuous
 62
     2
100
AcDbLine
 10
455.9408849413539
 20
320.9228782368495
 30
0.0
 11
456.3908849413539
 21
322.0478782368495
 31
0.0
  0
LINE
  5
C8
330
1F
100
AcDbEntity
  8
1
  6
Continuous
 62
     2
100
AcDbLine
 10
455.1533849413539
 20
320.0228782368495
 30
0.0
 11
455.9408849413539
 21
320.9228782368495
 31
0.0
  0
LINE
  5
C9
330
1F
100
AcDbEntity
  8
1
  6
Continuous
 62
     2
100
AcDbLine
 10
458.6408849413539
 20
320.9228782368495
 30
0.0
 11
456.1658849413539
 21
320.9228782368495
 31
0.0
  0
LINE
  5
CA
330
1F
100
AcDbEntity
  8
1
  6
Continuous
 62
     2
100
AcDbLine
 10
456.1658849413539
 20
318.3353782368495
 30
0.0
 11
457.1783849413539
 21
320.9228782368495
 31
0.0
  0
LINE
  5
CB
330
1F
100
AcDbEntity
  8
1
  6
Continuous
 62
     2
100
AcDbLine
 10
454.9283849413539
 20
316.6478782368495
 30
0.0
 11
456.1658849413539
 21
318.3353782368495
 31
0.0
  0
LINE
  5
CC
330
1F
100
AcDbEntity
  8
1
  6
Continuous
 62
     2
100
AcDbLine
 10
458.9783849413539
 20
319.4603782368495
 30
0.0
 11
455.1533849413539
 21
319.4603782368495
 31
0.0
  0
LINE
  5
CD
330
1F
100
AcDbEntity
  8
1
  6
Continuous
 62
     2
100
AcDbLine
 10
457.4033849413539
 20
318.1103782368495
 30
0.0
 11
457.6283849413539
 21
318.6728782368495
 31
0.0
  0
LINE
  5
CE
330
1F
100
AcDbEntity
  8
1
  6
Continuous
 62
     2
100
AcDbLine
 10
457.4033849413539
 20
313.8353782368495
 30
0.0
 11
457.4033849413539
 21
318.1103782368495
 31
0.0
  0
LINE
  5
CF
330
1F
100
AcDbEntity
  8
1
  6
Continuous
 62
     2
100
AcDbLine
 10
458.6408849413539
 20
313.8353782368495
 30
0.0
 11
455.9408849413539
 21
313.8353782368495
 31
0.0
  0
LINE
  5
D0
330
1F
100
AcDbEntity
  8
1
  6
Continuous
 62
     2
100
AcDbLine
 10
455.9408849413539
 20
315.2978782368495
 30
0.0
 11
458.6408849413539
 21
315.2978782368495
 31
0.0
  0
LINE
  5
D1
330
1F
100
AcDbEntity
  8
1
  6
Continuous
 62
     2
100
AcDbLine
 10
458.6408849413539
 20
316.6478782368495
 30
0.0
 11
455.9408849413539
 21
316.6478782368495
 31
0.0
  0
LINE
  5
D2
330
1F
100
AcDbEntity
  8
1
  6
Continuous
 62
     2
100
AcDbLine
 10
455.9408849413539
 20
318.1103782368495
 30
0.0
 11
458.6408849413539
 21
318.1103782368495
 31
0.0
  0
LINE
  5
D3
330
1F
100
AcDbEntity
  8
1
  6
Continuous
 62
     2
100
AcDbLine
 10
455.9408849413539
 20
313.2728782368495
 30
0.0
 11
455.9408849413539
 21
318.1103782368495
 31
0.0
  0
LINE
  5
D4
330
1F
100
AcDbEntity
  8
1
  6
Continuous
 62
     2
100
AcDbLine
 10
452.6783849413539
 20
318.1103782368495
 30
0.0
 11
453.9158849413539
 21
316.6478782368495
 31
0.0
  0
LINE
  5
D5
330
1F
100
AcDbEntity
  8
1
  6
Continuous
 62
     2
100
AcDbLine
 10
450.6533849413539
 20
320.0228782368495
 30
0.0
 11
452.6783849413539
 21
318.1103782368495
 31
0.0
  0
LINE
  5
D6
330
1F
100
AcDbEntity
  8
1
  6
Continuous
 62
     2
100
AcDbLine
 10
451.2158849413539
 20
322.2728782368495
 30
0.0
 11
451.2158849413539
 21
313.2728782368495
 31
0.0
  0
LINE
  5
D7
330
1F
100
AcDbEntity
  8
1
  6
Continuous
 62
     2
100
AcDbLine
 10
446.9408849413539
 20
318.6728782368495
 30
0.0
 11
448.6283849413539
 21
317.2103782368495
 31
0.0
  0
LINE
  5
D8
330
1F
100
AcDbEntity
  8
1
  6
Continuous
 62
     2
100
AcDbLine
 10
446.9408849413539
 20
318.8978782368495
 30
0.0
 11
445.9283849413539
 21
317.5478782368495
 31
0.0
  0
LINE
  5
D9
330
1F
100
AcDbEntity
  8
1
  6
Continuous
 62
     2
100
AcDbLine
 10
447.7283849413539
 20
320.5853782368495
 30
0.0
 11
446.9408849413539
 21
318.8978782368495
 31
0.0
  0
LINE
  5
DA
330
1F
100
AcDbEntity
  8
1
  6
Continuous
 62
     2
100
AcDbLine
 10
448.1783849413539
 20
322.2728782368495
 30
0.0
 11
447.7283849413539
 21
320.5853782368495
 31
0.0
  0
LINE
  5
DB
330
1F
100
AcDbEntity
  8
1
  6
Continuous
 62
     2
100
AcDbLine
 10
449.9783849413539
 20
320.3603782368495
 30
0.0
 11
447.7283849413539
 21
320.3603782368495
 31
0.0
  0
LINE
  5
DC
330
1F
100
AcDbEntity
  8
1
  6
Continuous
 62
     2
100
AcDbLine
 10
449.4158849413539
 20
318.6728782368495
 30
0.0
 11
449.9783849413539
 21
320.3603782368495
 31
0.0
  0
LINE
  5
DD
330
1F
100
AcDbEntity
  8
1
  6
Continuous
 62
     2
100
AcDbLine
 10
448.9658849413539
 20
317.5478782368495
 30
0.0
 11
449.4158849413539
 21
318.6728782368495
 31
0.0
  0
LINE
  5
DE
330
1F
100
AcDbEntity
  8
1
  6
Continuous
 62
     2
100
AcDbLine
 10
447.9533849413539
 20
315.8603782368495
 30
0.0
 11
448.9658849413539
 21
317.5478782368495
 31
0.0
  0
LINE
  5
DF
330
1F
100
AcDbEntity
  8
1
  6
Continuous
 62
     2
100
AcDbLine
 10
446.3783849413539
 20
313.8353782368495
 30
0.0
 11
447.9533849413539
 21
315.8603782368495
 31
0.0
  0
LINE
  5
E0
330
1F
100
AcDbEntity
  8
1
  6
Continuous
 62
     2
100
AcDbLine
 10
431.0783849413539
 20
319.5728782368495
 30
0.0
 11
431.0783849413539
 21
313.2728782368495
 31
0.0
  0
LINE
  5
E1
330
1F
100
AcDbEntity
  8
1
  6
Continuous
 62
     2
100
AcDbLine
 10
434.2283849413539
 20
318.4478782368495
 30
0.0
 11
434.2283849413539
 21
313.2728782368495
 31
0.0
  0
LINE
  5
E2
330
1F
100
AcDbEntity
  8
1
  6
Continuous
 62
     2
100
AcDbLine
 10
434.0033849413539
 20
318.8978782368495
 30
0.0
 11
434.2283849413539
 21
318.4478782368495
 31
0.0
  0
LINE
  5
E3
330
1F
100
AcDbEntity
  8
1
  6
Continuous
 62
     2
100
AcDbLine
 10
433.5533849413539
 20
319.3478782368495
 30
0.0
 11
434.0033849413539
 21
318.8978782368495
 31
0.0
  0
LINE
  5
E4
330
1F
100
AcDbEntity
  8
1
  6
Continuous
 62
     2
100
AcDbLine
 10
432.8783849413539
 20
319.5728782368495
 30
0.0
 11
433.5533849413539
 21
319.3478782368495
 31
0.0
  0
LINE
  5
E5
330
1F
100
AcDbEntity
  8
1
  6
Continuous
 62
     2
100
AcDbLine
 10
427.9283849413539
 20
319.5728782368495
 30
0.0
 11
432.8783849413539
 21
319.5728782368495
 31
0.0
  0
LINE
  5
E6
330
1F
100
AcDbEntity
  8
1
  6
Continuous
 62
     2
100
AcDbLine
 10
427.9283849413539
 20
313.2728782368495
 30
0.0
 11
427.9283849413539
 21
319.5728782368495
 31
0.0
  0
LINE
  5
E7
330
1F
100
AcDbEntity
  8
1
  6
Continuous
 62
     2
100
AcDbLine
 10
422.0783849413539
 20
319.5728782368495
 30
0.0
 11
422.0783849413539
 21
313.2728782368495
 31
0.0
  0
LINE
  5
E8
330
1F
100
AcDbEntity
  8
1
  6
Continuous
 62
     2
100
AcDbLine
 10
425.2283849413539
 20
318.4478782368495
 30
0.0
 11
425.2283849413539
 21
313.2728782368495
 31
0.0
  0
LINE
  5
E9
330
1F
100
AcDbEntity
  8
1
  6
Continuous
 62
     2
100
AcDbLine
 10
425.0033849413539
 20
318.8978782368495
 30
0.0
 11
425.2283849413539
 21
318.4478782368495
 31
0.0
  0
LINE
  5
EA
330
1F
100
AcDbEntity
  8
1
  6
Continuous
 62
     2
100
AcDbLine
 10
424.5533849413539
 20
319.3478782368495
 30
0.0
 11
425.0033849413539
 21
318.8978782368495
 31
0.0
  0
LINE
  5
EB
330
1F
100
AcDbEntity
  8
1
  6
Continuous
 62
     2
100
AcDbLine
 10
423.8783849413539
 20
319.5728782368495
 30
0.0
 11
424.5533849413539
 21
319.3478782368495
 31
0.0
  0
LINE
  5
EC
330
1F
100
AcDbEntity
  8
1
  6
Continuous
 62
     2
100
AcDbLine
 10
418.9283849413539
 20
319.5728782368495
 30
0.0
 11
423.8783849413539
 21
319.5728782368495
 31
0.0
  0
LINE
  5
ED
330
1F
100
AcDbEntity
  8
1
  6
Continuous
 62
     2
100
AcDbLine
 10
418.9283849413539
 20
313.2728782368495
 30
0.0
 11
418.9283849413539
 21
319.5728782368495
 31
0.0
  0
LINE
  5
EE
330
1F
100
AcDbEntity
  8
1
  6
Continuous
 62
     2
100
AcDbLine
 10
414.2033849413539
 20
313.2728782368495
 30
0.0
 11
410.8283849413539
 21
313.2728782368495
 31
0.0
  0
LINE
  5
EF
330
1F
100
AcDbEntity
  8
1
  6
Continuous
 62
     2
100
AcDbLine
 10
414.8783849413539
 20
313.4978782368495
 30
0.0
 11
414.2033849413539
 21
313.2728782368495
 31
0.0
  0
LINE
  5
F0
330
1F
100
AcDbEntity
  8
1
  6
Continuous
 62
     2
100
AcDbLine
 10
415.5533849413539
 20
313.9478782368495
 30
0.0
 11
414.8783849413539
 21
313.4978782368495
 31
0.0
  0
LINE
  5
F1
330
1F
100
AcDbEntity
  8
1
  6
Continuous
 62
     2
100
AcDbLine
 10
416.0033849413539
 20
314.6228782368495
 30
0.0
 11
415.5533849413539
 21
313.9478782368495
 31
0.0
  0
LINE
  5
F2
330
1F
100
AcDbEntity
  8
1
  6
Continuous
 62
     2
100
AcDbLine
 10
416.2283849413539
 20
315.5228782368495
 30
0.0
 11
416.0033849413539
 21
314.6228782368495
 31
0.0
  0
LINE
  5
F3
330
1F
100
AcDbEntity
  8
1
  6
Continuous
 62
     2
100
AcDbLine
 10
416.2283849413539
 20
316.8728782368495
 30
0.0
 11
416.2283849413539
 21
315.5228782368495
 31
0.0
  0
LINE
  5
F4
330
1F
100
AcDbEntity
  8
1
  6
Continuous
 62
     2
100
AcDbLine
 10
416.0033849413539
 20
317.7728782368495
 30
0.0
 11
416.2283849413539
 21
316.8728782368495
 31
0.0
  0
LINE
  5
F5
330
1F
100
AcDbEntity
  8
1
  6
Continuous
 62
     2
100
AcDbLine
 10
415.3283849413539
 20
318.4478782368495
 30
0.0
 11
416.0033849413539
 21
317.7728782368495
 31
0.0
  0
LINE
  5
F6
330
1F
100
AcDbEntity
  8
1
  6
Continuous
 62
     2
100
AcDbLine
 10
414.2033849413539
 20
318.6728782368495
 30
0.0
 11
415.3283849413539
 21
318.4478782368495
 31
0.0
  0
LINE
  5
F7
330
1F
100
AcDbEntity
  8
1
  6
Continuous
 62
     2
100
AcDbLine
 10
410.8283849413539
 20
318.6728782368495
 30
0.0
 11
414.2033849413539
 21
318.6728782368495
 31
0.0
  0
LINE
  5
F8
330
1F
100
AcDbEntity
  8
1
  6
Continuous
 62
     2
100
AcDbLine
 10
410.8283849413539
 20
322.2728782368495
 30
0.0
 11
410.8283849413539
 21
318.6728782368495
 31
0.0
  0
LINE
  5
F9
330
1F
100
AcDbEntity
  8
1
  6
Continuous
 62
     2
100
AcDbLine
 10
415.7783849413539
 20
322.2728782368495
 30
0.0
 11
410.8283849413539
 21
322.2728782368495
 31
0.0
  0
LINE
  5
FA
330
1F
100
AcDbEntity
  8
1
  6
Continuous
 62
     2
100
AcDbLine
 10
402.7283849413539
 20
313.2728782368495
 30
0.0
 11
408.1283849413538
 21
313.2728782368495
 31
0.0
  0
LINE
  5
FB
330
1F
100
AcDbEntity
  8
1
  6
Continuous
 62
     2
100
AcDbLine
 10
407.6783849413538
 20
319.1228782368495
 30
0.0
 11
402.7283849413539
 21
313.2728782368495
 31
0.0
  0
LINE
  5
FC
330
1F
100
AcDbEntity
  8
1
  6
Continuous
 62
     2
100
AcDbLine
 10
408.1283849413538
 20
320.0228782368495
 30
0.0
 11
407.6783849413538
 21
319.1228782368495
 31
0.0
  0
LINE
  5
FD
330
1F
100
AcDbEntity
  8
1
  6
Continuous
 62
     2
100
AcDbLine
 10
408.1283849413538
 20
320.9228782368495
 30
0.0
 11
408.1283849413538
 21
320.0228782368495
 31
0.0
  0
LINE
  5
FE
330
1F
100
AcDbEntity
  8
1
  6
Continuous
 62
     2
100
AcDbLine
 10
407.6783849413538
 20
321.5978782368495
 30
0.0
 11
408.1283849413538
 21
320.9228782368495
 31
0.0
  0
LINE
  5
FF
330
1F
100
AcDbEntity
  8
1
  6
Continuous
 62
     2
100
AcDbLine
 10
407.0033849413538
 20
322.0478782368495
 30
0.0
 11
407.6783849413538
 21
321.5978782368495
 31
0.0
  0
LINE
  5
100
330
1F
100
AcDbEntity
  8
1
  6
Continuous
 62
     2
100
AcDbLine
 10
406.1033849413539
 20
322.2728782368495
 30
0.0
 11
407.0033849413538
 21
322.0478782368495
 31
0.0
  0
LINE
  5
101
330
1F
100
AcDbEntity
  8
1
  6
Continuous
 62
     2
100
AcDbLine
 10
404.7533849413538
 20
322.2728782368495
 30
0.0
 11
406.1033849413539
 21
322.2728782368495
 31
0.0
  0
LINE
  5
102
330
1F
100
AcDbEntity
  8
1
  6
Continuous
 62
     2
100
AcDbLine
 10
403.8533849413539
 20
322.0478782368495
 30
0.0
 11
404.7533849413538
 21
322.2728782368495
 31
0.0
  0
LINE
  5
103
330
1F
100
AcDbEntity
  8
1
  6
Continuous
 62
     2
100
AcDbLine
 10
403.1783849413538
 20
321.5978782368495
 30
0.0
 11
403.8533849413539
 21
322.0478782368495
 31
0.0
  0
LINE
  5
104
330
1F
100
AcDbEntity
  8
1
  6
Continuous
 62
     2
100
AcDbLine
 10
402.7283849413539
 20
320.9228782368495
 30
0.0
 11
403.1783849413538
 21
321.5978782368495
 31
0.0
  0
LINE
  5
105
330
1F
100
AcDbEntity
  8
1
  6
Continuous
 62
     2
100
AcDbLine
 10
398.0033849413538
 20
316.9853782368495
 30
0.0
 11
398.0033849413538
 21
313.6103782368495
 31
0.0
  0
LINE
  5
106
330
1F
100
AcDbEntity
  8
1
  6
Continuous
 62
     2
100
AcDbLine
 10
400.9283849413538
 20
316.9853782368495
 30
0.0
 11
400.2533849413538
 21
316.9853782368495
 31
0.0
  0
LINE
  5
107
330
1F
100
AcDbEntity
  8
1
  6
Continuous
 62
     2
100
AcDbLine
 10
400.9283849413538
 20
322.0478782368495
 30
0.0
 11
400.9283849413538
 21
316.9853782368495
 31
0.0
  0
LINE
  5
108
330
1F
100
AcDbEntity
  8
1
  6
Continuous
 62
     2
100
AcDbLine
 10
399.2408849413538
 20
318.1103782368495
 30
0.0
 11
399.2408849413538
 21
321.7103782368495
 31
0.0
  0
LINE
  5
109
330
1F
100
AcDbEntity
  8
1
  6
Continuous
 62
     2
100
AcDbLine
 10
396.7658849413539
 20
321.7103782368495
 30
0.0
 11
396.7658849413539
 21
316.9853782368495
 31
0.0
  0
LINE
  5
10A
330
1F
100
AcDbEntity
  8
1
  6
Continuous
 62
     2
100
AcDbLine
 10
393.9533849413539
 20
319.7978782368495
 30
0.0
 11
398.2283849413539
 21
319.7978782368495
 31
0.0
  0
LINE
  5
10B
330
1F
100
AcDbEntity
  8
1
  6
Continuous
 62
     2
100
AcDbLine
 10
398.0033849413538
 20
321.7103782368495
 30
0.0
 11
394.1783849413538
 21
321.7103782368495
 31
0.0
  0
LINE
  5
10C
330
1F
100
AcDbEntity
  8
1
  6
Continuous
 62
     2
100
AcDbLine
 10
395.5283849413539
 20
319.7978782368495
 30
0.0
 11
395.5283849413539
 21
321.7103782368495
 31
0.0
  0
LINE
  5
10D
330
1F
100
AcDbEntity
  8
1
  6
Continuous
 62
     2
100
AcDbLine
 10
394.9658849413539
 20
317.7728782368495
 30
0.0
 11
395.5283849413539
 21
319.7978782368495
 31
0.0
  0
LINE
  5
10E
330
1F
100
AcDbEntity
  8
1
  6
Continuous
 62
     2
100
AcDbLine
 10
394.1783849413538
 20
316.6478782368495
 30
0.0
 11
394.9658849413539
 21
317.7728782368495
 31
0.0
  0
LINE
  5
10F
330
1F
100
AcDbEntity
  8
1
  6
Continuous
 62
     2
100
AcDbLine
 10
400.4783849413539
 20
315.5228782368495
 30
0.0
 11
394.9658849413539
 21
315.5228782368495
 31
0.0
  0
LINE
  5
110
330
1F
100
AcDbEntity
  8
1
  6
Continuous
 62
     2
100
AcDbLine
 10
394.1783849413538
 20
313.6103782368495
 30
0.0
 11
401.4908849413538
 21
313.6103782368495
 31
0.0
  0
LINE
  5
111
330
1F
100
AcDbEntity
  8
1
  6
Continuous
 62
     2
100
AcDbLine
 10
385.6283849413539
 20
313.2728782368495
 30
0.0
 11
385.6283849413539
 21
322.2728782368495
 31
0.0
  0
LINE
  5
112
330
1F
100
AcDbEntity
  8
1
  6
Continuous
 62
     2
100
AcDbLine
 10
391.0283849413539
 20
313.2728782368495
 30
0.0
 11
385.6283849413539
 21
313.2728782368495
 31
0.0
  0
LINE
  5
113
330
1F
100
AcDbEntity
  8
1
  6
Continuous
 62
     2
100
AcDbLine
 10
382.7033849413539
 20
320.4728782368495
 30
0.0
 11
382.9283849413539
 21
319.5728782368495
 31
0.0
  0
LINE
  5
114
330
1F
100
AcDbEntity
  8
1
  6
Continuous
 62
     2
100
AcDbLine
 10
382.2533849413539
 20
321.1478782368495
 30
0.0
 11
382.7033849413539
 21
320.4728782368495
 31
0.0
  0
LINE
  5
115
330
1F
100
AcDbEntity
  8
1
  6
Continuous
 62
     2
100
AcDbLine
 10
381.8033849413539
 20
321.5978782368495
 30
0.0
 11
382.2533849413539
 21
321.1478782368495
 31
0.0
  0
LINE
  5
116
330
1F
100
AcDbEntity
  8
1
  6
Continuous
 62
     2
100
AcDbLine
 10
381.1283849413539
 20
322.0478782368495
 30
0.0
 11
381.8033849413539
 21
321.5978782368495
 31
0.0
  0
LINE
  5
117
330
1F
100
AcDbEntity
  8
1
  6
Continuous
 62
     2
100
AcDbLine
 10
380.2283849413539
 20
322.2728782368495
 30
0.0
 11
381.1283849413539
 21
322.0478782368495
 31
0.0
  0
LINE
  5
118
330
1F
100
AcDbEntity
  8
1
  6
Continuous
 62
     2
100
AcDbLine
 10
376.6283849413539
 20
322.2728782368495
 30
0.0
 11
380.2283849413539
 21
322.2728782368495
 31
0.0
  0
LINE
  5
119
330
1F
100
AcDbEntity
  8
1
  6
Continuous
 62
     2
100
AcDbLine
 10
376.6283849413539
 20
313.2728782368495
 30
0.0
 11
376.6283849413539
 21
322.2728782368495
 31
0.0
  0
LINE
  5
11A
330
1F
100
AcDbEntity
  8
1
  6
Continuous
 62
     2
100
AcDbLine
 10
380.2283849413539
 20
313.2728782368495
 30
0.0
 11
376.6283849413539
 21
313.2728782368495
 31
0.0
  0
LINE
  5
11B
330
1F
100
AcDbEntity
  8
1
  6
Continuous
 62
     2
100
AcDbLine
 10
381.1283849413539
 20
313.4978782368495
 30
0.0
 11
380.2283849413539
 21
313.2728782368495
 31
0.0
  0
LINE
  5
11C
330
1F
100
AcDbEntity
  8
1
  6
Continuous
 62
     2
100
AcDbLine
 10
381.8033849413539
 20
313.9478782368495
 30
0.0
 11
381.1283849413539
 21
313.4978782368495
 31
0.0
  0
LINE
  5
11D
330
1F
100
AcDbEntity
  8
1
  6
Continuous
 62
     2
100
AcDbLine
 10
382.2533849413539
 20
314.3978782368495
 30
0.0
 11
381.8033849413539
 21
313.9478782368495
 31
0.0
  0
LINE
  5
11E
330
1F
100
AcDbEntity
  8
1
  6
Continuous
 62
     2
100
AcDbLine
 10
382.7033849413539
 20
315.0728782368495
 30
0.0
 11
382.2533849413539
 21
314.3978782368495
 31
0.0
  0
LINE
  5
11F
330
1F
100
AcDbEntity
  8
1
  6
Continuous
 62
     2
100
AcDbLine
 10
382.9283849413539
 20
315.9728782368495
 30
0.0
 11
382.7033849413539
 21
315.0728782368495
 31
0.0
  0
LINE
  5
120
330
1F
100
AcDbEntity
  8
1
  6
Continuous
 62
     2
100
AcDbLine
 10
382.9283849413539
 20
319.5728782368495
 30
0.0
 11
382.9283849413539
 21
315.9728782368495
 31
0.0
  0
LINE
  5
121
330
1F
100
AcDbEntity
  8
1
  6
Continuous
 62
     2
100
AcDbLine
 10
367.6283849413539
 20
313.2728782368495
 30
0.0
 11
367.6283849413539
 21
322.2728782368495
 31
0.0
  0
LINE
  5
122
330
1F
100
AcDbEntity
  8
1
  6
Continuous
 62
     2
100
AcDbLine
 10
369.4283849413539
 20
317.7728782368495
 30
0.0
 11
373.9283849413539
 21
313.2728782368495
 31
0.0
  0
LINE
  5
123
330
1F
100
AcDbEntity
  8
1
  6
Continuous
 62
     2
100
AcDbLine
 10
373.9283849413539
 20
322.2728782368495
 30
0.0
 11
367.6283849413539
 21
315.9728782368495
 31
0.0
  0
LINE
  5
124
330
1F
100
AcDbEntity
  8
1
  6
Continuous
 62
     2
100
AcDbLine
 10
364.9283849413539
 20
313.2728782368495
 30
0.0
 11
364.9283849413539
 21
322.2728782368495
 31
0.0
  0
LINE
  5
125
330
1F
100
AcDbEntity
  8
1
  6
Continuous
 62
     2
100
AcDbLine
 10
358.6283849413539
 20
322.2728782368495
 30
0.0
 11
364.9283849413539
 21
313.2728782368495
 31
0.0
  0
LINE
  5
126
330
1F
100
AcDbEntity
  8
1
  6
Continuous
 62
     2
100
AcDbLine
 10
358.6283849413539
 20
313.2728782368495
 30
0.0
 11
358.6283849413539
 21
322.2728782368495
 31
0.0
  0
LINE
  5
127
330
1F
100
AcDbEntity
  8
1
  6
Continuous
 62
     2
100
AcDbLine
 10
504.5310642542889
 20
397.7728782368495
 30
0.0
 11
506.085820046316
 21
397.7728782368495
 31
0.0
  0
LINE
  5
128
330
1F
100
AcDbEntity
  8
1
  6
PHANTOM
 62
     2
100
AcDbLine
 10
358.8783849413539
 20
401.2025246924778
 30
0.0
 11
368.9194426555591
 21
401.2025246924778
 31
0.0
  0
LINE
  5
129
330
1F
100
AcDbEntity
  8
1
  6
PHANTOM
 62
     2
100
AcDbLine
 10
368.9194426555591
 20
401.2025246924778
 30
0.0
 11
368.9194426555591
 21
394.2728782368495
 31
0.0
  0
LINE
  5
12A
330
1F
100
AcDbEntity
  8
1
  6
PHANTOM
 62
     2
100
AcDbLine
 10
368.9194426555591
 20
394.2728782368495
 30
0.0
 11
358.8783849413539
 21
394.2728782368495
 31
0.0
  0
LINE
  5
12B
330
1F
100
AcDbEntity
  8
1
  6
Continuous
 62
     7
100
AcDbLine
 10
466.3783849413539
 20
454.1828782368497
 30
0.0
 11
381.3783849413539
 21
454.1828782368497
 31
0.0
  0
LINE
  5
12C
330
1F
100
AcDbEntity
  8
1
  6
Continuous
 62
     7
100
AcDbLine
 10
381.3783849413539
 20
436.6828782368497
 30
0.0
 11
466.3783849413539
 21
436.6828782368497
 31
0.0
  0
LINE
  5
12D
330
1F
100
AcDbEntity
  8
1
  6
Continuous
 62
     7
100
AcDbLine
 10
464.3783849413539
 20
466.1828782368497
 30
0.0
 11
464.3783849413539
 21
456.1828782368497
 31
0.0
  0
LINE
  5
12E
330
1F
100
AcDbEntity
  8
1
  6
Continuous
 62
     7
100
AcDbLine
 10
472.8783849413538
 20
452.1828782368497
 30
0.0
 11
472.8783849413538
 21
440.1828782368497
 31
0.0
  0
LINE
  5
12F
330
1F
100
AcDbEntity
  8
1
  6
Continuous
 62
     7
100
AcDbLine
 10
466.3783849413539
 20
452.1828782368497
 30
0.0
 11
472.8783849413538
 21
452.1828782368497
 31
0.0
  0
LINE
  5
130
330
1F
100
AcDbEntity
  8
1
  6
Continuous
 62
     7
100
AcDbLine
 10
466.3783849413539
 20
440.1828782368497
 30
0.0
 11
472.8783849413538
 21
440.1828782368497
 31
0.0
  0
LINE
  5
131
330
1F
100
AcDbEntity
  8
1
  6
Continuous
 62
     7
100
AcDbLine
 10
466.3783849413539
 20
454.1828782368497
 30
0.0
 11
466.3783849413539
 21
436.6828782368497
 31
0.0
  0
LINE
  5
132
330
1F
100
AcDbEntity
  8
1
  6
Continuous
 62
     7
100
AcDbLine
 10
383.3783849413539
 20
460.1828782368497
 30
0.0
 11
381.8783849413539
 21
460.1828782368497
 31
0.0
  0
LINE
  5
133
330
1F
100
AcDbEntity
  8
1
  6
Continuous
 62
     7
100
AcDbLine
 10
383.3783849413539
 20
461.1828782368497
 30
0.0
 11
383.3783849413539
 21
456.1828782368497
 31
0.0
  0
LINE
  5
134
330
1F
100
AcDbEntity
  8
1
  6
Continuous
 62
     7
100
AcDbLine
 10
381.3783849413539
 20
440.1828782368497
 30
0.0
 11
374.8783849413539
 21
440.1828782368497
 31
0.0
  0
LINE
  5
135
330
1F
100
AcDbEntity
  8
1
  6
Continuous
 62
     7
100
AcDbLine
 10
381.3783849413539
 20
454.1828782368497
 30
0.0
 11
381.3783849413539
 21
436.6828782368497
 31
0.0
  0
LINE
  5
136
330
1F
100
AcDbEntity
  8
1
  6
Continuous
 62
     7
100
AcDbLine
 10
419.8783849413539
 20
452.1828782368497
 30
0.0
 11
427.8783849413539
 21
452.1828782368497
 31
0.0
  0
LINE
  5
137
330
1F
100
AcDbEntity
  8
1
  6
Continuous
 62
     7
100
AcDbLine
 10
427.8783849413539
 20
452.1828782368497
 30
0.0
 11
427.8783849413539
 21
440.1828782368497
 31
0.0
  0
LINE
  5
138
330
1F
100
AcDbEntity
  8
1
  6
Continuous
 62
     7
100
AcDbLine
 10
427.8783849413539
 20
440.1828782368497
 30
0.0
 11
419.8783849413539
 21
440.1828782368497
 31
0.0
  0
LINE
  5
139
330
1F
100
AcDbEntity
  8
1
  6
Continuous
 62
     7
100
AcDbLine
 10
419.8783849413539
 20
440.1828782368497
 30
0.0
 11
419.8783849413539
 21
452.1828782368497
 31
0.0
  0
LINE
  5
13A
330
1F
100
AcDbEntity
  8
1
  6
Continuous
 62
     7
100
AcDbLine
 10
374.8165717892987
 20
395.1390840438031
 30
0.0
 11
374.8165717892987
 21
394.2728782368496
 31
0.0
  0
LINE
  5
13B
330
1F
100
AcDbEntity
  8
1
  6
Continuous
 62
     7
100
AcDbLine
 10
371.0710978800316
 20
395.1390840438031
 30
0.0
 11
374.8165717892987
 21
395.1390840438031
 31
0.0
  0
LINE
  5
13C
330
1F
100
AcDbEntity
  8
1
  6
Continuous
 62
     7
100
AcDbLine
 10
371.0710978800316
 20
397.3912191418822
 30
0.0
 11
371.0710978800316
 21
395.1390840438031
 31
0.0
  0
LINE
  5
13D
330
1F
100
AcDbEntity
  8
1
  6
Continuous
 62
     7
100
AcDbLine
 10
374.4181171181
 20
397.3912191418822
 30
0.0
 11
371.0710978800316
 21
397.3912191418822
 31
0.0
  0
LINE
  5
13E
330
1F
100
AcDbEntity
  8
1
  6
Continuous
 62
     7
100
AcDbLine
 10
374.4181171181
 20
398.2574249488358
 30
0.0
 11
374.4181171181
 21
397.3912191418822
 31
0.0
  0
LINE
  5
13F
330
1F
100
AcDbEntity
  8
1
  6
Continuous
 62
     7
100
AcDbLine
 10
371.0710978800316
 20
398.2574249488358
 30
0.0
 11
374.4181171181
 21
398.2574249488358
 31
0.0
  0
LINE
  5
140
330
1F
100
AcDbEntity
  8
1
  6
Continuous
 62
     7
100
AcDbLine
 10
371.0710978800316
 20
400.3363188855242
 30
0.0
 11
371.0710978800316
 21
398.2574249488358
 31
0.0
  0
LINE
  5
141
330
1F
100
AcDbEntity
  8
1
  6
Continuous
 62
     7
100
AcDbLine
 10
374.7368808550589
 20
400.3363188855242
 30
0.0
 11
371.0710978800316
 21
400.3363188855242
 31
0.0
  0
LINE
  5
142
330
1F
100
AcDbEntity
  8
1
  6
Continuous
 62
     7
100
AcDbLine
 10
374.7368808550589
 20
401.2025246924778
 30
0.0
 11
374.7368808550589
 21
400.3363188855242
 31
0.0
  0
LINE
  5
143
330
1F
100
AcDbEntity
  8
1
  6
Continuous
 62
     7
100
AcDbLine
 10
370.1944976033947
 20
401.2025246924778
 30
0.0
 11
374.7368808550589
 21
401.2025246924778
 31
0.0
  0
LINE
  5
144
330
1F
100
AcDbEntity
  8
1
  6
Continuous
 62
     7
100
AcDbLine
 10
370.1944976033947
 20
394.2728782368496
 30
0.0
 11
370.1944976033947
 21
401.2025246924778
 31
0.0
  0
LINE
  5
145
330
1F
100
AcDbEntity
  8
1
  6
Continuous
 62
     7
100
AcDbLine
 10
374.8165717892987
 20
394.2728782368496
 30
0.0
 11
370.1944976033947
 21
394.2728782368496
 31
0.0
  0
LINE
  5
146
330
1F
100
AcDbEntity
  8
1
  6
DOT_CENTER
 62
     2
100
AcDbLine
 10
376.237839051357
 20
397.7728782368495
 30
0.0
 11
405.426790213877
 21
397.7728782368495
 31
0.0
  0
LINE
  5
147
330
1F
100
AcDbEntity
  8
1
  6
DOT_CENTER
 62
     2
100
AcDbLine
 10
423.8783849413539
 20
403.802265440446
 30
0.0
 11
423.8783849413539
 21
469.517257962602
 31
0.0
  0
LINE
  5
148
330
1F
100
AcDbEntity
  8
1
  6
Continuous
 62
     7
100
AcDbLine
 10
417.8783849413539
 20
400.7728782368495
 30
0.0
 11
426.8783849413539
 21
400.7728782368495
 31
0.0
  0
LINE
  5
149
330
1F
100
AcDbEntity
  8
1
  6
Continuous
 62
     7
100
AcDbLine
 10
417.8783849413539
 20
393.4364846134171
 30
0.0
 11
417.8783849413539
 21
400.7728782368495
 31
0.0
  0
LINE
  5
14A
330
1F
100
AcDbEntity
  8
1
  6
Continuous
 62
     7
100
AcDbLine
 10
419.807790854255
 20
399.0671338721347
 30
0.0
 11
426.8783849413539
 21
399.0671338721347
 31
0.0
  0
LINE
  5
14B
330
1F
100
AcDbEntity
  8
1
  6
Continuous
 62
     7
100
AcDbLine
 10
419.807790854255
 20
394.9139977355025
 30
0.0
 11
419.807790854255
 21
399.0671338721347
 31
0.0
  0
LINE
  5
14C
330
1F
100
AcDbEntity
  8
1
  6
Continuous
 62
     7
100
AcDbLine
 10
423.4359094161961
 20
394.9139977355025
 30
0.0
 11
419.807790854255
 21
394.9139977355025
 31
0.0
  0
LINE
  5
14D
330
1F
100
AcDbEntity
  8
1
  6
Continuous
 62
     7
100
AcDbLine
 10
419.6329756384859
 20
390.6569812502846
 30
0.0
 11
417.8783849413539
 21
390.467598099868
 31
0.0
  0
LINE
  5
14E
330
1F
100
AcDbEntity
  8
1
  6
Continuous
 62
     7
100
AcDbLine
 10
417.8783849413539
 20
393.4364846134171
 30
0.0
 11
423.1660635158761
 21
393.4364846134171
 31
0.0
  0
LINE
  5
14F
330
1F
100
AcDbEntity
  8
1
  6
Continuous
 62
     7
100
AcDbLine
 10
440.8783849413539
 20
415.7728782368495
 30
0.0
 11
434.8783849413539
 21
412.2728782368495
 31
0.0
  0
LINE
  5
150
330
1F
100
AcDbEntity
  8
1
  6
Continuous
 62
     7
100
AcDbLine
 10
434.8783849413539
 20
412.2728782368495
 30
0.0
 11
434.8783849413539
 21
415.0228782368495
 31
0.0
  0
LINE
  5
151
330
1F
100
AcDbEntity
  8
1
  6
Continuous
 62
     7
100
AcDbLine
 10
425.8783849413539
 20
415.0228782368495
 30
0.0
 11
423.8783849413539
 21
412.2728782368495
 31
0.0
  0
LINE
  5
152
330
1F
100
AcDbEntity
  8
1
  6
Continuous
 62
     7
100
AcDbLine
 10
423.8783849413539
 20
412.2728782368495
 30
0.0
 11
406.8783849413539
 21
412.2728782368495
 31
0.0
  0
LINE
  5
153
330
1F
100
AcDbEntity
  8
1
  6
Continuous
 62
     7
100
AcDbLine
 10
406.8783849413539
 20
412.2728782368495
 30
0.0
 11
408.8783849413539
 21
415.0228782368495
 31
0.0
  0
LINE
  5
154
330
1F
100
AcDbEntity
  8
1
  6
Continuous
 62
     7
100
AcDbLine
 10
434.8783849413539
 20
419.2728782368495
 30
0.0
 11
440.8783849413539
 21
415.7728782368495
 31
0.0
  0
LINE
  5
155
330
1F
100
AcDbEntity
  8
1
  6
Continuous
 62
     7
100
AcDbLine
 10
434.8783849413539
 20
416.5228782368495
 30
0.0
 11
434.8783849413539
 21
419.2728782368495
 31
0.0
  0
LINE
  5
156
330
1F
100
AcDbEntity
  8
1
  6
Continuous
 62
     7
100
AcDbLine
 10
423.8783849413539
 20
419.2728782368495
 30
0.0
 11
425.8783849413539
 21
416.5228782368495
 31
0.0
  0
LINE
  5
157
330
1F
100
AcDbEntity
  8
1
  6
Continuous
 62
     7
100
AcDbLine
 10
406.8783849413539
 20
419.2728782368495
 30
0.0
 11
423.8783849413539
 21
419.2728782368495
 31
0.0
  0
LINE
  5
158
330
1F
100
AcDbEntity
  8
1
  6
Continuous
 62
     7
100
AcDbLine
 10
408.8783849413539
 20
416.5228782368495
 30
0.0
 11
406.8783849413539
 21
419.2728782368495
 31
0.0
  0
LINE
  5
159
330
1F
100
AcDbEntity
  8
1
  6
Continuous
 62
     7
100
AcDbLine
 10
406.8783849413539
 20
415.0228782368495
 30
0.0
 11
406.8783849413539
 21
416.5228782368495
 31
0.0
  0
LINE
  5
15A
330
1F
100
AcDbEntity
  8
1
  6
Continuous
 62
     7
100
AcDbLine
 10
406.8783849413539
 20
416.5228782368495
 30
0.0
 11
434.8783849413539
 21
416.5228782368495
 31
0.0
  0
LINE
  5
15B
330
1F
100
AcDbEntity
  8
1
  6
Continuous
 62
     7
100
AcDbLine
 10
434.8783849413539
 20
415.0228782368495
 30
0.0
 11
406.8783849413539
 21
415.0228782368495
 31
0.0
  0
LINE
  5
15C
330
1F
100
AcDbEntity
  8
1
  6
PHANTOM
 62
     7
100
AcDbLine
 10
417.8783849413539
 20
400.7728782368495
 30
0.0
 11
417.8783849413539
 21
393.4364846134171
 31
0.0
  0
LINE
  5
15D
330
1F
100
AcDbEntity
  8
1
  6
Continuous
 62
     7
100
AcDbLine
 10
426.8783849413539
 20
399.0671338721347
 30
0.0
 11
426.8783849413539
 21
400.7728782368495
 31
0.0
  0
LINE
  5
15E
330
1F
100
AcDbEntity
  8
1
  6
Continuous
 62
     7
100
AcDbLine
 10
383.8783849413538
 20
435.7728782368495
 30
0.0
 11
463.8783849413538
 21
435.7728782368495
 31
0.0
  0
LINE
  5
15F
330
1F
100
AcDbEntity
  8
1
  6
Continuous
 62
     7
100
AcDbLine
 10
519.4188720891099
 20
378.2728782368495
 30
0.0
 11
533.3010346721638
 21
378.2728782368495
 31
0.0
  0
LINE
  5
160
330
1F
100
AcDbEntity
  8
1
  6
Continuous
 62
     2
100
AcDbLine
 10
519.4188720891099
 20
417.2728782368495
 30
0.0
 11
519.4188720891099
 21
378.2728782368495
 31
0.0
  0
LINE
  5
161
330
1F
100
AcDbEntity
  8
1
  6
Continuous
 62
     7
100
AcDbLine
 10
518.8690200571667
 20
416.2728782368495
 30
0.0
 11
518.8690200571667
 21
379.2728782368495
 31
0.0
  0
LINE
  5
162
330
1F
100
AcDbEntity
  8
1
  6
Continuous
 62
     7
100
AcDbLine
 10
519.4188720891099
 20
417.2728782368495
 30
0.0
 11
518.8690200571667
 21
416.2728782368495
 31
0.0
  0
LINE
  5
163
330
1F
100
AcDbEntity
  8
1
  6
Continuous
 62
     7
100
AcDbLine
 10
515.5625192255169
 20
413.4879510072043
 30
0.0
 11
474.3327395032649
 21
421.1140991924648
 31
0.0
  0
LINE
  5
164
330
1F
100
AcDbEntity
  8
1
  6
Continuous
 62
     7
100
AcDbLine
 10
518.8690200571667
 20
416.2728782368495
 30
0.0
 11
533.8783849413538
 21
416.2728782368495
 31
0.0
  0
LINE
  5
165
330
1F
100
AcDbEntity
  8
1
  6
Continuous
 62
     7
100
AcDbLine
 10
519.4188720891099
 20
417.2728782368495
 30
0.0
 11
533.3010346721638
 21
417.2728782368495
 31
0.0
  0
LINE
  5
166
330
1F
100
AcDbEntity
  8
1
  6
Continuous
 62
     2
100
AcDbLine
 10
533.3010346721638
 20
417.2728782368495
 30
0.0
 11
533.3010346721638
 21
378.2728782368495
 31
0.0
  0
LINE
  5
167
330
1F
100
AcDbEntity
  8
1
  6
Continuous
 62
     2
100
AcDbLine
 10
323.301866839532
 20
378.2728782368495
 30
0.0
 11
323.301866839532
 21
417.2728782368495
 31
0.0
  0
LINE
  5
168
330
1F
100
AcDbEntity
  8
1
  6
Continuous
 62
     7
100
AcDbLine
 10
323.8792171087209
 20
379.2728782368495
 30
0.0
 11
323.8792171087209
 21
416.2728782368495
 31
0.0
  0
LINE
  5
169
330
1F
100
AcDbEntity
  8
1
  6
Continuous
 62
     7
100
AcDbLine
 10
461.8783849413539
 20
429.433132274694
 30
0.0
 11
461.8783849413539
 21
433.7728782368495
 31
0.0
  0
LINE
  5
16A
330
1F
100
AcDbEntity
  8
1
  6
Continuous
 62
     7
100
AcDbLine
 10
323.906315915932
 20
416.0726326757858
 30
0.0
 11
323.8792171087209
 21
416.2728782368495
 31
0.0
  0
LINE
  5
16B
330
1F
100
AcDbEntity
  8
1
  6
Continuous
 62
     7
100
AcDbLine
 10
323.8792171087209
 20
416.2728782368495
 30
0.0
 11
323.301866839532
 21
417.2728782368495
 31
0.0
  0
LINE
  5
16C
330
1F
100
AcDbEntity
  8
1
  6
Continuous
 62
     7
100
AcDbLine
 10
308.8783849413539
 20
379.2728782368495
 30
0.0
 11
309.455735210543
 21
378.2728782368495
 31
0.0
  0
LINE
  5
16D
330
1F
100
AcDbEntity
  8
1
  6
Continuous
 62
     7
100
AcDbLine
 10
308.8783849413539
 20
379.2728782368495
 30
0.0
 11
309.455735210543
 21
378.2728782368495
 31
0.0
  0
LINE
  5
16E
330
1F
100
AcDbEntity
  8
1
  6
Continuous
 62
     7
100
AcDbLine
 10
323.301866839532
 20
378.2728782368495
 30
0.0
 11
323.8792171087209
 21
379.2728782368495
 31
0.0
  0
LINE
  5
16F
330
1F
100
AcDbEntity
  8
1
  6
Continuous
 62
     7
100
AcDbLine
 10
323.301866839532
 20
378.2728782368495
 30
0.0
 11
323.8792171087209
 21
379.2728782368495
 31
0.0
  0
LINE
  5
170
330
1F
100
AcDbEntity
  8
1
  6
Continuous
 62
     7
100
AcDbLine
 10
422.3783849413539
 20
362.7728782368495
 30
0.0
 11
422.3783849413539
 21
363.7817814836698
 31
0.0
  0
LINE
  5
171
330
1F
100
AcDbEntity
  8
1
  6
Continuous
 62
     7
100
AcDbLine
 10
308.8783849413539
 20
416.2728782368495
 30
0.0
 11
308.8783849413539
 21
379.2728782368495
 31
0.0
  0
LINE
  5
172
330
1F
100
AcDbEntity
  8
1
  6
Continuous
 62
     7
100
AcDbLine
 10
309.455735210543
 20
417.2728782368495
 30
0.0
 11
308.8783849413539
 21
416.2728782368495
 31
0.0
  0
LINE
  5
173
330
1F
100
AcDbEntity
  8
1
  6
Continuous
 62
     7
100
AcDbLine
 10
533.3010346721638
 20
378.2728782368495
 30
0.0
 11
533.8783849413538
 21
379.2728782368495
 31
0.0
  0
LINE
  5
174
330
1F
100
AcDbEntity
  8
1
  6
Continuous
 62
     7
100
AcDbLine
 10
308.8783849413539
 20
379.2728782368495
 30
0.0
 11
309.455735210543
 21
378.2728782368495
 31
0.0
  0
LINE
  5
175
330
1F
100
AcDbEntity
  8
1
  6
Continuous
 62
     7
100
AcDbLine
 10
456.894732435393
 20
368.1338199691962
 30
0.0
 11
503.8783849413538
 21
381.4608212629385
 31
0.0
  0
LINE
  5
176
330
1F
100
AcDbEntity
  8
1
  6
DOT_CENTER
 62
     2
100
AcDbLine
 10
468.8783849413539
 20
424.7713991006866
 30
0.0
 11
468.8783849413539
 21
427.6842447524473
 31
0.0
  0
LINE
  5
177
330
1F
100
AcDbEntity
  8
1
  6
DOT_CENTER
 62
     2
100
AcDbLine
 10
467.8783849413539
 20
426.2728782368495
 30
0.0
 11
470.4161019499149
 21
426.2728782368495
 31
0.0
  0
LINE
  5
178
330
1F
100
AcDbEntity
  8
1
  6
Continuous
 62
     7
100
AcDbLine
 10
471.8783849413539
 20
424.0640603881237
 30
0.0
 11
471.8783849413539
 21
426.2728782368495
 31
0.0
  0
LINE
  5
179
330
1F
100
AcDbEntity
  8
1
  6
Continuous
 62
     7
100
AcDbLine
 10
468.8783849413539
 20
429.2728782368495
 30
0.0
 11
461.8783849413539
 21
429.2728782368495
 31
0.0
  0
LINE
  5
17A
330
1F
100
AcDbEntity
  8
1
  6
Continuous
 62
     7
100
AcDbLine
 10
385.8783849413539
 20
433.7728782368495
 30
0.0
 11
385.8783849413539
 21
429.433132274694
 31
0.0
  0
LINE
  5
17B
330
1F
100
AcDbEntity
  8
1
  6
Continuous
 62
     2
100
AcDbLine
 10
518.8690200571667
 20
379.2728782368495
 30
0.0
 11
533.8783849413538
 21
379.2728782368495
 31
0.0
  0
LINE
  5
17C
330
1F
100
AcDbEntity
  8
1
  6
Continuous
 62
     2
100
AcDbLine
 10
308.8783849413539
 20
379.2728782368495
 30
0.0
 11
323.8792171087209
 21
379.2728782368495
 31
0.0
  0
LINE
  5
17D
330
1F
100
AcDbEntity
  8
1
  6
Continuous
 62
     2
100
AcDbLine
 10
308.8783849413539
 20
416.2728782368495
 30
0.0
 11
323.8792171087209
 21
416.2728782368495
 31
0.0
  0
LINE
  5
17E
330
1F
100
AcDbEntity
  8
1
  6
Continuous
 62
     7
100
AcDbLine
 10
425.3783849413539
 20
363.7817060305358
 30
0.0
 11
425.3783849413539
 21
362.7728782368495
 31
0.0
  0
LINE
  5
17F
330
1F
100
AcDbEntity
  8
1
  6
Continuous
 62
     7
100
AcDbLine
 10
393.8783849413539
 20
363.921623683604
 30
0.0
 11
393.8783849413539
 21
362.7728782368495
 31
0.0
  0
LINE
  5
180
330
1F
100
AcDbEntity
  8
1
  6
Continuous
 62
     7
100
AcDbLine
 10
308.8783849413539
 20
379.2728782368495
 30
0.0
 11
309.455735210543
 21
378.2728782368495
 31
0.0
  0
LINE
  5
181
330
1F
100
AcDbEntity
  8
1
  6
Continuous
 62
     7
100
AcDbLine
 10
309.455735210543
 20
417.2728782368495
 30
0.0
 11
323.301866839532
 21
417.2728782368495
 31
0.0
  0
LINE
  5
182
330
1F
100
AcDbEntity
  8
1
  6
Continuous
 62
     7
100
AcDbLine
 10
533.8783849413538
 20
416.2728782368495
 30
0.0
 11
533.3010346721638
 21
417.2728782368495
 31
0.0
  0
LINE
  5
183
330
1F
100
AcDbEntity
  8
1
  6
Continuous
 62
     7
100
AcDbLine
 10
453.8783849413539
 20
363.44982936496
 30
0.0
 11
453.8783849413539
 21
362.7728782368495
 31
0.0
  0
LINE
  5
184
330
1F
100
AcDbEntity
  8
1
  6
Continuous
 62
     7
100
AcDbLine
 10
403.6243626875768
 20
365.2600901226273
 30
0.0
 11
411.9510583555499
 21
364.976167445402
 31
0.0
  0
LINE
  5
185
330
1F
100
AcDbEntity
  8
1
  6
Continuous
 62
     7
100
AcDbLine
 10
376.937496971268
 20
418.1376183708704
 30
0.0
 11
327.158219703125
 21
413.4879510072043
 31
0.0
  0
LINE
  5
186
330
1F
100
AcDbEntity
  8
1
  6
DOT_CENTER
 62
     2
100
AcDbLine
 10
467.401051187566
 20
426.2728782368495
 30
0.0
 11
467.8783849413539
 21
426.2728782368495
 31
0.0
  0
LINE
  5
187
330
1F
100
AcDbEntity
  8
1
  6
DOT_CENTER
 62
     2
100
AcDbLine
 10
423.8783849413539
 20
360.2369297886422
 30
0.0
 11
423.8783849413539
 21
384.943560368365
 31
0.0
  0
LINE
  5
188
330
1F
100
AcDbEntity
  8
1
  6
DOT_CENTER
 62
     2
100
AcDbLine
 10
304.892456537163
 20
397.7728782368495
 30
0.0
 11
356.298061713998
 21
397.7728782368495
 31
0.0
  0
LINE
  5
189
330
1F
100
AcDbEntity
  8
1
  6
Continuous
 62
     7
100
AcDbLine
 10
474.3612439460969
 20
421.1089689866565
 30
0.0
 11
467.9261400171958
 21
422.2351121742144
 31
0.0
  0
LINE
  5
18A
330
1F
100
AcDbEntity
  8
1
  6
Continuous
 62
     2
100
AcDbLine
 10
309.455735210543
 20
417.2728782368495
 30
0.0
 11
309.455735210543
 21
378.2728782368495
 31
0.0
  0
LINE
  5
18B
330
1F
100
AcDbEntity
  8
1
  6
Continuous
 62
     7
100
AcDbLine
 10
309.455735210543
 20
378.2728782368495
 30
0.0
 11
323.301866839532
 21
378.2728782368495
 31
0.0
  0
LINE
  5
18C
330
1F
100
AcDbEntity
  8
1
  6
Continuous
 62
     2
100
AcDbLine
 10
462.7783849413538
 20
435.4432075456986
 30
0.0
 11
462.7783849413538
 21
436.6828782368497
 31
0.0
  0
LINE
  5
18D
330
1F
100
AcDbEntity
  8
1
  6
Continuous
 62
     7
100
AcDbLine
 10
463.8783849413537
 20
436.6828782368497
 30
0.0
 11
463.8783849413538
 21
435.7728782368495
 31
0.0
  0
LINE
  5
18E
330
1F
100
AcDbEntity
  8
1
  6
Continuous
 62
     7
100
AcDbLine
 10
383.8783849413537
 20
436.6828782368497
 30
0.0
 11
383.8783849413538
 21
435.7728782368495
 31
0.0
  0
LINE
  5
18F
330
1F
100
AcDbEntity
  8
1
  6
Continuous
 62
     2
100
AcDbLine
 10
384.9783849413536
 20
436.6828782368497
 30
0.0
 11
384.9783849413537
 21
435.4432075456986
 31
0.0
  0
LINE
  5
190
330
1F
100
AcDbEntity
  8
1
  6
Continuous
 62
     2
100
AcDbLine
 10
460.1283849413537
 20
434.7728782368495
 30
0.0
 11
387.6283849413541
 21
434.7728782368495
 31
0.0
  0
LINE
  5
191
330
1F
100
AcDbEntity
  8
1
  6
DOT_CENTER
 62
     2
100
AcDbLine
 10
442.783842936279
 20
397.7728782368495
 30
0.0
 11
538.892456537163
 21
397.7728782368495
 31
0.0
  0
LINE
  5
192
330
1F
100
AcDbEntity
  8
1
  6
Continuous
 62
     7
100
AcDbLine
 10
533.8783849413538
 20
379.2728782368495
 30
0.0
 11
533.8783849413487
 21
416.2728782368524
 31
0.0
  0
LINE
  5
193
330
1F
100
AcDbEntity
  8
1
  6
Continuous
 62
     7
100
AcDbLine
 10
469.2074161856999
 20
379.6274481579511
 30
0.0
 11
515.7990955081993
 21
382.0911789059458
 31
0.0
  0
LINE
  5
194
330
1F
100
AcDbEntity
  8
1
  6
Continuous
 62
     7
100
AcDbLine
 10
519.3680668134207
 20
378.2728782368495
 30
0.0
 11
519.4188720891099
 21
378.2728782368495
 31
0.0
  0
LINE
  5
195
330
1F
100
AcDbEntity
  8
1
  6
Continuous
 62
     7
100
AcDbLine
 10
518.8690200571667
 20
379.2728782368495
 30
0.0
 11
519.3680668134207
 21
378.2728782368495
 31
0.0
  0
LINE
  5
196
330
1F
100
AcDbEntity
  8
1
  6
Continuous
 62
     7
100
AcDbLine
 10
453.8783849413539
 20
362.7728782368495
 30
0.0
 11
393.8783849413539
 21
362.7728782368495
 31
0.0
  0
LINE
  5
197
330
1F
100
AcDbEntity
  8
1
  6
Continuous
 62
     7
100
AcDbLine
 10
383.3783849413539
 20
467.1828782368497
 30
0.0
 11
383.3783849413539
 21
461.1828782368497
 31
0.0
  0
LINE
  5
198
330
1F
100
AcDbEntity
  8
1
  6
Continuous
 62
     7
100
AcDbLine
 10
376.8783849413539
 20
470.1828782368497
 30
0.0
 11
384.8783849413539
 21
470.1828782368497
 31
0.0
  0
LINE
  5
199
330
1F
100
AcDbEntity
  8
1
  6
Continuous
 62
     7
100
AcDbLine
 10
469.3783849413539
 20
466.1828782368497
 30
0.0
 11
469.3783849413539
 21
464.6828782368497
 31
0.0
  0
LINE
  5
19A
330
1F
100
AcDbEntity
  8
1
  6
Continuous
 62
     7
100
AcDbLine
 10
464.3783849413539
 20
464.6828782368497
 30
0.0
 11
469.3783849413539
 21
464.6828782368497
 31
0.0
  0
LINE
  5
19B
330
1F
100
AcDbEntity
  8
1
  6
Continuous
 62
     7
100
AcDbLine
 10
375.8783849413539
 20
467.1828782368497
 30
0.0
 11
468.3783849413538
 21
467.1828782368497
 31
0.0
  0
LINE
  5
19C
330
1F
100
AcDbEntity
  8
1
  6
Continuous
 62
     7
100
AcDbLine
 10
381.8783849413539
 20
460.1828782368497
 30
0.0
 11
381.8783849413539
 21
456.6828782368497
 31
0.0
  0
LINE
  5
19D
330
1F
100
AcDbEntity
  8
1
  6
DOT_CENTER
 62
     2
100
AcDbLine
 10
378.3783849413539
 20
458.5641421167846
 30
0.0
 11
378.3783849413539
 21
454.7285963792801
 31
0.0
  0
LINE
  5
19E
330
1F
100
AcDbEntity
  8
1
  6
Continuous
 62
     7
100
AcDbLine
 10
464.3783849413539
 20
461.1828782368497
 30
0.0
 11
382.8783849413539
 21
461.1828782368497
 31
0.0
  0
LINE
  5
19F
330
1F
100
AcDbEntity
  8
1
  6
Continuous
 62
     7
100
AcDbLine
 10
374.8783849413539
 20
440.1828782368497
 30
0.0
 11
374.8783849413539
 21
468.1828782368497
 31
0.0
  0
LINE
  5
1A0
330
1F
100
AcDbEntity
  8
1
  6
Continuous
 62
     7
100
AcDbLine
 10
371.2192776486766
 20
534.0617628272192
 30
0.0
 11
371.0272573336738
 21
533.0803718762593
 31
0.0
  0
LINE
  5
1A1
330
1F
100
AcDbEntity
  8
1
  6
Continuous
 62
     7
100
AcDbLine
 10
371.0272573336738
 20
533.0803718762593
 30
0.0
 11
374.9528211375136
 21
532.3122906162474
 31
0.0
  0
LINE
  5
1A2
330
1F
100
AcDbEntity
  8
1
  6
Continuous
 62
     7
100
AcDbLine
 10
374.9528211375136
 20
532.3122906162474
 30
0.0
 11
375.1448414525167
 21
533.2936815672074
 31
0.0
  0
LINE
  5
1A3
330
1F
100
AcDbEntity
  8
1
  6
Continuous
 62
     7
100
AcDbLine
 10
419.8783849413539
 20
515.6134734399284
 30
0.0
 11
419.8783849413539
 21
508.9248194360084
 31
0.0
  0
LINE
  5
1A4
330
1F
100
AcDbEntity
  8
1
  6
Continuous
 62
     7
100
AcDbLine
 10
427.8783849413539
 20
515.6134734399284
 30
0.0
 11
427.8783849413539
 21
508.9248194360084
 31
0.0
  0
LINE
  5
1A5
330
1F
100
AcDbEntity
  8
1
  6
Continuous
 62
     2
100
AcDbLine
 10
308.8783849413539
 20
538.4698194360085
 30
0.0
 11
323.8783849413539
 21
538.4698194360085
 31
0.0
  0
LINE
  5
1A6
330
1F
100
AcDbEntity
  8
1
  6
Continuous
 62
     2
100
AcDbLine
 10
308.8783849413539
 20
577.3798194360083
 30
0.0
 11
323.8783849413539
 21
577.3798194360083
 31
0.0
  0
LINE
  5
1A7
330
1F
100
AcDbEntity
  8
1
  6
Continuous
 62
     7
100
AcDbLine
 10
323.301866839532
 20
536.9698194360084
 30
0.0
 11
323.8783849413539
 21
538.4698194360085
 31
0.0
  0
LINE
  5
1A8
330
1F
100
AcDbEntity
  8
1
  6
Continuous
 62
     7
100
AcDbLine
 10
308.8783849413539
 20
538.4698194360085
 30
0.0
 11
309.455735210543
 21
536.9698194360084
 31
0.0
  0
LINE
  5
1A9
330
1F
100
AcDbEntity
  8
1
  6
Continuous
 62
     7
100
AcDbLine
 10
308.8783849413539
 20
577.3798194360083
 30
0.0
 11
309.455735210543
 21
578.8798194360085
 31
0.0
  0
LINE
  5
1AA
330
1F
100
AcDbEntity
  8
1
  6
Continuous
 62
     7
100
AcDbLine
 10
323.301866839532
 20
578.8798194360085
 30
0.0
 11
323.8783849413539
 21
577.3798194360083
 31
0.0
  0
LINE
  5
1AB
330
1F
100
AcDbEntity
  8
1
  6
Continuous
 62
     7
100
AcDbLine
 10
309.455735210543
 20
536.9698194360084
 30
0.0
 11
323.301866839532
 21
536.9698194360084
 31
0.0
  0
LINE
  5
1AC
330
1F
100
AcDbEntity
  8
1
  6
Continuous
 62
     7
100
AcDbLine
 10
309.455735210543
 20
578.8798194360085
 30
0.0
 11
323.301866839532
 21
578.8798194360085
 31
0.0
  0
LINE
  5
1AD
330
1F
100
AcDbEntity
  8
1
  6
Continuous
 62
     7
100
AcDbLine
 10
308.8783849413539
 20
577.3798194360083
 30
0.0
 11
308.8783849413539
 21
538.4698194360085
 31
0.0
  0
LINE
  5
1AE
330
1F
100
AcDbEntity
  8
1
  6
Continuous
 62
     2
100
AcDbLine
 10
518.8783849413538
 20
538.4698194360085
 30
0.0
 11
533.8783849413538
 21
538.4698194360085
 31
0.0
  0
LINE
  5
1AF
330
1F
100
AcDbEntity
  8
1
  6
Continuous
 62
     2
100
AcDbLine
 10
518.8783849413538
 20
577.3798194360083
 30
0.0
 11
533.8783849413538
 21
577.3798194360083
 31
0.0
  0
LINE
  5
1B0
330
1F
100
AcDbEntity
  8
1
  6
Continuous
 62
     7
100
AcDbLine
 10
519.4188720891099
 20
536.9698194360084
 30
0.0
 11
518.8783849413538
 21
538.4698194360085
 31
0.0
  0
LINE
  5
1B1
330
1F
100
AcDbEntity
  8
1
  6
Continuous
 62
     7
100
AcDbLine
 10
519.4188720891099
 20
578.8798194360085
 30
0.0
 11
518.8783849413538
 21
577.3798194360083
 31
0.0
  0
LINE
  5
1B2
330
1F
100
AcDbEntity
  8
1
  6
Continuous
 62
     7
100
AcDbLine
 10
533.8783849413538
 20
577.3798194360083
 30
0.0
 11
533.3010346721638
 21
578.8798194360085
 31
0.0
  0
LINE
  5
1B3
330
1F
100
AcDbEntity
  8
1
  6
Continuous
 62
     7
100
AcDbLine
 10
533.8783849413538
 20
538.4698194360085
 30
0.0
 11
533.3010346721638
 21
536.9698194360084
 31
0.0
  0
LINE
  5
1B4
330
1F
100
AcDbEntity
  8
1
  6
Continuous
 62
     7
100
AcDbLine
 10
519.4188720891099
 20
536.9698194360084
 30
0.0
 11
533.3010346721638
 21
536.9698194360084
 31
0.0
  0
LINE
  5
1B5
330
1F
100
AcDbEntity
  8
1
  6
Continuous
 62
     7
100
AcDbLine
 10
519.4188720891099
 20
578.8798194360085
 30
0.0
 11
533.3010346721638
 21
578.8798194360085
 31
0.0
  0
LINE
  5
1B6
330
1F
100
AcDbEntity
  8
1
  6
Continuous
 62
     7
100
AcDbLine
 10
533.8783849413538
 20
538.4698194360085
 30
0.0
 11
533.8783849413538
 21
577.3798194360083
 31
0.0
  0
LINE
  5
1B7
330
1F
100
AcDbEntity
  8
1
  6
Continuous
 62
     7
100
AcDbLine
 10
386.2695736500793
 20
584.7326378405429
 30
0.0
 11
327.4544458863629
 21
573.2247883448034
 31
0.0
  0
LINE
  5
1B8
330
1F
100
AcDbEntity
  8
1
  6
Continuous
 62
     7
100
AcDbLine
 10
323.8783849413539
 20
538.4698194360085
 30
0.0
 11
323.8783849413539
 21
577.3798194360083
 31
0.0
  0
LINE
  5
1B9
330
1F
100
AcDbEntity
  8
1
  6
Continuous
 62
     7
100
AcDbLine
 10
518.8783849413538
 20
577.3798194360083
 30
0.0
 11
518.8783849413538
 21
538.4698194360085
 31
0.0
  0
LINE
  5
1BA
330
1F
100
AcDbEntity
  8
1
  6
Continuous
 62
     7
100
AcDbLine
 10
461.484908633087
 20
584.7311108685034
 30
0.0
 11
515.301359554668
 21
574.1830037582845
 31
0.0
  0
LINE
  5
1BB
330
1F
100
AcDbEntity
  8
1
  6
Continuous
 62
     7
100
AcDbLine
 10
515.301359554668
 20
541.6666351137324
 30
0.0
 11
461.484908633087
 21
531.1185280035133
 31
0.0
  0
LINE
  5
1BC
330
1F
100
AcDbEntity
  8
1
  6
Continuous
 62
     7
100
AcDbLine
 10
419.8783849413539
 20
606.9248194360084
 30
0.0
 11
427.8783849413539
 21
606.9248194360084
 31
0.0
  0
LINE
  5
1BD
330
1F
100
AcDbEntity
  8
1
  6
Continuous
 62
     7
100
AcDbLine
 10
419.8783849413539
 20
606.9248194360084
 30
0.0
 11
419.8783849413539
 21
600.2361654320885
 31
0.0
  0
LINE
  5
1BE
330
1F
100
AcDbEntity
  8
1
  6
Continuous
 62
     7
100
AcDbLine
 10
427.8783849413539
 20
606.9248194360084
 30
0.0
 11
427.8783849413539
 21
600.2361654320885
 31
0.0
  0
LINE
  5
1BF
330
1F
100
AcDbEntity
  8
1
  6
Continuous
 62
     7
100
AcDbLine
 10
419.8783849413539
 20
508.9248194360084
 30
0.0
 11
427.8783849413539
 21
508.9248194360084
 31
0.0
  0
LINE
  5
1C0
330
1F
100
AcDbEntity
  8
1
  6
Continuous
 62
     7
100
AcDbLine
 10
472.8783849413538
 20
553.9248194360084
 30
0.0
 11
472.8783849413538
 21
561.9248194360084
 31
0.0
  0
LINE
  5
1C1
330
1F
100
AcDbEntity
  8
1
  6
Continuous
 62
     7
100
AcDbLine
 10
469.6037608282726
 20
553.9248194360084
 30
0.0
 11
472.8783849413538
 21
553.9248194360084
 31
0.0
  0
LINE
  5
1C2
330
1F
100
AcDbEntity
  8
1
  6
Continuous
 62
     7
100
AcDbLine
 10
469.6037608282726
 20
561.9248194360084
 30
0.0
 11
472.8783849413538
 21
561.9248194360084
 31
0.0
  0
LINE
  5
1C3
330
1F
100
AcDbEntity
  8
1
  6
Continuous
 62
     2
100
AcDbLine
 10
533.3010346721638
 20
536.9698194360084
 30
0.0
 11
533.3010346721638
 21
578.8798194360085
 31
0.0
  0
LINE
  5
1C4
330
1F
100
AcDbEntity
  8
1
  6
Continuous
 62
     2
100
AcDbLine
 10
519.4188720891099
 20
578.8798194360085
 30
0.0
 11
519.4188720891099
 21
536.9698194360084
 31
0.0
  0
LINE
  5
1C5
330
1F
100
AcDbEntity
  8
1
  6
Continuous
 62
     2
100
AcDbLine
 10
323.301866839532
 20
578.8798194360085
 30
0.0
 11
323.301866839532
 21
536.9698194360084
 31
0.0
  0
LINE
  5
1C6
330
1F
100
AcDbEntity
  8
1
  6
Continuous
 62
     2
100
AcDbLine
 10
309.455735210543
 20
536.9698194360084
 30
0.0
 11
309.455735210543
 21
578.8798194360085
 31
0.0
  0
LINE
  5
1C7
330
1F
100
AcDbEntity
  8
1
  6
Continuous
 62
     7
100
AcDbLine
 10
359.0704052563568
 20
536.4388280543054
 30
0.0
 11
358.8783849413539
 21
535.4574371033455
 31
0.0
  0
LINE
  5
1C8
330
1F
100
AcDbEntity
  8
1
  6
Continuous
 62
     7
100
AcDbLine
 10
358.8783849413539
 20
535.4574371033455
 30
0.0
 11
362.8039487451939
 21
534.6893558433336
 31
0.0
  0
LINE
  5
1C9
330
1F
100
AcDbEntity
  8
1
  6
Continuous
 62
     7
100
AcDbLine
 10
362.8039487451939
 20
534.6893558433336
 30
0.0
 11
362.9959690601968
 21
535.6707467942936
 31
0.0
  0
LINE
  5
1CA
330
1F
100
AcDbEntity
  8
1
  6
Continuous
 62
     7
100
AcDbLine
 10
365.1448414525167
 20
535.2502954407623
 30
0.0
 11
364.9528211375139
 21
534.2689044898024
 31
0.0
  0
LINE
  5
1CB
330
1F
100
AcDbEntity
  8
1
  6
Continuous
 62
     7
100
AcDbLine
 10
364.9528211375139
 20
534.2689044898024
 30
0.0
 11
368.8783849413538
 21
533.5008232297905
 31
0.0
  0
LINE
  5
1CC
330
1F
100
AcDbEntity
  8
1
  6
Continuous
 62
     7
100
AcDbLine
 10
368.8783849413538
 20
533.5008232297905
 30
0.0
 11
369.0704052563568
 21
534.4822141807505
 31
0.0
  0
LINE
  5
1CD
330
1F
100
AcDbEntity
  8
1
  6
Continuous
 62
     7
100
AcDbLine
 10
327.4544458863629
 20
542.6248505272134
 30
0.0
 11
386.2695736500793
 21
531.1170010314739
 31
0.0
  0
LINE
  5
1CE
330
1F
100
AcDbEntity
  8
1
  6
Continuous
 62
     7
100
AcDbLine
 10
447.9397319101266
 20
552.3455345614409
 30
0.0
 11
447.9397319101266
 21
554.6943127538419
 31
0.0
  0
LINE
  5
1CF
330
1F
100
AcDbEntity
  8
1
  6
Continuous
 62
     7
100
AcDbLine
 10
445.9011586313293
 20
552.3455345614409
 30
0.0
 11
447.9397319101266
 21
552.3455345614409
 31
0.0
  0
LINE
  5
1D0
330
1F
100
AcDbEntity
  8
1
  6
Continuous
 62
     7
100
AcDbLine
 10
445.9011586313293
 20
557.3146714828213
 30
0.0
 11
445.9011586313293
 21
552.3455345614409
 31
0.0
  0
LINE
  5
1D1
330
1F
100
AcDbEntity
  8
1
  6
Continuous
 62
     7
100
AcDbLine
 10
444.4011586313293
 20
557.3146714828213
 30
0.0
 11
445.9011586313293
 21
557.3146714828213
 31
0.0
  0
LINE
  5
1D2
330
1F
100
AcDbEntity
  8
1
  6
Continuous
 62
     7
100
AcDbLine
 10
444.4011586313293
 20
550.8455345614409
 30
0.0
 11
444.4011586313293
 21
557.3146714828213
 31
0.0
  0
LINE
  5
1D3
330
1F
100
AcDbEntity
  8
1
  6
Continuous
 62
     7
100
AcDbLine
 10
449.4397319101266
 20
550.8455345614409
 30
0.0
 11
444.4011586313293
 21
550.8455345614409
 31
0.0
  0
LINE
  5
1D4
330
1F
100
AcDbEntity
  8
1
  6
Continuous
 62
     7
100
AcDbLine
 10
449.4397319101266
 20
554.9705345614409
 30
0.0
 11
449.4397319101266
 21
550.8455345614409
 31
0.0
  0
LINE
  5
1D5
330
1F
100
AcDbEntity
  8
1
  6
Continuous
 62
     7
100
AcDbLine
 10
452.9011586313293
 20
553.2205345614409
 30
0.0
 11
452.9011586313293
 21
554.9705345614409
 31
0.0
  0
LINE
  5
1D6
330
1F
100
AcDbEntity
  8
1
  6
Continuous
 62
     7
100
AcDbLine
 10
452.9597083966286
 20
550.7284350308422
 30
0.0
 11
452.286486412116
 21
552.0748789998676
 31
0.0
  0
LINE
  5
1D7
330
1F
100
AcDbEntity
  8
1
  6
Continuous
 62
     7
100
AcDbLine
 10
454.4011586313293
 20
554.6943127538419
 30
0.0
 11
454.4011586313293
 21
553.2205345614409
 31
0.0
  0
LINE
  5
1D8
330
1F
100
AcDbEntity
  8
1
  6
DOT_CENTER
 62
     2
100
AcDbLine
 10
305.9315907953752
 20
557.9248194360084
 30
0.0
 11
536.2676483627608
 21
557.9248194360084
 31
0.0
  0
LINE
  5
1D9
330
1F
100
AcDbEntity
  8
1
  6
DOT_CENTER
 62
     2
100
AcDbLine
 10
423.8783849413539
 20
609.5911103454608
 30
0.0
 11
423.8783849413539
 21
506.348192382301
 31
0.0
  0
LINE
  5
1DA
330
1F
100
AcDbEntity
  8
1
  6
Continuous
 62
     7
100
AcDbLine
 10
384.2527228017758
 20
549.5548194360084
 30
0.0
 11
383.386485751516
 21
549.5548194360084
 31
0.0
  0
LINE
  5
1DB
330
1F
100
AcDbEntity
  8
1
  6
DOT_CENTER
 62
     2
100
AcDbLine
 10
379.5983849413539
 20
568.6828536391396
 30
0.0
 11
379.5983849413539
 21
546.2758976723414
 31
0.0
  0
LINE
  5
1DC
330
1F
100
AcDbEntity
  8
1
  6
Continuous
 62
     7
100
AcDbLine
 10
387.0523248751454
 20
549.5548194360084
 30
0.0
 11
376.8983849413539
 21
549.5548194360084
 31
0.0
  0
LINE
  5
1DD
330
1F
100
AcDbEntity
  8
1
  6
Continuous
 62
     7
100
AcDbLine
 10
375.8183849413539
 20
554.9548194360084
 30
0.0
 11
387.0523248751454
 21
554.9548194360084
 31
0.0
  0
LINE
  5
1DE
330
1F
100
AcDbEntity
  8
1
  6
Continuous
 62
     7
100
AcDbLine
 10
375.8183849413539
 20
565.2148194360084
 30
0.0
 11
375.8183849413539
 21
550.6348194360085
 31
0.0
  0
LINE
  5
1DF
330
1F
100
AcDbEntity
  8
1
  6
Continuous
 62
     7
100
AcDbLine
 10
387.0523248751454
 20
560.8948194360084
 30
0.0
 11
375.8183849413539
 21
560.8948194360084
 31
0.0
  0
LINE
  5
1E0
330
1F
100
AcDbEntity
  8
1
  6
Continuous
 62
     7
100
AcDbLine
 10
376.8983849413539
 20
566.2948194360084
 30
0.0
 11
387.0523248751454
 21
566.2948194360084
 31
0.0
  0
LINE
  5
1E1
330
1F
100
AcDbEntity
  8
1
  6
Continuous
 62
     7
100
AcDbLine
 10
409.7198251487316
 20
535.4763552784193
 30
0.0
 11
409.0142701211842
 21
540.7441440211213
 31
0.0
  0
LINE
  5
1E2
330
1F
100
AcDbEntity
  8
1
  6
Continuous
 62
     7
100
AcDbLine
 10
408.4541768653262
 20
535.265031899487
 30
0.0
 11
401.1786996838811
 21
534.0502564824244
 31
0.0
  0
LINE
  5
1E3
330
1F
100
AcDbEntity
  8
1
  6
Continuous
 62
     7
100
AcDbLine
 10
407.5151805465533
 20
542.2757313408408
 30
0.0
 11
408.4541768653262
 21
535.265031899487
 31
0.0
  0
LINE
  5
1E4
330
1F
100
AcDbEntity
  8
1
  6
Continuous
 62
     7
100
AcDbLine
 10
411.3351444138216
 20
535.7460626921052
 30
0.0
 11
412.9090095223082
 21
537.7891191079556
 31
0.0
  0
LINE
  5
1E5
330
1F
100
AcDbEntity
  8
1
  6
Continuous
 62
     7
100
AcDbLine
 10
410.1856423324319
 20
534.253877885572
 30
0.0
 11
402.3388991962776
 21
532.943719056387
 31
0.0
  0
LINE
  5
1E6
330
1F
100
AcDbEntity
  8
1
  6
Continuous
 62
     7
100
AcDbLine
 10
406.6212688902529
 20
529.6269146278806
 30
0.0
 11
410.1856423324319
 21
534.253877885572
 31
0.0
  0
LINE
  5
1E7
330
1F
100
AcDbEntity
  8
1
  6
Continuous
 62
     7
100
AcDbLine
 10
411.3351444138216
 20
535.7460626921052
 30
0.0
 11
409.7198251487316
 21
535.4763552784193
 31
0.0
  0
LINE
  5
1E8
330
1F
100
AcDbEntity
  8
1
  6
Continuous
 62
     7
100
AcDbLine
 10
396.2307853765212
 20
545.5116740992664
 30
0.0
 11
403.3689304480436
 21
547.8729098755418
 31
0.0
  0
LINE
  5
1E9
330
1F
100
AcDbEntity
  8
1
  6
Continuous
 62
     7
100
AcDbLine
 10
399.3383126889542
 20
549.4672403729556
 30
0.0
 11
396.2307853765212
 21
545.5116740992664
 31
0.0
  0
LINE
  5
1EA
330
1F
100
AcDbEntity
  8
1
  6
Continuous
 62
     7
100
AcDbLine
 10
394.5649350688838
 20
550.7242361353435
 30
0.0
 11
399.3383126889542
 21
549.4672403729556
 31
0.0
  0
LINE
  5
1EB
330
1F
100
AcDbEntity
  8
1
  6
Continuous
 62
     7
100
AcDbLine
 10
401.6747968671436
 20
553.0761160529148
 30
0.0
 11
394.5649350688838
 21
550.7242361353435
 31
0.0
  0
LINE
  5
1EC
330
1F
100
AcDbEntity
  8
1
  6
Continuous
 62
     7
100
AcDbLine
 10
396.6807181947913
 20
548.5756103570304
 30
0.0
 11
393.586837572377
 21
544.6374149320443
 31
0.0
  0
LINE
  5
1ED
330
1F
100
AcDbEntity
  8
1
  6
Continuous
 62
     7
100
AcDbLine
 10
391.8862658007321
 20
549.838155837816
 30
0.0
 11
396.6807181947913
 21
548.5756103570304
 31
0.0
  0
LINE
  5
1EE
330
1F
100
AcDbEntity
  8
1
  6
Continuous
 62
     7
100
AcDbLine
 10
393.7342798386156
 20
558.820310858855
 30
0.0
 11
401.1993079406975
 21
557.9248194360084
 31
0.0
  0
LINE
  5
1EF
330
1F
100
AcDbEntity
  8
1
  6
Continuous
 62
     7
100
AcDbLine
 10
398.2280526338903
 20
561.0806729111627
 30
0.0
 11
393.7342798386156
 21
558.820310858855
 31
0.0
  0
LINE
  5
1F0
330
1F
100
AcDbEntity
  8
1
  6
Continuous
 62
     7
100
AcDbLine
 10
394.4410876149023
 20
564.2467538001183
 30
0.0
 11
398.2280526338903
 21
561.0806729111627
 31
0.0
  0
LINE
  5
1F1
330
1F
100
AcDbEntity
  8
1
  6
Continuous
 62
     7
100
AcDbLine
 10
401.8765372442005
 20
563.3548105579775
 30
0.0
 11
394.4410876149023
 21
564.2467538001183
 31
0.0
  0
LINE
  5
1F2
330
1F
100
AcDbEntity
  8
1
  6
Continuous
 62
     7
100
AcDbLine
 10
395.4434365278226
 20
561.4027376911847
 30
0.0
 11
390.9693981123892
 21
559.152302007065
 31
0.0
  0
LINE
  5
1F3
330
1F
100
AcDbEntity
  8
1
  6
Continuous
 62
     7
100
AcDbLine
 10
391.6397518109118
 20
564.5827970340731
 30
0.0
 11
395.4434365278226
 21
561.4027376911847
 31
0.0
  0
LINE
  5
1F4
330
1F
100
AcDbEntity
  8
1
  6
Continuous
 62
     7
100
AcDbLine
 10
408.817661088583
 20
587.5295017403179
 30
0.0
 11
414.9040707861596
 21
579.1333256523857
 31
0.0
  0
LINE
  5
1F5
330
1F
100
AcDbEntity
  8
1
  6
Continuous
 62
     7
100
AcDbLine
 10
413.528799306083
 20
578.4083251504993
 30
0.0
 11
404.2711109953895
 21
581.8559540879401
 31
0.0
  0
LINE
  5
1F6
330
1F
100
AcDbEntity
  8
1
  6
Continuous
 62
     7
100
AcDbLine
 10
404.2711109953895
 20
581.8559540879401
 30
0.0
 11
409.1141900381073
 21
575.1749473087505
 31
0.0
  0
LINE
  5
1F7
330
1F
100
AcDbEntity
  8
1
  6
Continuous
 62
     7
100
AcDbLine
 10
408.0064824663715
 20
574.080843542242
 30
0.0
 11
401.9124576332219
 21
582.4875246770541
 31
0.0
  0
LINE
  5
1F8
330
1F
100
AcDbEntity
  8
1
  6
Continuous
 62
     7
100
AcDbLine
 10
403.0622680407273
 20
583.5235477620959
 30
0.0
 11
412.0684798165061
 21
580.4228296265962
 31
0.0
  0
LINE
  5
1F9
330
1F
100
AcDbEntity
  8
1
  6
Continuous
 62
     7
100
AcDbLine
 10
412.0684798165061
 20
580.4228296265962
 30
0.0
 11
407.481649731013
 21
586.7503420677252
 31
0.0
  0
LINE
  5
1FA
330
1F
100
AcDbEntity
  8
1
  6
Continuous
 62
     7
100
AcDbLine
 10
407.934000904052
 20
528.8091427752852
 30
0.0
 11
414.2625636564203
 21
537.0243390234375
 31
0.0
  0
LINE
  5
1FB
330
1F
100
AcDbEntity
  8
1
  6
Continuous
 62
     7
100
AcDbLine
 10
390.9382730739793
 20
557.6056812981426
 30
0.0
 11
401.2346126465379
 21
556.3705508139893
 31
0.0
  0
LINE
  5
1FC
330
1F
100
AcDbEntity
  8
1
  6
Continuous
 62
     7
100
AcDbLine
 10
402.2950801781629
 20
564.8546364286547
 30
0.0
 11
391.9858581304432
 21
566.0913122714928
 31
0.0
  0
LINE
  5
1FD
330
1F
100
AcDbEntity
  8
1
  6
Continuous
 62
     7
100
AcDbLine
 10
394.2167814944758
 20
543.2220837129895
 30
0.0
 11
404.0611593213249
 21
546.4811734822713
 31
0.0
  0
LINE
  5
1FE
330
1F
100
AcDbEntity
  8
1
  6
Continuous
 62
     7
100
AcDbLine
 10
401.4163672158717
 20
554.6119523399661
 30
0.0
 11
391.5590381522465
 21
551.3485749210209
 31
0.0
  0
LINE
  5
1FF
330
1F
100
AcDbEntity
  8
1
  6
Continuous
 62
     7
100
AcDbLine
 10
405.4534538964745
 20
544.7448932184401
 30
0.0
 11
397.1046934993176
 21
538.774802119002
 31
0.0
  0
LINE
  5
200
330
1F
100
AcDbEntity
  8
1
  6
Continuous
 62
     7
100
AcDbLine
 10
397.9998832739896
 20
537.522940997582
 30
0.0
 11
406.3486436711465
 21
543.49303209702
 31
0.0
  0
LINE
  5
201
330
1F
100
AcDbEntity
  8
1
  6
Continuous
 62
     7
100
AcDbLine
 10
397.7952967907113
 20
570.5735428605526
 30
0.0
 11
399.477751940807
 21
569.6062987969232
 31
0.0
  0
LINE
  5
202
330
1F
100
AcDbEntity
  8
1
  6
Continuous
 62
     7
100
AcDbLine
 10
401.9685483996953
 20
574.4861680868622
 30
0.0
 11
400.5039678128412
 21
575.328155986665
 31
0.0
  0
LINE
  5
203
330
1F
100
AcDbEntity
  8
1
  6
Continuous
 62
     7
100
AcDbLine
 10
398.2807198125613
 20
568.5176535481335
 30
0.0
 11
396.9264514589812
 21
569.2978404275898
 31
0.0
  0
LINE
  5
204
330
1F
100
AcDbEntity
  8
1
  6
Continuous
 62
     7
100
AcDbLine
 10
402.5414773889344
 20
575.9319929302732
 30
0.0
 11
401.1191357715703
 21
576.7496976315072
 31
0.0
  0
LINE
  5
205
330
1F
100
AcDbEntity
  8
1
  6
Continuous
 62
     7
100
AcDbLine
 10
419.1947353960027
 20
564.7774194360085
 30
0.0
 11
415.2383849413539
 21
562.4932194360084
 31
0.0
  0
LINE
  5
206
330
1F
100
AcDbEntity
  8
1
  6
Continuous
 62
     7
100
AcDbLine
 10
419.1947353960027
 20
560.2090194360085
 30
0.0
 11
419.1947353960027
 21
564.7774194360085
 31
0.0
  0
LINE
  5
207
330
1F
100
AcDbEntity
  8
1
  6
Continuous
 62
     7
100
AcDbLine
 10
423.1510858506517
 20
557.9248194360086
 30
0.0
 11
419.1947353960027
 21
560.2090194360085
 31
0.0
  0
LINE
  5
208
330
1F
100
AcDbEntity
  8
1
  6
Continuous
 62
     7
100
AcDbLine
 10
419.1947353960027
 20
555.6406194360085
 30
0.0
 11
423.1510858506517
 21
557.9248194360086
 31
0.0
  0
LINE
  5
209
330
1F
100
AcDbEntity
  8
1
  6
Continuous
 62
     7
100
AcDbLine
 10
419.1947353960027
 20
551.0722194360085
 30
0.0
 11
419.1947353960027
 21
555.6406194360085
 31
0.0
  0
LINE
  5
20A
330
1F
100
AcDbEntity
  8
1
  6
Continuous
 62
     7
100
AcDbLine
 10
415.2383849413539
 20
553.3564194360084
 30
0.0
 11
419.1947353960027
 21
551.0722194360085
 31
0.0
  0
LINE
  5
20B
330
1F
100
AcDbEntity
  8
1
  6
Continuous
 62
     7
100
AcDbLine
 10
411.282034486705
 20
551.0722194360085
 30
0.0
 11
415.2383849413539
 21
553.3564194360084
 31
0.0
  0
LINE
  5
20C
330
1F
100
AcDbEntity
  8
1
  6
Continuous
 62
     7
100
AcDbLine
 10
411.282034486705
 20
555.6406194360085
 30
0.0
 11
411.282034486705
 21
551.0722194360085
 31
0.0
  0
LINE
  5
20D
330
1F
100
AcDbEntity
  8
1
  6
Continuous
 62
     7
100
AcDbLine
 10
407.3256840320563
 20
557.9248194360084
 30
0.0
 11
411.282034486705
 21
555.6406194360085
 31
0.0
  0
LINE
  5
20E
330
1F
100
AcDbEntity
  8
1
  6
Continuous
 62
     7
100
AcDbLine
 10
411.282034486705
 20
560.2090194360085
 30
0.0
 11
407.3256840320563
 21
557.9248194360084
 31
0.0
  0
LINE
  5
20F
330
1F
100
AcDbEntity
  8
1
  6
Continuous
 62
     7
100
AcDbLine
 10
411.282034486705
 20
564.7774194360085
 30
0.0
 11
411.282034486705
 21
560.2090194360085
 31
0.0
  0
LINE
  5
210
330
1F
100
AcDbEntity
  8
1
  6
Continuous
 62
     7
100
AcDbLine
 10
415.2383849413539
 20
562.4932194360084
 30
0.0
 11
411.282034486705
 21
564.7774194360085
 31
0.0
  0
LINE
  5
211
330
1F
100
AcDbEntity
  8
1
  6
Continuous
 62
     7
100
AcDbLine
 10
420.635108847577
 20
567.2722194360084
 30
0.0
 11
415.2383849413539
 21
564.1564194360084
 31
0.0
  0
LINE
  5
212
330
1F
100
AcDbEntity
  8
1
  6
Continuous
 62
     7
100
AcDbLine
 10
420.635108847577
 20
561.0406194360085
 30
0.0
 11
420.635108847577
 21
567.2722194360084
 31
0.0
  0
LINE
  5
213
330
1F
100
AcDbEntity
  8
1
  6
Continuous
 62
     7
100
AcDbLine
 10
426.0318327538002
 20
557.9248194360084
 30
0.0
 11
420.635108847577
 21
561.0406194360085
 31
0.0
  0
LINE
  5
214
330
1F
100
AcDbEntity
  8
1
  6
Continuous
 62
     7
100
AcDbLine
 10
420.635108847577
 20
554.8090194360084
 30
0.0
 11
426.0318327538002
 21
557.9248194360084
 31
0.0
  0
LINE
  5
215
330
1F
100
AcDbEntity
  8
1
  6
Continuous
 62
     7
100
AcDbLine
 10
420.635108847577
 20
548.5774194360085
 30
0.0
 11
420.635108847577
 21
554.8090194360084
 31
0.0
  0
LINE
  5
216
330
1F
100
AcDbEntity
  8
1
  6
Continuous
 62
     7
100
AcDbLine
 10
415.2383849413539
 20
551.6932194360085
 30
0.0
 11
420.635108847577
 21
548.5774194360085
 31
0.0
  0
LINE
  5
217
330
1F
100
AcDbEntity
  8
1
  6
Continuous
 62
     7
100
AcDbLine
 10
409.8416610351308
 20
548.5774194360085
 30
0.0
 11
415.2383849413539
 21
551.6932194360085
 31
0.0
  0
LINE
  5
218
330
1F
100
AcDbEntity
  8
1
  6
Continuous
 62
     7
100
AcDbLine
 10
409.8416610351308
 20
554.8090194360084
 30
0.0
 11
409.8416610351308
 21
548.5774194360085
 31
0.0
  0
LINE
  5
219
330
1F
100
AcDbEntity
  8
1
  6
Continuous
 62
     7
100
AcDbLine
 10
404.4449371289077
 20
557.9248194360084
 30
0.0
 11
409.8416610351308
 21
554.8090194360084
 31
0.0
  0
LINE
  5
21A
330
1F
100
AcDbEntity
  8
1
  6
Continuous
 62
     7
100
AcDbLine
 10
409.8416610351308
 20
561.0406194360085
 30
0.0
 11
404.4449371289077
 21
557.9248194360084
 31
0.0
  0
LINE
  5
21B
330
1F
100
AcDbEntity
  8
1
  6
Continuous
 62
     7
100
AcDbLine
 10
409.8416610351308
 20
567.2722194360084
 30
0.0
 11
409.8416610351308
 21
561.0406194360085
 31
0.0
  0
LINE
  5
21C
330
1F
100
AcDbEntity
  8
1
  6
Continuous
 62
     7
100
AcDbLine
 10
415.2383849413539
 20
564.1564194360084
 30
0.0
 11
409.8416610351308
 21
567.2722194360084
 31
0.0
  0
LINE
  5
21D
330
1F
100
AcDbEntity
  8
1
  6
Continuous
 62
     7
100
AcDbLine
 10
414.4391849413539
 20
558.7240194360085
 30
0.0
 11
414.4391849413539
 21
561.8776194360084
 31
0.0
  0
LINE
  5
21E
330
1F
100
AcDbEntity
  8
1
  6
Continuous
 62
     7
100
AcDbLine
 10
411.2855849413539
 20
558.7240194360085
 30
0.0
 11
414.4391849413539
 21
558.7240194360085
 31
0.0
  0
LINE
  5
21F
330
1F
100
AcDbEntity
  8
1
  6
Continuous
 62
     7
100
AcDbLine
 10
411.2855849413539
 20
557.1256194360084
 30
0.0
 11
411.2855849413539
 21
558.7240194360085
 31
0.0
  0
LINE
  5
220
330
1F
100
AcDbEntity
  8
1
  6
Continuous
 62
     7
100
AcDbLine
 10
414.4391849413539
 20
557.1256194360084
 30
0.0
 11
411.2855849413539
 21
557.1256194360084
 31
0.0
  0
LINE
  5
221
330
1F
100
AcDbEntity
  8
1
  6
Continuous
 62
     7
100
AcDbLine
 10
414.4391849413539
 20
553.9720194360084
 30
0.0
 11
414.4391849413539
 21
557.1256194360084
 31
0.0
  0
LINE
  5
222
330
1F
100
AcDbEntity
  8
1
  6
Continuous
 62
     7
100
AcDbLine
 10
416.0375849413539
 20
553.9720194360084
 30
0.0
 11
414.4391849413539
 21
553.9720194360084
 31
0.0
  0
LINE
  5
223
330
1F
100
AcDbEntity
  8
1
  6
Continuous
 62
     7
100
AcDbLine
 10
416.0375849413539
 20
557.1256194360084
 30
0.0
 11
416.0375849413539
 21
553.9720194360084
 31
0.0
  0
LINE
  5
224
330
1F
100
AcDbEntity
  8
1
  6
Continuous
 62
     7
100
AcDbLine
 10
419.1911849413539
 20
557.1256194360084
 30
0.0
 11
416.0375849413539
 21
557.1256194360084
 31
0.0
  0
LINE
  5
225
330
1F
100
AcDbEntity
  8
1
  6
Continuous
 62
     7
100
AcDbLine
 10
419.1911849413539
 20
558.7240194360085
 30
0.0
 11
419.1911849413539
 21
557.1256194360084
 31
0.0
  0
LINE
  5
226
330
1F
100
AcDbEntity
  8
1
  6
Continuous
 62
     7
100
AcDbLine
 10
416.0375849413539
 20
558.7240194360085
 30
0.0
 11
419.1911849413539
 21
558.7240194360085
 31
0.0
  0
LINE
  5
227
330
1F
100
AcDbEntity
  8
1
  6
Continuous
 62
     7
100
AcDbLine
 10
416.0375849413539
 20
561.8776194360084
 30
0.0
 11
416.0375849413539
 21
558.7240194360085
 31
0.0
  0
LINE
  5
228
330
1F
100
AcDbEntity
  8
1
  6
Continuous
 62
     7
100
AcDbLine
 10
414.4391849413539
 20
561.8776194360084
 30
0.0
 11
416.0375849413539
 21
561.8776194360084
 31
0.0
  0
LINE
  5
229
330
1F
100
AcDbEntity
  8
1
  6
Continuous
 62
     7
100
AcDbLine
 10
464.1255960248563
 20
568.7248194360084
 30
0.0
 11
467.6317162430959
 21
568.7248194360084
 31
0.0
  0
LINE
  5
22A
330
1F
100
AcDbEntity
  8
1
  6
Continuous
 62
     7
100
AcDbLine
 10
464.1255960248563
 20
547.1248194360085
 30
0.0
 11
467.6317162430959
 21
547.1248194360085
 31
0.0
  0
LINE
  5
22B
330
1F
100
AcDbEntity
  8
1
  6
Continuous
 62
     7
100
AcDbLine
 10
428.7383849413539
 20
587.6248194360085
 30
0.0
 11
440.0783849413539
 21
587.6248194360085
 31
0.0
  0
LINE
  5
22C
330
1F
100
AcDbEntity
  8
1
  6
Continuous
 62
     7
100
AcDbLine
 10
440.0783849413539
 20
587.6248194360085
 30
0.0
 11
440.0783849413539
 21
528.2248194360084
 31
0.0
  0
LINE
  5
22D
330
1F
100
AcDbEntity
  8
1
  6
Continuous
 62
     7
100
AcDbLine
 10
440.0783849413539
 20
528.2248194360084
 30
0.0
 11
428.7383849413539
 21
528.2248194360084
 31
0.0
  0
LINE
  5
22E
330
1F
100
AcDbEntity
  8
1
  6
Continuous
 62
     7
100
AcDbLine
 10
428.7383849413539
 20
528.2248194360084
 30
0.0
 11
428.7383849413539
 21
587.6248194360085
 31
0.0
  0
LINE
  5
22F
330
1F
100
AcDbEntity
  8
1
  6
PHANTOM
 62
     2
100
AcDbLine
 10
358.8783849413539
 20
394.2728782368495
 30
0.0
 11
358.8783849413539
 21
401.2025246924778
 31
0.0
  0
LINE
  5
230
330
1F
100
AcDbEntity
  8
1
  6
Continuous
 62
     2
100
AcDbLine
 10
329.9527818707394
 20
439.4748617365285
 30
0.0
 11
333.4671025732365
 21
439.4748617365285
 31
0.0
  0
LINE
  5
231
330
1F
100
AcDbEntity
  8
1
  6
Continuous
 62
     2
100
AcDbLine
 10
332.9226303517229
 20
441.8012430466322
 30
0.0
 11
331.5861985352803
 21
441.8012430466322
 31
0.0
  0
LINE
  5
232
330
1F
100
AcDbEntity
  8
1
  6
Continuous
 62
     2
100
AcDbLine
 10
331.5861985352803
 20
443.2861672871239
 30
0.0
 11
331.5861985352803
 21
439.4748617365285
 31
0.0
  0
LINE
  5
233
330
1F
100
AcDbEntity
  8
1
  6
Continuous
 62
     2
100
AcDbLine
 10
334.1105697441163
 20
439.9698364833591
 30
0.0
 11
334.5560470162638
 21
440.4648112301896
 31
0.0
  0
LINE
  5
234
330
1F
100
AcDbEntity
  8
1
  6
Continuous
 62
     2
100
AcDbLine
 10
334.5560470162638
 20
440.4648112301896
 30
0.0
 11
335.0015242884113
 21
441.2072733504355
 31
0.0
  0
LINE
  5
235
330
1F
100
AcDbEntity
  8
1
  6
Continuous
 62
     2
100
AcDbLine
 10
335.0015242884113
 20
441.2072733504355
 30
0.0
 11
335.2490116618266
 21
441.9497354706814
 31
0.0
  0
LINE
  5
236
330
1F
100
AcDbEntity
  8
1
  6
Continuous
 62
     2
100
AcDbLine
 10
335.2490116618266
 20
441.9497354706814
 30
0.0
 11
334.1105697441163
 21
441.9497354706814
 31
0.0
  0
LINE
  5
237
330
1F
100
AcDbEntity
  8
1
  6
Continuous
 62
     2
100
AcDbLine
 10
335.7934838833402
 20
443.1871723377578
 30
0.0
 11
335.7934838833402
 21
439.3263693124793
 31
0.0
  0
LINE
  5
238
330
1F
100
AcDbEntity
  8
1
  6
Continuous
 62
     2
100
AcDbLine
 10
335.7934838833402
 20
439.3263693124793
 30
0.0
 11
335.4470015605588
 21
439.4748617365285
 31
0.0
  0
LINE
  5
239
330
1F
100
AcDbEntity
  8
1
  6
Continuous
 62
     2
100
AcDbLine
 10
337.0804182250997
 20
442.2962177934628
 30
0.0
 11
336.3379561048538
 21
441.7022480972661
 31
0.0
  0
LINE
  5
23A
330
1F
100
AcDbEntity
  8
1
  6
Continuous
 62
     2
100
AcDbLine
 10
336.0904687314386
 20
442.1972228440967
 30
0.0
 11
336.43695105422
 21
441.3062682998016
 31
0.0
  0
LINE
  5
23B
330
1F
100
AcDbEntity
  8
1
  6
Continuous
 62
     2
100
AcDbLine
 10
336.43695105422
 20
441.3062682998016
 30
0.0
 11
336.8824283263675
 21
440.5638061795557
 31
0.0
  0
LINE
  5
23C
330
1F
100
AcDbEntity
  8
1
  6
Continuous
 62
     2
100
AcDbLine
 10
336.8824283263675
 20
440.5638061795557
 30
0.0
 11
337.4269005478811
 21
439.9698364833591
 31
0.0
  0
LINE
  5
23D
330
1F
100
AcDbEntity
  8
1
  6
Continuous
 62
     2
100
AcDbLine
 10
342.8221252883345
 20
443.2861672871239
 30
0.0
 11
341.0402161997444
 21
440.1183289074082
 31
0.0
  0
LINE
  5
23E
330
1F
100
AcDbEntity
  8
1
  6
Continuous
 62
     2
100
AcDbLine
 10
341.0402161997444
 20
440.1183289074082
 30
0.0
 11
343.4160949845312
 21
440.1183289074082
 31
0.0
  0
LINE
  5
23F
330
1F
100
AcDbEntity
  8
1
  6
Continuous
 62
     2
100
AcDbLine
 10
342.8221252883345
 20
440.9102885023372
 30
0.0
 11
342.8221252883345
 21
439.3263693124793
 31
0.0
  0
LINE
  5
240
330
1F
100
AcDbEntity
  8
1
  6
Continuous
 62
     2
100
AcDbLine
 10
344.6040343769246
 20
442.0982278947305
 30
0.0
 11
345.791973769318
 21
443.2861672871239
 31
0.0
  0
LINE
  5
241
330
1F
100
AcDbEntity
  8
1
  6
Continuous
 62
     2
100
AcDbLine
 10
345.791973769318
 20
443.2861672871239
 30
0.0
 11
345.791973769318
 21
439.3263693124793
 31
0.0
  0
LINE
  5
242
330
1F
100
AcDbEntity
  8
1
  6
Continuous
 62
     2
100
AcDbLine
 10
347.2768980098097
 20
439.3263693124793
 30
0.0
 11
346.9799131617114
 21
439.3263693124793
 31
0.0
  0
LINE
  5
243
330
1F
100
AcDbEntity
  8
1
  6
Continuous
 62
     2
100
AcDbLine
 10
346.9799131617114
 20
439.3263693124793
 30
0.0
 11
346.9799131617114
 21
439.6233541605777
 31
0.0
  0
LINE
  5
244
330
1F
100
AcDbEntity
  8
1
  6
Continuous
 62
     2
100
AcDbLine
 10
346.9799131617114
 20
439.6233541605777
 30
0.0
 11
347.2768980098097
 21
439.6233541605777
 31
0.0
  0
LINE
  5
245
330
1F
100
AcDbEntity
  8
1
  6
Continuous
 62
     2
100
AcDbLine
 10
347.2768980098097
 20
439.6233541605777
 30
0.0
 11
347.2768980098097
 21
439.3263693124793
 31
0.0
  0
LINE
  5
246
330
1F
100
AcDbEntity
  8
1
  6
Continuous
 62
     2
100
AcDbLine
 10
347.1779030604436
 20
439.4253642618454
 30
0.0
 11
347.0789081110775
 21
439.4253642618454
 31
0.0
  0
LINE
  5
247
330
1F
100
AcDbEntity
  8
1
  6
Continuous
 62
     2
100
AcDbLine
 10
347.0789081110775
 20
439.4253642618454
 30
0.0
 11
347.0789081110775
 21
439.5243592112116
 31
0.0
  0
LINE
  5
248
330
1F
100
AcDbEntity
  8
1
  6
Continuous
 62
     2
100
AcDbLine
 10
347.0789081110775
 20
439.5243592112116
 30
0.0
 11
347.1779030604436
 21
439.5243592112116
 31
0.0
  0
LINE
  5
249
330
1F
100
AcDbEntity
  8
1
  6
Continuous
 62
     2
100
AcDbLine
 10
347.1779030604436
 20
439.5243592112116
 30
0.0
 11
347.1779030604436
 21
439.4253642618454
 31
0.0
  0
LINE
  5
24A
330
1F
100
AcDbEntity
  8
1
  6
Continuous
 62
     2
100
AcDbLine
 10
350.5437313388916
 20
441.1082784010694
 30
0.0
 11
349.1578020477659
 21
441.1082784010694
 31
0.0
  0
LINE
  5
24B
330
1F
100
AcDbEntity
  8
1
  6
Continuous
 62
     2
100
AcDbLine
 10
349.1578020477659
 20
441.1082784010694
 30
0.0
 11
348.8608171996676
 21
441.2072733504355
 31
0.0
  0
LINE
  5
24C
330
1F
100
AcDbEntity
  8
1
  6
Continuous
 62
     2
100
AcDbLine
 10
348.8608171996676
 20
441.2072733504355
 30
0.0
 11
348.5638323515693
 21
441.4052632491677
 31
0.0
  0
LINE
  5
24D
330
1F
100
AcDbEntity
  8
1
  6
Continuous
 62
     2
100
AcDbLine
 10
348.5638323515693
 20
441.4052632491677
 30
0.0
 11
348.365842452837
 21
441.7022480972661
 31
0.0
  0
LINE
  5
24E
330
1F
100
AcDbEntity
  8
1
  6
Continuous
 62
     2
100
AcDbLine
 10
348.365842452837
 20
441.7022480972661
 30
0.0
 11
348.2668475034709
 21
442.0982278947305
 31
0.0
  0
LINE
  5
24F
330
1F
100
AcDbEntity
  8
1
  6
Continuous
 62
     2
100
AcDbLine
 10
348.2668475034709
 20
442.0982278947305
 30
0.0
 11
348.2668475034709
 21
442.2962177934628
 31
0.0
  0
LINE
  5
250
330
1F
100
AcDbEntity
  8
1
  6
Continuous
 62
     2
100
AcDbLine
 10
348.2668475034709
 20
442.2962177934628
 30
0.0
 11
348.365842452837
 21
442.6921975909273
 31
0.0
  0
LINE
  5
251
330
1F
100
AcDbEntity
  8
1
  6
Continuous
 62
     2
100
AcDbLine
 10
348.365842452837
 20
442.6921975909273
 30
0.0
 11
348.5638323515693
 21
442.9891824390256
 31
0.0
  0
LINE
  5
252
330
1F
100
AcDbEntity
  8
1
  6
Continuous
 62
     2
100
AcDbLine
 10
348.5638323515693
 20
442.9891824390256
 30
0.0
 11
348.8608171996676
 21
443.1871723377578
 31
0.0
  0
LINE
  5
253
330
1F
100
AcDbEntity
  8
1
  6
Continuous
 62
     2
100
AcDbLine
 10
348.8608171996676
 20
443.1871723377578
 30
0.0
 11
349.1578020477659
 21
443.2861672871239
 31
0.0
  0
LINE
  5
254
330
1F
100
AcDbEntity
  8
1
  6
Continuous
 62
     2
100
AcDbLine
 10
349.1578020477659
 20
443.2861672871239
 30
0.0
 11
349.7517717439627
 21
443.2861672871239
 31
0.0
  0
LINE
  5
255
330
1F
100
AcDbEntity
  8
1
  6
Continuous
 62
     2
100
AcDbLine
 10
349.7517717439627
 20
443.2861672871239
 30
0.0
 11
350.048756592061
 21
443.1871723377578
 31
0.0
  0
LINE
  5
256
330
1F
100
AcDbEntity
  8
1
  6
Continuous
 62
     2
100
AcDbLine
 10
350.048756592061
 20
443.1871723377578
 30
0.0
 11
350.3457414401593
 21
442.9891824390256
 31
0.0
  0
LINE
  5
257
330
1F
100
AcDbEntity
  8
1
  6
Continuous
 62
     2
100
AcDbLine
 10
350.3457414401593
 20
442.9891824390256
 30
0.0
 11
350.5437313388916
 21
442.6921975909273
 31
0.0
  0
LINE
  5
258
330
1F
100
AcDbEntity
  8
1
  6
Continuous
 62
     2
100
AcDbLine
 10
350.5437313388916
 20
442.6921975909273
 30
0.0
 11
350.6427262882577
 21
442.2962177934628
 31
0.0
  0
LINE
  5
259
330
1F
100
AcDbEntity
  8
1
  6
Continuous
 62
     2
100
AcDbLine
 10
350.6427262882577
 20
442.2962177934628
 30
0.0
 11
350.6427262882577
 21
441.6032531479
 31
0.0
  0
LINE
  5
25A
330
1F
100
AcDbEntity
  8
1
  6
Continuous
 62
     2
100
AcDbLine
 10
350.6427262882577
 20
441.6032531479
 30
0.0
 11
350.5437313388916
 21
441.1082784010694
 31
0.0
  0
LINE
  5
25B
330
1F
100
AcDbEntity
  8
1
  6
Continuous
 62
     2
100
AcDbLine
 10
350.5437313388916
 20
441.1082784010694
 30
0.0
 11
350.4447363895255
 21
440.712298603605
 31
0.0
  0
LINE
  5
25C
330
1F
100
AcDbEntity
  8
1
  6
Continuous
 62
     2
100
AcDbLine
 10
350.4447363895255
 20
440.712298603605
 30
0.0
 11
350.1477515414271
 21
440.3163188061405
 31
0.0
  0
LINE
  5
25D
330
1F
100
AcDbEntity
  8
1
  6
Continuous
 62
     2
100
AcDbLine
 10
350.1477515414271
 20
440.3163188061405
 30
0.0
 11
349.4547868958643
 21
439.7223491099438
 31
0.0
  0
LINE
  5
25E
330
1F
100
AcDbEntity
  8
1
  6
Continuous
 62
     2
100
AcDbLine
 10
349.4547868958643
 20
439.7223491099438
 30
0.0
 11
348.5638323515693
 21
439.3263693124793
 31
0.0
  0
LINE
  5
25F
330
1F
100
AcDbEntity
  8
1
  6
Continuous
 62
     2
100
AcDbLine
 10
351.8306656806511
 20
442.0982278947305
 30
0.0
 11
353.0186050730445
 21
443.2861672871239
 31
0.0
  0
LINE
  5
260
330
1F
100
AcDbEntity
  8
1
  6
Continuous
 62
     2
100
AcDbLine
 10
353.0186050730445
 20
443.2861672871239
 30
0.0
 11
353.0186050730445
 21
439.3263693124793
 31
0.0
  0
LINE
  5
261
330
1F
100
AcDbEntity
  8
1
  6
Continuous
 62
     2
100
AcDbLine
 10
356.5824232502246
 20
440.8112935529711
 30
0.0
 11
356.4834283008585
 21
440.2173238567743
 31
0.0
  0
LINE
  5
262
330
1F
100
AcDbEntity
  8
1
  6
Continuous
 62
     2
100
AcDbLine
 10
356.4834283008585
 20
440.2173238567743
 30
0.0
 11
356.2854384021263
 21
439.8213440593099
 31
0.0
  0
LINE
  5
263
330
1F
100
AcDbEntity
  8
1
  6
Continuous
 62
     2
100
AcDbLine
 10
356.2854384021263
 20
439.8213440593099
 30
0.0
 11
356.0874485033941
 21
439.6233541605777
 31
0.0
  0
LINE
  5
264
330
1F
100
AcDbEntity
  8
1
  6
Continuous
 62
     2
100
AcDbLine
 10
356.0874485033941
 20
439.6233541605777
 30
0.0
 11
355.7904636552957
 21
439.4253642618454
 31
0.0
  0
LINE
  5
265
330
1F
100
AcDbEntity
  8
1
  6
Continuous
 62
     2
100
AcDbLine
 10
355.7904636552957
 20
439.4253642618454
 30
0.0
 11
355.4934788071973
 21
439.3263693124793
 31
0.0
  0
LINE
  5
266
330
1F
100
AcDbEntity
  8
1
  6
Continuous
 62
     2
100
AcDbLine
 10
355.4934788071973
 20
439.3263693124793
 30
0.0
 11
355.2954889084651
 21
439.3263693124793
 31
0.0
  0
LINE
  5
267
330
1F
100
AcDbEntity
  8
1
  6
Continuous
 62
     2
100
AcDbLine
 10
355.2954889084651
 20
439.3263693124793
 30
0.0
 11
354.9985040603668
 21
439.4253642618454
 31
0.0
  0
LINE
  5
268
330
1F
100
AcDbEntity
  8
1
  6
Continuous
 62
     2
100
AcDbLine
 10
354.9985040603668
 20
439.4253642618454
 30
0.0
 11
354.7015192122684
 21
439.6233541605777
 31
0.0
  0
LINE
  5
269
330
1F
100
AcDbEntity
  8
1
  6
Continuous
 62
     2
100
AcDbLine
 10
354.7015192122684
 20
439.6233541605777
 30
0.0
 11
354.5035293135362
 21
439.8213440593099
 31
0.0
  0
LINE
  5
26A
330
1F
100
AcDbEntity
  8
1
  6
Continuous
 62
     2
100
AcDbLine
 10
354.5035293135362
 20
439.8213440593099
 30
0.0
 11
354.305539414804
 21
440.2173238567743
 31
0.0
  0
LINE
  5
26B
330
1F
100
AcDbEntity
  8
1
  6
Continuous
 62
     2
100
AcDbLine
 10
354.305539414804
 20
440.2173238567743
 30
0.0
 11
354.2065444654378
 21
440.8112935529711
 31
0.0
  0
LINE
  5
26C
330
1F
100
AcDbEntity
  8
1
  6
Continuous
 62
     2
100
AcDbLine
 10
354.2065444654378
 20
440.8112935529711
 30
0.0
 11
354.2065444654378
 21
441.8012430466322
 31
0.0
  0
LINE
  5
26D
330
1F
100
AcDbEntity
  8
1
  6
Continuous
 62
     2
100
AcDbLine
 10
354.2065444654378
 20
441.8012430466322
 30
0.0
 11
354.305539414804
 21
442.3952127428289
 31
0.0
  0
LINE
  5
26E
330
1F
100
AcDbEntity
  8
1
  6
Continuous
 62
     2
100
AcDbLine
 10
354.305539414804
 20
442.3952127428289
 30
0.0
 11
354.5035293135362
 21
442.7911925402934
 31
0.0
  0
LINE
  5
26F
330
1F
100
AcDbEntity
  8
1
  6
Continuous
 62
     2
100
AcDbLine
 10
354.5035293135362
 20
442.7911925402934
 30
0.0
 11
354.7015192122684
 21
442.9891824390256
 31
0.0
  0
LINE
  5
270
330
1F
100
AcDbEntity
  8
1
  6
Continuous
 62
     2
100
AcDbLine
 10
354.7015192122684
 20
442.9891824390256
 30
0.0
 11
354.9985040603668
 21
443.1871723377578
 31
0.0
  0
LINE
  5
271
330
1F
100
AcDbEntity
  8
1
  6
Continuous
 62
     2
100
AcDbLine
 10
354.9985040603668
 20
443.1871723377578
 30
0.0
 11
355.2954889084651
 21
443.2861672871239
 31
0.0
  0
LINE
  5
272
330
1F
100
AcDbEntity
  8
1
  6
Continuous
 62
     2
100
AcDbLine
 10
355.2954889084651
 20
443.2861672871239
 30
0.0
 11
355.4934788071973
 21
443.2861672871239
 31
0.0
  0
LINE
  5
273
330
1F
100
AcDbEntity
  8
1
  6
Continuous
 62
     2
100
AcDbLine
 10
355.4934788071973
 20
443.2861672871239
 30
0.0
 11
355.7904636552957
 21
443.1871723377578
 31
0.0
  0
LINE
  5
274
330
1F
100
AcDbEntity
  8
1
  6
Continuous
 62
     2
100
AcDbLine
 10
355.7904636552957
 20
443.1871723377578
 30
0.0
 11
356.0874485033941
 21
442.9891824390256
 31
0.0
  0
LINE
  5
275
330
1F
100
AcDbEntity
  8
1
  6
Continuous
 62
     2
100
AcDbLine
 10
356.0874485033941
 20
442.9891824390256
 30
0.0
 11
356.2854384021263
 21
442.7911925402934
 31
0.0
  0
LINE
  5
276
330
1F
100
AcDbEntity
  8
1
  6
Continuous
 62
     2
100
AcDbLine
 10
356.2854384021263
 20
442.7911925402934
 30
0.0
 11
356.4834283008585
 21
442.3952127428289
 31
0.0
  0
LINE
  5
277
330
1F
100
AcDbEntity
  8
1
  6
Continuous
 62
     2
100
AcDbLine
 10
356.4834283008585
 20
442.3952127428289
 30
0.0
 11
356.5824232502246
 21
441.8012430466322
 31
0.0
  0
LINE
  5
278
330
1F
100
AcDbEntity
  8
1
  6
Continuous
 62
     2
100
AcDbLine
 10
356.5824232502246
 20
441.8012430466322
 30
0.0
 11
356.5824232502246
 21
440.8112935529711
 31
0.0
  0
LINE
  5
279
330
1F
100
AcDbEntity
  8
1
  6
Continuous
 62
     2
100
AcDbLine
 10
358.1168449653995
 20
442.1972228440967
 30
0.0
 11
358.1168449653995
 21
439.5738566858946
 31
0.0
  0
LINE
  5
27A
330
1F
100
AcDbEntity
  8
1
  6
Continuous
 62
     2
100
AcDbLine
 10
358.1168449653995
 20
439.5738566858946
 30
0.0
 11
360.9382010223338
 21
439.5738566858946
 31
0.0
  0
LINE
  5
27B
330
1F
100
AcDbEntity
  8
1
  6
Continuous
 62
     2
100
AcDbLine
 10
360.9382010223338
 20
439.5738566858946
 30
0.0
 11
360.9382010223338
 21
442.1972228440967
 31
0.0
  0
LINE
  5
27C
330
1F
100
AcDbEntity
  8
1
  6
Continuous
 62
     2
100
AcDbLine
 10
359.5522717312082
 20
443.0386799137087
 30
0.0
 11
359.5522717312082
 21
439.5738566858946
 31
0.0
  0
LINE
  5
27D
330
1F
100
AcDbEntity
  8
1
  6
Continuous
 62
     2
100
AcDbLine
 10
361.7301606172627
 20
442.0982278947305
 30
0.0
 11
362.9181000096561
 21
443.2861672871239
 31
0.0
  0
LINE
  5
27E
330
1F
100
AcDbEntity
  8
1
  6
Continuous
 62
     2
100
AcDbLine
 10
362.9181000096561
 20
443.2861672871239
 30
0.0
 11
362.9181000096561
 21
439.3263693124793
 31
0.0
  0
LINE
  5
27F
330
1F
100
AcDbEntity
  8
1
  6
Continuous
 62
     2
100
AcDbLine
 10
364.1060394020495
 20
442.0982278947305
 30
0.0
 11
365.2939787944429
 21
443.2861672871239
 31
0.0
  0
LINE
  5
280
330
1F
100
AcDbEntity
  8
1
  6
Continuous
 62
     2
100
AcDbLine
 10
365.2939787944429
 20
443.2861672871239
 30
0.0
 11
365.2939787944429
 21
439.3263693124793
 31
0.0
  0
LINE
  5
281
330
1F
100
AcDbEntity
  8
1
  6
Continuous
 62
     2
100
AcDbLine
 10
329.8521306252172
 20
432.0160036487557
 30
0.0
 11
332.5744917327854
 21
432.0160036487557
 31
0.0
  0
LINE
  5
282
330
1F
100
AcDbEntity
  8
1
  6
Continuous
 62
     2
100
AcDbLine
 10
331.2875573910259
 20
432.0160036487557
 30
0.0
 11
331.2875573910259
 21
434.3423849588595
 31
0.0
  0
LINE
  5
283
330
1F
100
AcDbEntity
  8
1
  6
Continuous
 62
     2
100
AcDbLine
 10
330.4955977960969
 20
434.3423849588595
 30
0.0
 11
332.0300195112718
 21
434.3423849588595
 31
0.0
  0
LINE
  5
284
330
1F
100
AcDbEntity
  8
1
  6
Continuous
 62
     2
100
AcDbLine
 10
332.3765018340532
 20
433.5999228386136
 30
0.0
 11
330.1491154733155
 21
433.5999228386136
 31
0.0
  0
LINE
  5
285
330
1F
100
AcDbEntity
  8
1
  6
Continuous
 62
     2
100
AcDbLine
 10
330.4955977960969
 20
433.104948091783
 30
0.0
 11
330.6935876948292
 21
432.5109783955863
 31
0.0
  0
LINE
  5
286
330
1F
100
AcDbEntity
  8
1
  6
Continuous
 62
     2
100
AcDbLine
 10
331.8320296125395
 20
432.5109783955863
 30
0.0
 11
332.0300195112718
 21
433.104948091783
 31
0.0
  0
LINE
  5
287
330
1F
100
AcDbEntity
  8
1
  6
Continuous
 62
     2
100
AcDbLine
 10
329.5056483024358
 20
433.8474102120289
 30
0.0
 11
329.9511255745833
 21
434.2433900094933
 31
0.0
  0
LINE
  5
288
330
1F
100
AcDbEntity
  8
1
  6
Continuous
 62
     2
100
AcDbLine
 10
329.9511255745833
 20
434.2433900094933
 30
0.0
 11
330.6935876948292
 21
435.0848470791054
 31
0.0
  0
LINE
  5
289
330
1F
100
AcDbEntity
  8
1
  6
Continuous
 62
     2
100
AcDbLine
 10
330.6935876948292
 20
435.0848470791054
 30
0.0
 11
331.2875573910259
 21
435.8273091993513
 31
0.0
  0
LINE
  5
28A
330
1F
100
AcDbEntity
  8
1
  6
Continuous
 62
     2
100
AcDbLine
 10
331.2875573910259
 20
435.8273091993513
 30
0.0
 11
331.8320296125395
 21
435.0848470791054
 31
0.0
  0
LINE
  5
28B
330
1F
100
AcDbEntity
  8
1
  6
Continuous
 62
     2
100
AcDbLine
 10
331.8320296125395
 20
435.0848470791054
 30
0.0
 11
332.5744917327854
 21
434.2433900094933
 31
0.0
  0
LINE
  5
28C
330
1F
100
AcDbEntity
  8
1
  6
Continuous
 62
     2
100
AcDbLine
 10
332.5744917327854
 20
434.2433900094933
 30
0.0
 11
333.0199690049329
 21
433.8474102120289
 31
0.0
  0
LINE
  5
28D
330
1F
100
AcDbEntity
  8
1
  6
Continuous
 62
     2
100
AcDbLine
 10
333.8119285998619
 20
432.0160036487557
 30
0.0
 11
333.8119285998619
 21
435.5798218259359
 31
0.0
  0
LINE
  5
28E
330
1F
100
AcDbEntity
  8
1
  6
Continuous
 62
     2
100
AcDbLine
 10
333.8119285998619
 20
435.5798218259359
 30
0.0
 11
334.9008730428892
 21
435.5798218259359
 31
0.0
  0
LINE
  5
28F
330
1F
100
AcDbEntity
  8
1
  6
Continuous
 62
     2
100
AcDbLine
 10
334.9008730428892
 20
435.5798218259359
 30
0.0
 11
334.9008730428892
 21
434.3423849588595
 31
0.0
  0
LINE
  5
290
330
1F
100
AcDbEntity
  8
1
  6
Continuous
 62
     2
100
AcDbLine
 10
334.9008730428892
 20
434.3423849588595
 30
0.0
 11
333.8119285998619
 21
434.3423849588595
 31
0.0
  0
LINE
  5
291
330
1F
100
AcDbEntity
  8
1
  6
Continuous
 62
     2
100
AcDbLine
 10
334.9008730428892
 20
434.9858521297392
 30
0.0
 11
333.8119285998619
 21
434.9858521297392
 31
0.0
  0
LINE
  5
292
330
1F
100
AcDbEntity
  8
1
  6
Continuous
 62
     2
100
AcDbLine
 10
336.2373048593317
 20
432.0160036487557
 30
0.0
 11
336.5342897074301
 21
432.0160036487557
 31
0.0
  0
LINE
  5
293
330
1F
100
AcDbEntity
  8
1
  6
Continuous
 62
     2
100
AcDbLine
 10
336.5342897074301
 20
432.0160036487557
 30
0.0
 11
336.6332846567962
 21
432.1149985981219
 31
0.0
  0
LINE
  5
294
330
1F
100
AcDbEntity
  8
1
  6
Continuous
 62
     2
100
AcDbLine
 10
336.6332846567962
 20
432.1149985981219
 30
0.0
 11
336.6332846567962
 21
435.5798218259359
 31
0.0
  0
LINE
  5
295
330
1F
100
AcDbEntity
  8
1
  6
Continuous
 62
     2
100
AcDbLine
 10
336.6332846567962
 20
435.5798218259359
 30
0.0
 11
335.5443402137689
 21
435.5798218259359
 31
0.0
  0
LINE
  5
296
330
1F
100
AcDbEntity
  8
1
  6
Continuous
 62
     2
100
AcDbLine
 10
335.5443402137689
 20
435.5798218259359
 30
0.0
 11
335.5443402137689
 21
434.3423849588595
 31
0.0
  0
LINE
  5
297
330
1F
100
AcDbEntity
  8
1
  6
Continuous
 62
     2
100
AcDbLine
 10
335.5443402137689
 20
434.3423849588595
 30
0.0
 11
336.6332846567962
 21
434.3423849588595
 31
0.0
  0
LINE
  5
298
330
1F
100
AcDbEntity
  8
1
  6
Continuous
 62
     2
100
AcDbLine
 10
335.5443402137689
 20
434.9858521297392
 30
0.0
 11
336.6332846567962
 21
434.9858521297392
 31
0.0
  0
LINE
  5
299
330
1F
100
AcDbEntity
  8
1
  6
Continuous
 62
     2
100
AcDbLine
 10
341.1870523276376
 20
434.2433900094933
 30
0.0
 11
342.1770018212987
 21
434.2433900094933
 31
0.0
  0
LINE
  5
29A
330
1F
100
AcDbEntity
  8
1
  6
Continuous
 62
     2
100
AcDbLine
 10
340.5930826314408
 20
435.8273091993513
 30
0.0
 11
342.0780068719326
 21
435.8273091993513
 31
0.0
  0
LINE
  5
29B
330
1F
100
AcDbEntity
  8
1
  6
Continuous
 62
     2
100
AcDbLine
 10
342.0780068719326
 20
435.8273091993513
 30
0.0
 11
342.5729816187632
 21
435.7283142499851
 31
0.0
  0
LINE
  5
29C
330
1F
100
AcDbEntity
  8
1
  6
Continuous
 62
     2
100
AcDbLine
 10
342.5729816187632
 20
435.7283142499851
 30
0.0
 11
342.8699664668615
 21
435.5303243512529
 31
0.0
  0
LINE
  5
29D
330
1F
100
AcDbEntity
  8
1
  6
Continuous
 62
     2
100
AcDbLine
 10
342.8699664668615
 20
435.5303243512529
 30
0.0
 11
342.9689614162276
 21
435.2333395031545
 31
0.0
  0
LINE
  5
29E
330
1F
100
AcDbEntity
  8
1
  6
Continuous
 62
     2
100
AcDbLine
 10
342.9689614162276
 20
435.2333395031545
 30
0.0
 11
342.9689614162276
 21
434.9363546550562
 31
0.0
  0
LINE
  5
29F
330
1F
100
AcDbEntity
  8
1
  6
Continuous
 62
     2
100
AcDbLine
 10
342.9689614162276
 20
434.9363546550562
 30
0.0
 11
342.8699664668615
 21
434.6393698069578
 31
0.0
  0
LINE
  5
2A0
330
1F
100
AcDbEntity
  8
1
  6
Continuous
 62
     2
100
AcDbLine
 10
342.8699664668615
 20
434.6393698069578
 30
0.0
 11
342.6719765681293
 21
434.4413799082256
 31
0.0
  0
LINE
  5
2A1
330
1F
100
AcDbEntity
  8
1
  6
Continuous
 62
     2
100
AcDbLine
 10
342.6719765681293
 20
434.4413799082256
 30
0.0
 11
342.4739866693971
 21
434.3423849588595
 31
0.0
  0
LINE
  5
2A2
330
1F
100
AcDbEntity
  8
1
  6
Continuous
 62
     2
100
AcDbLine
 10
342.4739866693971
 20
434.3423849588595
 30
0.0
 11
342.1770018212987
 21
434.2433900094933
 31
0.0
  0
LINE
  5
2A3
330
1F
100
AcDbEntity
  8
1
  6
Continuous
 62
     2
100
AcDbLine
 10
342.1770018212987
 20
434.2433900094933
 30
0.0
 11
342.5729816187632
 21
434.1443950601272
 31
0.0
  0
LINE
  5
2A4
330
1F
100
AcDbEntity
  8
1
  6
Continuous
 62
     2
100
AcDbLine
 10
342.5729816187632
 20
434.1443950601272
 30
0.0
 11
342.7709715174954
 21
433.946405161395
 31
0.0
  0
LINE
  5
2A5
330
1F
100
AcDbEntity
  8
1
  6
Continuous
 62
     2
100
AcDbLine
 10
342.7709715174954
 20
433.946405161395
 30
0.0
 11
342.8699664668615
 21
433.7484152626628
 31
0.0
  0
LINE
  5
2A6
330
1F
100
AcDbEntity
  8
1
  6
Continuous
 62
     2
100
AcDbLine
 10
342.8699664668615
 20
433.7484152626628
 30
0.0
 11
342.9689614162276
 21
433.3524354651983
 31
0.0
  0
LINE
  5
2A7
330
1F
100
AcDbEntity
  8
1
  6
Continuous
 62
     2
100
AcDbLine
 10
342.9689614162276
 20
433.3524354651983
 30
0.0
 11
342.9689614162276
 21
432.8574607183678
 31
0.0
  0
LINE
  5
2A8
330
1F
100
AcDbEntity
  8
1
  6
Continuous
 62
     2
100
AcDbLine
 10
342.9689614162276
 20
432.8574607183678
 30
0.0
 11
342.8699664668615
 21
432.4614809209033
 31
0.0
  0
LINE
  5
2A9
330
1F
100
AcDbEntity
  8
1
  6
Continuous
 62
     2
100
AcDbLine
 10
342.8699664668615
 20
432.4614809209033
 30
0.0
 11
342.6719765681293
 21
432.1644960728049
 31
0.0
  0
LINE
  5
2AA
330
1F
100
AcDbEntity
  8
1
  6
Continuous
 62
     2
100
AcDbLine
 10
342.6719765681293
 20
432.1644960728049
 30
0.0
 11
342.374991720031
 21
431.9665061740727
 31
0.0
  0
LINE
  5
2AB
330
1F
100
AcDbEntity
  8
1
  6
Continuous
 62
     2
100
AcDbLine
 10
342.374991720031
 20
431.9665061740727
 30
0.0
 11
342.0780068719326
 21
431.8675112247066
 31
0.0
  0
LINE
  5
2AC
330
1F
100
AcDbEntity
  8
1
  6
Continuous
 62
     2
100
AcDbLine
 10
342.0780068719326
 20
431.8675112247066
 30
0.0
 11
340.5930826314408
 21
431.8675112247066
 31
0.0
  0
LINE
  5
2AD
330
1F
100
AcDbEntity
  8
1
  6
Continuous
 62
     2
100
AcDbLine
 10
346.4337846440417
 20
433.6494203132967
 30
0.0
 11
345.047855352916
 21
433.6494203132967
 31
0.0
  0
LINE
  5
2AE
330
1F
100
AcDbEntity
  8
1
  6
Continuous
 62
     2
100
AcDbLine
 10
345.047855352916
 20
433.6494203132967
 30
0.0
 11
344.7508705048177
 21
433.7484152626628
 31
0.0
  0
LINE
  5
2AF
330
1F
100
AcDbEntity
  8
1
  6
Continuous
 62
     2
100
AcDbLine
 10
344.7508705048177
 20
433.7484152626628
 30
0.0
 11
344.4538856567194
 21
433.946405161395
 31
0.0
  0
LINE
  5
2B0
330
1F
100
AcDbEntity
  8
1
  6
Continuous
 62
     2
100
AcDbLine
 10
344.4538856567194
 20
433.946405161395
 30
0.0
 11
344.2558957579871
 21
434.2433900094933
 31
0.0
  0
LINE
  5
2B1
330
1F
100
AcDbEntity
  8
1
  6
Continuous
 62
     2
100
AcDbLine
 10
344.2558957579871
 20
434.2433900094933
 30
0.0
 11
344.156900808621
 21
434.6393698069578
 31
0.0
  0
LINE
  5
2B2
330
1F
100
AcDbEntity
  8
1
  6
Continuous
 62
     2
100
AcDbLine
 10
344.156900808621
 20
434.6393698069578
 30
0.0
 11
344.156900808621
 21
434.8373597056901
 31
0.0
  0
LINE
  5
2B3
330
1F
100
AcDbEntity
  8
1
  6
Continuous
 62
     2
100
AcDbLine
 10
344.156900808621
 20
434.8373597056901
 30
0.0
 11
344.2558957579871
 21
435.2333395031545
 31
0.0
  0
LINE
  5
2B4
330
1F
100
AcDbEntity
  8
1
  6
Continuous
 62
     2
100
AcDbLine
 10
344.2558957579871
 20
435.2333395031545
 30
0.0
 11
344.4538856567194
 21
435.5303243512529
 31
0.0
  0
LINE
  5
2B5
330
1F
100
AcDbEntity
  8
1
  6
Continuous
 62
     2
100
AcDbLine
 10
344.4538856567194
 20
435.5303243512529
 30
0.0
 11
344.7508705048177
 21
435.7283142499851
 31
0.0
  0
LINE
  5
2B6
330
1F
100
AcDbEntity
  8
1
  6
Continuous
 62
     2
100
AcDbLine
 10
344.7508705048177
 20
435.7283142499851
 30
0.0
 11
345.047855352916
 21
435.8273091993513
 31
0.0
  0
LINE
  5
2B7
330
1F
100
AcDbEntity
  8
1
  6
Continuous
 62
     2
100
AcDbLine
 10
345.047855352916
 20
435.8273091993513
 30
0.0
 11
345.6418250491128
 21
435.8273091993513
 31
0.0
  0
LINE
  5
2B8
330
1F
100
AcDbEntity
  8
1
  6
Continuous
 62
     2
100
AcDbLine
 10
345.6418250491128
 20
435.8273091993513
 30
0.0
 11
345.9388098972111
 21
435.7283142499851
 31
0.0
  0
LINE
  5
2B9
330
1F
100
AcDbEntity
  8
1
  6
Continuous
 62
     2
100
AcDbLine
 10
345.9388098972111
 20
435.7283142499851
 30
0.0
 11
346.2357947453095
 21
435.5303243512529
 31
0.0
  0
LINE
  5
2BA
330
1F
100
AcDbEntity
  8
1
  6
Continuous
 62
     2
100
AcDbLine
 10
346.2357947453095
 20
435.5303243512529
 30
0.0
 11
346.4337846440417
 21
435.2333395031545
 31
0.0
  0
LINE
  5
2BB
330
1F
100
AcDbEntity
  8
1
  6
Continuous
 62
     2
100
AcDbLine
 10
346.4337846440417
 20
435.2333395031545
 30
0.0
 11
346.5327795934078
 21
434.8373597056901
 31
0.0
  0
LINE
  5
2BC
330
1F
100
AcDbEntity
  8
1
  6
Continuous
 62
     2
100
AcDbLine
 10
346.5327795934078
 20
434.8373597056901
 30
0.0
 11
346.5327795934078
 21
434.1443950601272
 31
0.0
  0
LINE
  5
2BD
330
1F
100
AcDbEntity
  8
1
  6
Continuous
 62
     2
100
AcDbLine
 10
346.5327795934078
 20
434.1443950601272
 30
0.0
 11
346.4337846440417
 21
433.6494203132967
 31
0.0
  0
LINE
  5
2BE
330
1F
100
AcDbEntity
  8
1
  6
Continuous
 62
     2
100
AcDbLine
 10
346.4337846440417
 20
433.6494203132967
 30
0.0
 11
346.3347896946756
 21
433.2534405158322
 31
0.0
  0
LINE
  5
2BF
330
1F
100
AcDbEntity
  8
1
  6
Continuous
 62
     2
100
AcDbLine
 10
346.3347896946756
 20
433.2534405158322
 30
0.0
 11
346.0378048465772
 21
432.8574607183678
 31
0.0
  0
LINE
  5
2C0
330
1F
100
AcDbEntity
  8
1
  6
Continuous
 62
     2
100
AcDbLine
 10
346.0378048465772
 20
432.8574607183678
 30
0.0
 11
345.3448402010144
 21
432.263491022171
 31
0.0
  0
LINE
  5
2C1
330
1F
100
AcDbEntity
  8
1
  6
Continuous
 62
     2
100
AcDbLine
 10
345.3448402010144
 20
432.263491022171
 30
0.0
 11
344.4538856567194
 21
431.8675112247066
 31
0.0
  0
LINE
  5
2C2
330
1F
100
AcDbEntity
  8
1
  6
Continuous
 62
     2
100
AcDbLine
 10
348.0177038338996
 20
431.8675112247066
 30
0.0
 11
347.7207189858012
 21
431.8675112247066
 31
0.0
  0
LINE
  5
2C3
330
1F
100
AcDbEntity
  8
1
  6
Continuous
 62
     2
100
AcDbLine
 10
347.7207189858012
 20
431.8675112247066
 30
0.0
 11
347.7207189858012
 21
432.1644960728049
 31
0.0
  0
LINE
  5
2C4
330
1F
100
AcDbEntity
  8
1
  6
Continuous
 62
     2
100
AcDbLine
 10
347.7207189858012
 20
432.1644960728049
 30
0.0
 11
348.0177038338996
 21
432.1644960728049
 31
0.0
  0
LINE
  5
2C5
330
1F
100
AcDbEntity
  8
1
  6
Continuous
 62
     2
100
AcDbLine
 10
348.0177038338996
 20
432.1644960728049
 30
0.0
 11
348.0177038338996
 21
431.8675112247066
 31
0.0
  0
LINE
  5
2C6
330
1F
100
AcDbEntity
  8
1
  6
Continuous
 62
     2
100
AcDbLine
 10
347.9187088845335
 20
431.9665061740727
 30
0.0
 11
347.8197139351673
 21
431.9665061740727
 31
0.0
  0
LINE
  5
2C7
330
1F
100
AcDbEntity
  8
1
  6
Continuous
 62
     2
100
AcDbLine
 10
347.8197139351673
 20
431.9665061740727
 30
0.0
 11
347.8197139351673
 21
432.0655011234388
 31
0.0
  0
LINE
  5
2C8
330
1F
100
AcDbEntity
  8
1
  6
Continuous
 62
     2
100
AcDbLine
 10
347.8197139351673
 20
432.0655011234388
 30
0.0
 11
347.9187088845335
 21
432.0655011234388
 31
0.0
  0
LINE
  5
2C9
330
1F
100
AcDbEntity
  8
1
  6
Continuous
 62
     2
100
AcDbLine
 10
347.9187088845335
 20
432.0655011234388
 30
0.0
 11
347.9187088845335
 21
431.9665061740727
 31
0.0
  0
LINE
  5
2CA
330
1F
100
AcDbEntity
  8
1
  6
Continuous
 62
     2
100
AcDbLine
 10
351.3835321123475
 20
433.3524354651983
 30
0.0
 11
351.2845371629814
 21
432.7584657690016
 31
0.0
  0
LINE
  5
2CB
330
1F
100
AcDbEntity
  8
1
  6
Continuous
 62
     2
100
AcDbLine
 10
351.2845371629814
 20
432.7584657690016
 30
0.0
 11
351.0865472642492
 21
432.3624859715371
 31
0.0
  0
LINE
  5
2CC
330
1F
100
AcDbEntity
  8
1
  6
Continuous
 62
     2
100
AcDbLine
 10
351.0865472642492
 20
432.3624859715371
 30
0.0
 11
350.8885573655169
 21
432.1644960728049
 31
0.0
  0
LINE
  5
2CD
330
1F
100
AcDbEntity
  8
1
  6
Continuous
 62
     2
100
AcDbLine
 10
350.8885573655169
 20
432.1644960728049
 30
0.0
 11
350.5915725174186
 21
431.9665061740727
 31
0.0
  0
LINE
  5
2CE
330
1F
100
AcDbEntity
  8
1
  6
Continuous
 62
     2
100
AcDbLine
 10
350.5915725174186
 20
431.9665061740727
 30
0.0
 11
350.2945876693202
 21
431.8675112247066
 31
0.0
  0
LINE
  5
2CF
330
1F
100
AcDbEntity
  8
1
  6
Continuous
 62
     2
100
AcDbLine
 10
350.2945876693202
 20
431.8675112247066
 30
0.0
 11
350.096597770588
 21
431.8675112247066
 31
0.0
  0
LINE
  5
2D0
330
1F
100
AcDbEntity
  8
1
  6
Continuous
 62
     2
100
AcDbLine
 10
350.096597770588
 20
431.8675112247066
 30
0.0
 11
349.7996129224896
 21
431.9665061740727
 31
0.0
  0
LINE
  5
2D1
330
1F
100
AcDbEntity
  8
1
  6
Continuous
 62
     2
100
AcDbLine
 10
349.7996129224896
 20
431.9665061740727
 30
0.0
 11
349.5026280743913
 21
432.1644960728049
 31
0.0
  0
LINE
  5
2D2
330
1F
100
AcDbEntity
  8
1
  6
Continuous
 62
     2
100
AcDbLine
 10
349.5026280743913
 20
432.1644960728049
 30
0.0
 11
349.3046381756591
 21
432.3624859715371
 31
0.0
  0
LINE
  5
2D3
330
1F
100
AcDbEntity
  8
1
  6
Continuous
 62
     2
100
AcDbLine
 10
349.3046381756591
 20
432.3624859715371
 30
0.0
 11
349.1066482769268
 21
432.7584657690016
 31
0.0
  0
LINE
  5
2D4
330
1F
100
AcDbEntity
  8
1
  6
Continuous
 62
     2
100
AcDbLine
 10
349.1066482769268
 20
432.7584657690016
 30
0.0
 11
349.0076533275607
 21
433.3524354651983
 31
0.0
  0
LINE
  5
2D5
330
1F
100
AcDbEntity
  8
1
  6
Continuous
 62
     2
100
AcDbLine
 10
349.0076533275607
 20
433.3524354651983
 30
0.0
 11
349.0076533275607
 21
434.3423849588595
 31
0.0
  0
LINE
  5
2D6
330
1F
100
AcDbEntity
  8
1
  6
Continuous
 62
     2
100
AcDbLine
 10
349.0076533275607
 20
434.3423849588595
 30
0.0
 11
349.1066482769268
 21
434.9363546550562
 31
0.0
  0
LINE
  5
2D7
330
1F
100
AcDbEntity
  8
1
  6
Continuous
 62
     2
100
AcDbLine
 10
349.1066482769268
 20
434.9363546550562
 30
0.0
 11
349.3046381756591
 21
435.3323344525206
 31
0.0
  0
LINE
  5
2D8
330
1F
100
AcDbEntity
  8
1
  6
Continuous
 62
     2
100
AcDbLine
 10
349.3046381756591
 20
435.3323344525206
 30
0.0
 11
349.5026280743913
 21
435.5303243512529
 31
0.0
  0
LINE
  5
2D9
330
1F
100
AcDbEntity
  8
1
  6
Continuous
 62
     2
100
AcDbLine
 10
349.5026280743913
 20
435.5303243512529
 30
0.0
 11
349.7996129224896
 21
435.7283142499851
 31
0.0
  0
LINE
  5
2DA
330
1F
100
AcDbEntity
  8
1
  6
Continuous
 62
     2
100
AcDbLine
 10
349.7996129224896
 20
435.7283142499851
 30
0.0
 11
350.096597770588
 21
435.8273091993513
 31
0.0
  0
LINE
  5
2DB
330
1F
100
AcDbEntity
  8
1
  6
Continuous
 62
     2
100
AcDbLine
 10
350.096597770588
 20
435.8273091993513
 30
0.0
 11
350.2945876693202
 21
435.8273091993513
 31
0.0
  0
LINE
  5
2DC
330
1F
100
AcDbEntity
  8
1
  6
Continuous
 62
     2
100
AcDbLine
 10
350.2945876693202
 20
435.8273091993513
 30
0.0
 11
350.5915725174186
 21
435.7283142499851
 31
0.0
  0
LINE
  5
2DD
330
1F
100
AcDbEntity
  8
1
  6
Continuous
 62
     2
100
AcDbLine
 10
350.5915725174186
 20
435.7283142499851
 30
0.0
 11
350.8885573655169
 21
435.5303243512529
 31
0.0
  0
LINE
  5
2DE
330
1F
100
AcDbEntity
  8
1
  6
Continuous
 62
     2
100
AcDbLine
 10
350.8885573655169
 20
435.5303243512529
 30
0.0
 11
351.0865472642492
 21
435.3323344525206
 31
0.0
  0
LINE
  5
2DF
330
1F
100
AcDbEntity
  8
1
  6
Continuous
 62
     2
100
AcDbLine
 10
351.0865472642492
 20
435.3323344525206
 30
0.0
 11
351.2845371629814
 21
434.9363546550562
 31
0.0
  0
LINE
  5
2E0
330
1F
100
AcDbEntity
  8
1
  6
Continuous
 62
     2
100
AcDbLine
 10
351.2845371629814
 20
434.9363546550562
 30
0.0
 11
351.3835321123475
 21
434.3423849588595
 31
0.0
  0
LINE
  5
2E1
330
1F
100
AcDbEntity
  8
1
  6
Continuous
 62
     2
100
AcDbLine
 10
351.3835321123475
 20
434.3423849588595
 30
0.0
 11
351.3835321123475
 21
433.3524354651983
 31
0.0
  0
LINE
  5
2E2
330
1F
100
AcDbEntity
  8
1
  6
Continuous
 62
     2
100
AcDbLine
 10
359.2536305869538
 20
434.738364756324
 30
0.0
 11
359.2536305869538
 21
432.1149985981219
 31
0.0
  0
LINE
  5
2E3
330
1F
100
AcDbEntity
  8
1
  6
Continuous
 62
     2
100
AcDbLine
 10
359.2536305869538
 20
432.1149985981219
 30
0.0
 11
362.0749866438881
 21
432.1149985981219
 31
0.0
  0
LINE
  5
2E4
330
1F
100
AcDbEntity
  8
1
  6
Continuous
 62
     2
100
AcDbLine
 10
362.0749866438881
 20
432.1149985981219
 30
0.0
 11
362.0749866438881
 21
434.738364756324
 31
0.0
  0
LINE
  5
2E5
330
1F
100
AcDbEntity
  8
1
  6
Continuous
 62
     2
100
AcDbLine
 10
360.6890573527625
 20
435.5798218259359
 30
0.0
 11
360.6890573527625
 21
432.1149985981219
 31
0.0
  0
LINE
  5
2E6
330
1F
100
AcDbEntity
  8
1
  6
Continuous
 62
     2
100
AcDbLine
 10
362.866946238817
 20
434.6393698069578
 30
0.0
 11
364.0548856312104
 21
435.8273091993513
 31
0.0
  0
LINE
  5
2E7
330
1F
100
AcDbEntity
  8
1
  6
Continuous
 62
     2
100
AcDbLine
 10
364.0548856312104
 20
435.8273091993513
 30
0.0
 11
364.0548856312104
 21
431.8675112247066
 31
0.0
  0
LINE
  5
2E8
330
1F
100
AcDbEntity
  8
1
  6
Continuous
 62
     2
100
AcDbLine
 10
367.024734112194
 20
435.8273091993513
 30
0.0
 11
365.2428250236039
 21
432.6594708196355
 31
0.0
  0
LINE
  5
2E9
330
1F
100
AcDbEntity
  8
1
  6
Continuous
 62
     2
100
AcDbLine
 10
365.2428250236039
 20
432.6594708196355
 30
0.0
 11
367.6187038083907
 21
432.6594708196355
 31
0.0
  0
LINE
  5
2EA
330
1F
100
AcDbEntity
  8
1
  6
Continuous
 62
     2
100
AcDbLine
 10
367.024734112194
 20
433.4514304145644
 30
0.0
 11
367.024734112194
 21
431.8675112247066
 31
0.0
  0
LINE
  5
2EB
330
1F
100
AcDbEntity
  8
1
  6
Continuous
 62
     2
100
AcDbLine
 10
329.2600101528145
 20
368.0417199582401
 30
0.0
 11
330.5858353675393
 21
368.57205004413
 31
0.0
  0
LINE
  5
2EC
330
1F
100
AcDbEntity
  8
1
  6
Continuous
 62
     2
100
AcDbLine
 10
330.3206703245943
 20
368.678116061308
 30
0.0
 11
330.4797693503613
 21
369.3675451729649
 31
0.0
  0
LINE
  5
2ED
330
1F
100
AcDbEntity
  8
1
  6
Continuous
 62
     2
100
AcDbLine
 10
330.5858353675393
 20
369.7387762330878
 30
0.0
 11
329.4191091785814
 21
369.7387762330878
 31
0.0
  0
LINE
  5
2EE
330
1F
100
AcDbEntity
  8
1
  6
Continuous
 62
     2
100
AcDbLine
 10
329.5251751957595
 20
370.4282053447447
 30
0.0
 11
330.5858353675393
 21
370.4282053447447
 31
0.0
  0
LINE
  5
2EF
330
1F
100
AcDbEntity
  8
1
  6
Continuous
 62
     2
100
AcDbLine
 10
330.6919013847173
 20
371.0646014478126
 30
0.0
 11
330.0024722730604
 21
371.8600965766474
 31
0.0
  0
LINE
  5
2F0
330
1F
100
AcDbEntity
  8
1
  6
Continuous
 62
     2
100
AcDbLine
 10
330.0024722730604
 20
371.8600965766474
 30
0.0
 11
329.5251751957595
 21
370.9585354306346
 31
0.0
  0
LINE
  5
2F1
330
1F
100
AcDbEntity
  8
1
  6
Continuous
 62
     2
100
AcDbLine
 10
329.5251751957595
 20
370.9585354306346
 30
0.0
 11
329.0478781184585
 21
370.0039412760328
 31
0.0
  0
LINE
  5
2F2
330
1F
100
AcDbEntity
  8
1
  6
Continuous
 62
     2
100
AcDbLine
 10
329.4191091785814
 20
369.3675451729649
 30
0.0
 11
329.6312412129374
 21
368.678116061308
 31
0.0
  0
LINE
  5
2F3
330
1F
100
AcDbEntity
  8
1
  6
Continuous
 62
     2
100
AcDbLine
 10
330.0024722730604
 20
368.306885001185
 30
0.0
 11
330.0024722730604
 21
370.4282053447447
 31
0.0
  0
LINE
  5
2F4
330
1F
100
AcDbEntity
  8
1
  6
Continuous
 62
     2
100
AcDbLine
 10
330.6919013847173
 20
370.2691063189777
 30
0.0
 11
332.8132217282769
 21
370.2691063189777
 31
0.0
  0
LINE
  5
2F5
330
1F
100
AcDbEntity
  8
1
  6
Continuous
 62
     2
100
AcDbLine
 10
332.8132217282769
 20
369.4736111901428
 30
0.0
 11
330.7979674018952
 21
369.4736111901428
 31
0.0
  0
LINE
  5
2F6
330
1F
100
AcDbEntity
  8
1
  6
Continuous
 62
     2
100
AcDbLine
 10
330.6919013847173
 20
368.1477859754181
 30
0.0
 11
331.1691984620182
 21
368.943281104253
 31
0.0
  0
LINE
  5
2F7
330
1F
100
AcDbEntity
  8
1
  6
Continuous
 62
     2
100
AcDbLine
 10
331.1691984620182
 20
368.943281104253
 30
0.0
 11
331.5404295221411
 21
370.2691063189777
 31
0.0
  0
LINE
  5
2F8
330
1F
100
AcDbEntity
  8
1
  6
Continuous
 62
     2
100
AcDbLine
 10
331.5404295221411
 20
370.2691063189777
 30
0.0
 11
331.6464955393191
 21
371.8600965766474
 31
0.0
  0
LINE
  5
2F9
330
1F
100
AcDbEntity
  8
1
  6
Continuous
 62
     2
100
AcDbLine
 10
330.7979674018952
 20
371.4888655165245
 30
0.0
 11
332.6010896939209
 21
371.4888655165245
 31
0.0
  0
LINE
  5
2FA
330
1F
100
AcDbEntity
  8
1
  6
Continuous
 62
     2
100
AcDbLine
 10
332.6010896939209
 20
370.7994364048676
 30
0.0
 11
330.9570664276622
 21
370.7994364048676
 31
0.0
  0
LINE
  5
2FB
330
1F
100
AcDbEntity
  8
1
  6
Continuous
 62
     2
100
AcDbLine
 10
332.335924650976
 20
370.0039412760328
 30
0.0
 11
332.335924650976
 21
367.8826209324731
 31
0.0
  0
LINE
  5
2FC
330
1F
100
AcDbEntity
  8
1
  6
Continuous
 62
     2
100
AcDbLine
 10
332.335924650976
 20
367.8826209324731
 30
0.0
 11
331.8586275736751
 21
367.8826209324731
 31
0.0
  0
LINE
  5
2FD
330
1F
100
AcDbEntity
  8
1
  6
Continuous
 62
     2
100
AcDbLine
 10
331.8586275736751
 20
368.412951018363
 30
0.0
 11
331.6464955393191
 21
369.1023801300199
 31
0.0
  0
LINE
  5
2FE
330
1F
100
AcDbEntity
  8
1
  6
Continuous
 62
     2
100
AcDbLine
 10
333.5026508399338
 20
368.306885001185
 30
0.0
 11
334.1390469430016
 21
368.837215087075
 31
0.0
  0
LINE
  5
2FF
330
1F
100
AcDbEntity
  8
1
  6
Continuous
 62
     2
100
AcDbLine
 10
334.1390469430016
 20
368.837215087075
 30
0.0
 11
334.1390469430016
 21
370.2691063189777
 31
0.0
  0
LINE
  5
300
330
1F
100
AcDbEntity
  8
1
  6
Continuous
 62
     2
100
AcDbLine
 10
334.1390469430016
 20
370.2691063189777
 30
0.0
 11
333.3965848227558
 21
370.2691063189777
 31
0.0
  0
LINE
  5
301
330
1F
100
AcDbEntity
  8
1
  6
Continuous
 62
     2
100
AcDbLine
 10
334.1390469430016
 20
368.837215087075
 30
0.0
 11
334.3511789773576
 21
368.306885001185
 31
0.0
  0
LINE
  5
302
330
1F
100
AcDbEntity
  8
1
  6
Continuous
 62
     2
100
AcDbLine
 10
334.3511789773576
 20
368.306885001185
 30
0.0
 11
334.5633110117136
 21
368.1477859754181
 31
0.0
  0
LINE
  5
303
330
1F
100
AcDbEntity
  8
1
  6
Continuous
 62
     2
100
AcDbLine
 10
334.5633110117136
 20
368.1477859754181
 30
0.0
 11
336.9497963982182
 21
368.1477859754181
 31
0.0
  0
LINE
  5
304
330
1F
100
AcDbEntity
  8
1
  6
Continuous
 62
     2
100
AcDbLine
 10
336.3664333037393
 20
368.837215087075
 30
0.0
 11
336.3664333037393
 21
369.8978752588548
 31
0.0
  0
LINE
  5
305
330
1F
100
AcDbEntity
  8
1
  6
Continuous
 62
     2
100
AcDbLine
 10
336.3664333037393
 20
369.8978752588548
 30
0.0
 11
335.0406080890145
 21
369.8978752588548
 31
0.0
  0
LINE
  5
306
330
1F
100
AcDbEntity
  8
1
  6
Continuous
 62
     2
100
AcDbLine
 10
335.0406080890145
 20
369.8978752588548
 30
0.0
 11
335.0406080890145
 21
368.837215087075
 31
0.0
  0
LINE
  5
307
330
1F
100
AcDbEntity
  8
1
  6
Continuous
 62
     2
100
AcDbLine
 10
335.0406080890145
 20
368.837215087075
 30
0.0
 11
336.3664333037393
 21
368.837215087075
 31
0.0
  0
LINE
  5
308
330
1F
100
AcDbEntity
  8
1
  6
Continuous
 62
     2
100
AcDbLine
 10
336.8437303810402
 20
370.4282053447447
 30
0.0
 11
334.5633110117136
 21
370.4282053447447
 31
0.0
  0
LINE
  5
309
330
1F
100
AcDbEntity
  8
1
  6
Continuous
 62
     2
100
AcDbLine
 10
335.6239711834934
 20
370.4282053447447
 30
0.0
 11
335.6239711834934
 21
372.1252616195924
 31
0.0
  0
LINE
  5
30A
330
1F
100
AcDbEntity
  8
1
  6
Continuous
 62
     2
100
AcDbLine
 10
336.5785653380953
 20
371.3297664907576
 30
0.0
 11
334.8284760546586
 21
371.3297664907576
 31
0.0
  0
LINE
  5
30B
330
1F
100
AcDbEntity
  8
1
  6
Continuous
 62
     2
100
AcDbLine
 10
335.0406080890145
 20
372.0191956024144
 30
0.0
 11
334.8284760546586
 21
371.3297664907576
 31
0.0
  0
LINE
  5
30C
330
1F
100
AcDbEntity
  8
1
  6
Continuous
 62
     2
100
AcDbLine
 10
334.8284760546586
 20
371.3297664907576
 30
0.0
 11
334.5633110117136
 21
370.9585354306346
 31
0.0
  0
LINE
  5
30D
330
1F
100
AcDbEntity
  8
1
  6
Continuous
 62
     2
100
AcDbLine
 10
334.1390469430016
 20
371.4888655165245
 30
0.0
 11
333.7678158828787
 21
372.0191956024144
 31
0.0
  0
LINE
  5
30E
330
1F
100
AcDbEntity
  8
1
  6
Continuous
 62
     2
100
AcDbLine
 10
333.5026508399338
 20
368.306885001185
 30
0.0
 11
333.3965848227558
 21
368.1477859754181
 31
0.0
  0
LINE
  5
30F
330
1F
100
AcDbEntity
  8
1
  6
Continuous
 62
     2
100
AcDbLine
 10
338.6998856816549
 20
372.1252616195924
 30
0.0
 11
338.487753647299
 21
371.7540305594695
 31
0.0
  0
LINE
  5
310
330
1F
100
AcDbEntity
  8
1
  6
Continuous
 62
     2
100
AcDbLine
 10
338.487753647299
 20
371.7540305594695
 30
0.0
 11
338.116522587176
 21
371.2237004735795
 31
0.0
  0
LINE
  5
311
330
1F
100
AcDbEntity
  8
1
  6
Continuous
 62
     2
100
AcDbLine
 10
338.116522587176
 20
371.2237004735795
 30
0.0
 11
337.7452915270531
 21
370.7994364048676
 31
0.0
  0
LINE
  5
312
330
1F
100
AcDbEntity
  8
1
  6
Continuous
 62
     2
100
AcDbLine
 10
338.381687630121
 20
371.4888655165245
 30
0.0
 11
340.7151400080366
 21
371.4888655165245
 31
0.0
  0
LINE
  5
313
330
1F
100
AcDbEntity
  8
1
  6
Continuous
 62
     2
100
AcDbLine
 10
339.4423478019008
 20
371.4888655165245
 30
0.0
 11
339.4423478019008
 21
367.8826209324731
 31
0.0
  0
LINE
  5
314
330
1F
100
AcDbEntity
  8
1
  6
Continuous
 62
     2
100
AcDbLine
 10
338.222588604354
 20
370.4282053447447
 30
0.0
 11
340.6090739908586
 21
370.4282053447447
 31
0.0
  0
LINE
  5
315
330
1F
100
AcDbEntity
  8
1
  6
Continuous
 62
     2
100
AcDbLine
 10
338.222588604354
 20
370.2691063189777
 30
0.0
 11
338.222588604354
 21
369.3675451729649
 31
0.0
  0
LINE
  5
316
330
1F
100
AcDbEntity
  8
1
  6
Continuous
 62
     2
100
AcDbLine
 10
337.5331594926971
 20
369.3675451729649
 30
0.0
 11
341.2985031025155
 21
369.3675451729649
 31
0.0
  0
LINE
  5
317
330
1F
100
AcDbEntity
  8
1
  6
Continuous
 62
     2
100
AcDbLine
 10
350.9154834608097
 20
354.7386567011623
 30
0.0
 11
350.9154834608097
 21
358.9812973882816
 31
0.0
  0
LINE
  5
318
330
1F
100
AcDbEntity
  8
1
  6
Continuous
 62
     2
100
AcDbLine
 10
351.4988465552886
 20
357.8145711993238
 30
0.0
 11
350.1730213405638
 21
357.8145711993238
 31
0.0
  0
LINE
  5
319
330
1F
100
AcDbEntity
  8
1
  6
Continuous
 62
     2
100
AcDbLine
 10
350.0669553233858
 20
356.0644819158871
 30
0.0
 11
350.5442524006867
 21
356.859977044722
 31
0.0
  0
LINE
  5
31A
330
1F
100
AcDbEntity
  8
1
  6
Continuous
 62
     2
100
AcDbLine
 10
350.5442524006867
 20
356.859977044722
 30
0.0
 11
350.9154834608097
 21
357.6554721735568
 31
0.0
  0
LINE
  5
31B
330
1F
100
AcDbEntity
  8
1
  6
Continuous
 62
     2
100
AcDbLine
 10
350.9154834608097
 20
357.6554721735568
 30
0.0
 11
351.4988465552886
 21
356.753911027544
 31
0.0
  0
LINE
  5
31C
330
1F
100
AcDbEntity
  8
1
  6
Continuous
 62
     2
100
AcDbLine
 10
351.6049125724666
 20
355.5341518299972
 30
0.0
 11
352.2943416841234
 21
356.329646958832
 31
0.0
  0
LINE
  5
31D
330
1F
100
AcDbEntity
  8
1
  6
Continuous
 62
     2
100
AcDbLine
 10
352.2943416841234
 20
356.329646958832
 30
0.0
 11
352.9307377871913
 21
357.5494061563788
 31
0.0
  0
LINE
  5
31E
330
1F
100
AcDbEntity
  8
1
  6
Continuous
 62
     2
100
AcDbLine
 10
353.6201668988482
 20
357.6554721735568
 30
0.0
 11
351.8700776154115
 21
357.6554721735568
 31
0.0
  0
LINE
  5
31F
330
1F
100
AcDbEntity
  8
1
  6
Continuous
 62
     2
100
AcDbLine
 10
352.9307377871913
 20
358.8752313711036
 30
0.0
 11
353.0368038043693
 21
355.0038217441073
 31
0.0
  0
LINE
  5
320
330
1F
100
AcDbEntity
  8
1
  6
Continuous
 62
     2
100
AcDbLine
 10
353.0368038043693
 20
355.0038217441073
 30
0.0
 11
352.6655727442464
 21
355.0038217441073
 31
0.0
  0
LINE
  5
321
330
1F
100
AcDbEntity
  8
1
  6
Continuous
 62
     2
100
AcDbLine
 10
354.3095960105051
 20
355.5341518299972
 30
0.0
 11
354.6808270706281
 21
356.2235809416541
 31
0.0
  0
LINE
  5
322
330
1F
100
AcDbEntity
  8
1
  6
Continuous
 62
     2
100
AcDbLine
 10
354.6808270706281
 20
356.2235809416541
 30
0.0
 11
355.158124147929
 21
357.3903071306119
 31
0.0
  0
LINE
  5
323
330
1F
100
AcDbEntity
  8
1
  6
Continuous
 62
     2
100
AcDbLine
 10
355.9536192767639
 20
357.3903071306119
 30
0.0
 11
354.3095960105051
 21
357.3903071306119
 31
0.0
  0
LINE
  5
324
330
1F
100
AcDbEntity
  8
1
  6
Continuous
 62
     2
100
AcDbLine
 10
354.4156620276831
 20
358.4509673023917
 30
0.0
 11
354.7868930878061
 21
357.9206372165018
 31
0.0
  0
LINE
  5
325
330
1F
100
AcDbEntity
  8
1
  6
Continuous
 62
     2
100
AcDbLine
 10
355.4763221994629
 20
358.0797362422687
 30
0.0
 11
355.7414872424079
 21
358.6100663281587
 31
0.0
  0
LINE
  5
326
330
1F
100
AcDbEntity
  8
1
  6
Continuous
 62
     2
100
AcDbLine
 10
355.158124147929
 20
358.8752313711036
 30
0.0
 11
355.158124147929
 21
354.8977557269293
 31
0.0
  0
LINE
  5
327
330
1F
100
AcDbEntity
  8
1
  6
Continuous
 62
     2
100
AcDbLine
 10
355.4763221994629
 20
356.859977044722
 30
0.0
 11
355.7414872424079
 21
356.329646958832
 31
0.0
  0
LINE
  5
328
330
1F
100
AcDbEntity
  8
1
  6
Continuous
 62
     2
100
AcDbLine
 10
355.9536192767639
 20
356.2235809416541
 30
0.0
 11
357.9688736031455
 21
356.594812001777
 31
0.0
  0
LINE
  5
329
330
1F
100
AcDbEntity
  8
1
  6
Continuous
 62
     2
100
AcDbLine
 10
356.6960813970097
 20
357.1251420876669
 30
0.0
 11
356.3248503368868
 21
357.6554721735568
 31
0.0
  0
LINE
  5
32A
330
1F
100
AcDbEntity
  8
1
  6
Continuous
 62
     2
100
AcDbLine
 10
356.6960813970097
 20
358.1858022594468
 30
0.0
 11
356.3248503368868
 21
358.7161323453366
 31
0.0
  0
LINE
  5
32B
330
1F
100
AcDbEntity
  8
1
  6
Continuous
 62
     2
100
AcDbLine
 10
357.2794444914886
 20
358.9812973882816
 30
0.0
 11
357.2794444914886
 21
354.7386567011623
 31
0.0
  0
LINE
  5
32C
330
1F
100
AcDbEntity
  8
1
  6
Continuous
 62
     2
100
AcDbLine
 10
358.6583027148024
 20
355.0038217441073
 30
0.0
 11
358.6583027148024
 21
356.0644819158871
 31
0.0
  0
LINE
  5
32D
330
1F
100
AcDbEntity
  8
1
  6
Continuous
 62
     2
100
AcDbLine
 10
358.6583027148024
 20
356.0644819158871
 30
0.0
 11
359.6128968694042
 21
356.0644819158871
 31
0.0
  0
LINE
  5
32E
330
1F
100
AcDbEntity
  8
1
  6
Continuous
 62
     2
100
AcDbLine
 10
359.6128968694042
 20
356.0644819158871
 30
0.0
 11
359.6128968694042
 21
355.0038217441073
 31
0.0
  0
LINE
  5
32F
330
1F
100
AcDbEntity
  8
1
  6
Continuous
 62
     2
100
AcDbLine
 10
359.6128968694042
 20
355.0038217441073
 30
0.0
 11
358.6583027148024
 21
355.0038217441073
 31
0.0
  0
LINE
  5
330
330
1F
100
AcDbEntity
  8
1
  6
Continuous
 62
     2
100
AcDbLine
 10
358.6583027148024
 20
356.594812001777
 30
0.0
 11
359.6128968694042
 21
356.594812001777
 31
0.0
  0
LINE
  5
331
330
1F
100
AcDbEntity
  8
1
  6
Continuous
 62
     2
100
AcDbLine
 10
359.6128968694042
 20
357.2842411134339
 30
0.0
 11
358.6583027148024
 21
357.2842411134339
 31
0.0
  0
LINE
  5
332
330
1F
100
AcDbEntity
  8
1
  6
Continuous
 62
     2
100
AcDbLine
 10
358.4461706804464
 20
357.8145711993238
 30
0.0
 11
359.9841279295272
 21
357.8145711993238
 31
0.0
  0
LINE
  5
333
330
1F
100
AcDbEntity
  8
1
  6
Continuous
 62
     2
100
AcDbLine
 10
358.5522366976244
 20
358.4509673023917
 30
0.0
 11
359.6128968694042
 21
358.4509673023917
 31
0.0
  0
LINE
  5
334
330
1F
100
AcDbEntity
  8
1
  6
Continuous
 62
     2
100
AcDbLine
 10
360.3553589896501
 20
358.3449012852137
 30
0.0
 11
361.6281511957859
 21
358.3449012852137
 31
0.0
  0
LINE
  5
335
330
1F
100
AcDbEntity
  8
1
  6
Continuous
 62
     2
100
AcDbLine
 10
361.6281511957859
 20
358.3449012852137
 30
0.0
 11
361.6281511957859
 21
357.019076070489
 31
0.0
  0
LINE
  5
336
330
1F
100
AcDbEntity
  8
1
  6
Continuous
 62
     2
100
AcDbLine
 10
361.6281511957859
 20
357.019076070489
 30
0.0
 11
360.3553589896501
 21
357.019076070489
 31
0.0
  0
LINE
  5
337
330
1F
100
AcDbEntity
  8
1
  6
Continuous
 62
     2
100
AcDbLine
 10
360.3553589896501
 20
357.019076070489
 30
0.0
 11
360.3553589896501
 21
355.0038217441073
 31
0.0
  0
LINE
  5
338
330
1F
100
AcDbEntity
  8
1
  6
Continuous
 62
     2
100
AcDbLine
 10
360.3553589896501
 20
355.0038217441073
 30
0.0
 11
361.9993822559088
 21
355.0038217441073
 31
0.0
  0
LINE
  5
339
330
1F
100
AcDbEntity
  8
1
  6
Continuous
 62
     2
100
AcDbLine
 10
361.9993822559088
 20
355.0038217441073
 30
0.0
 11
361.9993822559088
 21
355.4280858128192
 31
0.0
  0
LINE
  5
33A
330
1F
100
AcDbEntity
  8
1
  6
Continuous
 62
     2
100
AcDbLine
 10
363.6434055221676
 20
358.7161323453366
 30
0.0
 11
363.6434055221676
 21
357.8145711993238
 31
0.0
  0
LINE
  5
33B
330
1F
100
AcDbEntity
  8
1
  6
Continuous
 62
     2
100
AcDbLine
 10
363.6434055221676
 20
357.8145711993238
 30
0.0
 11
365.4995608227823
 21
357.8145711993238
 31
0.0
  0
LINE
  5
33C
330
1F
100
AcDbEntity
  8
1
  6
Continuous
 62
     2
100
AcDbLine
 10
365.4995608227823
 20
357.8145711993238
 30
0.0
 11
365.4995608227823
 21
358.7161323453366
 31
0.0
  0
LINE
  5
33D
330
1F
100
AcDbEntity
  8
1
  6
Continuous
 62
     2
100
AcDbLine
 10
365.4995608227823
 20
358.7161323453366
 30
0.0
 11
363.6434055221676
 21
358.7161323453366
 31
0.0
  0
LINE
  5
33E
330
1F
100
AcDbEntity
  8
1
  6
Continuous
 62
     2
100
AcDbLine
 10
362.7948773847437
 20
357.1251420876669
 30
0.0
 11
366.2420229430281
 21
357.1251420876669
 31
0.0
  0
LINE
  5
33F
330
1F
100
AcDbEntity
  8
1
  6
Continuous
 62
     2
100
AcDbLine
 10
364.1207025994685
 20
357.1251420876669
 30
0.0
 11
363.7494715393456
 21
355.7993168729421
 31
0.0
  0
LINE
  5
340
330
1F
100
AcDbEntity
  8
1
  6
Continuous
 62
     2
100
AcDbLine
 10
363.8555375565235
 20
356.329646958832
 30
0.0
 11
365.4995608227823
 21
356.329646958832
 31
0.0
  0
LINE
  5
341
330
1F
100
AcDbEntity
  8
1
  6
Continuous
 62
     2
100
AcDbLine
 10
365.4995608227823
 20
356.329646958832
 30
0.0
 11
365.2874287884263
 21
355.5341518299972
 31
0.0
  0
LINE
  5
342
330
1F
100
AcDbEntity
  8
1
  6
Continuous
 62
     2
100
AcDbLine
 10
365.2874287884263
 20
355.5341518299972
 30
0.0
 11
364.9161977283034
 21
354.8977557269293
 31
0.0
  0
LINE
  5
343
330
1F
100
AcDbEntity
  8
1
  6
Continuous
 62
     2
100
AcDbLine
 10
364.9161977283034
 20
354.8977557269293
 30
0.0
 11
364.7040656939474
 21
354.7386567011623
 31
0.0
  0
LINE
  5
344
330
1F
100
AcDbEntity
  8
1
  6
Continuous
 62
     2
100
AcDbLine
 10
364.7040656939474
 20
354.7386567011623
 30
0.0
 11
364.2267686166465
 21
355.0038217441073
 31
0.0
  0
LINE
  5
345
330
1F
100
AcDbEntity
  8
1
  6
Continuous
 62
     2
100
AcDbLine
 10
357.2768690195175
 20
350.5114217109181
 30
0.0
 11
354.7312846072459
 21
350.5114217109181
 31
0.0
  0
LINE
  5
346
330
1F
100
AcDbEntity
  8
1
  6
Continuous
 62
     2
100
AcDbLine
 10
357.7011330882294
 20
352.4206100201217
 30
0.0
 11
354.7312846072459
 21
352.4206100201217
 31
0.0
  0
LINE
  5
347
330
1F
100
AcDbEntity
  8
1
  6
Continuous
 62
     2
100
AcDbLine
 10
354.7312846072459
 20
352.4206100201217
 30
0.0
 11
354.7312846072459
 21
348.1779693330025
 31
0.0
  0
LINE
  5
348
330
1F
100
AcDbEntity
  8
1
  6
Continuous
 62
     2
100
AcDbLine
 10
354.7312846072459
 20
348.1779693330025
 30
0.0
 11
357.7011330882294
 21
348.1779693330025
 31
0.0
  0
LINE
  5
349
330
1F
100
AcDbEntity
  8
1
  6
Continuous
 62
     2
100
AcDbLine
 10
323.505928720909
 20
365.1815633631868
 30
0.0
 11
323.293796686553
 21
364.8103323030639
 31
0.0
  0
LINE
  5
34A
330
1F
100
AcDbEntity
  8
1
  6
Continuous
 62
     2
100
AcDbLine
 10
323.293796686553
 20
364.8103323030639
 30
0.0
 11
323.028631643608
 21
364.120903191407
 31
0.0
  0
LINE
  5
34B
330
1F
100
AcDbEntity
  8
1
  6
Continuous
 62
     2
100
AcDbLine
 10
323.028631643608
 20
364.120903191407
 30
0.0
 11
323.028631643608
 21
361.9995828478474
 31
0.0
  0
LINE
  5
34C
330
1F
100
AcDbEntity
  8
1
  6
Continuous
 62
     2
100
AcDbLine
 10
323.028631643608
 20
361.9995828478474
 30
0.0
 11
323.293796686553
 21
361.3631867447795
 31
0.0
  0
LINE
  5
34D
330
1F
100
AcDbEntity
  8
1
  6
Continuous
 62
     2
100
AcDbLine
 10
323.293796686553
 20
361.3631867447795
 30
0.0
 11
323.505928720909
 21
360.9389226760675
 31
0.0
  0
LINE
  5
34E
330
1F
100
AcDbEntity
  8
1
  6
Continuous
 62
     2
100
AcDbLine
 10
326.1045461417695
 20
361.2040877190125
 30
0.0
 11
326.1045461417695
 21
363.7496721312841
 31
0.0
  0
LINE
  5
34F
330
1F
100
AcDbEntity
  8
1
  6
Continuous
 62
     2
100
AcDbLine
 10
326.1045461417695
 20
363.7496721312841
 30
0.0
 11
328.915295596986
 21
363.7496721312841
 31
0.0
  0
LINE
  5
350
330
1F
100
AcDbEntity
  8
1
  6
Continuous
 62
     2
100
AcDbLine
 10
328.915295596986
 20
363.7496721312841
 30
0.0
 11
328.915295596986
 21
361.2040877190125
 31
0.0
  0
LINE
  5
351
330
1F
100
AcDbEntity
  8
1
  6
Continuous
 62
     2
100
AcDbLine
 10
328.915295596986
 20
361.2040877190125
 30
0.0
 11
326.1045461417695
 21
361.2040877190125
 31
0.0
  0
LINE
  5
352
330
1F
100
AcDbEntity
  8
1
  6
Continuous
 62
     2
100
AcDbLine
 10
326.3166781761254
 20
362.1586818736143
 30
0.0
 11
326.6879092362484
 21
362.5299129337373
 31
0.0
  0
LINE
  5
353
330
1F
100
AcDbEntity
  8
1
  6
Continuous
 62
     2
100
AcDbLine
 10
326.6879092362484
 20
362.5299129337373
 30
0.0
 11
327.0591402963713
 21
363.3254080625721
 31
0.0
  0
LINE
  5
354
330
1F
100
AcDbEntity
  8
1
  6
Continuous
 62
     2
100
AcDbLine
 10
327.0591402963713
 20
363.3254080625721
 30
0.0
 11
327.0591402963713
 21
364.8103323030639
 31
0.0
  0
LINE
  5
355
330
1F
100
AcDbEntity
  8
1
  6
Continuous
 62
     2
100
AcDbLine
 10
325.7333150816465
 20
364.8103323030639
 30
0.0
 11
329.2865266571089
 21
364.8103323030639
 31
0.0
  0
LINE
  5
356
330
1F
100
AcDbEntity
  8
1
  6
Continuous
 62
     2
100
AcDbLine
 10
327.8546354252062
 20
364.8103323030639
 30
0.0
 11
327.8546354252062
 21
362.6890119595042
 31
0.0
  0
LINE
  5
357
330
1F
100
AcDbEntity
  8
1
  6
Continuous
 62
     2
100
AcDbLine
 10
327.8546354252062
 20
362.6890119595042
 30
0.0
 11
327.9607014423842
 21
362.4238469165593
 31
0.0
  0
LINE
  5
358
330
1F
100
AcDbEntity
  8
1
  6
Continuous
 62
     2
100
AcDbLine
 10
327.9607014423842
 20
362.4238469165593
 30
0.0
 11
328.5970975454521
 21
362.4238469165593
 31
0.0
  0
LINE
  5
359
330
1F
100
AcDbEntity
  8
1
  6
Continuous
 62
     2
100
AcDbLine
 10
328.5970975454521
 20
362.4238469165593
 30
0.0
 11
328.70316356263
 21
362.6890119595042
 31
0.0
  0
LINE
  5
35A
330
1F
100
AcDbEntity
  8
1
  6
Continuous
 62
     2
100
AcDbLine
 10
329.8698897515879
 20
361.2040877190125
 30
0.0
 11
329.9759557687659
 21
361.6283517877244
 31
0.0
  0
LINE
  5
35B
330
1F
100
AcDbEntity
  8
1
  6
Continuous
 62
     2
100
AcDbLine
 10
329.9759557687659
 20
361.6283517877244
 30
0.0
 11
330.0820217859439
 21
362.7950779766822
 31
0.0
  0
LINE
  5
35C
330
1F
100
AcDbEntity
  8
1
  6
Continuous
 62
     2
100
AcDbLine
 10
330.0820217859439
 20
362.7950779766822
 30
0.0
 11
330.0820217859439
 21
365.0754973460088
 31
0.0
  0
LINE
  5
35D
330
1F
100
AcDbEntity
  8
1
  6
Continuous
 62
     2
100
AcDbLine
 10
330.0820217859439
 20
365.0754973460088
 30
0.0
 11
333.4231013270503
 21
365.0754973460088
 31
0.0
  0
LINE
  5
35E
330
1F
100
AcDbEntity
  8
1
  6
Continuous
 62
     2
100
AcDbLine
 10
333.4231013270503
 20
364.120903191407
 30
0.0
 11
331.9912100951476
 21
364.120903191407
 31
0.0
  0
LINE
  5
35F
330
1F
100
AcDbEntity
  8
1
  6
Continuous
 62
     2
100
AcDbLine
 10
331.7790780607916
 20
364.120903191407
 30
0.0
 11
330.5593188632448
 21
364.120903191407
 31
0.0
  0
LINE
  5
360
330
1F
100
AcDbEntity
  8
1
  6
Continuous
 62
     2
100
AcDbLine
 10
331.1426819577237
 20
364.8103323030639
 30
0.0
 11
331.1426819577237
 21
362.7950779766822
 31
0.0
  0
LINE
  5
361
330
1F
100
AcDbEntity
  8
1
  6
Continuous
 62
     2
100
AcDbLine
 10
330.4532528460668
 20
363.0602430196272
 30
0.0
 11
330.8244839061898
 21
363.4845070883391
 31
0.0
  0
LINE
  5
362
330
1F
100
AcDbEntity
  8
1
  6
Continuous
 62
     2
100
AcDbLine
 10
330.8244839061898
 20
363.4845070883391
 30
0.0
 11
331.1426819577237
 21
364.120903191407
 31
0.0
  0
LINE
  5
363
330
1F
100
AcDbEntity
  8
1
  6
Continuous
 62
     2
100
AcDbLine
 10
331.4078470006687
 20
363.7496721312841
 30
0.0
 11
331.7790780607916
 21
363.3254080625721
 31
0.0
  0
LINE
  5
364
330
1F
100
AcDbEntity
  8
1
  6
Continuous
 62
     2
100
AcDbLine
 10
331.7790780607916
 20
362.9541770024492
 30
0.0
 11
332.0972761123255
 21
363.2193420453942
 31
0.0
  0
LINE
  5
365
330
1F
100
AcDbEntity
  8
1
  6
Continuous
 62
     2
100
AcDbLine
 10
332.0972761123255
 20
363.2193420453942
 30
0.0
 11
332.6806392068044
 21
364.120903191407
 31
0.0
  0
LINE
  5
366
330
1F
100
AcDbEntity
  8
1
  6
Continuous
 62
     2
100
AcDbLine
 10
332.6806392068044
 20
364.8103323030639
 30
0.0
 11
332.6806392068044
 21
362.7950779766822
 31
0.0
  0
LINE
  5
367
330
1F
100
AcDbEntity
  8
1
  6
Continuous
 62
     2
100
AcDbLine
 10
332.6806392068044
 20
364.120903191407
 30
0.0
 11
333.0518702669274
 21
363.5905731055171
 31
0.0
  0
LINE
  5
368
330
1F
100
AcDbEntity
  8
1
  6
Continuous
 62
     2
100
AcDbLine
 10
333.0518702669274
 20
363.5905731055171
 30
0.0
 11
333.6352333614063
 21
362.9541770024492
 31
0.0
  0
LINE
  5
369
330
1F
100
AcDbEntity
  8
1
  6
Continuous
 62
     2
100
AcDbLine
 10
332.9458042497494
 20
362.4238469165593
 30
0.0
 11
331.0366159405457
 21
362.4238469165593
 31
0.0
  0
LINE
  5
36A
330
1F
100
AcDbEntity
  8
1
  6
Continuous
 62
     2
100
AcDbLine
 10
331.0366159405457
 20
362.4238469165593
 30
0.0
 11
331.0366159405457
 21
361.0980217018345
 31
0.0
  0
LINE
  5
36B
330
1F
100
AcDbEntity
  8
1
  6
Continuous
 62
     2
100
AcDbLine
 10
331.0366159405457
 20
361.0980217018345
 30
0.0
 11
332.9458042497494
 21
361.0980217018345
 31
0.0
  0
LINE
  5
36C
330
1F
100
AcDbEntity
  8
1
  6
Continuous
 62
     2
100
AcDbLine
 10
332.9458042497494
 20
361.0980217018345
 30
0.0
 11
332.9458042497494
 21
362.4238469165593
 31
0.0
  0
LINE
  5
36D
330
1F
100
AcDbEntity
  8
1
  6
Continuous
 62
     2
100
AcDbLine
 10
331.0366159405457
 20
361.7344178049024
 30
0.0
 11
332.9458042497494
 21
361.7344178049024
 31
0.0
  0
LINE
  5
36E
330
1F
100
AcDbEntity
  8
1
  6
Continuous
 62
     2
100
AcDbLine
 10
336.0217187479108
 20
360.9389226760675
 30
0.0
 11
336.0217187479108
 21
364.6512332772969
 31
0.0
  0
LINE
  5
36F
330
1F
100
AcDbEntity
  8
1
  6
Continuous
 62
     2
100
AcDbLine
 10
337.7718080313475
 20
364.6512332772969
 30
0.0
 11
334.2185964558851
 21
364.6512332772969
 31
0.0
  0
LINE
  5
370
330
1F
100
AcDbEntity
  8
1
  6
Continuous
 62
     2
100
AcDbLine
 10
336.6050818423897
 20
363.7496721312841
 30
0.0
 11
337.2945109540466
 21
362.9541770024492
 31
0.0
  0
LINE
  5
371
330
1F
100
AcDbEntity
  8
1
  6
Continuous
 62
     2
100
AcDbLine
 10
338.8324682031274
 20
363.7496721312841
 30
0.0
 11
338.9385342203054
 21
364.014837174229
 31
0.0
  0
LINE
  5
372
330
1F
100
AcDbEntity
  8
1
  6
Continuous
 62
     2
100
AcDbLine
 10
338.9385342203054
 20
364.014837174229
 30
0.0
 11
339.4158312976063
 21
364.2800022171739
 31
0.0
  0
LINE
  5
373
330
1F
100
AcDbEntity
  8
1
  6
Continuous
 62
     2
100
AcDbLine
 10
339.4158312976063
 20
364.2800022171739
 30
0.0
 11
339.8931283749072
 21
364.386068234352
 31
0.0
  0
LINE
  5
374
330
1F
100
AcDbEntity
  8
1
  6
Continuous
 62
     2
100
AcDbLine
 10
339.8931283749072
 20
364.386068234352
 30
0.0
 11
340.6886235037421
 21
364.386068234352
 31
0.0
  0
LINE
  5
375
330
1F
100
AcDbEntity
  8
1
  6
Continuous
 62
     2
100
AcDbLine
 10
340.6886235037421
 20
364.386068234352
 30
0.0
 11
341.165920581043
 21
364.2800022171739
 31
0.0
  0
LINE
  5
376
330
1F
100
AcDbEntity
  8
1
  6
Continuous
 62
     2
100
AcDbLine
 10
341.165920581043
 20
364.2800022171739
 30
0.0
 11
341.6432176583439
 21
364.014837174229
 31
0.0
  0
LINE
  5
377
330
1F
100
AcDbEntity
  8
1
  6
Continuous
 62
     2
100
AcDbLine
 10
341.6432176583439
 20
364.014837174229
 30
0.0
 11
341.7492836755219
 21
363.7496721312841
 31
0.0
  0
LINE
  5
378
330
1F
100
AcDbEntity
  8
1
  6
Continuous
 62
     2
100
AcDbLine
 10
341.7492836755219
 20
363.7496721312841
 30
0.0
 11
341.7492836755219
 21
363.0602430196272
 31
0.0
  0
LINE
  5
379
330
1F
100
AcDbEntity
  8
1
  6
Continuous
 62
     2
100
AcDbLine
 10
341.7492836755219
 20
363.0602430196272
 30
0.0
 11
341.6432176583439
 21
362.7950779766822
 31
0.0
  0
LINE
  5
37A
330
1F
100
AcDbEntity
  8
1
  6
Continuous
 62
     2
100
AcDbLine
 10
341.6432176583439
 20
362.7950779766822
 30
0.0
 11
341.165920581043
 21
362.5299129337373
 31
0.0
  0
LINE
  5
37B
330
1F
100
AcDbEntity
  8
1
  6
Continuous
 62
     2
100
AcDbLine
 10
341.165920581043
 20
362.5299129337373
 30
0.0
 11
339.3097652804283
 21
362.2647478907923
 31
0.0
  0
LINE
  5
37C
330
1F
100
AcDbEntity
  8
1
  6
Continuous
 62
     2
100
AcDbLine
 10
339.3097652804283
 20
362.2647478907923
 30
0.0
 11
338.9385342203054
 21
361.9995828478474
 31
0.0
  0
LINE
  5
37D
330
1F
100
AcDbEntity
  8
1
  6
Continuous
 62
     2
100
AcDbLine
 10
338.9385342203054
 20
361.9995828478474
 30
0.0
 11
338.8324682031274
 21
361.7344178049024
 31
0.0
  0
LINE
  5
37E
330
1F
100
AcDbEntity
  8
1
  6
Continuous
 62
     2
100
AcDbLine
 10
338.8324682031274
 20
361.7344178049024
 30
0.0
 11
338.7264021859494
 21
360.9389226760675
 31
0.0
  0
LINE
  5
37F
330
1F
100
AcDbEntity
  8
1
  6
Continuous
 62
     2
100
AcDbLine
 10
338.7264021859494
 20
360.9389226760675
 30
0.0
 11
341.7492836755219
 21
360.9389226760675
 31
0.0
  0
LINE
  5
380
330
1F
100
AcDbEntity
  8
1
  6
Continuous
 62
     2
100
AcDbLine
 10
342.8099438473017
 20
364.014837174229
 30
0.0
 11
344.0297030448485
 21
364.014837174229
 31
0.0
  0
LINE
  5
381
330
1F
100
AcDbEntity
  8
1
  6
Continuous
 62
     2
100
AcDbLine
 10
343.4463399503696
 20
365.0754973460088
 30
0.0
 11
343.4463399503696
 21
361.0980217018345
 31
0.0
  0
LINE
  5
382
330
1F
100
AcDbEntity
  8
1
  6
Continuous
 62
     2
100
AcDbLine
 10
343.4463399503696
 20
364.014837174229
 30
0.0
 11
343.0751088902467
 21
362.9541770024492
 31
0.0
  0
LINE
  5
383
330
1F
100
AcDbEntity
  8
1
  6
Continuous
 62
     2
100
AcDbLine
 10
343.0751088902467
 20
362.9541770024492
 30
0.0
 11
342.8099438473017
 21
362.5299129337373
 31
0.0
  0
LINE
  5
384
330
1F
100
AcDbEntity
  8
1
  6
Continuous
 62
     2
100
AcDbLine
 10
342.8099438473017
 20
362.5299129337373
 30
0.0
 11
342.7038778301237
 21
362.2647478907923
 31
0.0
  0
LINE
  5
385
330
1F
100
AcDbEntity
  8
1
  6
Continuous
 62
     2
100
AcDbLine
 10
343.4463399503696
 20
364.014837174229
 30
0.0
 11
343.8706040190815
 21
362.9541770024492
 31
0.0
  0
LINE
  5
386
330
1F
100
AcDbEntity
  8
1
  6
Continuous
 62
     2
100
AcDbLine
 10
344.7191321565054
 20
364.9163983202419
 30
0.0
 11
344.1357690620265
 21
364.014837174229
 31
0.0
  0
LINE
  5
387
330
1F
100
AcDbEntity
  8
1
  6
Continuous
 62
     2
100
AcDbLine
 10
344.9312641908613
 20
364.120903191407
 30
0.0
 11
344.6130661393274
 21
363.4845070883391
 31
0.0
  0
LINE
  5
388
330
1F
100
AcDbEntity
  8
1
  6
Continuous
 62
     2
100
AcDbLine
 10
344.6130661393274
 20
363.4845070883391
 30
0.0
 11
344.2418350792045
 21
362.7950779766822
 31
0.0
  0
LINE
  5
389
330
1F
100
AcDbEntity
  8
1
  6
Continuous
 62
     2
100
AcDbLine
 10
344.2418350792045
 20
362.7950779766822
 30
0.0
 11
343.8706040190815
 21
362.4238469165593
 31
0.0
  0
LINE
  5
38A
330
1F
100
AcDbEntity
  8
1
  6
Continuous
 62
     2
100
AcDbLine
 10
344.5070001221494
 20
363.2193420453942
 30
0.0
 11
344.5070001221494
 21
361.0980217018345
 31
0.0
  0
LINE
  5
38B
330
1F
100
AcDbEntity
  8
1
  6
Continuous
 62
     2
100
AcDbLine
 10
345.0903632166283
 20
364.6512332772969
 30
0.0
 11
346.1510233884081
 21
364.6512332772969
 31
0.0
  0
LINE
  5
38C
330
1F
100
AcDbEntity
  8
1
  6
Continuous
 62
     2
100
AcDbLine
 10
344.9312641908613
 20
363.5905731055171
 30
0.0
 11
346.3631554227641
 21
363.5905731055171
 31
0.0
  0
LINE
  5
38D
330
1F
100
AcDbEntity
  8
1
  6
Continuous
 62
     2
100
AcDbLine
 10
345.7797923282852
 20
363.5905731055171
 30
0.0
 11
345.7797923282852
 21
361.3631867447795
 31
0.0
  0
LINE
  5
38E
330
1F
100
AcDbEntity
  8
1
  6
Continuous
 62
     2
100
AcDbLine
 10
345.7797923282852
 20
361.3631867447795
 30
0.0
 11
345.6737263111072
 21
361.0980217018345
 31
0.0
  0
LINE
  5
38F
330
1F
100
AcDbEntity
  8
1
  6
Continuous
 62
     2
100
AcDbLine
 10
345.6737263111072
 20
361.0980217018345
 30
0.0
 11
345.3024952509843
 21
361.0980217018345
 31
0.0
  0
LINE
  5
390
330
1F
100
AcDbEntity
  8
1
  6
Continuous
 62
     2
100
AcDbLine
 10
348.4844757663237
 20
365.1815633631868
 30
0.0
 11
348.7496408092687
 21
364.8103323030639
 31
0.0
  0
LINE
  5
391
330
1F
100
AcDbEntity
  8
1
  6
Continuous
 62
     2
100
AcDbLine
 10
348.7496408092687
 20
364.8103323030639
 30
0.0
 11
348.9617728436247
 21
364.120903191407
 31
0.0
  0
LINE
  5
392
330
1F
100
AcDbEntity
  8
1
  6
Continuous
 62
     2
100
AcDbLine
 10
348.9617728436247
 20
364.120903191407
 30
0.0
 11
348.9617728436247
 21
361.9995828478474
 31
0.0
  0
LINE
  5
393
330
1F
100
AcDbEntity
  8
1
  6
Continuous
 62
     2
100
AcDbLine
 10
348.9617728436247
 20
361.9995828478474
 30
0.0
 11
348.7496408092687
 21
361.3631867447795
 31
0.0
  0
LINE
  5
394
330
1F
100
AcDbEntity
  8
1
  6
Continuous
 62
     2
100
AcDbLine
 10
348.7496408092687
 20
361.3631867447795
 30
0.0
 11
348.4844757663237
 21
360.9389226760675
 31
0.0
  0
LINE
  5
395
330
1F
100
AcDbEntity
  8
1
  6
Continuous
 62
     2
100
AcDbLine
 10
313.2942222573012
 20
521.667263390593
 30
0.0
 11
313.4002882744791
 21
521.2960323304701
 31
0.0
  0
LINE
  5
396
330
1F
100
AcDbEntity
  8
1
  6
Continuous
 62
     2
100
AcDbLine
 10
313.4002882744791
 20
521.2960323304701
 30
0.0
 11
313.5063542916571
 21
521.0308672875251
 31
0.0
  0
LINE
  5
397
330
1F
100
AcDbEntity
  8
1
  6
Continuous
 62
     2
100
AcDbLine
 10
313.5063542916571
 20
521.0308672875251
 30
0.0
 11
313.8775853517801
 21
521.402098347648
 31
0.0
  0
LINE
  5
398
330
1F
100
AcDbEntity
  8
1
  6
Continuous
 62
     2
100
AcDbLine
 10
314.354882429081
 20
520.8717682617581
 30
0.0
 11
314.8321795063819
 21
520.8717682617581
 31
0.0
  0
LINE
  5
399
330
1F
100
AcDbEntity
  8
1
  6
Continuous
 62
     2
100
AcDbLine
 10
314.8321795063819
 20
520.8717682617581
 30
0.0
 11
315.0443115407379
 21
521.1369333047031
 31
0.0
  0
LINE
  5
39A
330
1F
100
AcDbEntity
  8
1
  6
Continuous
 62
     2
100
AcDbLine
 10
315.0443115407379
 20
521.1369333047031
 30
0.0
 11
314.9382455235599
 21
521.667263390593
 31
0.0
  0
LINE
  5
39B
330
1F
100
AcDbEntity
  8
1
  6
Continuous
 62
     2
100
AcDbLine
 10
314.9382455235599
 20
521.667263390593
 30
0.0
 11
314.460948446259
 21
522.3566925022499
 31
0.0
  0
LINE
  5
39C
330
1F
100
AcDbEntity
  8
1
  6
Continuous
 62
     2
100
AcDbLine
 10
314.460948446259
 20
522.3566925022499
 30
0.0
 11
314.5670144634369
 21
522.7279235623728
 31
0.0
  0
LINE
  5
39D
330
1F
100
AcDbEntity
  8
1
  6
Continuous
 62
     2
100
AcDbLine
 10
314.5670144634369
 20
522.7279235623728
 30
0.0
 11
315.0443115407379
 21
522.9930886053178
 31
0.0
  0
LINE
  5
39E
330
1F
100
AcDbEntity
  8
1
  6
Continuous
 62
     2
100
AcDbLine
 10
315.0443115407379
 20
522.9930886053178
 30
0.0
 11
314.9382455235599
 21
523.4173526740298
 31
0.0
  0
LINE
  5
39F
330
1F
100
AcDbEntity
  8
1
  6
Continuous
 62
     2
100
AcDbLine
 10
314.9382455235599
 20
523.4173526740298
 30
0.0
 11
314.5670144634369
 21
523.7885837341527
 31
0.0
  0
LINE
  5
3A0
330
1F
100
AcDbEntity
  8
1
  6
Continuous
 62
     2
100
AcDbLine
 10
315.7867736609837
 20
521.82636241636
 30
0.0
 11
316.1049717125177
 21
521.402098347648
 31
0.0
  0
LINE
  5
3A1
330
1F
100
AcDbEntity
  8
1
  6
Continuous
 62
     2
100
AcDbLine
 10
316.1049717125177
 20
521.402098347648
 30
0.0
 11
316.3701367554626
 21
521.0308672875251
 31
0.0
  0
LINE
  5
3A2
330
1F
100
AcDbEntity
  8
1
  6
Continuous
 62
     2
100
AcDbLine
 10
317.9080940045433
 20
520.7657022445802
 30
0.0
 11
318.2262920560773
 21
522.1975934764829
 31
0.0
  0
LINE
  5
3A3
330
1F
100
AcDbEntity
  8
1
  6
Continuous
 62
     2
100
AcDbLine
 10
318.2262920560773
 20
522.1975934764829
 30
0.0
 11
318.4914570990222
 21
523.9476827599196
 31
0.0
  0
LINE
  5
3A4
330
1F
100
AcDbEntity
  8
1
  6
Continuous
 62
     2
100
AcDbLine
 10
319.2869522278571
 20
523.5234186912077
 30
0.0
 11
318.4914570990222
 21
523.2582536482628
 31
0.0
  0
LINE
  5
3A5
330
1F
100
AcDbEntity
  8
1
  6
Continuous
 62
     2
100
AcDbLine
 10
318.4914570990222
 20
523.2582536482628
 30
0.0
 11
317.6429289615984
 21
523.1521876310848
 31
0.0
  0
LINE
  5
3A6
330
1F
100
AcDbEntity
  8
1
  6
Continuous
 62
     2
100
AcDbLine
 10
319.3930182450351
 20
522.9930886053178
 30
0.0
 11
319.7642493051581
 21
522.9930886053178
 31
0.0
  0
LINE
  5
3A7
330
1F
100
AcDbEntity
  8
1
  6
Continuous
 62
     2
100
AcDbLine
 10
319.7642493051581
 20
522.9930886053178
 30
0.0
 11
320.241546382459
 21
522.8870225881398
 31
0.0
  0
LINE
  5
3A8
330
1F
100
AcDbEntity
  8
1
  6
Continuous
 62
     2
100
AcDbLine
 10
319.0748201935011
 20
521.2960323304701
 30
0.0
 11
319.2869522278571
 21
521.0308672875251
 31
0.0
  0
LINE
  5
3A9
330
1F
100
AcDbEntity
  8
1
  6
Continuous
 62
     2
100
AcDbLine
 10
319.2869522278571
 20
521.0308672875251
 30
0.0
 11
319.870315322336
 21
520.8717682617581
 31
0.0
  0
LINE
  5
3AA
330
1F
100
AcDbEntity
  8
1
  6
Continuous
 62
     2
100
AcDbLine
 10
319.870315322336
 20
520.8717682617581
 30
0.0
 11
320.4536784168149
 21
521.0308672875251
 31
0.0
  0
LINE
  5
3AB
330
1F
100
AcDbEntity
  8
1
  6
Continuous
 62
     2
100
AcDbLine
 10
323.3174608806204
 20
523.6825177169746
 30
0.0
 11
322.9462298204975
 21
522.3566925022499
 31
0.0
  0
LINE
  5
3AC
330
1F
100
AcDbEntity
  8
1
  6
Continuous
 62
     2
100
AcDbLine
 10
322.9462298204975
 20
522.3566925022499
 30
0.0
 11
322.3628667260186
 21
521.0308672875251
 31
0.0
  0
LINE
  5
3AD
330
1F
100
AcDbEntity
  8
1
  6
Continuous
 62
     2
100
AcDbLine
 10
322.3628667260186
 20
521.0308672875251
 30
0.0
 11
321.8855696487177
 21
521.2960323304701
 31
0.0
  0
LINE
  5
3AE
330
1F
100
AcDbEntity
  8
1
  6
Continuous
 62
     2
100
AcDbLine
 10
321.8855696487177
 20
521.2960323304701
 30
0.0
 11
321.7795036315397
 21
521.932428433538
 31
0.0
  0
LINE
  5
3AF
330
1F
100
AcDbEntity
  8
1
  6
Continuous
 62
     2
100
AcDbLine
 10
321.7795036315397
 20
521.932428433538
 30
0.0
 11
321.8855696487177
 21
522.7279235623728
 31
0.0
  0
LINE
  5
3B0
330
1F
100
AcDbEntity
  8
1
  6
Continuous
 62
     2
100
AcDbLine
 10
321.8855696487177
 20
522.7279235623728
 30
0.0
 11
322.3628667260186
 21
523.4173526740298
 31
0.0
  0
LINE
  5
3B1
330
1F
100
AcDbEntity
  8
1
  6
Continuous
 62
     2
100
AcDbLine
 10
322.3628667260186
 20
523.4173526740298
 30
0.0
 11
323.0522958376755
 21
523.6825177169746
 31
0.0
  0
LINE
  5
3B2
330
1F
100
AcDbEntity
  8
1
  6
Continuous
 62
     2
100
AcDbLine
 10
323.0522958376755
 20
523.6825177169746
 30
0.0
 11
323.7947579579214
 21
523.6825177169746
 31
0.0
  0
LINE
  5
3B3
330
1F
100
AcDbEntity
  8
1
  6
Continuous
 62
     2
100
AcDbLine
 10
323.7947579579214
 20
523.6825177169746
 30
0.0
 11
324.2720550352223
 21
523.4173526740298
 31
0.0
  0
LINE
  5
3B4
330
1F
100
AcDbEntity
  8
1
  6
Continuous
 62
     2
100
AcDbLine
 10
324.2720550352223
 20
523.4173526740298
 30
0.0
 11
324.5902530867563
 21
522.8870225881398
 31
0.0
  0
LINE
  5
3B5
330
1F
100
AcDbEntity
  8
1
  6
Continuous
 62
     2
100
AcDbLine
 10
324.5902530867563
 20
522.8870225881398
 30
0.0
 11
324.5902530867563
 21
521.932428433538
 31
0.0
  0
LINE
  5
3B6
330
1F
100
AcDbEntity
  8
1
  6
Continuous
 62
     2
100
AcDbLine
 10
324.5902530867563
 20
521.932428433538
 30
0.0
 11
324.2720550352223
 21
521.2960323304701
 31
0.0
  0
LINE
  5
3B7
330
1F
100
AcDbEntity
  8
1
  6
Continuous
 62
     2
100
AcDbLine
 10
324.2720550352223
 20
521.2960323304701
 30
0.0
 11
323.6356589321544
 21
520.7657022445802
 31
0.0
  0
LINE
  5
3B8
330
1F
100
AcDbEntity
  8
1
  6
Continuous
 62
     2
100
AcDbLine
 10
325.916078301481
 20
520.5005372016352
 30
0.0
 11
325.916078301481
 21
523.6825177169746
 31
0.0
  0
LINE
  5
3B9
330
1F
100
AcDbEntity
  8
1
  6
Continuous
 62
     2
100
AcDbLine
 10
325.916078301481
 20
523.6825177169746
 30
0.0
 11
328.9389597910535
 21
523.6825177169746
 31
0.0
  0
LINE
  5
3BA
330
1F
100
AcDbEntity
  8
1
  6
Continuous
 62
     2
100
AcDbLine
 10
328.9389597910535
 20
523.6825177169746
 30
0.0
 11
328.9389597910535
 21
520.5005372016352
 31
0.0
  0
LINE
  5
3BB
330
1F
100
AcDbEntity
  8
1
  6
Continuous
 62
     2
100
AcDbLine
 10
328.9389597910535
 20
520.5005372016352
 30
0.0
 11
328.3555966965746
 21
520.5005372016352
 31
0.0
  0
LINE
  5
3BC
330
1F
100
AcDbEntity
  8
1
  6
Continuous
 62
     2
100
AcDbLine
 10
326.9767384732608
 20
521.667263390593
 30
0.0
 11
326.9767384732608
 21
522.7279235623728
 31
0.0
  0
LINE
  5
3BD
330
1F
100
AcDbEntity
  8
1
  6
Continuous
 62
     2
100
AcDbLine
 10
326.9767384732608
 20
522.7279235623728
 30
0.0
 11
327.8782996192737
 21
522.7279235623728
 31
0.0
  0
LINE
  5
3BE
330
1F
100
AcDbEntity
  8
1
  6
Continuous
 62
     2
100
AcDbLine
 10
327.8782996192737
 20
522.7279235623728
 30
0.0
 11
327.8782996192737
 21
521.667263390593
 31
0.0
  0
LINE
  5
3BF
330
1F
100
AcDbEntity
  8
1
  6
Continuous
 62
     2
100
AcDbLine
 10
327.8782996192737
 20
521.667263390593
 30
0.0
 11
326.9767384732608
 21
521.667263390593
 31
0.0
  0
LINE
  5
3C0
330
1F
100
AcDbEntity
  8
1
  6
Continuous
 62
     2
100
AcDbLine
 10
326.4994413959599
 20
523.6825177169746
 30
0.0
 11
327.0828044904388
 21
524.4780128458095
 31
0.0
  0
LINE
  5
3C1
330
1F
100
AcDbEntity
  8
1
  6
Continuous
 62
     2
100
AcDbLine
 10
330.8481481002572
 20
522.6218575451949
 30
0.0
 11
331.9088082720371
 21
522.8870225881398
 31
0.0
  0
LINE
  5
3C2
330
1F
100
AcDbEntity
  8
1
  6
Continuous
 62
     2
100
AcDbLine
 10
331.9088082720371
 20
522.8870225881398
 30
0.0
 11
332.7573364094609
 21
523.2582536482628
 31
0.0
  0
LINE
  5
3C3
330
1F
100
AcDbEntity
  8
1
  6
Continuous
 62
     2
100
AcDbLine
 10
332.120940306393
 20
523.9476827599196
 30
0.0
 11
331.6966762376811
 21
523.6825177169746
 31
0.0
  0
LINE
  5
3C4
330
1F
100
AcDbEntity
  8
1
  6
Continuous
 62
     2
100
AcDbLine
 10
331.6966762376811
 20
523.6825177169746
 30
0.0
 11
330.8481481002572
 21
523.4173526740298
 31
0.0
  0
LINE
  5
3C5
330
1F
100
AcDbEntity
  8
1
  6
Continuous
 62
     2
100
AcDbLine
 10
331.2193791603801
 20
524.3189138200426
 30
0.0
 11
331.802742254859
 21
523.4173526740298
 31
0.0
  0
LINE
  5
3C6
330
1F
100
AcDbEntity
  8
1
  6
Continuous
 62
     2
100
AcDbLine
 10
331.802742254859
 20
523.4173526740298
 30
0.0
 11
332.5982373836939
 21
521.82636241636
 31
0.0
  0
LINE
  5
3C7
330
1F
100
AcDbEntity
  8
1
  6
Continuous
 62
     2
100
AcDbLine
 10
332.5982373836939
 20
521.82636241636
 30
0.0
 11
332.120940306393
 21
521.932428433538
 31
0.0
  0
LINE
  5
3C8
330
1F
100
AcDbEntity
  8
1
  6
Continuous
 62
     2
100
AcDbLine
 10
332.120940306393
 20
521.932428433538
 30
0.0
 11
331.6966762376811
 21
521.932428433538
 31
0.0
  0
LINE
  5
3C9
330
1F
100
AcDbEntity
  8
1
  6
Continuous
 62
     2
100
AcDbLine
 10
331.6966762376811
 20
521.932428433538
 30
0.0
 11
331.2193791603801
 21
521.667263390593
 31
0.0
  0
LINE
  5
3CA
330
1F
100
AcDbEntity
  8
1
  6
Continuous
 62
     2
100
AcDbLine
 10
331.2193791603801
 20
521.667263390593
 30
0.0
 11
330.9542141174352
 21
521.1369333047031
 31
0.0
  0
LINE
  5
3CB
330
1F
100
AcDbEntity
  8
1
  6
Continuous
 62
     2
100
AcDbLine
 10
330.9542141174352
 20
521.1369333047031
 30
0.0
 11
331.4315111947361
 21
520.7657022445802
 31
0.0
  0
LINE
  5
3CC
330
1F
100
AcDbEntity
  8
1
  6
Continuous
 62
     2
100
AcDbLine
 10
331.4315111947361
 20
520.7657022445802
 30
0.0
 11
332.28003933216
 21
520.6066032188132
 31
0.0
  0
LINE
  5
3CD
330
1F
100
AcDbEntity
  8
1
  6
Continuous
 62
     2
100
AcDbLine
 10
334.8786567530205
 20
520.7657022445802
 30
0.0
 11
334.7195577272535
 21
521.667263390593
 31
0.0
  0
LINE
  5
3CE
330
1F
100
AcDbEntity
  8
1
  6
Continuous
 62
     2
100
AcDbLine
 10
334.7195577272535
 20
521.667263390593
 30
0.0
 11
334.7195577272535
 21
522.8870225881398
 31
0.0
  0
LINE
  5
3CF
330
1F
100
AcDbEntity
  8
1
  6
Continuous
 62
     2
100
AcDbLine
 10
334.7195577272535
 20
522.8870225881398
 30
0.0
 11
334.9847227701985
 21
524.0537487770976
 31
0.0
  0
LINE
  5
3D0
330
1F
100
AcDbEntity
  8
1
  6
Continuous
 62
     2
100
AcDbLine
 10
335.6741518818554
 20
523.1521876310848
 30
0.0
 11
336.7348120536352
 21
523.2582536482628
 31
0.0
  0
LINE
  5
3D1
330
1F
100
AcDbEntity
  8
1
  6
Continuous
 62
     2
100
AcDbLine
 10
336.7348120536352
 20
523.2582536482628
 30
0.0
 11
337.3181751481141
 21
523.4173526740298
 31
0.0
  0
LINE
  5
3D2
330
1F
100
AcDbEntity
  8
1
  6
Continuous
 62
     2
100
AcDbLine
 10
336.6287460364572
 20
524.0537487770976
 30
0.0
 11
336.7348120536352
 21
521.667263390593
 31
0.0
  0
LINE
  5
3D3
330
1F
100
AcDbEntity
  8
1
  6
Continuous
 62
     2
100
AcDbLine
 10
336.7348120536352
 20
521.667263390593
 30
0.0
 11
336.6287460364572
 21
521.1369333047031
 31
0.0
  0
LINE
  5
3D4
330
1F
100
AcDbEntity
  8
1
  6
Continuous
 62
     2
100
AcDbLine
 10
336.6287460364572
 20
521.1369333047031
 30
0.0
 11
336.3635809935122
 21
520.8717682617581
 31
0.0
  0
LINE
  5
3D5
330
1F
100
AcDbEntity
  8
1
  6
Continuous
 62
     2
100
AcDbLine
 10
336.3635809935122
 20
520.8717682617581
 30
0.0
 11
335.9393169248003
 21
520.7657022445802
 31
0.0
  0
LINE
  5
3D6
330
1F
100
AcDbEntity
  8
1
  6
Continuous
 62
     2
100
AcDbLine
 10
335.9393169248003
 20
520.7657022445802
 30
0.0
 11
335.5680858646774
 21
521.0308672875251
 31
0.0
  0
LINE
  5
3D7
330
1F
100
AcDbEntity
  8
1
  6
Continuous
 62
     2
100
AcDbLine
 10
335.5680858646774
 20
521.0308672875251
 30
0.0
 11
335.5680858646774
 21
521.2960323304701
 31
0.0
  0
LINE
  5
3D8
330
1F
100
AcDbEntity
  8
1
  6
Continuous
 62
     2
100
AcDbLine
 10
335.5680858646774
 20
521.2960323304701
 30
0.0
 11
336.1514489591563
 21
521.402098347648
 31
0.0
  0
LINE
  5
3D9
330
1F
100
AcDbEntity
  8
1
  6
Continuous
 62
     2
100
AcDbLine
 10
336.1514489591563
 20
521.402098347648
 30
0.0
 11
336.7348120536352
 21
521.2960323304701
 31
0.0
  0
LINE
  5
3DA
330
1F
100
AcDbEntity
  8
1
  6
Continuous
 62
     2
100
AcDbLine
 10
336.7348120536352
 20
521.2960323304701
 30
0.0
 11
337.3181751481141
 21
520.8717682617581
 31
0.0
  0
LINE
  5
3DB
330
1F
100
AcDbEntity
  8
1
  6
Continuous
 62
     2
100
AcDbLine
 10
338.3788353198939
 20
522.7279235623728
 30
0.0
 11
341.9320468953563
 21
522.7279235623728
 31
0.0
  0
LINE
  5
3DC
330
1F
100
AcDbEntity
  8
1
  6
Continuous
 62
     2
100
AcDbLine
 10
342.7275420241912
 20
520.5005372016352
 30
0.0
 11
342.9927070671362
 21
520.7657022445802
 31
0.0
  0
LINE
  5
3DD
330
1F
100
AcDbEntity
  8
1
  6
Continuous
 62
     2
100
AcDbLine
 10
342.9927070671362
 20
520.7657022445802
 30
0.0
 11
343.3639381272591
 21
521.2960323304701
 31
0.0
  0
LINE
  5
3DE
330
1F
100
AcDbEntity
  8
1
  6
Continuous
 62
     2
100
AcDbLine
 10
343.3639381272591
 20
521.2960323304701
 30
0.0
 11
343.788202195971
 21
522.091527459305
 31
0.0
  0
LINE
  5
3DF
330
1F
100
AcDbEntity
  8
1
  6
Continuous
 62
     2
100
AcDbLine
 10
343.4700041444371
 20
521.402098347648
 30
0.0
 11
343.682136178793
 21
521.0308672875251
 31
0.0
  0
LINE
  5
3E0
330
1F
100
AcDbEntity
  8
1
  6
Continuous
 62
     2
100
AcDbLine
 10
343.682136178793
 20
521.0308672875251
 30
0.0
 11
344.053367238916
 21
520.7657022445802
 31
0.0
  0
LINE
  5
3E1
330
1F
100
AcDbEntity
  8
1
  6
Continuous
 62
     2
100
AcDbLine
 10
344.053367238916
 20
520.7657022445802
 30
0.0
 11
344.6367303333949
 21
520.5005372016352
 31
0.0
  0
LINE
  5
3E2
330
1F
100
AcDbEntity
  8
1
  6
Continuous
 62
     2
100
AcDbLine
 10
344.6367303333949
 20
520.5005372016352
 30
0.0
 11
346.1746875824756
 21
520.5005372016352
 31
0.0
  0
LINE
  5
3E3
330
1F
100
AcDbEntity
  8
1
  6
Continuous
 62
     2
100
AcDbLine
 10
345.5913244879967
 20
521.932428433538
 30
0.0
 11
344.4245982990389
 21
521.932428433538
 31
0.0
  0
LINE
  5
3E4
330
1F
100
AcDbEntity
  8
1
  6
Continuous
 62
     2
100
AcDbLine
 10
344.4245982990389
 20
520.6066032188132
 30
0.0
 11
344.4245982990389
 21
522.9930886053178
 31
0.0
  0
LINE
  5
3E5
330
1F
100
AcDbEntity
  8
1
  6
Continuous
 62
     2
100
AcDbLine
 10
345.4852584708187
 20
522.9930886053178
 30
0.0
 11
343.3639381272591
 21
522.9930886053178
 31
0.0
  0
LINE
  5
3E6
330
1F
100
AcDbEntity
  8
1
  6
Continuous
 62
     2
100
AcDbLine
 10
342.8866410499581
 20
523.4173526740298
 30
0.0
 11
342.8866410499581
 21
524.0537487770976
 31
0.0
  0
LINE
  5
3E7
330
1F
100
AcDbEntity
  8
1
  6
Continuous
 62
     2
100
AcDbLine
 10
342.8866410499581
 20
524.0537487770976
 30
0.0
 11
345.9095225395307
 21
524.0537487770976
 31
0.0
  0
LINE
  5
3E8
330
1F
100
AcDbEntity
  8
1
  6
Continuous
 62
     2
100
AcDbLine
 10
345.9095225395307
 20
524.0537487770976
 30
0.0
 11
345.9095225395307
 21
523.4173526740298
 31
0.0
  0
LINE
  5
3E9
330
1F
100
AcDbEntity
  8
1
  6
Continuous
 62
     2
100
AcDbLine
 10
344.4245982990389
 20
524.0537487770976
 30
0.0
 11
344.4245982990389
 21
524.4780128458095
 31
0.0
  0
LINE
  5
3EA
330
1F
100
AcDbEntity
  8
1
  6
Continuous
 62
     2
100
AcDbLine
 10
346.8641166941325
 20
522.8870225881398
 30
0.0
 11
348.0308428830903
 21
523.4173526740298
 31
0.0
  0
LINE
  5
3EB
330
1F
100
AcDbEntity
  8
1
  6
Continuous
 62
     2
100
AcDbLine
 10
348.0308428830903
 20
523.4173526740298
 30
0.0
 11
349.568800132171
 21
523.6825177169746
 31
0.0
  0
LINE
  5
3EC
330
1F
100
AcDbEntity
  8
1
  6
Continuous
 62
     2
100
AcDbLine
 10
350.1521632266499
 20
523.6825177169746
 30
0.0
 11
349.833965175116
 21
524.0537487770976
 31
0.0
  0
LINE
  5
3ED
330
1F
100
AcDbEntity
  8
1
  6
Continuous
 62
     2
100
AcDbLine
 10
350.046097209472
 20
524.3189138200426
 30
0.0
 11
350.4173282695949
 21
523.9476827599196
 31
0.0
  0
LINE
  5
3EE
330
1F
100
AcDbEntity
  8
1
  6
Continuous
 62
     2
100
AcDbLine
 10
348.9854370376921
 20
523.5234186912077
 30
0.0
 11
348.5081399603912
 21
523.2582536482628
 31
0.0
  0
LINE
  5
3EF
330
1F
100
AcDbEntity
  8
1
  6
Continuous
 62
     2
100
AcDbLine
 10
348.5081399603912
 20
523.2582536482628
 30
0.0
 11
348.1899419088572
 21
522.7279235623728
 31
0.0
  0
LINE
  5
3F0
330
1F
100
AcDbEntity
  8
1
  6
Continuous
 62
     2
100
AcDbLine
 10
348.1899419088572
 20
522.7279235623728
 30
0.0
 11
347.9247768659123
 21
522.091527459305
 31
0.0
  0
LINE
  5
3F1
330
1F
100
AcDbEntity
  8
1
  6
Continuous
 62
     2
100
AcDbLine
 10
347.9247768659123
 20
522.091527459305
 30
0.0
 11
347.9247768659123
 21
521.667263390593
 31
0.0
  0
LINE
  5
3F2
330
1F
100
AcDbEntity
  8
1
  6
Continuous
 62
     2
100
AcDbLine
 10
347.9247768659123
 20
521.667263390593
 30
0.0
 11
348.0308428830903
 21
521.1369333047031
 31
0.0
  0
LINE
  5
3F3
330
1F
100
AcDbEntity
  8
1
  6
Continuous
 62
     2
100
AcDbLine
 10
348.0308428830903
 20
521.1369333047031
 30
0.0
 11
348.4020739432132
 21
520.7657022445802
 31
0.0
  0
LINE
  5
3F4
330
1F
100
AcDbEntity
  8
1
  6
Continuous
 62
     2
100
AcDbLine
 10
348.4020739432132
 20
520.7657022445802
 30
0.0
 11
348.9854370376921
 21
520.5005372016352
 31
0.0
  0
LINE
  5
3F5
330
1F
100
AcDbEntity
  8
1
  6
Continuous
 62
     2
100
AcDbLine
 10
351.8492195014976
 20
520.7657022445802
 30
0.0
 11
351.6901204757306
 21
521.667263390593
 31
0.0
  0
LINE
  5
3F6
330
1F
100
AcDbEntity
  8
1
  6
Continuous
 62
     2
100
AcDbLine
 10
351.6901204757306
 20
521.667263390593
 30
0.0
 11
351.6901204757306
 21
522.8870225881398
 31
0.0
  0
LINE
  5
3F7
330
1F
100
AcDbEntity
  8
1
  6
Continuous
 62
     2
100
AcDbLine
 10
351.6901204757306
 20
522.8870225881398
 30
0.0
 11
351.9552855186756
 21
524.0537487770976
 31
0.0
  0
LINE
  5
3F8
330
1F
100
AcDbEntity
  8
1
  6
Continuous
 62
     2
100
AcDbLine
 10
352.6447146303325
 20
523.1521876310848
 30
0.0
 11
353.7053748021123
 21
523.2582536482628
 31
0.0
  0
LINE
  5
3F9
330
1F
100
AcDbEntity
  8
1
  6
Continuous
 62
     2
100
AcDbLine
 10
353.7053748021123
 20
523.2582536482628
 30
0.0
 11
354.2887378965912
 21
523.4173526740298
 31
0.0
  0
LINE
  5
3FA
330
1F
100
AcDbEntity
  8
1
  6
Continuous
 62
     2
100
AcDbLine
 10
353.5993087849343
 20
524.0537487770976
 30
0.0
 11
353.7053748021123
 21
521.667263390593
 31
0.0
  0
LINE
  5
3FB
330
1F
100
AcDbEntity
  8
1
  6
Continuous
 62
     2
100
AcDbLine
 10
353.7053748021123
 20
521.667263390593
 30
0.0
 11
353.5993087849343
 21
521.1369333047031
 31
0.0
  0
LINE
  5
3FC
330
1F
100
AcDbEntity
  8
1
  6
Continuous
 62
     2
100
AcDbLine
 10
353.5993087849343
 20
521.1369333047031
 30
0.0
 11
353.3341437419894
 21
520.8717682617581
 31
0.0
  0
LINE
  5
3FD
330
1F
100
AcDbEntity
  8
1
  6
Continuous
 62
     2
100
AcDbLine
 10
353.3341437419894
 20
520.8717682617581
 30
0.0
 11
352.9098796732774
 21
520.7657022445802
 31
0.0
  0
LINE
  5
3FE
330
1F
100
AcDbEntity
  8
1
  6
Continuous
 62
     2
100
AcDbLine
 10
352.9098796732774
 20
520.7657022445802
 30
0.0
 11
352.5386486131545
 21
521.0308672875251
 31
0.0
  0
LINE
  5
3FF
330
1F
100
AcDbEntity
  8
1
  6
Continuous
 62
     2
100
AcDbLine
 10
352.5386486131545
 20
521.0308672875251
 30
0.0
 11
352.5386486131545
 21
521.2960323304701
 31
0.0
  0
LINE
  5
400
330
1F
100
AcDbEntity
  8
1
  6
Continuous
 62
     2
100
AcDbLine
 10
352.5386486131545
 20
521.2960323304701
 30
0.0
 11
353.1220117076334
 21
521.402098347648
 31
0.0
  0
LINE
  5
401
330
1F
100
AcDbEntity
  8
1
  6
Continuous
 62
     2
100
AcDbLine
 10
353.1220117076334
 20
521.402098347648
 30
0.0
 11
353.7053748021123
 21
521.2960323304701
 31
0.0
  0
LINE
  5
402
330
1F
100
AcDbEntity
  8
1
  6
Continuous
 62
     2
100
AcDbLine
 10
353.7053748021123
 20
521.2960323304701
 30
0.0
 11
354.2887378965912
 21
520.8717682617581
 31
0.0
  0
LINE
  5
403
330
1F
100
AcDbEntity
  8
1
  6
Continuous
 62
     2
100
AcDbLine
 10
356.9934213346298
 20
521.2960323304701
 30
0.0
 11
356.8873553174518
 21
522.091527459305
 31
0.0
  0
LINE
  5
404
330
1F
100
AcDbEntity
  8
1
  6
Continuous
 62
     2
100
AcDbLine
 10
356.8873553174518
 20
522.091527459305
 30
0.0
 11
357.1525203603968
 21
524.2128478028645
 31
0.0
  0
LINE
  5
405
330
1F
100
AcDbEntity
  8
1
  6
Continuous
 62
     2
100
AcDbLine
 10
356.1979262057949
 20
523.5234186912077
 30
0.0
 11
357.2585863775747
 21
523.5234186912077
 31
0.0
  0
LINE
  5
406
330
1F
100
AcDbEntity
  8
1
  6
Continuous
 62
     2
100
AcDbLine
 10
357.2585863775747
 20
523.5234186912077
 30
0.0
 11
357.9480154892316
 21
523.6825177169746
 31
0.0
  0
LINE
  5
407
330
1F
100
AcDbEntity
  8
1
  6
Continuous
 62
     2
100
AcDbLine
 10
357.7358834548757
 20
523.2582536482628
 30
0.0
 11
357.1525203603968
 21
521.932428433538
 31
0.0
  0
LINE
  5
408
330
1F
100
AcDbEntity
  8
1
  6
Continuous
 62
     2
100
AcDbLine
 10
357.1525203603968
 20
521.932428433538
 30
0.0
 11
356.0918601886169
 21
521.1369333047031
 31
0.0
  0
LINE
  5
409
330
1F
100
AcDbEntity
  8
1
  6
Continuous
 62
     2
100
AcDbLine
 10
356.0918601886169
 20
521.1369333047031
 30
0.0
 11
355.826695145672
 21
521.402098347648
 31
0.0
  0
LINE
  5
40A
330
1F
100
AcDbEntity
  8
1
  6
Continuous
 62
     2
100
AcDbLine
 10
355.826695145672
 20
521.402098347648
 30
0.0
 11
356.0918601886169
 21
521.932428433538
 31
0.0
  0
LINE
  5
40B
330
1F
100
AcDbEntity
  8
1
  6
Continuous
 62
     2
100
AcDbLine
 10
356.0918601886169
 20
521.932428433538
 30
0.0
 11
356.6752232830958
 21
522.4627585194279
 31
0.0
  0
LINE
  5
40C
330
1F
100
AcDbEntity
  8
1
  6
Continuous
 62
     2
100
AcDbLine
 10
356.6752232830958
 20
522.4627585194279
 30
0.0
 11
357.5767844291087
 21
522.7279235623728
 31
0.0
  0
LINE
  5
40D
330
1F
100
AcDbEntity
  8
1
  6
Continuous
 62
     2
100
AcDbLine
 10
357.5767844291087
 20
522.7279235623728
 30
0.0
 11
358.2131805321766
 21
522.4627585194279
 31
0.0
  0
LINE
  5
40E
330
1F
100
AcDbEntity
  8
1
  6
Continuous
 62
     2
100
AcDbLine
 10
358.2131805321766
 20
522.4627585194279
 30
0.0
 11
358.4253125665326
 21
522.091527459305
 31
0.0
  0
LINE
  5
40F
330
1F
100
AcDbEntity
  8
1
  6
Continuous
 62
     2
100
AcDbLine
 10
358.4253125665326
 20
522.091527459305
 30
0.0
 11
358.4253125665326
 21
521.402098347648
 31
0.0
  0
LINE
  5
410
330
1F
100
AcDbEntity
  8
1
  6
Continuous
 62
     2
100
AcDbLine
 10
358.4253125665326
 20
521.402098347648
 30
0.0
 11
357.9480154892316
 21
520.8717682617581
 31
0.0
  0
LINE
  5
411
330
1F
100
AcDbEntity
  8
1
  6
Continuous
 62
     2
100
AcDbLine
 10
357.9480154892316
 20
520.8717682617581
 30
0.0
 11
357.3646523947527
 21
520.6066032188132
 31
0.0
  0
LINE
  5
412
330
1F
100
AcDbEntity
  8
1
  6
Continuous
 62
     2
100
AcDbLine
 10
360.9178639702151
 20
521.82636241636
 30
0.0
 11
360.7587649444481
 21
522.3566925022499
 31
0.0
  0
LINE
  5
413
330
1F
100
AcDbEntity
  8
1
  6
Continuous
 62
     2
100
AcDbLine
 10
360.7587649444481
 20
522.3566925022499
 30
0.0
 11
360.7587649444481
 21
523.4173526740298
 31
0.0
  0
LINE
  5
414
330
1F
100
AcDbEntity
  8
1
  6
Continuous
 62
     2
100
AcDbLine
 10
360.7587649444481
 20
523.4173526740298
 30
0.0
 11
360.9178639702151
 21
524.2128478028645
 31
0.0
  0
LINE
  5
415
330
1F
100
AcDbEntity
  8
1
  6
Continuous
 62
     2
100
AcDbLine
 10
360.7587649444481
 20
523.1521876310848
 30
0.0
 11
361.0239299873931
 21
523.6825177169746
 31
0.0
  0
LINE
  5
416
330
1F
100
AcDbEntity
  8
1
  6
Continuous
 62
     2
100
AcDbLine
 10
361.0239299873931
 20
523.6825177169746
 30
0.0
 11
361.501227064694
 21
524.0537487770976
 31
0.0
  0
LINE
  5
417
330
1F
100
AcDbEntity
  8
1
  6
Continuous
 62
     2
100
AcDbLine
 10
361.501227064694
 20
524.0537487770976
 30
0.0
 11
361.8194251162279
 21
524.0537487770976
 31
0.0
  0
LINE
  5
418
330
1F
100
AcDbEntity
  8
1
  6
Continuous
 62
     2
100
AcDbLine
 10
361.8194251162279
 20
524.0537487770976
 30
0.0
 11
362.0845901591729
 21
523.6825177169746
 31
0.0
  0
LINE
  5
419
330
1F
100
AcDbEntity
  8
1
  6
Continuous
 62
     2
100
AcDbLine
 10
362.0845901591729
 20
523.6825177169746
 30
0.0
 11
362.1906561763509
 21
522.8870225881398
 31
0.0
  0
LINE
  5
41A
330
1F
100
AcDbEntity
  8
1
  6
Continuous
 62
     2
100
AcDbLine
 10
362.1906561763509
 20
522.8870225881398
 30
0.0
 11
362.1906561763509
 21
522.1975934764829
 31
0.0
  0
LINE
  5
41B
330
1F
100
AcDbEntity
  8
1
  6
Continuous
 62
     2
100
AcDbLine
 10
362.1906561763509
 20
522.1975934764829
 30
0.0
 11
361.9785241419949
 21
521.2960323304701
 31
0.0
  0
LINE
  5
41C
330
1F
100
AcDbEntity
  8
1
  6
Continuous
 62
     2
100
AcDbLine
 10
361.9785241419949
 20
521.2960323304701
 30
0.0
 11
361.395161047516
 21
520.6066032188132
 31
0.0
  0
LINE
  5
41D
330
1F
100
AcDbEntity
  8
1
  6
Continuous
 62
     2
100
AcDbLine
 10
364.5771415628555
 20
522.6218575451949
 30
0.0
 11
365.6378017346353
 21
522.6218575451949
 31
0.0
  0
LINE
  5
41E
330
1F
100
AcDbEntity
  8
1
  6
Continuous
 62
     2
100
AcDbLine
 10
365.6378017346353
 20
522.6218575451949
 30
0.0
 11
366.5393628806482
 21
522.8870225881398
 31
0.0
  0
LINE
  5
41F
330
1F
100
AcDbEntity
  8
1
  6
Continuous
 62
     2
100
AcDbLine
 10
366.4332968634702
 20
523.6825177169746
 30
0.0
 11
365.6378017346353
 21
523.5234186912077
 31
0.0
  0
LINE
  5
420
330
1F
100
AcDbEntity
  8
1
  6
Continuous
 62
     2
100
AcDbLine
 10
365.6378017346353
 20
523.5234186912077
 30
0.0
 11
364.8953396143895
 21
523.5234186912077
 31
0.0
  0
LINE
  5
421
330
1F
100
AcDbEntity
  8
1
  6
Continuous
 62
     2
100
AcDbLine
 10
365.7438677518133
 20
524.3189138200426
 30
0.0
 11
365.7438677518133
 21
523.2582536482628
 31
0.0
  0
LINE
  5
422
330
1F
100
AcDbEntity
  8
1
  6
Continuous
 62
     2
100
AcDbLine
 10
365.7438677518133
 20
523.2582536482628
 30
0.0
 11
365.8499337689913
 21
521.402098347648
 31
0.0
  0
LINE
  5
423
330
1F
100
AcDbEntity
  8
1
  6
Continuous
 62
     2
100
AcDbLine
 10
365.8499337689913
 20
521.402098347648
 30
0.0
 11
365.6378017346353
 21
520.8717682617581
 31
0.0
  0
LINE
  5
424
330
1F
100
AcDbEntity
  8
1
  6
Continuous
 62
     2
100
AcDbLine
 10
365.6378017346353
 20
520.8717682617581
 30
0.0
 11
365.1605046573344
 21
520.6066032188132
 31
0.0
  0
LINE
  5
425
330
1F
100
AcDbEntity
  8
1
  6
Continuous
 62
     2
100
AcDbLine
 10
365.1605046573344
 20
520.6066032188132
 30
0.0
 11
364.6832075800335
 21
520.7657022445802
 31
0.0
  0
LINE
  5
426
330
1F
100
AcDbEntity
  8
1
  6
Continuous
 62
     2
100
AcDbLine
 10
364.6832075800335
 20
520.7657022445802
 30
0.0
 11
364.5771415628555
 21
521.0308672875251
 31
0.0
  0
LINE
  5
427
330
1F
100
AcDbEntity
  8
1
  6
Continuous
 62
     2
100
AcDbLine
 10
364.5771415628555
 20
521.0308672875251
 30
0.0
 11
364.7892735972115
 21
521.2960323304701
 31
0.0
  0
LINE
  5
428
330
1F
100
AcDbEntity
  8
1
  6
Continuous
 62
     2
100
AcDbLine
 10
364.7892735972115
 20
521.2960323304701
 30
0.0
 11
365.3726366916904
 21
521.402098347648
 31
0.0
  0
LINE
  5
429
330
1F
100
AcDbEntity
  8
1
  6
Continuous
 62
     2
100
AcDbLine
 10
365.3726366916904
 20
521.402098347648
 30
0.0
 11
365.9559997861693
 21
521.1369333047031
 31
0.0
  0
LINE
  5
42A
330
1F
100
AcDbEntity
  8
1
  6
Continuous
 62
     2
100
AcDbLine
 10
365.9559997861693
 20
521.1369333047031
 30
0.0
 11
366.4332968634702
 21
520.7657022445802
 31
0.0
  0
LINE
  5
42B
330
1F
100
AcDbEntity
  8
1
  6
Continuous
 62
     2
100
AcDbLine
 10
368.1833861469069
 20
522.4627585194279
 30
0.0
 11
369.6152773788097
 21
522.8870225881398
 31
0.0
  0
LINE
  5
42C
330
1F
100
AcDbEntity
  8
1
  6
Continuous
 62
     2
100
AcDbLine
 10
369.6152773788097
 20
522.8870225881398
 30
0.0
 11
370.7820035677675
 21
522.9930886053178
 31
0.0
  0
LINE
  5
42D
330
1F
100
AcDbEntity
  8
1
  6
Continuous
 62
     2
100
AcDbLine
 10
370.7820035677675
 20
522.9930886053178
 30
0.0
 11
371.5244656880133
 21
522.9930886053178
 31
0.0
  0
LINE
  5
42E
330
1F
100
AcDbEntity
  8
1
  6
Continuous
 62
     2
100
AcDbLine
 10
370.3047064904665
 20
521.82636241636
 30
0.0
 11
370.4638055162335
 21
522.7279235623728
 31
0.0
  0
LINE
  5
42F
330
1F
100
AcDbEntity
  8
1
  6
Continuous
 62
     2
100
AcDbLine
 10
370.4638055162335
 20
522.7279235623728
 30
0.0
 11
370.4638055162335
 21
524.0537487770976
 31
0.0
  0
LINE
  5
430
330
1F
100
AcDbEntity
  8
1
  6
Continuous
 62
     2
100
AcDbLine
 10
369.1379803015087
 20
523.6825177169746
 30
0.0
 11
369.1379803015087
 21
522.091527459305
 31
0.0
  0
LINE
  5
431
330
1F
100
AcDbEntity
  8
1
  6
Continuous
 62
     2
100
AcDbLine
 10
369.1379803015087
 20
522.091527459305
 30
0.0
 11
369.4031453444537
 21
521.0308672875251
 31
0.0
  0
LINE
  5
432
330
1F
100
AcDbEntity
  8
1
  6
Continuous
 62
     2
100
AcDbLine
 10
369.4031453444537
 20
521.0308672875251
 30
0.0
 11
369.9865084389326
 21
520.8717682617581
 31
0.0
  0
LINE
  5
433
330
1F
100
AcDbEntity
  8
1
  6
Continuous
 62
     2
100
AcDbLine
 10
369.9865084389326
 20
520.8717682617581
 30
0.0
 11
370.9411025935344
 21
520.8717682617581
 31
0.0
  0
LINE
  5
434
330
1F
100
AcDbEntity
  8
1
  6
Continuous
 62
     2
100
AcDbLine
 10
372.5851258597931
 20
520.7657022445802
 30
0.0
 11
373.062422937094
 21
521.932428433538
 31
0.0
  0
LINE
  5
435
330
1F
100
AcDbEntity
  8
1
  6
Continuous
 62
     2
100
AcDbLine
 10
373.062422937094
 20
521.932428433538
 30
0.0
 11
373.751852048751
 21
523.2582536482628
 31
0.0
  0
LINE
  5
436
330
1F
100
AcDbEntity
  8
1
  6
Continuous
 62
     2
100
AcDbLine
 10
373.751852048751
 20
523.2582536482628
 30
0.0
 11
374.2291491260518
 21
524.0537487770976
 31
0.0
  0
LINE
  5
437
330
1F
100
AcDbEntity
  8
1
  6
Continuous
 62
     2
100
AcDbLine
 10
372.9033239113271
 20
521.667263390593
 30
0.0
 11
373.27455497145
 21
522.1975934764829
 31
0.0
  0
LINE
  5
438
330
1F
100
AcDbEntity
  8
1
  6
Continuous
 62
     2
100
AcDbLine
 10
373.27455497145
 20
522.1975934764829
 30
0.0
 11
373.751852048751
 21
522.6218575451949
 31
0.0
  0
LINE
  5
439
330
1F
100
AcDbEntity
  8
1
  6
Continuous
 62
     2
100
AcDbLine
 10
373.751852048751
 20
522.6218575451949
 30
0.0
 11
374.2291491260518
 21
522.6218575451949
 31
0.0
  0
LINE
  5
43A
330
1F
100
AcDbEntity
  8
1
  6
Continuous
 62
     2
100
AcDbLine
 10
374.2291491260518
 20
522.6218575451949
 30
0.0
 11
374.4412811604078
 21
522.091527459305
 31
0.0
  0
LINE
  5
43B
330
1F
100
AcDbEntity
  8
1
  6
Continuous
 62
     2
100
AcDbLine
 10
374.4412811604078
 20
522.091527459305
 30
0.0
 11
374.4412811604078
 21
521.1369333047031
 31
0.0
  0
LINE
  5
43C
330
1F
100
AcDbEntity
  8
1
  6
Continuous
 62
     2
100
AcDbLine
 10
374.4412811604078
 20
521.1369333047031
 30
0.0
 11
374.5473471775858
 21
520.7657022445802
 31
0.0
  0
LINE
  5
43D
330
1F
100
AcDbEntity
  8
1
  6
Continuous
 62
     2
100
AcDbLine
 10
374.5473471775858
 20
520.7657022445802
 30
0.0
 11
375.0246442548867
 21
520.7657022445802
 31
0.0
  0
LINE
  5
43E
330
1F
100
AcDbEntity
  8
1
  6
Continuous
 62
     2
100
AcDbLine
 10
375.0246442548867
 20
520.7657022445802
 30
0.0
 11
375.5019413321876
 21
521.402098347648
 31
0.0
  0
LINE
  5
43F
330
1F
100
AcDbEntity
  8
1
  6
Continuous
 62
     7
100
AcDbLine
 10
406.9237706534889
 20
386.8313882307571
 30
0.0
 11
406.9237706534889
 21
387.8761384999602
 31
0.0
  0
LINE
  5
440
330
1F
100
AcDbEntity
  8
1
  6
Continuous
 62
     7
100
AcDbLine
 10
406.9237706534889
 20
387.8761384999602
 30
0.0
 11
407.2615732405313
 21
389.0950138140306
 31
0.0
  0
LINE
  5
441
330
1F
100
AcDbEntity
  8
1
  6
Continuous
 62
     7
100
AcDbLine
 10
407.2615732405313
 20
389.0950138140306
 30
0.0
 11
407.937178414616
 21
390.3138891281009
 31
0.0
  0
LINE
  5
442
330
1F
100
AcDbEntity
  8
1
  6
Continuous
 62
     7
100
AcDbLine
 10
407.937178414616
 20
390.3138891281009
 30
0.0
 11
408.7816848822218
 21
391.358639397304
 31
0.0
  0
LINE
  5
443
330
1F
100
AcDbEntity
  8
1
  6
Continuous
 62
     7
100
AcDbLine
 10
408.7816848822218
 20
391.358639397304
 30
0.0
 11
409.7950926433488
 21
392.5775147113743
 31
0.0
  0
LINE
  5
444
330
1F
100
AcDbEntity
  8
1
  6
Continuous
 62
     7
100
AcDbLine
 10
409.7950926433488
 20
392.5775147113743
 30
0.0
 11
410.8085004044759
 21
393.4481399357102
 31
0.0
  0
LINE
  5
445
330
1F
100
AcDbEntity
  8
1
  6
Continuous
 62
     7
100
AcDbLine
 10
410.8085004044759
 20
393.4481399357102
 30
0.0
 11
413.0042172202511
 21
395.7117655189837
 31
0.0
  0
LINE
  5
446
330
1F
100
AcDbEntity
  8
1
  6
Continuous
 62
     7
100
AcDbLine
 10
413.0042172202511
 20
395.7117655189837
 30
0.0
 11
413.3420198072935
 21
396.2341406535853
 31
0.0
  0
LINE
  5
447
330
1F
100
AcDbEntity
  8
1
  6
Continuous
 62
     7
100
AcDbLine
 10
413.3420198072935
 20
396.2341406535853
 30
0.0
 11
413.5109211008146
 21
396.7565157881868
 31
0.0
  0
LINE
  5
448
330
1F
100
AcDbEntity
  8
1
  6
Continuous
 62
     7
100
AcDbLine
 10
413.5109211008146
 20
396.7565157881868
 30
0.0
 11
413.5109211008146
 21
397.4530159676555
 31
0.0
  0
LINE
  5
449
330
1F
100
AcDbEntity
  8
1
  6
Continuous
 62
     7
100
AcDbLine
 10
413.5109211008146
 20
397.4530159676555
 30
0.0
 11
413.3420198072935
 21
397.9753911022571
 31
0.0
  0
LINE
  5
44A
330
1F
100
AcDbEntity
  8
1
  6
Continuous
 62
     7
100
AcDbLine
 10
413.3420198072935
 20
397.9753911022571
 30
0.0
 11
413.0042172202511
 21
398.4977662368587
 31
0.0
  0
LINE
  5
44B
330
1F
100
AcDbEntity
  8
1
  6
Continuous
 62
     7
100
AcDbLine
 10
413.0042172202511
 20
398.4977662368587
 30
0.0
 11
412.4975133396876
 21
398.846016326593
 31
0.0
  0
LINE
  5
44C
330
1F
100
AcDbEntity
  8
1
  6
Continuous
 62
     7
100
AcDbLine
 10
412.4975133396876
 20
398.846016326593
 30
0.0
 11
411.8219081656029
 21
399.0201413714602
 31
0.0
  0
LINE
  5
44D
330
1F
100
AcDbEntity
  8
1
  6
Continuous
 62
     7
100
AcDbLine
 10
411.8219081656029
 20
399.0201413714602
 30
0.0
 11
411.1463029915182
 21
399.0201413714602
 31
0.0
  0
LINE
  5
44E
330
1F
100
AcDbEntity
  8
1
  6
Continuous
 62
     7
100
AcDbLine
 10
411.1463029915182
 20
399.0201413714602
 30
0.0
 11
410.4706978174335
 21
398.846016326593
 31
0.0
  0
LINE
  5
44F
330
1F
100
AcDbEntity
  8
1
  6
Continuous
 62
     7
100
AcDbLine
 10
410.4706978174335
 20
398.846016326593
 30
0.0
 11
409.96399393687
 21
398.4977662368587
 31
0.0
  0
LINE
  5
450
330
1F
100
AcDbEntity
  8
1
  6
Continuous
 62
     7
100
AcDbLine
 10
409.96399393687
 20
398.4977662368587
 30
0.0
 11
409.6261913498277
 21
397.9753911022571
 31
0.0
  0
LINE
  5
451
330
1F
100
AcDbEntity
  8
1
  6
Continuous
 62
     7
100
AcDbLine
 10
409.6261913498277
 20
397.9753911022571
 30
0.0
 11
409.4572900563065
 21
397.4530159676555
 31
0.0
  0
LINE
  5
452
330
1F
100
AcDbEntity
  8
1
  6
Continuous
 62
     7
100
AcDbLine
 10
409.4572900563065
 20
397.4530159676555
 30
0.0
 11
409.4572900563065
 21
396.7565157881868
 31
0.0
  0
LINE
  5
453
330
1F
100
AcDbEntity
  8
1
  6
Continuous
 62
     7
100
AcDbLine
 10
409.4572900563065
 20
396.7565157881868
 30
0.0
 11
407.5993758275736
 21
396.7565157881868
 31
0.0
  0
LINE
  5
454
330
1F
100
AcDbEntity
  8
1
  6
Continuous
 62
     7
100
AcDbLine
 10
407.5993758275736
 20
396.7565157881868
 30
0.0
 11
407.5993758275736
 21
397.4530159676555
 31
0.0
  0
LINE
  5
455
330
1F
100
AcDbEntity
  8
1
  6
Continuous
 62
     7
100
AcDbLine
 10
407.5993758275736
 20
397.4530159676555
 30
0.0
 11
407.7682771210948
 21
398.3236411919915
 31
0.0
  0
LINE
  5
456
330
1F
100
AcDbEntity
  8
1
  6
Continuous
 62
     7
100
AcDbLine
 10
407.7682771210948
 20
398.3236411919915
 30
0.0
 11
408.4438822951795
 21
399.3683914611946
 31
0.0
  0
LINE
  5
457
330
1F
100
AcDbEntity
  8
1
  6
Continuous
 62
     7
100
AcDbLine
 10
408.4438822951795
 20
399.3683914611946
 30
0.0
 11
409.1194874692642
 21
400.0648916406634
 31
0.0
  0
LINE
  5
458
330
1F
100
AcDbEntity
  8
1
  6
Continuous
 62
     7
100
AcDbLine
 10
409.1194874692642
 20
400.0648916406634
 30
0.0
 11
410.1328952303912
 21
400.5872667752649
 31
0.0
  0
LINE
  5
459
330
1F
100
AcDbEntity
  8
1
  6
Continuous
 62
     7
100
AcDbLine
 10
410.1328952303912
 20
400.5872667752649
 30
0.0
 11
410.977401697997
 21
400.7613918201321
 31
0.0
  0
LINE
  5
45A
330
1F
100
AcDbEntity
  8
1
  6
Continuous
 62
     7
100
AcDbLine
 10
410.977401697997
 20
400.7613918201321
 30
0.0
 11
411.9908094591241
 21
400.7613918201321
 31
0.0
  0
LINE
  5
45B
330
1F
100
AcDbEntity
  8
1
  6
Continuous
 62
     7
100
AcDbLine
 10
411.9908094591241
 20
400.7613918201321
 30
0.0
 11
412.83531592673
 21
400.5872667752649
 31
0.0
  0
LINE
  5
45C
330
1F
100
AcDbEntity
  8
1
  6
Continuous
 62
     7
100
AcDbLine
 10
412.83531592673
 20
400.5872667752649
 30
0.0
 11
413.848723687857
 21
400.0648916406634
 31
0.0
  0
LINE
  5
45D
330
1F
100
AcDbEntity
  8
1
  6
Continuous
 62
     7
100
AcDbLine
 10
413.848723687857
 20
400.0648916406634
 30
0.0
 11
414.5243288619417
 21
399.3683914611946
 31
0.0
  0
LINE
  5
45E
330
1F
100
AcDbEntity
  8
1
  6
Continuous
 62
     7
100
AcDbLine
 10
414.5243288619417
 20
399.3683914611946
 30
0.0
 11
415.1999340360263
 21
398.3236411919915
 31
0.0
  0
LINE
  5
45F
330
1F
100
AcDbEntity
  8
1
  6
Continuous
 62
     7
100
AcDbLine
 10
415.1999340360263
 20
398.3236411919915
 30
0.0
 11
415.3688353295475
 21
397.4530159676555
 31
0.0
  0
LINE
  5
460
330
1F
100
AcDbEntity
  8
1
  6
Continuous
 62
     7
100
AcDbLine
 10
415.3688353295475
 20
397.4530159676555
 30
0.0
 11
415.3688353295475
 21
396.7565157881868
 31
0.0
  0
LINE
  5
461
330
1F
100
AcDbEntity
  8
1
  6
Continuous
 62
     7
100
AcDbLine
 10
415.3688353295475
 20
396.7565157881868
 30
0.0
 11
415.1999340360263
 21
395.8858905638509
 31
0.0
  0
LINE
  5
462
330
1F
100
AcDbEntity
  8
1
  6
Continuous
 62
     7
100
AcDbLine
 10
415.1999340360263
 20
395.8858905638509
 30
0.0
 11
414.5243288619417
 21
394.8411402946477
 31
0.0
  0
LINE
  5
463
330
1F
100
AcDbEntity
  8
1
  6
Continuous
 62
     7
100
AcDbLine
 10
414.5243288619417
 20
394.8411402946477
 30
0.0
 11
414.1865262748993
 21
394.4928902049134
 31
0.0
  0
LINE
  5
464
330
1F
100
AcDbEntity
  8
1
  6
Continuous
 62
     7
100
AcDbLine
 10
414.1865262748993
 20
394.4928902049134
 30
0.0
 11
412.83531592673
 21
393.274014890843
 31
0.0
  0
LINE
  5
465
330
1F
100
AcDbEntity
  8
1
  6
Continuous
 62
     7
100
AcDbLine
 10
412.83531592673
 20
393.274014890843
 30
0.0
 11
411.6530068720817
 21
392.2292646216399
 31
0.0
  0
LINE
  5
466
330
1F
100
AcDbEntity
  8
1
  6
Continuous
 62
     7
100
AcDbLine
 10
411.6530068720817
 20
392.2292646216399
 30
0.0
 11
410.4706978174335
 21
390.8362642627024
 31
0.0
  0
LINE
  5
467
330
1F
100
AcDbEntity
  8
1
  6
Continuous
 62
     7
100
AcDbLine
 10
410.4706978174335
 20
390.8362642627024
 30
0.0
 11
409.6261913498277
 21
389.6173889486321
 31
0.0
  0
LINE
  5
468
330
1F
100
AcDbEntity
  8
1
  6
Continuous
 62
     7
100
AcDbLine
 10
409.6261913498277
 20
389.6173889486321
 30
0.0
 11
409.2883887627854
 21
388.572638679429
 31
0.0
  0
LINE
  5
469
330
1F
100
AcDbEntity
  8
1
  6
Continuous
 62
     7
100
AcDbLine
 10
409.2883887627854
 20
388.572638679429
 30
0.0
 11
415.875539210111
 21
388.572638679429
 31
0.0
  0
LINE
  5
46A
330
1F
100
AcDbEntity
  8
1
  6
Continuous
 62
     7
100
AcDbLine
 10
415.875539210111
 20
388.572638679429
 30
0.0
 11
415.875539210111
 21
386.8313882307571
 31
0.0
  0
LINE
  5
46B
330
1F
100
AcDbEntity
  8
1
  6
Continuous
 62
     7
100
AcDbLine
 10
415.875539210111
 20
386.8313882307571
 30
0.0
 11
406.9237706534889
 21
386.8313882307571
 31
0.0
  0
LINE
  5
46C
330
1F
100
AcDbEntity
  8
1
  6
Continuous
 62
     7
100
AcDbLine
 10
438.6975337791307
 20
400.1645661505161
 30
0.0
 11
438.5050239579527
 21
399.5812030560372
 31
0.0
  0
LINE
  5
46D
330
1F
100
AcDbEntity
  8
1
  6
Continuous
 62
     7
100
AcDbLine
 10
438.5050239579527
 20
399.5812030560372
 30
0.0
 11
438.248344196382
 21
400.0478935316203
 31
0.0
  0
LINE
  5
46E
330
1F
100
AcDbEntity
  8
1
  6
Continuous
 62
     7
100
AcDbLine
 10
438.248344196382
 20
400.0478935316203
 30
0.0
 11
437.8633245540259
 21
400.5145840072034
 31
0.0
  0
LINE
  5
46F
330
1F
100
AcDbEntity
  8
1
  6
Continuous
 62
     7
100
AcDbLine
 10
437.8633245540259
 20
400.5145840072034
 30
0.0
 11
437.4141349712771
 21
400.747929244995
 31
0.0
  0
LINE
  5
470
330
1F
100
AcDbEntity
  8
1
  6
Continuous
 62
     7
100
AcDbLine
 10
437.4141349712771
 20
400.747929244995
 30
0.0
 11
437.1574552097064
 21
400.747929244995
 31
0.0
  0
LINE
  5
471
330
1F
100
AcDbEntity
  8
1
  6
Continuous
 62
     7
100
AcDbLine
 10
437.1574552097064
 20
400.747929244995
 30
0.0
 11
436.7724355673503
 21
400.5145840072034
 31
0.0
  0
LINE
  5
472
330
1F
100
AcDbEntity
  8
1
  6
Continuous
 62
     7
100
AcDbLine
 10
436.7724355673503
 20
400.5145840072034
 30
0.0
 11
436.5799257461723
 21
400.0478935316203
 31
0.0
  0
LINE
  5
473
330
1F
100
AcDbEntity
  8
1
  6
Continuous
 62
     7
100
AcDbLine
 10
436.5799257461723
 20
400.0478935316203
 30
0.0
 11
436.5799257461723
 21
400.6312566260992
 31
0.0
  0
LINE
  5
474
330
1F
100
AcDbEntity
  8
1
  6
Continuous
 62
     7
100
AcDbLine
 10
436.5799257461723
 20
400.6312566260992
 30
0.0
 11
435.8740564018528
 21
400.6312566260992
 31
0.0
  0
LINE
  5
475
330
1F
100
AcDbEntity
  8
1
  6
Continuous
 62
     7
100
AcDbLine
 10
435.8740564018528
 20
400.6312566260992
 30
0.0
 11
435.8740564018528
 21
393.7475721112481
 31
0.0
  0
LINE
  5
476
330
1F
100
AcDbEntity
  8
1
  6
Continuous
 62
     7
100
AcDbLine
 10
435.8740564018528
 20
393.7475721112481
 30
0.0
 11
436.5799257461723
 21
393.7475721112481
 31
0.0
  0
LINE
  5
477
330
1F
100
AcDbEntity
  8
1
  6
Continuous
 62
     7
100
AcDbLine
 10
436.5799257461723
 20
393.7475721112481
 30
0.0
 11
436.5799257461723
 21
398.5311494859751
 31
0.0
  0
LINE
  5
478
330
1F
100
AcDbEntity
  8
1
  6
Continuous
 62
     7
100
AcDbLine
 10
436.5799257461723
 20
398.5311494859751
 30
0.0
 11
436.7082656269577
 21
399.114512580454
 31
0.0
  0
LINE
  5
479
330
1F
100
AcDbEntity
  8
1
  6
Continuous
 62
     7
100
AcDbLine
 10
436.7082656269577
 20
399.114512580454
 30
0.0
 11
436.9649453885284
 21
399.4645304371414
 31
0.0
  0
LINE
  5
47A
330
1F
100
AcDbEntity
  8
1
  6
Continuous
 62
     7
100
AcDbLine
 10
436.9649453885284
 20
399.4645304371414
 30
0.0
 11
437.2216251500991
 21
399.5812030560372
 31
0.0
  0
LINE
  5
47B
330
1F
100
AcDbEntity
  8
1
  6
Continuous
 62
     7
100
AcDbLine
 10
437.2216251500991
 20
399.5812030560372
 30
0.0
 11
437.5424748520625
 21
399.4645304371414
 31
0.0
  0
LINE
  5
47C
330
1F
100
AcDbEntity
  8
1
  6
Continuous
 62
     7
100
AcDbLine
 10
437.5424748520625
 20
399.4645304371414
 30
0.0
 11
437.7349846732406
 21
399.114512580454
 31
0.0
  0
LINE
  5
47D
330
1F
100
AcDbEntity
  8
1
  6
Continuous
 62
     7
100
AcDbLine
 10
437.7349846732406
 20
399.114512580454
 30
0.0
 11
437.9274944944186
 21
398.5311494859751
 31
0.0
  0
LINE
  5
47E
330
1F
100
AcDbEntity
  8
1
  6
Continuous
 62
     7
100
AcDbLine
 10
437.9274944944186
 20
398.5311494859751
 30
0.0
 11
437.9916644348112
 21
398.064459010392
 31
0.0
  0
LINE
  5
47F
330
1F
100
AcDbEntity
  8
1
  6
Continuous
 62
     7
100
AcDbLine
 10
437.9916644348112
 20
398.064459010392
 30
0.0
 11
437.9916644348112
 21
393.7475721112481
 31
0.0
  0
LINE
  5
480
330
1F
100
AcDbEntity
  8
1
  6
Continuous
 62
     7
100
AcDbLine
 10
437.9916644348112
 20
393.7475721112481
 30
0.0
 11
438.6975337791307
 21
393.7475721112481
 31
0.0
  0
LINE
  5
481
330
1F
100
AcDbEntity
  8
1
  6
Continuous
 62
     7
100
AcDbLine
 10
438.6975337791307
 20
393.7475721112481
 30
0.0
 11
438.6975337791307
 21
398.5311494859751
 31
0.0
  0
LINE
  5
482
330
1F
100
AcDbEntity
  8
1
  6
Continuous
 62
     7
100
AcDbLine
 10
438.6975337791307
 20
398.5311494859751
 30
0.0
 11
438.8258736599161
 21
399.114512580454
 31
0.0
  0
LINE
  5
483
330
1F
100
AcDbEntity
  8
1
  6
Continuous
 62
     7
100
AcDbLine
 10
438.8258736599161
 20
399.114512580454
 30
0.0
 11
439.0825534214868
 21
399.4645304371414
 31
0.0
  0
LINE
  5
484
330
1F
100
AcDbEntity
  8
1
  6
Continuous
 62
     7
100
AcDbLine
 10
439.0825534214868
 20
399.4645304371414
 30
0.0
 11
439.3392331830575
 21
399.5812030560372
 31
0.0
  0
LINE
  5
485
330
1F
100
AcDbEntity
  8
1
  6
Continuous
 62
     7
100
AcDbLine
 10
439.3392331830575
 20
399.5812030560372
 30
0.0
 11
439.6600828850209
 21
399.4645304371414
 31
0.0
  0
LINE
  5
486
330
1F
100
AcDbEntity
  8
1
  6
Continuous
 62
     7
100
AcDbLine
 10
439.6600828850209
 20
399.4645304371414
 30
0.0
 11
439.852592706199
 21
399.114512580454
 31
0.0
  0
LINE
  5
487
330
1F
100
AcDbEntity
  8
1
  6
Continuous
 62
     7
100
AcDbLine
 10
439.852592706199
 20
399.114512580454
 30
0.0
 11
440.045102527377
 21
398.5311494859751
 31
0.0
  0
LINE
  5
488
330
1F
100
AcDbEntity
  8
1
  6
Continuous
 62
     7
100
AcDbLine
 10
440.045102527377
 20
398.5311494859751
 30
0.0
 11
440.1092724677696
 21
398.064459010392
 31
0.0
  0
LINE
  5
489
330
1F
100
AcDbEntity
  8
1
  6
Continuous
 62
     7
100
AcDbLine
 10
440.1092724677696
 20
398.064459010392
 30
0.0
 11
440.1092724677696
 21
393.7475721112481
 31
0.0
  0
LINE
  5
48A
330
1F
100
AcDbEntity
  8
1
  6
Continuous
 62
     7
100
AcDbLine
 10
440.1092724677696
 20
393.7475721112481
 30
0.0
 11
440.8151418120892
 21
393.7475721112481
 31
0.0
  0
LINE
  5
48B
330
1F
100
AcDbEntity
  8
1
  6
Continuous
 62
     7
100
AcDbLine
 10
440.8151418120892
 20
393.7475721112481
 30
0.0
 11
440.8151418120892
 21
397.9477863914962
 31
0.0
  0
LINE
  5
48C
330
1F
100
AcDbEntity
  8
1
  6
Continuous
 62
     7
100
AcDbLine
 10
440.8151418120892
 20
397.9477863914962
 30
0.0
 11
440.7509718716964
 21
398.8811673426625
 31
0.0
  0
LINE
  5
48D
330
1F
100
AcDbEntity
  8
1
  6
Continuous
 62
     7
100
AcDbLine
 10
440.7509718716964
 20
398.8811673426625
 30
0.0
 11
440.5584620505184
 21
399.5812030560372
 31
0.0
  0
LINE
  5
48E
330
1F
100
AcDbEntity
  8
1
  6
Continuous
 62
     7
100
AcDbLine
 10
440.5584620505184
 20
399.5812030560372
 30
0.0
 11
440.3659522293404
 21
400.0478935316203
 31
0.0
  0
LINE
  5
48F
330
1F
100
AcDbEntity
  8
1
  6
Continuous
 62
     7
100
AcDbLine
 10
440.3659522293404
 20
400.0478935316203
 30
0.0
 11
439.9809325869843
 21
400.5145840072034
 31
0.0
  0
LINE
  5
490
330
1F
100
AcDbEntity
  8
1
  6
Continuous
 62
     7
100
AcDbLine
 10
439.9809325869843
 20
400.5145840072034
 30
0.0
 11
439.5317430042356
 21
400.747929244995
 31
0.0
  0
LINE
  5
491
330
1F
100
AcDbEntity
  8
1
  6
Continuous
 62
     7
100
AcDbLine
 10
439.5317430042356
 20
400.747929244995
 30
0.0
 11
439.2750632426648
 21
400.747929244995
 31
0.0
  0
LINE
  5
492
330
1F
100
AcDbEntity
  8
1
  6
Continuous
 62
     7
100
AcDbLine
 10
439.2750632426648
 20
400.747929244995
 30
0.0
 11
438.9542135407015
 21
400.5145840072034
 31
0.0
  0
LINE
  5
493
330
1F
100
AcDbEntity
  8
1
  6
Continuous
 62
     7
100
AcDbLine
 10
438.9542135407015
 20
400.5145840072034
 30
0.0
 11
438.6975337791307
 21
400.1645661505161
 31
0.0
  0
LINE
  5
494
330
1F
100
AcDbEntity
  8
1
  6
Continuous
 62
     7
100
AcDbLine
 10
431.7340300441243
 20
400.1645661505161
 30
0.0
 11
431.5415202229463
 21
399.5812030560372
 31
0.0
  0
LINE
  5
495
330
1F
100
AcDbEntity
  8
1
  6
Continuous
 62
     7
100
AcDbLine
 10
431.5415202229463
 20
399.5812030560372
 30
0.0
 11
431.2848404613756
 21
400.0478935316203
 31
0.0
  0
LINE
  5
496
330
1F
100
AcDbEntity
  8
1
  6
Continuous
 62
     7
100
AcDbLine
 10
431.2848404613756
 20
400.0478935316203
 30
0.0
 11
430.8998208190195
 21
400.5145840072034
 31
0.0
  0
LINE
  5
497
330
1F
100
AcDbEntity
  8
1
  6
Continuous
 62
     7
100
AcDbLine
 10
430.8998208190195
 20
400.5145840072034
 30
0.0
 11
430.4506312362707
 21
400.747929244995
 31
0.0
  0
LINE
  5
498
330
1F
100
AcDbEntity
  8
1
  6
Continuous
 62
     7
100
AcDbLine
 10
430.4506312362707
 20
400.747929244995
 30
0.0
 11
430.1939514747
 21
400.747929244995
 31
0.0
  0
LINE
  5
499
330
1F
100
AcDbEntity
  8
1
  6
Continuous
 62
     7
100
AcDbLine
 10
430.1939514747
 20
400.747929244995
 30
0.0
 11
429.8089318323439
 21
400.5145840072034
 31
0.0
  0
LINE
  5
49A
330
1F
100
AcDbEntity
  8
1
  6
Continuous
 62
     7
100
AcDbLine
 10
429.8089318323439
 20
400.5145840072034
 30
0.0
 11
429.6164220111659
 21
400.0478935316203
 31
0.0
  0
LINE
  5
49B
330
1F
100
AcDbEntity
  8
1
  6
Continuous
 62
     7
100
AcDbLine
 10
429.6164220111659
 20
400.0478935316203
 30
0.0
 11
429.6164220111659
 21
400.6312566260992
 31
0.0
  0
LINE
  5
49C
330
1F
100
AcDbEntity
  8
1
  6
Continuous
 62
     7
100
AcDbLine
 10
429.6164220111659
 20
400.6312566260992
 30
0.0
 11
428.9105526668465
 21
400.6312566260992
 31
0.0
  0
LINE
  5
49D
330
1F
100
AcDbEntity
  8
1
  6
Continuous
 62
     7
100
AcDbLine
 10
428.9105526668465
 20
400.6312566260992
 30
0.0
 11
428.9105526668465
 21
393.7475721112481
 31
0.0
  0
LINE
  5
49E
330
1F
100
AcDbEntity
  8
1
  6
Continuous
 62
     7
100
AcDbLine
 10
428.9105526668465
 20
393.7475721112481
 30
0.0
 11
429.6164220111659
 21
393.7475721112481
 31
0.0
  0
LINE
  5
49F
330
1F
100
AcDbEntity
  8
1
  6
Continuous
 62
     7
100
AcDbLine
 10
429.6164220111659
 20
393.7475721112481
 30
0.0
 11
429.6164220111659
 21
398.5311494859751
 31
0.0
  0
LINE
  5
4A0
330
1F
100
AcDbEntity
  8
1
  6
Continuous
 62
     7
100
AcDbLine
 10
429.6164220111659
 20
398.5311494859751
 30
0.0
 11
429.7447618919513
 21
399.114512580454
 31
0.0
  0
LINE
  5
4A1
330
1F
100
AcDbEntity
  8
1
  6
Continuous
 62
     7
100
AcDbLine
 10
429.7447618919513
 20
399.114512580454
 30
0.0
 11
430.001441653522
 21
399.4645304371414
 31
0.0
  0
LINE
  5
4A2
330
1F
100
AcDbEntity
  8
1
  6
Continuous
 62
     7
100
AcDbLine
 10
430.001441653522
 20
399.4645304371414
 30
0.0
 11
430.2581214150927
 21
399.5812030560372
 31
0.0
  0
LINE
  5
4A3
330
1F
100
AcDbEntity
  8
1
  6
Continuous
 62
     7
100
AcDbLine
 10
430.2581214150927
 20
399.5812030560372
 30
0.0
 11
430.5789711170561
 21
399.4645304371414
 31
0.0
  0
LINE
  5
4A4
330
1F
100
AcDbEntity
  8
1
  6
Continuous
 62
     7
100
AcDbLine
 10
430.5789711170561
 20
399.4645304371414
 30
0.0
 11
430.7714809382342
 21
399.114512580454
 31
0.0
  0
LINE
  5
4A5
330
1F
100
AcDbEntity
  8
1
  6
Continuous
 62
     7
100
AcDbLine
 10
430.7714809382342
 20
399.114512580454
 30
0.0
 11
430.9639907594122
 21
398.5311494859751
 31
0.0
  0
LINE
  5
4A6
330
1F
100
AcDbEntity
  8
1
  6
Continuous
 62
     7
100
AcDbLine
 10
430.9639907594122
 20
398.5311494859751
 30
0.0
 11
431.0281606998049
 21
398.064459010392
 31
0.0
  0
LINE
  5
4A7
330
1F
100
AcDbEntity
  8
1
  6
Continuous
 62
     7
100
AcDbLine
 10
431.0281606998049
 20
398.064459010392
 30
0.0
 11
431.0281606998049
 21
393.7475721112481
 31
0.0
  0
LINE
  5
4A8
330
1F
100
AcDbEntity
  8
1
  6
Continuous
 62
     7
100
AcDbLine
 10
431.0281606998049
 20
393.7475721112481
 30
0.0
 11
431.7340300441243
 21
393.7475721112481
 31
0.0
  0
LINE
  5
4A9
330
1F
100
AcDbEntity
  8
1
  6
Continuous
 62
     7
100
AcDbLine
 10
431.7340300441243
 20
393.7475721112481
 30
0.0
 11
431.7340300441243
 21
398.5311494859751
 31
0.0
  0
LINE
  5
4AA
330
1F
100
AcDbEntity
  8
1
  6
Continuous
 62
     7
100
AcDbLine
 10
431.7340300441243
 20
398.5311494859751
 30
0.0
 11
431.8623699249097
 21
399.114512580454
 31
0.0
  0
LINE
  5
4AB
330
1F
100
AcDbEntity
  8
1
  6
Continuous
 62
     7
100
AcDbLine
 10
431.8623699249097
 20
399.114512580454
 30
0.0
 11
432.1190496864804
 21
399.4645304371414
 31
0.0
  0
LINE
  5
4AC
330
1F
100
AcDbEntity
  8
1
  6
Continuous
 62
     7
100
AcDbLine
 10
432.1190496864804
 20
399.4645304371414
 30
0.0
 11
432.3757294480511
 21
399.5812030560372
 31
0.0
  0
LINE
  5
4AD
330
1F
100
AcDbEntity
  8
1
  6
Continuous
 62
     7
100
AcDbLine
 10
432.3757294480511
 20
399.5812030560372
 30
0.0
 11
432.6965791500145
 21
399.4645304371414
 31
0.0
  0
LINE
  5
4AE
330
1F
100
AcDbEntity
  8
1
  6
Continuous
 62
     7
100
AcDbLine
 10
432.6965791500145
 20
399.4645304371414
 30
0.0
 11
432.8890889711926
 21
399.114512580454
 31
0.0
  0
LINE
  5
4AF
330
1F
100
AcDbEntity
  8
1
  6
Continuous
 62
     7
100
AcDbLine
 10
432.8890889711926
 20
399.114512580454
 30
0.0
 11
433.0815987923706
 21
398.5311494859751
 31
0.0
  0
LINE
  5
4B0
330
1F
100
AcDbEntity
  8
1
  6
Continuous
 62
     7
100
AcDbLine
 10
433.0815987923706
 20
398.5311494859751
 30
0.0
 11
433.1457687327633
 21
398.064459010392
 31
0.0
  0
LINE
  5
4B1
330
1F
100
AcDbEntity
  8
1
  6
Continuous
 62
     7
100
AcDbLine
 10
433.1457687327633
 20
398.064459010392
 30
0.0
 11
433.1457687327633
 21
393.7475721112481
 31
0.0
  0
LINE
  5
4B2
330
1F
100
AcDbEntity
  8
1
  6
Continuous
 62
     7
100
AcDbLine
 10
433.1457687327633
 20
393.7475721112481
 30
0.0
 11
433.8516380770828
 21
393.7475721112481
 31
0.0
  0
LINE
  5
4B3
330
1F
100
AcDbEntity
  8
1
  6
Continuous
 62
     7
100
AcDbLine
 10
433.8516380770828
 20
393.7475721112481
 30
0.0
 11
433.8516380770828
 21
397.9477863914962
 31
0.0
  0
LINE
  5
4B4
330
1F
100
AcDbEntity
  8
1
  6
Continuous
 62
     7
100
AcDbLine
 10
433.8516380770828
 20
397.9477863914962
 30
0.0
 11
433.7874681366901
 21
398.8811673426625
 31
0.0
  0
LINE
  5
4B5
330
1F
100
AcDbEntity
  8
1
  6
Continuous
 62
     7
100
AcDbLine
 10
433.7874681366901
 20
398.8811673426625
 30
0.0
 11
433.594958315512
 21
399.5812030560372
 31
0.0
  0
LINE
  5
4B6
330
1F
100
AcDbEntity
  8
1
  6
Continuous
 62
     7
100
AcDbLine
 10
433.594958315512
 20
399.5812030560372
 30
0.0
 11
433.402448494334
 21
400.0478935316203
 31
0.0
  0
LINE
  5
4B7
330
1F
100
AcDbEntity
  8
1
  6
Continuous
 62
     7
100
AcDbLine
 10
433.402448494334
 20
400.0478935316203
 30
0.0
 11
433.0174288519779
 21
400.5145840072034
 31
0.0
  0
LINE
  5
4B8
330
1F
100
AcDbEntity
  8
1
  6
Continuous
 62
     7
100
AcDbLine
 10
433.0174288519779
 20
400.5145840072034
 30
0.0
 11
432.5682392692292
 21
400.747929244995
 31
0.0
  0
LINE
  5
4B9
330
1F
100
AcDbEntity
  8
1
  6
Continuous
 62
     7
100
AcDbLine
 10
432.5682392692292
 20
400.747929244995
 30
0.0
 11
432.3115595076584
 21
400.747929244995
 31
0.0
  0
LINE
  5
4BA
330
1F
100
AcDbEntity
  8
1
  6
Continuous
 62
     7
100
AcDbLine
 10
432.3115595076584
 20
400.747929244995
 30
0.0
 11
431.9907098056951
 21
400.5145840072034
 31
0.0
  0
LINE
  5
4BB
330
1F
100
AcDbEntity
  8
1
  6
Continuous
 62
     7
100
AcDbLine
 10
431.9907098056951
 20
400.5145840072034
 30
0.0
 11
431.7340300441243
 21
400.1645661505161
 31
0.0
  0
LINE
  5
4BC
330
1F
100
AcDbEntity
  8
1
  6
Continuous
 62
     7
100
AcDbLine
 10
454.4578052781525
 20
541.9054646890429
 30
0.0
 11
453.7076920024949
 21
541.9054646890429
 31
0.0
  0
LINE
  5
4BD
330
1F
100
AcDbEntity
  8
1
  6
Continuous
 62
     7
100
AcDbLine
 10
453.7076920024949
 20
541.9054646890429
 30
0.0
 11
452.8325598475611
 21
542.1555024475954
 31
0.0
  0
LINE
  5
4BE
330
1F
100
AcDbEntity
  8
1
  6
Continuous
 62
     7
100
AcDbLine
 10
452.8325598475611
 20
542.1555024475954
 30
0.0
 11
451.9574276926272
 21
542.6555779647005
 31
0.0
  0
LINE
  5
4BF
330
1F
100
AcDbEntity
  8
1
  6
Continuous
 62
     7
100
AcDbLine
 10
451.9574276926272
 20
542.6555779647005
 30
0.0
 11
451.2073144169696
 21
543.2806723610818
 31
0.0
  0
LINE
  5
4C0
330
1F
100
AcDbEntity
  8
1
  6
Continuous
 62
     7
100
AcDbLine
 10
451.2073144169696
 20
543.2806723610818
 30
0.0
 11
450.3321822620358
 21
544.0307856367394
 31
0.0
  0
LINE
  5
4C1
330
1F
100
AcDbEntity
  8
1
  6
Continuous
 62
     7
100
AcDbLine
 10
450.3321822620358
 20
544.0307856367394
 30
0.0
 11
449.7070878656544
 21
544.780898912397
 31
0.0
  0
LINE
  5
4C2
330
1F
100
AcDbEntity
  8
1
  6
Continuous
 62
     7
100
AcDbLine
 10
449.7070878656544
 20
544.780898912397
 30
0.0
 11
448.081842435063
 21
546.4061443429883
 31
0.0
  0
LINE
  5
4C3
330
1F
100
AcDbEntity
  8
1
  6
Continuous
 62
     7
100
AcDbLine
 10
448.081842435063
 20
546.4061443429883
 30
0.0
 11
447.7067857972343
 21
546.6561821015409
 31
0.0
  0
LINE
  5
4C4
330
1F
100
AcDbEntity
  8
1
  6
Continuous
 62
     7
100
AcDbLine
 10
447.7067857972343
 20
546.6561821015409
 30
0.0
 11
447.3317291594054
 21
546.7812009808172
 31
0.0
  0
LINE
  5
4C5
330
1F
100
AcDbEntity
  8
1
  6
Continuous
 62
     7
100
AcDbLine
 10
447.3317291594054
 20
546.7812009808172
 30
0.0
 11
446.8316536423004
 21
546.7812009808172
 31
0.0
  0
LINE
  5
4C6
330
1F
100
AcDbEntity
  8
1
  6
Continuous
 62
     7
100
AcDbLine
 10
446.8316536423004
 20
546.7812009808172
 30
0.0
 11
446.4565970044716
 21
546.6561821015409
 31
0.0
  0
LINE
  5
4C7
330
1F
100
AcDbEntity
  8
1
  6
Continuous
 62
     7
100
AcDbLine
 10
446.4565970044716
 20
546.6561821015409
 30
0.0
 11
446.0815403666428
 21
546.4061443429883
 31
0.0
  0
LINE
  5
4C8
330
1F
100
AcDbEntity
  8
1
  6
Continuous
 62
     7
100
AcDbLine
 10
446.0815403666428
 20
546.4061443429883
 30
0.0
 11
445.8315026080903
 21
546.0310877051596
 31
0.0
  0
LINE
  5
4C9
330
1F
100
AcDbEntity
  8
1
  6
Continuous
 62
     7
100
AcDbLine
 10
445.8315026080903
 20
546.0310877051596
 30
0.0
 11
445.706483728814
 21
545.5310121880545
 31
0.0
  0
LINE
  5
4CA
330
1F
100
AcDbEntity
  8
1
  6
Continuous
 62
     7
100
AcDbLine
 10
445.706483728814
 20
545.5310121880545
 30
0.0
 11
445.706483728814
 21
545.0309366709495
 31
0.0
  0
LINE
  5
4CB
330
1F
100
AcDbEntity
  8
1
  6
Continuous
 62
     7
100
AcDbLine
 10
445.706483728814
 20
545.0309366709495
 30
0.0
 11
445.8315026080903
 21
544.5308611538444
 31
0.0
  0
LINE
  5
4CC
330
1F
100
AcDbEntity
  8
1
  6
Continuous
 62
     7
100
AcDbLine
 10
445.8315026080903
 20
544.5308611538444
 30
0.0
 11
446.0815403666428
 21
544.1558045160157
 31
0.0
  0
LINE
  5
4CD
330
1F
100
AcDbEntity
  8
1
  6
Continuous
 62
     7
100
AcDbLine
 10
446.0815403666428
 20
544.1558045160157
 30
0.0
 11
446.4565970044716
 21
543.9057667574631
 31
0.0
  0
LINE
  5
4CE
330
1F
100
AcDbEntity
  8
1
  6
Continuous
 62
     7
100
AcDbLine
 10
446.4565970044716
 20
543.9057667574631
 30
0.0
 11
446.8316536423004
 21
543.7807478781868
 31
0.0
  0
LINE
  5
4CF
330
1F
100
AcDbEntity
  8
1
  6
Continuous
 62
     7
100
AcDbLine
 10
446.8316536423004
 20
543.7807478781868
 30
0.0
 11
447.3317291594054
 21
543.7807478781868
 31
0.0
  0
LINE
  5
4D0
330
1F
100
AcDbEntity
  8
1
  6
Continuous
 62
     7
100
AcDbLine
 10
447.3317291594054
 20
543.7807478781868
 30
0.0
 11
447.3317291594054
 21
542.405540206148
 31
0.0
  0
LINE
  5
4D1
330
1F
100
AcDbEntity
  8
1
  6
Continuous
 62
     7
100
AcDbLine
 10
447.3317291594054
 20
542.405540206148
 30
0.0
 11
446.8316536423004
 21
542.405540206148
 31
0.0
  0
LINE
  5
4D2
330
1F
100
AcDbEntity
  8
1
  6
Continuous
 62
     7
100
AcDbLine
 10
446.8316536423004
 20
542.405540206148
 30
0.0
 11
446.2065592459191
 21
542.5305590854242
 31
0.0
  0
LINE
  5
4D3
330
1F
100
AcDbEntity
  8
1
  6
Continuous
 62
     7
100
AcDbLine
 10
446.2065592459191
 20
542.5305590854242
 30
0.0
 11
445.4564459702615
 21
543.0306346025293
 31
0.0
  0
LINE
  5
4D4
330
1F
100
AcDbEntity
  8
1
  6
Continuous
 62
     7
100
AcDbLine
 10
445.4564459702615
 20
543.0306346025293
 30
0.0
 11
444.9563704531564
 21
543.5307101196344
 31
0.0
  0
LINE
  5
4D5
330
1F
100
AcDbEntity
  8
1
  6
Continuous
 62
     7
100
AcDbLine
 10
444.9563704531564
 20
543.5307101196344
 30
0.0
 11
444.5813138153276
 21
544.2808233952919
 31
0.0
  0
LINE
  5
4D6
330
1F
100
AcDbEntity
  8
1
  6
Continuous
 62
     7
100
AcDbLine
 10
444.5813138153276
 20
544.2808233952919
 30
0.0
 11
444.4562949360514
 21
544.9059177916732
 31
0.0
  0
LINE
  5
4D7
330
1F
100
AcDbEntity
  8
1
  6
Continuous
 62
     7
100
AcDbLine
 10
444.4562949360514
 20
544.9059177916732
 30
0.0
 11
444.4562949360514
 21
545.6560310673308
 31
0.0
  0
LINE
  5
4D8
330
1F
100
AcDbEntity
  8
1
  6
Continuous
 62
     7
100
AcDbLine
 10
444.4562949360514
 20
545.6560310673308
 30
0.0
 11
444.5813138153276
 21
546.2811254637121
 31
0.0
  0
LINE
  5
4D9
330
1F
100
AcDbEntity
  8
1
  6
Continuous
 62
     7
100
AcDbLine
 10
444.5813138153276
 20
546.2811254637121
 30
0.0
 11
444.9563704531564
 21
547.0312387393698
 31
0.0
  0
LINE
  5
4DA
330
1F
100
AcDbEntity
  8
1
  6
Continuous
 62
     7
100
AcDbLine
 10
444.9563704531564
 20
547.0312387393698
 30
0.0
 11
445.4564459702615
 21
547.5313142564747
 31
0.0
  0
LINE
  5
4DB
330
1F
100
AcDbEntity
  8
1
  6
Continuous
 62
     7
100
AcDbLine
 10
445.4564459702615
 20
547.5313142564747
 30
0.0
 11
446.2065592459191
 21
548.0313897735798
 31
0.0
  0
LINE
  5
4DC
330
1F
100
AcDbEntity
  8
1
  6
Continuous
 62
     7
100
AcDbLine
 10
446.2065592459191
 20
548.0313897735798
 30
0.0
 11
446.8316536423004
 21
548.156408652856
 31
0.0
  0
LINE
  5
4DD
330
1F
100
AcDbEntity
  8
1
  6
Continuous
 62
     7
100
AcDbLine
 10
446.8316536423004
 20
548.156408652856
 30
0.0
 11
447.3317291594054
 21
548.156408652856
 31
0.0
  0
LINE
  5
4DE
330
1F
100
AcDbEntity
  8
1
  6
Continuous
 62
     7
100
AcDbLine
 10
447.3317291594054
 20
548.156408652856
 30
0.0
 11
447.9568235557867
 21
548.0313897735798
 31
0.0
  0
LINE
  5
4DF
330
1F
100
AcDbEntity
  8
1
  6
Continuous
 62
     7
100
AcDbLine
 10
447.9568235557867
 20
548.0313897735798
 30
0.0
 11
448.7069368314444
 21
547.5313142564747
 31
0.0
  0
LINE
  5
4E0
330
1F
100
AcDbEntity
  8
1
  6
Continuous
 62
     7
100
AcDbLine
 10
448.7069368314444
 20
547.5313142564747
 30
0.0
 11
448.9569745899969
 21
547.2812764979222
 31
0.0
  0
LINE
  5
4E1
330
1F
100
AcDbEntity
  8
1
  6
Continuous
 62
     7
100
AcDbLine
 10
448.9569745899969
 20
547.2812764979222
 30
0.0
 11
449.8321067449307
 21
546.2811254637121
 31
0.0
  0
LINE
  5
4E2
330
1F
100
AcDbEntity
  8
1
  6
Continuous
 62
     7
100
AcDbLine
 10
449.8321067449307
 20
546.2811254637121
 30
0.0
 11
450.5822200205883
 21
545.4059933087783
 31
0.0
  0
LINE
  5
4E3
330
1F
100
AcDbEntity
  8
1
  6
Continuous
 62
     7
100
AcDbLine
 10
450.5822200205883
 20
545.4059933087783
 30
0.0
 11
451.5823710547984
 21
544.5308611538444
 31
0.0
  0
LINE
  5
4E4
330
1F
100
AcDbEntity
  8
1
  6
Continuous
 62
     7
100
AcDbLine
 10
451.5823710547984
 20
544.5308611538444
 30
0.0
 11
452.4575032097322
 21
543.9057667574631
 31
0.0
  0
LINE
  5
4E5
330
1F
100
AcDbEntity
  8
1
  6
Continuous
 62
     7
100
AcDbLine
 10
452.4575032097322
 20
543.9057667574631
 30
0.0
 11
453.2076164853899
 21
543.6557289989106
 31
0.0
  0
LINE
  5
4E6
330
1F
100
AcDbEntity
  8
1
  6
Continuous
 62
     7
100
AcDbLine
 10
453.2076164853899
 20
543.6557289989106
 30
0.0
 11
453.2076164853899
 21
548.5314652906849
 31
0.0
  0
LINE
  5
4E7
330
1F
100
AcDbEntity
  8
1
  6
Continuous
 62
     7
100
AcDbLine
 10
453.2076164853899
 20
548.5314652906849
 30
0.0
 11
454.4578052781525
 21
548.5314652906849
 31
0.0
  0
LINE
  5
4E8
330
1F
100
AcDbEntity
  8
1
  6
Continuous
 62
     7
100
AcDbLine
 10
454.4578052781525
 20
548.5314652906849
 30
0.0
 11
454.4578052781525
 21
541.9054646890429
 31
0.0
  0
LINE
  5
4E9
330
1F
100
AcDbEntity
  8
1
  6
Continuous
 62
     7
100
AcDbLine
 10
449.4648210245155
 20
570.6626134059052
 30
0.0
 11
449.9023871019824
 21
570.4591451798831
 31
0.0
  0
LINE
  5
4EA
330
1F
100
AcDbEntity
  8
1
  6
Continuous
 62
     7
100
AcDbLine
 10
449.9023871019824
 20
570.4591451798831
 30
0.0
 11
449.5523342400089
 21
570.1878542118535
 31
0.0
  0
LINE
  5
4EB
330
1F
100
AcDbEntity
  8
1
  6
Continuous
 62
     7
100
AcDbLine
 10
449.5523342400089
 20
570.1878542118535
 30
0.0
 11
449.2022813780353
 21
569.7809177598093
 31
0.0
  0
LINE
  5
4EC
330
1F
100
AcDbEntity
  8
1
  6
Continuous
 62
     7
100
AcDbLine
 10
449.2022813780353
 20
569.7809177598093
 30
0.0
 11
449.0272549470486
 21
569.3061585657578
 31
0.0
  0
LINE
  5
4ED
330
1F
100
AcDbEntity
  8
1
  6
Continuous
 62
     7
100
AcDbLine
 10
449.0272549470486
 20
569.3061585657578
 30
0.0
 11
449.0272549470486
 21
569.0348675977282
 31
0.0
  0
LINE
  5
4EE
330
1F
100
AcDbEntity
  8
1
  6
Continuous
 62
     7
100
AcDbLine
 10
449.0272549470486
 20
569.0348675977282
 30
0.0
 11
449.2022813780353
 21
568.627931145684
 31
0.0
  0
LINE
  5
4EF
330
1F
100
AcDbEntity
  8
1
  6
Continuous
 62
     7
100
AcDbLine
 10
449.2022813780353
 20
568.627931145684
 30
0.0
 11
449.5523342400089
 21
568.4244629196619
 31
0.0
  0
LINE
  5
4F0
330
1F
100
AcDbEntity
  8
1
  6
Continuous
 62
     7
100
AcDbLine
 10
449.5523342400089
 20
568.4244629196619
 30
0.0
 11
449.1147681625419
 21
568.4244629196619
 31
0.0
  0
LINE
  5
4F1
330
1F
100
AcDbEntity
  8
1
  6
Continuous
 62
     7
100
AcDbLine
 10
449.1147681625419
 20
568.4244629196619
 30
0.0
 11
449.1147681625419
 21
567.6784127575808
 31
0.0
  0
LINE
  5
4F2
330
1F
100
AcDbEntity
  8
1
  6
Continuous
 62
     7
100
AcDbLine
 10
449.1147681625419
 20
567.6784127575808
 30
0.0
 11
454.2780478766516
 21
567.6784127575808
 31
0.0
  0
LINE
  5
4F3
330
1F
100
AcDbEntity
  8
1
  6
Continuous
 62
     7
100
AcDbLine
 10
454.2780478766516
 20
567.6784127575808
 30
0.0
 11
454.2780478766516
 21
568.4244629196619
 31
0.0
  0
LINE
  5
4F4
330
1F
100
AcDbEntity
  8
1
  6
Continuous
 62
     7
100
AcDbLine
 10
454.2780478766516
 20
568.4244629196619
 30
0.0
 11
450.6900060414229
 21
568.4244629196619
 31
0.0
  0
LINE
  5
4F5
330
1F
100
AcDbEntity
  8
1
  6
Continuous
 62
     7
100
AcDbLine
 10
450.6900060414229
 20
568.4244629196619
 30
0.0
 11
450.2524399639559
 21
568.5601084036766
 31
0.0
  0
LINE
  5
4F6
330
1F
100
AcDbEntity
  8
1
  6
Continuous
 62
     7
100
AcDbLine
 10
450.2524399639559
 20
568.5601084036766
 30
0.0
 11
449.9899003174758
 21
568.8313993717061
 31
0.0
  0
LINE
  5
4F7
330
1F
100
AcDbEntity
  8
1
  6
Continuous
 62
     7
100
AcDbLine
 10
449.9899003174758
 20
568.8313993717061
 30
0.0
 11
449.9023871019824
 21
569.1026903397355
 31
0.0
  0
LINE
  5
4F8
330
1F
100
AcDbEntity
  8
1
  6
Continuous
 62
     7
100
AcDbLine
 10
449.9023871019824
 20
569.1026903397355
 30
0.0
 11
449.9899003174758
 21
569.4418040497725
 31
0.0
  0
LINE
  5
4F9
330
1F
100
AcDbEntity
  8
1
  6
Continuous
 62
     7
100
AcDbLine
 10
449.9899003174758
 20
569.4418040497725
 30
0.0
 11
450.2524399639559
 21
569.6452722757946
 31
0.0
  0
LINE
  5
4FA
330
1F
100
AcDbEntity
  8
1
  6
Continuous
 62
     7
100
AcDbLine
 10
450.2524399639559
 20
569.6452722757946
 30
0.0
 11
450.6900060414229
 21
569.8487405018167
 31
0.0
  0
LINE
  5
4FB
330
1F
100
AcDbEntity
  8
1
  6
Continuous
 62
     7
100
AcDbLine
 10
450.6900060414229
 20
569.8487405018167
 30
0.0
 11
451.0400589033964
 21
569.916563243824
 31
0.0
  0
LINE
  5
4FC
330
1F
100
AcDbEntity
  8
1
  6
Continuous
 62
     7
100
AcDbLine
 10
451.0400589033964
 20
569.916563243824
 30
0.0
 11
454.2780478766516
 21
569.916563243824
 31
0.0
  0
LINE
  5
4FD
330
1F
100
AcDbEntity
  8
1
  6
Continuous
 62
     7
100
AcDbLine
 10
454.2780478766516
 20
569.916563243824
 30
0.0
 11
454.2780478766516
 21
570.6626134059052
 31
0.0
  0
LINE
  5
4FE
330
1F
100
AcDbEntity
  8
1
  6
Continuous
 62
     7
100
AcDbLine
 10
454.2780478766516
 20
570.6626134059052
 30
0.0
 11
450.6900060414229
 21
570.6626134059052
 31
0.0
  0
LINE
  5
4FF
330
1F
100
AcDbEntity
  8
1
  6
Continuous
 62
     7
100
AcDbLine
 10
450.6900060414229
 20
570.6626134059052
 30
0.0
 11
450.2524399639559
 21
570.7982588899199
 31
0.0
  0
LINE
  5
500
330
1F
100
AcDbEntity
  8
1
  6
Continuous
 62
     7
100
AcDbLine
 10
450.2524399639559
 20
570.7982588899199
 30
0.0
 11
449.9899003174758
 21
571.0695498579494
 31
0.0
  0
LINE
  5
501
330
1F
100
AcDbEntity
  8
1
  6
Continuous
 62
     7
100
AcDbLine
 10
449.9899003174758
 20
571.0695498579494
 30
0.0
 11
449.9023871019824
 21
571.340840825979
 31
0.0
  0
LINE
  5
502
330
1F
100
AcDbEntity
  8
1
  6
Continuous
 62
     7
100
AcDbLine
 10
449.9023871019824
 20
571.340840825979
 30
0.0
 11
449.9899003174758
 21
571.6799545360158
 31
0.0
  0
LINE
  5
503
330
1F
100
AcDbEntity
  8
1
  6
Continuous
 62
     7
100
AcDbLine
 10
449.9899003174758
 20
571.6799545360158
 30
0.0
 11
450.2524399639559
 21
571.8834227620379
 31
0.0
  0
LINE
  5
504
330
1F
100
AcDbEntity
  8
1
  6
Continuous
 62
     7
100
AcDbLine
 10
450.2524399639559
 20
571.8834227620379
 30
0.0
 11
450.6900060414229
 21
572.08689098806
 31
0.0
  0
LINE
  5
505
330
1F
100
AcDbEntity
  8
1
  6
Continuous
 62
     7
100
AcDbLine
 10
450.6900060414229
 20
572.08689098806
 30
0.0
 11
451.0400589033964
 21
572.1547137300673
 31
0.0
  0
LINE
  5
506
330
1F
100
AcDbEntity
  8
1
  6
Continuous
 62
     7
100
AcDbLine
 10
451.0400589033964
 20
572.1547137300673
 30
0.0
 11
454.2780478766516
 21
572.1547137300673
 31
0.0
  0
LINE
  5
507
330
1F
100
AcDbEntity
  8
1
  6
Continuous
 62
     7
100
AcDbLine
 10
454.2780478766516
 20
572.1547137300673
 30
0.0
 11
454.2780478766516
 21
572.9007638921485
 31
0.0
  0
LINE
  5
508
330
1F
100
AcDbEntity
  8
1
  6
Continuous
 62
     7
100
AcDbLine
 10
454.2780478766516
 20
572.9007638921485
 30
0.0
 11
451.1275721188898
 21
572.9007638921485
 31
0.0
  0
LINE
  5
509
330
1F
100
AcDbEntity
  8
1
  6
Continuous
 62
     7
100
AcDbLine
 10
451.1275721188898
 20
572.9007638921485
 30
0.0
 11
450.4274663949427
 21
572.8329411501411
 31
0.0
  0
LINE
  5
50A
330
1F
100
AcDbEntity
  8
1
  6
Continuous
 62
     7
100
AcDbLine
 10
450.4274663949427
 20
572.8329411501411
 30
0.0
 11
449.9023871019824
 21
572.629472924119
 31
0.0
  0
LINE
  5
50B
330
1F
100
AcDbEntity
  8
1
  6
Continuous
 62
     7
100
AcDbLine
 10
449.9023871019824
 20
572.629472924119
 30
0.0
 11
449.5523342400089
 21
572.4260046980969
 31
0.0
  0
LINE
  5
50C
330
1F
100
AcDbEntity
  8
1
  6
Continuous
 62
     7
100
AcDbLine
 10
449.5523342400089
 20
572.4260046980969
 30
0.0
 11
449.2022813780353
 21
572.0190682460526
 31
0.0
  0
LINE
  5
50D
330
1F
100
AcDbEntity
  8
1
  6
Continuous
 62
     7
100
AcDbLine
 10
449.2022813780353
 20
572.0190682460526
 30
0.0
 11
449.0272549470486
 21
571.544309052001
 31
0.0
  0
LINE
  5
50E
330
1F
100
AcDbEntity
  8
1
  6
Continuous
 62
     7
100
AcDbLine
 10
449.0272549470486
 20
571.544309052001
 30
0.0
 11
449.0272549470486
 21
571.2730180839716
 31
0.0
  0
LINE
  5
50F
330
1F
100
AcDbEntity
  8
1
  6
Continuous
 62
     7
100
AcDbLine
 10
449.0272549470486
 20
571.2730180839716
 30
0.0
 11
449.2022813780353
 21
570.9339043739346
 31
0.0
  0
LINE
  5
510
330
1F
100
AcDbEntity
  8
1
  6
Continuous
 62
     7
100
AcDbLine
 10
449.2022813780353
 20
570.9339043739346
 30
0.0
 11
449.4648210245155
 21
570.6626134059052
 31
0.0
  0
LINE
  5
511
330
1F
100
AcDbEntity
  8
1
  6
Continuous
 62
     7
100
AcDbLine
 10
449.3045666990743
 20
563.103884848537
 30
0.0
 11
449.7421327765412
 21
562.9004166225149
 31
0.0
  0
LINE
  5
512
330
1F
100
AcDbEntity
  8
1
  6
Continuous
 62
     7
100
AcDbLine
 10
449.7421327765412
 20
562.9004166225149
 30
0.0
 11
449.3920799145677
 21
562.6291256544853
 31
0.0
  0
LINE
  5
513
330
1F
100
AcDbEntity
  8
1
  6
Continuous
 62
     7
100
AcDbLine
 10
449.3920799145677
 20
562.6291256544853
 30
0.0
 11
449.0420270525941
 21
562.2221892024411
 31
0.0
  0
LINE
  5
514
330
1F
100
AcDbEntity
  8
1
  6
Continuous
 62
     7
100
AcDbLine
 10
449.0420270525941
 20
562.2221892024411
 30
0.0
 11
448.8670006216074
 21
561.7474300083895
 31
0.0
  0
LINE
  5
515
330
1F
100
AcDbEntity
  8
1
  6
Continuous
 62
     7
100
AcDbLine
 10
448.8670006216074
 20
561.7474300083895
 30
0.0
 11
448.8670006216074
 21
561.47613904036
 31
0.0
  0
LINE
  5
516
330
1F
100
AcDbEntity
  8
1
  6
Continuous
 62
     7
100
AcDbLine
 10
448.8670006216074
 20
561.47613904036
 30
0.0
 11
449.0420270525941
 21
561.0692025883158
 31
0.0
  0
LINE
  5
517
330
1F
100
AcDbEntity
  8
1
  6
Continuous
 62
     7
100
AcDbLine
 10
449.0420270525941
 20
561.0692025883158
 30
0.0
 11
449.3920799145677
 21
560.8657343622937
 31
0.0
  0
LINE
  5
518
330
1F
100
AcDbEntity
  8
1
  6
Continuous
 62
     7
100
AcDbLine
 10
449.3920799145677
 20
560.8657343622937
 30
0.0
 11
448.9545138371007
 21
560.8657343622937
 31
0.0
  0
LINE
  5
519
330
1F
100
AcDbEntity
  8
1
  6
Continuous
 62
     7
100
AcDbLine
 10
448.9545138371007
 20
560.8657343622937
 30
0.0
 11
448.9545138371007
 21
560.1196842002125
 31
0.0
  0
LINE
  5
51A
330
1F
100
AcDbEntity
  8
1
  6
Continuous
 62
     7
100
AcDbLine
 10
448.9545138371007
 20
560.1196842002125
 30
0.0
 11
454.1177935512104
 21
560.1196842002125
 31
0.0
  0
LINE
  5
51B
330
1F
100
AcDbEntity
  8
1
  6
Continuous
 62
     7
100
AcDbLine
 10
454.1177935512104
 20
560.1196842002125
 30
0.0
 11
454.1177935512104
 21
560.8657343622937
 31
0.0
  0
LINE
  5
51C
330
1F
100
AcDbEntity
  8
1
  6
Continuous
 62
     7
100
AcDbLine
 10
454.1177935512104
 20
560.8657343622937
 30
0.0
 11
450.5297517159817
 21
560.8657343622937
 31
0.0
  0
LINE
  5
51D
330
1F
100
AcDbEntity
  8
1
  6
Continuous
 62
     7
100
AcDbLine
 10
450.5297517159817
 20
560.8657343622937
 30
0.0
 11
450.0921856385147
 21
561.0013798463084
 31
0.0
  0
LINE
  5
51E
330
1F
100
AcDbEntity
  8
1
  6
Continuous
 62
     7
100
AcDbLine
 10
450.0921856385147
 20
561.0013798463084
 30
0.0
 11
449.8296459920346
 21
561.2726708143379
 31
0.0
  0
LINE
  5
51F
330
1F
100
AcDbEntity
  8
1
  6
Continuous
 62
     7
100
AcDbLine
 10
449.8296459920346
 20
561.2726708143379
 30
0.0
 11
449.7421327765412
 21
561.5439617823673
 31
0.0
  0
LINE
  5
520
330
1F
100
AcDbEntity
  8
1
  6
Continuous
 62
     7
100
AcDbLine
 10
449.7421327765412
 20
561.5439617823673
 30
0.0
 11
449.8296459920346
 21
561.8830754924043
 31
0.0
  0
LINE
  5
521
330
1F
100
AcDbEntity
  8
1
  6
Continuous
 62
     7
100
AcDbLine
 10
449.8296459920346
 20
561.8830754924043
 30
0.0
 11
450.0921856385147
 21
562.0865437184264
 31
0.0
  0
LINE
  5
522
330
1F
100
AcDbEntity
  8
1
  6
Continuous
 62
     7
100
AcDbLine
 10
450.0921856385147
 20
562.0865437184264
 30
0.0
 11
450.5297517159817
 21
562.2900119444485
 31
0.0
  0
LINE
  5
523
330
1F
100
AcDbEntity
  8
1
  6
Continuous
 62
     7
100
AcDbLine
 10
450.5297517159817
 20
562.2900119444485
 30
0.0
 11
450.8798045779552
 21
562.3578346864558
 31
0.0
  0
LINE
  5
524
330
1F
100
AcDbEntity
  8
1
  6
Continuous
 62
     7
100
AcDbLine
 10
450.8798045779552
 20
562.3578346864558
 30
0.0
 11
454.1177935512104
 21
562.3578346864558
 31
0.0
  0
LINE
  5
525
330
1F
100
AcDbEntity
  8
1
  6
Continuous
 62
     7
100
AcDbLine
 10
454.1177935512104
 20
562.3578346864558
 30
0.0
 11
454.1177935512104
 21
563.103884848537
 31
0.0
  0
LINE
  5
526
330
1F
100
AcDbEntity
  8
1
  6
Continuous
 62
     7
100
AcDbLine
 10
454.1177935512104
 20
563.103884848537
 30
0.0
 11
450.5297517159817
 21
563.103884848537
 31
0.0
  0
LINE
  5
527
330
1F
100
AcDbEntity
  8
1
  6
Continuous
 62
     7
100
AcDbLine
 10
450.5297517159817
 20
563.103884848537
 30
0.0
 11
450.0921856385147
 21
563.2395303325517
 31
0.0
  0
LINE
  5
528
330
1F
100
AcDbEntity
  8
1
  6
Continuous
 62
     7
100
AcDbLine
 10
450.0921856385147
 20
563.2395303325517
 30
0.0
 11
449.8296459920346
 21
563.5108213005811
 31
0.0
  0
LINE
  5
529
330
1F
100
AcDbEntity
  8
1
  6
Continuous
 62
     7
100
AcDbLine
 10
449.8296459920346
 20
563.5108213005811
 30
0.0
 11
449.7421327765412
 21
563.7821122686107
 31
0.0
  0
LINE
  5
52A
330
1F
100
AcDbEntity
  8
1
  6
Continuous
 62
     7
100
AcDbLine
 10
449.7421327765412
 20
563.7821122686107
 30
0.0
 11
449.8296459920346
 21
564.1212259786475
 31
0.0
  0
LINE
  5
52B
330
1F
100
AcDbEntity
  8
1
  6
Continuous
 62
     7
100
AcDbLine
 10
449.8296459920346
 20
564.1212259786475
 30
0.0
 11
450.0921856385147
 21
564.3246942046696
 31
0.0
  0
LINE
  5
52C
330
1F
100
AcDbEntity
  8
1
  6
Continuous
 62
     7
100
AcDbLine
 10
450.0921856385147
 20
564.3246942046696
 30
0.0
 11
450.5297517159817
 21
564.5281624306917
 31
0.0
  0
LINE
  5
52D
330
1F
100
AcDbEntity
  8
1
  6
Continuous
 62
     7
100
AcDbLine
 10
450.5297517159817
 20
564.5281624306917
 30
0.0
 11
450.8798045779552
 21
564.5959851726991
 31
0.0
  0
LINE
  5
52E
330
1F
100
AcDbEntity
  8
1
  6
Continuous
 62
     7
100
AcDbLine
 10
450.8798045779552
 20
564.5959851726991
 30
0.0
 11
454.1177935512104
 21
564.5959851726991
 31
0.0
  0
LINE
  5
52F
330
1F
100
AcDbEntity
  8
1
  6
Continuous
 62
     7
100
AcDbLine
 10
454.1177935512104
 20
564.5959851726991
 30
0.0
 11
454.1177935512104
 21
565.3420353347802
 31
0.0
  0
LINE
  5
530
330
1F
100
AcDbEntity
  8
1
  6
Continuous
 62
     7
100
AcDbLine
 10
454.1177935512104
 20
565.3420353347802
 30
0.0
 11
450.9673177934486
 21
565.3420353347802
 31
0.0
  0
LINE
  5
531
330
1F
100
AcDbEntity
  8
1
  6
Continuous
 62
     7
100
AcDbLine
 10
450.9673177934486
 20
565.3420353347802
 30
0.0
 11
450.2672120695015
 21
565.2742125927729
 31
0.0
  0
LINE
  5
532
330
1F
100
AcDbEntity
  8
1
  6
Continuous
 62
     7
100
AcDbLine
 10
450.2672120695015
 20
565.2742125927729
 30
0.0
 11
449.7421327765412
 21
565.0707443667508
 31
0.0
  0
LINE
  5
533
330
1F
100
AcDbEntity
  8
1
  6
Continuous
 62
     7
100
AcDbLine
 10
449.7421327765412
 20
565.0707443667508
 30
0.0
 11
449.3920799145677
 21
564.8672761407287
 31
0.0
  0
LINE
  5
534
330
1F
100
AcDbEntity
  8
1
  6
Continuous
 62
     7
100
AcDbLine
 10
449.3920799145677
 20
564.8672761407287
 30
0.0
 11
449.0420270525941
 21
564.4603396886844
 31
0.0
  0
LINE
  5
535
330
1F
100
AcDbEntity
  8
1
  6
Continuous
 62
     7
100
AcDbLine
 10
449.0420270525941
 20
564.4603396886844
 30
0.0
 11
448.8670006216074
 21
563.9855804946328
 31
0.0
  0
LINE
  5
536
330
1F
100
AcDbEntity
  8
1
  6
Continuous
 62
     7
100
AcDbLine
 10
448.8670006216074
 20
563.9855804946328
 30
0.0
 11
448.8670006216074
 21
563.7142895266034
 31
0.0
  0
LINE
  5
537
330
1F
100
AcDbEntity
  8
1
  6
Continuous
 62
     7
100
AcDbLine
 10
448.8670006216074
 20
563.7142895266034
 30
0.0
 11
449.0420270525941
 21
563.3751758165664
 31
0.0
  0
LINE
  5
538
330
1F
100
AcDbEntity
  8
1
  6
Continuous
 62
     7
100
AcDbLine
 10
449.0420270525941
 20
563.3751758165664
 30
0.0
 11
449.3045666990743
 21
563.103884848537
 31
0.0
  0
LINE
  5
539
330
1F
100
AcDbEntity
  8
1
  6
DOT_CENTER
 62
     2
100
AcDbLine
 10
376.3109019820707
 20
456.6828782368497
 30
0.0
 11
380.3229013975717
 21
456.6828782368497
 31
0.0
  0
ARC
  5
53A
330
1F
100
AcDbEntity
  8
1
  6
Continuous
 62
     7
100
AcDbCircle
 10
346.9294780470645
 20
468.9991805349462
 30
0.0
 40
37.50000000000004
100
AcDbArc
 50
318.1852326719638
 51
346.4024002872667
  0
ARC
  5
53B
330
1F
100
AcDbEntity
  8
1
  6
Continuous
 62
     7
100
AcDbCircle
 10
422.5961803343097
 20
391.1892313172588
 30
0.0
 40
2.812500000000367
100
AcDbArc
 50
260.6214524487997
 51
7.97704646763582
  0
ARC
  5
53C
330
1F
100
AcDbEntity
  8
1
  6
Continuous
 62
     7
100
AcDbCircle
 10
423.1660635158761
 20
391.1864846134171
 30
0.0
 40
2.249999999999993
100
AcDbArc
 50
10.06068979215062
 51
90.0
  0
ARC
  5
53D
330
1F
100
AcDbEntity
  8
1
  6
Continuous
 62
     7
100
AcDbCircle
 10
423.4359094161961
 20
391.5389977355025
 30
0.0
 40
3.374999999999785
100
AcDbArc
 50
358.124494734312
 51
90.0
  0
ARC
  5
53E
330
1F
100
AcDbEntity
  8
1
  6
Continuous
 62
     7
100
AcDbCircle
 10
513.7898525407008
 20
417.5501498644887
 30
0.0
 40
5.237305172614771
100
AcDbArc
 50
343.6135836837599
 51
345.8843717205334
  0
ARC
  5
53F
330
1F
100
AcDbEntity
  8
1
  6
Continuous
 62
     7
100
AcDbCircle
 10
474.8783849413539
 20
424.0640603881237
 30
0.0
 40
3.0
100
AcDbArc
 50
180.0
 51
259.5206107033679
  0
ARC
  5
540
330
1F
100
AcDbEntity
  8
1
  6
Continuous
 62
     7
100
AcDbCircle
 10
515.8415218199209
 20
416.4749490909528
 30
0.0
 40
3.000000000000246
100
AcDbArc
 50
264.6637316467616
 51
352.2931031551182
  0
ARC
  5
541
330
1F
100
AcDbEntity
  8
1
  6
Continuous
 62
     7
100
AcDbCircle
 10
426.3783849413539
 20
363.7817060305358
 30
0.0
 40
1.000000000000206
100
AcDbArc
 50
90.40463457477415
 51
180.0
  0
ARC
  5
542
330
1F
100
AcDbEntity
  8
1
  6
Continuous
 62
     7
100
AcDbCircle
 10
421.3783849413539
 20
363.7817814836698
 30
0.0
 40
1.0
100
AcDbArc
 50
0.0
 51
89.5919069518117
  0
ARC
  5
543
330
1F
100
AcDbEntity
  8
1
  6
Continuous
 62
     7
100
AcDbCircle
 10
474.8783849413539
 20
424.0640603881237
 30
0.0
 40
3.000000000000141
100
AcDbArc
 50
259.5206107033679
 51
260.0737544933444
  0
ARC
  5
544
330
1F
100
AcDbEntity
  8
1
  6
Continuous
 62
     7
100
AcDbCircle
 10
468.2709006806999
 20
424.2051731085256
 30
0.0
 40
1.999999999999797
100
AcDbArc
 50
200.0737544933498
 51
260.0737544933577
  0
ARC
  5
545
330
1F
100
AcDbEntity
  8
1
  6
Continuous
 62
     7
100
AcDbCircle
 10
388.8783849413539
 20
420.7728782368495
 30
0.0
 40
8.000000000000163
100
AcDbArc
 50
119.9999999999993
 51
167.4256965937821
  0
ARC
  5
546
330
1F
100
AcDbEntity
  8
1
  6
Continuous
 62
     7
100
AcDbCircle
 10
383.8783849413539
 20
429.433132274694
 30
0.0
 40
1.999999999999918
100
AcDbArc
 50
300.0000000000013
 51
0.0
  0
ARC
  5
547
330
1F
100
AcDbEntity
  8
1
  6
Continuous
 62
     7
100
AcDbCircle
 10
423.8783849413539
 20
714.7728782368497
 30
0.0
 40
350.0000000000002
100
AcDbArc
 50
268.0470919588313
 51
270.0
  0
ARC
  5
548
330
1F
100
AcDbEntity
  8
1
  6
Continuous
 62
     7
100
AcDbCircle
 10
388.9095702692388
 20
363.3640568677225
 30
0.0
 40
4.999999999999812
100
AcDbArc
 50
6.40256167802824
 51
25.12344945025957
  0
ARC
  5
549
330
1F
100
AcDbEntity
  8
1
  6
Continuous
 62
     7
100
AcDbCircle
 10
446.949224082188
 20
385.4856747287406
 30
0.0
 40
19.99999999999945
100
AcDbArc
 50
279.4805069406063
 51
299.819906198815
  0
ARC
  5
54A
330
1F
100
AcDbEntity
  8
1
  6
Continuous
 62
     7
100
AcDbCircle
 10
423.8783849413539
 20
717.7728782368497
 30
0.0
 40
353.0000000000002
100
AcDbArc
 50
270.0
 51
274.2833309031395
  0
ARC
  5
54B
330
1F
100
AcDbEntity
  8
1
  6
Continuous
 62
     7
100
AcDbCircle
 10
402.379420786865
 20
538.2556106416971
 30
0.0
 40
172.9999999999996
100
AcDbArc
 50
244.5775152941965
 51
270.4123152156275
  0
ARC
  5
54C
330
1F
100
AcDbEntity
  8
1
  6
Continuous
 62
     7
100
AcDbCircle
 10
446.949224082188
 20
385.4856747287406
 30
0.0
 40
19.99999999999984
100
AcDbArc
 50
299.819906198815
 51
334.2751389910166
  0
ARC
  5
54D
330
1F
100
AcDbEntity
  8
1
  6
Continuous
 62
     7
100
AcDbCircle
 10
459.8783849413539
 20
362.9282635413326
 30
0.0
 40
5.999999999999894
100
AcDbArc
 50
119.8199061988087
 51
181.4839862698327
  0
ARC
  5
54E
330
1F
100
AcDbEntity
  8
1
  6
Continuous
 62
     7
100
AcDbCircle
 10
326.8792171087209
 20
379.2728782368495
 30
0.0
 40
3.000000000000573
100
AcDbArc
 50
65.73016935626613
 51
180.0
  0
ARC
  5
54F
330
1F
100
AcDbEntity
  8
1
  6
Continuous
 62
     7
100
AcDbCircle
 10
376.100900527633
 20
423.0671321796042
 30
0.0
 40
4.999999999999957
100
AcDbArc
 50
279.6319932573301
 51
353.6545960172256
  0
ARC
  5
550
330
1F
100
AcDbEntity
  8
1
  6
Continuous
 62
     7
100
AcDbCircle
 10
374.3757697359974
 20
402.2335579379694
 30
0.0
 40
17.0000000000011
100
AcDbArc
 50
6.97415510350548
 51
66.11578954213623
  0
ARC
  5
551
330
1F
100
AcDbEntity
  8
1
  6
Continuous
 62
     7
100
AcDbCircle
 10
500.8107299270839
 20
401.9586358393473
 30
0.0
 40
38.9999999999996
100
AcDbArc
 50
151.1263247147809
 51
176.0945946171472
  0
ARC
  5
552
330
1F
100
AcDbEntity
  8
1
  6
Continuous
 62
     7
100
AcDbCircle
 10
505.7531090182988
 20
401.0068184844142
 30
0.0
 40
43.99999999999972
100
AcDbArc
 50
175.2963545202533
 51
205.455335319852
  0
ARC
  5
553
330
1F
100
AcDbEntity
  8
1
  6
Continuous
 62
     7
100
AcDbCircle
 10
254.6110537645781
 20
394.3578114981723
 30
0.0
 40
137.0
100
AcDbArc
 50
353.6747122774171
 51
4.1607004822373
  0
ARC
  5
554
330
1F
100
AcDbEntity
  8
1
  6
Continuous
 62
     7
100
AcDbCircle
 10
378.3783849413539
 20
456.6828782368497
 30
0.0
 40
3.5
100
AcDbArc
 50
180.0
 51
0.0
  0
ARC
  5
555
330
1F
100
AcDbEntity
  8
1
  6
Continuous
 62
     7
100
AcDbCircle
 10
326.8783849413539
 20
576.1689611976834
 30
0.0
 40
3.0
100
AcDbArc
 50
180.0
 51
281.0707110058865
  0
ARC
  5
556
330
1F
100
AcDbEntity
  8
1
  6
Continuous
 62
     7
100
AcDbCircle
 10
383.3892689250349
 20
599.4535021049427
 30
0.0
 40
14.99999999999985
100
AcDbArc
 50
281.0707110058837
 51
314.2738211298549
  0
ARC
  5
557
330
1F
100
AcDbEntity
  8
1
  6
Continuous
 62
     7
100
AcDbCircle
 10
383.3892689250349
 20
516.3961367670739
 30
0.0
 40
15.00000000000002
100
AcDbArc
 50
45.72617887014572
 51
78.92928899411652
  0
ARC
  5
558
330
1F
100
AcDbEntity
  8
1
  6
Continuous
 62
     7
100
AcDbCircle
 10
423.8783849413539
 20
557.9248194360084
 30
0.0
 40
43.00000000000001
100
AcDbArc
 50
275.3375568494149
 51
345.453669188371
  0
ARC
  5
559
330
1F
100
AcDbEntity
  8
1
  6
Continuous
 62
     7
100
AcDbCircle
 10
326.8783849413539
 20
539.6806776743333
 30
0.0
 40
3.000000000000156
100
AcDbArc
 50
78.92928899411396
 51
180.0
  0
ARC
  5
55A
330
1F
100
AcDbEntity
  8
1
  6
Continuous
 62
     7
100
AcDbCircle
 10
515.8783849413539
 20
577.1269877431457
 30
0.0
 40
2.999999999999913
100
AcDbArc
 50
258.9105196444842
 51
0.0
  0
ARC
  5
55B
330
1F
100
AcDbEntity
  8
1
  6
Continuous
 62
     7
100
AcDbCircle
 10
464.3700355665164
 20
599.4510307928101
 30
0.0
 40
15.00000000000001
100
AcDbArc
 50
225.7226818483
 51
258.9105196444856
  0
ARC
  5
55C
330
1F
100
AcDbEntity
  8
1
  6
Continuous
 62
     7
100
AcDbCircle
 10
423.8783849413539
 20
557.9248194360084
 30
0.0
 40
42.99999999999989
100
AcDbArc
 50
95.33755684941487
 51
168.7756537807631
  0
ARC
  5
55D
330
1F
100
AcDbEntity
  8
1
  6
Continuous
 62
     7
100
AcDbCircle
 10
464.3700355665164
 20
516.3986080792067
 30
0.0
 40
14.99999999999996
100
AcDbArc
 50
101.0894803555145
 51
134.2773181517003
  0
ARC
  5
55E
330
1F
100
AcDbEntity
  8
1
  6
Continuous
 62
     7
100
AcDbCircle
 10
515.8783849413539
 20
538.722651128871
 30
0.0
 40
2.999999999999886
100
AcDbArc
 50
0.0
 51
101.0894803555154
  0
ARC
  5
55F
330
1F
100
AcDbEntity
  8
1
  6
Continuous
 62
     7
100
AcDbCircle
 10
423.8783849413539
 20
557.9248194360084
 30
0.0
 40
42.50000000000002
100
AcDbArc
 50
14.72130789481905
 51
168.6418559193132
  0
ARC
  5
560
330
1F
100
AcDbEntity
  8
1
  6
Continuous
 62
     7
100
AcDbCircle
 10
423.8783849413539
 20
557.9248194360084
 30
0.0
 40
42.49999999999989
100
AcDbArc
 50
191.3581440806868
 51
345.2786921051809
  0
ARC
  5
561
330
1F
100
AcDbEntity
  8
1
  6
Continuous
 62
     7
100
AcDbCircle
 10
423.8783849413539
 20
557.9248194360084
 30
0.0
 40
42.99999999999988
100
AcDbArc
 50
191.2243462192369
 51
264.662443150585
  0
ARC
  5
562
330
1F
100
AcDbEntity
  8
1
  6
Continuous
 62
     7
100
AcDbCircle
 10
423.8783849413539
 20
557.9248194360084
 30
0.0
 40
42.99999999999995
100
AcDbArc
 50
14.54633081162907
 51
84.66244315058513
  0
ARC
  5
563
330
1F
100
AcDbEntity
  8
1
  6
Continuous
 62
     7
100
AcDbCircle
 10
451.1704452707279
 20
554.6943127538419
 30
0.0
 40
3.230713360601385
100
AcDbArc
 50
0.0
 51
180.0
  0
ARC
  5
564
330
1F
100
AcDbEntity
  8
1
  6
Continuous
 62
     7
100
AcDbCircle
 10
451.1704452707279
 20
554.6148212008396
 30
0.0
 40
1.766890129995093
100
AcDbArc
 50
78.38573971609468
 51
168.3857397160983
  0
ARC
  5
565
330
1F
100
AcDbEntity
  8
1
  6
Continuous
 62
     7
100
AcDbCircle
 10
451.5261586313293
 20
554.9705345614409
 30
0.0
 40
1.375
100
AcDbArc
 50
0.0
 51
90.0
  0
ARC
  5
566
330
1F
100
AcDbEntity
  8
1
  6
Continuous
 62
     7
100
AcDbCircle
 10
451.5261586313293
 20
553.2205345614409
 30
0.0
 40
1.374999999999992
100
AcDbArc
 50
303.5707084127993
 51
0.0
  0
ARC
  5
567
330
1F
100
AcDbEntity
  8
1
  6
Continuous
 62
     7
100
AcDbCircle
 10
451.5261586313293
 20
553.2205345614409
 30
0.0
 40
2.875000000000007
100
AcDbArc
 50
299.9091388009423
 51
0.0
  0
ARC
  5
568
330
1F
100
AcDbEntity
  8
1
  6
Continuous
 62
     7
100
AcDbCircle
 10
423.8783849413539
 20
557.9248194360084
 30
0.0
 40
36.71999999999998
100
AcDbArc
 50
192.8515887204599
 51
167.1484112795401
  0
ARC
  5
569
330
1F
100
AcDbEntity
  8
1
  6
Continuous
 62
     7
100
AcDbCircle
 10
423.8783849413539
 20
557.9248194360084
 30
0.0
 40
45.90000000000003
100
AcDbArc
 50
347.4748892433581
 51
12.52511075664207
  0
ARC
  5
56A
330
1F
100
AcDbEntity
  8
1
  6
Continuous
 62
     7
100
AcDbCircle
 10
423.8783849413539
 20
557.9248194360084
 30
0.0
 40
40.50000000000008
100
AcDbArc
 50
17.14984979267356
 51
165.709671309478
  0
ARC
  5
56B
330
1F
100
AcDbEntity
  8
1
  6
Continuous
 62
     7
100
AcDbCircle
 10
423.8783849413539
 20
557.9248194360084
 30
0.0
 40
34.55999999999992
100
AcDbArc
 50
171.2470709231174
 51
188.7529290768826
  0
ARC
  5
56C
330
1F
100
AcDbEntity
  8
1
  6
Continuous
 62
     7
100
AcDbCircle
 10
387.0523248751454
 20
552.2548194360085
 30
0.0
 40
2.700000000000045
100
AcDbArc
 50
270.0
 51
90.0
  0
ARC
  5
56D
330
1F
100
AcDbEntity
  8
1
  6
Continuous
 62
     7
100
AcDbCircle
 10
387.0523248751454
 20
563.5948194360084
 30
0.0
 40
2.699999999999932
100
AcDbArc
 50
270.0
 51
90.0
  0
ARC
  5
56E
330
1F
100
AcDbEntity
  8
1
  6
Continuous
 62
     7
100
AcDbCircle
 10
425.3562501182011
 20
558.2388086299985
 30
0.0
 40
23.93999999999997
100
AcDbArc
 50
221.8201967068533
 51
226.9510927821499
  0
ARC
  5
56F
330
1F
100
AcDbEntity
  8
1
  6
Continuous
 62
     7
100
AcDbCircle
 10
425.3562501182011
 20
558.2388086299985
 30
0.0
 40
34.19999999999998
100
AcDbArc
 50
225.0130329237287
 51
227.6992684694371
  0
ARC
  5
570
330
1F
100
AcDbEntity
  8
1
  6
Continuous
 62
     7
100
AcDbCircle
 10
425.5014513031134
 20
557.8750022048068
 30
0.0
 40
24.30511818341853
100
AcDbArc
 50
187.7154620145579
 51
191.3874980509866
  0
ARC
  5
571
330
1F
100
AcDbEntity
  8
1
  6
Continuous
 62
     7
100
AcDbCircle
 10
425.1387070699797
 20
557.8328509311405
 30
0.0
 40
34.19999999999985
100
AcDbArc
 50
190.9293665245509
 51
193.518717928894
  0
ARC
  5
572
330
1F
100
AcDbEntity
  8
1
  6
Continuous
 62
     7
100
AcDbCircle
 10
425.1387070699797
 20
557.8328509311405
 30
0.0
 40
34.19999999999992
100
AcDbArc
 50
202.6953681394778
 51
205.2909727874135
  0
ARC
  5
573
330
1F
100
AcDbEntity
  8
1
  6
Continuous
 62
     7
100
AcDbCircle
 10
425.1387070699797
 20
557.8328509311405
 30
0.0
 40
23.93999999999989
100
AcDbArc
 50
204.5846785057866
 51
208.3054520854649
  0
ARC
  5
574
330
1F
100
AcDbEntity
  8
1
  6
Continuous
 62
     7
100
AcDbCircle
 10
425.4844476262046
 20
557.575075503046
 30
0.0
 40
24.30511818341857
100
AcDbArc
 50
162.5719856801234
 51
166.2433226375045
  0
ARC
  5
575
330
1F
100
AcDbEntity
  8
1
  6
Continuous
 62
     7
100
AcDbCircle
 10
425.138166532951
 20
557.691047538462
 30
0.0
 40
34.19999999999985
100
AcDbArc
 50
165.7814182860411
 51
168.3745425154123
  0
ARC
  5
576
330
1F
100
AcDbEntity
  8
1
  6
Continuous
 62
     7
100
AcDbCircle
 10
425.3746648936198
 20
557.6045017403179
 30
0.0
 40
23.94000000000003
100
AcDbArc
 50
115.9360805318616
 51
119.6575367872223
  0
ARC
  5
577
330
1F
100
AcDbEntity
  8
1
  6
Continuous
 62
     7
100
AcDbCircle
 10
425.3746648936198
 20
557.6045017403179
 30
0.0
 40
23.9400000000001
100
AcDbArc
 50
132.7825517332648
 51
136.5094578103611
  0
ARC
  5
578
330
1F
100
AcDbEntity
  8
1
  6
Continuous
 62
     7
100
AcDbCircle
 10
425.3746648936198
 20
557.6045017403179
 30
0.0
 40
34.20000000000015
100
AcDbArc
 50
130.7234973641148
 51
133.316621593486
  0
ARC
  5
579
330
1F
100
AcDbEntity
  8
1
  6
Continuous
 62
     7
100
AcDbCircle
 10
425.3746648936198
 20
557.6045017403179
 30
0.0
 40
34.2
100
AcDbArc
 50
118.95502437186
 51
121.5463118326863
  0
ARC
  5
57A
330
1F
100
AcDbEntity
  8
1
  6
Continuous
 62
     7
100
AcDbCircle
 10
425.3562501182011
 20
558.2388086299985
 30
0.0
 40
23.93999999999993
100
AcDbArc
 50
238.6721177299925
 51
242.393573985353
  0
ARC
  5
57B
330
1F
100
AcDbEntity
  8
1
  6
Continuous
 62
     7
100
AcDbCircle
 10
425.3562501182011
 20
558.2388086299985
 30
0.0
 40
34.2
100
AcDbArc
 50
236.7833426845281
 51
239.3746301453542
  0
ARC
  5
57C
330
1F
100
AcDbEntity
  8
1
  6
Continuous
 62
     7
100
AcDbCircle
 10
425.138166532951
 20
557.691047538462
 30
0.0
 40
34.19999999999994
100
AcDbArc
 50
177.5511927259961
 51
180.143015507667
  0
ARC
  5
57D
330
1F
100
AcDbEntity
  8
1
  6
Continuous
 62
     7
100
AcDbCircle
 10
425.138166532951
 20
557.691047538462
 30
0.0
 40
23.93999999999982
100
AcDbArc
 50
179.4405030923051
 51
183.1619593476657
  0
ARC
  5
57E
330
1F
100
AcDbEntity
  8
1
  6
Continuous
 62
     7
100
AcDbCircle
 10
425.3643818079557
 20
558.0369415821723
 30
0.0
 40
23.93999999999991
100
AcDbArc
 50
213.726103878497
 51
217.4100385268364
  0
ARC
  5
57F
330
1F
100
AcDbEntity
  8
1
  6
Continuous
 62
     7
100
AcDbCircle
 10
425.3643818079557
 20
558.0369415821723
 30
0.0
 40
34.20000000000001
100
AcDbArc
 50
214.2788073663788
 51
216.8573350389547
  0
ARC
  5
580
330
1F
100
AcDbEntity
  8
1
  6
Continuous
 62
     7
100
AcDbCircle
 10
399.2626077965255
 20
572.8888408998021
 30
0.0
 40
4.284029741362274
100
AcDbArc
 50
64.31900348006423
 51
236.9536376728244
  0
ARC
  5
581
330
1F
100
AcDbEntity
  8
1
  6
Continuous
 62
     7
100
AcDbCircle
 10
400.7220415852912
 20
572.0461353468735
 30
0.0
 40
4.290715068848628
100
AcDbArc
 50
235.3210221661448
 51
64.9100718029839
  0
ARC
  5
582
330
1F
100
AcDbEntity
  8
1
  6
Continuous
 62
     7
100
AcDbCircle
 10
399.2561369888309
 20
572.8901744219012
 30
0.0
 40
2.738765392558949
100
AcDbArc
 50
62.89529519796253
 51
237.7649586501075
  0
ARC
  5
583
330
1F
100
AcDbEntity
  8
1
  6
Continuous
 62
     7
100
AcDbCircle
 10
400.73330604775
 20
572.0410496506458
 30
0.0
 40
2.739421076644592
100
AcDbArc
 50
242.7207140490432
 51
63.19768219957906
  0
ARC
  5
584
330
1F
100
AcDbEntity
  8
1
  6
Continuous
 62
     7
100
AcDbCircle
 10
423.8783849413539
 20
557.9248194360084
 30
0.0
 40
40.49999999999994
100
AcDbArc
 50
194.2903286905222
 51
342.8501502073265
  0
ARC
  5
585
330
1F
100
AcDbEntity
  8
1
  6
Continuous
 62
     7
100
AcDbCircle
 10
326.8792171087209
 20
416.4749490909528
 30
0.0
 40
2.99999999999977
100
AcDbArc
 50
187.706896844882
 51
275.3362683532395
  0
ARC
  5
586
330
1F
100
AcDbEntity
  8
1
  6
Continuous
 62
     7
100
AcDbCircle
 10
458.8783849413539
 20
420.7728782368495
 30
0.0
 40
8.00000000000006
100
AcDbArc
 50
20.07375449334791
 51
60.00000000000069
  0
ARC
  5
587
330
1F
100
AcDbEntity
  8
1
  6
Continuous
 62
     7
100
AcDbCircle
 10
463.8783849413539
 20
429.433132274694
 30
0.0
 40
2.0
100
AcDbArc
 50
180.0
 51
239.9999999999986
  0
CIRCLE
  5
588
330
1F
100
AcDbEntity
  8
1
  6
Continuous
 62
     7
100
AcDbCircle
 10
316.3788010250376
 20
417.2728782368495
 30
0.0
 40
0.0000999999999181
  0
CIRCLE
  5
589
330
1F
100
AcDbEntity
  8
1
  6
Continuous
 62
     7
100
AcDbCircle
 10
378.3783849413539
 20
456.6828782368497
 30
0.0
 40
1.349999999999966
  0
CIRCLE
  5
58A
330
1F
100
AcDbEntity
  8
1
  6
Continuous
 62
     7
100
AcDbCircle
 10
468.8783849413539
 20
426.2728782368495
 30
0.0
 40
1.0
  0
CIRCLE
  5
58B
330
1F
100
AcDbEntity
  8
1
  6
Continuous
 62
     7
100
AcDbCircle
 10
378.3783849413539
 20
456.6828782368497
 30
0.0
 40
1.349999999999966
  0
SPLINE
  5
58C
330
1F
100
AcDbEntity
  8
1
  6
Continuous
 62
     1
100
AcDbSpline
210
0.0
220
0.0
230
1.0
 70
     8
 71
     3
 72
     9
 73
     5
 74
     3
 42
0.0000000001
 43
0.0000000001
 44
0.00000001
 40
0.0
 40
0.0
 40
0.0
 40
0.0
 40
0.0014948963535526
 40
0.0029897689623204
 40
0.0029897689623204
 40
0.0029897689623204
 40
0.0029897689623204
 10
426.8091014249929
 20
391.4285410843007
 30
0.0
 10
426.8090797063647
 20
391.4290389095605
 30
0.0
 10
426.8090362694535
 20
391.4300345521726
 30
0.0
 10
426.8089923121182
 20
391.4310301719439
 30
0.0
 10
426.8089703336251
 20
391.431527977876
 30
0.0
 11
426.8091014249929
 21
391.4285410843007
 31
0.0
 11
426.8090361390005
 21
391.4300345543697
 31
0.0
 11
426.8089703336251
 21
391.431527977876
 31
0.0
  0
SPLINE
  5
58D
330
1F
100
AcDbEntity
  8
1
  6
Continuous
 62
     7
100
AcDbSpline
210
0.0
220
0.0
230
1.0
 70
     8
 71
     3
 72
     9
 73
     5
 74
     3
 42
0.0000000001
 43
0.0000000001
 44
0.00000001
 40
0.0
 40
0.0
 40
0.0
 40
0.0
 40
1.82999751983729
 40
3.623290175265736
 40
3.623290175265736
 40
3.623290175265736
 40
3.623290175265736
 10
419.807790854255
 20
387.4889678732258
 30
0.0
 10
419.3284768323365
 20
387.890821866091
 30
0.0
 10
418.3794625480772
 20
388.6864697336185
 30
0.0
 10
418.0442789782446
 20
389.8779118498082
 30
0.0
 10
417.8783849413539
 20
390.467598099868
 30
0.0
 11
419.807790854255
 21
387.4889678732258
 31
0.0
 11
418.5264313470228
 21
388.7954933172323
 31
0.0
 11
417.8783849413539
 21
390.467598099868
 31
0.0
  0
SPLINE
  5
58E
330
1F
100
AcDbEntity
  8
1
  6
Continuous
 62
     7
100
AcDbSpline
210
0.0
220
0.0
230
1.0
 70
     8
 71
     3
 72
    13
 73
     9
 74
     7
 42
0.0000000001
 43
0.0000000001
 44
0.00000001
 40
0.0
 40
0.0
 40
0.0
 40
0.0
 40
0.1388330494064265
 40
0.2775778620494674
 40
1.097112524231324
 40
1.936567247306405
 40
2.77604884061122
 40
3.589553742412397
 40
3.589553742412397
 40
3.589553742412397
 40
3.589553742412397
 10
422.1378650021836
 20
388.4143253177085
 30
0.0
 10
422.0916493338905
 20
388.4170379307875
 30
0.0
 10
421.9992473701447
 20
388.4224614329164
 30
0.0
 10
421.6366854991667
 20
388.4718458712397
 30
0.0
 10
421.0608533149033
 20
388.6828687514603
 30
0.0
 10
420.3976441625621
 20
389.1982059374624
 30
0.0
 10
419.8719240229324
 20
389.8637447272387
 30
0.0
 10
419.7117862446239
 20
390.3953538225162
 30
0.0
 10
419.6329756384859
 20
390.6569812502846
 30
0.0
 11
422.1378650021836
 21
388.4143253177085
 31
0.0
 11
421.9993858631319
 21
388.4242320656599
 31
0.0
 11
421.8618696395416
 21
388.4426551838768
 31
0.0
 11
421.0894454241613
 21
388.7165126176112
 31
0.0
 11
420.4205345558875
 21
389.2237033927621
 31
0.0
 11
419.9150677291769
 21
389.8939515800724
 31
0.0
 11
419.6329756384859
 21
390.6569812502846
 31
0.0
  0
SPLINE
  5
58F
330
1F
100
AcDbEntity
  8
1
  6
Continuous
 62
     7
100
AcDbSpline
210
0.0
220
0.0
230
1.0
 70
     8
 71
     3
 72
    17
 73
    13
 74
    11
 42
0.0000000001
 43
0.0000000001
 44
0.00000001
 40
0.0
 40
0.0
 40
0.0
 40
0.0
 40
0.7659879649157714
 40
1.545150916798088
 40
2.887495720781227
 40
4.209178818978275
 40
5.341437012623134
 40
6.47947471474111
 40
7.459150790252382
 40
8.439570852445682
 40
9.160753278984103
 40
9.881187813569715
 40
9.881187813569715
 40
9.881187813569715
 40
9.881187813569715
 10
419.807790854255
 20
387.4889678732258
 30
0.0
 10
420.031620442388
 20
387.364479863242
 30
0.0
 10
420.4831294858078
 20
387.1133626504826
 30
0.0
 10
421.4136694354289
 20
386.8456077360256
 30
0.0
 10
422.5626728963576
 20
386.7091060561789
 30
0.0
 10
423.8341618946721
 20
386.9179280188567
 30
0.0
 10
424.9092504123739
 20
387.4792339137223
 30
0.0
 10
425.7195279317606
 20
388.2152882994403
 30
0.0
 10
426.3063457154502
 20
389.0752822074927
 30
0.0
 10
426.6393721743161
 20
389.9113172634677
 30
0.0
 10
426.8054900451067
 20
390.7062889818036
 30
0.0
 10
426.8078980481109
 20
391.1878736634051
 30
0.0
 10
426.8091014249929
 20
391.4285410843007
 30
0.0
 11
419.807790854255
 21
387.4889678732258
 31
0.0
 11
420.4906923819871
 21
387.142005244378
 31
0.0
 11
421.2354484497026
 21
386.9130220458962
 31
0.0
 11
422.570397423192
 21
386.7723066915098
 31
0.0
 11
423.8722446208862
 21
387.0004296537809
 31
0.0
 11
424.8792950881392
 21
387.5179796257465
 31
0.0
 11
425.7223723211092
 21
388.2824079027546
 31
0.0
 11
426.274276672222
 21
389.0918316484848
 31
0.0
 11
426.6401522038969
 21
390.0014241911503
 31
0.0
 11
426.781399620349
 21
390.7086393350022
 31
0.0
 11
426.8091014249929
 21
391.4285410843007
 31
0.0
  0
LWPOLYLINE
  5
590
330
1F
100
AcDbEntity
  8
1
  6
Continuous
 62
     7
 60
     1
100
AcDbPolyline
 90
        2
 70
     0
 43
0.0
 10
308.8783849413539
 20
379.2728782368495
 10
308.8783849413539
 20
416.2728782368495
  0
LWPOLYLINE
  5
591
330
1F
100
AcDbEntity
  8
1
  6
Continuous
 62
     7
 60
     1
100
AcDbPolyline
 90
        2
 70
     0
 43
0.0
 10
323.301866839532
 20
378.2728782368495
 10
309.455735210543
 20
378.2728782368495
  0
LWPOLYLINE
  5
592
330
1F
100
AcDbEntity
  8
1
  6
Continuous
 62
     7
 60
     1
100
AcDbPolyline
 90
        2
 70
     0
 43
0.0
 10
385.8783849413539
 20
433.7728782368495
 10
385.8783849413539
 20
429.433132274694
  0
LWPOLYLINE
  5
593
330
1F
100
AcDbEntity
  8
1
  6
Continuous
 62
     7
 60
     1
100
AcDbPolyline
 90
        2
 70
     0
 43
0.0
 10
461.8783849413539
 20
433.7728782368495
 10
461.8783849413539
 20
429.433132274694
  0
ARC
  5
594
330
1F
100
AcDbEntity
  8
1
  6
Continuous
 62
     7
100
AcDbCircle
 10
466.3783849413539
 20
456.1828782368497
 30
0.0
 40
2.0
100
AcDbArc
 50
180.0
 51
270.0
  0
ARC
  5
595
330
1F
100
AcDbEntity
  8
1
  6
Continuous
 62
     7
100
AcDbCircle
 10
381.3783849413539
 20
456.1828782368497
 30
0.0
 40
2.0
100
AcDbArc
 50
270.0
 51
0.0
  0
ARC
  5
596
330
1F
100
AcDbEntity
  8
1
  6
Continuous
 62
     7
100
AcDbCircle
 10
468.8783849413539
 20
426.2728782368495
 30
0.0
 40
3.0
100
AcDbArc
 50
0.0
 51
90.0
  0
ARC
  5
597
330
1F
100
AcDbEntity
  8
1
  6
Continuous
 62
     7
100
AcDbCircle
 10
469.4714433077829
 20
374.6344240563864
 30
0.0
 40
5.000000000000127
100
AcDbArc
 50
93.026935791889
 51
154.275138991017
  0
ARC
  5
598
330
1F
100
AcDbEntity
  8
1
  6
Continuous
 62
     7
100
AcDbCircle
 10
463.8783849413538
 20
433.7728782368495
 30
0.0
 40
2.0
100
AcDbArc
 50
90.0
 51
180.0
  0
ARC
  5
599
330
1F
100
AcDbEntity
  8
1
  6
Continuous
 62
     7
100
AcDbCircle
 10
383.8783849413538
 20
433.7728782368495
 30
0.0
 40
2.000000000000114
100
AcDbArc
 50
0.0
 51
90.0
  0
ARC
  5
59A
330
1F
100
AcDbEntity
  8
1
  6
Continuous
 62
     7
100
AcDbCircle
 10
515.8353749558614
 20
379.0495404758966
 30
0.0
 40
3.04185478573105
100
AcDbArc
 50
4.21120363538878
 51
90.68336875503023
  0
ARC
  5
59B
330
1F
100
AcDbEntity
  8
1
  6
Continuous
 62
     7
100
AcDbCircle
 10
384.8783849413539
 20
466.1828782368497
 30
0.0
 40
4.000000000000016
100
AcDbArc
 50
14.47751218592986
 51
90.0
  0
ARC
  5
59C
330
1F
100
AcDbEntity
  8
1
  6
Continuous
 62
     7
100
AcDbCircle
 10
468.3783849413538
 20
466.1828782368497
 30
0.0
 40
1.000000000000114
100
AcDbArc
 50
0.0
 51
90.0
  0
ARC
  5
59D
330
1F
100
AcDbEntity
  8
1
  6
Continuous
 62
     7
100
AcDbCircle
 10
463.3783849413538
 20
466.1828782368497
 30
0.0
 40
1.000000000000114
100
AcDbArc
 50
0.0
 51
90.0
  0
ARC
  5
59E
330
1F
100
AcDbEntity
  8
1
  6
Continuous
 62
     7
100
AcDbCircle
 10
375.8783849413539
 20
466.1828782368497
 30
0.0
 40
1.0
100
AcDbArc
 50
90.0
 51
180.0
  0
ARC
  5
59F
330
1F
100
AcDbEntity
  8
1
  6
Continuous
 62
     7
100
AcDbCircle
 10
376.8783849413539
 20
468.1828782368497
 30
0.0
 40
2.0
100
AcDbArc
 50
90.0
 51
180.0
  0
ARC
  5
5A0
330
1F
100
AcDbEntity
  8
1
  6
Continuous
 62
     7
100
AcDbCircle
 10
382.8783849413539
 20
460.1828782368497
 30
0.0
 40
1.0
100
AcDbArc
 50
90.0
 51
180.0
  0
ARC
  5
5A1
330
1F
100
AcDbEntity
  8
1
  6
Continuous
 62
     7
100
AcDbCircle
 10
382.5383958266964
 20
568.4548194360084
 30
0.0
 40
2.159999999999968
100
AcDbArc
 50
270.0
 51
345.7096713094794
  0
ARC
  5
5A2
330
1F
100
AcDbEntity
  8
1
  6
Continuous
 62
     7
100
AcDbCircle
 10
382.5383958266964
 20
547.3948194360084
 30
0.0
 40
2.160000000000052
100
AcDbArc
 50
14.29032869051761
 51
90.0
  0
ARC
  5
5A3
330
1F
100
AcDbEntity
  8
1
  6
Continuous
 62
     7
100
AcDbCircle
 10
376.8983849413539
 20
550.6348194360085
 30
0.0
 40
1.080000000000041
100
AcDbArc
 50
180.0
 51
270.0
  0
ARC
  5
5A4
330
1F
100
AcDbEntity
  8
1
  6
Continuous
 62
     7
100
AcDbCircle
 10
376.8983849413539
 20
565.2148194360084
 30
0.0
 40
1.080000000000041
100
AcDbArc
 50
90.0
 51
180.0
  0
ARC
  5
5A5
330
1F
100
AcDbEntity
  8
1
  6
Continuous
 62
     7
100
AcDbCircle
 10
464.1255960248563
 20
570.3448194360085
 30
0.0
 40
1.619999999999933
100
AcDbArc
 50
197.1498497926754
 51
270.0
  0
ARC
  5
5A6
330
1F
100
AcDbEntity
  8
1
  6
Continuous
 62
     7
100
AcDbCircle
 10
464.1255960248563
 20
545.5048194360083
 30
0.0
 40
1.620000000000118
100
AcDbArc
 50
90.0
 51
162.8501502073247
  0
ARC
  5
5A7
330
1F
100
AcDbEntity
  8
1
  6
Continuous
 62
     7
100
AcDbCircle
 10
467.6317162430959
 20
567.6448194360083
 30
0.0
 40
1.08000000000007
100
AcDbArc
 50
12.52511075664606
 51
90.0
  0
ARC
  5
5A8
330
1F
100
AcDbEntity
  8
1
  6
Continuous
 62
     7
100
AcDbCircle
 10
467.6317162430959
 20
548.2048194360085
 30
0.0
 40
1.080000000000041
100
AcDbArc
 50
270.0
 51
347.4748892433599
  0
LINE
  5
5A9
330
1F
100
AcDbEntity
  8
1
 62
     2
100
AcDbLine
 10
364.008229723801
 20
394.1066940106534
 30
0.0
 11
363.3371529427862
 21
391.0742318292729
 31
0.0
  0
LINE
  5
5AA
330
1F
100
AcDbEntity
  8
1
 62
     2
100
AcDbLine
 10
364.008229723801
 20
394.1066940106534
 30
0.0
 11
361.9108290928621
 21
391.8160431160696
 31
0.0
  0
LEADER
  5
5AB
330
1F
100
AcDbEntity
  8
1
  6
Continuous
 62
     2
100
AcDbLeader
  3
Standard
 71
     0
 76
     3
 10
364.008229723801
 20
394.1066940106534
 30
0.0
 10
349.6670610671467
 20
366.53209214783
 30
0.0
 10
322.7325821202169
 20
366.53209214783
 30
0.0
  0
LINE
  5
5AC
330
1F
100
AcDbEntity
  8
1
 62
     2
100
AcDbLine
 10
372.5272283925457
 20
393.6893875348184
 30
0.0
 11
373.0507006143752
 21
390.6279911605321
 31
0.0
  0
LINE
  5
5AD
330
1F
100
AcDbEntity
  8
1
 62
     2
100
AcDbLine
 10
372.5272283925457
 20
393.6893875348184
 30
0.0
 11
371.4498704476823
 21
390.7764043927182
 31
0.0
  0
LEADER
  5
5AE
330
1F
100
AcDbEntity
  8
1
  6
Continuous
 62
     2
100
AcDbLeader
  3
Standard
 71
     0
 76
     3
 10
372.5272283925457
 20
393.6893875348184
 30
0.0
 10
368.826978833967
 20
353.7773727473548
 30
0.0
 10
347.9194023870169
 20
353.7773727473548
 30
0.0
  0
DIMENSION
  5
5C2
330
1F
100
AcDbEntity
  8
1
100
AcDbDimension
  2
*D1
 10
511.3952819691066
 20
397.7728782368495
 30
0.0
 11
508.8952819691066
 21
371.9173236840315
 31
0.0
 70
    32
  1
<>
 71
     5
 42
-1.0
 53
90.0
  3
ME10_DIM_10
100
AcDbAlignedDimension
 13
453.8783849413539
 23
362.7728782368495
 33
0.0
 14
506.085820046316
 24
397.7728782368495
 34
0.0
 50
90.0
100
AcDbRotatedDimension
  0
DIMENSION
  5
5D0
330
1F
100
AcDbEntity
  8
1
100
AcDbDimension
  2
*D3
 10
533.8783849413487
 20
427.6870917992226
 30
0.0
 11
526.3737024992577
 21
430.2870917992226
 31
0.0
 70
    33
  1
15
 71
     5
 42
-1.0
 53
0.00013888888889
  3
ME10_DIM_11
100
AcDbAlignedDimension
 13
518.8690200571667
 23
416.2728782368495
 33
0.0
 14
533.8783849413487
 24
416.2728782368524
 34
0.0
  0
DIMENSION
  5
5DD
330
1F
100
AcDbEntity
  8
1
100
AcDbDimension
  2
*D4
 10
543.9213203435596
 20
362.7728782368495
 30
0.0
 11
541.6213203435597
 21
421.228032308696
 31
0.0
 70
    32
  1
(108
 71
     5
 42
-1.0
 53
90.0
  3
ME10_DIM_12
100
AcDbAlignedDimension
 13
384.8783849413539
 23
470.1828782368497
 33
0.0
 14
453.8783849413539
 24
362.7728782368495
 34
0.0
 50
90.0
100
AcDbRotatedDimension
  0
DIMENSION
  5
5EA
330
1F
100
AcDbEntity
  8
1
100
AcDbDimension
  2
*D5
 10
508.1667219509896
 20
606.9248194360084
 30
0.0
 11
505.8667219509896
 21
565.169354994428
 31
0.0
 70
    32
  1
98
 71
     5
 42
-1.0
 53
90.0
  3
ME10_DIM_13
100
AcDbAlignedDimension
 13
427.8783849413539
 23
508.9248194360084
 33
0.0
 14
427.8783849413539
 24
606.9248194360084
 34
0.0
 50
90.0
100
AcDbRotatedDimension
  0
DIMENSION
  5
5F7
330
1F
100
AcDbEntity
  8
1
100
AcDbDimension
  2
*D6
 10
308.8783849413539
 20
344.5973766531678
 30
0.0
 11
420.326017525228
 21
347.5437521289886
 31
0.0
 70
    32
  1
225
 71
     5
 42
-1.0
 53
0.00013888888889
  3
ME10_DIM_14
100
AcDbAlignedDimension
 13
533.8783849413538
 23
379.2728782368495
 33
0.0
 14
308.8783849413539
 24
379.2728782368495
 34
0.0
100
AcDbRotatedDimension
  0
INSERT
  5
601
330
1F
100
AcDbEntity
  8
1
100
AcDbBlockReference
  2
*D7
 10
0.0
 20
0.0
 30
0.0
  0
ENDSEC
  0
SECTION
  2
OBJECTS
  0
DICTIONARY
  5
C
330
0
100
AcDbDictionary
281
     1
  3
ACAD_GROUP
350
D
  3
ACAD_LAYOUT
350
1A
  3
ACAD_MLEADERSTYLE
350
603
  3
ACAD_MLINESTYLE
350
17
  3
ACAD_PLOTSETTINGS
350
19
  3
ACAD_PLOTSTYLENAME
350
E
  3
ACAD_TABLESTYLE
350
602
  3
ACAD_VISUALSTYLE
350
2A
  0
DICTIONARY
  5
D
102
{ACAD_REACTORS
330
C
102
}
330
C
100
AcDbDictionary
281
     1
  0
DICTIONARY
  5
1A
102
{ACAD_REACTORS
330
C
102
}
330
C
100
AcDbDictionary
281
     1
  3
Layout1
350
1E
  3
Layout2
350
26
  3
Model
350
22
  0
DICTIONARY
  5
603
102
{ACAD_REACTORS
330
C
102
}
330
C
100
AcDbDictionary
281
     1
  0
DICTIONARY
  5
17
102
{ACAD_REACTORS
330
C
102
}
330
C
100
AcDbDictionary
281
     1
  3
Standard
350
18
  0
DICTIONARY
  5
19
102
{ACAD_REACTORS
330
C
102
}
330
C
100
AcDbDictionary
281
     1
  0
ACDBDICTIONARYWDFLT
  5
E
102
{ACAD_REACTORS
330
C
102
}
330
C
100
AcDbDictionary
281
     1
  3
Normal
350
F
100
AcDbDictionaryWithDefault
340
F
  0
DICTIONARY
  5
602
102
{ACAD_REACTORS
330
C
102
}
330
C
100
AcDbDictionary
281
     1
  0
DICTIONARY
  5
2A
102
{ACAD_REACTORS
330
C
102
}
330
C
100
AcDbDictionary
281
     1
  3
2dWireframe
350
2F
  3
3D Hidden
350
31
  3
3dWireframe
350
30
  3
Basic
350
32
  3
Brighten
350
36
  3
ColorChange
350
3A
  3
Conceptual
350
34
  3
Dim
350
35
  3
Facepattern
350
39
  3
Flat
350
2B
  3
FlatWithEdges
350
2C
  3
Gouraud
350
2D
  3
GouraudWithEdges
350
2E
  3
Linepattern
350
38
  3
Realistic
350
33
  3
Thicken
350
37
  0
LAYOUT
  5
1E
102
{ACAD_REACTORS
330
1A
102
}
330
1A
100
AcDbPlotSettings
  1

  2
none_device
  4

  6

 40
0.0
 41
0.0
 42
0.0
 43
0.0
 44
0.0
 45
0.0
 46
0.0
 47
0.0
 48
0.0
 49
0.0
140
0.0
141
0.0
142
1.0
143
1.0
 70
   688
 72
     0
 73
     0
 74
     5
  7

 75
    16
147
1.0
148
0.0
149
0.0
100
AcDbLayout
  1
Layout1
 70
     1
 71
     1
 10
0.0
 20
0.0
 11
12.0
 21
9.0
 12
0.0
 22
0.0
 32
0.0
 14
1.00000000000000E+20
 24
1.00000000000000E+20
 34
1.00000000000000E+20
 15
-1.00000000000000E+20
 25
-1.00000000000000E+20
 35
-1.00000000000000E+20
146
0.0
 13
0.0
 23
0.0
 33
0.0
 16
1.0
 26
0.0
 36
0.0
 17
0.0
 27
1.0
 37
0.0
 76
     0
330
1B
  0
LAYOUT
  5
26
102
{ACAD_REACTORS
330
1A
102
}
330
1A
100
AcDbPlotSettings
  1

  2
none_device
  4

  6

 40
0.0
 41
0.0
 42
0.0
 43
0.0
 44
0.0
 45
0.0
 46
0.0
 47
0.0
 48
0.0
 49
0.0
140
0.0
141
0.0
142
1.0
143
1.0
 70
   688
 72
     0
 73
     0
 74
     5
  7

 75
    16
147
1.0
148
0.0
149
0.0
100
AcDbLayout
  1
Layout2
 70
     1
 71
     2
 10
0.0
 20
0.0
 11
0.0
 21
0.0
 12
0.0
 22
0.0
 32
0.0
 14
0.0
 24
0.0
 34
0.0
 15
0.0
 25
0.0
 35
0.0
146
0.0
 13
0.0
 23
0.0
 33
0.0
 16
1.0
 26
0.0
 36
0.0
 17
0.0
 27
1.0
 37
0.0
 76
     0
330
23
  0
LAYOUT
  5
22
102
{ACAD_REACTORS
330
1A
102
}
330
1A
100
AcDbPlotSettings
  1

  2
none_device
  4

  6

 40
0.0
 41
0.0
 42
0.0
 43
0.0
 44
0.0
 45
0.0
 46
0.0
 47
0.0
 48
0.0
 49
0.0
140
0.0
141
0.0
142
1.0
143
1.0
 70
  1712
 72
     0
 73
     0
 74
     0
  7

 75
     0
147
1.0
148
0.0
149
0.0
100
AcDbLayout
  1
Model
 70
     1
 71
     0
 10
0.0
 20
0.0
 11
12.0
 21
9.0
 12
0.0
 22
0.0
 32
0.0
 14
304.892456537163
 24
288.2728782368495
 34
0.0
 15
544.9213203435596
 25
609.5911103454608
 35
0.0
146
0.0
 13
0.0
 23
0.0
 33
0.0
 16
1.0
 26
0.0
 36
0.0
 17
0.0
 27
1.0
 37
0.0
 76
     0
330
1F
331
29
  0
MLINESTYLE
  5
18
102
{ACAD_REACTORS
330
17
102
}
330
17
100
AcDbMlineStyle
  2
Standard
 70
     0
  3

 62
   256
 51
90.0
 52
90.0
 71
     2
 49
0.5
 62
   256
  6
BYLAYER
 49
-0.5
 62
   256
  6
BYLAYER
  0
ACDBPLACEHOLDER
  5
F
102
{ACAD_REACTORS
330
E
102
}
330
E
  0
VISUALSTYLE
  5
2F
102
{ACAD_REACTORS
330
2A
102
}
330
2A
100
AcDbVisualStyle
  2
2dWireframe
 70
     4
 71
     0
 72
     2
 73
     0
 90
        0
 40
-0.6
 41
-30.0
 62
     5
 63
     7
 74
     1
 91
        4
 64
     7
 65
   257
 75
     1
175
     1
 42
1.0
 92
        0
 66
   257
 43
1.0
 76
     1
 77
     6
 78
     2
 67
     7
 79
     5
170
     0
171
     0
290
     0
174
     0
 93
        1
 44
0.0
173
     0
291
     0
 45
0.0
1001
ACAD
1000
AcDbSavedByObjectVersion
1070
     0
  0
VISUALSTYLE
  5
31
102
{ACAD_REACTORS
330
2A
102
}
330
2A
100
AcDbVisualStyle
  2
3D Hidden
 70
     6
 71
     1
 72
     2
 73
     2
 90
        0
 40
-0.6
 41
-30.0
 62
     5
 63
     7
 74
     2
 91
        2
 64
     7
 65
   257
 75
     2
175
     1
 42
40.0
 92
        0
 66
   257
 43
1.0
 76
     1
 77
     6
 78
     2
 67
     7
 79
     3
170
     0
171
     0
290
     0
174
     0
 93
        1
 44
0.0
173
     0
291
     0
 45
0.0
1001
ACAD
1000
AcDbSavedByObjectVersion
1070
     0
  0
VISUALSTYLE
  5
30
102
{ACAD_REACTORS
330
2A
102
}
330
2A
100
AcDbVisualStyle
  2
3dWireframe
 70
     5
 71
     0
 72
     2
 73
     0
 90
        0
 40
-0.6
 41
-30.0
 62
     5
 63
     7
 74
     1
 91
        4
 64
     7
 65
   257
 75
     1
175
     1
 42
1.0
 92
        0
 66
   257
 43
1.0
 76
     1
 77
     6
 78
     2
 67
     7
 79
     5
170
     0
171
     0
290
     0
174
     0
 93
        1
 44
0.0
173
     0
291
     0
 45
0.0
1001
ACAD
1000
AcDbSavedByObjectVersion
1070
     0
  0
VISUALSTYLE
  5
32
102
{ACAD_REACTORS
330
2A
102
}
330
2A
100
AcDbVisualStyle
  2
Basic
 70
     7
 71
     1
 72
     0
 73
     1
 90
        0
 40
-0.6
 41
-30.0
 62
     5
 63
     7
 74
     0
 91
        4
 64
     7
 65
   257
 75
     1
175
     1
 42
1.0
 92
        8
 66
     7
 43
1.0
 76
     1
 77
     6
 78
     2
 67
     7
 79
     5
170
     0
171
     0
290
     0
174
     0
 93
        1
 44
0.0
173
     0
291
     1
 45
0.0
1001
ACAD
1000
AcDbSavedByObjectVersion
1070
     0
  0
VISUALSTYLE
  5
36
102
{ACAD_REACTORS
330
2A
102
}
330
2A
100
AcDbVisualStyle
  2
Brighten
 70
    12
 71
     2
 72
     2
 73
     0
 90
        0
 40
-0.6
 41
-30.0
 62
     5
 63
     7
 74
     1
 91
        4
 64
     7
 65
   257
 75
     1
175
     1
 42
1.0
 92
        8
 66
     7
 43
1.0
 76
     1
 77
     6
 78
     2
 67
     7
 79
     5
170
     0
171
     0
290
     0
174
     0
 93
        1
 44
50.0
173
     0
291
     1
 45
0.0
1001
ACAD
1000
AcDbSavedByObjectVersion
1070
     0
  0
VISUALSTYLE
  5
3A
102
{ACAD_REACTORS
330
2A
102
}
330
2A
100
AcDbVisualStyle
  2
ColorChange
 70
    16
 71
     2
 72
     2
 73
     3
 90
        0
 40
-0.6
 41
-30.0
 62
     5
 63
     8
 74
     1
 91
        4
 64
     7
 65
   257
 75
     1
175
     1
 42
1.0
 92
        8
 66
     8
 43
1.0
 76
     1
 77
     6
 78
     2
 67
     7
 79
     5
170
     0
171
     0
290
     0
174
     0
 93
        1
 44
0.0
173
     0
291
     1
 45
0.0
1001
ACAD
1000
AcDbSavedByObjectVersion
1070
     0
  0
VISUALSTYLE
  5
34
102
{ACAD_REACTORS
330
2A
102
}
330
2A
100
AcDbVisualStyle
  2
Conceptual
 70
     9
 71
     3
 72
     2
 73
     0
 90
        0
 40
-0.6
 41
-30.0
 62
     5
 63
     7
 74
     2
 91
        2
 64
     7
 65
   257
 75
     1
175
     1
 42
40.0
 92
        8
 66
     7
 43
1.0
 76
     1
 77
     6
 78
     2
 67
     7
 79
     3
170
     0
171
     0
290
     0
174
     0
 93
        1
 44
0.0
173
     0
291
     0
 45
0.0
1001
ACAD
1000
AcDbSavedByObjectVersion
1070
     0
  0
VISUALSTYLE
  5
35
102
{ACAD_REACTORS
330
2A
102
}
330
2A
100
AcDbVisualStyle
  2
Dim
 70
    11
 71
     2
 72
     2
 73
     0
 90
        0
 40
-0.6
 41
-30.0
 62
     5
 63
     7
 74
     1
 91
        4
 64
     7
 65
   257
 75
     1
175
     1
 42
1.0
 92
        8
 66
     7
 43
1.0
 76
     1
 77
     6
 78
     2
 67
     7
 79
     5
170
     0
171
     0
290
     0
174
     0
 93
        1
 44
-50.0
173
     0
291
     1
 45
0.0
1001
ACAD
1000
AcDbSavedByObjectVersion
1070
     0
  0
VISUALSTYLE
  5
39
102
{ACAD_REACTORS
330
2A
102
}
330
2A
100
AcDbVisualStyle
  2
Facepattern
 70
    15
 71
     2
 72
     2
 73
     0
 90
        0
 40
-0.6
 41
-30.0
 62
     5
 63
     7
 74
     1
 91
        4
 64
     7
 65
   257
 75
     1
175
     1
 42
1.0
 92
        8
 66
     7
 43
1.0
 76
     1
 77
     6
 78
     2
 67
     7
 79
     5
170
     0
171
     0
290
     0
174
     0
 93
        1
 44
0.0
173
     0
291
     1
 45
0.0
1001
ACAD
1000
AcDbSavedByObjectVersion
1070
     0
  0
VISUALSTYLE
  5
2B
102
{ACAD_REACTORS
330
2A
102
}
330
2A
100
AcDbVisualStyle
  2
Flat
 70
     0
 71
     2
 72
     1
 73
     1
 90
        2
 40
-0.6
 41
30.0
 62
     5
 63
     7
 74
     0
 91
        4
 64
     7
 65
   257
 75
     1
175
     1
 42
1.0
 92
        8
 66
     7
 43
1.0
 76
     1
 77
     6
 78
     2
 67
     7
 79
     5
170
     0
171
     0
290
     0
174
     0
 93
       13
 44
0.0
173
     0
291
     1
 45
0.0
1001
ACAD
1000
AcDbSavedByObjectVersion
1070
     0
  0
VISUALSTYLE
  5
2C
102
{ACAD_REACTORS
330
2A
102
}
330
2A
100
AcDbVisualStyle
  2
FlatWithEdges
 70
     1
 71
     2
 72
     1
 73
     1
 90
        2
 40
-0.6
 41
30.0
 62
     5
 63
     7
 74
     1
 91
        4
 64
     7
 65
   257
 75
     1
175
     1
 42
1.0
 92
        0
 66
   257
 43
1.0
 76
     1
 77
     6
 78
     2
 67
     7
 79
     5
170
     0
171
     0
290
     0
174
     0
 93
       13
 44
0.0
173
     0
291
     1
 45
0.0
1001
ACAD
1000
AcDbSavedByObjectVersion
1070
     0
  0
VISUALSTYLE
  5
2D
102
{ACAD_REACTORS
330
2A
102
}
330
2A
100
AcDbVisualStyle
  2
Gouraud
 70
     2
 71
     2
 72
     2
 73
     1
 90
        2
 40
-0.6
 41
30.0
 62
     5
 63
     7
 74
     0
 91
        4
 64
     7
 65
   257
 75
     1
175
     1
 42
1.0
 92
        0
 66
     7
 43
1.0
 76
     1
 77
     6
 78
     2
 67
     7
 79
     5
170
     0
171
     0
290
     0
174
     0
 93
       13
 44
0.0
173
     0
291
     1
 45
0.0
1001
ACAD
1000
AcDbSavedByObjectVersion
1070
     0
  0
VISUALSTYLE
  5
2E
102
{ACAD_REACTORS
330
2A
102
}
330
2A
100
AcDbVisualStyle
  2
GouraudWithEdges
 70
     3
 71
     2
 72
     2
 73
     1
 90
        2
 40
-0.6
 41
30.0
 62
     5
 63
     7
 74
     1
 91
        4
 64
     7
 65
   257
 75
     1
175
     1
 42
1.0
 92
        0
 66
   257
 43
1.0
 76
     1
 77
     6
 78
     2
 67
     7
 79
     5
170
     0
171
     0
290
     0
174
     0
 93
       13
 44
0.0
173
     0
291
     1
 45
0.0
1001
ACAD
1000
AcDbSavedByObjectVersion
1070
     0
  0
VISUALSTYLE
  5
38
102
{ACAD_REACTORS
330
2A
102
}
330
2A
100
AcDbVisualStyle
  2
Linepattern
 70
    14
 71
     2
 72
     2
 73
     0
 90
        0
 40
-0.6
 41
-30.0
 62
     5
 63
     7
 74
     1
 91
        4
 64
     7
 65
   257
 75
     7
175
     7
 42
1.0
 92
        8
 66
     7
 43
1.0
 76
     1
 77
     6
 78
     2
 67
     7
 79
     5
170
     0
171
     0
290
     0
174
     0
 93
        1
 44
0.0
173
     0
291
     1
 45
0.0
1001
ACAD
1000
AcDbSavedByObjectVersion
1070
     0
  0
VISUALSTYLE
  5
33
102
{ACAD_REACTORS
330
2A
102
}
330
2A
100
AcDbVisualStyle
  2
Realistic
 70
     8
 71
     2
 72
     2
 73
     0
 90
        0
 40
-0.6
 41
-30.0
 62
     5
 63
     7
 74
     1
 91
        0
 64
     7
 65
   257
 75
     1
175
     1
 42
1.0
 92
        8
 66
     8
 43
1.0
 76
     1
 77
     6
 78
     2
 67
     7
 79
     5
170
     0
171
     0
290
     0
174
     0
 93
       13
 44
0.0
173
     0
291
     0
 45
0.0
1001
ACAD
1000
AcDbSavedByObjectVersion
1070
     0
  0
VISUALSTYLE
  5
37
102
{ACAD_REACTORS
330
2A
102
}
330
2A
100
AcDbVisualStyle
  2
Thicken
 70
    13
 71
     2
 72
     2
 73
     0
 90
        0
 40
-0.6
 41
-30.0
 62
     5
 63
     7
 74
     1
 91
        4
 64
     7
 65
   257
 75
     1
175
     1
 42
1.0
 92
       12
 66
     7
 43
1.0
 76
     1
 77
     6
 78
     2
 67
     7
 79
     5
170
     0
171
     0
290
     0
174
     0
 93
        1
 44
0.0
173
     0
291
     1
 45
0.0
1001
ACAD
1000
AcDbSavedByObjectVersion
1070
     0
  0
ENDSEC
  0
EOF
