  0
SECTION
  2
HEADER
  9
$ACADVER
  1
AC1009
  9
$INSBASE
 10
0
 20
0
  9
$EXTMIN
 10
123.9199454023201
 20
54.5037867774456
  9
$EXTMAX
 10
888.8104003066801
 20
750.1016229283443
  9
$LIMMIN
 10
123.9199454023201
 20
54.5037867774456
  9
$LIMMAX
 10
888.8104003066801
 20
750.1016229283443
  9
$VIEWCTR
 10
10
 20
10
  9
$VIEWSIZE
 40
10
  9
$SNAPMODE
 70
0
  9
$SNAPUNIT
 10
1
 20
1
  9
$SNAPBASE
 10
0
 20
0
  9
$SNAPANG
 50
0
  9
$SNAPSTYLE
 70
0
  9
$SNAPISOPAIR
 70
0
  9
$GRIDMODE
 70
0
  9
$GRIDUNIT
 10
0
 20
0
  9
$ORTHOMODE
 70
0
  9
$REGENMODE
 70
1
  9
$FILLMODE
 70
1
  9
$QTEXTMODE
 70
0
  9
$DRAGMODE
 70
2
  9
$LTSCALE
 40
1
  9
$OSMODE
 70
0
  9
$ATTMODE
 70
1
  9
$TEXTSIZE
 40
3.5
  9
$TRACEWID
 40
0.5
  9
$TEXTSTYLE
  7
STANDARD
  9
$CLAYER
  8
0
  9
$CELTYPE
  6
BYLAYER
  9
$CECOLOR
 62
256
  9
$DIMSCALE
 40
1
  9
$DIMASZ
 40
0.18
  9
$DIMEXO
 40
0.0625
  9
$DIMDLI
 40
0.38
  9
$DIMRND
 40
0
  9
$DIMDLE
 40
0
  9
$DIMEXE
 40
0.18
  9
$DIMTP
 40
0
  9
$DIMTM
 40
0
  9
$DIMTXT
 40
0.18
  9
$DIMCEN
 40
0.09
  9
$DIMTSZ
 40
0
  9
$DIMTOL
 70
0
  9
$DIMLIM
 70
0
  9
$DIMTIH
 70
1
  9
$DIMTOH
 70
1
  9
$DIMSE1
 70
0
  9
$DIMSE2
 70
0
  9
$DIMTAD
 70
0
  9
$DIMZIN
 70
0
  9
$DIMBLK
  1

  9
$DIMASO
 70
1
  9
$DIMSHO
 70
1
  9
$DIMPOST
  1

  9
$DIMAPOST
  1

  9
$DIMALT
 70
0
  9
$DIMALTD
 70
2
  9
$DIMALTF
 40
25.4
  9
$DIMLFAC
 40
1
  9
$DIMTOFL
 70
0
  9
$DIMTVP
 40
0
  9
$DIMTIX
 70
0
  9
$DIMSOXD
 70
0
  9
$DIMSAH
 70
0
  9
$DIMBLK1
  1

  9
$DIMBLK2
  1

  9
$DIMSTYLE
  2
*UNNAMED
  9
$DIMCLRD
 70
0
  9
$DIMCLRE
 70
0
  9
$DIMCLRT
 70
0
  9
$DIMTFAC
 40
1
  9
$DIMGAP
 40
0.09
  9
$LUNITS
 70
2
  9
$LUPREC
 70
4
  9
$AXISMODE
 70
0
  9
$AXISUNIT
 10
0
 20
0
  9
$SKETCHINC
 40
0.1
  9
$FILLETRAD
 40
2
  9
$AUNITS
 70
0
  9
$AUPREC
 70
0
  9
$MENU
  1
ACAD
  9
$ELEVATION
 40
0
  9
$THICKNESS
 40
0
  9
$VIEWDIR
 10
0
 20
0
 30
1
  9
$LIMCHECK
 70
0
  9
$BLIPMODE
 70
1
  9
$CHAMFERA
 40
0
  9
$CHAMFERB
 40
0
  9
$FASTZOOM
 70
1
  9
$SKPOLY
 70
0
  9
$ANGBASE
 50
0
  9
$ANGDIR
 70
0
  9
$PDMODE
 70
0
  9
$PDSIZE
 40
0
  9
$PLINEWID
 40
0
  9
$COORDS
 70
2
  0
ENDSEC
  0
SECTION
  2
TABLES
  0
TABLE
  2
DIMSTYLE
 70
2
  0
DIMSTYLE
  2
DMST_1
 70
0
  3

  4

  5

  6

  7

 40
1
 41
3
 42
1
 43
7
 44
1
 45
0
 46
0
 47
0
 48
0
140
3
141
0
142
0
143
25.4
144
1
145
0
146
1
147
0.09
 71
0
 72
0
 73
0
 74
0
 75
0
 76
0
 77
1
 78
1
170
0
171
2
172
0
173
0
174
0
175
0
176
2
177
2
178
2
  0
DIMSTYLE
  2
DMST_2
 70
0
  3

  4

  5

  6

  7

 40
1
 41
3
 42
1
 43
7
 44
1
 45
0
 46
0
 47
0
 48
0
140
3
141
0
142
0
143
25.4
144
1
145
0
146
1
147
0.09
 71
0
 72
0
 73
0
 74
0
 75
0
 76
0
 77
1
 78
1
170
0
171
2
172
1
173
0
174
0
175
0
176
2
177
2
178
2
  0
ENDTAB
  0
TABLE
  2
LTYPE
 70
9
  0
LTYPE
  2
CONTINUOUS
 70
64
  3
Solid line
 72
65
 73
0
 40
0
  0
LTYPE
  2
BORDER
 70
64
  3
__ __ . __ __ .
 72
65
 73
6
 40
35.22521831796395
 49
10.06434809084684
 49
-5.032174045423421
 49
10.06434809084684
 49
-5.032174045423421
 49
0
 49
-5.032174045423421
  0
LTYPE
  2
CENTER
 70
64
  3
____ _ ____ _
 72
65
 73
4
 40
40.25739236338737
 49
25.16087022711711
 49
-5.032174045423421
 49
5.032174045423421
 49
-5.032174045423421
  0
LTYPE
  2
DASHDOT
 70
64
  3
__ . __ . __ .
 72
65
 73
4
 40
20.12869618169368
 49
10.06434809084684
 49
-5.032174045423421
 49
0
 49
-5.032174045423421
  0
LTYPE
  2
DASHED
 70
64
  3
__ __ __ __ __
 72
65
 73
2
 40
15.09652213627026
 49
10.06434809084684
 49
-5.032174045423421
  0
LTYPE
  2
DIVIDE
 70
64
  3
__ . . __ . . 
 72
65
 73
6
 40
25.16087022711711
 49
10.06434809084684
 49
-5.032174045423421
 49
0
 49
-5.032174045423421
 49
0
 49
-5.032174045423421
  0
LTYPE
  2
DOT
 70
64
  3
..............
 72
65
 73
4
 40
10.06434809084684
 49
0
 49
-5.032174045423421
 49
0
 49
-5.032174045423421
  0
LTYPE
  2
HIDDEN
 70
64
  3
_ _ _ _ _ _ _
 72
65
 73
2
 40
7.548261068135131
 49
5.032174045423421
 49
-2.516087022711711
  0
LTYPE
  2
PHANTOM
 70
64
  3
_____ _ _ _____ _ _ 
 72
65
 73
6
 40
50.32174045423421
 49
25.16087022711711
 49
-5.032174045423421
 49
5.032174045423421
 49
-5.032174045423421
 49
5.032174045423421
 49
-5.032174045423421
  0
ENDTAB
  0
TABLE
  2
LAYER
 70
3
  0
LAYER
  2
0
 70
0
 62
7
  6
CONTINUOUS
  0
LAYER
  2
1
 70
0
 62
7
  6
CONTINUOUS
  0
ENDTAB
  0
TABLE
  2
STYLE
 70
4
  0
STYLE
  2
STANDARD
 70
0
 40
0
 41
1
 50
0
 71
0
 42
3.5
  3
txt
  4

  0
STYLE
  2
SIMPLEX
 70
0
 40
0
 41
1
 50
0
 71
0
 42
3.5
  3
simplex
  4

  0
STYLE
  2
COMPLEX
 70
0
 40
0
 41
1
 50
0
 71
0
 42
3.5
  3
complex
  4

  0
STYLE
  2
ITALIC
 70
0
 40
0
 41
1
 50
0
 71
0
 42
3.5
  3
italic
  4

  0
ENDTAB
  0
TABLE
  2
VIEW
 70
0
  0
ENDTAB
  0
ENDSEC
  0
SECTION
  2
BLOCKS
  0
BLOCK
  8
1
  2
*D0
 70
1
 10
0
 20
0
 30
0
  0
LINE
  8
1
 62
2
 10
298.9199418260806
 20
132.9232639797868
 30
0
 11
438.9199424224199
 21
132.9232639797868
 31
0
  0
LINE
  8
1
 62
2
 10
298.9199418260806
 20
132.9232639797868
 30
0
 11
438.9199424224199
 21
132.9232639797868
 31
0
  0
LINE
  8
1
 62
2
 10
298.9199418260806
 20
161.4232639797868
 30
0
 11
298.9199418260806
 21
131.9232639797868
 31
0
  0
LINE
  8
1
 62
2
 10
438.9199424224199
 20
213.9232654702243
 30
0
 11
438.9199424224199
 21
131.9232639797868
 31
0
  0
SOLID
  8
1
 62
2
 10
438.9199424224199
 20
132.9232639797868
 30
0
 11
435.9199424224199
 21
132.5332639797868
 31
0
 12
435.9199424224199
 22
133.3132639797868
 32
0
 13
435.9199424224199
 23
133.3132639797868
 33
0
  0
SOLID
  8
1
 62
2
 10
298.9199418260806
 20
132.9232639797868
 30
0
 11
301.9199418260806
 21
133.3132639797868
 31
0
 12
301.9199418260806
 22
132.5332639797868
 32
0
 13
301.9199418260806
 23
132.5332639797868
 33
0
  0
TEXT
  8
1
 62
2
 10
365.5054516531875
 20
133.9232639797868
 30
0
 40
3
  1
140
 41
0.8910000000000001
 51
10
  0
ENDBLK
  8
0
  0
BLOCK
  8
1
  2
*D1
 70
1
 10
0
 20
0
 30
0
  0
LINE
  8
1
 62
2
 10
138.9199454023201
 20
132.9232639797868
 30
0
 11
298.9199418260805
 21
132.9232639797868
 31
0
  0
LINE
  8
1
 62
2
 10
138.9199454023201
 20
132.9232639797868
 30
0
 11
298.9199418260805
 21
132.9232639797868
 31
0
  0
LINE
  8
1
 62
2
 10
138.9199454023201
 20
213.9232654702243
 30
0
 11
138.9199454023201
 21
131.9232639797868
 31
0
  0
LINE
  8
1
 62
2
 10
298.9199418260805
 20
161.4232639797868
 30
0
 11
298.9199418260805
 21
131.9232639797868
 31
0
  0
SOLID
  8
1
 62
2
 10
298.9199418260805
 20
132.9232639797868
 30
0
 11
295.9199418260805
 21
132.5332639797868
 31
0
 12
295.9199418260805
 22
133.3132639797868
 32
0
 13
295.9199418260805
 23
133.3132639797868
 33
0
  0
SOLID
  8
1
 62
2
 10
138.9199454023201
 20
132.9232639797868
 30
0
 11
141.9199454023201
 21
133.3132639797868
 31
0
 12
141.9199454023201
 22
132.5332639797868
 32
0
 13
141.9199454023201
 23
132.5332639797868
 33
0
  0
TEXT
  8
1
 62
2
 10
215.5054531431376
 20
133.9232639797868
 30
0
 40
3
  1
160
 41
0.8910000000000001
 51
10
  0
ENDBLK
  8
0
  0
BLOCK
  8
1
  2
*D2
 70
1
 10
0
 20
0
 30
0
  0
LINE
  8
1
 62
2
 10
138.9199454023201
 20
112.9232639797868
 30
0
 11
438.9199424224198
 21
112.9232639797868
 31
0
  0
LINE
  8
1
 62
2
 10
138.9199454023201
 20
112.9232639797868
 30
0
 11
438.9199424224198
 21
112.9232639797868
 31
0
  0
LINE
  8
1
 62
2
 10
138.9199454023201
 20
213.9232654702243
 30
0
 11
138.9199454023201
 21
111.9232639797868
 31
0
  0
LINE
  8
1
 62
2
 10
438.9199424224198
 20
213.9232654702243
 30
0
 11
438.9199424224198
 21
111.9232639797868
 31
0
  0
SOLID
  8
1
 62
2
 10
438.9199424224198
 20
112.9232639797868
 30
0
 11
435.9199424224198
 21
112.5332639797868
 31
0
 12
435.9199424224198
 22
113.3132639797868
 32
0
 13
435.9199424224198
 23
113.3132639797868
 33
0
  0
SOLID
  8
1
 62
2
 10
138.9199454023201
 20
112.9232639797868
 30
0
 11
141.9199454023201
 21
113.3132639797868
 31
0
 12
141.9199454023201
 22
112.5332639797868
 32
0
 13
141.9199454023201
 23
112.5332639797868
 33
0
  0
TEXT
  8
1
 62
2
 10
295.0554513550178
 20
113.9232639797868
 30
0
 40
3
  1
300
 41
0.8910000000000001
 51
10
  0
ENDBLK
  8
0
  0
BLOCK
  8
1
  2
*D3
 70
1
 10
0
 20
0
 30
0
  0
LINE
  8
1
 62
2
 10
471.4199424224198
 20
177.4232639797868
 30
0
 11
471.4199424224198
 21
277.4232654701868
 31
0
  0
LINE
  8
1
 62
2
 10
349.9199425714305
 20
177.4232639797868
 30
0
 11
472.4199424224198
 21
177.4232639797868
 31
0
  0
LINE
  8
1
 62
2
 10
454.9199424224198
 20
277.4232654701868
 30
0
 11
472.4199424224198
 21
277.4232654701868
 31
0
  0
SOLID
  8
1
 62
2
 10
471.4199424224198
 20
177.4232639797868
 30
0
 11
471.0299424224198
 21
180.4232639797868
 31
0
 12
471.8099424224198
 22
180.4232639797868
 32
0
 13
471.8099424224198
 23
180.4232639797868
 33
0
  0
SOLID
  8
1
 62
2
 10
471.4199424224198
 20
277.4232654701868
 30
0
 11
471.8099424224198
 21
274.4232654701868
 31
0
 12
471.0299424224198
 22
274.4232654701868
 32
0
 13
471.0299424224198
 23
274.4232654701868
 33
0
  0
TEXT
  8
1
 62
2
 10
470.4199424224198
 20
224.0087742539241
 30
0
 40
3
  1
100
 50
90
 41
0.8910000000000001
 51
10
  0
ENDBLK
  8
0
  0
BLOCK
  8
1
  2
*D4
 70
1
 10
0
 20
0
 30
0
  0
LINE
  8
1
 62
2
 10
491.4199424224198
 20
177.4232639797867
 30
0
 11
491.4199424224198
 21
444.0732627046535
 31
0
  0
LINE
  8
1
 62
2
 10
349.9199425714305
 20
177.4232639797867
 30
0
 11
492.4199424224198
 21
177.4232639797867
 31
0
  0
LINE
  8
1
 62
2
 10
336.9199423030168
 20
444.0732627046535
 30
0
 11
492.4199424224198
 21
444.0732627046535
 31
0
  0
SOLID
  8
1
 62
2
 10
491.4199424224198
 20
177.4232639797867
 30
0
 11
491.0299424224198
 21
180.4232639797867
 31
0
 12
491.8099424224198
 22
180.4232639797867
 32
0
 13
491.8099424224198
 23
180.4232639797867
 33
0
  0
SOLID
  8
1
 62
2
 10
491.4199424224198
 20
444.0732627046535
 30
0
 11
491.8099424224198
 21
441.0732627046535
 31
0
 12
491.0299424224198
 22
441.0732627046535
 32
0
 13
491.0299424224198
 23
441.0732627046535
 33
0
  0
TEXT
  8
1
 62
2
 10
490.4199424224198
 20
306.8837728711574
 30
0
 40
3
  1
267
 50
90
 41
0.8910000000000001
 51
10
  0
ENDBLK
  8
0
  0
BLOCK
  8
1
  2
*D5
 70
1
 10
0
 20
0
 30
0
  0
LINE
  8
1
 62
2
 10
491.4199424224198
 20
524.1016274579336
 30
0
 11
491.4199424224198
 21
735.1016229283443
 31
0
  0
LINE
  8
1
 62
2
 10
437.9199383693185
 20
524.1016274579336
 30
0
 11
492.4199424224198
 21
524.1016274579336
 31
0
  0
LINE
  8
1
 62
2
 10
437.9199383693185
 20
735.1016229283443
 30
0
 11
492.4199424224198
 21
735.1016229283443
 31
0
  0
SOLID
  8
1
 62
2
 10
491.4199424224198
 20
524.1016274579336
 30
0
 11
491.0299424224198
 21
527.1016274579336
 31
0
 12
491.8099424224198
 22
527.1016274579336
 32
0
 13
491.8099424224198
 23
527.1016274579336
 33
0
  0
SOLID
  8
1
 62
2
 10
491.4199424224198
 20
735.1016229283443
 30
0
 11
491.8099424224198
 21
732.1016229283443
 31
0
 12
491.0299424224198
 22
732.1016229283443
 32
0
 13
491.0299424224198
 23
732.1016229283443
 33
0
  0
TEXT
  8
1
 62
2
 10
490.4199424224198
 20
626.6371347220762
 30
0
 40
3
  1
211
 50
90
 41
0.8910000000000001
 51
10
  0
ENDBLK
  8
0
  0
BLOCK
  8
1
  2
*D6
 70
1
 10
0
 20
0
 30
0
  0
LINE
  8
1
 62
2
 10
649.5782179138721
 20
224.4259482973179
 30
0
 11
854.8708011905912
 21
343.6943609566563
 31
0
  0
SOLID
  8
1
 62
2
 10
832.0231068255716
 20
330.4205826430555
 30
0
 11
829.6250179187482
 21
328.5763295164566
 31
0
 12
829.2331894126363
 22
329.2507703380252
 32
0
 13
829.2331894126363
 23
329.2507703380252
 33
0
  0
SOLID
  8
1
 62
2
 10
649.5782179138723
 20
224.425948297318
 30
0
 11
651.9763068206958
 21
226.270201423917
 31
0
 12
652.3681353268077
 22
225.5957606023483
 32
0
 13
652.3681353268077
 23
225.5957606023483
 33
0
  0
TEXT
  8
1
 62
2
 10
850.5388600990134
 20
342.3341556174486
 30
0
 40
3
  1
D1
 50
30.15521514963792
 41
0.8910000000000001
 51
10
  0
TEXT
  8
1
 62
2
 10
846.9686635620284
 20
340.2599858298625
 30
0
 40
3
  1
%%c
 50
30.15521514963792
 41
0.8910000000000001
 51
10
  0
ENDBLK
  8
0
  0
BLOCK
  8
1
  2
*D7
 70
1
 10
0
 20
0
 30
0
  0
LINE
  8
1
 62
2
 10
664.2438718892339
 20
242.8536569774534
 30
0
 11
860.6352295713303
 21
331.53517436887
 31
0
  0
SOLID
  8
1
 62
2
 10
817.3574528502101
 20
311.9928739629202
 30
0
 11
814.78378351534
 21
310.4028028466648
 31
0
 12
814.4627800079079
 22
311.1136873296972
 32
0
 13
814.4627800079079
 23
311.1136873296972
 33
0
  0
SOLID
  8
1
 62
2
 10
664.2438718892339
 20
242.8536569774534
 30
0
 11
666.8175412241039
 21
244.4437280937088
 31
0
 12
667.1385447315361
 22
243.7328436106764
 32
0
 13
667.1385447315361
 23
243.7328436106764
 33
0
  0
TEXT
  8
1
 62
2
 10
855.3669047385554
 20
330.2534601503711
 30
0
 40
3
  1
D2
 50
24.30179794213299
 41
0.8910000000000001
 51
10
  0
TEXT
  8
1
 62
2
 10
851.6037912994613
 20
328.5542071189058
 30
0
 40
3
  1
%%c
 50
24.30179794213299
 41
0.8910000000000001
 51
10
  0
ENDBLK
  8
0
  0
BLOCK
  8
1
  2
*D8
 70
1
 10
0
 20
0
 30
0
  0
LINE
  8
1
 62
2
 10
681.4133737039124
 20
257.9450739491126
 30
0
 11
864.0130974772965
 21
317.8352031545041
 31
0
  0
SOLID
  8
1
 62
2
 10
800.1879510355316
 20
296.901456991261
 30
0
 11
797.458905094667
 21
295.5959271169761
 31
0
 12
797.2158172644841
 22
296.3370804795247
 32
0
 13
797.2158172644841
 23
296.3370804795247
 33
0
  0
SOLID
  8
1
 62
2
 10
681.4133737039124
 20
257.9450739491126
 30
0
 11
684.142419644777
 21
259.2506038233975
 31
0
 12
684.3855074749598
 22
258.5094504608489
 32
0
 13
684.3855074749598
 23
258.5094504608489
 33
0
  0
TEXT
  8
1
 62
2
 10
858.6378667408911
 20
317.1246171907119
 30
0
 40
3
  1
D3
 50
18.15875949648707
 41
0.8910000000000001
 51
10
  0
TEXT
  8
1
 62
2
 10
854.714523011205
 20
315.8378158854719
 30
0
 40
3
  1
%%c
 50
18.15875949648707
 41
0.8910000000000001
 51
10
  0
ENDBLK
  8
0
  0
ENDSEC
  0
SECTION
  2
ENTITIES
  0
POLYLINE
  8
0
 62
7
 66
1
  0
VERTEX
  8
0
 10
676.9056380103584
 20
368.613827122278
 30
0
  0
VERTEX
  8
0
 10
676.2142613838578
 20
368.0628417861773
 30
0
  0
VERTEX
  8
0
 10
675.2837881755568
 20
367.2456695568768
 30
0
  0
SEQEND
  8
0
  0
POLYLINE
  8
0
 62
7
 66
1
  0
VERTEX
  8
0
 10
804.6956867290865
 20
368.613827122278
 30
0
  0
VERTEX
  8
0
 10
805.3870633555871
 20
368.0628417861773
 30
0
  0
VERTEX
  8
0
 10
806.3175365638872
 20
367.2456695568768
 30
0
  0
SEQEND
  8
0
  0
POLYLINE
  8
0
 62
7
 66
1
  0
VERTEX
  8
0
 10
675.6414383958563
 20
367.0704319011765
 30
0
  0
VERTEX
  8
0
 10
675.7177472424564
 20
367.1691669951765
 30
0
  0
VERTEX
  8
0
 10
675.9330466698575
 20
367.2994851003767
 30
0
  0
SEQEND
  8
0
  0
POLYLINE
  8
0
 62
7
 66
1
  0
VERTEX
  8
0
 10
805.9598863435876
 20
367.0704319011765
 30
0
  0
VERTEX
  8
0
 10
805.8835774969875
 20
367.1691669951765
 30
0
  0
VERTEX
  8
0
 10
805.6682780695865
 20
367.2994851003767
 30
0
  0
SEQEND
  8
0
  0
POLYLINE
  8
0
 62
7
 66
1
  0
VERTEX
  8
0
 10
797.8000700782795
 20
365.9978835714753
 30
0
  0
VERTEX
  8
0
 10
799.3122026635811
 20
366.0928784739754
 30
0
  0
VERTEX
  8
0
 10
801.2146227370822
 20
366.3412882815758
 30
0
  0
VERTEX
  8
0
 10
802.7584128391836
 20
366.7335986028762
 30
0
  0
VERTEX
  8
0
 10
803.8736343694854
 20
367.2733261119767
 30
0
  0
VERTEX
  8
0
 10
804.6851441575864
 20
368.2229547630776
 30
0
  0
SEQEND
  8
0
  0
POLYLINE
  8
0
 62
7
 66
1
  0
VERTEX
  8
0
 10
683.809454025065
 20
365.9973620307753
 30
0
  0
VERTEX
  8
0
 10
682.2891220758638
 20
366.0928784739754
 30
0
  0
VERTEX
  8
0
 10
680.3867020023617
 20
366.3412882815758
 30
0
  0
VERTEX
  8
0
 10
678.8429119002594
 20
366.7335986028762
 30
0
  0
VERTEX
  8
0
 10
677.7276903699585
 20
367.2733261119767
 30
0
  0
VERTEX
  8
0
 10
676.9161805818576
 20
368.2229547630776
 30
0
  0
SEQEND
  8
0
  0
POLYLINE
  8
0
 62
7
 66
1
  0
VERTEX
  8
0
 10
659.8006621311415
 20
408.4232627284178
 30
0
  0
VERTEX
  8
0
 10
659.820942611741
 20
408.4315477741178
 30
0
  0
VERTEX
  8
0
 10
662.6277774882437
 20
409.5354853999189
 30
0
  0
SEQEND
  8
0
  0
POLYLINE
  8
0
 62
7
 66
1
  0
VERTEX
  8
0
 10
818.9735472512002
 20
409.5354853999189
 30
0
  0
VERTEX
  8
0
 10
821.2900296164025
 20
408.631491555118
 30
0
  0
VERTEX
  8
0
 10
821.780382127703
 20
408.4315477741178
 30
0
  0
VERTEX
  8
0
 10
821.8006626083025
 20
408.4232627284178
 30
0
  0
SEQEND
  8
0
  0
POLYLINE
  8
0
 62
7
 66
1
  0
VERTEX
  8
0
 10
710.6929667604918
 20
408.4232627284178
 30
0
  0
VERTEX
  8
0
 10
710.7030939618917
 20
408.4315477741178
 30
0
  0
VERTEX
  8
0
 10
711.8139997434928
 20
409.5354853999189
 30
0
  0
SEQEND
  8
0
  0
POLYLINE
  8
0
 62
7
 66
1
  0
VERTEX
  8
0
 10
711.8139997434928
 20
409.5354853999189
 30
0
  0
VERTEX
  8
0
 10
712.0747328112939
 20
409.9780051840193
 30
0
  0
VERTEX
  8
0
 10
712.2411098640932
 20
410.3369145523197
 30
0
  0
VERTEX
  8
0
 10
712.2936792981936
 20
410.4232667815197
 30
0
  0
SEQEND
  8
0
  0
POLYLINE
  8
0
 62
7
 66
1
  0
VERTEX
  8
0
 10
769.3076454412503
 20
410.4232667815197
 30
0
  0
VERTEX
  8
0
 10
769.3602148753507
 20
410.3369145523197
 30
0
  0
VERTEX
  8
0
 10
769.523801685451
 20
409.9837570321193
 30
0
  0
VERTEX
  8
0
 10
769.7873249959512
 20
409.5354853999189
 30
0
  0
SEQEND
  8
0
  0
POLYLINE
  8
0
 62
7
 66
1
  0
VERTEX
  8
0
 10
700.3006622505818
 20
419.574755324229
 30
0
  0
VERTEX
  8
0
 10
697.9735032033796
 20
420.1903818976296
 30
0
  0
VERTEX
  8
0
 10
695.5506638001771
 20
420.4232721460297
 30
0
  0
SEQEND
  8
0
  0
POLYLINE
  8
0
 62
7
 66
1
  0
VERTEX
  8
0
 10
709.8006628761914
 20
419.574755324229
 30
0
  0
VERTEX
  8
0
 10
707.4735038292884
 20
420.1903818976296
 30
0
  0
VERTEX
  8
0
 10
705.0506607006864
 20
420.4232721460297
 30
0
  0
SEQEND
  8
0
  0
POLYLINE
  8
0
 62
7
 66
1
  0
VERTEX
  8
0
 10
776.5506640387575
 20
420.4232721460297
 30
0
  0
VERTEX
  8
0
 10
775.2579957556563
 20
420.3559785019298
 30
0
  0
VERTEX
  8
0
 10
771.8006618632526
 20
419.574755324229
 30
0
  0
SEQEND
  8
0
  0
POLYLINE
  8
0
 62
7
 66
1
  0
VERTEX
  8
0
 10
781.3006624888621
 20
419.574755324229
 30
0
  0
VERTEX
  8
0
 10
780.1003516030614
 20
419.9345289601293
 30
0
  0
VERTEX
  8
0
 10
776.5506640387575
 20
420.4232721460297
 30
0
  0
SEQEND
  8
0
  0
POLYLINE
  8
0
 62
7
 66
1
  0
VERTEX
  8
0
 10
790.8006631147719
 20
419.574755324229
 30
0
  0
VERTEX
  8
0
 10
788.4735040675696
 20
420.1903818976296
 30
0
  0
VERTEX
  8
0
 10
786.0506609392678
 20
420.4232721460297
 30
0
  0
SEQEND
  8
0
  0
POLYLINE
  8
0
 62
7
 66
1
  0
VERTEX
  8
0
 10
831.3006595088127
 20
419.574755324229
 30
0
  0
VERTEX
  8
0
 10
830.100348623012
 20
419.9345289601293
 30
0
  0
VERTEX
  8
0
 10
826.550661058408
 20
420.4232721460297
 30
0
  0
SEQEND
  8
0
  0
POLYLINE
  8
0
 62
7
 66
1
  0
VERTEX
  8
0
 10
826.550661058408
 20
420.4232721460297
 30
0
  0
VERTEX
  8
0
 10
825.2580002261066
 20
420.3559785019298
 30
0
  0
VERTEX
  8
0
 10
821.8006626083025
 20
419.574755324229
 30
0
  0
SEQEND
  8
0
  0
POLYLINE
  8
0
 62
7
 66
1
  0
VERTEX
  8
0
 10
821.8006626083025
 20
419.574755324229
 30
0
  0
VERTEX
  8
0
 10
819.4735035611002
 20
420.1903818976296
 30
0
  0
VERTEX
  8
0
 10
817.0506641578977
 20
420.4232721460297
 30
0
  0
SEQEND
  8
0
  0
POLYLINE
  8
0
 62
7
 66
1
  0
VERTEX
  8
0
 10
669.30065903165
 20
419.574755324229
 30
0
  0
VERTEX
  8
0
 10
665.8433288643464
 20
420.3559785019298
 30
0
  0
VERTEX
  8
0
 10
664.5506605815453
 20
420.4232721460297
 30
0
  0
SEQEND
  8
0
  0
POLYLINE
  8
0
 62
7
 66
1
  0
VERTEX
  8
0
 10
664.5506605815453
 20
420.4232721460297
 30
0
  0
VERTEX
  8
0
 10
661.0009730172424
 20
419.9345289601293
 30
0
  0
VERTEX
  8
0
 10
659.8006621311415
 20
419.574755324229
 30
0
  0
SEQEND
  8
0
  0
POLYLINE
  8
0
 62
7
 66
1
  0
VERTEX
  8
0
 10
659.8006621311415
 20
419.574755324229
 30
0
  0
VERTEX
  8
0
 10
657.4735030842394
 20
420.1903818976296
 30
0
  0
VERTEX
  8
0
 10
655.050663681036
 20
420.4232721460297
 30
0
  0
SEQEND
  8
0
  0
POLYLINE
  8
0
 62
7
 66
1
  0
VERTEX
  8
0
 10
650.3006652306312
 20
369.2717729937786
 30
0
  0
VERTEX
  8
0
 10
653.7579953979348
 20
368.4905572665778
 30
0
  0
VERTEX
  8
0
 10
655.050663681036
 20
368.4232636224777
 30
0
  0
SEQEND
  8
0
  0
POLYLINE
  8
0
 62
7
 66
1
  0
VERTEX
  8
0
 10
655.050663681036
 20
368.4232636224777
 30
0
  0
VERTEX
  8
0
 10
658.600351245339
 20
368.9119993578783
 30
0
  0
VERTEX
  8
0
 10
659.8006621311415
 20
369.2717729937786
 30
0
  0
SEQEND
  8
0
  0
POLYLINE
  8
0
 62
7
 66
1
  0
VERTEX
  8
0
 10
659.8006621311415
 20
369.2717729937786
 30
0
  0
VERTEX
  8
0
 10
662.1278211783438
 20
368.6561538708781
 30
0
  0
VERTEX
  8
0
 10
664.5506605815453
 20
368.4232636224777
 30
0
  0
SEQEND
  8
0
  0
POLYLINE
  8
0
 62
7
 66
1
  0
VERTEX
  8
0
 10
812.300665707794
 20
369.2717729937786
 30
0
  0
VERTEX
  8
0
 10
813.5009765935947
 20
368.9119993578783
 30
0
  0
VERTEX
  8
0
 10
817.0506641578977
 20
368.4232636224777
 30
0
  0
SEQEND
  8
0
  0
POLYLINE
  8
0
 62
7
 66
1
  0
VERTEX
  8
0
 10
817.0506641578977
 20
368.4232636224777
 30
0
  0
VERTEX
  8
0
 10
818.3433249902
 20
368.4905572665778
 30
0
  0
VERTEX
  8
0
 10
821.8006626083025
 20
369.2717729937786
 30
0
  0
SEQEND
  8
0
  0
POLYLINE
  8
0
 62
7
 66
1
  0
VERTEX
  8
0
 10
821.8006626083025
 20
369.2717729937786
 30
0
  0
VERTEX
  8
0
 10
824.1278216552046
 20
368.6561538708781
 30
0
  0
VERTEX
  8
0
 10
826.550661058408
 20
368.4232636224777
 30
0
  0
SEQEND
  8
0
  0
POLYLINE
  8
0
 62
7
 66
1
  0
VERTEX
  8
0
 10
675.0652328442566
 20
367.0493393073763
 30
0
  0
VERTEX
  8
0
 10
674.2404610227559
 20
366.0170688162753
 30
0
  0
VERTEX
  8
0
 10
673.6159682583548
 20
364.9871452581744
 30
0
  0
VERTEX
  8
0
 10
672.994351417854
 20
363.9780460725734
 30
0
  0
VERTEX
  8
0
 10
672.4740997266536
 20
363.1487442981725
 30
0
  0
VERTEX
  8
0
 10
672.098009319353
 20
362.5533087981719
 30
0
  0
VERTEX
  8
0
 10
671.6483742306527
 20
361.8503092656711
 30
0
  0
VERTEX
  8
0
 10
671.1147785496523
 20
361.0273106823703
 30
0
  0
VERTEX
  8
0
 10
670.7486048649516
 20
360.4707523119699
 30
0
  0
SEQEND
  8
0
  0
POLYLINE
  8
0
 62
7
 66
1
  0
VERTEX
  8
0
 10
810.8490541888923
 20
360.4755206835699
 30
0
  0
VERTEX
  8
0
 10
810.2083787632919
 20
361.4548771512708
 30
0
  0
VERTEX
  8
0
 10
809.6085697723911
 20
362.3879506122717
 30
0
  0
VERTEX
  8
0
 10
809.1272250127904
 20
363.1487442981725
 30
0
  0
VERTEX
  8
0
 10
808.60697332159
 20
363.9780460725734
 30
0
  0
VERTEX
  8
0
 10
807.9853564810892
 20
364.9871452581744
 30
0
  0
VERTEX
  8
0
 10
807.3608637166881
 20
366.0170688162753
 30
0
  0
VERTEX
  8
0
 10
806.5360918951874
 20
367.0493393073763
 30
0
  0
SEQEND
  8
0
  0
POLYLINE
  8
0
 62
7
 66
1
  0
VERTEX
  8
0
 10
675.632028312657
 20
367.0784934294763
 30
0
  0
VERTEX
  8
0
 10
674.8909339617558
 20
366.1189406049754
 30
0
  0
VERTEX
  8
0
 10
674.3710846017557
 20
365.1774479877745
 30
0
  0
VERTEX
  8
0
 10
673.8111436677555
 20
364.2720534336738
 30
0
  0
VERTEX
  8
0
 10
672.6739541004536
 20
362.8105177413722
 30
0
  0
VERTEX
  8
0
 10
671.174152226452
 20
361.0251127611704
 30
0
  0
VERTEX
  8
0
 10
670.2144578409516
 20
359.7749127876692
 30
0
  0
VERTEX
  8
0
 10
669.6723833988508
 20
359.0176506768683
 30
0
  0
VERTEX
  8
0
 10
669.00283697345
 20
358.1349878442675
 30
0
  0
VERTEX
  8
0
 10
668.3357194374494
 20
357.2866423857667
 30
0
  0
VERTEX
  8
0
 10
667.6790476155493
 20
356.4812942277658
 30
0
  0
VERTEX
  8
0
 10
666.1588460517478
 20
354.6517371069639
 30
0
  0
VERTEX
  8
0
 10
665.5038357090471
 20
353.8710876237632
 30
0
  0
VERTEX
  8
0
 10
664.9445876787459
 20
353.2115026245626
 30
0
  0
VERTEX
  8
0
 10
664.7397861192458
 20
352.9674216042624
 30
0
  0
VERTEX
  8
0
 10
664.6305606078458
 20
352.8163536321621
 30
0
  0
VERTEX
  8
0
 10
664.6981746267466
 20
352.8329386245621
 30
0
  0
SEQEND
  8
0
  0
POLYLINE
  8
0
 62
7
 66
1
  0
VERTEX
  8
0
 10
816.9031501126983
 20
352.8329386245621
 30
0
  0
VERTEX
  8
0
 10
816.9707641315981
 20
352.8163536321621
 30
0
  0
VERTEX
  8
0
 10
816.8615386201973
 20
352.9674216042624
 30
0
  0
VERTEX
  8
0
 10
816.6567370606981
 20
353.2115026245626
 30
0
  0
VERTEX
  8
0
 10
816.0974890303969
 20
353.8710876237632
 30
0
  0
VERTEX
  8
0
 10
815.4424786876962
 20
354.6517371069639
 30
0
  0
VERTEX
  8
0
 10
813.9222771238947
 20
356.4812942277658
 30
0
  0
VERTEX
  8
0
 10
813.2656053019946
 20
357.2866423857667
 30
0
  0
VERTEX
  8
0
 10
812.5984877659939
 20
358.1349878442675
 30
0
  0
VERTEX
  8
0
 10
811.9289413405932
 20
359.0176506768683
 30
0
  0
VERTEX
  8
0
 10
811.3868668984924
 20
359.7749127876692
 30
0
  0
VERTEX
  8
0
 10
810.427172512992
 20
361.0251127611704
 30
0
  0
VERTEX
  8
0
 10
808.9273706389895
 20
362.8105177413722
 30
0
  0
VERTEX
  8
0
 10
807.7901810716885
 20
364.2720534336738
 30
0
  0
VERTEX
  8
0
 10
807.2302401376883
 20
365.1774479877745
 30
0
  0
VERTEX
  8
0
 10
806.7103907776882
 20
366.1189406049754
 30
0
  0
VERTEX
  8
0
 10
805.969296426787
 20
367.0784934294763
 30
0
  0
SEQEND
  8
0
  0
POLYLINE
  8
0
 62
7
 66
1
  0
VERTEX
  8
0
 10
357.4318285719392
 20
575.2970515079846
 30
0
  0
VERTEX
  8
0
 10
359.5952573850409
 20
575.2954868861846
 30
0
  0
VERTEX
  8
0
 10
362.3186681106436
 20
576.3781568297857
 30
0
  0
SEQEND
  8
0
  0
POLYLINE
  8
0
 62
7
 66
1
  0
VERTEX
  8
0
 10
357.4318285719392
 20
683.9061988779934
 30
0
  0
VERTEX
  8
0
 10
359.5952573850409
 20
683.9077635000933
 30
0
  0
VERTEX
  8
0
 10
362.3186681106436
 20
682.8250935564922
 30
0
  0
SEQEND
  8
0
  0
POLYLINE
  8
0
 62
7
 66
1
  0
VERTEX
  8
0
 10
242.217562688923
 20
641.8016249577511
 30
0
  0
VERTEX
  8
0
 10
243.1711885766244
 20
641.5964443500507
 30
0
  0
VERTEX
  8
0
 10
244.0881687833253
 20
641.3991473877507
 30
0
  0
VERTEX
  8
0
 10
244.9332657887262
 20
641.2173187623505
 30
0
  0
VERTEX
  8
0
 10
245.6739950612273
 20
641.0579443239503
 30
0
  0
VERTEX
  8
0
 10
246.2818991078275
 20
640.9271484504502
 30
0
  0
VERTEX
  8
0
 10
246.7336091831285
 20
640.8299584203501
 30
0
  0
VERTEX
  8
0
 10
247.011772884528
 20
640.7701097691499
 30
0
  0
VERTEX
  8
0
 10
247.1056986287285
 20
640.7499010005502
 30
0
  0
SEQEND
  8
0
  0
POLYLINE
  8
0
 62
7
 66
1
  0
VERTEX
  8
0
 10
242.217562688923
 20
617.4016254285266
 30
0
  0
VERTEX
  8
0
 10
243.1711885766244
 20
617.606806036227
 30
0
  0
VERTEX
  8
0
 10
244.0881687833253
 20
617.8041029985272
 30
0
  0
VERTEX
  8
0
 10
244.9332657887262
 20
617.9859316239274
 30
0
  0
VERTEX
  8
0
 10
245.6739950612273
 20
618.1453060620274
 30
0
  0
VERTEX
  8
0
 10
246.2818991078275
 20
618.2761019358277
 30
0
  0
VERTEX
  8
0
 10
246.7336091831285
 20
618.3732919656277
 30
0
  0
VERTEX
  8
0
 10
247.011772884528
 20
618.433140617128
 30
0
  0
VERTEX
  8
0
 10
247.1056986287285
 20
618.4533493857277
 30
0
  0
SEQEND
  8
0
  0
POLYLINE
  8
0
 62
7
 66
1
  0
VERTEX
  8
0
 10
313.6864244624949
 20
538.2929494865477
 30
0
  0
VERTEX
  8
0
 10
313.2484765409945
 20
538.2324358709475
 30
0
  0
VERTEX
  8
0
 10
312.6994786469941
 20
538.1565815099475
 30
0
  0
VERTEX
  8
0
 10
311.8705624400927
 20
538.0419468767475
 30
0
  0
VERTEX
  8
0
 10
311.2444715261927
 20
537.9565781243473
 30
0
  0
SEQEND
  8
0
  0
POLYLINE
  8
0
 62
7
 66
1
  0
VERTEX
  8
0
 10
281.1369277223621
 20
539.3939292320488
 30
0
  0
VERTEX
  8
0
 10
280.7493652835619
 20
539.0055155642483
 30
0
  0
VERTEX
  8
0
 10
280.4364669755614
 20
538.9976104982484
 30
0
  0
SEQEND
  8
0
  0
POLYLINE
  8
0
 62
7
 66
1
  0
VERTEX
  8
0
 10
274.4566123619561
 20
540.9638410694504
 30
0
  0
VERTEX
  8
0
 10
268.23743019835
 20
542.8974380978523
 30
0
  0
VERTEX
  8
0
 10
262.1371183232441
 20
545.2655157335546
 30
0
  0
SEQEND
  8
0
  0
POLYLINE
  8
0
 62
7
 66
1
  0
VERTEX
  8
0
 10
288.8631416171702
 20
542.0951297768513
 30
0
  0
VERTEX
  8
0
 10
287.8356152831684
 20
542.1937978157516
 30
0
  0
VERTEX
  8
0
 10
279.419941423761
 20
544.0213656314534
 30
0
  0
SEQEND
  8
0
  0
POLYLINE
  8
0
 62
7
 66
1
  0
VERTEX
  8
0
 10
279.419941423761
 20
542.7476516255522
 30
0
  0
VERTEX
  8
0
 10
285.0572351054661
 20
541.4047589786508
 30
0
  0
VERTEX
  8
0
 10
290.1500086919714
 20
540.66947608075
 30
0
  0
SEQEND
  8
0
  0
POLYLINE
  8
0
 62
7
 66
1
  0
VERTEX
  8
0
 10
273.9199414535551
 20
713.7589877734229
 30
0
  0
VERTEX
  8
0
 10
285.0286695794657
 20
716.528875220826
 30
0
  0
VERTEX
  8
0
 10
288.8796548978698
 20
717.1264117846265
 30
0
  0
SEQEND
  8
0
  0
POLYLINE
  8
0
 62
7
 66
1
  0
VERTEX
  8
0
 10
273.9199414535551
 20
715.1454067120244
 30
0
  0
VERTEX
  8
0
 10
285.0572351054661
 20
717.798491407327
 30
0
  0
VERTEX
  8
0
 10
290.1500086919714
 20
718.5337743055277
 30
0
  0
SEQEND
  8
0
  0
POLYLINE
  8
0
 62
7
 66
1
  0
VERTEX
  8
0
 10
307.140707565889
 20
540.0008460767492
 30
0
  0
VERTEX
  8
0
 10
314.9935152068965
 20
541.7407429106511
 30
0
  0
VERTEX
  8
0
 10
323.919942198605
 20
544.7108051069542
 30
0
  0
SEQEND
  8
0
  0
POLYLINE
  8
0
 62
7
 66
1
  0
VERTEX
  8
0
 10
323.919942198605
 20
544.7108051069542
 30
0
  0
VERTEX
  8
0
 10
314.9940218462962
 20
543.3288267143525
 30
0
  0
VERTEX
  8
0
 10
309.5702003375909
 20
542.9739630110523
 30
0
  0
SEQEND
  8
0
  0
POLYLINE
  8
0
 62
7
 66
1
  0
VERTEX
  8
0
 10
307.140707565889
 20
719.2024043092283
 30
0
  0
VERTEX
  8
0
 10
314.9935152068965
 20
717.4625074753269
 30
0
  0
VERTEX
  8
0
 10
323.919942198605
 20
714.4924452793237
 30
0
  0
SEQEND
  8
0
  0
POLYLINE
  8
0
 62
7
 66
1
  0
VERTEX
  8
0
 10
309.3560715824906
 20
716.2443822514256
 30
0
  0
VERTEX
  8
0
 10
314.9285871221964
 20
715.8815389762253
 30
0
  0
VERTEX
  8
0
 10
323.919942198605
 20
714.4924452793237
 30
0
  0
SEQEND
  8
0
  0
POLYLINE
  8
0
 62
7
 66
1
  0
VERTEX
  8
0
 10
274.4566123619561
 20
542.5318381079519
 30
0
  0
VERTEX
  8
0
 10
268.2352620794491
 20
544.5009893069539
 30
0
  0
VERTEX
  8
0
 10
262.1371183232441
 20
546.9126230366562
 30
0
  0
SEQEND
  8
0
  0
POLYLINE
  8
0
 62
7
 66
1
  0
VERTEX
  8
0
 10
281.1369277223621
 20
540.9344038256502
 30
0
  0
VERTEX
  8
0
 10
280.7494323386627
 20
540.5375113973498
 30
0
  0
VERTEX
  8
0
 10
280.5012274220617
 20
540.5313870200498
 30
0
  0
SEQEND
  8
0
  0
POLYLINE
  8
0
 62
7
 66
1
  0
VERTEX
  8
0
 10
291.1924902035726
 20
539.5145541317488
 30
0
  0
VERTEX
  8
0
 10
286.7833129748678
 20
539.9820706136493
 30
0
  0
VERTEX
  8
0
 10
281.1369277223621
 20
540.9344038256502
 30
0
  0
SEQEND
  8
0
  0
POLYLINE
  8
0
 62
7
 66
1
  0
VERTEX
  8
0
 10
313.6864244624949
 20
539.812860477849
 30
0
  0
VERTEX
  8
0
 10
313.2485044808946
 20
539.7513708362492
 30
0
  0
VERTEX
  8
0
 10
312.6994711964935
 20
539.674264777449
 30
0
  0
VERTEX
  8
0
 10
311.8703566178929
 20
539.557700444049
 30
0
  0
VERTEX
  8
0
 10
311.2444715261927
 20
539.4709160813488
 30
0
  0
SEQEND
  8
0
  0
POLYLINE
  8
0
 62
7
 66
1
  0
VERTEX
  8
0
 10
323.919942198605
 20
546.3549768812557
 30
0
  0
VERTEX
  8
0
 10
314.9957429303959
 20
544.9524199850544
 30
0
  0
VERTEX
  8
0
 10
310.707759639592
 20
544.6654832252541
 30
0
  0
SEQEND
  8
0
  0
POLYLINE
  8
0
 62
7
 66
1
  0
VERTEX
  8
0
 10
310.7107035503923
 20
714.539115715924
 30
0
  0
VERTEX
  8
0
 10
314.9291086628964
 20
714.2581915747235
 30
0
  0
VERTEX
  8
0
 10
323.919942198605
 20
712.8482735047221
 30
0
  0
SEQEND
  8
0
  0
POLYLINE
  8
0
 62
7
 66
1
  0
VERTEX
  8
0
 10
221.3299754693026
 20
629.5884672987388
 30
0
  0
VERTEX
  8
0
 10
221.2605509594023
 20
629.8964297661391
 30
0
  0
VERTEX
  8
0
 10
221.1247715786021
 20
630.1052828115394
 30
0
  0
SEQEND
  8
0
  0
POLYLINE
  8
0
 62
7
 66
1
  0
VERTEX
  8
0
 10
221.1247715786021
 20
629.0412509028383
 30
0
  0
VERTEX
  8
0
 10
221.289369805103
 20
629.3300167221387
 30
0
  0
VERTEX
  8
0
 10
221.3299754693026
 20
629.5884672987388
 30
0
  0
SEQEND
  8
0
  0
POLYLINE
  8
0
 62
7
 66
1
  0
VERTEX
  8
0
 10
217.3541072440985
 20
629.6188682103391
 30
0
  0
VERTEX
  8
0
 10
217.4108732176992
 20
629.3295224808385
 30
0
  0
VERTEX
  8
0
 10
217.5336587860993
 20
629.1324536055383
 30
0
  0
SEQEND
  8
0
  0
POLYLINE
  8
0
 62
7
 66
1
  0
VERTEX
  8
0
 10
217.5080064370995
 20
630.1052828115394
 30
0
  0
VERTEX
  8
0
 10
217.3791411949987
 20
629.846142276039
 30
0
  0
VERTEX
  8
0
 10
217.3541072440985
 20
629.6188682103391
 30
0
  0
SEQEND
  8
0
  0
POLYLINE
  8
0
 62
7
 66
1
  0
VERTEX
  8
0
 10
218.6109903887
 20
630.4700937384398
 30
0
  0
VERTEX
  8
0
 10
217.9520237875995
 20
630.3722816433397
 30
0
  0
VERTEX
  8
0
 10
217.5080064370995
 20
630.1052828115394
 30
0
  0
SEQEND
  8
0
  0
POLYLINE
  8
0
 62
7
 66
1
  0
VERTEX
  8
0
 10
217.1488959028984
 20
630.5308955985397
 30
0
  0
VERTEX
  8
0
 10
217.8979921771988
 20
631.0447772760404
 30
0
  0
VERTEX
  8
0
 10
218.6109903887
 20
631.1389138485404
 30
0
  0
SEQEND
  8
0
  0
POLYLINE
  8
0
 62
7
 66
1
  0
VERTEX
  8
0
 10
216.8667424156984
 20
629.6188682103391
 30
0
  0
VERTEX
  8
0
 10
216.943863375498
 20
630.1570980489394
 30
0
  0
VERTEX
  8
0
 10
217.1488959028984
 20
630.5308955985397
 30
0
  0
SEQEND
  8
0
  0
POLYLINE
  8
0
 62
7
 66
1
  0
VERTEX
  8
0
 10
217.2258529498986
 20
628.6460390460379
 30
0
  0
VERTEX
  8
0
 10
216.9361967278983
 20
629.1596493888385
 30
0
  0
VERTEX
  8
0
 10
216.8667424156984
 20
629.6188682103391
 30
0
  0
SEQEND
  8
0
  0
POLYLINE
  8
0
 62
7
 66
1
  0
VERTEX
  8
0
 10
219.5087704493008
 20
627.8252143443372
 30
0
  0
VERTEX
  8
0
 10
218.128721757199
 20
628.0354585527373
 30
0
  0
VERTEX
  8
0
 10
217.2258529498986
 20
628.6460390460379
 30
0
  0
SEQEND
  8
0
  0
POLYLINE
  8
0
 62
7
 66
1
  0
VERTEX
  8
0
 10
221.8667376473031
 20
629.5884672987388
 30
0
  0
VERTEX
  8
0
 10
221.7562082840032
 20
628.9931741106382
 30
0
  0
VERTEX
  8
0
 10
221.5095270113025
 20
628.5852372444379
 30
0
  0
SEQEND
  8
0
  0
POLYLINE
  8
0
 62
7
 66
1
  0
VERTEX
  8
0
 10
221.5095270113025
 20
630.5916973419398
 30
0
  0
VERTEX
  8
0
 10
221.7996451691033
 20
630.0607123617394
 30
0
  0
VERTEX
  8
0
 10
221.8667376473031
 20
629.5884672987388
 30
0
  0
SEQEND
  8
0
  0
POLYLINE
  8
0
 62
7
 66
1
  0
VERTEX
  8
0
 10
219.9448305800015
 20
631.1693147784406
 30
0
  0
VERTEX
  8
0
 10
220.8821583227018
 20
630.9904086432402
 30
0
  0
VERTEX
  8
0
 10
221.5095270113025
 20
630.5916973419398
 30
0
  0
SEQEND
  8
0
  0
POLYLINE
  8
0
 62
7
 66
1
  0
VERTEX
  8
0
 10
216.8667424156984
 20
634.1364438909434
 30
0
  0
VERTEX
  8
0
 10
216.963868184298
 20
634.730258424044
 30
0
  0
VERTEX
  8
0
 10
217.2002006008979
 20
635.1396738813444
 30
0
  0
SEQEND
  8
0
  0
POLYLINE
  8
0
 62
7
 66
1
  0
VERTEX
  8
0
 10
217.2002006008979
 20
633.1028127375425
 30
0
  0
VERTEX
  8
0
 10
216.9228080347975
 20
633.6528462621429
 30
0
  0
VERTEX
  8
0
 10
216.8667424156984
 20
634.1364438909434
 30
0
  0
SEQEND
  8
0
  0
POLYLINE
  8
0
 62
7
 66
1
  0
VERTEX
  8
0
 10
221.8667376473031
 20
634.1364438909434
 30
0
  0
VERTEX
  8
0
 10
221.7730316951029
 20
633.5256159567427
 30
0
  0
VERTEX
  8
0
 10
221.535179360003
 20
633.1028127375425
 30
0
  0
SEQEND
  8
0
  0
POLYLINE
  8
0
 62
7
 66
1
  0
VERTEX
  8
0
 10
221.535179360003
 20
635.1396738813444
 30
0
  0
VERTEX
  8
0
 10
221.8093309238029
 20
634.606507539944
 30
0
  0
VERTEX
  8
0
 10
221.8667376473031
 20
634.1364438909434
 30
0
  0
SEQEND
  8
0
  0
POLYLINE
  8
0
 62
7
 66
1
  0
VERTEX
  8
0
 10
217.3541072440985
 20
634.1364438909434
 30
0
  0
VERTEX
  8
0
 10
217.4293506577988
 20
633.774760578043
 30
0
  0
VERTEX
  8
0
 10
217.5849634840988
 20
633.5284252914428
 30
0
  0
SEQEND
  8
0
  0
POLYLINE
  8
0
 62
7
 66
1
  0
VERTEX
  8
0
 10
217.5849634840988
 20
634.714060861844
 30
0
  0
VERTEX
  8
0
 10
217.4032661749989
 20
634.4101968483437
 30
0
  0
VERTEX
  8
0
 10
217.3541072440985
 20
634.1364438909434
 30
0
  0
SEQEND
  8
0
  0
POLYLINE
  8
0
 62
7
 66
1
  0
VERTEX
  8
0
 10
221.3812727168024
 20
634.1364438909434
 30
0
  0
VERTEX
  8
0
 10
221.3028479054028
 20
634.4806276524437
 30
0
  0
VERTEX
  8
0
 10
221.1504164771022
 20
634.714060861844
 30
0
  0
SEQEND
  8
0
  0
POLYLINE
  8
0
 62
7
 66
1
  0
VERTEX
  8
0
 10
221.1504164771022
 20
633.5284252914428
 30
0
  0
VERTEX
  8
0
 10
221.3348630501023
 20
633.8491020054432
 30
0
  0
VERTEX
  8
0
 10
221.3812727168024
 20
634.1364438909434
 30
0
  0
SEQEND
  8
0
  0
POLYLINE
  8
0
 62
7
 66
1
  0
VERTEX
  8
0
 10
223.7451482252054
 20
612.9357753585221
 30
0
  0
VERTEX
  8
0
 10
224.1260815097048
 20
613.0202258268223
 30
0
  0
VERTEX
  8
0
 10
224.492374403605
 20
613.1014297047225
 30
0
  0
VERTEX
  8
0
 10
224.8299527600066
 20
613.1762689242225
 30
0
  0
VERTEX
  8
0
 10
225.1258376672058
 20
613.2418675611227
 30
0
  0
VERTEX
  8
0
 10
225.3686669900062
 20
613.2957017310225
 30
0
  0
VERTEX
  8
0
 10
225.5491126016068
 20
613.3357038984225
 30
0
  0
VERTEX
  8
0
 10
225.6602231099068
 20
613.3603373805227
 30
0
  0
VERTEX
  8
0
 10
225.6977442338066
 20
613.3686540912227
 30
0
  0
SEQEND
  8
0
  0
POLYLINE
  8
0
 62
7
 66
1
  0
VERTEX
  8
0
 10
225.6977442338066
 20
645.834596295055
 30
0
  0
VERTEX
  8
0
 10
225.6602231099068
 20
645.842913005755
 30
0
  0
VERTEX
  8
0
 10
225.5491126016068
 20
645.8675464878552
 30
0
  0
VERTEX
  8
0
 10
225.3686669900062
 20
645.907548654955
 30
0
  0
VERTEX
  8
0
 10
225.1258376672058
 20
645.9613828251552
 30
0
  0
VERTEX
  8
0
 10
224.8299527600066
 20
646.0269814620554
 30
0
  0
VERTEX
  8
0
 10
224.492374403605
 20
646.1018206815554
 30
0
  0
VERTEX
  8
0
 10
224.1260815097048
 20
646.1830245594554
 30
0
  0
VERTEX
  8
0
 10
223.7451482252054
 20
646.2674750277556
 30
0
  0
SEQEND
  8
0
  0
POLYLINE
  8
0
 62
7
 66
1
  0
VERTEX
  8
0
 10
225.6977442338066
 20
613.3686540912227
 30
0
  0
VERTEX
  8
0
 10
225.7352579072076
 20
613.3769726643225
 30
0
  0
VERTEX
  8
0
 10
225.8463758663074
 20
613.4016042837227
 30
0
  0
VERTEX
  8
0
 10
226.0268140271073
 20
613.4416083135227
 30
0
  0
VERTEX
  8
0
 10
226.2696433499077
 20
613.4954406210229
 30
0
  0
VERTEX
  8
0
 10
226.5655282571079
 20
613.5610392579229
 30
0
  0
VERTEX
  8
0
 10
226.9031066135085
 20
613.6358784774227
 30
0
  0
VERTEX
  8
0
 10
227.2693995074087
 20
613.7170823553231
 30
0
  0
VERTEX
  8
0
 10
227.650332791909
 20
613.8015328236231
 30
0
  0
SEQEND
  8
0
  0
POLYLINE
  8
0
 62
7
 66
1
  0
VERTEX
  8
0
 10
227.650332791909
 20
645.4017175623549
 30
0
  0
VERTEX
  8
0
 10
227.2693995074087
 20
645.4861680309548
 30
0
  0
VERTEX
  8
0
 10
226.9031066135085
 20
645.567371908855
 30
0
  0
VERTEX
  8
0
 10
226.5655282571079
 20
645.6422111283548
 30
0
  0
VERTEX
  8
0
 10
226.2696433499077
 20
645.7078097649549
 30
0
  0
VERTEX
  8
0
 10
226.0268140271073
 20
645.7616420724551
 30
0
  0
VERTEX
  8
0
 10
225.8463758663074
 20
645.8016461025552
 30
0
  0
VERTEX
  8
0
 10
225.7352579072076
 20
645.8262777219552
 30
0
  0
VERTEX
  8
0
 10
225.6977442338066
 20
645.834596295055
 30
0
  0
SEQEND
  8
0
  0
POLYLINE
  8
0
 62
7
 66
1
  0
VERTEX
  8
0
 10
237.7727102174185
 20
646.7266375461561
 30
0
  0
VERTEX
  8
0
 10
237.2917864157189
 20
646.8507791199561
 30
0
  0
VERTEX
  8
0
 10
236.865084214418
 20
646.9609266408563
 30
0
  0
VERTEX
  8
0
 10
236.5407604412176
 20
647.0446450899563
 30
0
  0
VERTEX
  8
0
 10
236.3553899957178
 20
647.0924945811564
 30
0
  0
VERTEX
  8
0
 10
236.320022089717
 20
647.1016252677564
 30
0
  0
SEQEND
  8
0
  0
POLYLINE
  8
0
 62
7
 66
1
  0
VERTEX
  8
0
 10
236.320022089717
 20
612.1016251185215
 30
0
  0
VERTEX
  8
0
 10
236.4018890693178
 20
612.1227568278214
 30
0
  0
VERTEX
  8
0
 10
236.6382363869179
 20
612.1837677696215
 30
0
  0
VERTEX
  8
0
 10
237.002450568818
 20
612.2777829210215
 30
0
  0
VERTEX
  8
0
 10
237.4535385206191
 20
612.3942243198217
 30
0
  0
VERTEX
  8
0
 10
237.7727102174185
 20
612.4766128401216
 30
0
  0
SEQEND
  8
0
  0
POLYLINE
  8
0
 62
7
 66
1
  0
VERTEX
  8
0
 10
223.2870567275049
 20
660.6016246863699
 30
0
  0
VERTEX
  8
0
 10
221.9434711769036
 20
662.9287837335721
 30
0
  0
VERTEX
  8
0
 10
220.5446395709014
 20
665.3516268621745
 30
0
  0
SEQEND
  8
0
  0
POLYLINE
  8
0
 62
7
 66
1
  0
VERTEX
  8
0
 10
236.9991238847188
 20
665.3516268621745
 30
0
  0
VERTEX
  8
0
 10
236.8041012122176
 20
665.0138324388743
 30
0
  0
VERTEX
  8
0
 10
235.5283979012165
 20
662.8042510041721
 30
0
  0
VERTEX
  8
0
 10
234.2567104532154
 20
660.6016246863699
 30
0
  0
SEQEND
  8
0
  0
POLYLINE
  8
0
 62
7
 66
1
  0
VERTEX
  8
0
 10
234.2567104532154
 20
679.6016259381888
 30
0
  0
VERTEX
  8
0
 10
235.6002960041169
 20
677.2744668909866
 30
0
  0
VERTEX
  8
0
 10
236.9991238847188
 20
674.8516237626841
 30
0
  0
SEQEND
  8
0
  0
POLYLINE
  8
0
 62
7
 66
1
  0
VERTEX
  8
0
 10
217.8022298647993
 20
670.1016253122793
 30
0
  0
VERTEX
  8
0
 10
219.1458154156999
 20
672.4287843594816
 30
0
  0
VERTEX
  8
0
 10
220.5446395709014
 20
674.8516237626841
 30
0
  0
SEQEND
  8
0
  0
POLYLINE
  8
0
 62
7
 66
1
  0
VERTEX
  8
0
 10
220.5446395709014
 20
665.3516268621745
 30
0
  0
VERTEX
  8
0
 10
220.3496206238015
 20
665.6894175597749
 30
0
  0
VERTEX
  8
0
 10
219.0739173128004
 20
667.8989989944771
 30
0
  0
VERTEX
  8
0
 10
217.8022298647993
 20
670.1016253122793
 30
0
  0
SEQEND
  8
0
  0
POLYLINE
  8
0
 62
7
 66
1
  0
VERTEX
  8
0
 10
220.5446395709014
 20
674.8516237626841
 30
0
  0
VERTEX
  8
0
 10
220.739665968802
 20
675.1894144605844
 30
0
  0
VERTEX
  8
0
 10
222.0153692795029
 20
677.3989996203868
 30
0
  0
VERTEX
  8
0
 10
223.2870567275049
 20
679.6016259381888
 30
0
  0
SEQEND
  8
0
  0
POLYLINE
  8
0
 62
7
 66
1
  0
VERTEX
  8
0
 10
239.7415410413214
 20
670.1016253122793
 30
0
  0
VERTEX
  8
0
 10
238.3979517653197
 20
667.7744662650771
 30
0
  0
VERTEX
  8
0
 10
236.9991238847188
 20
665.3516268621745
 30
0
  0
SEQEND
  8
0
  0
POLYLINE
  8
0
 62
7
 66
1
  0
VERTEX
  8
0
 10
236.9991238847188
 20
674.8516237626841
 30
0
  0
VERTEX
  8
0
 10
237.1941502823183
 20
674.5138330647837
 30
0
  0
VERTEX
  8
0
 10
238.4698535933194
 20
672.3042479046817
 30
0
  0
VERTEX
  8
0
 10
239.7415410413214
 20
670.1016253122793
 30
0
  0
SEQEND
  8
0
  0
POLYLINE
  8
0
 62
7
 66
1
  0
VERTEX
  8
0
 10
223.2870567275049
 20
579.6016244480888
 30
0
  0
VERTEX
  8
0
 10
221.9434711769036
 20
581.9287834949912
 30
0
  0
VERTEX
  8
0
 10
220.5446395709014
 20
584.3516266235938
 30
0
  0
SEQEND
  8
0
  0
POLYLINE
  8
0
 62
7
 66
1
  0
VERTEX
  8
0
 10
236.9991238847188
 20
584.3516266235938
 30
0
  0
VERTEX
  8
0
 10
234.9497113064163
 20
580.80193533389
 30
0
  0
VERTEX
  8
0
 10
234.2567104532154
 20
579.6016244480888
 30
0
  0
SEQEND
  8
0
  0
POLYLINE
  8
0
 62
7
 66
1
  0
VERTEX
  8
0
 10
220.5446395709014
 20
593.8516235241032
 30
0
  0
VERTEX
  8
0
 10
221.2909642292025
 20
595.1442918072044
 30
0
  0
VERTEX
  8
0
 10
223.2870567275049
 20
598.6016256996079
 30
0
  0
SEQEND
  8
0
  0
POLYLINE
  8
0
 62
7
 66
1
  0
VERTEX
  8
0
 10
239.7415410413214
 20
589.1016250736984
 30
0
  0
VERTEX
  8
0
 10
237.7454448179196
 20
585.6442911812949
 30
0
  0
VERTEX
  8
0
 10
236.9991238847188
 20
584.3516266235938
 30
0
  0
SEQEND
  8
0
  0
POLYLINE
  8
0
 62
7
 66
1
  0
VERTEX
  8
0
 10
236.9991238847188
 20
593.8516235241032
 30
0
  0
VERTEX
  8
0
 10
237.1941502823183
 20
593.5138328262028
 30
0
  0
VERTEX
  8
0
 10
238.4698535933194
 20
591.3042513915004
 30
0
  0
VERTEX
  8
0
 10
239.7415410413214
 20
589.1016250736984
 30
0
  0
SEQEND
  8
0
  0
POLYLINE
  8
0
 62
7
 66
1
  0
VERTEX
  8
0
 10
234.2567104532154
 20
598.6016256996079
 30
0
  0
VERTEX
  8
0
 10
235.6002960041169
 20
596.2744666527058
 30
0
  0
VERTEX
  8
0
 10
236.9991238847188
 20
593.8516235241032
 30
0
  0
SEQEND
  8
0
  0
POLYLINE
  8
0
 62
7
 66
1
  0
VERTEX
  8
0
 10
220.5446395709014
 20
584.3516266235938
 30
0
  0
VERTEX
  8
0
 10
220.3496206238015
 20
584.6894173214942
 30
0
  0
VERTEX
  8
0
 10
219.0739173128004
 20
586.8990024812961
 30
0
  0
VERTEX
  8
0
 10
217.8022298647993
 20
589.1016250736984
 30
0
  0
SEQEND
  8
0
  0
POLYLINE
  8
0
 62
7
 66
1
  0
VERTEX
  8
0
 10
217.8022298647993
 20
589.1016250736984
 30
0
  0
VERTEX
  8
0
 10
218.4952307179992
 20
590.3019359597997
 30
0
  0
VERTEX
  8
0
 10
220.5446395709014
 20
593.8516235241032
 30
0
  0
SEQEND
  8
0
  0
POLYLINE
  8
0
 62
7
 66
1
  0
VERTEX
  8
0
 10
363.5831731989447
 20
579.6016244480888
 30
0
  0
VERTEX
  8
0
 10
362.2395876483433
 20
581.9287834949912
 30
0
  0
VERTEX
  8
0
 10
360.8407597677415
 20
584.3516266235938
 30
0
  0
SEQEND
  8
0
  0
POLYLINE
  8
0
 62
7
 66
1
  0
VERTEX
  8
0
 10
377.2952440815589
 20
584.3516266235938
 30
0
  0
VERTEX
  8
0
 10
377.1002176836582
 20
584.0138359256935
 30
0
  0
VERTEX
  8
0
 10
375.8245143726572
 20
581.8042507655912
 30
0
  0
VERTEX
  8
0
 10
374.5528269246561
 20
579.6016244480888
 30
0
  0
SEQEND
  8
0
  0
POLYLINE
  8
0
 62
7
 66
1
  0
VERTEX
  8
0
 10
358.0983426108396
 20
589.1016250736984
 30
0
  0
VERTEX
  8
0
 10
359.4419318871405
 20
591.4287841209007
 30
0
  0
VERTEX
  8
0
 10
360.8407597677415
 20
593.8516235241032
 30
0
  0
SEQEND
  8
0
  0
POLYLINE
  8
0
 62
7
 66
1
  0
VERTEX
  8
0
 10
360.8407597677415
 20
584.3516266235938
 30
0
  0
VERTEX
  8
0
 10
360.6457333698418
 20
584.6894173214942
 30
0
  0
VERTEX
  8
0
 10
359.3700300591408
 20
586.8990024812961
 30
0
  0
VERTEX
  8
0
 10
358.0983426108396
 20
589.1016250736984
 30
0
  0
SEQEND
  8
0
  0
POLYLINE
  8
0
 62
7
 66
1
  0
VERTEX
  8
0
 10
377.2952440815589
 20
593.8516235241032
 30
0
  0
VERTEX
  8
0
 10
377.4902630286588
 20
593.5138328262028
 30
0
  0
VERTEX
  8
0
 10
378.7659663393597
 20
591.3042513915004
 30
0
  0
VERTEX
  8
0
 10
380.0376537876609
 20
589.1016250736984
 30
0
  0
SEQEND
  8
0
  0
POLYLINE
  8
0
 62
7
 66
1
  0
VERTEX
  8
0
 10
380.0376537876609
 20
589.1016250736984
 30
0
  0
VERTEX
  8
0
 10
378.6940682367604
 20
586.7744660267961
 30
0
  0
VERTEX
  8
0
 10
377.2952440815589
 20
584.3516266235938
 30
0
  0
SEQEND
  8
0
  0
POLYLINE
  8
0
 62
7
 66
1
  0
VERTEX
  8
0
 10
360.8407597677415
 20
593.8516235241032
 30
0
  0
VERTEX
  8
0
 10
361.0357824399425
 20
594.1894179471035
 30
0
  0
VERTEX
  8
0
 10
362.3114857509436
 20
596.3989993821058
 30
0
  0
VERTEX
  8
0
 10
363.5831731989447
 20
598.6016256996079
 30
0
  0
SEQEND
  8
0
  0
POLYLINE
  8
0
 62
7
 66
1
  0
VERTEX
  8
0
 10
374.5528269246561
 20
598.6016256996079
 30
0
  0
VERTEX
  8
0
 10
375.8964124755566
 20
596.2744666527058
 30
0
  0
VERTEX
  8
0
 10
377.2952440815589
 20
593.8516235241032
 30
0
  0
SEQEND
  8
0
  0
POLYLINE
  8
0
 62
7
 66
1
  0
VERTEX
  8
0
 10
363.5831731989447
 20
660.6016246863699
 30
0
  0
VERTEX
  8
0
 10
362.2395876483433
 20
662.9287837335721
 30
0
  0
VERTEX
  8
0
 10
360.8407597677415
 20
665.3516268621745
 30
0
  0
SEQEND
  8
0
  0
POLYLINE
  8
0
 62
7
 66
1
  0
VERTEX
  8
0
 10
377.2952440815589
 20
665.3516268621745
 30
0
  0
VERTEX
  8
0
 10
376.5489194229576
 20
664.0589585790733
 30
0
  0
VERTEX
  8
0
 10
374.5528269246561
 20
660.6016246863699
 30
0
  0
SEQEND
  8
0
  0
POLYLINE
  8
0
 62
7
 66
1
  0
VERTEX
  8
0
 10
358.0983426108396
 20
670.1016253122793
 30
0
  0
VERTEX
  8
0
 10
360.0944388345415
 20
673.5589592049828
 30
0
  0
VERTEX
  8
0
 10
360.8407597677415
 20
674.8516237626841
 30
0
  0
SEQEND
  8
0
  0
POLYLINE
  8
0
 62
7
 66
1
  0
VERTEX
  8
0
 10
360.8407597677415
 20
665.3516268621745
 30
0
  0
VERTEX
  8
0
 10
360.6457333698418
 20
665.6894175597749
 30
0
  0
VERTEX
  8
0
 10
359.3700300591408
 20
667.8989989944771
 30
0
  0
VERTEX
  8
0
 10
358.0983426108396
 20
670.1016253122793
 30
0
  0
SEQEND
  8
0
  0
POLYLINE
  8
0
 62
7
 66
1
  0
VERTEX
  8
0
 10
377.2952440815589
 20
674.8516237626841
 30
0
  0
VERTEX
  8
0
 10
377.4902630286588
 20
674.5138330647837
 30
0
  0
VERTEX
  8
0
 10
378.7659663393597
 20
672.3042479046817
 30
0
  0
VERTEX
  8
0
 10
380.0376537876609
 20
670.1016253122793
 30
0
  0
SEQEND
  8
0
  0
POLYLINE
  8
0
 62
7
 66
1
  0
VERTEX
  8
0
 10
380.0376537876609
 20
670.1016253122793
 30
0
  0
VERTEX
  8
0
 10
379.344652934461
 20
668.9013144264782
 30
0
  0
VERTEX
  8
0
 10
377.2952440815589
 20
665.3516268621745
 30
0
  0
SEQEND
  8
0
  0
POLYLINE
  8
0
 62
7
 66
1
  0
VERTEX
  8
0
 10
374.5528269246561
 20
679.6016259381888
 30
0
  0
VERTEX
  8
0
 10
375.8964124755566
 20
677.2744668909866
 30
0
  0
VERTEX
  8
0
 10
377.2952440815589
 20
674.8516237626841
 30
0
  0
SEQEND
  8
0
  0
POLYLINE
  8
0
 62
7
 66
1
  0
VERTEX
  8
0
 10
360.8407597677415
 20
674.8516237626841
 30
0
  0
VERTEX
  8
0
 10
362.890172346044
 20
678.4013150523876
 30
0
  0
VERTEX
  8
0
 10
363.5831731989447
 20
679.6016259381888
 30
0
  0
SEQEND
  8
0
  0
POLYLINE
  8
0
 62
7
 66
1
  0
VERTEX
  8
0
 10
307.1471830517885
 20
705.8516269813151
 30
0
  0
VERTEX
  8
0
 10
306.9521594480884
 20
705.5138325583146
 30
0
  0
VERTEX
  8
0
 10
305.6764552055874
 20
703.3042511236126
 30
0
  0
VERTEX
  8
0
 10
304.4047691546857
 20
701.1016285309106
 30
0
  0
SEQEND
  8
0
  0
POLYLINE
  8
0
 62
7
 66
1
  0
VERTEX
  8
0
 10
293.4351144977754
 20
701.1016285309106
 30
0
  0
VERTEX
  8
0
 10
291.4390210679721
 20
704.5589586982139
 30
0
  0
VERTEX
  8
0
 10
290.6927006006717
 20
705.8516269813151
 30
0
  0
SEQEND
  8
0
  0
POLYLINE
  8
0
 62
7
 66
1
  0
VERTEX
  8
0
 10
307.1471830517885
 20
715.3516238818245
 30
0
  0
VERTEX
  8
0
 10
307.8935039846892
 20
714.0589630495235
 30
0
  0
VERTEX
  8
0
 10
309.8895964829908
 20
710.6016254317196
 30
0
  0
SEQEND
  8
0
  0
POLYLINE
  8
0
 62
7
 66
1
  0
VERTEX
  8
0
 10
309.8895964829908
 20
710.6016254317196
 30
0
  0
VERTEX
  8
0
 10
308.5460109323894
 20
708.2744663845174
 30
0
  0
VERTEX
  8
0
 10
307.1471830517885
 20
705.8516269813151
 30
0
  0
SEQEND
  8
0
  0
POLYLINE
  8
0
 62
7
 66
1
  0
VERTEX
  8
0
 10
287.9502871691693
 20
710.6016254317196
 30
0
  0
VERTEX
  8
0
 10
289.2938727200708
 20
712.9287844786222
 30
0
  0
VERTEX
  8
0
 10
290.6927006006717
 20
715.3516238818245
 30
0
  0
SEQEND
  8
0
  0
POLYLINE
  8
0
 62
7
 66
1
  0
VERTEX
  8
0
 10
290.6927006006717
 20
715.3516238818245
 30
0
  0
VERTEX
  8
0
 10
290.8877242043718
 20
715.6894183051252
 30
0
  0
VERTEX
  8
0
 10
292.1634284465736
 20
717.8989997398271
 30
0
  0
VERTEX
  8
0
 10
293.4351144977754
 20
720.1016223322295
 30
0
  0
SEQEND
  8
0
  0
POLYLINE
  8
0
 62
7
 66
1
  0
VERTEX
  8
0
 10
304.4047691546857
 20
720.1016223322295
 30
0
  0
VERTEX
  8
0
 10
305.0977695419861
 20
718.9013114461284
 30
0
  0
VERTEX
  8
0
 10
307.1471830517885
 20
715.3516238818245
 30
0
  0
SEQEND
  8
0
  0
POLYLINE
  8
0
 62
7
 66
1
  0
VERTEX
  8
0
 10
307.1471830517885
 20
543.8516265044532
 30
0
  0
VERTEX
  8
0
 10
306.9521594480884
 20
543.5138320811529
 30
0
  0
VERTEX
  8
0
 10
305.6764552055874
 20
541.3042506464508
 30
0
  0
VERTEX
  8
0
 10
304.4047691546857
 20
539.1016280540484
 30
0
  0
SEQEND
  8
0
  0
POLYLINE
  8
0
 62
7
 66
1
  0
VERTEX
  8
0
 10
293.4351144977754
 20
539.1016280540484
 30
0
  0
VERTEX
  8
0
 10
292.742114110174
 20
540.3019389398496
 30
0
  0
VERTEX
  8
0
 10
290.6927006006717
 20
543.8516265044532
 30
0
  0
SEQEND
  8
0
  0
POLYLINE
  8
0
 62
7
 66
1
  0
VERTEX
  8
0
 10
309.8895964829908
 20
548.601624954558
 30
0
  0
VERTEX
  8
0
 10
308.5460109323894
 20
546.2744659073555
 30
0
  0
VERTEX
  8
0
 10
307.1471830517885
 20
543.8516265044532
 30
0
  0
SEQEND
  8
0
  0
POLYLINE
  8
0
 62
7
 66
1
  0
VERTEX
  8
0
 10
287.9502871691693
 20
548.601624954558
 30
0
  0
VERTEX
  8
0
 10
289.2938727200708
 20
550.9287840017603
 30
0
  0
VERTEX
  8
0
 10
290.6927006006717
 20
553.3516234049628
 30
0
  0
SEQEND
  8
0
  0
POLYLINE
  8
0
 62
7
 66
1
  0
VERTEX
  8
0
 10
290.6927006006717
 20
543.8516265044532
 30
0
  0
VERTEX
  8
0
 10
289.9463796674709
 20
545.1442873367546
 30
0
  0
VERTEX
  8
0
 10
287.9502871691693
 20
548.601624954558
 30
0
  0
SEQEND
  8
0
  0
POLYLINE
  8
0
 62
7
 66
1
  0
VERTEX
  8
0
 10
290.6927006006717
 20
553.3516234049628
 30
0
  0
VERTEX
  8
0
 10
290.8877242043718
 20
553.6894178279631
 30
0
  0
VERTEX
  8
0
 10
292.1634284465736
 20
555.8989992626653
 30
0
  0
VERTEX
  8
0
 10
293.4351144977754
 20
558.1016218550674
 30
0
  0
SEQEND
  8
0
  0
POLYLINE
  8
0
 62
7
 66
1
  0
VERTEX
  8
0
 10
304.4047691546857
 20
558.1016218550674
 30
0
  0
VERTEX
  8
0
 10
306.400862584188
 20
554.6442916877641
 30
0
  0
VERTEX
  8
0
 10
307.1471830517885
 20
553.3516234049628
 30
0
  0
SEQEND
  8
0
  0
POLYLINE
  8
0
 62
7
 66
1
  0
VERTEX
  8
0
 10
330.0377070591112
 20
644.2008273939534
 30
0
  0
VERTEX
  8
0
 10
329.9117121534109
 20
643.9554518352534
 30
0
  0
VERTEX
  8
0
 10
329.886881230811
 20
643.7390376144529
 30
0
  0
SEQEND
  8
0
  0
POLYLINE
  8
0
 62
7
 66
1
  0
VERTEX
  8
0
 10
329.886881230811
 20
643.7390376144529
 30
0
  0
VERTEX
  8
0
 10
329.9772046194112
 20
643.3935914451527
 30
0
  0
VERTEX
  8
0
 10
330.1382582322112
 20
643.1618001573525
 30
0
  0
SEQEND
  8
0
  0
POLYLINE
  8
0
 62
7
 66
1
  0
VERTEX
  8
0
 10
328.9316460177106
 20
644.2008273939534
 30
0
  0
VERTEX
  8
0
 10
329.0098379985102
 20
644.8124641815541
 30
0
  0
VERTEX
  8
0
 10
329.2332995370107
 20
645.2398536990545
 30
0
  0
SEQEND
  8
0
  0
POLYLINE
  8
0
 62
7
 66
1
  0
VERTEX
  8
0
 10
329.786330057711
 20
642.700010378152
 30
0
  0
VERTEX
  8
0
 10
329.1078466608105
 20
643.4339437896526
 30
0
  0
VERTEX
  8
0
 10
328.9316460177106
 20
644.2008273939534
 30
0
  0
SEQEND
  8
0
  0
POLYLINE
  8
0
 62
7
 66
1
  0
VERTEX
  8
0
 10
329.786330057711
 20
639.9869950749494
 30
0
  0
VERTEX
  8
0
 10
329.1078466608105
 20
640.7209284867502
 30
0
  0
VERTEX
  8
0
 10
328.9316460177106
 20
641.4878120907508
 30
0
  0
SEQEND
  8
0
  0
POLYLINE
  8
0
 62
7
 66
1
  0
VERTEX
  8
0
 10
329.886881230811
 20
641.0260223115504
 30
0
  0
VERTEX
  8
0
 10
329.970400376711
 20
640.6469768175498
 30
0
  0
VERTEX
  8
0
 10
330.1382582322112
 20
640.3910605500496
 30
0
  0
SEQEND
  8
0
  0
POLYLINE
  8
0
 62
7
 66
1
  0
VERTEX
  8
0
 10
330.0377070591112
 20
641.4300877863507
 30
0
  0
VERTEX
  8
0
 10
329.9154542073111
 20
641.2172125914503
 30
0
  0
VERTEX
  8
0
 10
329.886881230811
 20
641.0260223115504
 30
0
  0
SEQEND
  8
0
  0
POLYLINE
  8
0
 62
7
 66
1
  0
VERTEX
  8
0
 10
330.5907394425121
 20
641.5287772455508
 30
0
  0
VERTEX
  8
0
 10
330.2737358646118
 20
641.5082546214508
 30
0
  0
VERTEX
  8
0
 10
330.0377070591112
 20
641.4300877863507
 30
0
  0
SEQEND
  8
0
  0
POLYLINE
  8
0
 62
7
 66
1
  0
VERTEX
  8
0
 10
330.6410122350117
 20
644.3572402263537
 30
0
  0
VERTEX
  8
0
 10
330.2890356318121
 20
644.3181237468536
 30
0
  0
VERTEX
  8
0
 10
330.0377070591112
 20
644.2008273939534
 30
0
  0
SEQEND
  8
0
  0
POLYLINE
  8
0
 62
7
 66
1
  0
VERTEX
  8
0
 10
328.9316460177106
 20
653.2008270063625
 30
0
  0
VERTEX
  8
0
 10
329.0098379985102
 20
653.8124637939632
 30
0
  0
VERTEX
  8
0
 10
329.2332995370107
 20
654.2398551741635
 30
0
  0
SEQEND
  8
0
  0
POLYLINE
  8
0
 62
7
 66
1
  0
VERTEX
  8
0
 10
329.786330057711
 20
651.7000099905611
 30
0
  0
VERTEX
  8
0
 10
329.1078466608105
 20
652.4339443335616
 30
0
  0
VERTEX
  8
0
 10
328.9316460177106
 20
653.2008270063625
 30
0
  0
SEQEND
  8
0
  0
POLYLINE
  8
0
 62
7
 66
1
  0
VERTEX
  8
0
 10
329.786330057711
 20
648.9869946876584
 30
0
  0
VERTEX
  8
0
 10
329.1078466608105
 20
649.7209290306589
 30
0
  0
VERTEX
  8
0
 10
328.9316460177106
 20
650.4878117034598
 30
0
  0
SEQEND
  8
0
  0
POLYLINE
  8
0
 62
7
 66
1
  0
VERTEX
  8
0
 10
329.886881230811
 20
650.0260228554591
 30
0
  0
VERTEX
  8
0
 10
329.970400376711
 20
649.646976430259
 30
0
  0
VERTEX
  8
0
 10
330.1382582322112
 20
649.3910601624586
 30
0
  0
SEQEND
  8
0
  0
POLYLINE
  8
0
 62
7
 66
1
  0
VERTEX
  8
0
 10
330.0377070591112
 20
650.4300883302599
 30
0
  0
VERTEX
  8
0
 10
329.9154542073111
 20
650.2172122041595
 30
0
  0
VERTEX
  8
0
 10
329.886881230811
 20
650.0260228554591
 30
0
  0
SEQEND
  8
0
  0
POLYLINE
  8
0
 62
7
 66
1
  0
VERTEX
  8
0
 10
330.5907394425121
 20
650.5287768582598
 30
0
  0
VERTEX
  8
0
 10
330.2737358646118
 20
650.5082542338598
 30
0
  0
VERTEX
  8
0
 10
330.0377070591112
 20
650.4300883302599
 30
0
  0
SEQEND
  8
0
  0
POLYLINE
  8
0
 62
7
 66
1
  0
VERTEX
  8
0
 10
329.886881230811
 20
652.7390381583621
 30
0
  0
VERTEX
  8
0
 10
329.9772046194112
 20
652.3935901263617
 30
0
  0
VERTEX
  8
0
 10
330.1382582322112
 20
652.1618007012614
 30
0
  0
SEQEND
  8
0
  0
POLYLINE
  8
0
 62
7
 66
1
  0
VERTEX
  8
0
 10
330.0377070591112
 20
653.2008270063625
 30
0
  0
VERTEX
  8
0
 10
329.9117121534109
 20
652.9554514476622
 30
0
  0
VERTEX
  8
0
 10
329.886881230811
 20
652.7390381583621
 30
0
  0
SEQEND
  8
0
  0
POLYLINE
  8
0
 62
7
 66
1
  0
VERTEX
  8
0
 10
330.6410122350117
 20
653.3572407702627
 30
0
  0
VERTEX
  8
0
 10
330.2890356318121
 20
653.3181233595624
 30
0
  0
VERTEX
  8
0
 10
330.0377070591112
 20
653.2008270063625
 30
0
  0
SEQEND
  8
0
  0
POLYLINE
  8
0
 62
7
 66
1
  0
VERTEX
  8
0
 10
311.1978113339919
 20
537.9674187191472
 30
0
  0
VERTEX
  8
0
 10
312.6790007264935
 20
538.1329184660474
 30
0
  0
VERTEX
  8
0
 10
314.6580397769958
 20
538.5085767395478
 30
0
  0
SEQEND
  8
0
  0
POLYLINE
  8
0
 62
7
 66
1
  0
VERTEX
  8
0
 10
329.767068444311
 20
542.4571460375519
 30
0
  0
VERTEX
  8
0
 10
331.3450324968126
 20
542.9765558132522
 30
0
  0
VERTEX
  8
0
 10
333.2725163238147
 20
543.7885424384531
 30
0
  0
SEQEND
  8
0
  0
POLYLINE
  8
0
 62
7
 66
1
  0
VERTEX
  8
0
 10
169.6663457587511
 20
585.858394790695
 30
0
  0
VERTEX
  8
0
 10
170.5813813639516
 20
585.800760824395
 30
0
  0
VERTEX
  8
0
 10
174.5332289173557
 20
585.3523178288947
 30
0
  0
VERTEX
  8
0
 10
178.5854059888598
 20
584.661306280794
 30
0
  0
VERTEX
  8
0
 10
182.6565075352637
 20
583.6953683087929
 30
0
  0
VERTEX
  8
0
 10
186.6445053055677
 20
582.4229991326918
 30
0
  0
VERTEX
  8
0
 10
190.4392052128724
 20
580.8219624944902
 30
0
  0
VERTEX
  8
0
 10
194.2914683056761
 20
579.0563425310886
 30
0
  0
VERTEX
  8
0
 10
198.3379605844793
 20
577.2016993055863
 30
0
  0
VERTEX
  8
0
 10
204.7423232032861
 20
574.2663679907837
 30
0
  0
VERTEX
  8
0
 10
211.5798253252924
 20
571.1325122306805
 30
0
  0
VERTEX
  8
0
 10
218.8504744006996
 20
567.8001282998771
 30
0
  0
VERTEX
  8
0
 10
223.3482781484045
 20
565.7490020879752
 30
0
  0
VERTEX
  8
0
 10
228.3301535681094
 20
563.8169920334731
 30
0
  0
VERTEX
  8
0
 10
233.9343908861156
 20
562.1215230116716
 30
0
  0
VERTEX
  8
0
 10
238.9465156628203
 20
560.9759291894702
 30
0
  0
SEQEND
  8
0
  0
POLYLINE
  8
0
 62
7
 66
1
  0
VERTEX
  8
0
 10
238.94233588732
 20
698.2234394440075
 30
0
  0
VERTEX
  8
0
 10
233.5144091084148
 20
696.9694620262064
 30
0
  0
VERTEX
  8
0
 10
227.482873542509
 20
695.0891962537046
 30
0
  0
VERTEX
  8
0
 10
222.1002835466034
 20
692.8926160822023
 30
0
  0
VERTEX
  8
0
 10
217.0687574578979
 20
690.5865012001
 30
0
  0
VERTEX
  8
0
 10
212.1217954588938
 20
688.3191442380974
 30
0
  0
VERTEX
  8
0
 10
207.2594050003891
 20
686.0905451961955
 30
0
  0
VERTEX
  8
0
 10
202.4815711810834
 20
683.9007040749932
 30
0
  0
VERTEX
  8
0
 10
198.3703333570793
 20
682.0163889120913
 30
0
  0
VERTEX
  8
0
 10
194.3238410785752
 20
680.1617456862894
 30
0
  0
VERTEX
  8
0
 10
190.3420943452711
 20
678.3367781232876
 30
0
  0
VERTEX
  8
0
 10
186.2517479494682
 20
676.6379675160858
 30
0
  0
VERTEX
  8
0
 10
181.7535940243633
 20
675.2674630173844
 30
0
  0
VERTEX
  8
0
 10
176.9453767372579
 20
674.2322532723836
 30
0
  0
VERTEX
  8
0
 10
171.9279247954528
 20
673.5317049810828
 30
0
  0
VERTEX
  8
0
 10
169.6630824043514
 20
673.3694648631827
 30
0
  0
SEQEND
  8
0
  0
POLYLINE
  8
0
 62
7
 66
1
  0
VERTEX
  8
0
 10
357.3643859163385
 20
557.8747516760673
 30
0
  0
VERTEX
  8
0
 10
367.8682330683487
 20
563.6297291405729
 30
0
  0
VERTEX
  8
0
 10
377.647738500059
 20
568.9880637713784
 30
0
  0
VERTEX
  8
0
 10
386.7031890585686
 20
573.9496736117833
 30
0
  0
VERTEX
  8
0
 10
391.7887840107733
 20
576.7361758538862
 30
0
  0
VERTEX
  8
0
 10
396.613593740778
 20
579.3798206636886
 30
0
  0
VERTEX
  8
0
 10
401.2043360307825
 20
581.844726044691
 30
0
  0
VERTEX
  8
0
 10
405.8193225102878
 20
583.7451791651931
 30
0
  0
VERTEX
  8
0
 10
407.9643223122894
 20
584.3479683884937
 30
0
  0
SEQEND
  8
0
  0
POLYLINE
  8
0
 62
7
 66
1
  0
VERTEX
  8
0
 10
407.9791862205893
 20
674.8891970406842
 30
0
  0
VERTEX
  8
0
 10
404.6622547941861
 20
675.8731318899852
 30
0
  0
VERTEX
  8
0
 10
398.9281911090802
 20
678.5551844427878
 30
0
  0
VERTEX
  8
0
 10
393.0194411115745
 20
681.7927671858911
 30
0
  0
VERTEX
  8
0
 10
386.7031890585686
 20
685.2535767744946
 30
0
  0
VERTEX
  8
0
 10
377.647738500059
 20
690.2151866148997
 30
0
  0
VERTEX
  8
0
 10
367.8682330683487
 20
695.5735212454049
 30
0
  0
VERTEX
  8
0
 10
357.3643859163385
 20
701.3284987102106
 30
0
  0
SEQEND
  8
0
  0
POLYLINE
  8
0
 62
7
 66
1
  0
VERTEX
  8
0
 10
341.8920781152228
 20
549.3947690615587
 30
0
  0
VERTEX
  8
0
 10
349.627919091331
 20
553.6339110026631
 30
0
  0
VERTEX
  8
0
 10
357.3637935951392
 20
557.8731050975673
 30
0
  0
SEQEND
  8
0
  0
POLYLINE
  8
0
 62
7
 66
1
  0
VERTEX
  8
0
 10
357.3637935951392
 20
701.3301452884107
 30
0
  0
VERTEX
  8
0
 10
349.627919091331
 20
705.5693393836148
 30
0
  0
VERTEX
  8
0
 10
341.8920781152228
 20
709.8084813247192
 30
0
  0
SEQEND
  8
0
  0
POLYLINE
  8
0
 62
7
 66
1
  0
VERTEX
  8
0
 10
319.482475115401
 20
541.0459911713504
 30
0
  0
VERTEX
  8
0
 10
321.0723917619016
 20
541.3430830724506
 30
0
  0
VERTEX
  8
0
 10
324.3212565468057
 20
542.3747351654517
 30
0
  0
SEQEND
  8
0
  0
POLYLINE
  8
0
 62
7
 66
1
  0
VERTEX
  8
0
 10
355.4420876934364
 20
416.5732591282261
 30
0
  0
VERTEX
  8
0
 10
355.5883500411364
 20
416.2052898538256
 30
0
  0
VERTEX
  8
0
 10
355.8672848775368
 20
414.5732699764239
 30
0
  0
SEQEND
  8
0
  0
POLYLINE
  8
0
 62
7
 66
1
  0
VERTEX
  8
0
 10
247.1056986287285
 20
434.5732658041439
 30
0
  0
VERTEX
  8
0
 10
247.6205859020283
 20
434.1581641567436
 30
0
  0
VERTEX
  8
0
 10
248.1543343202293
 20
432.9658328425423
 30
0
  0
VERTEX
  8
0
 10
248.6092518701298
 20
431.1099528205404
 30
0
  0
VERTEX
  8
0
 10
248.8696980908298
 20
428.8658975494382
 30
0
  0
VERTEX
  8
0
 10
248.9081542625308
 20
427.5732665194369
 30
0
  0
SEQEND
  8
0
  0
POLYLINE
  8
0
 62
7
 66
1
  0
VERTEX
  8
0
 10
354.3455671206357
 20
366.687442256176
 30
0
  0
VERTEX
  8
0
 10
353.5490218236355
 20
366.5055437814759
 30
0
  0
VERTEX
  8
0
 10
353.3328991071339
 20
366.4232670198757
 30
0
  0
SEQEND
  8
0
  0
POLYLINE
  8
0
 62
7
 66
1
  0
VERTEX
  8
0
 10
412.1402609781935
 20
230.8463557493402
 30
0
  0
VERTEX
  8
0
 10
402.829382164884
 20
234.0205079744433
 30
0
  0
VERTEX
  8
0
 10
402.0173433855825
 20
234.2973901760436
 30
0
  0
SEQEND
  8
0
  0
POLYLINE
  8
0
 62
7
 66
1
  0
VERTEX
  8
0
 10
358.2800250189393
 20
248.7657974342582
 30
0
  0
VERTEX
  8
0
 10
358.5013072626398
 20
248.0011294463574
 30
0
  0
VERTEX
  8
0
 10
359.1098222568407
 20
247.1527690868565
 30
0
  0
SEQEND
  8
0
  0
POLYLINE
  8
0
 62
7
 66
1
  0
VERTEX
  8
0
 10
203.0656370950846
 20
337.6613250804469
 30
0
  0
VERTEX
  8
0
 10
203.0667099787843
 20
337.569340212347
 30
0
  0
VERTEX
  8
0
 10
203.0785787536843
 20
337.4686977696469
 30
0
  0
VERTEX
  8
0
 10
203.1173888278845
 20
337.3448728452468
 30
0
  0
VERTEX
  8
0
 10
203.2376411989844
 20
337.2321492861467
 30
0
  0
VERTEX
  8
0
 10
203.5252783132846
 20
337.3920648228468
 30
0
  0
VERTEX
  8
0
 10
203.6491963699855
 20
337.6037022900469
 30
0
  0
VERTEX
  8
0
 10
203.6993834806854
 20
337.736840439947
 30
0
  0
SEQEND
  8
0
  0
POLYLINE
  8
0
 62
7
 66
1
  0
VERTEX
  8
0
 10
203.6993834806854
 20
337.736840439947
 30
0
  0
VERTEX
  8
0
 10
203.3795673085851
 20
331.5583906005408
 30
0
  0
VERTEX
  8
0
 10
203.245829386985
 20
325.3684556913348
 30
0
  0
VERTEX
  8
0
 10
203.1637239886841
 20
319.1522574852285
 30
0
  0
VERTEX
  8
0
 10
203.3407050802844
 20
316.0318500231253
 30
0
  0
VERTEX
  8
0
 10
203.4378755524849
 20
315.0115116369244
 30
0
  0
SEQEND
  8
0
  0
POLYLINE
  8
0
 62
7
 66
1
  0
VERTEX
  8
0
 10
179.4150877429602
 20
319.9189334046293
 30
0
  0
VERTEX
  8
0
 10
171.4482266140531
 20
320.8663678596302
 30
0
  0
VERTEX
  8
0
 10
168.9199465945503
 20
320.9232642186303
 30
0
  0
SEQEND
  8
0
  0
POLYLINE
  8
0
 62
7
 66
1
  0
VERTEX
  8
0
 10
242.6769170597236
 20
185.3650539049947
 30
0
  0
VERTEX
  8
0
 10
233.6172196700154
 20
188.9005630144982
 30
0
  0
VERTEX
  8
0
 10
224.8495701386055
 20
193.1278957853024
 30
0
  0
VERTEX
  8
0
 10
216.4155427051983
 20
198.0312867890074
 30
0
  0
VERTEX
  8
0
 10
208.3567339612891
 20
203.594978047413
 30
0
  0
VERTEX
  8
0
 10
200.7147404983825
 20
209.8031892311191
 30
0
  0
VERTEX
  8
0
 10
193.5021314455744
 20
216.6039674411259
 30
0
  0
VERTEX
  8
0
 10
187.8242078854692
 20
221.3436952661307
 30
0
  0
VERTEX
  8
0
 10
181.681911988363
 20
225.3706558475348
 30
0
  0
VERTEX
  8
0
 10
177.163693649858
 20
227.7402571271371
 30
0
  0
VERTEX
  8
0
 10
172.4757212830536
 20
229.7408199737391
 30
0
  0
SEQEND
  8
0
  0
POLYLINE
  8
0
 62
7
 66
1
  0
VERTEX
  8
0
 10
296.3301360758778
 20
178.4497528204878
 30
0
  0
VERTEX
  8
0
 10
295.168273678476
 20
178.4789665468879
 30
0
  0
VERTEX
  8
0
 10
291.4199419937731
 20
178.646679116288
 30
0
  0
SEQEND
  8
0
  0
POLYLINE
  8
0
 62
7
 66
1
  0
VERTEX
  8
0
 10
298.9199418260805
 20
189.2773984798986
 30
0
  0
VERTEX
  8
0
 10
296.8689310982782
 20
189.3515168557987
 30
0
  0
VERTEX
  8
0
 10
295.3708971071765
 20
189.4139005669987
 30
0
  0
SEQEND
  8
0
  0
POLYLINE
  8
0
 62
7
 66
1
  0
VERTEX
  8
0
 10
264.146707548246
 20
180.0152166613893
 30
0
  0
VERTEX
  8
0
 10
256.3689347042382
 20
181.5046771297909
 30
0
  0
VERTEX
  8
0
 10
248.3816515340295
 20
183.5759534368929
 30
0
  0
SEQEND
  8
0
  0
POLYLINE
  8
0
 62
7
 66
1
  0
VERTEX
  8
0
 10
375.884968383657
 20
342.4772127402518
 30
0
  0
VERTEX
  8
0
 10
375.0049058034556
 20
347.669902337757
 30
0
  0
VERTEX
  8
0
 10
374.861020191056
 20
351.0140358339604
 30
0
  0
VERTEX
  8
0
 10
374.3617046313557
 20
354.2517079842637
 30
0
  0
VERTEX
  8
0
 10
373.3886364534546
 20
357.3062225115666
 30
0
  0
VERTEX
  8
0
 10
371.1278918817525
 20
361.4583044181708
 30
0
  0
VERTEX
  8
0
 10
368.0253211095487
 20
364.9763940702745
 30
0
  0
SEQEND
  8
0
  0
POLYLINE
  8
0
 62
7
 66
1
  0
VERTEX
  8
0
 10
305.4351993524861
 20
221.2133101055306
 30
0
  0
VERTEX
  8
0
 10
304.4794225751857
 20
220.6277540753301
 30
0
  0
VERTEX
  8
0
 10
303.6037344173847
 20
220.4977488944298
 30
0
  0
SEQEND
  8
0
  0
POLYLINE
  8
0
 62
7
 66
1
  0
VERTEX
  8
0
 10
306.1893317534878
 20
223.9784627090333
 30
0
  0
VERTEX
  8
0
 10
306.0178883060871
 20
222.3483464549317
 30
0
  0
VERTEX
  8
0
 10
305.4351993524861
 20
221.2133101055306
 30
0
  0
SEQEND
  8
0
  0
POLYLINE
  8
0
 62
7
 66
1
  0
VERTEX
  8
0
 10
303.6037344173847
 20
227.4977481791369
 30
0
  0
VERTEX
  8
0
 10
304.6598928668864
 20
227.3136257063367
 30
0
  0
VERTEX
  8
0
 10
305.3633771522864
 20
226.8513469826362
 30
0
  0
SEQEND
  8
0
  0
POLYLINE
  8
0
 62
7
 66
1
  0
VERTEX
  8
0
 10
303.6037344173847
 20
221.1773983070305
 30
0
  0
VERTEX
  8
0
 10
304.299030514786
 20
221.3440528940307
 30
0
  0
VERTEX
  8
0
 10
304.7528886854852
 20
221.680152309831
 30
0
  0
SEQEND
  8
0
  0
POLYLINE
  8
0
 62
7
 66
1
  0
VERTEX
  8
0
 10
304.716977818186
 20
226.3485929798357
 30
0
  0
VERTEX
  8
0
 10
304.1396984516859
 20
226.7264119217361
 30
0
  0
VERTEX
  8
0
 10
303.6037344173847
 20
226.8180987665361
 30
0
  0
SEQEND
  8
0
  0
POLYLINE
  8
0
 62
7
 66
1
  0
VERTEX
  8
0
 10
305.9199420422874
 20
327.4232662152368
 30
0
  0
VERTEX
  8
0
 10
314.9935152068965
 20
329.9437044990393
 30
0
  0
VERTEX
  8
0
 10
323.919942198605
 20
332.4232651722418
 30
0
  0
SEQEND
  8
0
  0
POLYLINE
  8
0
 62
7
 66
1
  0
VERTEX
  8
0
 10
323.919942198605
 20
332.4232651722418
 30
0
  0
VERTEX
  8
0
 10
314.9940218462962
 20
334.9026880095443
 30
0
  0
VERTEX
  8
0
 10
305.9199420422874
 20
337.4232641292468
 30
0
  0
SEQEND
  8
0
  0
POLYLINE
  8
0
 62
7
 66
1
  0
VERTEX
  8
0
 10
271.7333562359527
 20
315.2374393176246
 30
0
  0
VERTEX
  8
0
 10
270.1394311769509
 20
310.8209176791202
 30
0
  0
VERTEX
  8
0
 10
268.5542996660497
 20
306.4287650268158
 30
0
  0
VERTEX
  8
0
 10
266.9518399670487
 20
301.9885971081114
 30
0
  0
VERTEX
  8
0
 10
265.3790894582471
 20
297.630752517007
 30
0
  0
SEQEND
  8
0
  0
POLYLINE
  8
0
 62
7
 66
1
  0
VERTEX
  8
0
 10
268.3617058829495
 20
297.630752517007
 30
0
  0
VERTEX
  8
0
 10
269.842119483551
 20
301.8569080959111
 30
0
  0
VERTEX
  8
0
 10
271.3462073042529
 20
306.1506460290155
 30
0
  0
VERTEX
  8
0
 10
274.4566123619561
 20
315.0299518239244
 30
0
  0
SEQEND
  8
0
  0
POLYLINE
  8
0
 62
7
 66
1
  0
VERTEX
  8
0
 10
281.1369277223621
 20
317.1307510566265
 30
0
  0
VERTEX
  8
0
 10
280.7493652835619
 20
311.7989851962212
 30
0
  0
VERTEX
  8
0
 10
280.3588542773614
 20
306.4266863148158
 30
0
  0
SEQEND
  8
0
  0
POLYLINE
  8
0
 62
7
 66
1
  0
VERTEX
  8
0
 10
311.1343379750924
 20
297.726300625207
 30
0
  0
VERTEX
  8
0
 10
311.1823700054929
 20
297.8280140889072
 30
0
  0
VERTEX
  8
0
 10
311.3481482177922
 20
298.1865416151075
 30
0
  0
SEQEND
  8
0
  0
POLYLINE
  8
0
 62
7
 66
1
  0
VERTEX
  8
0
 10
216.782498700798
 20
403.4232674968127
 30
0
  0
VERTEX
  8
0
 10
216.7815375760974
 20
403.4294067751128
 30
0
  0
VERTEX
  8
0
 10
216.8632406428978
 20
404.0209530724134
 30
0
  0
SEQEND
  8
0
  0
POLYLINE
  8
0
 62
7
 66
1
  0
VERTEX
  8
0
 10
380.9826258258627
 20
403.9776055945133
 30
0
  0
VERTEX
  8
0
 10
381.0583460763628
 20
403.4294067751128
 30
0
  0
VERTEX
  8
0
 10
381.0573849513621
 20
403.4232674968127
 30
0
  0
SEQEND
  8
0
  0
POLYLINE
  8
0
 62
7
 66
1
  0
VERTEX
  8
0
 10
360.7885349229418
 20
409.5354853999189
 30
0
  0
VERTEX
  8
0
 10
362.6312125161439
 20
408.631491555118
 30
0
  0
VERTEX
  8
0
 10
363.0504417852444
 20
408.4315477741178
 30
0
  0
VERTEX
  8
0
 10
363.068002803645
 20
408.4232627284178
 30
0
  0
SEQEND
  8
0
  0
POLYLINE
  8
0
 62
7
 66
1
  0
VERTEX
  8
0
 10
381.0573849513621
 20
403.4232674968127
 30
0
  0
VERTEX
  8
0
 10
381.0581598117624
 20
403.4349053038127
 30
0
  0
VERTEX
  8
0
 10
381.0053351955621
 20
403.721290720613
 30
0
  0
SEQEND
  8
0
  0
POLYLINE
  8
0
 62
7
 66
1
  0
VERTEX
  8
0
 10
216.8345484568981
 20
403.721290720613
 30
0
  0
VERTEX
  8
0
 10
216.7817238403977
 20
403.4349053038127
 30
0
  0
VERTEX
  8
0
 10
216.782498700798
 20
403.4232674968127
 30
0
  0
SEQEND
  8
0
  0
POLYLINE
  8
0
 62
7
 66
1
  0
VERTEX
  8
0
 10
234.7718808485161
 20
408.4232627284178
 30
0
  0
VERTEX
  8
0
 10
234.7894418672167
 20
408.4315477741178
 30
0
  0
VERTEX
  8
0
 10
237.0513487295184
 20
409.5354853999189
 30
0
  0
SEQEND
  8
0
  0
POLYLINE
  8
0
 62
7
 66
1
  0
VERTEX
  8
0
 10
244.6637782886264
 20
414.5732699764239
 30
0
  0
VERTEX
  8
0
 10
244.7325844004263
 20
415.0839029683245
 30
0
  0
VERTEX
  8
0
 10
244.9969384505266
 20
415.6538127793251
 30
0
  0
VERTEX
  8
0
 10
245.3934583499267
 20
416.0754858385255
 30
0
  0
VERTEX
  8
0
 10
245.780948145527
 20
416.3124292027256
 30
0
  0
VERTEX
  8
0
 10
246.1057003274273
 20
416.4319216144258
 30
0
  0
VERTEX
  8
0
 10
246.3405389024274
 20
416.4791731966258
 30
0
  0
VERTEX
  8
0
 10
246.4190382197276
 20
416.4635716807259
 30
0
  0
VERTEX
  8
0
 10
246.3019188179278
 20
416.3602768315257
 30
0
  0
VERTEX
  8
0
 10
246.0445981160274
 20
416.1288766993255
 30
0
  0
VERTEX
  8
0
 10
245.7739706768271
 20
415.7867758405251
 30
0
  0
VERTEX
  8
0
 10
245.5540258124265
 20
415.3473703993247
 30
0
  0
VERTEX
  8
0
 10
245.4257230892263
 20
414.7944181096243
 30
0
  0
VERTEX
  8
0
 10
245.4146403506265
 20
414.5732699764239
 30
0
  0
SEQEND
  8
0
  0
POLYLINE
  8
0
 62
7
 66
1
  0
VERTEX
  8
0
 10
239.7415410413214
 20
419.574755324229
 30
0
  0
VERTEX
  8
0
 10
237.7454448179196
 20
420.3559785019298
 30
0
  0
VERTEX
  8
0
 10
236.9991238847188
 20
420.4232721460297
 30
0
  0
SEQEND
  8
0
  0
POLYLINE
  8
0
 62
7
 66
1
  0
VERTEX
  8
0
 10
223.2870567275049
 20
419.574755324229
 30
0
  0
VERTEX
  8
0
 10
221.9434711769036
 20
420.1903818976296
 30
0
  0
VERTEX
  8
0
 10
220.5446395709014
 20
420.4232721460297
 30
0
  0
SEQEND
  8
0
  0
POLYLINE
  8
0
 62
7
 66
1
  0
VERTEX
  8
0
 10
236.9991238847188
 20
420.4232721460297
 30
0
  0
VERTEX
  8
0
 10
234.9497113064163
 20
419.9345289601293
 30
0
  0
VERTEX
  8
0
 10
234.2567104532154
 20
419.574755324229
 30
0
  0
SEQEND
  8
0
  0
POLYLINE
  8
0
 62
7
 66
1
  0
VERTEX
  8
0
 10
234.2567104532154
 20
419.574755324229
 30
0
  0
VERTEX
  8
0
 10
231.5695393517126
 20
420.1903818976296
 30
0
  0
VERTEX
  8
0
 10
228.7718835905098
 20
420.4232721460297
 30
0
  0
SEQEND
  8
0
  0
POLYLINE
  8
0
 62
7
 66
1
  0
VERTEX
  8
0
 10
363.5831731989447
 20
419.574755324229
 30
0
  0
VERTEX
  8
0
 10
362.2395876483433
 20
420.1903818976296
 30
0
  0
VERTEX
  8
0
 10
360.8407597677415
 20
420.4232721460297
 30
0
  0
SEQEND
  8
0
  0
POLYLINE
  8
0
 62
7
 66
1
  0
VERTEX
  8
0
 10
374.5528269246561
 20
419.574755324229
 30
0
  0
VERTEX
  8
0
 10
373.1668252185546
 20
419.9345289601293
 30
0
  0
VERTEX
  8
0
 10
369.0680000619504
 20
420.4232721460297
 30
0
  0
SEQEND
  8
0
  0
POLYLINE
  8
0
 62
7
 66
1
  0
VERTEX
  8
0
 10
369.0680000619504
 20
420.4232721460297
 30
0
  0
VERTEX
  8
0
 10
367.5753581955487
 20
420.3559785019298
 30
0
  0
VERTEX
  8
0
 10
363.5831731989447
 20
419.574755324229
 30
0
  0
SEQEND
  8
0
  0
POLYLINE
  8
0
 62
7
 66
1
  0
VERTEX
  8
0
 10
380.0376537876609
 20
419.574755324229
 30
0
  0
VERTEX
  8
0
 10
378.6940682367604
 20
420.1903818976296
 30
0
  0
VERTEX
  8
0
 10
377.2952440815589
 20
420.4232721460297
 30
0
  0
SEQEND
  8
0
  0
POLYLINE
  8
0
 62
7
 66
1
  0
VERTEX
  8
0
 10
290.6927006006717
 20
420.4232721460297
 30
0
  0
VERTEX
  8
0
 10
289.9463796674709
 20
420.3559785019298
 30
0
  0
VERTEX
  8
0
 10
287.9502871691693
 20
419.574755324229
 30
0
  0
SEQEND
  8
0
  0
POLYLINE
  8
0
 62
7
 66
1
  0
VERTEX
  8
0
 10
309.8895964829908
 20
419.574755324229
 30
0
  0
VERTEX
  8
0
 10
308.5460109323894
 20
420.1903818976296
 30
0
  0
VERTEX
  8
0
 10
307.1471830517885
 20
420.4232721460297
 30
0
  0
SEQEND
  8
0
  0
POLYLINE
  8
0
 62
7
 66
1
  0
VERTEX
  8
0
 10
293.4351144977754
 20
419.574755324229
 30
0
  0
VERTEX
  8
0
 10
292.742114110174
 20
419.9345289601293
 30
0
  0
VERTEX
  8
0
 10
290.6927006006717
 20
420.4232721460297
 30
0
  0
SEQEND
  8
0
  0
POLYLINE
  8
0
 62
7
 66
1
  0
VERTEX
  8
0
 10
304.4047691546857
 20
419.574755324229
 30
0
  0
VERTEX
  8
0
 10
301.7175973544827
 20
420.1903818976296
 30
0
  0
VERTEX
  8
0
 10
298.9199418260805
 20
420.4232721460297
 30
0
  0
SEQEND
  8
0
  0
POLYLINE
  8
0
 62
7
 66
1
  0
VERTEX
  8
0
 10
287.9502871691693
 20
369.2717729937786
 30
0
  0
VERTEX
  8
0
 10
289.2938727200708
 20
368.6561538708781
 30
0
  0
VERTEX
  8
0
 10
290.6927006006717
 20
368.4232636224777
 30
0
  0
SEQEND
  8
0
  0
POLYLINE
  8
0
 62
7
 66
1
  0
VERTEX
  8
0
 10
307.1471830517885
 20
368.4232636224777
 30
0
  0
VERTEX
  8
0
 10
309.1965965612908
 20
368.9119993578783
 30
0
  0
VERTEX
  8
0
 10
309.8895964829908
 20
369.2717729937786
 30
0
  0
SEQEND
  8
0
  0
POLYLINE
  8
0
 62
7
 66
1
  0
VERTEX
  8
0
 10
304.4047691546857
 20
369.2717729937786
 30
0
  0
VERTEX
  8
0
 10
306.400862584188
 20
368.4905572665778
 30
0
  0
VERTEX
  8
0
 10
307.1471830517885
 20
368.4232636224777
 30
0
  0
SEQEND
  8
0
  0
POLYLINE
  8
0
 62
7
 66
1
  0
VERTEX
  8
0
 10
293.4351144977754
 20
369.2717729937786
 30
0
  0
VERTEX
  8
0
 10
296.1222862976774
 20
368.6561538708781
 30
0
  0
VERTEX
  8
0
 10
298.9199418260805
 20
368.4232636224777
 30
0
  0
SEQEND
  8
0
  0
POLYLINE
  8
0
 62
7
 66
1
  0
VERTEX
  8
0
 10
358.0983426108396
 20
369.2717729937786
 30
0
  0
VERTEX
  8
0
 10
358.7913434640404
 20
368.9119993578783
 30
0
  0
VERTEX
  8
0
 10
360.8407597677415
 20
368.4232636224777
 30
0
  0
SEQEND
  8
0
  0
POLYLINE
  8
0
 62
7
 66
1
  0
VERTEX
  8
0
 10
374.5528269246561
 20
369.2717729937786
 30
0
  0
VERTEX
  8
0
 10
375.8964124755566
 20
368.6561538708781
 30
0
  0
VERTEX
  8
0
 10
377.2952440815589
 20
368.4232636224777
 30
0
  0
SEQEND
  8
0
  0
POLYLINE
  8
0
 62
7
 66
1
  0
VERTEX
  8
0
 10
360.8407597677415
 20
368.4232636224777
 30
0
  0
VERTEX
  8
0
 10
361.5870807006431
 20
368.4905572665778
 30
0
  0
VERTEX
  8
0
 10
363.5831731989447
 20
369.2717729937786
 30
0
  0
SEQEND
  8
0
  0
POLYLINE
  8
0
 62
7
 66
1
  0
VERTEX
  8
0
 10
363.5831731989447
 20
369.2717729937786
 30
0
  0
VERTEX
  8
0
 10
366.2703443007476
 20
368.6561538708781
 30
0
  0
VERTEX
  8
0
 10
369.0680000619504
 20
368.4232636224777
 30
0
  0
SEQEND
  8
0
  0
POLYLINE
  8
0
 62
7
 66
1
  0
VERTEX
  8
0
 10
217.8022298647993
 20
369.2717729937786
 30
0
  0
VERTEX
  8
0
 10
219.1458154156999
 20
368.6561538708781
 30
0
  0
VERTEX
  8
0
 10
220.5446395709014
 20
368.4232636224777
 30
0
  0
SEQEND
  8
0
  0
POLYLINE
  8
0
 62
7
 66
1
  0
VERTEX
  8
0
 10
223.2870567275049
 20
369.2717729937786
 30
0
  0
VERTEX
  8
0
 10
227.2792417241089
 20
368.4905572665778
 30
0
  0
VERTEX
  8
0
 10
228.7718835905098
 20
368.4232636224777
 30
0
  0
SEQEND
  8
0
  0
POLYLINE
  8
0
 62
7
 66
1
  0
VERTEX
  8
0
 10
228.7718835905098
 20
368.4232636224777
 30
0
  0
VERTEX
  8
0
 10
232.8707087471139
 20
368.9119993578783
 30
0
  0
VERTEX
  8
0
 10
234.2567104532154
 20
369.2717729937786
 30
0
  0
SEQEND
  8
0
  0
POLYLINE
  8
0
 62
7
 66
1
  0
VERTEX
  8
0
 10
234.2567104532154
 20
369.2717729937786
 30
0
  0
VERTEX
  8
0
 10
235.6002960041169
 20
368.6561538708781
 30
0
  0
VERTEX
  8
0
 10
236.9991238847188
 20
368.4232636224777
 30
0
  0
SEQEND
  8
0
  0
POLYLINE
  8
0
 62
7
 66
1
  0
VERTEX
  8
0
 10
279.8289857492609
 20
432.8063755165422
 30
0
  0
VERTEX
  8
0
 10
281.1798672809628
 20
427.4460255040369
 30
0
  0
VERTEX
  8
0
 10
282.5438543840637
 20
422.0336555374313
 30
0
  0
VERTEX
  8
0
 10
283.9199421614658
 20
416.5732591282261
 30
0
  0
SEQEND
  8
0
  0
POLYLINE
  8
0
 62
7
 66
1
  0
VERTEX
  8
0
 10
245.0233917371261
 20
366.8575166595762
 30
0
  0
VERTEX
  8
0
 10
244.2954700127257
 20
365.0369970930744
 30
0
  0
VERTEX
  8
0
 10
243.2468082443238
 20
362.682479513772
 30
0
  0
SEQEND
  8
0
  0
POLYLINE
  8
0
 62
7
 66
1
  0
VERTEX
  8
0
 10
237.9193078412191
 20
354.9666656982643
 30
0
  0
VERTEX
  8
0
 10
237.3425919248184
 20
354.5030160675638
 30
0
  0
VERTEX
  8
0
 10
237.1516558958183
 20
354.3903558384638
 30
0
  0
SEQEND
  8
0
  0
POLYLINE
  8
0
 62
7
 66
1
  0
VERTEX
  8
0
 10
362.4279308751438
 20
353.9224668276633
 30
0
  0
VERTEX
  8
0
 10
362.4364692405434
 20
354.0168358815634
 30
0
  0
VERTEX
  8
0
 10
362.0786998107433
 20
354.3698294889636
 30
0
  0
VERTEX
  8
0
 10
361.2797554269428
 20
354.9631862769643
 30
0
  0
SEQEND
  8
0
  0
POLYLINE
  8
0
 62
7
 66
1
  0
VERTEX
  8
0
 10
361.7182705239429
 20
354.583772910664
 30
0
  0
VERTEX
  8
0
 10
359.9092136757408
 20
355.9552310835653
 30
0
  0
VERTEX
  8
0
 10
358.3977553680397
 20
357.3422684205667
 30
0
  0
VERTEX
  8
0
 10
357.1957047717378
 20
358.5682465563679
 30
0
  0
VERTEX
  8
0
 10
356.3291649954381
 20
359.4927593004689
 30
0
  0
VERTEX
  8
0
 10
355.6154329017363
 20
360.2551250589697
 30
0
  0
VERTEX
  8
0
 10
355.1583695844365
 20
360.7160105238701
 30
0
  0
VERTEX
  8
0
 10
354.5822385387364
 20
361.2355246077706
 30
0
  0
VERTEX
  8
0
 10
354.0652874544348
 20
361.5875570904709
 30
0
  0
VERTEX
  8
0
 10
353.7440146938352
 20
361.7746784220712
 30
0
  0
VERTEX
  8
0
 10
353.4216243462352
 20
362.0680003296715
 30
0
  0
SEQEND
  8
0
  0
POLYLINE
  8
0
 62
7
 66
1
  0
VERTEX
  8
0
 10
205.1925659473864
 20
306.2746764816156
 30
0
  0
VERTEX
  8
0
 10
207.4041967786889
 20
302.7247721562121
 30
0
  0
VERTEX
  8
0
 10
209.570523327191
 20
299.2693455096086
 30
0
  0
VERTEX
  8
0
 10
211.7088069217925
 20
295.9114647288052
 30
0
  0
VERTEX
  8
0
 10
213.8363088904953
 20
292.654197999302
 30
0
  0
VERTEX
  8
0
 10
215.9702905615977
 20
289.5006135080989
 30
0
  0
VERTEX
  8
0
 10
218.1280132633992
 20
286.4537794409958
 30
0
  0
VERTEX
  8
0
 10
220.3267383245011
 20
283.516763984093
 30
0
  0
VERTEX
  8
0
 10
222.5837270732036
 20
280.6926353240901
 30
0
  0
VERTEX
  8
0
 10
224.9162408378061
 20
277.9844616470874
 30
0
  0
VERTEX
  8
0
 10
227.3415409466079
 20
275.3953111394847
 30
0
  0
VERTEX
  8
0
 10
229.8768887279111
 20
272.9282519873822
 30
0
  0
VERTEX
  8
0
 10
232.5395455103135
 20
270.5863523768799
 30
0
  0
VERTEX
  8
0
 10
235.3467726218169
 20
268.3726804943777
 30
0
  0
VERTEX
  8
0
 10
238.315831391019
 20
266.2903045262756
 30
0
  0
VERTEX
  8
0
 10
241.4639831462227
 20
264.3422926586737
 30
0
  0
VERTEX
  8
0
 10
244.8084892154257
 20
262.5317130779719
 30
0
  0
VERTEX
  8
0
 10
248.36661092753
 20
260.8616339705702
 30
0
  0
VERTEX
  8
0
 10
252.1556096105333
 20
259.3351235222687
 30
0
  0
VERTEX
  8
0
 10
256.1927465927374
 20
257.9552499197674
 30
0
  0
VERTEX
  8
0
 10
260.4947541251422
 20
256.7250899534661
 30
0
  0
VERTEX
  8
0
 10
265.054139165346
 20
255.648114395965
 30
0
  0
VERTEX
  8
0
 10
269.8296428798512
 20
254.7283431602641
 30
0
  0
VERTEX
  8
0
 10
274.7775030632556
 20
253.9698368726633
 30
0
  0
VERTEX
  8
0
 10
279.8539575089608
 20
253.3766561588627
 30
0
  0
VERTEX
  8
0
 10
285.0152440112661
 20
252.9528616454623
 30
0
  0
VERTEX
  8
0
 10
290.2176003641716
 20
252.702513958162
 30
0
  0
VERTEX
  8
0
 10
295.4172643610764
 20
252.629673723262
 30
0
  0
VERTEX
  8
0
 10
300.5704737965816
 20
252.7384015667622
 30
0
  0
VERTEX
  8
0
 10
305.6334664643873
 20
253.0327581146624
 30
0
  0
VERTEX
  8
0
 10
310.5648862154912
 20
253.5134307431629
 30
0
  0
VERTEX
  8
0
 10
315.3546449324967
 20
254.1372695861634
 30
0
  0
VERTEX
  8
0
 10
320.0145123720013
 20
254.8304804150641
 30
0
  0
VERTEX
  8
0
 10
324.5567063601056
 20
255.5186408171648
 30
0
  0
VERTEX
  8
0
 10
328.9934447220103
 20
256.1273283794655
 30
0
  0
VERTEX
  8
0
 10
333.3369452832149
 20
256.5821206886658
 30
0
  0
VERTEX
  8
0
 10
337.5994258695191
 20
256.8085953320662
 30
0
  0
VERTEX
  8
0
 10
341.7931043067229
 20
256.7323298963661
 30
0
  0
VERTEX
  8
0
 10
345.9301984197273
 20
256.2789019685657
 30
0
  0
VERTEX
  8
0
 10
350.0229260343313
 20
255.3738891356648
 30
0
  0
VERTEX
  8
0
 10
354.0835049766356
 20
253.9428689846633
 30
0
  0
SEQEND
  8
0
  0
LINE
  8
1
 62
2
 10
567.7022229753057
 20
81.6495270558638
 30
0
 11
567.9800007530836
 21
81.9620270558638
 31
0
  0
LINE
  8
1
 62
2
 10
567.7022229753057
 20
83.5245270558638
 30
0
 11
566.0355563086391
 21
83.5245270558638
 31
0
  0
LINE
  8
1
 62
2
 10
571.8688896419725
 20
76.3370270558638
 30
0
 11
574.3688896419725
 21
76.3370270558638
 31
0
  0
LINE
  8
1
 62
2
 10
569.0911118641947
 20
76.3370270558638
 30
0
 11
571.8688896419725
 21
76.3370270558638
 31
0
  0
LINE
  8
1
 62
2
 10
571.8688896419725
 20
85.3995270558638
 30
0
 11
571.8688896419725
 21
76.3370270558638
 31
0
  0
LINE
  8
1
 62
2
 10
569.924445197528
 20
81.6495270558638
 30
0
 11
573.8133340864169
 21
81.6495270558638
 31
0
  0
LINE
  8
1
 62
2
 10
568.2577785308614
 20
81.3370270558638
 30
0
 11
569.6466674197502
 21
79.7745270558638
 31
0
  0
LINE
  8
1
 62
2
 10
567.7022229753057
 20
83.5245270558638
 30
0
 11
567.7022229753057
 21
85.3995270558638
 31
0
  0
LINE
  8
1
 62
2
 10
569.0911118641947
 20
83.5245270558638
 30
0
 11
567.7022229753057
 21
83.5245270558638
 31
0
  0
LINE
  8
1
 62
2
 10
567.9800007530836
 20
81.9620270558638
 30
0
 11
569.0911118641947
 21
83.5245270558638
 31
0
  0
LINE
  8
1
 62
2
 10
566.5911118641947
 20
80.3995270558638
 30
0
 11
567.7022229753057
 21
81.6495270558638
 31
0
  0
LINE
  8
1
 62
2
 10
565.4800007530836
 20
79.4620270558638
 30
0
 11
566.5911118641947
 21
80.3995270558638
 31
0
  0
LINE
  8
1
 62
2
 10
567.7022229753057
 20
76.0245270558638
 30
0
 11
567.7022229753057
 21
81.6495270558638
 31
0
  0
LINE
  8
1
 62
2
 10
559.924445197528
 20
79.4620270558638
 30
0
 11
557.1466674197502
 21
76.0245270558638
 31
0
  0
LINE
  8
1
 62
2
 10
562.424445197528
 20
76.6495270558638
 30
0
 11
561.3133340864169
 21
77.8995270558638
 31
0
  0
LINE
  8
1
 62
2
 10
563.2577785308614
 20
75.7120270558638
 30
0
 11
562.424445197528
 21
76.6495270558638
 31
0
  0
LINE
  8
1
 62
2
 10
556.3133340864169
 20
76.0245270558638
 30
0
 11
562.424445197528
 21
76.6495270558638
 31
0
  0
LINE
  8
1
 62
2
 10
556.8688896419725
 20
79.7745270558638
 30
0
 11
563.2577785308614
 21
79.7745270558638
 31
0
  0
LINE
  8
1
 62
2
 10
557.9800007530836
 20
81.3370270558638
 30
0
 11
561.8688896419725
 21
81.3370270558638
 31
0
  0
LINE
  8
1
 62
2
 10
559.924445197528
 20
85.3995270558638
 30
0
 11
564.3688896419725
 21
80.7120270558638
 31
0
  0
LINE
  8
1
 62
2
 10
559.924445197528
 20
85.3995270558638
 30
0
 11
555.4800007530836
 21
80.7120270558638
 31
0
  0
LINE
  8
1
 62
2
 10
547.9800007530836
 20
81.0245270558638
 30
0
 11
546.0355563086391
 21
81.0245270558638
 31
0
  0
LINE
  8
1
 62
2
 10
547.9800007530836
 20
77.5870270558638
 30
0
 11
549.924445197528
 21
78.2120270558638
 31
0
  0
LINE
  8
1
 62
2
 10
553.5355563086391
 20
76.0245270558638
 30
0
 11
554.3688896419725
 21
76.9620270558638
 31
0
  0
LINE
  8
1
 62
2
 10
552.424445197528
 20
77.2745270558638
 30
0
 11
553.5355563086391
 21
76.0245270558638
 31
0
  0
LINE
  8
1
 62
2
 10
551.3133340864169
 20
79.4620270558638
 30
0
 11
552.424445197528
 21
77.2745270558638
 31
0
  0
LINE
  8
1
 62
2
 10
550.7577785308614
 20
81.9620270558638
 30
0
 11
551.3133340864169
 21
79.4620270558638
 31
0
  0
LINE
  8
1
 62
2
 10
550.4800007530836
 20
85.7120270558638
 30
0
 11
550.7577785308614
 21
81.9620270558638
 31
0
  0
LINE
  8
1
 62
2
 10
552.1466674197502
 20
84.4620270558638
 30
0
 11
551.3133340864169
 21
85.3995270558638
 31
0
  0
LINE
  8
1
 62
2
 10
545.4800007530836
 20
83.5245270558638
 30
0
 11
553.5355563086391
 21
83.5245270558638
 31
0
  0
LINE
  8
1
 62
2
 10
547.9800007530836
 20
81.0245270558638
 30
0
 11
547.9800007530836
 21
77.5870270558638
 31
0
  0
LINE
  8
1
 62
2
 10
549.924445197528
 20
81.0245270558638
 30
0
 11
547.9800007530836
 21
81.0245270558638
 31
0
  0
LINE
  8
1
 62
2
 10
546.0355563086391
 20
76.9620270558638
 30
0
 11
547.9800007530836
 21
77.5870270558638
 31
0
  0
LINE
  8
1
 62
2
 10
537.424445197528
 20
82.8995270558638
 30
0
 11
537.424445197528
 21
85.7120270558638
 31
0
  0
LINE
  8
1
 62
2
 10
537.424445197528
 20
82.8995270558638
 30
0
 11
536.0355563086391
 21
82.8995270558638
 31
0
  0
LINE
  8
1
 62
2
 10
542.9800007530836
 20
78.2120270558638
 30
0
 11
544.0911118641947
 21
76.0245270558638
 31
0
  0
LINE
  8
1
 62
2
 10
541.5911118641947
 20
81.0245270558638
 30
0
 11
542.9800007530836
 21
78.2120270558638
 31
0
  0
LINE
  8
1
 62
2
 10
540.7577785308614
 20
78.8370270558638
 30
0
 11
541.5911118641947
 21
81.0245270558638
 31
0
  0
LINE
  8
1
 62
2
 10
539.6466674197502
 20
77.2745270558638
 30
0
 11
540.7577785308614
 21
78.8370270558638
 31
0
  0
LINE
  8
1
 62
2
 10
538.8133340864169
 20
76.0245270558638
 30
0
 11
539.6466674197502
 21
77.2745270558638
 31
0
  0
LINE
  8
1
 62
2
 10
541.5911118641947
 20
85.7120270558638
 30
0
 11
541.5911118641947
 21
75.7120270558638
 31
0
  0
LINE
  8
1
 62
2
 10
544.0911118641947
 20
81.0245270558638
 30
0
 11
539.3688896419725
 21
81.0245270558638
 31
0
  0
LINE
  8
1
 62
2
 10
540.2022229753057
 20
83.2120270558638
 30
0
 11
543.8133340864169
 21
83.2120270558638
 31
0
  0
LINE
  8
1
 62
2
 10
540.2022229753057
 20
83.2120270558638
 30
0
 11
540.4800007530836
 21
84.7745270558638
 31
0
  0
LINE
  8
1
 62
2
 10
539.3688896419725
 20
81.6495270558638
 30
0
 11
540.2022229753057
 21
83.2120270558638
 31
0
  0
LINE
  8
1
 62
2
 10
537.424445197528
 20
82.8995270558638
 30
0
 11
538.8133340864169
 21
80.3995270558638
 31
0
  0
LINE
  8
1
 62
2
 10
535.7577785308614
 20
78.5245270558638
 30
0
 11
537.424445197528
 21
82.8995270558638
 31
0
  0
LINE
  8
1
 62
2
 10
538.8133340864169
 20
82.8995270558638
 30
0
 11
537.424445197528
 21
82.8995270558638
 31
0
  0
LINE
  8
1
 62
2
 10
537.424445197528
 20
76.0245270558638
 30
0
 11
537.424445197528
 21
82.8995270558638
 31
0
  0
LINE
  8
1
 62
2
 10
526.3133340864169
 20
81.9620270558638
 30
0
 11
526.3133340864169
 21
83.5245270558638
 31
0
  0
LINE
  8
1
 62
2
 10
529.0911118641947
 20
83.5245270558638
 30
0
 11
529.0911118641947
 21
81.9620270558638
 31
0
  0
LINE
  8
1
 62
2
 10
526.3133340864169
 20
83.5245270558638
 30
0
 11
526.3133340864169
 21
85.0870270558638
 31
0
  0
LINE
  8
1
 62
2
 10
533.5355563086391
 20
81.9620270558638
 30
0
 11
533.5355563086391
 21
83.5245270558638
 31
0
  0
LINE
  8
1
 62
2
 10
530.7577785308614
 20
83.5245270558638
 30
0
 11
530.7577785308614
 21
81.9620270558638
 31
0
  0
LINE
  8
1
 62
2
 10
533.5355563086391
 20
83.5245270558638
 30
0
 11
533.5355563086391
 21
85.0870270558638
 31
0
  0
LINE
  8
1
 62
2
 10
526.3133340864169
 20
76.3370270558638
 30
0
 11
526.3133340864169
 21
76.0245270558638
 31
0
  0
LINE
  8
1
 62
2
 10
530.7577785308614
 20
83.5245270558638
 30
0
 11
533.5355563086391
 21
83.5245270558638
 31
0
  0
LINE
  8
1
 62
2
 10
530.7577785308614
 20
81.9620270558638
 30
0
 11
533.5355563086391
 21
81.9620270558638
 31
0
  0
LINE
  8
1
 62
2
 10
530.7577785308614
 20
85.0870270558638
 30
0
 11
530.7577785308614
 21
83.5245270558638
 31
0
  0
LINE
  8
1
 62
2
 10
533.5355563086391
 20
85.0870270558638
 30
0
 11
530.7577785308614
 21
85.0870270558638
 31
0
  0
LINE
  8
1
 62
2
 10
533.5355563086391
 20
76.3370270558638
 30
0
 11
533.5355563086391
 21
81.9620270558638
 31
0
  0
LINE
  8
1
 62
2
 10
533.2577785308614
 20
76.0245270558638
 30
0
 11
533.5355563086391
 21
76.3370270558638
 31
0
  0
LINE
  8
1
 62
2
 10
532.424445197528
 20
76.0245270558638
 30
0
 11
533.2577785308614
 21
76.0245270558638
 31
0
  0
LINE
  8
1
 62
2
 10
529.0911118641947
 20
83.5245270558638
 30
0
 11
526.3133340864169
 21
83.5245270558638
 31
0
  0
LINE
  8
1
 62
2
 10
529.0911118641947
 20
81.9620270558638
 30
0
 11
526.3133340864169
 21
81.9620270558638
 31
0
  0
LINE
  8
1
 62
2
 10
529.0911118641947
 20
85.0870270558638
 30
0
 11
529.0911118641947
 21
83.5245270558638
 31
0
  0
LINE
  8
1
 62
2
 10
526.3133340864169
 20
85.0870270558638
 30
0
 11
529.0911118641947
 21
85.0870270558638
 31
0
  0
LINE
  8
1
 62
2
 10
526.3133340864169
 20
76.3370270558638
 30
0
 11
526.3133340864169
 21
81.9620270558638
 31
0
  0
LINE
  8
1
 62
2
 10
519.924445197528
 20
76.0245270558638
 30
0
 11
523.2577785308614
 21
76.0245270558638
 31
0
  0
LINE
  8
1
 62
2
 10
519.924445197528
 20
81.9620270558638
 30
0
 11
521.8688896419725
 21
81.9620270558638
 31
0
  0
LINE
  8
1
 62
2
 10
523.2577785308614
 20
81.6495270558638
 30
0
 11
524.3688896419725
 21
80.7120270558638
 31
0
  0
LINE
  8
1
 62
2
 10
521.3133340864169
 20
83.8370270558638
 30
0
 11
523.2577785308614
 21
81.6495270558638
 31
0
  0
LINE
  8
1
 62
2
 10
519.924445197528
 20
85.7120270558638
 30
0
 11
521.3133340864169
 21
83.8370270558638
 31
0
  0
LINE
  8
1
 62
2
 10
518.5355563086391
 20
83.8370270558638
 30
0
 11
519.924445197528
 21
85.7120270558638
 31
0
  0
LINE
  8
1
 62
2
 10
516.5911118641947
 20
81.6495270558638
 30
0
 11
518.5355563086391
 21
83.8370270558638
 31
0
  0
LINE
  8
1
 62
2
 10
515.4800007530836
 20
80.7120270558638
 30
0
 11
516.5911118641947
 21
81.6495270558638
 31
0
  0
LINE
  8
1
 62
2
 10
521.3133340864169
 20
77.2745270558638
 30
0
 11
521.8688896419725
 21
78.8370270558638
 31
0
  0
LINE
  8
1
 62
2
 10
517.9800007530836
 20
78.8370270558638
 30
0
 11
518.5355563086391
 21
77.2745270558638
 31
0
  0
LINE
  8
1
 62
2
 10
522.7022229753057
 20
80.0870270558638
 30
0
 11
517.1466674197502
 21
80.0870270558638
 31
0
  0
LINE
  8
1
 62
2
 10
517.9800007530836
 20
81.9620270558638
 30
0
 11
519.924445197528
 21
81.9620270558638
 31
0
  0
LINE
  8
1
 62
2
 10
519.924445197528
 20
76.0245270558638
 30
0
 11
519.924445197528
 21
81.9620270558638
 31
0
  0
LINE
  8
1
 62
2
 10
516.3133340864169
 20
76.0245270558638
 30
0
 11
519.924445197528
 21
76.0245270558638
 31
0
  0
LINE
  8
1
 62
2
 10
512.424445197528
 20
78.8370270558638
 30
0
 11
513.8133340864169
 21
80.7120270558638
 31
0
  0
LINE
  8
1
 62
2
 10
510.2022229753058
 20
77.5870270558638
 30
0
 11
512.424445197528
 21
78.8370270558638
 31
0
  0
LINE
  8
1
 62
2
 10
510.2022229753058
 20
83.2120270558638
 30
0
 11
510.2022229753058
 21
77.5870270558638
 31
0
  0
LINE
  8
1
 62
2
 10
507.9800007530836
 20
80.7120270558638
 30
0
 11
508.2577785308613
 21
83.2120270558638
 31
0
  0
LINE
  8
1
 62
2
 10
507.424445197528
 20
78.8370270558638
 30
0
 11
507.9800007530836
 21
80.7120270558638
 31
0
  0
LINE
  8
1
 62
2
 10
506.5911118641947
 20
77.2745270558638
 30
0
 11
507.424445197528
 21
78.8370270558638
 31
0
  0
LINE
  8
1
 62
2
 10
497.1466674197503
 20
79.7745270558638
 30
0
 11
497.1466674197503
 21
77.8995270558638
 31
0
  0
LINE
  8
1
 62
2
 10
500.2022229753058
 20
76.6495270558638
 30
0
 11
501.8688896419725
 21
76.9620270558638
 31
0
  0
LINE
  8
1
 62
2
 10
497.424445197528
 20
76.9620270558638
 30
0
 11
500.2022229753058
 21
76.6495270558638
 31
0
  0
LINE
  8
1
 62
2
 10
497.1466674197503
 20
77.8995270558638
 30
0
 11
497.424445197528
 21
76.9620270558638
 31
0
  0
LINE
  8
1
 62
2
 10
497.1466674197503
 20
83.2120270558638
 30
0
 11
497.1466674197503
 21
79.7745270558638
 31
0
  0
LINE
  8
1
 62
2
 10
502.424445197528
 20
83.8370270558638
 30
0
 11
503.2577785308613
 21
82.8995270558638
 31
0
  0
LINE
  8
1
 62
2
 10
502.7022229753058
 20
82.2745270558638
 30
0
 11
501.8688896419725
 21
83.2120270558638
 31
0
  0
LINE
  8
1
 62
2
 10
499.6466674197503
 20
80.7120270558638
 30
0
 11
501.3133340864169
 21
81.6495270558638
 31
0
  0
LINE
  8
1
 62
2
 10
497.1466674197503
 20
79.7745270558638
 30
0
 11
499.6466674197503
 21
80.7120270558638
 31
0
  0
LINE
  8
1
 62
2
 10
491.0355563086391
 20
78.8370270558638
 30
0
 11
492.7022229753058
 21
76.9620270558638
 31
0
  0
LINE
  8
1
 62
2
 10
489.6466674197503
 20
80.0870270558638
 30
0
 11
491.0355563086391
 21
78.8370270558638
 31
0
  0
LINE
  8
1
 62
2
 10
492.9800007530836
 20
84.4620270558638
 30
0
 11
493.8133340864169
 21
83.5245270558638
 31
0
  0
LINE
  8
1
 62
2
 10
492.424445197528
 20
83.8370270558638
 30
0
 11
493.2577785308613
 21
82.8995270558638
 31
0
  0
LINE
  8
1
 62
2
 10
491.3133340864169
 20
83.2120270558638
 30
0
 11
487.7022229753058
 21
83.2120270558638
 31
0
  0
LINE
  8
1
 62
2
 10
490.4800007530836
 20
81.3370270558638
 30
0
 11
491.3133340864169
 21
83.2120270558638
 31
0
  0
LINE
  8
1
 62
2
 10
488.5355563086391
 20
78.5245270558638
 30
0
 11
490.4800007530836
 21
81.3370270558638
 31
0
  0
LINE
  8
1
 62
2
 10
486.5911118641947
 20
76.9620270558638
 30
0
 11
488.5355563086391
 21
78.5245270558638
 31
0
  0
LINE
  8
1
 62
2
 10
483.2577785308613
 20
82.8995270558638
 30
0
 11
480.7577785308613
 21
80.0870270558638
 31
0
  0
LINE
  8
1
 62
2
 10
476.8688896419725
 20
82.8995270558638
 30
0
 11
483.2577785308613
 21
82.8995270558638
 31
0
  0
LINE
  8
1
 62
2
 10
479.924445197528
 20
80.0870270558638
 30
0
 11
480.2022229753058
 21
81.6495270558638
 31
0
  0
LINE
  8
1
 62
2
 10
479.3688896419725
 20
78.2120270558638
 30
0
 11
479.924445197528
 21
80.0870270558638
 31
0
  0
LINE
  8
1
 62
2
 10
478.2577785308613
 20
76.3370270558638
 30
0
 11
479.3688896419725
 21
78.2120270558638
 31
0
  0
LINE
  8
1
 62
2
 10
811.6251247114875
 20
342.4271601837317
 30
0
 11
808.4250862733064
 21
341.5698662340607
 31
0
  0
LINE
  8
1
 62
2
 10
810.7677538790224
 20
343.912323792077
 30
0
 11
808.4250862733064
 21
341.5698662340607
 31
0
  0
LINE
  8
1
 62
2
 10
848.3881334801299
 20
364.640153479874
 30
0
 11
808.4250862733064
 21
341.5698662340607
 31
0
  0
LINE
  8
1
 62
2
 10
888.8104003066801
 20
364.640153479874
 30
0
 11
848.3881334801299
 21
364.640153479874
 31
0
  0
LINE
  8
1
 62
2
 10
301.861269946616
 20
214.6104094050523
 30
0
 11
301.8473884027024
 21
217.9232640992273
 31
0
  0
LINE
  8
1
 62
2
 10
303.5158375194628
 20
215.061188546982
 30
0
 11
301.8473884027024
 21
217.9232640992273
 31
0
  0
LINE
  8
1
 62
2
 10
319.7517986607795
 20
152.2058120956899
 30
0
 11
301.8473884027024
 21
217.9232640992273
 31
0
  0
LINE
  8
1
 62
2
 10
410.9481850244175
 20
152.2058120956899
 30
0
 11
319.7517986607795
 21
152.2058120956899
 31
0
  0
LINE
  8
1
 62
2
 10
590.6474591818189
 20
59.0037867774456
 30
0
 11
591.1474591818189
 21
58.7225367774456
 31
0
  0
LINE
  8
1
 62
2
 10
586.1474591818189
 20
59.0037867774456
 30
0
 11
590.6474591818189
 21
59.0037867774456
 31
0
  0
LINE
  8
1
 62
2
 10
585.6474591818188
 20
59.2850367774456
 30
0
 11
586.1474591818189
 21
59.0037867774456
 31
0
  0
LINE
  8
1
 62
2
 10
579.1474591818189
 20
59.8475367774456
 30
0
 11
581.1474591818188
 21
57.5975367774456
 31
0
  0
LINE
  8
1
 62
2
 10
578.3974591818189
 20
60.9725367774456
 30
0
 11
577.1474591818189
 21
59.5662867774456
 31
0
  0
LINE
  8
1
 62
2
 10
579.6474591818188
 20
62.6600367774456
 30
0
 11
578.3974591818189
 21
60.9725367774456
 31
0
  0
LINE
  8
1
 62
2
 10
582.1474591818189
 20
61.5350367774456
 30
0
 11
578.8974591818188
 21
61.5350367774456
 31
0
  0
LINE
  8
1
 62
2
 10
581.1474591818188
 20
59.5662867774456
 30
0
 11
582.1474591818189
 21
61.5350367774456
 31
0
  0
LINE
  8
1
 62
2
 10
579.1474591818189
 20
57.3162867774456
 30
0
 11
581.1474591818188
 21
59.5662867774456
 31
0
  0
LINE
  8
1
 62
2
 10
576.8974591818189
 20
55.6287867774456
 30
0
 11
579.1474591818189
 21
57.3162867774456
 31
0
  0
LINE
  8
1
 62
2
 10
572.6474591818189
 20
59.0037867774456
 30
0
 11
573.1474591818189
 21
58.7225367774456
 31
0
  0
LINE
  8
1
 62
2
 10
568.1474591818189
 20
59.0037867774456
 30
0
 11
572.6474591818189
 21
59.0037867774456
 31
0
  0
LINE
  8
1
 62
2
 10
567.6474591818188
 20
59.2850367774456
 30
0
 11
568.1474591818189
 21
59.0037867774456
 31
0
  0
LINE
  8
1
 62
2
 10
562.1474591818189
 20
59.0037867774456
 30
0
 11
563.3974591818189
 21
57.0350367774456
 31
0
  0
LINE
  8
1
 62
2
 10
560.8974591818188
 20
60.4100367774456
 30
0
 11
562.1474591818189
 21
59.0037867774456
 31
0
  0
LINE
  8
1
 62
2
 10
562.6474591818189
 20
59.5662867774456
 30
0
 11
563.8974591818188
 21
62.0975367774456
 31
0
  0
LINE
  8
1
 62
2
 10
560.6474591818189
 20
57.0350367774456
 30
0
 11
562.6474591818189
 21
59.5662867774456
 31
0
  0
LINE
  8
1
 62
2
 10
558.8974591818189
 20
55.6287867774456
 30
0
 11
560.6474591818189
 21
57.0350367774456
 31
0
  0
LINE
  8
1
 62
2
 10
553.1474591818189
 20
61.5350367774456
 30
0
 11
555.8974591818189
 21
61.5350367774456
 31
0
  0
LINE
  8
1
 62
2
 10
552.3974591818189
 20
60.1287867774456
 30
0
 11
551.8974591818188
 21
60.1287867774456
 31
0
  0
LINE
  8
1
 62
2
 10
551.8974591818188
 20
59.0037867774456
 30
0
 11
551.8974591818188
 21
57.5975367774456
 31
0
  0
LINE
  8
1
 62
2
 10
554.8974591818188
 20
57.5975367774456
 30
0
 11
554.8974591818188
 21
60.1287867774456
 31
0
  0
LINE
  8
1
 62
2
 10
551.8974591818188
 20
57.5975367774456
 30
0
 11
551.8974591818188
 21
56.4725367774456
 31
0
  0
LINE
  8
1
 62
2
 10
551.3974591818189
 20
55.3475367774456
 30
0
 11
556.1474591818189
 21
55.3475367774456
 31
0
  0
LINE
  8
1
 62
2
 10
550.3974591818188
 20
55.6287867774456
 30
0
 11
551.3974591818189
 21
55.3475367774456
 31
0
  0
LINE
  8
1
 62
2
 10
549.6474591818188
 20
56.1912867774456
 30
0
 11
550.3974591818188
 21
55.6287867774456
 31
0
  0
LINE
  8
1
 62
2
 10
554.8974591818188
 20
57.5975367774456
 30
0
 11
551.8974591818188
 21
57.5975367774456
 31
0
  0
LINE
  8
1
 62
2
 10
551.8974591818188
 20
59.0037867774456
 30
0
 11
554.8974591818188
 21
59.0037867774456
 31
0
  0
LINE
  8
1
 62
2
 10
554.8974591818188
 20
60.1287867774456
 30
0
 11
552.3974591818189
 21
60.1287867774456
 31
0
  0
LINE
  8
1
 62
2
 10
554.8974591818188
 20
56.4725367774456
 30
0
 11
554.8974591818188
 21
57.5975367774456
 31
0
  0
LINE
  8
1
 62
2
 10
551.8974591818188
 20
56.4725367774456
 30
0
 11
554.8974591818188
 21
56.4725367774456
 31
0
  0
LINE
  8
1
 62
2
 10
551.8974591818188
 20
60.1287867774456
 30
0
 11
551.8974591818188
 21
59.0037867774456
 31
0
  0
LINE
  8
1
 62
2
 10
553.1474591818189
 20
61.5350367774456
 30
0
 11
552.3974591818189
 21
60.1287867774456
 31
0
  0
LINE
  8
1
 62
2
 10
550.6474591818189
 20
61.5350367774456
 30
0
 11
553.1474591818189
 21
61.5350367774456
 31
0
  0
LINE
  8
1
 62
2
 10
554.6474591818189
 20
63.2225367774456
 30
0
 11
553.6474591818189
 21
61.5350367774456
 31
0
  0
LINE
  8
1
 62
2
 10
551.8974591818188
 20
63.2225367774456
 30
0
 11
552.6474591818188
 21
62.0975367774456
 31
0
  0
LINE
  8
1
 62
2
 10
549.1474591818189
 20
63.2225367774456
 30
0
 11
550.1474591818189
 21
62.0975367774456
 31
0
  0
LINE
  8
1
 62
2
 10
549.6474591818188
 20
59.5662867774456
 30
0
 11
548.6474591818189
 21
59.5662867774456
 31
0
  0
LINE
  8
1
 62
2
 10
549.6474591818188
 20
56.1912867774456
 30
0
 11
549.6474591818188
 21
59.5662867774456
 31
0
  0
LINE
  8
1
 62
2
 10
548.8974591818188
 20
55.3475367774456
 30
0
 11
549.6474591818188
 21
56.1912867774456
 31
0
  0
LINE
  8
1
 62
2
 10
546.1474591818189
 20
57.3162867774456
 30
0
 11
547.3974591818188
 21
55.9100367774456
 31
0
  0
LINE
  8
1
 62
2
 10
545.1474591818188
 20
59.0037867774456
 30
0
 11
546.1474591818189
 21
57.3162867774456
 31
0
  0
LINE
  8
1
 62
2
 10
544.3974591818188
 20
60.9725367774456
 30
0
 11
545.1474591818188
 21
59.0037867774456
 31
0
  0
LINE
  8
1
 62
2
 10
546.6474591818188
 20
61.2537867774456
 30
0
 11
544.8974591818189
 21
59.8475367774456
 31
0
  0
LINE
  8
1
 62
2
 10
543.6474591818188
 20
54.5037867774456
 30
0
 11
542.8974591818188
 21
54.7850367774456
 31
0
  0
LINE
  8
1
 62
2
 10
543.6474591818188
 20
63.2225367774456
 30
0
 11
543.6474591818188
 21
54.5037867774456
 31
0
  0
LINE
  8
1
 62
2
 10
542.3974591818189
 20
60.4100367774456
 30
0
 11
539.8974591818188
 21
60.4100367774456
 31
0
  0
LINE
  8
1
 62
2
 10
541.8974591818189
 20
58.7225367774456
 30
0
 11
542.3974591818189
 21
60.4100367774456
 31
0
  0
LINE
  8
1
 62
2
 10
540.8974591818189
 20
57.0350367774456
 30
0
 11
541.8974591818189
 21
58.7225367774456
 31
0
  0
LINE
  8
1
 62
2
 10
539.8974591818188
 20
55.9100367774456
 30
0
 11
540.8974591818189
 21
57.0350367774456
 31
0
  0
LINE
  8
1
 62
2
 10
533.5474591818189
 20
60.80378677744558
 30
0
 11
535.3474591818189
 21
60.80378677744558
 31
0
  0
LINE
  8
1
 62
2
 10
533.5474591818189
 20
60.80378677744558
 30
0
 11
533.5474591818189
 21
54.5037867774456
 31
0
  0
LINE
  8
1
 62
2
 10
536.6974591818189
 20
59.67878677744558
 30
0
 11
536.6974591818189
 21
54.5037867774456
 31
0
  0
LINE
  8
1
 62
2
 10
536.4724591818189
 20
60.1287867774456
 30
0
 11
536.6974591818189
 21
59.67878677744558
 31
0
  0
LINE
  8
1
 62
2
 10
536.0224591818189
 20
60.57878677744559
 30
0
 11
536.4724591818189
 21
60.1287867774456
 31
0
  0
LINE
  8
1
 62
2
 10
535.3474591818189
 20
60.80378677744558
 30
0
 11
536.0224591818189
 21
60.57878677744559
 31
0
  0
LINE
  8
1
 62
2
 10
530.3974591818189
 20
60.80378677744558
 30
0
 11
533.5474591818189
 21
60.80378677744558
 31
0
  0
LINE
  8
1
 62
2
 10
530.3974591818189
 20
54.5037867774456
 30
0
 11
530.3974591818189
 21
60.80378677744558
 31
0
  0
LINE
  8
1
 62
2
 10
524.5474591818189
 20
60.80378677744558
 30
0
 11
526.3474591818189
 21
60.80378677744558
 31
0
  0
LINE
  8
1
 62
2
 10
524.5474591818189
 20
60.80378677744558
 30
0
 11
524.5474591818189
 21
54.5037867774456
 31
0
  0
LINE
  8
1
 62
2
 10
527.6974591818189
 20
59.67878677744558
 30
0
 11
527.6974591818189
 21
54.5037867774456
 31
0
  0
LINE
  8
1
 62
2
 10
527.4724591818189
 20
60.1287867774456
 30
0
 11
527.6974591818189
 21
59.67878677744558
 31
0
  0
LINE
  8
1
 62
2
 10
527.0224591818189
 20
60.57878677744559
 30
0
 11
527.4724591818189
 21
60.1287867774456
 31
0
  0
LINE
  8
1
 62
2
 10
526.3474591818189
 20
60.80378677744558
 30
0
 11
527.0224591818189
 21
60.57878677744559
 31
0
  0
LINE
  8
1
 62
2
 10
521.3974591818189
 20
60.80378677744558
 30
0
 11
524.5474591818189
 21
60.80378677744558
 31
0
  0
LINE
  8
1
 62
2
 10
521.3974591818189
 20
54.5037867774456
 30
0
 11
521.3974591818189
 21
60.80378677744558
 31
0
  0
LINE
  8
1
 62
2
 10
516.6724591818189
 20
54.5037867774456
 30
0
 11
513.2974591818189
 21
54.5037867774456
 31
0
  0
LINE
  8
1
 62
2
 10
517.3474591818189
 20
54.72878677744559
 30
0
 11
516.6724591818189
 21
54.5037867774456
 31
0
  0
LINE
  8
1
 62
2
 10
518.0224591818189
 20
55.17878677744558
 30
0
 11
517.3474591818189
 21
54.72878677744559
 31
0
  0
LINE
  8
1
 62
2
 10
518.4724591818189
 20
55.85378677744559
 30
0
 11
518.0224591818189
 21
55.17878677744558
 31
0
  0
LINE
  8
1
 62
2
 10
518.697459181819
 20
56.7537867774456
 30
0
 11
518.4724591818189
 21
55.85378677744559
 31
0
  0
LINE
  8
1
 62
2
 10
518.697459181819
 20
58.10378677744559
 30
0
 11
518.697459181819
 21
56.7537867774456
 31
0
  0
LINE
  8
1
 62
2
 10
518.4724591818189
 20
59.0037867774456
 30
0
 11
518.697459181819
 21
58.10378677744559
 31
0
  0
LINE
  8
1
 62
2
 10
517.7974591818189
 20
59.67878677744558
 30
0
 11
518.4724591818189
 21
59.0037867774456
 31
0
  0
LINE
  8
1
 62
2
 10
516.6724591818189
 20
59.90378677744558
 30
0
 11
517.7974591818189
 21
59.67878677744558
 31
0
  0
LINE
  8
1
 62
2
 10
513.2974591818189
 20
59.90378677744558
 30
0
 11
516.6724591818189
 21
59.90378677744558
 31
0
  0
LINE
  8
1
 62
2
 10
513.2974591818189
 20
63.5037867774456
 30
0
 11
513.2974591818189
 21
59.90378677744558
 31
0
  0
LINE
  8
1
 62
2
 10
518.247459181819
 20
63.5037867774456
 30
0
 11
513.2974591818189
 21
63.5037867774456
 31
0
  0
LINE
  8
1
 62
2
 10
510.5974591818189
 20
63.5037867774456
 30
0
 11
506.0974591818189
 21
54.5037867774456
 31
0
  0
LINE
  8
1
 62
2
 10
505.1974591818189
 20
63.5037867774456
 30
0
 11
510.5974591818189
 21
63.5037867774456
 31
0
  0
LINE
  8
1
 62
2
 10
505.1974591818189
 20
62.60378677744559
 30
0
 11
505.1974591818189
 21
63.5037867774456
 31
0
  0
LINE
  8
1
 62
2
 10
499.1974591818189
 20
62.9412867774456
 30
0
 11
496.6974591818189
 21
62.9412867774456
 31
0
  0
LINE
  8
1
 62
2
 10
500.4474591818189
 20
54.7850367774456
 30
0
 11
503.9474591818189
 21
54.7850367774456
 31
0
  0
LINE
  8
1
 62
2
 10
500.4474591818189
 20
58.1600367774456
 30
0
 11
500.4474591818189
 21
54.7850367774456
 31
0
  0
LINE
  8
1
 62
2
 10
503.4474591818189
 20
58.1600367774456
 30
0
 11
502.6974591818189
 21
58.1600367774456
 31
0
  0
LINE
  8
1
 62
2
 10
503.4474591818189
 20
63.2225367774456
 30
0
 11
503.4474591818189
 21
58.1600367774456
 31
0
  0
LINE
  8
1
 62
2
 10
501.6974591818189
 20
59.2850367774456
 30
0
 11
501.6974591818189
 21
62.9412867774456
 31
0
  0
LINE
  8
1
 62
2
 10
499.1974591818189
 20
62.9412867774456
 30
0
 11
499.1974591818189
 21
58.1600367774456
 31
0
  0
LINE
  8
1
 62
2
 10
496.4474591818189
 20
60.9725367774456
 30
0
 11
500.6974591818189
 21
60.9725367774456
 31
0
  0
LINE
  8
1
 62
2
 10
500.4474591818189
 20
62.9412867774456
 30
0
 11
499.1974591818189
 21
62.9412867774456
 31
0
  0
LINE
  8
1
 62
2
 10
497.9474591818189
 20
60.9725367774456
 30
0
 11
497.9474591818189
 21
62.9412867774456
 31
0
  0
LINE
  8
1
 62
2
 10
497.4474591818189
 20
59.0037867774456
 30
0
 11
497.9474591818189
 21
60.9725367774456
 31
0
  0
LINE
  8
1
 62
2
 10
496.6974591818189
 20
57.8787867774456
 30
0
 11
497.4474591818189
 21
59.0037867774456
 31
0
  0
LINE
  8
1
 62
2
 10
502.9474591818189
 20
56.7537867774456
 30
0
 11
497.4474591818189
 21
56.7537867774456
 31
0
  0
LINE
  8
1
 62
2
 10
496.6974591818189
 20
54.7850367774456
 30
0
 11
500.4474591818189
 21
54.7850367774456
 31
0
  0
LINE
  8
1
 62
2
 10
490.3474591818189
 20
63.5037867774456
 30
0
 11
490.3474591818189
 21
54.5037867774456
 31
0
  0
LINE
  8
1
 62
2
 10
487.1974591818189
 20
63.5037867774456
 30
0
 11
490.3474591818189
 21
63.5037867774456
 31
0
  0
LINE
  8
1
 62
2
 10
490.3474591818189
 20
63.5037867774456
 30
0
 11
493.4974591818188
 21
63.5037867774456
 31
0
  0
LINE
  8
1
 62
2
 10
484.2724591818189
 20
61.70378677744559
 30
0
 11
484.4974591818188
 21
60.80378677744558
 31
0
  0
LINE
  8
1
 62
2
 10
483.8224591818189
 20
62.3787867774456
 30
0
 11
484.2724591818189
 21
61.70378677744559
 31
0
  0
LINE
  8
1
 62
2
 10
483.3724591818188
 20
62.82878677744559
 30
0
 11
483.8224591818189
 21
62.3787867774456
 31
0
  0
LINE
  8
1
 62
2
 10
482.6974591818189
 20
63.27878677744558
 30
0
 11
483.3724591818188
 21
62.82878677744559
 31
0
  0
LINE
  8
1
 62
2
 10
481.7974591818189
 20
63.5037867774456
 30
0
 11
482.6974591818189
 21
63.27878677744558
 31
0
  0
LINE
  8
1
 62
2
 10
478.1974591818189
 20
63.5037867774456
 30
0
 11
481.7974591818189
 21
63.5037867774456
 31
0
  0
LINE
  8
1
 62
2
 10
478.1974591818189
 20
54.5037867774456
 30
0
 11
478.1974591818189
 21
63.5037867774456
 31
0
  0
LINE
  8
1
 62
2
 10
481.7974591818189
 20
54.5037867774456
 30
0
 11
478.1974591818189
 21
54.5037867774456
 31
0
  0
LINE
  8
1
 62
2
 10
482.6974591818189
 20
54.72878677744559
 30
0
 11
481.7974591818189
 21
54.5037867774456
 31
0
  0
LINE
  8
1
 62
2
 10
483.3724591818188
 20
55.17878677744558
 30
0
 11
482.6974591818189
 21
54.72878677744559
 31
0
  0
LINE
  8
1
 62
2
 10
483.8224591818189
 20
55.6287867774456
 30
0
 11
483.3724591818188
 21
55.17878677744558
 31
0
  0
LINE
  8
1
 62
2
 10
484.2724591818189
 20
56.30378677744558
 30
0
 11
483.8224591818189
 21
55.6287867774456
 31
0
  0
LINE
  8
1
 62
2
 10
484.4974591818188
 20
57.20378677744559
 30
0
 11
484.2724591818189
 21
56.30378677744558
 31
0
  0
LINE
  8
1
 62
2
 10
484.4974591818188
 20
60.80378677744558
 30
0
 11
484.4974591818188
 21
57.20378677744559
 31
0
  0
LINE
  8
1
 62
2
 10
469.1974591818189
 20
59.45378677744559
 30
0
 11
469.1974591818189
 21
54.5037867774456
 31
0
  0
LINE
  8
1
 62
2
 10
469.1974591818189
 20
63.5037867774456
 30
0
 11
469.1974591818189
 21
59.45378677744559
 31
0
  0
LINE
  8
1
 62
2
 10
475.4974591818188
 20
63.5037867774456
 30
0
 11
469.1974591818189
 21
63.5037867774456
 31
0
  0
LINE
  8
1
 62
2
 10
469.1974591818189
 20
59.45378677744559
 30
0
 11
475.4974591818188
 21
59.45378677744559
 31
0
  0
LINE
  8
1
 62
2
 10
460.1974591818189
 20
59.45378677744559
 30
0
 11
460.1974591818189
 21
59.0037867774456
 31
0
  0
LINE
  8
1
 62
2
 10
460.1974591818189
 20
54.5037867774456
 30
0
 11
466.4974591818188
 21
54.5037867774456
 31
0
  0
LINE
  8
1
 62
2
 10
460.1974591818189
 20
59.0037867774456
 30
0
 11
460.1974591818189
 21
54.5037867774456
 31
0
  0
LINE
  8
1
 62
2
 10
460.1974591818189
 20
63.5037867774456
 30
0
 11
460.1974591818189
 21
59.45378677744559
 31
0
  0
LINE
  8
1
 62
2
 10
466.4974591818188
 20
63.5037867774456
 30
0
 11
460.1974591818189
 21
63.5037867774456
 31
0
  0
LINE
  8
1
 62
2
 10
465.5974591818189
 20
59.45378677744559
 30
0
 11
460.1974591818189
 21
59.45378677744559
 31
0
  0
LINE
  8
1
 62
2
 10
845.3558478625813
 20
597.0485579882196
 30
0
 11
843.7808478625813
 21
596.1485579882196
 31
0
  0
LINE
  8
1
 62
2
 10
846.5808478625814
 20
598.3985579882196
 30
0
 11
845.3558478625813
 21
597.0485579882196
 31
0
  0
LINE
  8
1
 62
2
 10
847.1058478625813
 20
599.2985579882196
 30
0
 11
846.5808478625814
 21
598.3985579882196
 31
0
  0
LINE
  8
1
 62
2
 10
847.2808478625813
 20
600.1985579882196
 30
0
 11
847.1058478625813
 21
599.2985579882196
 31
0
  0
LINE
  8
1
 62
2
 10
847.4558478625812
 20
601.3235579882196
 30
0
 11
847.2808478625813
 21
600.1985579882196
 31
0
  0
LINE
  8
1
 62
2
 10
847.4558478625812
 20
602.8985579882196
 30
0
 11
847.4558478625812
 21
601.3235579882196
 31
0
  0
LINE
  8
1
 62
2
 10
847.2808478625813
 20
603.7985579882196
 30
0
 11
847.4558478625812
 21
602.8985579882196
 31
0
  0
LINE
  8
1
 62
2
 10
846.9308478625813
 20
604.4735579882196
 30
0
 11
847.2808478625813
 21
603.7985579882196
 31
0
  0
LINE
  8
1
 62
2
 10
846.4058478625813
 20
604.9235579882196
 30
0
 11
846.9308478625813
 21
604.4735579882196
 31
0
  0
LINE
  8
1
 62
2
 10
845.8808478625812
 20
605.1485579882196
 30
0
 11
846.4058478625813
 21
604.9235579882196
 31
0
  0
LINE
  8
1
 62
2
 10
844.8308478625812
 20
605.1485579882196
 30
0
 11
845.8808478625812
 21
605.1485579882196
 31
0
  0
LINE
  8
1
 62
2
 10
844.3058478625813
 20
604.9235579882196
 30
0
 11
844.8308478625812
 21
605.1485579882196
 31
0
  0
LINE
  8
1
 62
2
 10
843.7808478625813
 20
604.4735579882196
 30
0
 11
844.3058478625813
 21
604.9235579882196
 31
0
  0
LINE
  8
1
 62
2
 10
843.4308478625813
 20
603.7985579882196
 30
0
 11
843.7808478625813
 21
604.4735579882196
 31
0
  0
LINE
  8
1
 62
2
 10
843.2558478625812
 20
602.8985579882196
 30
0
 11
843.4308478625813
 21
603.7985579882196
 31
0
  0
LINE
  8
1
 62
2
 10
843.2558478625812
 20
602.4485579882196
 30
0
 11
843.2558478625812
 21
602.8985579882196
 31
0
  0
LINE
  8
1
 62
2
 10
843.4308478625813
 20
601.5485579882196
 30
0
 11
843.2558478625812
 21
602.4485579882196
 31
0
  0
LINE
  8
1
 62
2
 10
843.7808478625813
 20
600.8735579882196
 30
0
 11
843.4308478625813
 21
601.5485579882196
 31
0
  0
LINE
  8
1
 62
2
 10
844.3058478625813
 20
600.4235579882196
 30
0
 11
843.7808478625813
 21
600.8735579882196
 31
0
  0
LINE
  8
1
 62
2
 10
844.8308478625812
 20
600.1985579882196
 30
0
 11
844.3058478625813
 21
600.4235579882196
 31
0
  0
LINE
  8
1
 62
2
 10
847.2808478625813
 20
600.1985579882196
 30
0
 11
844.8308478625812
 21
600.1985579882196
 31
0
  0
LINE
  8
1
 62
2
 10
841.1558478625813
 20
605.1485579882196
 30
0
 11
841.1558478625813
 21
596.1485579882196
 31
0
  0
LINE
  8
1
 62
2
 10
839.0558478625813
 20
602.4485579882196
 30
0
 11
841.1558478625813
 21
605.1485579882196
 31
0
  0
LINE
  8
1
 62
2
 10
787.0167614271074
 20
604.4735579882196
 30
0
 11
787.5417614271074
 21
604.9235579882196
 31
0
  0
LINE
  8
1
 62
2
 10
786.6667614271074
 20
603.7985579882196
 30
0
 11
787.0167614271074
 21
604.4735579882196
 31
0
  0
LINE
  8
1
 62
2
 10
786.6667614271074
 20
602.8985579882196
 30
0
 11
786.6667614271074
 21
603.7985579882196
 31
0
  0
LINE
  8
1
 62
2
 10
787.0167614271074
 20
602.2235579882196
 30
0
 11
786.6667614271074
 21
602.8985579882196
 31
0
  0
LINE
  8
1
 62
2
 10
787.5417614271074
 20
601.7735579882196
 30
0
 11
787.0167614271074
 21
602.2235579882196
 31
0
  0
LINE
  8
1
 62
2
 10
788.0667614271073
 20
601.5485579882196
 30
0
 11
787.5417614271074
 21
601.7735579882196
 31
0
  0
LINE
  8
1
 62
2
 10
788.7667614271073
 20
601.5485579882196
 30
0
 11
788.0667614271073
 21
601.5485579882196
 31
0
  0
LINE
  8
1
 62
2
 10
789.2917614271074
 20
601.7735579882196
 30
0
 11
788.7667614271073
 21
601.5485579882196
 31
0
  0
LINE
  8
1
 62
2
 10
789.8167614271075
 20
602.2235579882196
 30
0
 11
789.2917614271074
 21
601.7735579882196
 31
0
  0
LINE
  8
1
 62
2
 10
790.1667614271074
 20
602.8985579882196
 30
0
 11
789.8167614271075
 21
602.2235579882196
 31
0
  0
LINE
  8
1
 62
2
 10
790.1667614271074
 20
603.7985579882196
 30
0
 11
790.1667614271074
 21
602.8985579882196
 31
0
  0
LINE
  8
1
 62
2
 10
789.8167614271075
 20
604.4735579882196
 30
0
 11
790.1667614271074
 21
603.7985579882196
 31
0
  0
LINE
  8
1
 62
2
 10
789.2917614271074
 20
604.9235579882196
 30
0
 11
789.8167614271075
 21
604.4735579882196
 31
0
  0
LINE
  8
1
 62
2
 10
788.7667614271073
 20
605.1485579882196
 30
0
 11
789.2917614271074
 21
604.9235579882196
 31
0
  0
LINE
  8
1
 62
2
 10
788.0667614271073
 20
605.1485579882196
 30
0
 11
788.7667614271073
 21
605.1485579882196
 31
0
  0
LINE
  8
1
 62
2
 10
787.5417614271074
 20
604.9235579882196
 30
0
 11
788.0667614271073
 21
605.1485579882196
 31
0
  0
LINE
  8
1
 62
2
 10
789.6417614271074
 20
601.0985579882196
 30
0
 11
788.7667614271073
 21
601.5485579882196
 31
0
  0
LINE
  8
1
 62
2
 10
790.1667614271074
 20
600.4235579882196
 30
0
 11
789.6417614271074
 21
601.0985579882196
 31
0
  0
LINE
  8
1
 62
2
 10
790.5167614271073
 20
599.5235579882196
 30
0
 11
790.1667614271074
 21
600.4235579882196
 31
0
  0
LINE
  8
1
 62
2
 10
790.5167614271073
 20
598.1735579882196
 30
0
 11
790.5167614271073
 21
599.5235579882196
 31
0
  0
LINE
  8
1
 62
2
 10
790.1667614271074
 20
597.2735579882196
 30
0
 11
790.5167614271073
 21
598.1735579882196
 31
0
  0
LINE
  8
1
 62
2
 10
789.6417614271074
 20
596.5985579882196
 30
0
 11
790.1667614271074
 21
597.2735579882196
 31
0
  0
LINE
  8
1
 62
2
 10
788.9417614271074
 20
596.1485579882196
 30
0
 11
789.6417614271074
 21
596.5985579882196
 31
0
  0
LINE
  8
1
 62
2
 10
787.8917614271073
 20
596.1485579882196
 30
0
 11
788.9417614271074
 21
596.1485579882196
 31
0
  0
LINE
  8
1
 62
2
 10
787.1917614271075
 20
596.5985579882196
 30
0
 11
787.8917614271073
 21
596.1485579882196
 31
0
  0
LINE
  8
1
 62
2
 10
786.6667614271074
 20
597.2735579882196
 30
0
 11
787.1917614271075
 21
596.5985579882196
 31
0
  0
LINE
  8
1
 62
2
 10
786.3167614271074
 20
598.1735579882196
 30
0
 11
786.6667614271074
 21
597.2735579882196
 31
0
  0
LINE
  8
1
 62
2
 10
786.3167614271074
 20
599.5235579882196
 30
0
 11
786.3167614271074
 21
598.1735579882196
 31
0
  0
LINE
  8
1
 62
2
 10
786.6667614271074
 20
600.4235579882196
 30
0
 11
786.3167614271074
 21
599.5235579882196
 31
0
  0
LINE
  8
1
 62
2
 10
787.1917614271075
 20
601.0985579882196
 30
0
 11
786.6667614271074
 21
600.4235579882196
 31
0
  0
LINE
  8
1
 62
2
 10
788.0667614271073
 20
601.5485579882196
 30
0
 11
787.1917614271075
 21
601.0985579882196
 31
0
  0
LINE
  8
1
 62
2
 10
741.6492630198551
 20
596.1485579882196
 30
0
 11
739.0242630198551
 21
596.1485579882196
 31
0
  0
LINE
  8
1
 62
2
 10
742.1742630198552
 20
596.3735579882196
 30
0
 11
741.6492630198551
 21
596.1485579882196
 31
0
  0
LINE
  8
1
 62
2
 10
742.6992630198552
 20
596.8235579882196
 30
0
 11
742.1742630198552
 21
596.3735579882196
 31
0
  0
LINE
  8
1
 62
2
 10
743.049263019855
 20
597.4985579882196
 30
0
 11
742.6992630198552
 21
596.8235579882196
 31
0
  0
LINE
  8
1
 62
2
 10
743.224263019855
 20
598.3985579882196
 30
0
 11
743.049263019855
 21
597.4985579882196
 31
0
  0
LINE
  8
1
 62
2
 10
743.224263019855
 20
599.7485579882196
 30
0
 11
743.224263019855
 21
598.3985579882196
 31
0
  0
LINE
  8
1
 62
2
 10
743.049263019855
 20
600.6485579882196
 30
0
 11
743.224263019855
 21
599.7485579882196
 31
0
  0
LINE
  8
1
 62
2
 10
742.5242630198551
 20
601.3235579882196
 30
0
 11
743.049263019855
 21
600.6485579882196
 31
0
  0
LINE
  8
1
 62
2
 10
741.6492630198551
 20
601.5485579882196
 30
0
 11
742.5242630198551
 21
601.3235579882196
 31
0
  0
LINE
  8
1
 62
2
 10
739.0242630198551
 20
601.5485579882196
 30
0
 11
741.6492630198551
 21
601.5485579882196
 31
0
  0
LINE
  8
1
 62
2
 10
739.0242630198551
 20
605.1485579882196
 30
0
 11
739.0242630198551
 21
601.5485579882196
 31
0
  0
LINE
  8
1
 62
2
 10
742.8742630198552
 20
605.1485579882196
 30
0
 11
739.0242630198551
 21
605.1485579882196
 31
0
  0
LINE
  8
1
 62
2
 10
732.724263019855
 20
596.1485579882196
 30
0
 11
736.924263019855
 21
596.1485579882196
 31
0
  0
LINE
  8
1
 62
2
 10
736.574263019855
 20
601.9985579882196
 30
0
 11
732.724263019855
 21
596.1485579882196
 31
0
  0
LINE
  8
1
 62
2
 10
736.924263019855
 20
602.8985579882196
 30
0
 11
736.574263019855
 21
601.9985579882196
 31
0
  0
LINE
  8
1
 62
2
 10
736.924263019855
 20
603.7985579882196
 30
0
 11
736.924263019855
 21
602.8985579882196
 31
0
  0
LINE
  8
1
 62
2
 10
736.574263019855
 20
604.4735579882196
 30
0
 11
736.924263019855
 21
603.7985579882196
 31
0
  0
LINE
  8
1
 62
2
 10
736.0492630198551
 20
604.9235579882196
 30
0
 11
736.574263019855
 21
604.4735579882196
 31
0
  0
LINE
  8
1
 62
2
 10
735.349263019855
 20
605.1485579882196
 30
0
 11
736.0492630198551
 21
604.9235579882196
 31
0
  0
LINE
  8
1
 62
2
 10
734.299263019855
 20
605.1485579882196
 30
0
 11
735.349263019855
 21
605.1485579882196
 31
0
  0
LINE
  8
1
 62
2
 10
733.5992630198551
 20
604.9235579882196
 30
0
 11
734.299263019855
 21
605.1485579882196
 31
0
  0
LINE
  8
1
 62
2
 10
733.074263019855
 20
604.4735579882196
 30
0
 11
733.5992630198551
 21
604.9235579882196
 31
0
  0
LINE
  8
1
 62
2
 10
732.724263019855
 20
603.7985579882196
 30
0
 11
733.074263019855
 21
604.4735579882196
 31
0
  0
LINE
  8
1
 62
2
 10
730.624263019855
 20
605.1485579882196
 30
0
 11
730.624263019855
 21
596.1485579882196
 31
0
  0
LINE
  8
1
 62
2
 10
728.5242630198551
 20
602.4485579882196
 30
0
 11
730.624263019855
 21
605.1485579882196
 31
0
  0
LINE
  8
1
 62
2
 10
690.6692649123027
 20
601.7735579882196
 30
0
 11
690.6692649123027
 21
599.5235579882196
 31
0
  0
LINE
  8
1
 62
2
 10
690.4942649123026
 20
603.1235579882196
 30
0
 11
690.6692649123027
 21
601.7735579882196
 31
0
  0
LINE
  8
1
 62
2
 10
690.1442649123028
 20
604.0235579882196
 30
0
 11
690.4942649123026
 21
603.1235579882196
 31
0
  0
LINE
  8
1
 62
2
 10
689.7942649123028
 20
604.4735579882196
 30
0
 11
690.1442649123028
 21
604.0235579882196
 31
0
  0
LINE
  8
1
 62
2
 10
689.2692649123027
 20
604.9235579882196
 30
0
 11
689.7942649123028
 21
604.4735579882196
 31
0
  0
LINE
  8
1
 62
2
 10
688.7442649123027
 20
605.1485579882196
 30
0
 11
689.2692649123027
 21
604.9235579882196
 31
0
  0
LINE
  8
1
 62
2
 10
688.3942649123027
 20
605.1485579882196
 30
0
 11
688.7442649123027
 21
605.1485579882196
 31
0
  0
LINE
  8
1
 62
2
 10
687.8692649123026
 20
604.9235579882196
 30
0
 11
688.3942649123027
 21
605.1485579882196
 31
0
  0
LINE
  8
1
 62
2
 10
687.3442649123027
 20
604.4735579882196
 30
0
 11
687.8692649123026
 21
604.9235579882196
 31
0
  0
LINE
  8
1
 62
2
 10
686.9942649123028
 20
604.0235579882196
 30
0
 11
687.3442649123027
 21
604.4735579882196
 31
0
  0
LINE
  8
1
 62
2
 10
686.6442649123027
 20
603.1235579882196
 30
0
 11
686.9942649123028
 21
604.0235579882196
 31
0
  0
LINE
  8
1
 62
2
 10
686.4692649123027
 20
601.7735579882196
 30
0
 11
686.6442649123027
 21
603.1235579882196
 31
0
  0
LINE
  8
1
 62
2
 10
686.4692649123027
 20
599.5235579882196
 30
0
 11
686.4692649123027
 21
601.7735579882196
 31
0
  0
LINE
  8
1
 62
2
 10
686.6442649123027
 20
598.1735579882196
 30
0
 11
686.4692649123027
 21
599.5235579882196
 31
0
  0
LINE
  8
1
 62
2
 10
686.9942649123028
 20
597.2735579882196
 30
0
 11
686.6442649123027
 21
598.1735579882196
 31
0
  0
LINE
  8
1
 62
2
 10
687.3442649123027
 20
596.8235579882196
 30
0
 11
686.9942649123028
 21
597.2735579882196
 31
0
  0
LINE
  8
1
 62
2
 10
687.8692649123026
 20
596.3735579882196
 30
0
 11
687.3442649123027
 21
596.8235579882196
 31
0
  0
LINE
  8
1
 62
2
 10
688.3942649123027
 20
596.1485579882196
 30
0
 11
687.8692649123026
 21
596.3735579882196
 31
0
  0
LINE
  8
1
 62
2
 10
688.7442649123027
 20
596.1485579882196
 30
0
 11
688.3942649123027
 21
596.1485579882196
 31
0
  0
LINE
  8
1
 62
2
 10
689.2692649123027
 20
596.3735579882196
 30
0
 11
688.7442649123027
 21
596.1485579882196
 31
0
  0
LINE
  8
1
 62
2
 10
689.7942649123028
 20
596.8235579882196
 30
0
 11
689.2692649123027
 21
596.3735579882196
 31
0
  0
LINE
  8
1
 62
2
 10
690.1442649123028
 20
597.2735579882196
 30
0
 11
689.7942649123028
 21
596.8235579882196
 31
0
  0
LINE
  8
1
 62
2
 10
690.4942649123026
 20
598.1735579882196
 30
0
 11
690.1442649123028
 21
597.2735579882196
 31
0
  0
LINE
  8
1
 62
2
 10
690.6692649123027
 20
599.5235579882196
 30
0
 11
690.4942649123026
 21
598.1735579882196
 31
0
  0
LINE
  8
1
 62
2
 10
682.7942649123027
 20
596.1485579882196
 30
0
 11
680.1692649123027
 21
596.1485579882196
 31
0
  0
LINE
  8
1
 62
2
 10
683.3192649123026
 20
596.3735579882196
 30
0
 11
682.7942649123027
 21
596.1485579882196
 31
0
  0
LINE
  8
1
 62
2
 10
683.8442649123027
 20
596.8235579882196
 30
0
 11
683.3192649123026
 21
596.3735579882196
 31
0
  0
LINE
  8
1
 62
2
 10
684.1942649123026
 20
597.4985579882196
 30
0
 11
683.8442649123027
 21
596.8235579882196
 31
0
  0
LINE
  8
1
 62
2
 10
684.3692649123026
 20
598.3985579882196
 30
0
 11
684.1942649123026
 21
597.4985579882196
 31
0
  0
LINE
  8
1
 62
2
 10
684.3692649123026
 20
599.7485579882196
 30
0
 11
684.3692649123026
 21
598.3985579882196
 31
0
  0
LINE
  8
1
 62
2
 10
684.1942649123026
 20
600.6485579882196
 30
0
 11
684.3692649123026
 21
599.7485579882196
 31
0
  0
LINE
  8
1
 62
2
 10
683.6692649123028
 20
601.3235579882196
 30
0
 11
684.1942649123026
 21
600.6485579882196
 31
0
  0
LINE
  8
1
 62
2
 10
682.7942649123027
 20
601.5485579882196
 30
0
 11
683.6692649123028
 21
601.3235579882196
 31
0
  0
LINE
  8
1
 62
2
 10
680.1692649123027
 20
601.5485579882196
 30
0
 11
682.7942649123027
 21
601.5485579882196
 31
0
  0
LINE
  8
1
 62
2
 10
680.1692649123027
 20
605.1485579882196
 30
0
 11
680.1692649123027
 21
601.5485579882196
 31
0
  0
LINE
  8
1
 62
2
 10
684.0192649123027
 20
605.1485579882196
 30
0
 11
680.1692649123027
 21
605.1485579882196
 31
0
  0
LINE
  8
1
 62
2
 10
678.0692649123026
 20
605.1485579882196
 30
0
 11
678.0692649123026
 21
596.1485579882196
 31
0
  0
LINE
  8
1
 62
2
 10
675.9692649123027
 20
602.4485579882196
 30
0
 11
678.0692649123026
 21
605.1485579882196
 31
0
  0
LINE
  8
1
 62
2
 10
636.0142668047503
 20
605.1485579882196
 30
0
 11
636.0142668047503
 21
596.1485579882196
 31
0
  0
LINE
  8
1
 62
2
 10
633.9142668047504
 20
602.4485579882196
 30
0
 11
636.0142668047503
 21
605.1485579882196
 31
0
  0
LINE
  8
1
 62
2
 10
631.8142668047505
 20
605.1485579882196
 30
0
 11
631.8142668047505
 21
596.1485579882196
 31
0
  0
LINE
  8
1
 62
2
 10
629.7142668047504
 20
602.4485579882196
 30
0
 11
631.8142668047505
 21
605.1485579882196
 31
0
  0
LINE
  8
1
 62
2
 10
623.4142668047504
 20
596.1485579882196
 30
0
 11
627.6142668047503
 21
596.1485579882196
 31
0
  0
LINE
  8
1
 62
2
 10
627.2642668047505
 20
601.9985579882196
 30
0
 11
623.4142668047504
 21
596.1485579882196
 31
0
  0
LINE
  8
1
 62
2
 10
627.6142668047503
 20
602.8985579882196
 30
0
 11
627.2642668047505
 21
601.9985579882196
 31
0
  0
LINE
  8
1
 62
2
 10
627.6142668047503
 20
603.7985579882196
 30
0
 11
627.6142668047503
 21
602.8985579882196
 31
0
  0
LINE
  8
1
 62
2
 10
627.2642668047505
 20
604.4735579882196
 30
0
 11
627.6142668047503
 21
603.7985579882196
 31
0
  0
LINE
  8
1
 62
2
 10
626.7392668047504
 20
604.9235579882196
 30
0
 11
627.2642668047505
 21
604.4735579882196
 31
0
  0
LINE
  8
1
 62
2
 10
626.0392668047504
 20
605.1485579882196
 30
0
 11
626.7392668047504
 21
604.9235579882196
 31
0
  0
LINE
  8
1
 62
2
 10
624.9892668047503
 20
605.1485579882196
 30
0
 11
626.0392668047504
 21
605.1485579882196
 31
0
  0
LINE
  8
1
 62
2
 10
624.2892668047504
 20
604.9235579882196
 30
0
 11
624.9892668047503
 21
605.1485579882196
 31
0
  0
LINE
  8
1
 62
2
 10
623.7642668047504
 20
604.4735579882196
 30
0
 11
624.2892668047504
 21
604.9235579882196
 31
0
  0
LINE
  8
1
 62
2
 10
623.4142668047504
 20
603.7985579882196
 30
0
 11
623.7642668047504
 21
604.4735579882196
 31
0
  0
LINE
  8
1
 62
2
 10
587.503019819255
 20
598.8485579882196
 30
0
 11
587.503019819255
 21
605.1485579882196
 31
0
  0
LINE
  8
1
 62
2
 10
587.503019819255
 20
596.1485579882196
 30
0
 11
587.503019819255
 21
598.8485579882196
 31
0
  0
LINE
  8
1
 62
2
 10
588.9030198192548
 20
600.6485579882196
 30
0
 11
592.403019819255
 21
596.1485579882196
 31
0
  0
LINE
  8
1
 62
2
 10
592.403019819255
 20
605.1485579882196
 30
0
 11
588.9030198192548
 21
600.6485579882196
 31
0
  0
LINE
  8
1
 62
2
 10
588.9030198192548
 20
600.6485579882196
 30
0
 11
587.503019819255
 21
598.8485579882196
 31
0
  0
LINE
  8
1
 62
2
 10
585.4030198192551
 20
601.7735579882196
 30
0
 11
585.4030198192551
 21
599.5235579882196
 31
0
  0
LINE
  8
1
 62
2
 10
585.228019819255
 20
603.1235579882196
 30
0
 11
585.4030198192551
 21
601.7735579882196
 31
0
  0
LINE
  8
1
 62
2
 10
584.8780198192552
 20
604.0235579882196
 30
0
 11
585.228019819255
 21
603.1235579882196
 31
0
  0
LINE
  8
1
 62
2
 10
584.5280198192551
 20
604.4735579882196
 30
0
 11
584.8780198192552
 21
604.0235579882196
 31
0
  0
LINE
  8
1
 62
2
 10
584.0030198192551
 20
604.9235579882196
 30
0
 11
584.5280198192551
 21
604.4735579882196
 31
0
  0
LINE
  8
1
 62
2
 10
583.4780198192551
 20
605.1485579882196
 30
0
 11
584.0030198192551
 21
604.9235579882196
 31
0
  0
LINE
  8
1
 62
2
 10
583.128019819255
 20
605.1485579882196
 30
0
 11
583.4780198192551
 21
605.1485579882196
 31
0
  0
LINE
  8
1
 62
2
 10
582.603019819255
 20
604.9235579882196
 30
0
 11
583.128019819255
 21
605.1485579882196
 31
0
  0
LINE
  8
1
 62
2
 10
582.0780198192551
 20
604.4735579882196
 30
0
 11
582.603019819255
 21
604.9235579882196
 31
0
  0
LINE
  8
1
 62
2
 10
581.7280198192551
 20
604.0235579882196
 30
0
 11
582.0780198192551
 21
604.4735579882196
 31
0
  0
LINE
  8
1
 62
2
 10
581.3780198192551
 20
603.1235579882196
 30
0
 11
581.7280198192551
 21
604.0235579882196
 31
0
  0
LINE
  8
1
 62
2
 10
581.203019819255
 20
601.7735579882196
 30
0
 11
581.3780198192551
 21
603.1235579882196
 31
0
  0
LINE
  8
1
 62
2
 10
581.203019819255
 20
599.5235579882196
 30
0
 11
581.203019819255
 21
601.7735579882196
 31
0
  0
LINE
  8
1
 62
2
 10
581.3780198192551
 20
598.1735579882196
 30
0
 11
581.203019819255
 21
599.5235579882196
 31
0
  0
LINE
  8
1
 62
2
 10
581.7280198192551
 20
597.2735579882196
 30
0
 11
581.3780198192551
 21
598.1735579882196
 31
0
  0
LINE
  8
1
 62
2
 10
582.0780198192551
 20
596.8235579882196
 30
0
 11
581.7280198192551
 21
597.2735579882196
 31
0
  0
LINE
  8
1
 62
2
 10
582.603019819255
 20
596.3735579882196
 30
0
 11
582.0780198192551
 21
596.8235579882196
 31
0
  0
LINE
  8
1
 62
2
 10
583.128019819255
 20
596.1485579882196
 30
0
 11
582.603019819255
 21
596.3735579882196
 31
0
  0
LINE
  8
1
 62
2
 10
583.4780198192551
 20
596.1485579882196
 30
0
 11
583.128019819255
 21
596.1485579882196
 31
0
  0
LINE
  8
1
 62
2
 10
584.0030198192551
 20
596.3735579882196
 30
0
 11
583.4780198192551
 21
596.1485579882196
 31
0
  0
LINE
  8
1
 62
2
 10
584.5280198192551
 20
596.8235579882196
 30
0
 11
584.0030198192551
 21
596.3735579882196
 31
0
  0
LINE
  8
1
 62
2
 10
584.8780198192552
 20
597.2735579882196
 30
0
 11
584.5280198192551
 21
596.8235579882196
 31
0
  0
LINE
  8
1
 62
2
 10
585.228019819255
 20
598.1735579882196
 30
0
 11
584.8780198192552
 21
597.2735579882196
 31
0
  0
LINE
  8
1
 62
2
 10
585.4030198192551
 20
599.5235579882196
 30
0
 11
585.228019819255
 21
598.1735579882196
 31
0
  0
LINE
  8
1
 62
2
 10
579.1030198192551
 20
605.1485579882196
 30
0
 11
579.1030198192551
 21
596.1485579882196
 31
0
  0
LINE
  8
1
 62
2
 10
577.0030198192552
 20
602.4485579882196
 30
0
 11
579.1030198192551
 21
605.1485579882196
 31
0
  0
LINE
  8
1
 62
2
 10
570.3530198192551
 20
596.8235579882196
 30
0
 11
570.003019819255
 21
597.2735579882196
 31
0
  0
LINE
  8
1
 62
2
 10
571.0530198192552
 20
596.3735579882196
 30
0
 11
570.3530198192551
 21
596.8235579882196
 31
0
  0
LINE
  8
1
 62
2
 10
571.9280198192549
 20
596.1485579882196
 30
0
 11
571.0530198192552
 21
596.3735579882196
 31
0
  0
LINE
  8
1
 62
2
 10
572.9780198192551
 20
596.1485579882196
 30
0
 11
571.9280198192549
 21
596.1485579882196
 31
0
  0
LINE
  8
1
 62
2
 10
573.8530198192551
 20
596.3735579882196
 30
0
 11
572.9780198192551
 21
596.1485579882196
 31
0
  0
LINE
  8
1
 62
2
 10
574.378019819255
 20
596.8235579882196
 30
0
 11
573.8530198192551
 21
596.3735579882196
 31
0
  0
LINE
  8
1
 62
2
 10
574.728019819255
 20
597.4985579882196
 30
0
 11
574.378019819255
 21
596.8235579882196
 31
0
  0
LINE
  8
1
 62
2
 10
574.9030198192551
 20
598.1735579882196
 30
0
 11
574.728019819255
 21
597.4985579882196
 31
0
  0
LINE
  8
1
 62
2
 10
574.9030198192551
 20
598.6235579882196
 30
0
 11
574.9030198192551
 21
598.1735579882196
 31
0
  0
LINE
  8
1
 62
2
 10
574.728019819255
 20
599.2985579882196
 30
0
 11
574.9030198192551
 21
598.6235579882196
 31
0
  0
LINE
  8
1
 62
2
 10
574.378019819255
 20
599.9735579882196
 30
0
 11
574.728019819255
 21
599.2985579882196
 31
0
  0
LINE
  8
1
 62
2
 10
573.8530198192551
 20
600.4235579882196
 30
0
 11
574.378019819255
 21
599.9735579882196
 31
0
  0
LINE
  8
1
 62
2
 10
570.8780198192551
 20
601.9985579882196
 30
0
 11
573.8530198192551
 21
600.4235579882196
 31
0
  0
LINE
  8
1
 62
2
 10
570.3530198192551
 20
602.4485579882196
 30
0
 11
570.8780198192551
 21
601.9985579882196
 31
0
  0
LINE
  8
1
 62
2
 10
570.178019819255
 20
603.1235579882196
 30
0
 11
570.3530198192551
 21
602.4485579882196
 31
0
  0
LINE
  8
1
 62
2
 10
570.178019819255
 20
603.5735579882196
 30
0
 11
570.178019819255
 21
603.1235579882196
 31
0
  0
LINE
  8
1
 62
2
 10
570.3530198192551
 20
604.2485579882196
 30
0
 11
570.178019819255
 21
603.5735579882196
 31
0
  0
LINE
  8
1
 62
2
 10
570.8780198192551
 20
604.6985579882196
 30
0
 11
570.3530198192551
 21
604.2485579882196
 31
0
  0
LINE
  8
1
 62
2
 10
571.403019819255
 20
604.9235579882196
 30
0
 11
570.8780198192551
 21
604.6985579882196
 31
0
  0
LINE
  8
1
 62
2
 10
572.103019819255
 20
605.1485579882196
 30
0
 11
571.403019819255
 21
604.9235579882196
 31
0
  0
LINE
  8
1
 62
2
 10
572.803019819255
 20
605.1485579882196
 30
0
 11
572.103019819255
 21
605.1485579882196
 31
0
  0
LINE
  8
1
 62
2
 10
573.6780198192552
 20
604.9235579882196
 30
0
 11
572.803019819255
 21
605.1485579882196
 31
0
  0
LINE
  8
1
 62
2
 10
574.203019819255
 20
604.6985579882196
 30
0
 11
573.6780198192552
 21
604.9235579882196
 31
0
  0
LINE
  8
1
 62
2
 10
574.728019819255
 20
604.2485579882196
 30
0
 11
574.203019819255
 21
604.6985579882196
 31
0
  0
LINE
  8
1
 62
2
 10
567.9030198192551
 20
596.1485579882196
 30
0
 11
567.9030198192551
 21
605.1485579882196
 31
0
  0
LINE
  8
1
 62
2
 10
564.4030198192551
 20
596.1485579882196
 30
0
 11
563.0030198192551
 21
596.1485579882196
 31
0
  0
LINE
  8
1
 62
2
 10
564.928019819255
 20
596.3735579882196
 30
0
 11
564.4030198192551
 21
596.1485579882196
 31
0
  0
LINE
  8
1
 62
2
 10
565.453019819255
 20
596.8235579882196
 30
0
 11
564.928019819255
 21
596.3735579882196
 31
0
  0
LINE
  8
1
 62
2
 10
565.8030198192552
 20
597.7235579882196
 30
0
 11
565.453019819255
 21
596.8235579882196
 31
0
  0
LINE
  8
1
 62
2
 10
565.8030198192552
 20
605.1485579882196
 30
0
 11
565.8030198192552
 21
597.7235579882196
 31
0
  0
LINE
  8
1
 62
2
 10
845.3558478625813
 20
612.048558558189
 30
0
 11
843.7808478625813
 21
611.1485585581889
 31
0
  0
LINE
  8
1
 62
2
 10
846.5808478625814
 20
613.3985585581889
 30
0
 11
845.3558478625813
 21
612.048558558189
 31
0
  0
LINE
  8
1
 62
2
 10
847.1058478625813
 20
614.298558558189
 30
0
 11
846.5808478625814
 21
613.3985585581889
 31
0
  0
LINE
  8
1
 62
2
 10
847.2808478625813
 20
615.1985585581889
 30
0
 11
847.1058478625813
 21
614.298558558189
 31
0
  0
LINE
  8
1
 62
2
 10
847.4558478625812
 20
616.3235585581889
 30
0
 11
847.2808478625813
 21
615.1985585581889
 31
0
  0
LINE
  8
1
 62
2
 10
847.4558478625812
 20
617.8985585581889
 30
0
 11
847.4558478625812
 21
616.3235585581889
 31
0
  0
LINE
  8
1
 62
2
 10
847.2808478625813
 20
618.798558558189
 30
0
 11
847.4558478625812
 21
617.8985585581889
 31
0
  0
LINE
  8
1
 62
2
 10
846.9308478625813
 20
619.473558558189
 30
0
 11
847.2808478625813
 21
618.798558558189
 31
0
  0
LINE
  8
1
 62
2
 10
846.4058478625813
 20
619.923558558189
 30
0
 11
846.9308478625813
 21
619.473558558189
 31
0
  0
LINE
  8
1
 62
2
 10
845.8808478625812
 20
620.1485585581889
 30
0
 11
846.4058478625813
 21
619.923558558189
 31
0
  0
LINE
  8
1
 62
2
 10
844.8308478625812
 20
620.1485585581889
 30
0
 11
845.8808478625812
 21
620.1485585581889
 31
0
  0
LINE
  8
1
 62
2
 10
844.3058478625813
 20
619.923558558189
 30
0
 11
844.8308478625812
 21
620.1485585581889
 31
0
  0
LINE
  8
1
 62
2
 10
843.7808478625813
 20
619.473558558189
 30
0
 11
844.3058478625813
 21
619.923558558189
 31
0
  0
LINE
  8
1
 62
2
 10
843.4308478625813
 20
618.798558558189
 30
0
 11
843.7808478625813
 21
619.473558558189
 31
0
  0
LINE
  8
1
 62
2
 10
843.2558478625812
 20
617.8985585581889
 30
0
 11
843.4308478625813
 21
618.798558558189
 31
0
  0
LINE
  8
1
 62
2
 10
843.2558478625812
 20
617.4485585581889
 30
0
 11
843.2558478625812
 21
617.8985585581889
 31
0
  0
LINE
  8
1
 62
2
 10
843.4308478625813
 20
616.548558558189
 30
0
 11
843.2558478625812
 21
617.4485585581889
 31
0
  0
LINE
  8
1
 62
2
 10
843.7808478625813
 20
615.8735585581889
 30
0
 11
843.4308478625813
 21
616.548558558189
 31
0
  0
LINE
  8
1
 62
2
 10
844.3058478625813
 20
615.423558558189
 30
0
 11
843.7808478625813
 21
615.8735585581889
 31
0
  0
LINE
  8
1
 62
2
 10
844.8308478625812
 20
615.1985585581889
 30
0
 11
844.3058478625813
 21
615.423558558189
 31
0
  0
LINE
  8
1
 62
2
 10
847.2808478625813
 20
615.1985585581889
 30
0
 11
844.8308478625812
 21
615.1985585581889
 31
0
  0
LINE
  8
1
 62
2
 10
841.1558478625813
 20
620.1485585581889
 30
0
 11
841.1558478625813
 21
611.1485585581889
 31
0
  0
LINE
  8
1
 62
2
 10
839.0558478625813
 20
617.4485585581889
 30
0
 11
841.1558478625813
 21
620.1485585581889
 31
0
  0
LINE
  8
1
 62
2
 10
789.4667614271074
 20
614.7485585581889
 30
0
 11
789.4667614271074
 21
611.1485585581889
 31
0
  0
LINE
  8
1
 62
2
 10
786.3167614271074
 20
612.9485585581889
 30
0
 11
790.5167614271073
 21
612.9485585581889
 31
0
  0
LINE
  8
1
 62
2
 10
789.4667614271074
 20
620.1485585581889
 30
0
 11
786.3167614271074
 21
612.9485585581889
 31
0
  0
LINE
  8
1
 62
2
 10
741.6492630198551
 20
611.1485585581889
 30
0
 11
739.0242630198551
 21
611.1485585581889
 31
0
  0
LINE
  8
1
 62
2
 10
742.1742630198552
 20
611.3735585581889
 30
0
 11
741.6492630198551
 21
611.1485585581889
 31
0
  0
LINE
  8
1
 62
2
 10
742.6992630198552
 20
611.8235585581889
 30
0
 11
742.1742630198552
 21
611.3735585581889
 31
0
  0
LINE
  8
1
 62
2
 10
743.049263019855
 20
612.4985585581889
 30
0
 11
742.6992630198552
 21
611.8235585581889
 31
0
  0
LINE
  8
1
 62
2
 10
743.224263019855
 20
613.3985585581889
 30
0
 11
743.049263019855
 21
612.4985585581889
 31
0
  0
LINE
  8
1
 62
2
 10
743.224263019855
 20
614.7485585581889
 30
0
 11
743.224263019855
 21
613.3985585581889
 31
0
  0
LINE
  8
1
 62
2
 10
743.049263019855
 20
615.6485585581889
 30
0
 11
743.224263019855
 21
614.7485585581889
 31
0
  0
LINE
  8
1
 62
2
 10
742.5242630198551
 20
616.3235585581889
 30
0
 11
743.049263019855
 21
615.6485585581889
 31
0
  0
LINE
  8
1
 62
2
 10
741.6492630198551
 20
616.548558558189
 30
0
 11
742.5242630198551
 21
616.3235585581889
 31
0
  0
LINE
  8
1
 62
2
 10
739.0242630198551
 20
616.548558558189
 30
0
 11
741.6492630198551
 21
616.548558558189
 31
0
  0
LINE
  8
1
 62
2
 10
739.0242630198551
 20
620.1485585581889
 30
0
 11
739.0242630198551
 21
616.548558558189
 31
0
  0
LINE
  8
1
 62
2
 10
742.8742630198552
 20
620.1485585581889
 30
0
 11
739.0242630198551
 21
620.1485585581889
 31
0
  0
LINE
  8
1
 62
2
 10
732.724263019855
 20
611.1485585581889
 30
0
 11
736.924263019855
 21
611.1485585581889
 31
0
  0
LINE
  8
1
 62
2
 10
736.574263019855
 20
616.9985585581889
 30
0
 11
732.724263019855
 21
611.1485585581889
 31
0
  0
LINE
  8
1
 62
2
 10
736.924263019855
 20
617.8985585581889
 30
0
 11
736.574263019855
 21
616.9985585581889
 31
0
  0
LINE
  8
1
 62
2
 10
736.924263019855
 20
618.798558558189
 30
0
 11
736.924263019855
 21
617.8985585581889
 31
0
  0
LINE
  8
1
 62
2
 10
736.574263019855
 20
619.473558558189
 30
0
 11
736.924263019855
 21
618.798558558189
 31
0
  0
LINE
  8
1
 62
2
 10
736.0492630198551
 20
619.923558558189
 30
0
 11
736.574263019855
 21
619.473558558189
 31
0
  0
LINE
  8
1
 62
2
 10
735.349263019855
 20
620.1485585581889
 30
0
 11
736.0492630198551
 21
619.923558558189
 31
0
  0
LINE
  8
1
 62
2
 10
734.299263019855
 20
620.1485585581889
 30
0
 11
735.349263019855
 21
620.1485585581889
 31
0
  0
LINE
  8
1
 62
2
 10
733.5992630198551
 20
619.923558558189
 30
0
 11
734.299263019855
 21
620.1485585581889
 31
0
  0
LINE
  8
1
 62
2
 10
733.074263019855
 20
619.473558558189
 30
0
 11
733.5992630198551
 21
619.923558558189
 31
0
  0
LINE
  8
1
 62
2
 10
732.724263019855
 20
618.798558558189
 30
0
 11
733.074263019855
 21
619.473558558189
 31
0
  0
LINE
  8
1
 62
2
 10
730.624263019855
 20
620.1485585581889
 30
0
 11
730.624263019855
 21
611.1485585581889
 31
0
  0
LINE
  8
1
 62
2
 10
728.5242630198551
 20
617.4485585581889
 30
0
 11
730.624263019855
 21
620.1485585581889
 31
0
  0
LINE
  8
1
 62
2
 10
687.1692649123028
 20
619.473558558189
 30
0
 11
687.6942649123029
 21
619.923558558189
 31
0
  0
LINE
  8
1
 62
2
 10
686.8192649123027
 20
618.798558558189
 30
0
 11
687.1692649123028
 21
619.473558558189
 31
0
  0
LINE
  8
1
 62
2
 10
686.8192649123027
 20
617.8985585581889
 30
0
 11
686.8192649123027
 21
618.798558558189
 31
0
  0
LINE
  8
1
 62
2
 10
687.1692649123028
 20
617.223558558189
 30
0
 11
686.8192649123027
 21
617.8985585581889
 31
0
  0
LINE
  8
1
 62
2
 10
687.6942649123029
 20
616.7735585581889
 30
0
 11
687.1692649123028
 21
617.223558558189
 31
0
  0
LINE
  8
1
 62
2
 10
688.2192649123027
 20
616.548558558189
 30
0
 11
687.6942649123029
 21
616.7735585581889
 31
0
  0
LINE
  8
1
 62
2
 10
688.9192649123028
 20
616.548558558189
 30
0
 11
688.2192649123027
 21
616.548558558189
 31
0
  0
LINE
  8
1
 62
2
 10
689.4442649123027
 20
616.7735585581889
 30
0
 11
688.9192649123028
 21
616.548558558189
 31
0
  0
LINE
  8
1
 62
2
 10
689.9692649123027
 20
617.223558558189
 30
0
 11
689.4442649123027
 21
616.7735585581889
 31
0
  0
LINE
  8
1
 62
2
 10
690.3192649123029
 20
617.8985585581889
 30
0
 11
689.9692649123027
 21
617.223558558189
 31
0
  0
LINE
  8
1
 62
2
 10
690.3192649123029
 20
618.798558558189
 30
0
 11
690.3192649123029
 21
617.8985585581889
 31
0
  0
LINE
  8
1
 62
2
 10
689.9692649123027
 20
619.473558558189
 30
0
 11
690.3192649123029
 21
618.798558558189
 31
0
  0
LINE
  8
1
 62
2
 10
689.4442649123027
 20
619.923558558189
 30
0
 11
689.9692649123027
 21
619.473558558189
 31
0
  0
LINE
  8
1
 62
2
 10
688.9192649123028
 20
620.1485585581889
 30
0
 11
689.4442649123027
 21
619.923558558189
 31
0
  0
LINE
  8
1
 62
2
 10
688.2192649123027
 20
620.1485585581889
 30
0
 11
688.9192649123028
 21
620.1485585581889
 31
0
  0
LINE
  8
1
 62
2
 10
687.6942649123029
 20
619.923558558189
 30
0
 11
688.2192649123027
 21
620.1485585581889
 31
0
  0
LINE
  8
1
 62
2
 10
689.7942649123028
 20
616.098558558189
 30
0
 11
688.9192649123028
 21
616.548558558189
 31
0
  0
LINE
  8
1
 62
2
 10
690.3192649123029
 20
615.423558558189
 30
0
 11
689.7942649123028
 21
616.098558558189
 31
0
  0
LINE
  8
1
 62
2
 10
690.6692649123027
 20
614.5235585581889
 30
0
 11
690.3192649123029
 21
615.423558558189
 31
0
  0
LINE
  8
1
 62
2
 10
690.6692649123027
 20
613.173558558189
 30
0
 11
690.6692649123027
 21
614.5235585581889
 31
0
  0
LINE
  8
1
 62
2
 10
690.3192649123029
 20
612.2735585581889
 30
0
 11
690.6692649123027
 21
613.173558558189
 31
0
  0
LINE
  8
1
 62
2
 10
689.7942649123028
 20
611.598558558189
 30
0
 11
690.3192649123029
 21
612.2735585581889
 31
0
  0
LINE
  8
1
 62
2
 10
689.0942649123027
 20
611.1485585581889
 30
0
 11
689.7942649123028
 21
611.598558558189
 31
0
  0
LINE
  8
1
 62
2
 10
688.0442649123027
 20
611.1485585581889
 30
0
 11
689.0942649123027
 21
611.1485585581889
 31
0
  0
LINE
  8
1
 62
2
 10
687.3442649123027
 20
611.598558558189
 30
0
 11
688.0442649123027
 21
611.1485585581889
 31
0
  0
LINE
  8
1
 62
2
 10
686.8192649123027
 20
612.2735585581889
 30
0
 11
687.3442649123027
 21
611.598558558189
 31
0
  0
LINE
  8
1
 62
2
 10
686.4692649123027
 20
613.173558558189
 30
0
 11
686.8192649123027
 21
612.2735585581889
 31
0
  0
LINE
  8
1
 62
2
 10
686.4692649123027
 20
614.5235585581889
 30
0
 11
686.4692649123027
 21
613.173558558189
 31
0
  0
LINE
  8
1
 62
2
 10
686.8192649123027
 20
615.423558558189
 30
0
 11
686.4692649123027
 21
614.5235585581889
 31
0
  0
LINE
  8
1
 62
2
 10
687.3442649123027
 20
616.098558558189
 30
0
 11
686.8192649123027
 21
615.423558558189
 31
0
  0
LINE
  8
1
 62
2
 10
688.2192649123027
 20
616.548558558189
 30
0
 11
687.3442649123027
 21
616.098558558189
 31
0
  0
LINE
  8
1
 62
2
 10
681.3942649123027
 20
618.1235585581889
 30
0
 11
683.3192649123026
 21
620.1485585581889
 31
0
  0
LINE
  8
1
 62
2
 10
680.6942649123026
 20
616.9985585581889
 30
0
 11
681.3942649123027
 21
618.1235585581889
 31
0
  0
LINE
  8
1
 62
2
 10
680.3442649123027
 20
616.098558558189
 30
0
 11
680.6942649123026
 21
616.9985585581889
 31
0
  0
LINE
  8
1
 62
2
 10
680.1692649123027
 20
614.298558558189
 30
0
 11
680.3442649123027
 21
616.098558558189
 31
0
  0
LINE
  8
1
 62
2
 10
680.1692649123027
 20
613.3985585581889
 30
0
 11
680.1692649123027
 21
614.298558558189
 31
0
  0
LINE
  8
1
 62
2
 10
680.3442649123027
 20
612.4985585581889
 30
0
 11
680.1692649123027
 21
613.3985585581889
 31
0
  0
LINE
  8
1
 62
2
 10
680.6942649123026
 20
611.8235585581889
 30
0
 11
680.3442649123027
 21
612.4985585581889
 31
0
  0
LINE
  8
1
 62
2
 10
681.2192649123027
 20
611.3735585581889
 30
0
 11
680.6942649123026
 21
611.8235585581889
 31
0
  0
LINE
  8
1
 62
2
 10
681.7442649123026
 20
611.1485585581889
 30
0
 11
681.2192649123027
 21
611.3735585581889
 31
0
  0
LINE
  8
1
 62
2
 10
682.7942649123027
 20
611.1485585581889
 30
0
 11
681.7442649123026
 21
611.1485585581889
 31
0
  0
LINE
  8
1
 62
2
 10
683.3192649123026
 20
611.3735585581889
 30
0
 11
682.7942649123027
 21
611.1485585581889
 31
0
  0
LINE
  8
1
 62
2
 10
683.8442649123027
 20
611.8235585581889
 30
0
 11
683.3192649123026
 21
611.3735585581889
 31
0
  0
LINE
  8
1
 62
2
 10
684.1942649123026
 20
612.4985585581889
 30
0
 11
683.8442649123027
 21
611.8235585581889
 31
0
  0
LINE
  8
1
 62
2
 10
684.3692649123026
 20
613.3985585581889
 30
0
 11
684.1942649123026
 21
612.4985585581889
 31
0
  0
LINE
  8
1
 62
2
 10
684.3692649123026
 20
614.298558558189
 30
0
 11
684.3692649123026
 21
613.3985585581889
 31
0
  0
LINE
  8
1
 62
2
 10
684.1942649123026
 20
615.1985585581889
 30
0
 11
684.3692649123026
 21
614.298558558189
 31
0
  0
LINE
  8
1
 62
2
 10
683.8442649123027
 20
615.8735585581889
 30
0
 11
684.1942649123026
 21
615.1985585581889
 31
0
  0
LINE
  8
1
 62
2
 10
683.3192649123026
 20
616.3235585581889
 30
0
 11
683.8442649123027
 21
615.8735585581889
 31
0
  0
LINE
  8
1
 62
2
 10
682.7942649123027
 20
616.548558558189
 30
0
 11
683.3192649123026
 21
616.3235585581889
 31
0
  0
LINE
  8
1
 62
2
 10
681.7442649123026
 20
616.548558558189
 30
0
 11
682.7942649123027
 21
616.548558558189
 31
0
  0
LINE
  8
1
 62
2
 10
681.2192649123027
 20
616.3235585581889
 30
0
 11
681.7442649123026
 21
616.548558558189
 31
0
  0
LINE
  8
1
 62
2
 10
680.6942649123026
 20
615.8735585581889
 30
0
 11
681.2192649123027
 21
616.3235585581889
 31
0
  0
LINE
  8
1
 62
2
 10
680.3442649123027
 20
615.1985585581889
 30
0
 11
680.6942649123026
 21
615.8735585581889
 31
0
  0
LINE
  8
1
 62
2
 10
680.1692649123027
 20
614.298558558189
 30
0
 11
680.3442649123027
 21
615.1985585581889
 31
0
  0
LINE
  8
1
 62
2
 10
678.0692649123026
 20
620.1485585581889
 30
0
 11
678.0692649123026
 21
611.1485585581889
 31
0
  0
LINE
  8
1
 62
2
 10
675.9692649123027
 20
617.4485585581889
 30
0
 11
678.0692649123026
 21
620.1485585581889
 31
0
  0
LINE
  8
1
 62
2
 10
636.0142668047503
 20
620.1485585581889
 30
0
 11
636.0142668047503
 21
611.1485585581889
 31
0
  0
LINE
  8
1
 62
2
 10
633.9142668047504
 20
617.4485585581889
 30
0
 11
636.0142668047503
 21
620.1485585581889
 31
0
  0
LINE
  8
1
 62
2
 10
631.8142668047505
 20
620.1485585581889
 30
0
 11
631.8142668047505
 21
611.1485585581889
 31
0
  0
LINE
  8
1
 62
2
 10
629.7142668047504
 20
617.4485585581889
 30
0
 11
631.8142668047505
 21
620.1485585581889
 31
0
  0
LINE
  8
1
 62
2
 10
623.4142668047504
 20
611.1485585581889
 30
0
 11
627.6142668047503
 21
611.1485585581889
 31
0
  0
LINE
  8
1
 62
2
 10
627.2642668047505
 20
616.9985585581889
 30
0
 11
623.4142668047504
 21
611.1485585581889
 31
0
  0
LINE
  8
1
 62
2
 10
627.6142668047503
 20
617.8985585581889
 30
0
 11
627.2642668047505
 21
616.9985585581889
 31
0
  0
LINE
  8
1
 62
2
 10
627.6142668047503
 20
618.798558558189
 30
0
 11
627.6142668047503
 21
617.8985585581889
 31
0
  0
LINE
  8
1
 62
2
 10
627.2642668047505
 20
619.473558558189
 30
0
 11
627.6142668047503
 21
618.798558558189
 31
0
  0
LINE
  8
1
 62
2
 10
626.7392668047504
 20
619.923558558189
 30
0
 11
627.2642668047505
 21
619.473558558189
 31
0
  0
LINE
  8
1
 62
2
 10
626.0392668047504
 20
620.1485585581889
 30
0
 11
626.7392668047504
 21
619.923558558189
 31
0
  0
LINE
  8
1
 62
2
 10
624.9892668047503
 20
620.1485585581889
 30
0
 11
626.0392668047504
 21
620.1485585581889
 31
0
  0
LINE
  8
1
 62
2
 10
624.2892668047504
 20
619.923558558189
 30
0
 11
624.9892668047503
 21
620.1485585581889
 31
0
  0
LINE
  8
1
 62
2
 10
623.7642668047504
 20
619.473558558189
 30
0
 11
624.2892668047504
 21
619.923558558189
 31
0
  0
LINE
  8
1
 62
2
 10
623.4142668047504
 20
618.798558558189
 30
0
 11
623.7642668047504
 21
619.473558558189
 31
0
  0
LINE
  8
1
 62
2
 10
580.4905190712167
 20
613.9610585581889
 30
0
 11
581.462741293439
 21
612.5548085581889
 31
0
  0
LINE
  8
1
 62
2
 10
579.7127412934391
 20
615.6485585581889
 30
0
 11
580.4905190712167
 21
613.9610585581889
 31
0
  0
LINE
  8
1
 62
2
 10
579.1294079601056
 20
617.6173085581889
 30
0
 11
579.7127412934391
 21
615.6485585581889
 31
0
  0
LINE
  8
1
 62
2
 10
580.8794079601056
 20
617.8985585581889
 30
0
 11
579.5182968489945
 21
616.4923085581889
 31
0
  0
LINE
  8
1
 62
2
 10
578.5460746267723
 20
611.1485585581889
 30
0
 11
577.9627412934389
 21
611.4298085581889
 31
0
  0
LINE
  8
1
 62
2
 10
578.5460746267723
 20
619.8673085581889
 30
0
 11
578.5460746267723
 21
611.1485585581889
 31
0
  0
LINE
  8
1
 62
2
 10
577.5738524045501
 20
617.0548085581889
 30
0
 11
575.6294079601056
 21
617.0548085581889
 31
0
  0
LINE
  8
1
 62
2
 10
577.1849635156613
 20
615.3673085581889
 30
0
 11
577.5738524045501
 21
617.0548085581889
 31
0
  0
LINE
  8
1
 62
2
 10
576.4071857378834
 20
613.6798085581889
 30
0
 11
577.1849635156613
 21
615.3673085581889
 31
0
  0
LINE
  8
1
 62
2
 10
575.6294079601056
 20
612.5548085581889
 30
0
 11
576.4071857378834
 21
613.6798085581889
 31
0
  0
LINE
  8
1
 62
2
 10
571.1571857378834
 20
616.7735585581889
 30
0
 11
571.1571857378834
 21
611.4298085581889
 31
0
  0
LINE
  8
1
 62
2
 10
571.1571857378834
 20
611.4298085581889
 30
0
 11
574.4627412934391
 21
611.4298085581889
 31
0
  0
LINE
  8
1
 62
2
 10
571.1571857378834
 20
620.1485585581889
 30
0
 11
571.1571857378834
 21
616.7735585581889
 31
0
  0
LINE
  8
1
 62
2
 10
573.4905190712168
 20
616.7735585581889
 30
0
 11
571.1571857378834
 21
616.7735585581889
 31
0
  0
LINE
  8
1
 62
2
 10
568.2405190712168
 20
611.4298085581889
 30
0
 11
571.1571857378834
 21
611.4298085581889
 31
0
  0
LINE
  8
1
 62
2
 10
855.6296747155067
 20
628.4193682345773
 30
0
 11
855.3552919994573
 21
627.8240557345773
 31
0
  0
LINE
  8
1
 62
2
 10
855.9040574315562
 20
629.4115557345773
 30
0
 11
855.6296747155067
 21
628.4193682345773
 31
0
  0
LINE
  8
1
 62
2
 10
855.9040574315562
 20
632.5865557345773
 30
0
 11
855.9040574315562
 21
629.4115557345773
 31
0
  0
LINE
  8
1
 62
2
 10
855.6296747155067
 20
633.5787432345773
 30
0
 11
855.9040574315562
 21
632.5865557345773
 31
0
  0
LINE
  8
1
 62
2
 10
855.3552919994573
 20
634.1740557345773
 30
0
 11
855.6296747155067
 21
633.5787432345773
 31
0
  0
LINE
  8
1
 62
2
 10
851.3767426167411
 20
628.2209307345773
 30
0
 11
852.8858475550129
 21
628.2209307345773
 31
0
  0
LINE
  8
1
 62
2
 10
849.8676376784698
 20
628.2209307345773
 30
0
 11
851.3767426167411
 21
628.2209307345773
 31
0
  0
LINE
  8
1
 62
2
 10
851.3767426167411
 20
631.1974932345773
 30
0
 11
851.3767426167411
 21
628.2209307345773
 31
0
  0
LINE
  8
1
 62
2
 10
852.6114648389636
 20
629.8084307345773
 30
0
 11
850.2792117525438
 21
629.8084307345773
 31
0
  0
LINE
  8
1
 62
2
 10
852.0626994068647
 20
631.3959307345773
 30
0
 11
852.7486561969882
 21
630.8006182345773
 31
0
  0
LINE
  8
1
 62
2
 10
851.3767426167411
 20
632.1896807345773
 30
0
 11
852.0626994068647
 21
631.3959307345773
 31
0
  0
LINE
  8
1
 62
2
 10
850.6907858266178
 20
633.3803057345773
 30
0
 11
851.3767426167411
 21
632.1896807345773
 31
0
  0
LINE
  8
1
 62
2
 10
851.2395512587165
 20
631.7928057345772
 30
0
 11
850.1420203945191
 21
630.8006182345773
 31
0
  0
LINE
  8
1
 62
2
 10
852.337082122914
 20
633.7771807345773
 30
0
 11
851.2395512587165
 21
631.7928057345772
 31
0
  0
LINE
  8
1
 62
2
 10
850.2792117525438
 20
633.7771807345773
 30
0
 11
852.337082122914
 21
633.7771807345773
 31
0
  0
LINE
  8
1
 62
2
 10
849.3188722463709
 20
633.3803057345773
 30
0
 11
848.770106814272
 21
632.7849932345773
 31
0
  0
LINE
  8
1
 62
2
 10
849.8676376784698
 20
634.1740557345773
 30
0
 11
849.3188722463709
 21
633.3803057345773
 31
0
  0
LINE
  8
1
 62
2
 10
849.1816808883463
 20
631.5943682345774
 30
0
 11
849.8676376784698
 21
632.7849932345773
 31
0
  0
LINE
  8
1
 62
2
 10
848.4957240982227
 20
630.6021807345773
 30
0
 11
849.1816808883463
 21
631.5943682345774
 31
0
  0
LINE
  8
1
 62
2
 10
849.3188722463709
 20
627.8240557345773
 30
0
 11
849.3188722463709
 21
631.7928057345772
 31
0
  0
LINE
  8
1
 62
2
 10
845.7518969377289
 20
632.7849932345773
 30
0
 11
847.5353845920498
 21
632.7849932345773
 31
0
  0
LINE
  8
1
 62
2
 10
847.1238105179758
 20
628.8162432345772
 30
0
 11
847.8097673080994
 21
628.0224932345773
 31
0
  0
LINE
  8
1
 62
2
 10
846.5750450858769
 20
630.0068682345774
 30
0
 11
847.1238105179758
 21
628.8162432345772
 31
0
  0
LINE
  8
1
 62
2
 10
846.3006623698276
 20
631.3959307345773
 30
0
 11
846.5750450858769
 21
630.0068682345774
 31
0
  0
LINE
  8
1
 62
2
 10
844.791557431556
 20
631.3959307345773
 30
0
 11
846.3006623698276
 21
631.3959307345773
 31
0
  0
LINE
  8
1
 62
2
 10
845.7518969377289
 20
633.9756182345773
 30
0
 11
845.7518969377289
 21
632.7849932345773
 31
0
  0
LINE
  8
1
 62
2
 10
847.5353845920498
 20
632.7849932345773
 30
0
 11
847.5353845920498
 21
631.9912432345773
 31
0
  0
LINE
  8
1
 62
2
 10
844.1056006414327
 20
632.7849932345773
 30
0
 11
845.7518969377289
 21
632.7849932345773
 31
0
  0
LINE
  8
1
 62
2
 10
844.1056006414327
 20
631.7928057345772
 30
0
 11
844.1056006414327
 21
632.7849932345773
 31
0
  0
LINE
  8
1
 62
2
 10
844.6543660735314
 20
629.2131182345773
 30
0
 11
845.2031315056303
 21
630.6021807345773
 31
0
  0
LINE
  8
1
 62
2
 10
843.8312179253832
 20
628.0224932345773
 30
0
 11
844.6543660735314
 21
629.2131182345773
 31
0
  0
LINE
  8
1
 62
2
 10
840.8130080488398
 20
628.4193682345773
 30
0
 11
841.0873907648894
 21
627.8240557345773
 31
0
  0
LINE
  8
1
 62
2
 10
840.5386253327905
 20
629.4115557345773
 30
0
 11
840.8130080488398
 21
628.4193682345773
 31
0
  0
LINE
  8
1
 62
2
 10
840.5386253327905
 20
632.5865557345773
 30
0
 11
840.5386253327905
 21
629.4115557345773
 31
0
  0
LINE
  8
1
 62
2
 10
840.8130080488398
 20
633.5787432345773
 30
0
 11
840.5386253327905
 21
632.5865557345773
 31
0
  0
LINE
  8
1
 62
2
 10
841.0873907648894
 20
634.1740557345773
 30
0
 11
840.8130080488398
 21
633.5787432345773
 31
0
  0
LINE
  8
1
 62
2
 10
837.2460327401981
 20
630.4037432345773
 30
0
 11
837.2460327401981
 21
627.8240557345773
 31
0
  0
LINE
  8
1
 62
2
 10
837.1088413821734
 20
631.1974932345773
 30
0
 11
837.2460327401981
 21
630.4037432345773
 31
0
  0
LINE
  8
1
 62
2
 10
836.8344586661241
 20
631.5943682345774
 30
0
 11
837.1088413821734
 21
631.1974932345773
 31
0
  0
LINE
  8
1
 62
2
 10
836.2856932340252
 20
631.7928057345772
 30
0
 11
836.8344586661241
 21
631.5943682345774
 31
0
  0
LINE
  8
1
 62
2
 10
835.0509710118032
 20
631.7928057345772
 30
0
 11
836.2856932340252
 21
631.7928057345772
 31
0
  0
LINE
  8
1
 62
2
 10
834.5022055797043
 20
631.5943682345774
 30
0
 11
835.0509710118032
 21
631.7928057345772
 31
0
  0
LINE
  8
1
 62
2
 10
834.227822863655
 20
631.1974932345773
 30
0
 11
834.5022055797043
 21
631.5943682345774
 31
0
  0
LINE
  8
1
 62
2
 10
834.0906315056301
 20
630.4037432345773
 30
0
 11
834.227822863655
 21
631.1974932345773
 31
0
  0
LINE
  8
1
 62
2
 10
834.0906315056301
 20
629.2131182345773
 30
0
 11
834.0906315056301
 21
630.4037432345773
 31
0
  0
LINE
  8
1
 62
2
 10
834.227822863655
 20
628.4193682345773
 30
0
 11
834.0906315056301
 21
629.2131182345773
 31
0
  0
LINE
  8
1
 62
2
 10
834.5022055797043
 20
628.0224932345773
 30
0
 11
834.227822863655
 21
628.4193682345773
 31
0
  0
LINE
  8
1
 62
2
 10
835.0509710118032
 20
627.8240557345773
 30
0
 11
834.5022055797043
 21
628.0224932345773
 31
0
  0
LINE
  8
1
 62
2
 10
836.2856932340252
 20
627.8240557345773
 30
0
 11
835.0509710118032
 21
627.8240557345773
 31
0
  0
LINE
  8
1
 62
2
 10
836.8344586661241
 20
628.0224932345773
 30
0
 11
836.2856932340252
 21
627.8240557345773
 31
0
  0
LINE
  8
1
 62
2
 10
837.1088413821734
 20
628.4193682345773
 30
0
 11
836.8344586661241
 21
628.0224932345773
 31
0
  0
LINE
  8
1
 62
2
 10
837.2460327401981
 20
629.2131182345773
 30
0
 11
837.1088413821734
 21
628.4193682345773
 31
0
  0
LINE
  8
1
 62
2
 10
837.2460327401981
 20
632.9834307345774
 30
0
 11
837.2460327401981
 21
630.4037432345773
 31
0
  0
LINE
  8
1
 62
2
 10
800.0966227116306
 20
627.5429076643281
 30
0
 11
799.7077338227418
 21
626.6991576643281
 31
0
  0
LINE
  8
1
 62
2
 10
800.4855116005198
 20
628.9491576643281
 30
0
 11
800.0966227116306
 21
627.5429076643281
 31
0
  0
LINE
  8
1
 62
2
 10
800.4855116005198
 20
633.4491576643281
 30
0
 11
800.4855116005198
 21
628.9491576643281
 31
0
  0
LINE
  8
1
 62
2
 10
800.0966227116306
 20
634.8554076643281
 30
0
 11
800.4855116005198
 21
633.4491576643281
 31
0
  0
LINE
  8
1
 62
2
 10
799.7077338227418
 20
635.6991576643281
 30
0
 11
800.0966227116306
 21
634.8554076643281
 31
0
  0
LINE
  8
1
 62
2
 10
792.318844933853
 20
630.0741576643281
 30
0
 11
790.1799560449642
 21
630.0741576643281
 31
0
  0
LINE
  8
1
 62
2
 10
791.7355116005197
 20
633.4491576643281
 30
0
 11
791.7355116005197
 21
631.1991576643281
 31
0
  0
LINE
  8
1
 62
2
 10
794.8466227116309
 20
628.6679076643281
 30
0
 11
796.0132893782974
 21
627.2616576643281
 31
0
  0
LINE
  8
1
 62
2
 10
793.8744004894087
 20
631.1991576643281
 30
0
 11
794.8466227116309
 21
628.6679076643281
 31
0
  0
LINE
  8
1
 62
2
 10
793.6799560449641
 20
632.6054076643281
 30
0
 11
793.8744004894087
 21
631.1991576643281
 31
0
  0
LINE
  8
1
 62
2
 10
793.8744004894087
 20
634.2929076643281
 30
0
 11
794.068844933853
 21
635.4179076643281
 31
0
  0
LINE
  8
1
 62
2
 10
793.2910671560752
 20
632.3241576643281
 30
0
 11
793.8744004894087
 21
634.2929076643281
 31
0
  0
LINE
  8
1
 62
2
 10
792.9021782671864
 20
631.4804076643281
 30
0
 11
793.2910671560752
 21
632.3241576643281
 31
0
  0
LINE
  8
1
 62
2
 10
792.1244004894087
 20
632.8866576643281
 30
0
 11
792.7077338227419
 21
631.7616576643281
 31
0
  0
LINE
  8
1
 62
2
 10
792.7077338227419
 20
635.1366576643281
 30
0
 11
792.318844933853
 21
634.0116576643281
 31
0
  0
LINE
  8
1
 62
2
 10
791.1521782671865
 20
632.3241576643281
 30
0
 11
791.7355116005197
 21
633.4491576643281
 31
0
  0
LINE
  8
1
 62
2
 10
790.3744004894086
 20
631.4804076643281
 30
0
 11
791.1521782671865
 21
632.3241576643281
 31
0
  0
LINE
  8
1
 62
2
 10
791.7355116005197
 20
635.6991576643281
 30
0
 11
791.7355116005197
 21
633.4491576643281
 31
0
  0
LINE
  8
1
 62
2
 10
790.568844933853
 20
635.1366576643281
 30
0
 11
791.1521782671865
 21
634.2929076643281
 31
0
  0
LINE
  8
1
 62
2
 10
793.0966227116307
 20
633.4491576643281
 30
0
 11
790.1799560449642
 21
633.4491576643281
 31
0
  0
LINE
  8
1
 62
2
 10
796.0132893782974
 20
633.4491576643281
 30
0
 11
793.6799560449641
 21
633.4491576643281
 31
0
  0
LINE
  8
1
 62
2
 10
795.0410671560752
 20
630.6366576643281
 30
0
 11
795.4299560449642
 21
632.8866576643281
 31
0
  0
LINE
  8
1
 62
2
 10
793.8744004894087
 20
628.1054076643281
 30
0
 11
795.0410671560752
 21
630.6366576643281
 31
0
  0
LINE
  8
1
 62
2
 10
793.0966227116307
 20
627.2616576643281
 30
0
 11
793.8744004894087
 21
628.1054076643281
 31
0
  0
LINE
  8
1
 62
2
 10
791.9299560449641
 20
627.8241576643281
 30
0
 11
792.7077338227419
 21
626.9804076643281
 31
0
  0
LINE
  8
1
 62
2
 10
790.7632893782974
 20
628.9491576643281
 30
0
 11
791.9299560449641
 21
627.8241576643281
 31
0
  0
LINE
  8
1
 62
2
 10
791.5410671560753
 20
630.9179076643281
 30
0
 11
790.7632893782974
 21
628.6679076643281
 31
0
  0
LINE
  8
1
 62
2
 10
793.0966227116307
 20
630.0741576643281
 30
0
 11
792.318844933853
 21
630.0741576643281
 31
0
  0
LINE
  8
1
 62
2
 10
792.1244004894087
 20
628.6679076643281
 30
0
 11
792.318844933853
 21
630.0741576643281
 31
0
  0
LINE
  8
1
 62
2
 10
791.3466227116309
 20
627.5429076643281
 30
0
 11
792.1244004894087
 21
628.6679076643281
 31
0
  0
LINE
  8
1
 62
2
 10
790.3744004894086
 20
626.9804076643281
 30
0
 11
791.3466227116309
 21
627.5429076643281
 31
0
  0
LINE
  8
1
 62
2
 10
786.0966227116306
 20
627.5429076643281
 30
0
 11
786.4855116005197
 21
626.6991576643281
 31
0
  0
LINE
  8
1
 62
2
 10
785.7077338227417
 20
628.9491576643281
 30
0
 11
786.0966227116306
 21
627.5429076643281
 31
0
  0
LINE
  8
1
 62
2
 10
785.7077338227417
 20
633.4491576643281
 30
0
 11
785.7077338227417
 21
628.9491576643281
 31
0
  0
LINE
  8
1
 62
2
 10
786.0966227116306
 20
634.8554076643281
 30
0
 11
785.7077338227417
 21
633.4491576643281
 31
0
  0
LINE
  8
1
 62
2
 10
786.4855116005197
 20
635.6991576643281
 30
0
 11
786.0966227116306
 21
634.8554076643281
 31
0
  0
LINE
  8
1
 62
2
 10
776.568844933853
 20
630.3554076643281
 30
0
 11
776.568844933853
 21
632.3241576643281
 31
0
  0
LINE
  8
1
 62
2
 10
781.0410671560752
 20
630.3554076643281
 30
0
 11
781.0410671560752
 21
626.6991576643281
 31
0
  0
LINE
  8
1
 62
2
 10
780.8466227116309
 20
631.4804076643281
 30
0
 11
781.0410671560752
 21
630.3554076643281
 31
0
  0
LINE
  8
1
 62
2
 10
780.4577338227419
 20
632.0429076643281
 30
0
 11
780.8466227116309
 21
631.4804076643281
 31
0
  0
LINE
  8
1
 62
2
 10
779.6799560449641
 20
632.3241576643281
 30
0
 11
780.4577338227419
 21
632.0429076643281
 31
0
  0
LINE
  8
1
 62
2
 10
777.9299560449641
 20
632.3241576643281
 30
0
 11
779.6799560449641
 21
632.3241576643281
 31
0
  0
LINE
  8
1
 62
2
 10
777.3466227116307
 20
632.0429076643281
 30
0
 11
777.9299560449641
 21
632.3241576643281
 31
0
  0
LINE
  8
1
 62
2
 10
776.9577338227419
 20
631.4804076643281
 30
0
 11
777.3466227116307
 21
632.0429076643281
 31
0
  0
LINE
  8
1
 62
2
 10
776.568844933853
 20
630.3554076643281
 30
0
 11
776.9577338227419
 21
631.4804076643281
 31
0
  0
LINE
  8
1
 62
2
 10
776.568844933853
 20
626.6991576643281
 30
0
 11
776.568844933853
 21
630.3554076643281
 31
0
  0
LINE
  8
1
 62
2
 10
825.1769600685556
 20
649.7391435328835
 30
0
 11
827.7047378463334
 21
649.7391435328835
 31
0
  0
LINE
  8
1
 62
2
 10
827.1214045130001
 20
644.1141435328835
 30
0
 11
828.0936267352223
 21
642.9891435328835
 31
0
  0
LINE
  8
1
 62
2
 10
826.3436267352223
 20
645.8016435328835
 30
0
 11
827.1214045130001
 21
644.1141435328835
 31
0
  0
LINE
  8
1
 62
2
 10
825.9547378463336
 20
647.7703935328835
 30
0
 11
826.3436267352223
 21
645.8016435328835
 31
0
  0
LINE
  8
1
 62
2
 10
823.8158489574445
 20
647.7703935328835
 30
0
 11
825.9547378463336
 21
647.7703935328835
 31
0
  0
LINE
  8
1
 62
2
 10
825.1769600685556
 20
651.4266435328835
 30
0
 11
825.1769600685556
 21
649.7391435328835
 31
0
  0
LINE
  8
1
 62
2
 10
827.7047378463334
 20
649.7391435328835
 30
0
 11
827.7047378463334
 21
648.6141435328835
 31
0
  0
LINE
  8
1
 62
2
 10
822.8436267352223
 20
649.7391435328835
 30
0
 11
825.1769600685556
 21
649.7391435328835
 31
0
  0
LINE
  8
1
 62
2
 10
822.8436267352223
 20
648.3328935328835
 30
0
 11
822.8436267352223
 21
649.7391435328835
 31
0
  0
LINE
  8
1
 62
2
 10
823.6214045130001
 20
644.6766435328835
 30
0
 11
824.399182290778
 21
646.6453935328835
 31
0
  0
LINE
  8
1
 62
2
 10
822.4547378463334
 20
642.9891435328835
 30
0
 11
823.6214045130001
 21
644.6766435328835
 31
0
  0
LINE
  8
1
 62
2
 10
819.149182290778
 20
647.2078935328835
 30
0
 11
819.5380711796669
 21
646.0828935328835
 31
0
  0
LINE
  8
1
 62
2
 10
818.5658489574447
 20
648.0516435328835
 30
0
 11
819.149182290778
 21
647.2078935328835
 31
0
  0
LINE
  8
1
 62
2
 10
817.7880711796669
 20
650.5828935328835
 30
0
 11
817.7880711796669
 21
643.5516435328835
 31
0
  0
LINE
  8
1
 62
2
 10
812.9269600685558
 20
645.5203935328835
 30
0
 11
813.899182290778
 21
647.2078935328835
 31
0
  0
LINE
  8
1
 62
2
 10
811.3714045130001
 20
644.3953935328835
 30
0
 11
812.9269600685558
 21
645.5203935328835
 31
0
  0
LINE
  8
1
 62
2
 10
811.3714045130001
 20
649.4578935328835
 30
0
 11
811.3714045130001
 21
644.3953935328835
 31
0
  0
LINE
  8
1
 62
2
 10
809.8158489574445
 20
647.2078935328835
 30
0
 11
810.010293401889
 21
649.4578935328835
 31
0
  0
LINE
  8
1
 62
2
 10
809.4269600685556
 20
645.5203935328835
 30
0
 11
809.8158489574445
 21
647.2078935328835
 31
0
  0
LINE
  8
1
 62
2
 10
808.8436267352223
 20
644.1141435328835
 30
0
 11
809.4269600685556
 21
645.5203935328835
 31
0
  0
LINE
  8
1
 62
2
 10
806.1214045130001
 20
645.2391435328835
 30
0
 11
806.510293401889
 21
644.3953935328835
 31
0
  0
LINE
  8
1
 62
2
 10
805.3436267352223
 20
646.3641435328835
 30
0
 11
806.1214045130001
 21
645.2391435328835
 31
0
  0
LINE
  8
1
 62
2
 10
802.2325156241113
 20
645.2391435328835
 30
0
 11
802.8158489574445
 21
646.6453935328835
 31
0
  0
LINE
  8
1
 62
2
 10
801.649182290778
 20
644.1141435328835
 30
0
 11
802.2325156241113
 21
645.2391435328835
 31
0
  0
LINE
  8
1
 62
2
 10
804.1769600685556
 20
643.2703935328835
 30
0
 11
803.5936267352224
 21
643.2703935328835
 31
0
  0
LINE
  8
1
 62
2
 10
804.1769600685556
 20
650.3016435328835
 30
0
 11
804.1769600685556
 21
643.2703935328835
 31
0
  0
LINE
  8
1
 62
2
 10
806.3158489574446
 20
648.8953935328835
 30
0
 11
805.9269600685558
 21
649.4578935328835
 31
0
  0
LINE
  8
1
 62
2
 10
806.7047378463334
 20
649.4578935328835
 30
0
 11
806.3158489574446
 21
650.0203935328835
 31
0
  0
LINE
  8
1
 62
2
 10
802.0380711796669
 20
648.0516435328835
 30
0
 11
806.510293401889
 21
648.0516435328835
 31
0
  0
LINE
  8
1
 62
2
 10
740.7680133443281
 20
634.3760447117293
 30
0
 11
738.1430133443281
 21
634.3760447117293
 31
0
  0
LINE
  8
1
 62
2
 10
741.2930133443282
 20
634.6010447117292
 30
0
 11
740.7680133443281
 21
634.3760447117293
 31
0
  0
LINE
  8
1
 62
2
 10
741.8180133443283
 20
635.0510447117292
 30
0
 11
741.2930133443282
 21
634.6010447117292
 31
0
  0
LINE
  8
1
 62
2
 10
742.1680133443281
 20
635.7260447117292
 30
0
 11
741.8180133443283
 21
635.0510447117292
 31
0
  0
LINE
  8
1
 62
2
 10
742.3430133443281
 20
636.6260447117293
 30
0
 11
742.1680133443281
 21
635.7260447117292
 31
0
  0
LINE
  8
1
 62
2
 10
742.3430133443281
 20
637.7510447117293
 30
0
 11
742.3430133443281
 21
636.6260447117293
 31
0
  0
LINE
  8
1
 62
2
 10
742.1680133443281
 20
638.6510447117292
 30
0
 11
742.3430133443281
 21
637.7510447117293
 31
0
  0
LINE
  8
1
 62
2
 10
741.9930133443282
 20
639.1010447117292
 30
0
 11
742.1680133443281
 21
638.6510447117292
 31
0
  0
LINE
  8
1
 62
2
 10
741.6430133443282
 20
639.5510447117292
 30
0
 11
741.9930133443282
 21
639.1010447117292
 31
0
  0
LINE
  8
1
 62
2
 10
740.9430133443282
 20
639.7760447117292
 30
0
 11
741.6430133443282
 21
639.5510447117292
 31
0
  0
LINE
  8
1
 62
2
 10
741.4680133443281
 20
640.0010447117293
 30
0
 11
740.9430133443282
 21
639.7760447117292
 31
0
  0
LINE
  8
1
 62
2
 10
741.8180133443283
 20
640.2260447117292
 30
0
 11
741.4680133443281
 21
640.0010447117293
 31
0
  0
LINE
  8
1
 62
2
 10
742.1680133443281
 20
640.6760447117292
 30
0
 11
741.8180133443283
 21
640.2260447117292
 31
0
  0
LINE
  8
1
 62
2
 10
742.3430133443281
 20
641.3510447117292
 30
0
 11
742.1680133443281
 21
640.6760447117292
 31
0
  0
LINE
  8
1
 62
2
 10
742.3430133443281
 20
642.0260447117292
 30
0
 11
742.3430133443281
 21
641.3510447117292
 31
0
  0
LINE
  8
1
 62
2
 10
742.1680133443281
 20
642.7010447117292
 30
0
 11
742.3430133443281
 21
642.0260447117292
 31
0
  0
LINE
  8
1
 62
2
 10
741.6430133443282
 20
643.1510447117292
 30
0
 11
742.1680133443281
 21
642.7010447117292
 31
0
  0
LINE
  8
1
 62
2
 10
740.7680133443281
 20
643.3760447117293
 30
0
 11
741.6430133443282
 21
643.1510447117292
 31
0
  0
LINE
  8
1
 62
2
 10
738.1430133443281
 20
643.3760447117293
 30
0
 11
740.7680133443281
 21
643.3760447117293
 31
0
  0
LINE
  8
1
 62
2
 10
739.1930133443283
 20
639.7760447117292
 30
0
 11
740.9430133443282
 21
639.7760447117292
 31
0
  0
LINE
  8
1
 62
2
 10
735.8680133443282
 20
641.5760447117292
 30
0
 11
736.0430133443282
 21
640.6760447117292
 31
0
  0
LINE
  8
1
 62
2
 10
735.5180133443281
 20
642.2510447117293
 30
0
 11
735.8680133443282
 21
641.5760447117292
 31
0
  0
LINE
  8
1
 62
2
 10
735.1680133443282
 20
642.7010447117292
 30
0
 11
735.5180133443281
 21
642.2510447117293
 31
0
  0
LINE
  8
1
 62
2
 10
734.6430133443283
 20
643.1510447117292
 30
0
 11
735.1680133443282
 21
642.7010447117292
 31
0
  0
LINE
  8
1
 62
2
 10
733.9430133443283
 20
643.3760447117293
 30
0
 11
734.6430133443283
 21
643.1510447117292
 31
0
  0
LINE
  8
1
 62
2
 10
731.1430133443282
 20
643.3760447117293
 30
0
 11
733.9430133443283
 21
643.3760447117293
 31
0
  0
LINE
  8
1
 62
2
 10
731.1430133443282
 20
634.3760447117293
 30
0
 11
731.1430133443282
 21
643.3760447117293
 31
0
  0
LINE
  8
1
 62
2
 10
733.9430133443283
 20
634.3760447117293
 30
0
 11
731.1430133443282
 21
634.3760447117293
 31
0
  0
LINE
  8
1
 62
2
 10
734.6430133443283
 20
634.6010447117292
 30
0
 11
733.9430133443283
 21
634.3760447117293
 31
0
  0
LINE
  8
1
 62
2
 10
735.1680133443282
 20
635.0510447117292
 30
0
 11
734.6430133443283
 21
634.6010447117292
 31
0
  0
LINE
  8
1
 62
2
 10
735.5180133443281
 20
635.5010447117293
 30
0
 11
735.1680133443282
 21
635.0510447117292
 31
0
  0
LINE
  8
1
 62
2
 10
735.8680133443282
 20
636.1760447117292
 30
0
 11
735.5180133443281
 21
635.5010447117293
 31
0
  0
LINE
  8
1
 62
2
 10
736.0430133443282
 20
637.0760447117292
 30
0
 11
735.8680133443282
 21
636.1760447117292
 31
0
  0
LINE
  8
1
 62
2
 10
736.0430133443282
 20
640.6760447117292
 30
0
 11
736.0430133443282
 21
637.0760447117292
 31
0
  0
LINE
  8
1
 62
2
 10
685.5880152367755
 20
634.3760447117293
 30
0
 11
689.7880152367753
 21
634.3760447117293
 31
0
  0
LINE
  8
1
 62
2
 10
689.4380152367755
 20
640.2260447117292
 30
0
 11
685.5880152367755
 21
634.3760447117293
 31
0
  0
LINE
  8
1
 62
2
 10
689.7880152367753
 20
641.1260447117293
 30
0
 11
689.4380152367755
 21
640.2260447117292
 31
0
  0
LINE
  8
1
 62
2
 10
689.7880152367753
 20
642.0260447117292
 30
0
 11
689.7880152367753
 21
641.1260447117293
 31
0
  0
LINE
  8
1
 62
2
 10
689.4380152367755
 20
642.7010447117292
 30
0
 11
689.7880152367753
 21
642.0260447117292
 31
0
  0
LINE
  8
1
 62
2
 10
688.9130152367756
 20
643.1510447117292
 30
0
 11
689.4380152367755
 21
642.7010447117292
 31
0
  0
LINE
  8
1
 62
2
 10
688.2130152367755
 20
643.3760447117293
 30
0
 11
688.9130152367756
 21
643.1510447117292
 31
0
  0
LINE
  8
1
 62
2
 10
687.1630152367753
 20
643.3760447117293
 30
0
 11
688.2130152367755
 21
643.3760447117293
 31
0
  0
LINE
  8
1
 62
2
 10
686.4630152367755
 20
643.1510447117292
 30
0
 11
687.1630152367753
 21
643.3760447117293
 31
0
  0
LINE
  8
1
 62
2
 10
685.9380152367754
 20
642.7010447117292
 30
0
 11
686.4630152367755
 21
643.1510447117292
 31
0
  0
LINE
  8
1
 62
2
 10
685.5880152367755
 20
642.0260447117292
 30
0
 11
685.9380152367754
 21
642.7010447117292
 31
0
  0
LINE
  8
1
 62
2
 10
683.3130152367754
 20
641.5760447117292
 30
0
 11
683.4880152367755
 21
640.6760447117292
 31
0
  0
LINE
  8
1
 62
2
 10
682.9630152367755
 20
642.2510447117293
 30
0
 11
683.3130152367754
 21
641.5760447117292
 31
0
  0
LINE
  8
1
 62
2
 10
682.6130152367754
 20
642.7010447117292
 30
0
 11
682.9630152367755
 21
642.2510447117293
 31
0
  0
LINE
  8
1
 62
2
 10
682.0880152367755
 20
643.1510447117292
 30
0
 11
682.6130152367754
 21
642.7010447117292
 31
0
  0
LINE
  8
1
 62
2
 10
681.3880152367755
 20
643.3760447117293
 30
0
 11
682.0880152367755
 21
643.1510447117292
 31
0
  0
LINE
  8
1
 62
2
 10
678.5880152367755
 20
643.3760447117293
 30
0
 11
681.3880152367755
 21
643.3760447117293
 31
0
  0
LINE
  8
1
 62
2
 10
678.5880152367755
 20
634.3760447117293
 30
0
 11
678.5880152367755
 21
643.3760447117293
 31
0
  0
LINE
  8
1
 62
2
 10
681.3880152367755
 20
634.3760447117293
 30
0
 11
678.5880152367755
 21
634.3760447117293
 31
0
  0
LINE
  8
1
 62
2
 10
682.0880152367755
 20
634.6010447117292
 30
0
 11
681.3880152367755
 21
634.3760447117293
 31
0
  0
LINE
  8
1
 62
2
 10
682.6130152367754
 20
635.0510447117292
 30
0
 11
682.0880152367755
 21
634.6010447117292
 31
0
  0
LINE
  8
1
 62
2
 10
682.9630152367755
 20
635.5010447117293
 30
0
 11
682.6130152367754
 21
635.0510447117292
 31
0
  0
LINE
  8
1
 62
2
 10
683.3130152367754
 20
636.1760447117292
 30
0
 11
682.9630152367755
 21
635.5010447117293
 31
0
  0
LINE
  8
1
 62
2
 10
683.4880152367755
 20
637.0760447117292
 30
0
 11
683.3130152367754
 21
636.1760447117292
 31
0
  0
LINE
  8
1
 62
2
 10
683.4880152367755
 20
640.6760447117292
 30
0
 11
683.4880152367755
 21
637.0760447117292
 31
0
  0
LINE
  8
1
 62
2
 10
635.1330171292227
 20
643.3760447117293
 30
0
 11
635.1330171292227
 21
634.3760447117293
 31
0
  0
LINE
  8
1
 62
2
 10
633.0330171292227
 20
640.6760447117292
 30
0
 11
635.1330171292227
 21
643.3760447117293
 31
0
  0
LINE
  8
1
 62
2
 10
630.7580171292228
 20
641.5760447117292
 30
0
 11
630.9330171292228
 21
640.6760447117292
 31
0
  0
LINE
  8
1
 62
2
 10
630.4080171292227
 20
642.2510447117293
 30
0
 11
630.7580171292228
 21
641.5760447117292
 31
0
  0
LINE
  8
1
 62
2
 10
630.0580171292228
 20
642.7010447117292
 30
0
 11
630.4080171292227
 21
642.2510447117293
 31
0
  0
LINE
  8
1
 62
2
 10
629.5330171292229
 20
643.1510447117292
 30
0
 11
630.0580171292228
 21
642.7010447117292
 31
0
  0
LINE
  8
1
 62
2
 10
628.8330171292229
 20
643.3760447117293
 30
0
 11
629.5330171292229
 21
643.1510447117292
 31
0
  0
LINE
  8
1
 62
2
 10
626.0330171292228
 20
643.3760447117293
 30
0
 11
628.8330171292229
 21
643.3760447117293
 31
0
  0
LINE
  8
1
 62
2
 10
626.0330171292228
 20
634.3760447117293
 30
0
 11
626.0330171292228
 21
643.3760447117293
 31
0
  0
LINE
  8
1
 62
2
 10
628.8330171292229
 20
634.3760447117293
 30
0
 11
626.0330171292228
 21
634.3760447117293
 31
0
  0
LINE
  8
1
 62
2
 10
629.5330171292229
 20
634.6010447117292
 30
0
 11
628.8330171292229
 21
634.3760447117293
 31
0
  0
LINE
  8
1
 62
2
 10
630.0580171292228
 20
635.0510447117292
 30
0
 11
629.5330171292229
 21
634.6010447117292
 31
0
  0
LINE
  8
1
 62
2
 10
630.4080171292227
 20
635.5010447117293
 30
0
 11
630.0580171292228
 21
635.0510447117292
 31
0
  0
LINE
  8
1
 62
2
 10
630.7580171292228
 20
636.1760447117292
 30
0
 11
630.4080171292227
 21
635.5010447117293
 31
0
  0
LINE
  8
1
 62
2
 10
630.9330171292228
 20
637.0760447117292
 30
0
 11
630.7580171292228
 21
636.1760447117292
 31
0
  0
LINE
  8
1
 62
2
 10
630.9330171292228
 20
640.6760447117292
 30
0
 11
630.9330171292228
 21
637.0760447117292
 31
0
  0
LINE
  8
1
 62
2
 10
405.9562362953665
 20
156.5722770404424
 30
0
 11
405.2562362953663
 21
154.7722770404424
 31
0
  0
LINE
  8
1
 62
2
 10
406.3062362953665
 20
158.3722770404424
 30
0
 11
405.9562362953665
 21
156.5722770404424
 31
0
  0
LINE
  8
1
 62
2
 10
406.3062362953665
 20
160.1722770404423
 30
0
 11
406.3062362953665
 21
158.3722770404424
 31
0
  0
LINE
  8
1
 62
2
 10
405.9562362953665
 20
161.9722770404424
 30
0
 11
406.3062362953665
 21
160.1722770404423
 31
0
  0
LINE
  8
1
 62
2
 10
405.2562362953663
 20
163.7722770404424
 30
0
 11
405.9562362953665
 21
161.9722770404424
 31
0
  0
LINE
  8
1
 62
2
 10
402.9812362953664
 20
161.9722770404424
 30
0
 11
403.1562362953664
 21
161.0722770404424
 31
0
  0
LINE
  8
1
 62
2
 10
402.6312362953663
 20
162.6472770404424
 30
0
 11
402.9812362953664
 21
161.9722770404424
 31
0
  0
LINE
  8
1
 62
2
 10
402.2812362953665
 20
163.0972770404424
 30
0
 11
402.6312362953663
 21
162.6472770404424
 31
0
  0
LINE
  8
1
 62
2
 10
401.7562362953663
 20
163.5472770404423
 30
0
 11
402.2812362953665
 21
163.0972770404424
 31
0
  0
LINE
  8
1
 62
2
 10
401.0562362953665
 20
163.7722770404424
 30
0
 11
401.7562362953663
 21
163.5472770404423
 31
0
  0
LINE
  8
1
 62
2
 10
398.2562362953663
 20
163.7722770404424
 30
0
 11
401.0562362953665
 21
163.7722770404424
 31
0
  0
LINE
  8
1
 62
2
 10
398.2562362953663
 20
154.7722770404424
 30
0
 11
398.2562362953663
 21
163.7722770404424
 31
0
  0
LINE
  8
1
 62
2
 10
401.0562362953665
 20
154.7722770404424
 30
0
 11
398.2562362953663
 21
154.7722770404424
 31
0
  0
LINE
  8
1
 62
2
 10
401.7562362953663
 20
154.9972770404424
 30
0
 11
401.0562362953665
 21
154.7722770404424
 31
0
  0
LINE
  8
1
 62
2
 10
402.2812362953665
 20
155.4472770404424
 30
0
 11
401.7562362953663
 21
154.9972770404424
 31
0
  0
LINE
  8
1
 62
2
 10
402.6312362953663
 20
155.8972770404424
 30
0
 11
402.2812362953665
 21
155.4472770404424
 31
0
  0
LINE
  8
1
 62
2
 10
402.9812362953664
 20
156.5722770404424
 30
0
 11
402.6312362953663
 21
155.8972770404424
 31
0
  0
LINE
  8
1
 62
2
 10
403.1562362953664
 20
157.4722770404424
 30
0
 11
402.9812362953664
 21
156.5722770404424
 31
0
  0
LINE
  8
1
 62
2
 10
403.1562362953664
 20
161.0722770404424
 30
0
 11
403.1562362953664
 21
157.4722770404424
 31
0
  0
LINE
  8
1
 62
2
 10
394.3673474064775
 20
155.6160270404424
 30
0
 11
394.7562362953663
 21
154.7722770404424
 31
0
  0
LINE
  8
1
 62
2
 10
393.9784585175887
 20
157.0222770404424
 30
0
 11
394.3673474064775
 21
155.6160270404424
 31
0
  0
LINE
  8
1
 62
2
 10
393.9784585175887
 20
161.5222770404424
 30
0
 11
393.9784585175887
 21
157.0222770404424
 31
0
  0
LINE
  8
1
 62
2
 10
394.3673474064775
 20
162.9285270404424
 30
0
 11
393.9784585175887
 21
161.5222770404424
 31
0
  0
LINE
  8
1
 62
2
 10
394.7562362953663
 20
163.7722770404424
 30
0
 11
394.3673474064775
 21
162.9285270404424
 31
0
  0
LINE
  8
1
 62
2
 10
386.5895696286998
 20
159.8347770404424
 30
0
 11
390.0895696286998
 21
159.8347770404424
 31
0
  0
LINE
  8
1
 62
2
 10
387.5617918509221
 20
154.7722770404424
 30
0
 11
386.7840140731444
 21
155.3347770404424
 31
0
  0
LINE
  8
1
 62
2
 10
387.9506807398109
 20
155.0535270404424
 30
0
 11
387.5617918509221
 21
154.7722770404424
 31
0
  0
LINE
  8
1
 62
2
 10
388.5340140731444
 20
156.4597770404424
 30
0
 11
387.9506807398109
 21
155.0535270404424
 31
0
  0
LINE
  8
1
 62
2
 10
388.9229029620332
 20
158.1472770404424
 30
0
 11
388.5340140731444
 21
156.4597770404424
 31
0
  0
LINE
  8
1
 62
2
 10
386.200680739811
 20
158.1472770404424
 30
0
 11
388.9229029620332
 21
158.1472770404424
 31
0
  0
LINE
  8
1
 62
2
 10
386.5895696286998
 20
159.8347770404424
 30
0
 11
386.0062362953665
 21
157.0222770404424
 31
0
  0
LINE
  8
1
 62
2
 10
384.4506807398109
 20
159.8347770404424
 30
0
 11
386.5895696286998
 21
159.8347770404424
 31
0
  0
LINE
  8
1
 62
2
 10
388.9229029620332
 20
163.2097770404424
 30
0
 11
385.811791850922
 21
163.2097770404424
 31
0
  0
LINE
  8
1
 62
2
 10
388.9229029620332
 20
161.2410270404424
 30
0
 11
388.9229029620332
 21
163.2097770404424
 31
0
  0
LINE
  8
1
 62
2
 10
385.811791850922
 20
161.2410270404424
 30
0
 11
388.9229029620332
 21
161.2410270404424
 31
0
  0
LINE
  8
1
 62
2
 10
385.811791850922
 20
163.2097770404424
 30
0
 11
385.811791850922
 21
161.2410270404424
 31
0
  0
LINE
  8
1
 62
2
 10
383.0895696286998
 20
155.3347770404424
 30
0
 11
383.0895696286998
 21
156.1785270404424
 31
0
  0
LINE
  8
1
 62
2
 10
381.1451251842555
 20
155.3347770404424
 30
0
 11
383.0895696286998
 21
155.3347770404424
 31
0
  0
LINE
  8
1
 62
2
 10
380.3673474064776
 20
155.3347770404424
 30
0
 11
381.1451251842555
 21
155.3347770404424
 31
0
  0
LINE
  8
1
 62
2
 10
380.3673474064776
 20
159.5535270404424
 30
0
 11
380.3673474064776
 21
155.3347770404424
 31
0
  0
LINE
  8
1
 62
2
 10
382.5062362953665
 20
159.5535270404424
 30
0
 11
380.3673474064776
 21
159.5535270404424
 31
0
  0
LINE
  8
1
 62
2
 10
382.5062362953665
 20
162.3660270404424
 30
0
 11
382.5062362953665
 21
159.5535270404424
 31
0
  0
LINE
  8
1
 62
2
 10
380.3673474064776
 20
162.3660270404424
 30
0
 11
382.5062362953665
 21
162.3660270404424
 31
0
  0
LINE
  8
1
 62
2
 10
377.450680739811
 20
162.6472770404424
 30
0
 11
379.200680739811
 21
162.6472770404424
 31
0
  0
LINE
  8
1
 62
2
 10
377.2562362953665
 20
161.2410270404424
 30
0
 11
379.7840140731444
 21
161.2410270404424
 31
0
  0
LINE
  8
1
 62
2
 10
379.200680739811
 20
160.1160270404424
 30
0
 11
377.6451251842555
 21
160.1160270404424
 31
0
  0
LINE
  8
1
 62
2
 10
377.6451251842555
 20
158.7097770404424
 30
0
 11
379.200680739811
 21
158.7097770404424
 31
0
  0
LINE
  8
1
 62
2
 10
379.200680739811
 20
155.3347770404424
 30
0
 11
377.6451251842555
 21
155.3347770404424
 31
0
  0
LINE
  8
1
 62
2
 10
379.200680739811
 20
157.5847770404424
 30
0
 11
379.200680739811
 21
155.3347770404424
 31
0
  0
LINE
  8
1
 62
2
 10
377.6451251842555
 20
157.5847770404424
 30
0
 11
379.200680739811
 21
157.5847770404424
 31
0
  0
LINE
  8
1
 62
2
 10
377.6451251842555
 20
155.3347770404424
 30
0
 11
377.6451251842555
 21
157.5847770404424
 31
0
  0
LINE
  8
1
 62
2
 10
371.8117918509221
 20
160.3972770404424
 30
0
 11
371.8117918509221
 21
155.0535270404424
 31
0
  0
LINE
  8
1
 62
2
 10
375.3117918509221
 20
163.7722770404424
 30
0
 11
375.3117918509221
 21
154.7722770404424
 31
0
  0
LINE
  8
1
 62
2
 10
374.3395696286999
 20
162.0847770404424
 30
0
 11
373.7562362953663
 21
163.2097770404424
 31
0
  0
LINE
  8
1
 62
2
 10
374.3395696286999
 20
159.8347770404424
 30
0
 11
373.7562362953663
 21
160.9597770404424
 31
0
  0
LINE
  8
1
 62
2
 10
373.1729029620332
 20
157.8660270404424
 30
0
 11
376.4784585175887
 21
158.7097770404424
 31
0
  0
LINE
  8
1
 62
2
 10
372.3951251842555
 20
159.2722770404424
 30
0
 11
372.7840140731444
 21
158.1472770404424
 31
0
  0
LINE
  8
1
 62
2
 10
371.8117918509221
 20
163.4910270404424
 30
0
 11
371.8117918509221
 21
160.3972770404424
 31
0
  0
LINE
  8
1
 62
2
 10
372.3951251842555
 20
161.8035270404424
 30
0
 11
372.7840140731444
 21
162.9285270404424
 31
0
  0
LINE
  8
1
 62
2
 10
370.6451251842555
 20
162.6472770404424
 30
0
 11
371.2284585175887
 21
161.5222770404424
 31
0
  0
LINE
  8
1
 62
2
 10
373.1729029620332
 20
160.3972770404424
 30
0
 11
370.450680739811
 21
160.3972770404424
 31
0
  0
LINE
  8
1
 62
2
 10
371.0340140731444
 20
157.8660270404424
 30
0
 11
371.8117918509221
 21
160.3972770404424
 31
0
  0
LINE
  8
1
 62
2
 10
370.450680739811
 20
156.4597770404424
 30
0
 11
371.0340140731444
 21
157.8660270404424
 31
0
  0
LINE
  8
1
 62
2
 10
368.3117918509221
 20
155.3347770404424
 30
0
 11
367.7284585175887
 21
155.3347770404424
 31
0
  0
LINE
  8
1
 62
2
 10
368.1173474064776
 20
163.4910270404424
 30
0
 11
368.3117918509221
 21
155.3347770404424
 31
0
  0
LINE
  8
1
 62
2
 10
369.2840140731444
 20
160.9597770404424
 30
0
 11
366.3673474064776
 21
160.9597770404424
 31
0
  0
LINE
  8
1
 62
2
 10
367.1451251842555
 20
158.1472770404424
 30
0
 11
368.1173474064776
 21
160.6785270404424
 31
0
  0
LINE
  8
1
 62
2
 10
365.9784585175887
 20
156.4597770404424
 30
0
 11
367.1451251842555
 21
158.1472770404424
 31
0
  0
LINE
  8
1
 62
2
 10
364.811791850922
 20
160.9597770404424
 30
0
 11
365.7840140731444
 21
158.9910270404424
 31
0
  0
LINE
  8
1
 62
2
 10
364.2284585175887
 20
159.2722770404424
 30
0
 11
364.811791850922
 21
160.9597770404424
 31
0
  0
LINE
  8
1
 62
2
 10
363.4506807398109
 20
157.5847770404424
 30
0
 11
364.2284585175887
 21
159.2722770404424
 31
0
  0
LINE
  8
1
 62
2
 10
365.7840140731444
 20
161.2410270404424
 30
0
 11
363.6451251842555
 21
161.2410270404424
 31
0
  0
LINE
  8
1
 62
2
 10
364.811791850922
 20
154.7722770404424
 30
0
 11
364.811791850922
 21
163.7722770404424
 31
0
  0
LINE
  8
1
 62
2
 10
361.8951251842555
 20
162.3660270404424
 30
0
 11
362.4784585175887
 21
161.5222770404424
 31
0
  0
LINE
  8
1
 62
2
 10
361.3117918509221
 20
161.8035270404424
 30
0
 11
361.8951251842555
 21
160.9597770404424
 31
0
  0
LINE
  8
1
 62
2
 10
360.5340140731444
 20
159.5535270404424
 30
0
 11
361.3117918509221
 21
157.3035270404424
 31
0
  0
LINE
  8
1
 62
2
 10
360.3395696286999
 20
161.5222770404424
 30
0
 11
360.5340140731444
 21
159.5535270404424
 31
0
  0
LINE
  8
1
 62
2
 10
360.3395696286999
 20
159.8347770404424
 30
0
 11
360.3395696286999
 21
161.5222770404424
 31
0
  0
LINE
  8
1
 62
2
 10
360.1451251842555
 20
158.1472770404424
 30
0
 11
360.3395696286999
 21
159.8347770404424
 31
0
  0
LINE
  8
1
 62
2
 10
359.5617918509221
 20
156.4597770404424
 30
0
 11
360.1451251842555
 21
158.1472770404424
 31
0
  0
LINE
  8
1
 62
2
 10
358.7840140731444
 20
155.6160270404424
 30
0
 11
359.5617918509221
 21
156.4597770404424
 31
0
  0
LINE
  8
1
 62
2
 10
358.0062362953665
 20
155.3347770404424
 30
0
 11
358.7840140731444
 21
155.6160270404424
 31
0
  0
LINE
  8
1
 62
2
 10
357.2284585175887
 20
155.6160270404424
 30
0
 11
358.0062362953665
 21
155.3347770404424
 31
0
  0
LINE
  8
1
 62
2
 10
356.8395696286999
 20
156.4597770404424
 30
0
 11
357.2284585175887
 21
155.6160270404424
 31
0
  0
LINE
  8
1
 62
2
 10
356.8395696286999
 20
157.5847770404424
 30
0
 11
356.8395696286999
 21
156.4597770404424
 31
0
  0
LINE
  8
1
 62
2
 10
357.2284585175887
 20
158.9910270404424
 30
0
 11
356.8395696286999
 21
157.5847770404424
 31
0
  0
LINE
  8
1
 62
2
 10
357.8117918509221
 20
160.1160270404424
 30
0
 11
357.2284585175887
 21
158.9910270404424
 31
0
  0
LINE
  8
1
 62
2
 10
358.5895696286999
 20
161.2410270404424
 30
0
 11
357.8117918509221
 21
160.1160270404424
 31
0
  0
LINE
  8
1
 62
2
 10
357.8117918509221
 20
160.9597770404424
 30
0
 11
358.5895696286999
 21
161.2410270404424
 31
0
  0
LINE
  8
1
 62
2
 10
356.8395696286999
 20
160.6785270404424
 30
0
 11
357.8117918509221
 21
160.9597770404424
 31
0
  0
LINE
  8
1
 62
2
 10
352.5617918509221
 20
160.6785270404424
 30
0
 11
352.5617918509221
 21
156.7410270404424
 31
0
  0
LINE
  8
1
 62
2
 10
352.5617918509221
 20
156.7410270404424
 30
0
 11
352.9506807398109
 21
156.4597770404424
 31
0
  0
LINE
  8
1
 62
2
 10
352.9506807398109
 20
156.4597770404424
 30
0
 11
353.9229029620332
 21
155.6160270404424
 31
0
  0
LINE
  8
1
 62
2
 10
351.7840140731444
 20
157.3035270404424
 30
0
 11
352.5617918509221
 21
156.7410270404424
 31
0
  0
LINE
  8
1
 62
2
 10
351.0062362953665
 20
157.0222770404424
 30
0
 11
351.7840140731444
 21
157.3035270404424
 31
0
  0
LINE
  8
1
 62
2
 10
350.6173474064776
 20
156.4597770404424
 30
0
 11
351.0062362953665
 21
157.0222770404424
 31
0
  0
LINE
  8
1
 62
2
 10
350.6173474064776
 20
155.8972770404424
 30
0
 11
350.6173474064776
 21
156.4597770404424
 31
0
  0
LINE
  8
1
 62
2
 10
351.3951251842555
 20
155.3347770404424
 30
0
 11
350.6173474064776
 21
155.8972770404424
 31
0
  0
LINE
  8
1
 62
2
 10
352.1729029620332
 20
155.6160270404424
 30
0
 11
351.3951251842555
 21
155.3347770404424
 31
0
  0
LINE
  8
1
 62
2
 10
352.5617918509221
 20
156.7410270404424
 30
0
 11
352.1729029620332
 21
155.6160270404424
 31
0
  0
LINE
  8
1
 62
2
 10
352.5617918509221
 20
162.9285270404424
 30
0
 11
352.5617918509221
 21
160.6785270404424
 31
0
  0
LINE
  8
1
 62
2
 10
352.5617918509221
 20
160.6785270404424
 30
0
 11
353.9229029620332
 21
160.9597770404424
 31
0
  0
LINE
  8
1
 62
2
 10
347.700680739811
 20
160.1160270404424
 30
0
 11
348.2840140731444
 21
158.9910270404424
 31
0
  0
LINE
  8
1
 62
2
 10
347.1173474064779
 20
160.6785270404424
 30
0
 11
347.700680739811
 21
160.1160270404424
 31
0
  0
LINE
  8
1
 62
2
 10
347.1173474064779
 20
156.4597770404424
 30
0
 11
346.1451251842555
 21
156.1785270404424
 31
0
  0
LINE
  8
1
 62
2
 10
347.5062362953665
 20
157.3035270404424
 30
0
 11
347.1173474064779
 21
156.4597770404424
 31
0
  0
LINE
  8
1
 62
2
 10
347.3117918509221
 20
158.1472770404424
 30
0
 11
347.5062362953665
 21
157.3035270404424
 31
0
  0
LINE
  8
1
 62
2
 10
346.5340140731444
 20
158.7097770404424
 30
0
 11
347.3117918509221
 21
158.1472770404424
 31
0
  0
LINE
  8
1
 62
2
 10
345.5617918509221
 20
158.4285270404424
 30
0
 11
346.5340140731444
 21
158.7097770404424
 31
0
  0
LINE
  8
1
 62
2
 10
343.2284585175887
 20
156.4597770404424
 30
0
 11
345.5617918509221
 21
158.4285270404424
 31
0
  0
LINE
  8
1
 62
2
 10
344.7840140731444
 20
155.8972770404424
 30
0
 11
343.2284585175887
 21
156.4597770404424
 31
0
  0
LINE
  8
1
 62
2
 10
344.5895696286999
 20
158.9910270404424
 30
0
 11
344.7840140731444
 21
155.8972770404424
 31
0
  0
LINE
  8
1
 62
2
 10
344.5895696286999
 20
160.6785270404424
 30
0
 11
344.5895696286999
 21
158.9910270404424
 31
0
  0
LINE
  8
1
 62
2
 10
344.9784585175887
 20
162.6472770404424
 30
0
 11
344.5895696286999
 21
160.6785270404424
 31
0
  0
LINE
  8
1
 62
2
 10
344.200680739811
 20
160.1160270404424
 30
0
 11
345.5617918509221
 21
160.6785270404424
 31
0
  0
LINE
  8
1
 62
2
 10
343.4229029620332
 20
159.8347770404424
 30
0
 11
344.200680739811
 21
160.1160270404424
 31
0
  0
LINE
  8
1
 62
2
 10
338.3673474064776
 20
162.3660270404424
 30
0
 11
340.5062362953665
 21
162.3660270404424
 31
0
  0
LINE
  8
1
 62
2
 10
336.4229029620332
 20
157.8660270404424
 30
0
 11
341.4784585175887
 21
157.8660270404424
 31
0
  0
LINE
  8
1
 62
2
 10
335.2562362953665
 20
157.8660270404424
 30
0
 11
336.4229029620332
 21
157.8660270404424
 31
0
  0
LINE
  8
1
 62
2
 10
336.4229029620332
 20
159.8347770404424
 30
0
 11
336.4229029620332
 21
157.8660270404424
 31
0
  0
LINE
  8
1
 62
2
 10
336.4229029620332
 20
160.1160270404424
 30
0
 11
340.3117918509221
 21
160.1160270404424
 31
0
  0
LINE
  8
1
 62
2
 10
338.3673474064776
 20
162.3660270404424
 30
0
 11
338.3673474064776
 21
154.7722770404424
 31
0
  0
LINE
  8
1
 62
2
 10
336.6173474064776
 20
162.3660270404424
 30
0
 11
338.3673474064776
 21
162.3660270404424
 31
0
  0
LINE
  8
1
 62
2
 10
336.2284585175887
 20
161.8035270404424
 30
0
 11
335.6451251842555
 21
160.9597770404424
 31
0
  0
LINE
  8
1
 62
2
 10
336.8117918509221
 20
162.9285270404424
 30
0
 11
336.2284585175887
 21
161.8035270404424
 31
0
  0
LINE
  8
1
 62
2
 10
337.200680739811
 20
163.7722770404424
 30
0
 11
336.8117918509221
 21
162.9285270404424
 31
0
  0
LINE
  8
1
 62
2
 10
332.1451251842556
 20
160.1160270404424
 30
0
 11
330.3951251842555
 21
160.1160270404424
 31
0
  0
LINE
  8
1
 62
2
 10
328.6451251842555
 20
159.8347770404424
 30
0
 11
328.450680739811
 21
159.8347770404424
 31
0
  0
LINE
  8
1
 62
2
 10
328.6451251842555
 20
155.6160270404424
 30
0
 11
328.450680739811
 21
155.3347770404424
 31
0
  0
LINE
  8
1
 62
2
 10
329.6173474064779
 20
162.3660270404424
 30
0
 11
329.0340140731444
 21
163.4910270404424
 31
0
  0
LINE
  8
1
 62
2
 10
330.7840140731444
 20
162.0847770404424
 30
0
 11
330.3951251842555
 21
161.2410270404424
 31
0
  0
LINE
  8
1
 62
2
 10
331.1729029620333
 20
163.4910270404424
 30
0
 11
330.7840140731444
 21
162.0847770404424
 31
0
  0
LINE
  8
1
 62
2
 10
333.700680739811
 20
162.0847770404424
 30
0
 11
330.7840140731444
 21
162.0847770404424
 31
0
  0
LINE
  8
1
 62
2
 10
332.1451251842556
 20
160.1160270404424
 30
0
 11
332.1451251842556
 21
163.7722770404424
 31
0
  0
LINE
  8
1
 62
2
 10
334.0895696286999
 20
160.1160270404424
 30
0
 11
332.1451251842556
 21
160.1160270404424
 31
0
  0
LINE
  8
1
 62
2
 10
331.1729029620333
 20
156.7410270404424
 30
0
 11
333.3117918509222
 21
156.7410270404424
 31
0
  0
LINE
  8
1
 62
2
 10
331.1729029620333
 20
158.9910270404424
 30
0
 11
331.1729029620333
 21
156.7410270404424
 31
0
  0
LINE
  8
1
 62
2
 10
333.3117918509222
 20
158.9910270404424
 30
0
 11
331.1729029620333
 21
158.9910270404424
 31
0
  0
LINE
  8
1
 62
2
 10
333.3117918509222
 20
156.7410270404424
 30
0
 11
333.3117918509222
 21
158.9910270404424
 31
0
  0
LINE
  8
1
 62
2
 10
330.3951251842555
 20
155.3347770404424
 30
0
 11
334.2840140731444
 21
155.3347770404424
 31
0
  0
LINE
  8
1
 62
2
 10
330.0062362953668
 20
155.6160270404424
 30
0
 11
330.3951251842555
 21
155.3347770404424
 31
0
  0
LINE
  8
1
 62
2
 10
329.6173474064779
 20
156.7410270404424
 30
0
 11
330.0062362953668
 21
155.6160270404424
 31
0
  0
LINE
  8
1
 62
2
 10
329.6173474064779
 20
159.8347770404424
 30
0
 11
328.6451251842555
 21
159.8347770404424
 31
0
  0
LINE
  8
1
 62
2
 10
329.6173474064779
 20
156.7410270404424
 30
0
 11
329.6173474064779
 21
159.8347770404424
 31
0
  0
LINE
  8
1
 62
2
 10
328.6451251842555
 20
155.6160270404424
 30
0
 11
329.6173474064779
 21
156.7410270404424
 31
0
  0
LINE
  8
1
 62
2
 10
322.8117918509221
 20
160.1160270404424
 30
0
 11
323.7840140731444
 21
160.1160270404424
 31
0
  0
LINE
  8
1
 62
2
 10
325.9229029620332
 20
155.8972770404424
 30
0
 11
325.5340140731444
 21
157.3035270404424
 31
0
  0
LINE
  8
1
 62
2
 10
326.700680739811
 20
154.7722770404424
 30
0
 11
325.9229029620332
 21
154.7722770404424
 31
0
  0
LINE
  8
1
 62
2
 10
326.700680739811
 20
159.2722770404424
 30
0
 11
326.700680739811
 21
154.7722770404424
 31
0
  0
LINE
  8
1
 62
2
 10
327.0895696286999
 20
160.9597770404424
 30
0
 11
324.3673474064779
 21
160.9597770404424
 31
0
  0
LINE
  8
1
 62
2
 10
324.1729029620333
 20
162.3660270404424
 30
0
 11
327.0895696286999
 21
162.3660270404424
 31
0
  0
LINE
  8
1
 62
2
 10
325.3395696286999
 20
159.8347770404424
 30
0
 11
325.5340140731444
 21
163.2097770404424
 31
0
  0
LINE
  8
1
 62
2
 10
324.7562362953665
 20
157.0222770404424
 30
0
 11
325.3395696286999
 21
159.8347770404424
 31
0
  0
LINE
  8
1
 62
2
 10
323.9784585175887
 20
155.3347770404424
 30
0
 11
324.7562362953665
 21
157.0222770404424
 31
0
  0
LINE
  8
1
 62
2
 10
327.4784585175887
 20
158.1472770404424
 30
0
 11
324.1729029620333
 21
158.1472770404424
 31
0
  0
LINE
  8
1
 62
2
 10
323.9784585175887
 20
159.8347770404424
 30
0
 11
327.4784585175887
 21
159.8347770404424
 31
0
  0
LINE
  8
1
 62
2
 10
322.8117918509221
 20
155.6160270404424
 30
0
 11
322.8117918509221
 21
160.1160270404424
 31
0
  0
LINE
  8
1
 62
2
 10
321.8395696286999
 20
157.8660270404424
 30
0
 11
322.2284585175887
 21
156.4597770404424
 31
0
  0
LINE
  8
1
 62
2
 10
322.0340140731444
 20
161.2410270404424
 30
0
 11
321.2562362953665
 21
159.2722770404424
 31
0
  0
LINE
  8
1
 62
2
 10
322.8117918509221
 20
163.2097770404424
 30
0
 11
322.0340140731444
 21
161.2410270404424
 31
0
  0
LINE
  8
1
 62
2
 10
323.9784585175887
 20
161.5222770404424
 30
0
 11
322.8117918509221
 21
163.2097770404424
 31
0
  0
LINE
  8
1
 62
2
 10
322.0340140731444
 20
160.1160270404424
 30
0
 11
322.8117918509221
 21
160.1160270404424
 31
0
  0
LINE
  8
1
 62
2
 10
323.7840140731444
 20
158.7097770404424
 30
0
 11
321.8395696286999
 21
158.7097770404424
 31
0
  0
LINE
  8
1
 62
2
 10
323.3951251842555
 20
156.4597770404424
 30
0
 11
323.5895696286999
 21
157.8660270404424
 31
0
  0
LINE
  8
1
 62
2
 10
321.6451251842555
 20
155.0535270404424
 30
0
 11
323.7840140731444
 21
156.1785270404424
 31
0
  0
LINE
  8
0
 62
2
 10
552.4380199183479
 20
607.7096756490996
 30
0
 11
873.3736851699611
 21
607.7096756490996
 31
0
  0
LINE
  8
0
 62
2
 10
552.4380199183479
 20
622.709676219069
 30
0
 11
873.3736851699611
 21
622.709676219069
 31
0
  0
LINE
  8
0
 62
2
 10
762.6580123485584
 20
638.8108738613777
 30
0
 11
873.3736851699611
 21
638.8108738613777
 31
0
  0
LINE
  8
0
 62
2
 10
815.2130104561107
 20
638.8108738613777
 30
0
 11
815.2130104561107
 21
592.7096750791302
 31
0
  0
LINE
  8
0
 62
2
 10
762.6580123485584
 20
654.16464795618
 30
0
 11
762.6580123485584
 21
592.7096750791302
 31
0
  0
LINE
  8
0
 62
2
 10
710.1030142410057
 20
654.16464795618
 30
0
 11
710.1030142410057
 21
592.7096750791302
 31
0
  0
LINE
  8
0
 62
2
 10
657.5480161334533
 20
654.16464795618
 30
0
 11
657.5480161334533
 21
592.7096750791302
 31
0
  0
LINE
  8
0
 62
2
 10
604.9930180259004
 20
654.16464795618
 30
0
 11
604.9930180259004
 21
592.7096750791302
 31
0
  0
LINE
  8
0
 62
2
 10
873.3736851699611
 20
654.16464795618
 30
0
 11
552.4380199183479
 21
654.16464795618
 31
0
  0
LINE
  8
0
 62
2
 10
873.3736851699611
 20
592.7096750791302
 30
0
 11
873.3736851699611
 21
654.16464795618
 31
0
  0
LINE
  8
0
 62
2
 10
552.4380199183479
 20
592.7096750791302
 30
0
 11
873.3736851699611
 21
592.7096750791302
 31
0
  0
LINE
  8
0
 62
2
 10
552.4380199183479
 20
654.16464795618
 30
0
 11
552.4380199183479
 21
592.7096750791302
 31
0
  0
LINE
  8
0
 62
7
 10
659.800662369641
 20
408.4232654704178
 30
0
 11
659.800662369641
 21
405.2177206210145
 31
0
  0
LINE
  8
0
 62
7
 10
710.6929672149918
 20
408.4232654704178
 30
0
 11
710.6929672149918
 21
405.4232654704147
 31
0
  0
LINE
  8
0
 62
7
 10
770.9083575244522
 20
408.4232654704178
 30
0
 11
770.9083575244522
 21
405.4232654704147
 31
0
  0
LINE
  8
0
 62
2
  6
DASHDOT
 10
670.2081696147516
 20
206.0265768431154
 30
0
 11
690.9036927498719
 21
227.5262958503369
 31
0
  0
LINE
  8
0
 62
2
  6
DASHDOT
 10
811.7529817744935
 20
206.4709460654158
 30
0
 11
790.6976319895721
 21
227.5262958503369
 31
0
  0
LINE
  8
0
 62
2
  6
DASHDOT
 10
811.3086125521922
 20
347.9312156526574
 30
0
 11
790.6976319895721
 21
327.3202350897366
 31
0
  0
LINE
  8
0
 62
2
  6
DASHDOT
 10
670.2081696147516
 20
348.0157582251573
 30
0
 11
690.9036927498719
 21
327.3202350897366
 31
0
  0
LINE
  8
0
 62
7
 10
821.8006623698029
 20
408.4232654704178
 30
0
 11
821.8006623698029
 21
405.1423130269145
 31
0
  0
LINE
  8
0
 62
7
 10
690.8006616246721
 20
373.4232663045828
 30
0
 11
676.8006593298578
 21
373.4232663045828
 31
0
  0
LINE
  8
0
 62
7
 10
804.8006654095861
 20
373.4232663045828
 30
0
 11
790.8006631147719
 21
373.4232663045828
 31
0
  0
LINE
  8
0
 62
7
 10
700.0490710449813
 20
378.4232689869877
 30
0
 11
700.0490710449813
 21
393.4232621323027
 31
0
  0
LINE
  8
0
 62
7
 10
781.5522536944627
 20
378.4232689869877
 30
0
 11
781.5522536944627
 21
393.4232621323027
 31
0
  0
LINE
  8
0
 62
7
 10
662.6277774882437
 20
408.4232627284178
 30
0
 11
659.8006621311415
 21
408.4232627284178
 31
0
  0
LINE
  8
0
 62
7
 10
821.8006626083025
 20
408.4232627284178
 30
0
 11
818.9735472512002
 21
408.4232627284178
 31
0
  0
LINE
  8
0
 62
7
 10
667.5135851214491
 20
408.4232627284178
 30
0
 11
662.6277774882437
 21
408.4232627284178
 31
0
  0
LINE
  8
0
 62
7
 10
818.9735472512002
 20
408.4232627284178
 30
0
 11
814.0877396179949
 21
408.4232627284178
 31
0
  0
LINE
  8
0
 62
7
 10
654.2103872013349
 20
403.4232674968127
 30
0
 11
654.2103872013349
 21
393.4232621323027
 31
0
  0
LINE
  8
0
 62
7
 10
661.5985095810429
 20
405.4232715499148
 30
0
 11
660.2810457657415
 21
405.3091137541146
 31
0
  0
LINE
  8
0
 62
7
 10
664.0747398447456
 20
403.4232674968127
 30
0
 11
654.2103872013349
 21
403.4232674968127
 31
0
  0
LINE
  8
0
 62
7
 10
827.390937538109
 20
403.4232674968127
 30
0
 11
827.390937538109
 21
393.4232621323027
 31
0
  0
LINE
  8
0
 62
7
 10
827.390937538109
 20
403.4232674968127
 30
0
 11
817.5265848946983
 21
403.4232674968127
 31
0
  0
LINE
  8
0
 62
7
 10
821.3202789737024
 20
405.3091137541146
 30
0
 11
820.0028151584011
 21
405.4232715499148
 31
0
  0
LINE
  8
0
 62
7
 10
682.820124955264
 20
403.4232674968127
 30
0
 11
664.0747398447456
 21
403.4232674968127
 31
0
  0
LINE
  8
0
 62
7
 10
817.5265848946983
 20
403.4232674968127
 30
0
 11
798.7811997844801
 21
403.4232674968127
 31
0
  0
LINE
  8
0
 62
7
 10
688.3006640088697
 20
408.4232627284178
 30
0
 11
667.5135851214491
 21
408.4232627284178
 31
0
  0
LINE
  8
0
 62
7
 10
814.0877396179949
 20
408.4232627284178
 30
0
 11
793.3006607305742
 21
408.4232627284178
 31
0
  0
LINE
  8
0
 62
7
 10
688.3006640088697
 20
403.4232674968127
 30
0
 11
682.820124955264
 21
403.4232674968127
 31
0
  0
LINE
  8
0
 62
7
 10
798.7811997844801
 20
403.4232674968127
 30
0
 11
793.3006607305742
 21
403.4232674968127
 31
0
  0
LINE
  8
0
 62
7
 10
717.9594025326996
 20
408.4232627284178
 30
0
 11
712.1065244388929
 21
408.4232627284178
 31
0
  0
LINE
  8
0
 62
7
 10
769.4948003005511
 20
408.4232627284178
 30
0
 11
763.6419222070444
 21
408.4232627284178
 31
0
  0
LINE
  8
0
 62
7
 10
763.6419222070444
 20
408.4232627284178
 30
0
 11
717.9594025326996
 21
408.4232627284178
 31
0
  0
LINE
  8
0
 62
7
 10
712.1065244388929
 20
408.4232627284178
 30
0
 11
710.6929667604918
 21
408.4232627284178
 31
0
  0
LINE
  8
0
 62
7
 10
770.9083579789522
 20
408.4232627284178
 30
0
 11
769.4948003005511
 21
408.4232627284178
 31
0
  0
LINE
  8
0
 62
7
 10
781.805294038063
 20
403.4232674968127
 30
0
 11
781.805294038063
 21
393.4232621323027
 31
0
  0
LINE
  8
0
 62
7
 10
781.805294038063
 20
403.4232674968127
 30
0
 11
699.7960307013809
 21
403.4232674968127
 31
0
  0
LINE
  8
0
 62
7
 10
699.7960307013809
 20
403.4232674968127
 30
0
 11
699.7960307013809
 21
393.4232621323027
 31
0
  0
LINE
  8
0
 62
7
 10
729.2370260071111
 20
434.0732722414433
 30
0
 11
729.2370260071111
 21
436.0732613932455
 31
0
  0
LINE
  8
0
 62
7
 10
752.3642987323337
 20
436.0732613932455
 30
0
 11
752.3642987323337
 21
434.0732722414433
 31
0
  0
LINE
  8
0
 62
7
 10
690.1484452497716
 20
184.8781212100942
 30
0
 11
690.8006616246721
 21
177.4232639797868
 31
0
  0
LINE
  8
0
 62
7
 10
774.4198538674555
 20
177.4232639797868
 30
0
 11
790.8006631147719
 21
177.4232639797868
 31
0
  0
LINE
  8
0
 62
7
 10
690.8006616246721
 20
177.4232639797868
 30
0
 11
707.1814708719885
 21
177.4232639797868
 31
0
  0
LINE
  8
0
 62
7
 10
791.4528794896723
 20
184.8781212100942
 30
0
 11
790.8006631147719
 21
177.4232639797868
 31
0
  0
LINE
  8
0
 62
7
 10
661.6833791445433
 20
378.4232689869877
 30
0
 11
647.8006601643292
 21
378.4232689869877
 31
0
  0
LINE
  8
0
 62
7
 10
819.9179455949015
 20
378.4232689869877
 30
0
 11
833.8006645751157
 21
378.4232689869877
 31
0
  0
LINE
  8
0
 62
7
 10
653.9341718268352
 20
337.4232641292468
 30
0
 11
653.814165324935
 21
337.0757168961465
 31
0
  0
LINE
  8
0
 62
7
 10
654.0236458491354
 20
337.4232641292468
 30
0
 11
653.9341718268352
 21
337.4232641292468
 31
0
  0
LINE
  8
0
 62
7
 10
827.5776788903086
 20
337.4232641292468
 30
0
 11
827.6671529126088
 21
337.4232641292468
 31
0
  0
LINE
  8
0
 62
7
 10
827.8456539227091
 20
336.9063018690462
 30
0
 11
827.6671529126088
 21
337.4232641292468
 31
0
  0
LINE
  8
0
 62
7
 10
657.2804138373385
 20
343.5528828633528
 30
0
 11
655.8765903423373
 21
339.7633797357492
 31
0
  0
LINE
  8
0
 62
7
 10
824.3209854080051
 20
343.5529126656529
 30
0
 11
825.9821892095069
 21
339.3900162411487
 31
0
  0
LINE
  8
0
 62
7
 10
688.3006640088697
 20
378.4232689869877
 30
0
 11
661.6833791445433
 21
378.4232689869877
 31
0
  0
LINE
  8
0
 62
7
 10
661.6833791445433
 20
378.4232689869877
 30
0
 11
661.6833791445433
 21
393.4232621323027
 31
0
  0
LINE
  8
0
 62
7
 10
793.3006607305742
 20
378.4232689869877
 30
0
 11
819.9179455949015
 21
378.4232689869877
 31
0
  0
LINE
  8
0
 62
7
 10
819.9179455949015
 20
378.4232689869877
 30
0
 11
819.9179455949015
 21
393.4232621323027
 31
0
  0
LINE
  8
0
 62
7
 10
804.6851441575864
 20
368.2229547630776
 30
0
 11
804.8006654095861
 21
368.8396989237783
 31
0
  0
LINE
  8
0
 62
7
 10
676.9161805818576
 20
368.2229547630776
 30
0
 11
676.8006593298578
 21
368.8396989237783
 31
0
  0
LINE
  8
0
 62
7
 10
700.0490710449813
 20
378.4232689869877
 30
0
 11
688.3006640088697
 21
378.4232689869877
 31
0
  0
LINE
  8
0
 62
7
 10
781.5522536944627
 20
378.4232689869877
 30
0
 11
793.3006607305742
 21
378.4232689869877
 31
0
  0
LINE
  8
0
 62
7
 10
710.3170607547918
 20
378.4232689869877
 30
0
 11
700.0490710449813
 21
378.4232689869877
 31
0
  0
LINE
  8
0
 62
7
 10
771.2842639846522
 20
378.4232689869877
 30
0
 11
781.5522536944627
 21
378.4232689869877
 31
0
  0
LINE
  8
0
 62
7
 10
740.800662369722
 20
382.9232632053924
 30
0
 11
740.800662369722
 21
393.4232621323027
 31
0
  0
LINE
  8
0
 62
7
 10
774.4198538674555
 20
177.4232639797868
 30
0
 11
707.1814708719885
 21
177.4232639797868
 31
0
  0
LINE
  8
0
 62
7
 10
635.8359813999168
 20
428.573268545838
 30
0
 11
635.8359813999168
 21
433.573263777443
 31
0
  0
LINE
  8
0
 62
7
 10
654.2103872013349
 20
393.4232621323027
 30
0
 11
647.8006601643292
 21
393.4232621323027
 31
0
  0
LINE
  8
0
 62
7
 10
671.800664098253
 20
412.4232708346219
 30
0
 11
647.8006601643292
 21
412.4232708346219
 31
0
  0
LINE
  8
0
 62
7
 10
833.8006645751157
 20
393.4232621323027
 30
0
 11
827.390937538109
 21
393.4232621323027
 31
0
  0
LINE
  8
0
 62
7
 10
833.8006645751157
 20
412.4232708346219
 30
0
 11
809.8006606411909
 21
412.4232708346219
 31
0
  0
LINE
  8
0
 62
7
 10
665.4426813435466
 20
410.4232667815197
 30
0
 11
669.467902214451
 21
410.4232667815197
 31
0
  0
LINE
  8
0
 62
7
 10
812.1334225249939
 20
410.4232667815197
 30
0
 11
816.1586433958973
 21
410.4232667815197
 31
0
  0
LINE
  8
0
 62
7
 10
664.0747398447456
 20
393.4232621323027
 30
0
 11
654.2103872013349
 21
393.4232621323027
 31
0
  0
LINE
  8
0
 62
7
 10
661.5985095810429
 20
405.4232715499148
 30
0
 11
665.9928843687467
 21
405.4232715499148
 31
0
  0
LINE
  8
0
 62
7
 10
827.390937538109
 20
393.4232621323027
 30
0
 11
817.5265848946983
 21
393.4232621323027
 31
0
  0
LINE
  8
0
 62
7
 10
815.6084403706964
 20
405.4232715499148
 30
0
 11
820.0028151584011
 21
405.4232715499148
 31
0
  0
LINE
  8
0
 62
7
 10
709.8006628761914
 20
416.5732591282261
 30
0
 11
729.8006624293112
 21
416.5732591282261
 31
0
  0
LINE
  8
0
 62
7
 10
751.8006623101328
 20
416.5732591282261
 30
0
 11
771.8006618632526
 21
416.5732591282261
 31
0
  0
LINE
  8
0
 62
7
 10
682.820124955264
 20
393.4232621323027
 30
0
 11
664.0747398447456
 21
393.4232621323027
 31
0
  0
LINE
  8
0
 62
7
 10
665.9928843687467
 20
405.4232715499148
 30
0
 11
684.2696391354657
 21
405.4232715499148
 31
0
  0
LINE
  8
0
 62
7
 10
797.3316856039783
 20
405.4232715499148
 30
0
 11
815.6084403706964
 21
405.4232715499148
 31
0
  0
LINE
  8
0
 62
7
 10
817.5265848946983
 20
393.4232621323027
 30
0
 11
798.7811997844801
 21
393.4232621323027
 31
0
  0
LINE
  8
0
 62
7
 10
669.467902214451
 20
410.4232667815197
 30
0
 11
688.3006640088697
 21
410.4232667815197
 31
0
  0
LINE
  8
0
 62
7
 10
793.3006607305742
 20
410.4232667815197
 30
0
 11
812.1334225249939
 21
410.4232667815197
 31
0
  0
LINE
  8
0
 62
7
 10
748.8006627496307
 20
416.5732591282261
 30
0
 11
751.8006623101328
 21
416.5732591282261
 31
0
  0
LINE
  8
0
 62
7
 10
729.8006624293112
 20
416.5732591282261
 30
0
 11
732.8006619898142
 21
416.5732591282261
 31
0
  0
LINE
  8
0
 62
7
 10
790.8006631147719
 20
413.5732679497228
 30
0
 11
804.3006643963854
 21
413.5732679497228
 31
0
  0
LINE
  8
0
 62
7
 10
747.6526256029283
 20
413.5732679497228
 30
0
 11
771.8006618632526
 21
413.5732679497228
 31
0
  0
LINE
  8
0
 62
7
 10
709.8006628761914
 20
413.5732679497228
 30
0
 11
733.9486991365156
 21
413.5732679497228
 31
0
  0
LINE
  8
0
 62
7
 10
677.3006603430586
 20
413.5732679497228
 30
0
 11
690.8006616246721
 21
413.5732679497228
 31
0
  0
LINE
  8
0
 62
7
 10
732.8006619898142
 20
416.5732591282261
 30
0
 11
748.8006627496307
 21
416.5732591282261
 31
0
  0
LINE
  8
0
 62
7
 10
748.8006627496307
 20
413.5732679497228
 30
0
 11
748.8006627496307
 21
416.5732591282261
 31
0
  0
LINE
  8
0
 62
7
 10
732.8006619898142
 20
413.5732679497228
 30
0
 11
732.8006619898142
 21
416.5732591282261
 31
0
  0
LINE
  8
0
 62
7
 10
735.2516846110166
 20
410.4232667815197
 30
0
 11
735.2516846110166
 21
412.0732723606215
 31
0
  0
LINE
  8
0
 62
7
 10
746.3496401284274
 20
412.0732723606215
 30
0
 11
746.3496401284274
 21
410.4232667815197
 31
0
  0
LINE
  8
0
 62
7
 10
684.2696391354657
 20
405.4232715499148
 30
0
 11
688.3006640088697
 21
405.4232715499148
 31
0
  0
LINE
  8
0
 62
7
 10
688.3006640088697
 20
393.4232621323027
 30
0
 11
682.820124955264
 21
393.4232621323027
 31
0
  0
LINE
  8
0
 62
7
 10
798.7811997844801
 20
393.4232621323027
 30
0
 11
793.3006607305742
 21
393.4232621323027
 31
0
  0
LINE
  8
0
 62
7
 10
793.3006607305742
 20
405.4232715499148
 30
0
 11
797.3316856039783
 21
405.4232715499148
 31
0
  0
LINE
  8
0
 62
7
 10
712.2936792981936
 20
410.4232667815197
 30
0
 11
718.5685023976002
 21
410.4232667815197
 31
0
  0
LINE
  8
0
 62
7
 10
763.0328223418437
 20
410.4232667815197
 30
0
 11
769.3076454412503
 21
410.4232667815197
 31
0
  0
LINE
  8
0
 62
7
 10
718.5685023976002
 20
410.4232667815197
 30
0
 11
763.0328223418437
 21
410.4232667815197
 31
0
  0
LINE
  8
0
 62
7
 10
699.7960307013809
 20
393.4232621323027
 30
0
 11
688.3006640088697
 21
393.4232621323027
 31
0
  0
LINE
  8
0
 62
7
 10
712.3006623546935
 20
412.4232708346219
 30
0
 11
688.3006640088697
 21
412.4232708346219
 31
0
  0
LINE
  8
0
 62
7
 10
793.3006607305742
 20
393.4232621323027
 30
0
 11
781.805294038063
 21
393.4232621323027
 31
0
  0
LINE
  8
0
 62
7
 10
793.3006607305742
 20
412.4232708346219
 30
0
 11
769.3006623847505
 21
412.4232708346219
 31
0
  0
LINE
  8
0
 62
7
 10
709.7220890532908
 20
405.4232715499148
 30
0
 11
771.8792356861532
 21
405.4232715499148
 31
0
  0
LINE
  8
0
 62
7
 10
781.805294038063
 20
393.4232621323027
 30
0
 11
699.7960307013809
 21
393.4232621323027
 31
0
  0
LINE
  8
0
 62
7
 10
695.5506638001771
 20
420.4232721460297
 30
0
 11
690.8006616246721
 21
420.4232721460297
 31
0
  0
LINE
  8
0
 62
7
 10
690.8006616246721
 20
419.574755324229
 30
0
 11
690.8006616246721
 21
420.4232721460297
 31
0
  0
LINE
  8
0
 62
7
 10
709.8006628761914
 20
420.4232721460297
 30
0
 11
705.0506607006864
 21
420.4232721460297
 31
0
  0
LINE
  8
0
 62
7
 10
709.8006628761914
 20
420.4232721460297
 30
0
 11
709.8006628761914
 21
419.574755324229
 31
0
  0
LINE
  8
0
 62
7
 10
690.8006616246721
 20
419.574755324229
 30
0
 11
690.8006616246721
 21
412.4232708346219
 31
0
  0
LINE
  8
0
 62
7
 10
705.0506607006864
 20
420.4232721460297
 30
0
 11
695.5506638001771
 21
420.4232721460297
 31
0
  0
LINE
  8
0
 62
7
 10
709.8006628761914
 20
419.574755324229
 30
0
 11
709.8006628761914
 21
412.4232708346219
 31
0
  0
LINE
  8
0
 62
7
 10
700.3006622505818
 20
419.574755324229
 30
0
 11
700.3006622505818
 21
412.4232708346219
 31
0
  0
LINE
  8
0
 62
7
 10
776.5506640387575
 20
420.4232721460297
 30
0
 11
771.8006618632526
 21
420.4232721460297
 31
0
  0
LINE
  8
0
 62
7
 10
771.8006618632526
 20
419.574755324229
 30
0
 11
771.8006618632526
 21
420.4232721460297
 31
0
  0
LINE
  8
0
 62
7
 10
790.8006631147719
 20
420.4232721460297
 30
0
 11
786.0506609392678
 21
420.4232721460297
 31
0
  0
LINE
  8
0
 62
7
 10
790.8006631147719
 20
420.4232721460297
 30
0
 11
790.8006631147719
 21
419.574755324229
 31
0
  0
LINE
  8
0
 62
7
 10
771.8006618632526
 20
419.574755324229
 30
0
 11
771.8006618632526
 21
412.4232708346219
 31
0
  0
LINE
  8
0
 62
7
 10
786.0506609392678
 20
420.4232721460297
 30
0
 11
776.5506640387575
 21
420.4232721460297
 31
0
  0
LINE
  8
0
 62
7
 10
790.8006631147719
 20
419.574755324229
 30
0
 11
790.8006631147719
 21
412.4232708346219
 31
0
  0
LINE
  8
0
 62
7
 10
781.3006624888621
 20
419.574755324229
 30
0
 11
781.3006624888621
 21
412.4232708346219
 31
0
  0
LINE
  8
0
 62
7
 10
827.8006598663096
 20
367.4232690465768
 30
0
 11
824.8006612373056
 21
367.4232690465768
 31
0
  0
LINE
  8
0
 62
7
 10
824.8006612373056
 20
367.4232690465768
 30
0
 11
815.800665349997
 21
367.4232690465768
 31
0
  0
LINE
  8
0
 62
7
 10
831.3006595088127
 20
420.4232721460297
 30
0
 11
826.550661058408
 21
420.4232721460297
 31
0
  0
LINE
  8
0
 62
7
 10
831.3006595088127
 20
420.4232721460297
 30
0
 11
831.3006595088127
 21
419.574755324229
 31
0
  0
LINE
  8
0
 62
7
 10
817.0506641578977
 20
420.4232721460297
 30
0
 11
812.300665707794
 21
420.4232721460297
 31
0
  0
LINE
  8
0
 62
7
 10
812.300665707794
 20
419.574755324229
 30
0
 11
812.300665707794
 21
420.4232721460297
 31
0
  0
LINE
  8
0
 62
7
 10
831.3006595088127
 20
419.574755324229
 30
0
 11
831.3006595088127
 21
412.4232708346219
 31
0
  0
LINE
  8
0
 62
7
 10
826.550661058408
 20
420.4232721460297
 30
0
 11
817.0506641578977
 21
420.4232721460297
 31
0
  0
LINE
  8
0
 62
7
 10
821.8006626083025
 20
419.574755324229
 30
0
 11
821.8006626083025
 21
412.4232708346219
 31
0
  0
LINE
  8
0
 62
7
 10
812.300665707794
 20
419.574755324229
 30
0
 11
812.300665707794
 21
412.4232708346219
 31
0
  0
LINE
  8
0
 62
7
 10
665.800659389447
 20
367.4232690465768
 30
0
 11
653.8006648731343
 21
367.4232690465768
 31
0
  0
LINE
  8
0
 62
7
 10
669.30065903165
 20
420.4232721460297
 30
0
 11
664.5506605815453
 21
420.4232721460297
 31
0
  0
LINE
  8
0
 62
7
 10
669.30065903165
 20
420.4232721460297
 30
0
 11
669.30065903165
 21
419.574755324229
 31
0
  0
LINE
  8
0
 62
7
 10
655.050663681036
 20
420.4232721460297
 30
0
 11
650.3006652306312
 21
420.4232721460297
 31
0
  0
LINE
  8
0
 62
7
 10
650.3006652306312
 20
419.574755324229
 30
0
 11
650.3006652306312
 21
420.4232721460297
 31
0
  0
LINE
  8
0
 62
7
 10
669.30065903165
 20
419.574755324229
 30
0
 11
669.30065903165
 21
412.4232708346219
 31
0
  0
LINE
  8
0
 62
7
 10
664.5506605815453
 20
420.4232721460297
 30
0
 11
655.050663681036
 21
420.4232721460297
 31
0
  0
LINE
  8
0
 62
7
 10
659.8006621311415
 20
419.574755324229
 30
0
 11
659.8006621311415
 21
412.4232708346219
 31
0
  0
LINE
  8
0
 62
7
 10
650.3006652306312
 20
419.574755324229
 30
0
 11
650.3006652306312
 21
412.4232708346219
 31
0
  0
LINE
  8
0
 62
7
 10
771.8006618632526
 20
378.2659648788876
 30
0
 11
771.8006618632526
 21
378.4232689869877
 31
0
  0
LINE
  8
0
 62
7
 10
781.3006624888621
 20
374.839897347684
 30
0
 11
781.3006624888621
 21
378.4232689869877
 31
0
  0
LINE
  8
0
 62
7
 10
790.8006631147719
 20
370.3224017154798
 30
0
 11
790.8006631147719
 21
378.4232689869877
 31
0
  0
LINE
  8
0
 62
7
 10
655.050663681036
 20
368.4232636224777
 30
0
 11
650.3006652306312
 21
368.4232636224777
 31
0
  0
LINE
  8
0
 62
7
 10
650.3006652306312
 20
368.4232636224777
 30
0
 11
650.3006652306312
 21
369.2717729937786
 31
0
  0
LINE
  8
0
 62
7
 10
669.30065903165
 20
368.4232636224777
 30
0
 11
664.5506605815453
 21
368.4232636224777
 31
0
  0
LINE
  8
0
 62
7
 10
669.30065903165
 20
369.2717729937786
 30
0
 11
669.30065903165
 21
368.4232636224777
 31
0
  0
LINE
  8
0
 62
7
 10
650.3006652306312
 20
369.2717729937786
 30
0
 11
650.3006652306312
 21
378.4232689869877
 31
0
  0
LINE
  8
0
 62
7
 10
664.5506605815453
 20
368.4232636224777
 30
0
 11
655.050663681036
 21
368.4232636224777
 31
0
  0
LINE
  8
0
 62
7
 10
659.8006621311415
 20
369.2717729937786
 30
0
 11
659.8006621311415
 21
378.4232689869877
 31
0
  0
LINE
  8
0
 62
7
 10
669.30065903165
 20
369.2717729937786
 30
0
 11
669.30065903165
 21
378.4232689869877
 31
0
  0
LINE
  8
0
 62
7
 10
709.8006628761914
 20
378.2659648788876
 30
0
 11
709.8006628761914
 21
378.4232689869877
 31
0
  0
LINE
  8
0
 62
7
 10
690.8006616246721
 20
370.3224017154798
 30
0
 11
690.8006616246721
 21
378.4232689869877
 31
0
  0
LINE
  8
0
 62
7
 10
700.3006622505818
 20
374.839897347684
 30
0
 11
700.3006622505818
 21
378.4232689869877
 31
0
  0
LINE
  8
0
 62
7
 10
817.0506641578977
 20
368.4232636224777
 30
0
 11
812.300665707794
 21
368.4232636224777
 31
0
  0
LINE
  8
0
 62
7
 10
812.300665707794
 20
368.4232636224777
 30
0
 11
812.300665707794
 21
369.2717729937786
 31
0
  0
LINE
  8
0
 62
7
 10
831.3006595088127
 20
368.4232636224777
 30
0
 11
826.550661058408
 21
368.4232636224777
 31
0
  0
LINE
  8
0
 62
7
 10
831.3006595088127
 20
369.2717729937786
 30
0
 11
831.3006595088127
 21
368.4232636224777
 31
0
  0
LINE
  8
0
 62
7
 10
812.300665707794
 20
369.2717729937786
 30
0
 11
812.300665707794
 21
378.4232689869877
 31
0
  0
LINE
  8
0
 62
7
 10
817.0506641578977
 20
368.4232636224777
 30
0
 11
826.550661058408
 21
368.4232636224777
 31
0
  0
LINE
  8
0
 62
7
 10
821.8006626083025
 20
369.2717729937786
 30
0
 11
821.8006626083025
 21
378.4232689869877
 31
0
  0
LINE
  8
0
 62
7
 10
831.3006595088127
 20
369.2717729937786
 30
0
 11
831.3006595088127
 21
378.4232689869877
 31
0
  0
LINE
  8
0
 62
7
 10
765.7852344526464
 20
444.0732627046535
 30
0
 11
767.8006630702494
 21
444.0732627046535
 31
0
  0
LINE
  8
0
 62
7
 10
756.7852329772377
 20
444.0732627046535
 30
0
 11
758.9570753587404
 21
444.0732627046535
 31
0
  0
LINE
  8
0
 62
7
 10
745.8006622579269
 20
444.0732627046535
 30
0
 11
749.9570748148308
 21
444.0732627046535
 31
0
  0
LINE
  8
0
 62
7
 10
713.8006616691955
 20
444.0732627046535
 30
0
 11
715.8006619971975
 21
444.0732627046535
 31
0
  0
LINE
  8
0
 62
7
 10
767.8006630702494
 20
444.0732627046535
 30
0
 11
767.8006630702494
 21
443.0732606779525
 31
0
  0
LINE
  8
0
 62
7
 10
713.8006616691955
 20
444.0732627046535
 30
0
 11
713.8006616691955
 21
443.0732606779525
 31
0
  0
LINE
  8
0
 62
7
 10
752.6291249629339
 20
444.0732627046535
 30
0
 11
752.2250594881334
 21
444.0732627046535
 31
0
  0
LINE
  8
0
 62
7
 10
755.3998645705369
 20
444.0732627046535
 30
0
 11
754.9380747910363
 21
444.0732627046535
 31
0
  0
LINE
  8
0
 62
7
 10
761.6291255068427
 20
444.0732627046535
 30
0
 11
761.2250600320431
 21
444.0732627046535
 31
0
  0
LINE
  8
0
 62
7
 10
764.3998641829458
 20
444.0732627046535
 30
0
 11
763.9380753349451
 21
444.0732627046535
 31
0
  0
LINE
  8
0
 62
7
 10
752.2250594881334
 20
444.0732627046535
 30
0
 11
751.5900977266329
 21
444.0732627046535
 31
0
  0
LINE
  8
0
 62
7
 10
752.2250594881334
 20
444.0732627046535
 30
0
 11
752.2250594881334
 21
443.0732606779525
 31
0
  0
LINE
  8
0
 62
7
 10
754.9380747910363
 20
444.0732627046535
 30
0
 11
754.3608373342358
 21
444.0732627046535
 31
0
  0
LINE
  8
0
 62
7
 10
754.9380747910363
 20
444.0732627046535
 30
0
 11
754.9380747910363
 21
443.0732606779525
 31
0
  0
LINE
  8
0
 62
7
 10
761.2250600320431
 20
444.0732627046535
 30
0
 11
760.5900973390417
 21
444.0732627046535
 31
0
  0
LINE
  8
0
 62
7
 10
761.2250600320431
 20
444.0732627046535
 30
0
 11
761.2250600320431
 21
443.0732606779525
 31
0
  0
LINE
  8
0
 62
7
 10
763.9380753349451
 20
444.0732627046535
 30
0
 11
763.3608378781446
 21
444.0732627046535
 31
0
  0
LINE
  8
0
 62
7
 10
763.9380753349451
 20
444.0732627046535
 30
0
 11
763.9380753349451
 21
443.0732606779525
 31
0
  0
LINE
  8
0
 62
7
 10
752.7278144221336
 20
444.0732627046535
 30
0
 11
752.6291249629339
 21
444.0732627046535
 31
0
  0
LINE
  8
0
 62
7
 10
752.6291249629339
 20
444.0732627046535
 30
0
 11
752.6291249629339
 21
443.0732606779525
 31
0
  0
LINE
  8
0
 62
7
 10
761.7278140348426
 20
444.0732627046535
 30
0
 11
761.6291255068427
 21
444.0732627046535
 31
0
  0
LINE
  8
0
 62
7
 10
761.6291255068427
 20
444.0732627046535
 30
0
 11
761.6291255068427
 21
443.0732606779525
 31
0
  0
LINE
  8
0
 62
7
 10
755.5562774029368
 20
444.0732627046535
 30
0
 11
755.3998645705369
 21
444.0732627046535
 31
0
  0
LINE
  8
0
 62
7
 10
755.3998645705369
 20
444.0732627046535
 30
0
 11
755.3998645705369
 21
443.0732606779525
 31
0
  0
LINE
  8
0
 62
7
 10
764.5562779468455
 20
444.0732627046535
 30
0
 11
764.3998641829458
 21
444.0732627046535
 31
0
  0
LINE
  8
0
 62
7
 10
764.3998641829458
 20
444.0732627046535
 30
0
 11
764.3998641829458
 21
443.0732606779525
 31
0
  0
LINE
  8
0
 62
7
 10
751.5900977266329
 20
444.0732627046535
 30
0
 11
751.1860322518323
 21
444.0732627046535
 31
0
  0
LINE
  8
0
 62
7
 10
751.5900977266329
 20
444.0732627046535
 30
0
 11
751.5900977266329
 21
443.0732606779525
 31
0
  0
LINE
  8
0
 62
7
 10
754.3608373342358
 20
444.0732627046535
 30
0
 11
753.9567709279345
 21
444.0732627046535
 31
0
  0
LINE
  8
0
 62
7
 10
754.3608373342358
 20
444.0732627046535
 30
0
 11
754.3608373342358
 21
443.0732606779525
 31
0
  0
LINE
  8
0
 62
7
 10
760.5900973390417
 20
444.0732627046535
 30
0
 11
760.1860318642421
 21
444.0732627046535
 31
0
  0
LINE
  8
0
 62
7
 10
760.5900973390417
 20
444.0732627046535
 30
0
 11
760.5900973390417
 21
443.0732606779525
 31
0
  0
LINE
  8
0
 62
7
 10
763.3608378781446
 20
444.0732627046535
 30
0
 11
762.9567705403442
 21
444.0732627046535
 31
0
  0
LINE
  8
0
 62
7
 10
763.3608378781446
 20
444.0732627046535
 30
0
 11
763.3608378781446
 21
443.0732606779525
 31
0
  0
LINE
  8
0
 62
7
 10
751.1860322518323
 20
444.0732627046535
 30
0
 11
749.9570748148308
 21
444.0732627046535
 31
0
  0
LINE
  8
0
 62
7
 10
751.1860322518323
 20
444.0732627046535
 30
0
 11
751.1860322518323
 21
443.0732606779525
 31
0
  0
LINE
  8
0
 62
7
 10
749.9570748148308
 20
444.0732627046535
 30
0
 11
749.9570748148308
 21
443.0732606779525
 31
0
  0
LINE
  8
0
 62
7
 10
753.9567709279345
 20
444.0732627046535
 30
0
 11
752.7278144221336
 21
444.0732627046535
 31
0
  0
LINE
  8
0
 62
7
 10
753.9567709279345
 20
444.0732627046535
 30
0
 11
753.9567709279345
 21
443.0732606779525
 31
0
  0
LINE
  8
0
 62
7
 10
752.7278144221336
 20
444.0732627046535
 30
0
 11
752.7278144221336
 21
443.0732606779525
 31
0
  0
LINE
  8
0
 62
7
 10
756.7852329772377
 20
444.0732627046535
 30
0
 11
756.7852329772377
 21
443.0732606779525
 31
0
  0
LINE
  8
0
 62
7
 10
756.7852329772377
 20
444.0732627046535
 30
0
 11
755.5562774029368
 21
444.0732627046535
 31
0
  0
LINE
  8
0
 62
7
 10
755.5562774029368
 20
444.0732627046535
 30
0
 11
755.5562774029368
 21
443.0732606779525
 31
0
  0
LINE
  8
0
 62
7
 10
760.1860318642421
 20
444.0732627046535
 30
0
 11
758.9570753587404
 21
444.0732627046535
 31
0
  0
LINE
  8
0
 62
7
 10
760.1860318642421
 20
444.0732627046535
 30
0
 11
760.1860318642421
 21
443.0732606779525
 31
0
  0
LINE
  8
0
 62
7
 10
758.9570753587404
 20
444.0732627046535
 30
0
 11
758.9570753587404
 21
443.0732606779525
 31
0
  0
LINE
  8
0
 62
7
 10
762.9567705403442
 20
444.0732627046535
 30
0
 11
761.7278140348426
 21
444.0732627046535
 31
0
  0
LINE
  8
0
 62
7
 10
762.9567705403442
 20
444.0732627046535
 30
0
 11
762.9567705403442
 21
443.0732606779525
 31
0
  0
LINE
  8
0
 62
7
 10
761.7278140348426
 20
444.0732627046535
 30
0
 11
761.7278140348426
 21
443.0732606779525
 31
0
  0
LINE
  8
0
 62
7
 10
765.7852344526464
 20
444.0732627046535
 30
0
 11
765.7852344526464
 21
443.0732606779525
 31
0
  0
LINE
  8
0
 62
7
 10
765.7852344526464
 20
444.0732627046535
 30
0
 11
764.5562779468455
 21
444.0732627046535
 31
0
  0
LINE
  8
0
 62
7
 10
764.5562779468455
 20
444.0732627046535
 30
0
 11
764.5562779468455
 21
443.0732606779525
 31
0
  0
LINE
  8
0
 62
7
 10
715.8006619971975
 20
444.0732627046535
 30
0
 11
745.8006622579269
 21
444.0732627046535
 31
0
  0
LINE
  8
0
 62
7
 10
745.8006622579269
 20
444.0732627046535
 30
0
 11
745.8006622579269
 21
443.0732606779525
 31
0
  0
LINE
  8
0
 62
7
 10
715.8006619971975
 20
444.0732627046535
 30
0
 11
715.8006619971975
 21
443.0732606779525
 31
0
  0
LINE
  8
0
 62
7
 10
694.800662280376
 20
443.0732606779525
 30
0
 11
740.800662369722
 21
443.0732606779525
 31
0
  0
LINE
  8
0
 62
7
 10
740.800662369722
 20
443.0732606779525
 30
0
 11
786.800662459068
 21
443.0732606779525
 31
0
  0
LINE
  8
0
 62
7
 10
790.8006631147719
 20
416.5732591282261
 30
0
 11
793.8006617440751
 21
416.5732591282261
 31
0
  0
LINE
  8
0
 62
7
 10
748.8812128393302
 20
416.5732591282261
 30
0
 11
771.8006618632526
 21
416.5732591282261
 31
0
  0
LINE
  8
0
 62
7
 10
709.8006628761914
 20
416.5732591282261
 30
0
 11
732.8006619898142
 21
416.5732591282261
 31
0
  0
LINE
  8
0
 62
7
 10
687.800662995669
 20
416.5732591282261
 30
0
 11
690.8006616246721
 21
416.5732591282261
 31
0
  0
LINE
  8
0
 62
7
 10
729.2370260071111
 20
436.0732613932455
 30
0
 11
730.8006625933122
 21
436.0732613932455
 31
0
  0
LINE
  8
0
 62
7
 10
730.8006625933122
 20
434.0732722414433
 30
0
 11
729.2370260071111
 21
434.0732722414433
 31
0
  0
LINE
  8
0
 62
7
 10
750.8006621461318
 20
436.0732613932455
 30
0
 11
752.3642987323337
 21
436.0732613932455
 31
0
  0
LINE
  8
0
 62
7
 10
752.3642987323337
 20
434.0732722414433
 30
0
 11
750.8006621461318
 21
434.0732722414433
 31
0
  0
LINE
  8
0
 62
7
 10
730.8006625933122
 20
436.0732613932455
 30
0
 11
732.5149480564141
 21
436.0732613932455
 31
0
  0
LINE
  8
0
 62
7
 10
732.5149480564141
 20
434.0732722414433
 30
0
 11
730.8006625933122
 21
434.0732722414433
 31
0
  0
LINE
  8
0
 62
7
 10
749.0863766830307
 20
436.0732613932455
 30
0
 11
750.8006621461318
 21
436.0732613932455
 31
0
  0
LINE
  8
0
 62
7
 10
750.8006621461318
 20
434.0732722414433
 30
0
 11
749.0863766830307
 21
434.0732722414433
 31
0
  0
LINE
  8
0
 62
7
 10
732.5149480564141
 20
436.0732613932455
 30
0
 11
749.0863766830307
 21
436.0732613932455
 31
0
  0
LINE
  8
0
 62
7
 10
732.5149480564141
 20
434.0732722414433
 30
0
 11
749.0863766830307
 21
434.0732722414433
 31
0
  0
LINE
  8
0
 62
7
 10
647.8006601643292
 20
393.4232621323027
 30
0
 11
647.8006601643292
 21
378.4232689869877
 31
0
  0
LINE
  8
0
 62
7
 10
833.8006645751157
 20
378.4232689869877
 30
0
 11
833.8006645751157
 21
393.4232621323027
 31
0
  0
LINE
  8
0
 62
7
 10
676.8006593298578
 20
373.4232663045828
 30
0
 11
676.8006593298578
 21
368.8396989237783
 31
0
  0
LINE
  8
0
 62
7
 10
804.8006654095861
 20
368.8397585283781
 30
0
 11
804.8006654095861
 21
373.4232663045828
 31
0
  0
LINE
  8
0
 62
7
 10
688.3006640088697
 20
393.4232621323027
 30
0
 11
688.3006640088697
 21
378.4232689869877
 31
0
  0
LINE
  8
0
 62
7
 10
793.3006607305742
 20
378.4232689869877
 30
0
 11
793.3006607305742
 21
393.4232621323027
 31
0
  0
LINE
  8
0
 62
7
 10
687.800662995669
 20
433.573263777443
 30
0
 11
635.8359813999168
 21
433.573263777443
 31
0
  0
LINE
  8
0
 62
7
 10
635.8359813999168
 20
428.573268545838
 30
0
 11
687.800662995669
 21
428.573268545838
 31
0
  0
LINE
  8
0
 62
7
 10
647.8006601643292
 20
412.4232708346219
 30
0
 11
647.8006601643292
 21
393.4232621323027
 31
0
  0
LINE
  8
0
 62
7
 10
671.800664098253
 20
410.4232667815197
 30
0
 11
671.800664098253
 21
412.4232708346219
 31
0
  0
LINE
  8
0
 62
7
 10
809.8006606411909
 20
412.4232708346219
 30
0
 11
809.8006606411909
 21
410.4232667815197
 31
0
  0
LINE
  8
0
 62
7
 10
833.8006645751157
 20
393.4232621323027
 30
0
 11
833.8006645751157
 21
412.4232708346219
 31
0
  0
LINE
  8
0
 62
7
 10
685.800662667667
 20
414.5732699764239
 30
0
 11
685.800662667667
 21
413.5732679497228
 31
0
  0
LINE
  8
0
 62
7
 10
795.800662071777
 20
413.5732679497228
 30
0
 11
795.800662071777
 21
414.5732699764239
 31
0
  0
LINE
  8
0
 62
7
 10
675.8006647539569
 20
412.0732723606215
 30
0
 11
675.8006647539569
 21
410.4232667815197
 31
0
  0
LINE
  8
0
 62
7
 10
805.8006599854871
 20
410.4232667815197
 30
0
 11
805.8006599854871
 21
412.0732723606215
 31
0
  0
LINE
  8
0
 62
7
 10
688.3006640088697
 20
412.4232708346219
 30
0
 11
688.3006640088697
 21
393.4232621323027
 31
0
  0
LINE
  8
0
 62
7
 10
712.3006623546935
 20
410.4232667815197
 30
0
 11
712.3006623546935
 21
412.4232708346219
 31
0
  0
LINE
  8
0
 62
7
 10
769.3006623847505
 20
412.4232708346219
 30
0
 11
769.3006623847505
 21
410.4232667815197
 31
0
  0
LINE
  8
0
 62
7
 10
793.3006607305742
 20
393.4232621323027
 30
0
 11
793.3006607305742
 21
412.4232708346219
 31
0
  0
LINE
  8
0
 62
7
 10
827.8006598663096
 20
367.4232690465768
 30
0
 11
827.8006598663096
 21
368.4232636224777
 31
0
  0
LINE
  8
0
 62
7
 10
815.800665349997
 20
368.4232636224777
 30
0
 11
815.800665349997
 21
367.4232690465768
 31
0
  0
LINE
  8
0
 62
7
 10
665.800659389447
 20
367.4232690465768
 30
0
 11
665.800659389447
 21
368.4232636224777
 31
0
  0
LINE
  8
0
 62
7
 10
653.8006648731343
 20
368.4232636224777
 30
0
 11
653.8006648731343
 21
367.4232690465768
 31
0
  0
LINE
  8
0
 62
7
 10
687.800662995669
 20
436.0732613932455
 30
0
 11
687.800662995669
 21
416.5732591282261
 31
0
  0
LINE
  8
0
 62
7
 10
793.8006617440751
 20
416.5732591282261
 30
0
 11
793.8006617440751
 21
436.0732613932455
 31
0
  0
LINE
  8
0
 62
2
  6
DASHDOT
 10
453.9199424224198
 20
629.6016251931389
 30
0
 11
123.9199454023201
 21
629.6016251931389
 31
0
  0
LINE
  8
0
 62
2
  6
DASHDOT
 10
298.9199418260805
 20
750.1016229283443
 30
0
 11
298.9199418260805
 21
507.3430120635255
 31
0
  0
LINE
  8
0
 62
7
 10
238.4199421538197
 20
615.4016251008247
 30
0
 11
238.4199421538197
 21
617.4016254285266
 31
0
  0
LINE
  8
0
 62
7
 10
236.4199418261178
 20
617.4016254285266
 30
0
 11
238.4199421538197
 21
617.4016254285266
 31
0
  0
LINE
  8
0
 62
7
 10
238.4199421538197
 20
617.4016254285266
 30
0
 11
242.217562688923
 21
617.4016254285266
 31
0
  0
LINE
  8
0
 62
7
 10
238.4199421538197
 20
641.8016249577511
 30
0
 11
238.4199421538197
 21
617.4016254285266
 31
0
  0
LINE
  8
0
 62
7
 10
242.217562688923
 20
641.8016249577511
 30
0
 11
238.4199421538197
 21
641.8016249577511
 31
0
  0
LINE
  8
0
 62
7
 10
236.4199418261178
 20
641.8016249577511
 30
0
 11
238.4199421538197
 21
641.8016249577511
 31
0
  0
LINE
  8
0
 62
7
 10
238.4199421538197
 20
641.8016249577511
 30
0
 11
238.4199421538197
 21
643.8016252854532
 31
0
  0
LINE
  8
0
 62
7
 10
285.9295611887674
 20
719.620776761529
 30
0
 11
285.9295611887674
 21
719.6377044808289
 31
0
  0
LINE
  8
0
 62
7
 10
311.9103224633936
 20
719.5721840749288
 30
0
 11
311.9103224633936
 21
719.6273258218289
 31
0
  0
LINE
  8
0
 62
7
 10
279.7475117876602
 20
540.8049797900501
 30
0
 11
279.7475117876602
 21
539.2662486323486
 31
0
  0
LINE
  8
0
 62
7
 10
319.5005986527003
 20
540.9629469998504
 30
0
 11
319.5005986527003
 21
539.4236644991486
 31
0
  0
LINE
  8
0
 62
7
 10
338.105957551219
 20
547.4777048714568
 30
0
 11
338.105957551219
 21
545.8186617383551
 31
0
  0
LINE
  8
0
 62
7
 10
292.9747584893739
 20
538.1778678188475
 30
0
 11
292.9747584893739
 21
537.3504212387468
 31
0
  0
LINE
  8
0
 62
7
 10
308.2211004257897
 20
539.1076630244484
 30
0
 11
308.2211004257897
 21
537.599315334247
 31
0
  0
LINE
  8
0
 62
7
 10
305.743616601887
 20
538.7305816898481
 30
0
 11
305.743616601887
 21
537.3813858518467
 31
0
  0
LINE
  8
0
 62
7
 10
326.8264583931077
 20
543.0229207763523
 30
0
 11
326.8264583931077
 21
541.4475551135508
 31
0
  0
LINE
  8
0
 62
7
 10
324.3489745692059
 20
542.2627305872516
 30
0
 11
324.3489745692059
 21
540.7008206732498
 31
0
  0
LINE
  8
0
 62
7
 10
337.408255381818
 20
547.1665239224565
 30
0
 11
337.408255381818
 21
545.5136647709551
 31
0
  0
LINE
  8
0
 62
7
 10
318.8028983459999
 20
540.8211550004503
 30
0
 11
318.8028983459999
 21
539.2842045314485
 31
0
  0
LINE
  8
0
 62
7
 10
311.2444715261927
 20
539.4709160813488
 30
0
 11
311.2444715261927
 21
537.9565781243473
 31
0
  0
LINE
  8
0
 62
7
 10
308.2211004257897
 20
537.574452746647
 30
0
 11
308.2211004257897
 21
537.599315334247
 31
0
  0
LINE
  8
0
 62
7
 10
308.2211004257897
 20
537.599315334247
 30
0
 11
305.743616601887
 21
537.3813858518467
 31
0
  0
LINE
  8
0
 62
7
 10
316.7097955628979
 20
540.3906530030497
 30
0
 11
316.7097955628979
 21
538.8609370478482
 31
0
  0
LINE
  8
0
 62
7
 10
313.6864244624949
 20
539.812860477849
 30
0
 11
313.6864244624949
 21
538.2929494865477
 31
0
  0
LINE
  8
0
 62
7
 10
335.3151525990161
 20
546.2350821383554
 30
0
 11
335.3151525990161
 21
544.6003129967539
 31
0
  0
LINE
  8
0
 62
7
 10
332.2917814986131
 20
544.9503040202542
 30
0
 11
332.2917814986131
 21
543.3398386724527
 31
0
  0
LINE
  8
0
 62
7
 10
329.8498294935107
 20
544.0567037351534
 30
0
 11
329.8498294935107
 21
542.4626892695519
 31
0
  0
LINE
  8
0
 62
7
 10
326.8264583931077
 20
541.4191907534507
 30
0
 11
326.8264583931077
 21
541.4475551135508
 31
0
  0
LINE
  8
0
 62
7
 10
326.8264583931077
 20
541.4475551135508
 30
0
 11
324.3489745692059
 21
540.7008206732498
 31
0
  0
LINE
  8
0
 62
7
 10
290.899896590372
 20
537.861084032947
 30
0
 11
290.899896590372
 21
537.4650409706469
 31
0
  0
LINE
  8
0
 62
7
 10
287.5282453061691
 20
538.2624319085478
 30
0
 11
287.5282453061691
 21
537.8475090749471
 31
0
  0
LINE
  8
0
 62
7
 10
292.456043014774
 20
537.6758476979469
 30
0
 11
292.456043014774
 21
537.8669178374471
 31
0
  0
LINE
  8
0
 62
7
 10
280.3588542773614
 20
539.1444316394484
 30
0
 11
279.7475117876602
 21
539.2662486323486
 31
0
  0
LINE
  8
0
 62
7
 10
283.2488413586643
 20
538.4438311943477
 30
0
 11
283.7675572991648
 21
538.7100851423479
 31
0
  0
LINE
  8
0
 62
7
 10
283.7675572991648
 20
538.7100851423479
 30
0
 11
292.456043014774
 21
537.6758476979469
 31
0
  0
LINE
  8
0
 62
7
 10
288.69535547337
 20
537.668806899547
 30
0
 11
289.1695132166706
 21
537.618917811847
 31
0
  0
LINE
  8
0
 62
7
 10
292.456043014774
 20
537.8669178374471
 30
0
 11
281.1369277223621
 21
539.3939292320488
 31
0
  0
LINE
  8
0
 62
7
 10
292.456043014774
 20
538.4913360962478
 30
0
 11
292.456043014774
 21
537.8669178374471
 31
0
  0
LINE
  8
0
 62
7
 10
281.1369277223621
 20
540.9344038256502
 30
0
 11
281.1369277223621
 21
539.3939292320488
 31
0
  0
LINE
  8
0
 62
7
 10
280.3588542773614
 20
540.5278777964497
 30
0
 11
280.3588542773614
 21
538.9956584462484
 31
0
  0
LINE
  8
0
 62
7
 10
262.1371183232441
 20
546.9126230366562
 30
0
 11
262.1371183232441
 21
545.2655157335546
 31
0
  0
LINE
  8
0
 62
7
 10
262.1371183232441
 20
545.0386828073545
 30
0
 11
271.7333562359527
 21
541.534279871951
 31
0
  0
LINE
  8
0
 62
7
 10
271.9116802946528
 20
541.2266677508505
 30
0
 11
274.4566123619561
 21
540.7275533564502
 31
0
  0
LINE
  8
0
 62
7
 10
262.1371183232441
 20
545.2655157335546
 30
0
 11
262.1371183232441
 21
545.0386828073545
 31
0
  0
LINE
  8
0
 62
7
 10
289.3936620713712
 20
721.609314371231
 30
0
 11
295.3739369441764
 21
722.0203703533312
 31
0
  0
LINE
  8
0
 62
7
 10
291.4028466365726
 20
721.687977601031
 30
0
 11
289.3936620713712
 21
721.609314371231
 31
0
  0
LINE
  8
0
 62
7
 10
306.6157685279877
 20
721.6803854596308
 30
0
 11
308.44622158109
 21
721.6066992175308
 31
0
  0
LINE
  8
0
 62
7
 10
308.44622158109
 20
721.6066992175308
 30
0
 11
302.0953683335829
 21
722.0451733360314
 31
0
  0
LINE
  8
0
 62
7
 10
294.589814791776
 20
721.9656681904314
 30
0
 11
295.007402604876
 21
721.9264930378313
 31
0
  0
LINE
  8
0
 62
7
 10
294.589814791776
 20
721.7931425461311
 30
0
 11
294.589814791776
 21
721.9656681904314
 31
0
  0
LINE
  8
0
 62
7
 10
303.2500688603841
 20
721.7931425461311
 30
0
 11
303.2500688603841
 21
721.9636788856312
 31
0
  0
LINE
  8
0
 62
7
 10
303.2500688603841
 20
721.9636788856312
 30
0
 11
302.7172813343841
 21
721.9139611612313
 31
0
  0
LINE
  8
0
 62
7
 10
273.9199414535551
 20
712.0848497638215
 30
0
 11
273.9199414535551
 21
713.7589877734229
 31
0
  0
LINE
  8
0
 62
7
 10
273.9199414535551
 20
547.1184006221565
 30
0
 11
273.9199414535551
 21
545.4442626128548
 31
0
  0
LINE
  8
0
 62
7
 10
274.4199424670551
 20
545.2959215531546
 30
0
 11
273.9199414535551
 21
545.4442626128548
 31
0
  0
LINE
  8
0
 62
7
 10
273.9199414535551
 20
545.4442626128548
 30
0
 11
273.9199414535551
 21
544.0578436739536
 31
0
  0
LINE
  8
0
 62
7
 10
273.9199414535551
 20
544.0578436739536
 30
0
 11
274.4199424670551
 21
543.9387312419533
 31
0
  0
LINE
  8
0
 62
7
 10
273.9199414535551
 20
715.1454067120244
 30
0
 11
273.9199414535551
 21
713.7589877734229
 31
0
  0
LINE
  8
0
 62
7
 10
323.919942198605
 20
546.3549768812557
 30
0
 11
323.919942198605
 21
544.7108051069542
 31
0
  0
LINE
  8
0
 62
7
 10
323.919942198605
 20
712.8482735047221
 30
0
 11
323.919942198605
 21
714.4924452793237
 31
0
  0
LINE
  8
0
 62
7
 10
179.4229630066602
 20
626.6016251670358
 30
0
 11
203.6993834806854
 21
626.6016251670358
 31
0
  0
LINE
  8
0
 62
7
 10
179.4229630066602
 20
632.6016252192419
 30
0
 11
203.6993834806854
 21
632.6016252192419
 31
0
  0
LINE
  8
0
 62
7
 10
138.9199454023201
 20
692.1016251931014
 30
0
 11
138.9199454023201
 21
567.1016251931765
 31
0
  0
LINE
  8
0
 62
7
 10
438.9199424224198
 20
692.1016251931014
 30
0
 11
438.9199424224198
 21
567.1016251931765
 31
0
  0
LINE
  8
0
 62
7
 10
381.8570334153628
 20
632.6016252192419
 30
0
 11
389.2037529186709
 21
632.6016252192419
 31
0
  0
LINE
  8
0
 62
7
 10
389.2037529186709
 20
626.6016251670358
 30
0
 11
381.8570334153628
 21
626.6016251670358
 31
0
  0
LINE
  8
0
 62
7
 10
412.5810671286936
 20
632.6016252192419
 30
0
 11
389.2037529186709
 21
632.6016252192419
 31
0
  0
LINE
  8
0
 62
7
 10
412.5810671286936
 20
626.6016251670358
 30
0
 11
389.2037529186709
 21
626.6016251670358
 31
0
  0
LINE
  8
0
 62
7
 10
418.9199391441998
 20
626.6016251670358
 30
0
 11
412.5810671286936
 21
626.6016251670358
 31
0
  0
LINE
  8
0
 62
7
 10
412.5810671286936
 20
632.6016252192419
 30
0
 11
418.9199391441998
 21
632.6016252192419
 31
0
  0
LINE
  8
0
 62
7
 10
274.4199424670551
 20
546.9766756781562
 30
0
 11
273.9199414535551
 21
547.1184006221565
 31
0
  0
LINE
  8
0
 62
7
 10
285.9295611887674
 20
719.6377044808289
 30
0
 11
291.8010210305729
 21
720.1975038538296
 31
0
  0
LINE
  8
0
 62
7
 10
287.0857692941681
 20
719.7419679055292
 30
0
 11
285.9295611887674
 21
719.6377044808289
 31
0
  0
LINE
  8
0
 62
7
 10
319.5005986527003
 20
541.0493811854503
 30
0
 11
319.5005986527003
 21
540.9629469998504
 31
0
  0
LINE
  8
0
 62
7
 10
308.2211004257897
 20
539.1076630244484
 30
0
 11
305.743616601887
 21
538.8860827574483
 31
0
  0
LINE
  8
0
 62
7
 10
338.105957551219
 20
547.657614041357
 30
0
 11
338.105957551219
 21
547.4777048714568
 31
0
  0
LINE
  8
0
 62
7
 10
326.8264583931077
 20
543.0229207763523
 30
0
 11
324.3489745692059
 21
542.2627305872516
 31
0
  0
LINE
  8
0
 62
7
 10
311.9103224633936
 20
719.6273258218289
 30
0
 11
305.9185948841878
 21
720.2043434869295
 31
0
  0
LINE
  8
0
 62
7
 10
140.9199345541219
 20
524.1016274579336
 30
0
 11
140.9199345541219
 21
735.1016229283443
 31
0
  0
LINE
  8
0
 62
7
 10
158.9199412300404
 20
524.1016274579336
 30
0
 11
158.9199412300404
 21
735.1016229283443
 31
0
  0
LINE
  8
0
 62
7
 10
418.9199391441998
 20
524.1016274579336
 30
0
 11
418.9199391441998
 21
735.1016229283443
 31
0
  0
LINE
  8
0
 62
7
 10
436.9199383693185
 20
524.1016274579336
 30
0
 11
436.9199383693185
 21
735.1016229283443
 31
0
  0
LINE
  8
0
 62
7
 10
352.9217350914341
 20
619.1705907027283
 30
0
 11
353.0032109157346
 21
619.6016254167289
 31
0
  0
LINE
  8
0
 62
7
 10
353.0032109157346
 20
639.6016249695488
 30
0
 11
352.9217350914341
 21
640.0326596835494
 31
0
  0
LINE
  8
0
 62
7
 10
279.419941423761
 20
524.636944223334
 30
0
 11
276.919941945258
 21
524.636944223334
 31
0
  0
LINE
  8
0
 62
7
 10
276.919941945258
 20
524.636944223334
 30
0
 11
274.4199424670551
 21
524.636944223334
 31
0
  0
LINE
  8
0
 62
7
 10
218.9701009229002
 20
624.0068598912335
 30
0
 11
218.9701009229002
 21
626.0741219652352
 31
0
  0
LINE
  8
0
 62
7
 10
216.8667424156984
 20
626.2565273121354
 30
0
 11
217.3522073461991
 21
626.2565273121354
 31
0
  0
LINE
  8
0
 62
7
 10
219.4555658534009
 20
626.0741219652352
 30
0
 11
219.4555658534009
 21
624.0068598912335
 31
0
  0
LINE
  8
0
 62
7
 10
217.3522073461991
 20
624.0068598912335
 30
0
 11
218.9701009229002
 21
624.0068598912335
 31
0
  0
LINE
  8
0
 62
7
 10
217.3522073461991
 20
626.2565273121354
 30
0
 11
217.3522073461991
 21
624.0068598912335
 31
0
  0
LINE
  8
0
 62
7
 10
216.8667424156984
 20
623.2876884081327
 30
0
 11
216.8667424156984
 21
626.2565273121354
 31
0
  0
LINE
  8
0
 62
7
 10
221.8667376473031
 20
623.2876884081327
 30
0
 11
216.8667424156984
 21
623.2876884081327
 31
0
  0
LINE
  8
0
 62
7
 10
221.8667376473031
 20
626.4085319622359
 30
0
 11
221.8667376473031
 21
623.2876884081327
 31
0
  0
LINE
  8
0
 62
7
 10
221.3812727168024
 20
626.4085319622359
 30
0
 11
221.8667376473031
 21
626.4085319622359
 31
0
  0
LINE
  8
0
 62
7
 10
221.3812727168024
 20
624.0068598912335
 30
0
 11
221.3812727168024
 21
626.4085319622359
 31
0
  0
LINE
  8
0
 62
7
 10
219.4555658534009
 20
624.0068598912335
 30
0
 11
221.3812727168024
 21
624.0068598912335
 31
0
  0
LINE
  8
0
 62
7
 10
218.9701009229002
 20
626.0741219652352
 30
0
 11
219.4555658534009
 21
626.0741219652352
 31
0
  0
LINE
  8
0
 62
7
 10
219.9448305800015
 20
630.4396928085398
 30
0
 11
219.9448305800015
 21
631.1693147784406
 31
0
  0
LINE
  8
0
 62
7
 10
218.6109903887
 20
631.1389138485404
 30
0
 11
218.6109903887
 21
630.4700937384398
 31
0
  0
LINE
  8
0
 62
7
 10
286.9199417219679
 20
548.601624954558
 30
0
 11
286.9199417219679
 21
551.4287403116607
 31
0
  0
LINE
  8
0
 62
7
 10
310.9199419304923
 20
551.4287403116607
 30
0
 11
310.9199419304923
 21
548.601624954558
 31
0
  0
LINE
  8
0
 62
7
 10
222.7718863322043
 20
599.4939295836089
 30
0
 11
225.2202365234061
 21
600.9074872623103
 31
0
  0
LINE
  8
0
 62
7
 10
237.2202384902184
 20
580.1228782424896
 30
0
 11
234.7718808485161
 21
578.7093205640881
 31
0
  0
LINE
  8
0
 62
7
 10
363.068002803645
 20
578.7093205640881
 30
0
 11
360.6196451619417
 21
580.1228782424896
 31
0
  0
LINE
  8
0
 62
7
 10
372.6196471290541
 20
600.9074872623103
 30
0
 11
375.0679973199558
 21
599.4939295836089
 31
0
  0
LINE
  8
0
 62
7
 10
375.0679973199558
 20
659.7093208023689
 30
0
 11
372.6196471290541
 21
658.2957631239676
 31
0
  0
LINE
  8
0
 62
7
 10
225.2202365234061
 20
658.2957631239676
 30
0
 11
222.7718863322043
 21
659.7093208023689
 31
0
  0
LINE
  8
0
 62
7
 10
360.6196451619417
 20
679.0803721437883
 30
0
 11
363.068002803645
 21
680.4939298221896
 31
0
  0
LINE
  8
0
 62
7
 10
234.7718808485161
 20
680.4939298221896
 30
0
 11
237.2202384902184
 21
679.0803721437883
 31
0
  0
LINE
  8
0
 62
7
 10
286.9199417219679
 20
707.774510074617
 30
0
 11
286.9199417219679
 21
710.6016254317196
 31
0
  0
LINE
  8
0
 62
7
 10
310.9199419304923
 20
710.6016254317196
 30
0
 11
310.9199419304923
 21
707.774510074617
 31
0
  0
LINE
  8
0
 62
7
 10
282.9824421242647
 20
556.3145479448656
 30
0
 11
279.419941423761
 21
557.1809759624666
 31
0
  0
LINE
  8
0
 62
7
 10
235.4607019259165
 20
643.6701998376529
 30
0
 11
227.650332791909
 21
645.4017175623549
 31
0
  0
LINE
  8
0
 62
7
 10
235.4607019259165
 20
615.5330505483248
 30
0
 11
227.650332791909
 21
613.8015328236231
 31
0
  0
LINE
  8
0
 62
7
 10
237.7727102174185
 20
612.4766128401216
 30
0
 11
246.0049163237272
 21
614.6016255282241
 31
0
  0
LINE
  8
0
 62
7
 10
246.0049163237272
 20
644.6016248577539
 30
0
 11
237.7727102174185
 21
646.7266375461561
 31
0
  0
LINE
  8
0
 62
7
 10
356.3655685320373
 20
621.6016248132307
 30
0
 11
357.9199421838384
 21
621.6016248132307
 31
0
  0
LINE
  8
0
 62
7
 10
357.9199421838384
 20
637.6016255730469
 30
0
 11
356.3655685320373
 21
637.6016255730469
 31
0
  0
LINE
  8
0
 62
7
 10
353.0388582186342
 20
639.6016249695488
 30
0
 11
352.9217350914341
 21
640.0326596835494
 31
0
  0
LINE
  8
0
 62
7
 10
352.9217350914341
 20
619.1705907027283
 30
0
 11
353.0388582186342
 21
619.6016254167289
 31
0
  0
LINE
  8
0
 62
7
 10
358.6699399785393
 20
624.6581952351339
 30
0
 11
358.6699399785393
 21
634.5450551511437
 31
0
  0
LINE
  8
0
 62
7
 10
356.7165504828381
 20
624.748600114234
 30
0
 11
357.1699406640382
 21
624.6581952351339
 31
0
  0
LINE
  8
0
 62
7
 10
357.1699406640382
 20
634.5450551511437
 30
0
 11
356.7165504828381
 21
634.4546502717437
 31
0
  0
LINE
  8
0
 62
7
 10
357.1699406640382
 20
634.5450551511437
 30
0
 11
357.1699406640382
 21
624.6581952351339
 31
0
  0
LINE
  8
0
 62
7
 10
228.7718835905098
 20
660.6016246863699
 30
0
 11
223.2870567275049
 21
660.6016246863699
 31
0
  0
LINE
  8
0
 62
7
 10
234.2567104532154
 20
660.6016246863699
 30
0
 11
228.7718835905098
 21
660.6016246863699
 31
0
  0
LINE
  8
0
 62
7
 10
228.7718835905098
 20
679.6016259381888
 30
0
 11
234.2567104532154
 21
679.6016259381888
 31
0
  0
LINE
  8
0
 62
7
 10
223.2870567275049
 20
679.6016259381888
 30
0
 11
228.7718835905098
 21
679.6016259381888
 31
0
  0
LINE
  8
0
 62
7
 10
228.7718835905098
 20
579.6016244480888
 30
0
 11
223.2870567275049
 21
579.6016244480888
 31
0
  0
LINE
  8
0
 62
7
 10
234.2567104532154
 20
579.6016244480888
 30
0
 11
228.7718835905098
 21
579.6016244480888
 31
0
  0
LINE
  8
0
 62
7
 10
223.2870567275049
 20
598.6016256996079
 30
0
 11
228.7718835905098
 21
598.6016256996079
 31
0
  0
LINE
  8
0
 62
7
 10
228.7718835905098
 20
598.6016256996079
 30
0
 11
234.2567104532154
 21
598.6016256996079
 31
0
  0
LINE
  8
0
 62
7
 10
369.0680000619504
 20
579.6016244480888
 30
0
 11
363.5831731989447
 21
579.6016244480888
 31
0
  0
LINE
  8
0
 62
7
 10
374.5528269246561
 20
579.6016244480888
 30
0
 11
369.0680000619504
 21
579.6016244480888
 31
0
  0
LINE
  8
0
 62
7
 10
363.5831731989447
 20
598.6016256996079
 30
0
 11
369.0680000619504
 21
598.6016256996079
 31
0
  0
LINE
  8
0
 62
7
 10
369.0680000619504
 20
598.6016256996079
 30
0
 11
374.5528269246561
 21
598.6016256996079
 31
0
  0
LINE
  8
0
 62
7
 10
369.0680000619504
 20
660.6016246863699
 30
0
 11
363.5831731989447
 21
660.6016246863699
 31
0
  0
LINE
  8
0
 62
7
 10
374.5528269246561
 20
660.6016246863699
 30
0
 11
369.0680000619504
 21
660.6016246863699
 31
0
  0
LINE
  8
0
 62
7
 10
369.0680000619504
 20
679.6016259381888
 30
0
 11
374.5528269246561
 21
679.6016259381888
 31
0
  0
LINE
  8
0
 62
7
 10
363.5831731989447
 20
679.6016259381888
 30
0
 11
369.0680000619504
 21
679.6016259381888
 31
0
  0
LINE
  8
0
 62
7
 10
304.4047691546857
 20
701.1016285309106
 30
0
 11
298.9199418260805
 21
701.1016285309106
 31
0
  0
LINE
  8
0
 62
7
 10
298.9199418260805
 20
701.1016285309106
 30
0
 11
293.4351144977754
 21
701.1016285309106
 31
0
  0
LINE
  8
0
 62
7
 10
290.6927006006717
 20
705.8516269813151
 30
0
 11
287.9502871691693
 21
710.6016254317196
 31
0
  0
LINE
  8
0
 62
7
 10
293.4351144977754
 20
720.1016223322295
 30
0
 11
298.9199418260805
 21
720.1016223322295
 31
0
  0
LINE
  8
0
 62
7
 10
298.9199418260805
 20
720.1016223322295
 30
0
 11
304.4047691546857
 21
720.1016223322295
 31
0
  0
LINE
  8
0
 62
7
 10
304.4047691546857
 20
539.1016280540484
 30
0
 11
298.9199418260805
 21
539.1016280540484
 31
0
  0
LINE
  8
0
 62
7
 10
298.9199418260805
 20
539.1016280540484
 30
0
 11
293.4351144977754
 21
539.1016280540484
 31
0
  0
LINE
  8
0
 62
7
 10
307.1471830517885
 20
553.3516234049628
 30
0
 11
309.8895964829908
 21
548.601624954558
 31
0
  0
LINE
  8
0
 62
7
 10
293.4351144977754
 20
558.1016218550674
 30
0
 11
298.9199418260805
 21
558.1016218550674
 31
0
  0
LINE
  8
0
 62
7
 10
298.9199418260805
 20
558.1016218550674
 30
0
 11
304.4047691546857
 21
558.1016218550674
 31
0
  0
LINE
  8
0
 62
7
 10
244.1900591984249
 20
615.4016251008247
 30
0
 11
238.4199421538197
 21
615.4016251008247
 31
0
  0
LINE
  8
0
 62
7
 10
236.4199418261178
 20
617.4016254285266
 30
0
 11
236.4199418261178
 21
641.8016249577511
 31
0
  0
LINE
  8
0
 62
7
 10
238.4199421538197
 20
643.8016252854532
 30
0
 11
244.1900591984249
 21
643.8016252854532
 31
0
  0
LINE
  8
0
 62
7
 10
352.5948892965334
 20
619.6016254167289
 30
0
 11
354.3455671206357
 21
619.6016254167289
 31
0
  0
LINE
  8
0
 62
7
 10
354.3455671206357
 20
639.6016249695488
 30
0
 11
352.5948892965334
 21
639.6016249695488
 31
0
  0
LINE
  8
0
 62
7
 10
335.9199423030168
 20
604.601624820614
 30
0
 11
335.9199423030168
 21
634.6016250813439
 31
0
  0
LINE
  8
0
 62
7
 10
335.9199423030168
 20
634.6016250813439
 30
0
 11
323.919942198605
 21
634.6016250813439
 31
0
  0
LINE
  8
0
 62
7
 10
323.919942198605
 20
634.6016250813439
 30
0
 11
323.919942198605
 21
604.601624820614
 31
0
  0
LINE
  8
0
 62
7
 10
323.919942198605
 20
604.601624820614
 30
0
 11
335.9199423030168
 21
604.601624820614
 31
0
  0
LINE
  8
0
 62
7
 10
292.0199419058736
 20
630.7016251872399
 30
0
 11
296.4199418819781
 21
630.7016251872399
 31
0
  0
LINE
  8
0
 62
7
 10
292.0199419058736
 20
630.7016251872399
 30
0
 11
292.0199419058736
 21
635.1016251633444
 31
0
  0
LINE
  8
0
 62
7
 10
289.8199414520714
 20
635.1016251633444
 30
0
 11
292.0199419058736
 21
635.1016251633444
 31
0
  0
LINE
  8
0
 62
7
 10
289.8199414520714
 20
630.7016251872399
 30
0
 11
289.8199414520714
 21
635.1016251633444
 31
0
  0
LINE
  8
0
 62
7
 10
285.4199414759669
 20
630.7016251872399
 30
0
 11
289.8199414520714
 21
630.7016251872399
 31
0
  0
LINE
  8
0
 62
7
 10
285.4199414759669
 20
628.5016251990378
 30
0
 11
285.4199414759669
 21
630.7016251872399
 31
0
  0
LINE
  8
0
 62
7
 10
285.4199414759669
 20
628.5016251990378
 30
0
 11
289.8199414520714
 21
628.5016251990378
 31
0
  0
LINE
  8
0
 62
7
 10
289.8199414520714
 20
624.1016252229333
 30
0
 11
289.8199414520714
 21
628.5016251990378
 31
0
  0
LINE
  8
0
 62
7
 10
289.8199414520714
 20
624.1016252229333
 30
0
 11
292.0199419058736
 21
624.1016252229333
 31
0
  0
LINE
  8
0
 62
7
 10
292.0199419058736
 20
624.1016252229333
 30
0
 11
292.0199419058736
 21
628.5016251990378
 31
0
  0
LINE
  8
0
 62
7
 10
292.0199419058736
 20
628.5016251990378
 30
0
 11
296.4199418819781
 21
628.5016251990378
 31
0
  0
LINE
  8
0
 62
7
 10
296.4199418819781
 20
628.5016251990378
 30
0
 11
296.4199418819781
 21
630.7016251872399
 31
0
  0
LINE
  8
0
 62
7
 10
335.8156677024172
 20
645.5861958006547
 30
0
 11
335.8156677024172
 21
644.3572402263537
 31
0
  0
LINE
  8
0
 62
7
 10
330.1885347501111
 20
645.5861958006547
 30
0
 11
335.8156677024172
 21
645.5861958006547
 31
0
  0
LINE
  8
0
 62
7
 10
328.9316460177106
 20
639.9869950749494
 30
0
 11
329.786330057711
 21
639.9869950749494
 31
0
  0
LINE
  8
0
 62
7
 10
328.9316460177106
 20
638.758037638248
 30
0
 11
328.9316460177106
 21
639.9869950749494
 31
0
  0
LINE
  8
0
 62
7
 10
335.8156677024172
 20
638.758037638248
 30
0
 11
328.9316460177106
 21
638.758037638248
 31
0
  0
LINE
  8
0
 62
7
 10
335.8156677024172
 20
639.9869950749494
 30
0
 11
335.8156677024172
 21
638.758037638248
 31
0
  0
LINE
  8
0
 62
7
 10
331.2443192736128
 20
639.9869950749494
 30
0
 11
335.8156677024172
 21
639.9869950749494
 31
0
  0
LINE
  8
0
 62
7
 10
335.8156677024172
 20
641.5287772455508
 30
0
 11
330.5907394425121
 21
641.5287772455508
 31
0
  0
LINE
  8
0
 62
7
 10
335.8156677024172
 20
642.7577337513519
 30
0
 11
335.8156677024172
 21
641.5287772455508
 31
0
  0
LINE
  8
0
 62
7
 10
331.2443192736128
 20
642.7577337513519
 30
0
 11
335.8156677024172
 21
642.7577337513519
 31
0
  0
LINE
  8
0
 62
7
 10
335.8156677024172
 20
644.3572402263537
 30
0
 11
330.6410122350117
 21
644.3572402263537
 31
0
  0
LINE
  8
0
 62
7
 10
308.9199416027905
 20
656.6016258933657
 30
0
 11
308.9199416027905
 21
602.6016244926118
 31
0
  0
LINE
  8
0
 62
7
 10
308.9199416027905
 20
602.6016244926118
 30
0
 11
320.9199417069021
 21
602.6016244926118
 31
0
  0
LINE
  8
0
 62
7
 10
320.9199417069021
 20
602.6016244926118
 30
0
 11
320.9199417069021
 21
656.6016258933657
 31
0
  0
LINE
  8
0
 62
7
 10
320.9199417069021
 20
656.6016258933657
 30
0
 11
308.9199416027905
 21
656.6016258933657
 31
0
  0
LINE
  8
0
 62
7
 10
262.919943375844
 20
647.6016244182567
 30
0
 11
262.919943375844
 21
611.6016259680209
 31
0
  0
LINE
  8
0
 62
7
 10
262.919943375844
 20
611.6016259680209
 30
0
 11
272.9199412898543
 21
611.6016259680209
 31
0
  0
LINE
  8
0
 62
7
 10
272.9199412898543
 20
611.6016259680209
 30
0
 11
272.9199412898543
 21
647.6016244182567
 31
0
  0
LINE
  8
0
 62
7
 10
272.9199412898543
 20
647.6016244182567
 30
0
 11
262.919943375844
 21
647.6016244182567
 31
0
  0
LINE
  8
0
 62
7
 10
283.4199420794648
 20
642.5920058304519
 30
0
 11
283.4199420794648
 21
633.9317522274432
 31
0
  0
LINE
  8
0
 62
7
 10
285.4199414759669
 20
639.1279049481484
 30
0
 11
285.4199414759669
 21
632.7770517003421
 31
0
  0
LINE
  8
0
 62
7
 10
290.9199414461718
 20
635.9524782078452
 30
0
 11
285.4199414759669
 21
639.1279049481484
 31
0
  0
LINE
  8
0
 62
7
 10
296.4199418819781
 20
639.1279049481484
 30
0
 11
290.9199414461718
 21
635.9524782078452
 31
0
  0
LINE
  8
0
 62
7
 10
296.4199418819781
 20
632.7770517003421
 30
0
 11
296.4199418819781
 21
639.1279049481484
 31
0
  0
LINE
  8
0
 62
7
 10
301.919941852183
 20
629.6016251931389
 30
0
 11
296.4199418819781
 21
632.7770517003421
 31
0
  0
LINE
  8
0
 62
7
 10
296.4199418819781
 20
626.4261986856359
 30
0
 11
301.919941852183
 21
629.6016251931389
 31
0
  0
LINE
  8
0
 62
7
 10
296.4199418819781
 20
620.0753454381295
 30
0
 11
296.4199418819781
 21
626.4261986856359
 31
0
  0
LINE
  8
0
 62
7
 10
290.9199414461718
 20
623.2507721784325
 30
0
 11
296.4199418819781
 21
620.0753454381295
 31
0
  0
LINE
  8
0
 62
7
 10
285.4199414759669
 20
620.0753454381295
 30
0
 11
290.9199414461718
 21
623.2507721784325
 31
0
  0
LINE
  8
0
 62
7
 10
285.4199414759669
 20
626.4261986856359
 30
0
 11
285.4199414759669
 21
620.0753454381295
 31
0
  0
LINE
  8
0
 62
7
 10
279.9199424369617
 20
629.6016251931389
 30
0
 11
285.4199414759669
 21
626.4261986856359
 31
0
  0
LINE
  8
0
 62
7
 10
285.4199414759669
 20
632.7770517003421
 30
0
 11
279.9199424369617
 21
629.6016251931389
 31
0
  0
LINE
  8
0
 62
7
 10
283.4199420794648
 20
633.9317522274432
 30
0
 11
275.9199417815571
 21
629.6016251931389
 31
0
  0
LINE
  8
0
 62
7
 10
275.9199417815571
 20
629.6016251931389
 30
0
 11
283.4199420794648
 21
625.2714981588347
 31
0
  0
LINE
  8
0
 62
7
 10
283.4199420794648
 20
625.2714981588347
 30
0
 11
283.4199420794648
 21
616.6112445558258
 31
0
  0
LINE
  8
0
 62
7
 10
283.4199420794648
 20
616.6112445558258
 30
0
 11
290.9199414461718
 21
620.9413711245304
 31
0
  0
LINE
  8
0
 62
7
 10
290.9199414461718
 20
620.9413711245304
 30
0
 11
298.4199418025792
 21
616.6112445558258
 31
0
  0
LINE
  8
0
 62
7
 10
298.4199418025792
 20
616.6112445558258
 30
0
 11
298.4199418025792
 21
625.2714981588347
 31
0
  0
LINE
  8
0
 62
7
 10
298.4199418025792
 20
625.2714981588347
 30
0
 11
305.9199420422874
 21
629.6016251931389
 31
0
  0
LINE
  8
0
 62
7
 10
305.9199420422874
 20
629.6016251931389
 30
0
 11
298.4199418025792
 21
633.9317522274432
 31
0
  0
LINE
  8
0
 62
7
 10
298.4199418025792
 20
633.9317522274432
 30
0
 11
298.4199418025792
 21
642.5920058304519
 31
0
  0
LINE
  8
0
 62
7
 10
298.4199418025792
 20
642.5920058304519
 30
0
 11
290.9199414461718
 21
638.2618792617475
 31
0
  0
LINE
  8
0
 62
7
 10
290.9199414461718
 20
638.2618792617475
 30
0
 11
283.4199420794648
 21
642.5920058304519
 31
0
  0
LINE
  8
0
 62
7
 10
330.1885347501111
 20
654.5861972757637
 30
0
 11
335.8156677024172
 21
654.5861972757637
 31
0
  0
LINE
  8
0
 62
7
 10
328.9316460177106
 20
648.9869946876584
 30
0
 11
329.786330057711
 21
648.9869946876584
 31
0
  0
LINE
  8
0
 62
7
 10
328.9316460177106
 20
647.758038182157
 30
0
 11
328.9316460177106
 21
648.9869946876584
 31
0
  0
LINE
  8
0
 62
7
 10
335.8156677024172
 20
647.758038182157
 30
0
 11
328.9316460177106
 21
647.758038182157
 31
0
  0
LINE
  8
0
 62
7
 10
335.8156677024172
 20
648.9869946876584
 30
0
 11
335.8156677024172
 21
647.758038182157
 31
0
  0
LINE
  8
0
 62
7
 10
331.2443192736128
 20
648.9869946876584
 30
0
 11
335.8156677024172
 21
648.9869946876584
 31
0
  0
LINE
  8
0
 62
7
 10
335.8156677024172
 20
650.5287768582598
 30
0
 11
330.5907394425121
 21
650.5287768582598
 31
0
  0
LINE
  8
0
 62
7
 10
335.8156677024172
 20
651.7577333637612
 30
0
 11
335.8156677024172
 21
650.5287768582598
 31
0
  0
LINE
  8
0
 62
7
 10
331.2443192736128
 20
651.7577333637612
 30
0
 11
335.8156677024172
 21
651.7577333637612
 31
0
  0
LINE
  8
0
 62
7
 10
335.8156677024172
 20
653.3572407702627
 30
0
 11
330.6410122350117
 21
653.3572407702627
 31
0
  0
LINE
  8
0
 62
7
 10
335.8156677024172
 20
654.5861972757637
 30
0
 11
335.8156677024172
 21
653.3572407702627
 31
0
  0
LINE
  8
0
 62
7
 10
305.6589021035861
 20
537.3485138900469
 30
0
 11
308.2211004257897
 21
537.6348099002471
 31
0
  0
LINE
  8
0
 62
7
 10
316.8002288474982
 20
538.9152070769483
 30
0
 11
319.6063838586006
 21
539.4478714355489
 31
0
  0
LINE
  8
0
 62
7
 10
324.2609198823056
 20
540.64472525215
 30
0
 11
326.8264583931077
 21
541.4892038591509
 31
0
  0
LINE
  8
0
 62
7
 10
335.371922297717
 20
544.672948706954
 30
0
 11
338.23374618452
 21
545.8785420545553
 31
0
  0
LINE
  8
0
 62
7
 10
280.4363589419618
 20
538.9969995506483
 30
0
 11
284.1111687629655
 21
538.3490672597477
 31
0
  0
LINE
  8
0
 62
7
 10
289.1755593626704
 20
537.678775776247
 30
0
 11
292.3167884036739
 21
537.3612990863467
 31
0
  0
LINE
  8
0
 62
7
 10
407.8234988883887
 20
584.3965536245935
 30
0
 11
412.1402609781935
 21
582.9282006509923
 31
0
  0
LINE
  8
0
 62
7
 10
412.1402609781935
 20
676.2750497349855
 30
0
 11
407.8234988883887
 21
674.8066967616842
 31
0
  0
LINE
  8
0
 62
7
 10
138.9199454023201
 20
567.1016251931765
 30
0
 11
140.9199345541219
 21
565.1016285905744
 31
0
  0
LINE
  8
0
 62
7
 10
140.9199345541219
 20
694.1016217957035
 30
0
 11
138.9199454023201
 21
692.1016251931014
 31
0
  0
LINE
  8
0
 62
7
 10
438.9199424224198
 20
692.1016251931014
 30
0
 11
436.9199383693185
 21
694.1016217957035
 31
0
  0
LINE
  8
0
 62
7
 10
436.9199383693185
 20
565.1016285905744
 30
0
 11
438.9199424224198
 21
567.1016251931765
 31
0
  0
LINE
  8
0
 62
7
 10
279.419941423761
 20
540.7674810179501
 30
0
 11
280.5048223271615
 21
540.5493727214498
 31
0
  0
LINE
  8
0
 62
7
 10
314.6374612733962
 20
540.1406562218494
 30
0
 11
316.7357366219976
 21
540.5327430257498
 31
0
  0
LINE
  8
0
 62
7
 10
328.0130993262092
 20
543.5470542200528
 30
0
 11
328.6441504644099
 21
543.7474375853531
 31
0
  0
LINE
  8
0
 62
7
 10
333.7264429464149
 20
545.6467619426549
 30
0
 11
335.1979661421165
 21
546.3224103935556
 31
0
  0
LINE
  8
0
 62
7
 10
338.0063619153189
 20
547.6118898281568
 30
0
 11
341.8923724131237
 21
549.3961474187588
 31
0
  0
LINE
  8
0
 62
7
 10
158.9199412300404
 20
735.1016229283443
 30
0
 11
140.9199345541219
 21
735.1016229283443
 31
0
  0
LINE
  8
0
 62
7
 10
140.9199345541219
 20
524.1016274579336
 30
0
 11
158.9199412300404
 21
524.1016274579336
 31
0
  0
LINE
  8
0
 62
7
 10
418.9199391441998
 20
524.1016274579336
 30
0
 11
436.9199383693185
 21
524.1016274579336
 31
0
  0
LINE
  8
0
 62
7
 10
436.9199383693185
 20
735.1016229283443
 30
0
 11
418.9199391441998
 21
735.1016229283443
 31
0
  0
LINE
  8
0
 62
7
 10
274.4199424670551
 20
582.6042866594921
 30
0
 11
274.4199424670551
 21
524.636944223334
 31
0
  0
LINE
  8
0
 62
7
 10
279.419941423761
 20
524.636944223334
 30
0
 11
279.419941423761
 21
580.3192755470896
 31
0
  0
LINE
  8
0
 62
2
  6
DASHDOT
 10
453.9199424224198
 20
277.4232654701868
 30
0
 11
123.9199454023201
 21
277.4232654701868
 31
0
  0
LINE
  8
0
 62
2
  6
DASHDOT
 10
298.9199418260805
 20
459.0732627046535
 30
0
 11
298.9199418260805
 21
162.4232639797868
 31
0
  0
LINE
  8
0
 62
7
 10
216.7745191288977
 20
378.4232689869877
 30
0
 11
216.7745191288977
 21
393.4232621323027
 31
0
  0
LINE
  8
0
 62
7
 10
381.0653645232624
 20
378.4232689869877
 30
0
 11
381.0653645232624
 21
393.4232621323027
 31
0
  0
LINE
  8
0
 62
7
 10
358.0983426108396
 20
373.4232663045828
 30
0
 11
309.8895964829908
 21
373.4232663045828
 31
0
  0
LINE
  8
0
 62
7
 10
287.9502871691693
 20
373.4232663045828
 30
0
 11
239.7415410413214
 21
373.4232663045828
 31
0
  0
LINE
  8
0
 62
7
 10
357.9199421838384
 20
413.5732679497228
 30
0
 11
357.9199421838384
 21
416.5732591282261
 31
0
  0
LINE
  8
0
 62
7
 10
355.8672848775368
 20
414.5732699764239
 30
0
 11
355.8672848775368
 21
413.5732679497228
 31
0
  0
LINE
  8
0
 62
7
 10
237.2202384902184
 20
407.4232607020169
 30
0
 11
237.2202384902184
 21
408.4232627284178
 31
0
  0
LINE
  8
0
 62
7
 10
237.2202384902184
 20
408.4232627284178
 30
0
 11
234.7718808485161
 21
408.4232627284178
 31
0
  0
LINE
  8
0
 62
7
 10
363.068002803645
 20
408.4232627284178
 30
0
 11
360.6196451619417
 21
408.4232627284178
 31
0
  0
LINE
  8
0
 62
7
 10
360.6196451619417
 20
408.4232627284178
 30
0
 11
360.6196451619417
 21
407.4232607020169
 31
0
  0
LINE
  8
0
 62
7
 10
236.3288659289174
 20
407.4232607020169
 30
0
 11
237.2202384902184
 21
407.4232607020169
 31
0
  0
LINE
  8
0
 62
7
 10
360.6196451619417
 20
407.4232607020169
 30
0
 11
361.5110177235429
 21
407.4232607020169
 31
0
  0
LINE
  8
0
 62
7
 10
234.7718808485161
 20
407.1949600111166
 30
0
 11
236.3288659289174
 21
407.4232607020169
 31
0
  0
LINE
  8
0
 62
7
 10
361.5110177235429
 20
407.4232607020169
 30
0
 11
363.068002803645
 21
407.1949600111166
 31
0
  0
LINE
  8
0
 62
7
 10
363.068002803645
 20
408.4232627284178
 30
0
 11
363.068002803645
 21
407.1949600111166
 31
0
  0
LINE
  8
0
 62
7
 10
234.7718808485161
 20
408.4232627284178
 30
0
 11
234.7718808485161
 21
407.1949600111166
 31
0
  0
LINE
  8
0
 62
7
 10
350.6430718734318
 20
434.0732722414433
 30
0
 11
350.6430718734318
 21
436.0732613932455
 31
0
  0
LINE
  8
0
 62
7
 10
248.9081542625308
 20
427.5732665194369
 30
0
 11
248.9081542625308
 21
417.5732611549269
 31
0
  0
LINE
  8
0
 62
7
 10
248.9081542625308
 20
417.5732611549269
 30
0
 11
248.8813172711298
 21
416.5732591282261
 31
0
  0
LINE
  8
0
 62
7
 10
412.5810671286936
 20
344.9293776285542
 30
0
 11
389.2037529186709
 21
335.732082916545
 31
0
  0
LINE
  8
0
 62
7
 10
264.146707548246
 20
180.0152166613893
 30
0
 11
263.9199416771453
 21
177.4232639797868
 31
0
  0
LINE
  8
0
 62
7
 10
248.3816515340295
 20
183.5759534368929
 30
0
 11
248.9199410810306
 21
177.4232639797868
 31
0
  0
LINE
  8
0
 62
7
 10
248.9199410810306
 20
177.4232639797868
 30
0
 11
263.9199416771453
 21
177.4232639797868
 31
0
  0
LINE
  8
0
 62
7
 10
333.4081951215148
 20
183.2725732456926
 30
0
 11
333.9199419753149
 21
177.4232639797868
 31
0
  0
LINE
  8
0
 62
7
 10
333.9199419753149
 20
177.4232639797868
 30
0
 11
348.9199425714305
 21
177.4232639797868
 31
0
  0
LINE
  8
0
 62
7
 10
349.9626289740309
 20
189.3412499557987
 30
0
 11
348.9199425714305
 21
177.4232639797868
 31
0
  0
LINE
  8
0
 62
7
 10
412.6668158607936
 20
209.9503232966194
 30
0
 11
382.7713239624636
 21
222.0319091210313
 31
0
  0
LINE
  8
0
 62
7
 10
368.0253211095487
 20
364.9763940702745
 30
0
 11
364.6008778050455
 21
367.4232690465768
 31
0
  0
LINE
  8
0
 62
7
 10
381.9199386672626
 20
378.4232689869877
 30
0
 11
381.0653645232624
 21
378.4232689869877
 31
0
  0
LINE
  8
0
 62
7
 10
381.9199386672626
 20
378.4232689869877
 30
0
 11
381.9199386672626
 21
393.4232621323027
 31
0
  0
LINE
  8
0
 62
7
 10
216.7745191288977
 20
378.4232689869877
 30
0
 11
215.9199449851976
 21
378.4232689869877
 31
0
  0
LINE
  8
0
 62
7
 10
215.9199449851976
 20
378.4232689869877
 30
0
 11
215.9199449851976
 21
393.4232621323027
 31
0
  0
LINE
  8
0
 62
7
 10
402.983825250084
 20
320.8786799442302
 30
0
 11
412.1402609781935
 21
324.0001751910334
 31
0
  0
LINE
  8
0
 62
7
 10
295.3708971071765
 20
189.4139005669987
 30
0
 11
296.4199418819781
 21
177.4232639797868
 31
0
  0
LINE
  8
0
 62
7
 10
296.4199418819781
 20
177.4232639797868
 30
0
 11
301.419941770183
 21
177.4232639797868
 31
0
  0
LINE
  8
0
 62
7
 10
302.4626302685838
 20
189.3412499557987
 30
0
 11
301.419941770183
 21
177.4232639797868
 31
0
  0
LINE
  8
0
 62
7
 10
236.3280612662175
 20
378.4232689869877
 30
0
 11
216.7745191288977
 21
378.4232689869877
 31
0
  0
LINE
  8
0
 62
7
 10
381.0653645232624
 20
378.4232689869877
 30
0
 11
361.5118223862428
 21
378.4232689869877
 31
0
  0
LINE
  8
0
 62
7
 10
352.5742698147342
 20
366.4377211461758
 30
0
 11
350.215792252231
 21
366.1622359287756
 31
0
  0
LINE
  8
0
 62
7
 10
354.3455671206357
 20
366.687442256176
 30
0
 11
352.5742698147342
 21
366.4377211461758
 31
0
  0
LINE
  8
0
 62
7
 10
138.9199454023201
 20
339.9232654701493
 30
0
 11
138.9199454023201
 21
214.9232654702243
 31
0
  0
LINE
  8
0
 62
7
 10
438.9199424224198
 20
339.9232654701493
 30
0
 11
438.9199424224198
 21
214.9232654702243
 31
0
  0
LINE
  8
0
 62
7
 10
248.3849372402292
 20
183.5383876093929
 30
0
 11
242.6769170597236
 21
185.3650539049947
 31
0
  0
LINE
  8
0
 62
7
 10
298.9199418260805
 20
189.2770334014986
 30
0
 11
302.4626302685838
 21
189.3412499557987
 31
0
  0
LINE
  8
0
 62
7
 10
347.7979670898294
 20
188.3413969405977
 30
0
 11
349.9626289740309
 21
189.3412499557987
 31
0
  0
LINE
  8
0
 62
7
 10
307.9199414387886
 20
229.9232660660393
 30
0
 11
307.9199414387886
 21
217.9232640992273
 31
0
  0
LINE
  8
0
 62
7
 10
289.9199422136717
 20
229.9232660660393
 30
0
 11
307.9199414387886
 21
229.9232660660393
 31
0
  0
LINE
  8
0
 62
7
 10
289.9199422136717
 20
217.9232640992273
 30
0
 11
289.9199422136717
 21
229.9232660660393
 31
0
  0
LINE
  8
0
 62
7
 10
307.9199414387886
 20
217.9232640992273
 30
0
 11
289.9199422136717
 21
217.9232640992273
 31
0
  0
LINE
  8
0
 62
7
 10
293.7210058481751
 20
220.4977488944298
 30
0
 11
292.8711102032739
 21
220.4977488944298
 31
0
  0
LINE
  8
0
 62
7
 10
293.7210058481751
 20
227.4977481791369
 30
0
 11
293.7210058481751
 21
220.4977488944298
 31
0
  0
LINE
  8
0
 62
7
 10
293.2900731137743
 20
227.4977481791369
 30
0
 11
293.7210058481751
 21
227.4977481791369
 31
0
  0
LINE
  8
0
 62
7
 10
291.8177187128731
 20
226.0679556857354
 30
0
 11
291.8177187128731
 21
226.4922364484359
 31
0
  0
LINE
  8
0
 62
7
 10
292.8711102032739
 20
226.0679556857354
 30
0
 11
291.8177187128731
 21
226.0679556857354
 31
0
  0
LINE
  8
0
 62
7
 10
292.8711102032739
 20
220.4977488944298
 30
0
 11
292.8711102032739
 21
226.0679556857354
 31
0
  0
LINE
  8
0
 62
7
 10
299.2369473248809
 20
220.4977488944298
 30
0
 11
298.3870518545791
 21
220.4977488944298
 31
0
  0
LINE
  8
0
 62
7
 10
299.2369473248809
 20
227.4977481791369
 30
0
 11
299.2369473248809
 21
220.4977488944298
 31
0
  0
LINE
  8
0
 62
7
 10
298.8060144089805
 20
227.4977481791369
 30
0
 11
299.2369473248809
 21
227.4977481791369
 31
0
  0
LINE
  8
0
 62
7
 10
297.3336602480786
 20
226.0679556857354
 30
0
 11
297.3336602480786
 21
226.4922364484359
 31
0
  0
LINE
  8
0
 62
7
 10
298.3870518545791
 20
226.0679556857354
 30
0
 11
297.3336602480786
 21
226.0679556857354
 31
0
  0
LINE
  8
0
 62
7
 10
298.3870518545791
 20
220.4977488944298
 30
0
 11
298.3870518545791
 21
226.0679556857354
 31
0
  0
LINE
  8
0
 62
7
 10
302.3588169053837
 20
227.4977481791369
 30
0
 11
303.6037344173847
 21
227.4977481791369
 31
0
  0
LINE
  8
0
 62
7
 10
302.3588169053837
 20
220.4977488944298
 30
0
 11
302.3588169053837
 21
227.4977481791369
 31
0
  0
LINE
  8
0
 62
7
 10
303.6037344173847
 20
220.4977488944298
 30
0
 11
302.3588169053837
 21
220.4977488944298
 31
0
  0
LINE
  8
0
 62
7
 10
303.2087125502849
 20
221.1773983070305
 30
0
 11
303.6037344173847
 21
221.1773983070305
 31
0
  0
LINE
  8
0
 62
7
 10
303.2087125502849
 20
226.8180987665361
 30
0
 11
303.2087125502849
 21
221.1773983070305
 31
0
  0
LINE
  8
0
 62
7
 10
303.6037344173847
 20
226.8180987665361
 30
0
 11
303.2087125502849
 21
226.8180987665361
 31
0
  0
LINE
  8
0
 62
7
 10
361.5118223862428
 20
378.4232689869877
 30
0
 11
310.7713289246922
 21
378.4232689869877
 31
0
  0
LINE
  8
0
 62
7
 10
361.5118223862428
 20
378.4232689869877
 30
0
 11
361.5118223862428
 21
393.4232621323027
 31
0
  0
LINE
  8
0
 62
7
 10
287.0685547277681
 20
378.4232689869877
 30
0
 11
236.3280612662175
 21
378.4232689869877
 31
0
  0
LINE
  8
0
 62
7
 10
236.3280612662175
 20
378.4232689869877
 30
0
 11
236.3280612662175
 21
393.4232621323027
 31
0
  0
LINE
  8
0
 62
7
 10
324.3489745692059
 20
309.5458178649189
 30
0
 11
324.3489745692059
 21
297.604150218907
 31
0
  0
LINE
  8
0
 62
7
 10
335.6284718649167
 20
306.5805910956159
 30
0
 11
335.6284718649167
 21
297.604150218907
 31
0
  0
LINE
  8
0
 62
7
 10
335.6284718649167
 20
297.604150218907
 30
0
 11
338.105957551219
 21
297.604150218907
 31
0
  0
LINE
  8
0
 62
7
 10
338.105957551219
 20
297.604150218907
 30
0
 11
338.105957551219
 21
307.3655041734167
 31
0
  0
LINE
  8
0
 62
7
 10
326.8264583931077
 20
308.0632044804175
 30
0
 11
326.8264583931077
 21
309.5458178649189
 31
0
  0
LINE
  8
0
 62
7
 10
326.8264583931077
 20
309.5458178649189
 30
0
 11
324.3489745692059
 21
309.5458178649189
 31
0
  0
LINE
  8
0
 62
7
 10
324.3489745692059
 20
297.604150218907
 30
0
 11
326.8264583931077
 21
297.604150218907
 31
0
  0
LINE
  8
0
 62
7
 10
326.8264583931077
 20
297.604150218907
 30
0
 11
326.8264583931077
 21
305.5340397042149
 31
0
  0
LINE
  8
0
 62
7
 10
329.9305826112113
 20
306.6678020040161
 30
0
 11
329.9305826112113
 21
297.604150218907
 31
0
  0
LINE
  8
0
 62
7
 10
329.9305826112113
 20
297.604150218907
 30
0
 11
332.4080664351131
 21
297.604150218907
 31
0
  0
LINE
  8
0
 62
7
 10
332.4080664351131
 20
297.604150218907
 30
0
 11
332.4080664351131
 21
305.5340397042149
 31
0
  0
LINE
  8
0
 62
7
 10
298.9258616126799
 20
330.4232648442397
 30
0
 11
305.9199420422874
 21
330.4232648442397
 31
0
  0
LINE
  8
0
 62
7
 10
305.9199420422874
 20
334.4232654999439
 30
0
 11
298.9274195930802
 21
334.4232654999439
 31
0
  0
LINE
  8
0
 62
7
 10
305.9199420422874
 20
337.4232641292468
 30
0
 11
305.9199420422874
 21
334.4232654999439
 31
0
  0
LINE
  8
0
 62
7
 10
305.9199420422874
 20
330.4232648442397
 30
0
 11
305.9199420422874
 21
327.4232662152368
 31
0
  0
LINE
  8
0
 62
7
 10
262.1371183232441
 20
315.2374393176246
 30
0
 11
271.7333562359527
 21
315.2374393176246
 31
0
  0
LINE
  8
0
 62
7
 10
265.3790894582471
 20
297.630752517007
 30
0
 11
268.3617058829495
 21
297.630752517007
 31
0
  0
LINE
  8
0
 62
7
 10
274.4566123619561
 20
315.0299518239244
 30
0
 11
274.4566123619561
 21
317.1307510566265
 31
0
  0
LINE
  8
0
 62
7
 10
274.4566123619561
 20
317.1307510566265
 30
0
 11
262.1371183232441
 21
317.1307510566265
 31
0
  0
LINE
  8
0
 62
7
 10
262.1371183232441
 20
317.1307510566265
 30
0
 11
262.1371183232441
 21
315.2374393176246
 31
0
  0
LINE
  8
0
 62
7
 10
273.9199414535551
 20
330.4232648442397
 30
0
 11
298.9257987074807
 21
330.4232648442397
 31
0
  0
LINE
  8
0
 62
7
 10
298.9271963930805
 20
334.4232654999439
 30
0
 11
273.9199414535551
 21
334.4232654999439
 31
0
  0
LINE
  8
0
 62
7
 10
273.9199414535551
 20
334.4232654999439
 30
0
 11
273.9199414535551
 21
330.4232648442397
 31
0
  0
LINE
  8
0
 62
7
 10
282.7301263496638
 20
303.1254309099125
 30
0
 11
279.7475117876602
 21
303.1254309099125
 31
0
  0
LINE
  8
0
 62
7
 10
283.2488413586643
 20
308.7275578509181
 30
0
 11
283.7675572991648
 21
315.2374393176246
 31
0
  0
LINE
  8
0
 62
7
 10
283.7675572991648
 20
315.2374393176246
 30
0
 11
292.456043014774
 21
315.2374393176246
 31
0
  0
LINE
  8
0
 62
7
 10
292.456043014774
 20
315.2374393176246
 30
0
 11
292.456043014774
 21
317.1307510566265
 31
0
  0
LINE
  8
0
 62
7
 10
292.456043014774
 20
317.1307510566265
 30
0
 11
281.1369277223621
 21
317.1307510566265
 31
0
  0
LINE
  8
0
 62
7
 10
280.3588542773614
 20
306.4266863148158
 30
0
 11
283.1191621406642
 21
306.4266863148158
 31
0
  0
LINE
  8
0
 62
7
 10
310.9199419304923
 20
378.4232689869877
 30
0
 11
286.9199417219679
 21
378.4232689869877
 31
0
  0
LINE
  8
0
 62
7
 10
317.0231148287985
 20
306.5805910956159
 30
0
 11
317.0231148287985
 21
297.604150218907
 31
0
  0
LINE
  8
0
 62
7
 10
317.0231148287985
 20
297.604150218907
 30
0
 11
319.5005986527003
 21
297.604150218907
 31
0
  0
LINE
  8
0
 62
7
 10
319.5005986527003
 20
297.604150218907
 30
0
 11
319.5005986527003
 21
307.3655041734167
 31
0
  0
LINE
  8
0
 62
7
 10
308.2211004257897
 20
308.0632044804175
 30
0
 11
308.2211004257897
 21
309.5458178649189
 31
0
  0
LINE
  8
0
 62
7
 10
308.2211004257897
 20
309.5458178649189
 30
0
 11
305.743616601887
 21
309.5458178649189
 31
0
  0
LINE
  8
0
 62
7
 10
305.743616601887
 20
309.5458178649189
 30
0
 11
305.743616601887
 21
297.604150218907
 31
0
  0
LINE
  8
0
 62
7
 10
305.743616601887
 20
297.604150218907
 30
0
 11
308.2211004257897
 21
297.604150218907
 31
0
  0
LINE
  8
0
 62
7
 10
308.2211004257897
 20
297.604150218907
 30
0
 11
308.2211004257897
 21
305.5340397042149
 31
0
  0
LINE
  8
0
 62
7
 10
311.3252237126926
 20
306.6678020040161
 30
0
 11
311.3252237126926
 21
297.604150218907
 31
0
  0
LINE
  8
0
 62
7
 10
311.3252237126926
 20
297.604150218907
 30
0
 11
313.8027084677951
 21
297.604150218907
 31
0
  0
LINE
  8
0
 62
7
 10
313.8027084677951
 20
297.604150218907
 30
0
 11
313.8027084677951
 21
305.5340397042149
 31
0
  0
LINE
  8
0
 62
7
 10
140.9199345541219
 20
177.4232639797868
 30
0
 11
140.9199345541219
 21
382.9232632053924
 31
0
  0
LINE
  8
0
 62
7
 10
158.9199412300404
 20
177.4232639797868
 30
0
 11
140.9199345541219
 21
177.4232639797868
 31
0
  0
LINE
  8
0
 62
7
 10
158.9199412300404
 20
177.4232639797868
 30
0
 11
158.9199412300404
 21
382.9232632053924
 31
0
  0
LINE
  8
0
 62
7
 10
418.9199391441998
 20
177.4232639797868
 30
0
 11
418.9199391441998
 21
382.9232632053924
 31
0
  0
LINE
  8
0
 62
7
 10
436.9199383693185
 20
177.4232639797868
 30
0
 11
436.9199383693185
 21
382.9232632053924
 31
0
  0
LINE
  8
0
 62
7
 10
418.9199391441998
 20
177.4232639797868
 30
0
 11
436.9199383693185
 21
177.4232639797868
 31
0
  0
LINE
  8
0
 62
7
 10
308.4376832156904
 20
305.4232663344148
 30
0
 11
308.2428756788895
 21
305.4232663344148
 31
0
  0
LINE
  8
0
 62
7
 10
314.0372425004953
 20
305.4232663344148
 30
0
 11
313.8243682370949
 21
305.4232663344148
 31
0
  0
LINE
  8
0
 62
7
 10
280.419941587762
 20
430.4614393843397
 30
0
 11
280.419941587762
 21
427.5732665194369
 31
0
  0
LINE
  8
0
 62
7
 10
273.9199414535551
 20
427.5732665194369
 30
0
 11
281.1477999821627
 21
427.5732665194369
 31
0
  0
LINE
  8
0
 62
7
 10
355.4420876934364
 20
416.5732591282261
 30
0
 11
357.9199421838384
 21
416.5732591282261
 31
0
  0
LINE
  8
0
 62
7
 10
357.9199421838384
 20
416.5732591282261
 30
0
 11
358.0983426108396
 21
416.5732591282261
 31
0
  0
LINE
  8
0
 62
7
 10
244.6613009705252
 20
413.5732679497228
 30
0
 11
244.6613009705252
 21
414.5732699764239
 31
0
  0
LINE
  8
0
 62
7
 10
350.7658686177319
 20
416.5732591282261
 30
0
 11
355.4420876934364
 21
416.5732591282261
 31
0
  0
LINE
  8
0
 62
7
 10
244.6637782886264
 20
413.5732679497228
 30
0
 11
244.6637782886264
 21
414.5732699764239
 31
0
  0
LINE
  8
0
 62
7
 10
216.782498700798
 20
393.4232621323027
 30
0
 11
215.9199449851976
 21
393.4232621323027
 31
0
  0
LINE
  8
0
 62
7
 10
381.9199386672626
 20
393.4232621323027
 30
0
 11
381.0573849513621
 21
393.4232621323027
 31
0
  0
LINE
  8
0
 62
7
 10
238.9534782305209
 20
410.4232667815197
 30
0
 11
244.9002112880262
 21
410.4232667815197
 31
0
  0
LINE
  8
0
 62
7
 10
352.9396723644341
 20
410.4232667815197
 30
0
 11
358.8864054219393
 21
410.4232667815197
 31
0
  0
LINE
  8
0
 62
7
 10
283.5419220536651
 20
418.0732696186275
 30
0
 11
273.9199414535551
 21
418.0732696186275
 31
0
  0
LINE
  8
0
 62
7
 10
381.0573849513621
 20
393.4232621323027
 30
0
 11
368.6001632049502
 21
393.4232621323027
 31
0
  0
LINE
  8
0
 62
7
 10
381.0680020287618
 20
412.4232708346219
 30
0
 11
357.067998094838
 21
412.4232708346219
 31
0
  0
LINE
  8
0
 62
7
 10
229.23972044721
 20
393.4232621323027
 30
0
 11
216.782498700798
 21
393.4232621323027
 31
0
  0
LINE
  8
0
 62
7
 10
240.7718855573221
 20
412.4232708346219
 30
0
 11
216.7718816233983
 21
412.4232708346219
 31
0
  0
LINE
  8
0
 62
7
 10
309.8895964829908
 20
416.5732591282261
 30
0
 11
350.7658686177319
 21
416.5732591282261
 31
0
  0
LINE
  8
0
 62
7
 10
246.6896805599281
 20
416.5732591282261
 30
0
 11
287.9502871691693
 21
416.5732591282261
 31
0
  0
LINE
  8
0
 62
7
 10
245.4146403506265
 20
414.5732699764239
 30
0
 11
245.4146403506265
 21
413.5732679497228
 31
0
  0
LINE
  8
0
 62
7
 10
237.3288679553189
 20
405.4232715499148
 30
0
 11
245.177562875926
 21
405.4232715499148
 31
0
  0
LINE
  8
0
 62
7
 10
243.7995519176247
 20
393.4232621323027
 30
0
 11
229.23972044721
 21
393.4232621323027
 31
0
  0
LINE
  8
0
 62
7
 10
352.6623207762341
 20
405.4232715499148
 30
0
 11
360.5110156968412
 21
405.4232715499148
 31
0
  0
LINE
  8
0
 62
7
 10
368.6001632049502
 20
393.4232621323027
 30
0
 11
354.0403317348355
 21
393.4232621323027
 31
0
  0
LINE
  8
0
 62
7
 10
309.8895964829908
 20
413.5732679497228
 30
0
 11
358.0983426108396
 21
413.5732679497228
 31
0
  0
LINE
  8
0
 62
7
 10
239.7415410413214
 20
413.5732679497228
 30
0
 11
287.9502871691693
 21
413.5732679497228
 31
0
  0
LINE
  8
0
 62
7
 10
314.4324417845955
 20
410.4232667815197
 30
0
 11
352.9396723644341
 21
410.4232667815197
 31
0
  0
LINE
  8
0
 62
7
 10
244.9002112880262
 20
410.4232667815197
 30
0
 11
283.4074418678647
 21
410.4232667815197
 31
0
  0
LINE
  8
0
 62
7
 10
321.0060555174023
 20
405.4232715499148
 30
0
 11
352.6623207762341
 21
405.4232715499148
 31
0
  0
LINE
  8
0
 62
7
 10
354.0403317348355
 20
393.4232621323027
 30
0
 11
321.5723648355024
 21
393.4232621323027
 31
0
  0
LINE
  8
0
 62
7
 10
276.2675188169578
 20
393.4232621323027
 30
0
 11
243.7995519176247
 21
393.4232621323027
 31
0
  0
LINE
  8
0
 62
7
 10
245.177562875926
 20
405.4232715499148
 30
0
 11
276.8338281347578
 21
405.4232715499148
 31
0
  0
LINE
  8
0
 62
7
 10
310.9199419304923
 20
410.4232667815197
 30
0
 11
314.4324417845955
 21
410.4232667815197
 31
0
  0
LINE
  8
0
 62
7
 10
283.4074418678647
 20
410.4232667815197
 30
0
 11
286.9199417219679
 21
410.4232667815197
 31
0
  0
LINE
  8
0
 62
7
 10
312.9199422581942
 20
405.4232715499148
 30
0
 11
321.0060555174023
 21
405.4232715499148
 31
0
  0
LINE
  8
0
 62
7
 10
321.5723648355024
 20
393.4232621323027
 30
0
 11
309.5382652862909
 21
393.4232621323027
 31
0
  0
LINE
  8
0
 62
7
 10
276.8338281347578
 20
405.4232715499148
 30
0
 11
284.9199413939659
 21
405.4232715499148
 31
0
  0
LINE
  8
0
 62
7
 10
288.3016183658692
 20
393.4232621323027
 30
0
 11
276.2675188169578
 21
393.4232621323027
 31
0
  0
LINE
  8
0
 62
7
 10
286.9199417219679
 20
408.4232627284178
 30
0
 11
286.9199417219679
 21
407.1949600111166
 31
0
  0
LINE
  8
0
 62
7
 10
309.5382652862909
 20
393.4232621323027
 30
0
 11
288.3016183658692
 21
393.4232621323027
 31
0
  0
LINE
  8
0
 62
7
 10
310.9199419304923
 20
408.4232627284178
 30
0
 11
310.9199419304923
 21
407.1949600111166
 31
0
  0
LINE
  8
0
 62
7
 10
310.9199419304923
 20
412.4232708346219
 30
0
 11
286.9199417219679
 21
412.4232708346219
 31
0
  0
LINE
  8
0
 62
7
 10
352.9199432268342
 20
416.5732591282261
 30
0
 11
355.4420876934364
 21
416.5732591282261
 31
0
  0
LINE
  8
0
 62
7
 10
220.5446395709014
 20
420.4232721460297
 30
0
 11
219.2718866900004
 21
420.4232721460297
 31
0
  0
LINE
  8
0
 62
7
 10
238.2718842164195
 20
420.4232721460297
 30
0
 11
236.9991238847188
 21
420.4232721460297
 31
0
  0
LINE
  8
0
 62
7
 10
234.7718808485161
 20
367.4232690465768
 30
0
 11
222.7718863322043
 21
367.4232690465768
 31
0
  0
LINE
  8
0
 62
7
 10
217.8022298647993
 20
419.574755324229
 30
0
 11
217.8022298647993
 21
412.4232708346219
 31
0
  0
LINE
  8
0
 62
7
 10
239.7415410413214
 20
419.574755324229
 30
0
 11
239.7415410413214
 21
412.4232708346219
 31
0
  0
LINE
  8
0
 62
7
 10
228.7718835905098
 20
420.4232721460297
 30
0
 11
220.5446395709014
 21
420.4232721460297
 31
0
  0
LINE
  8
0
 62
7
 10
236.9991238847188
 20
420.4232721460297
 30
0
 11
228.7718835905098
 21
420.4232721460297
 31
0
  0
LINE
  8
0
 62
7
 10
234.2567104532154
 20
419.574755324229
 30
0
 11
234.2567104532154
 21
412.4232708346219
 31
0
  0
LINE
  8
0
 62
7
 10
223.2870567275049
 20
419.574755324229
 30
0
 11
223.2870567275049
 21
412.4232708346219
 31
0
  0
LINE
  8
0
 62
7
 10
378.5679969624598
 20
420.4232721460297
 30
0
 11
377.2952440815589
 21
420.4232721460297
 31
0
  0
LINE
  8
0
 62
7
 10
360.8407597677415
 20
420.4232721460297
 30
0
 11
359.5679994360407
 21
420.4232721460297
 31
0
  0
LINE
  8
0
 62
7
 10
375.0679973199558
 20
367.4232690465768
 30
0
 11
369.0680000619504
 21
367.4232690465768
 31
0
  0
LINE
  8
0
 62
7
 10
369.0680000619504
 20
367.4232690465768
 30
0
 11
363.068002803645
 21
367.4232690465768
 31
0
  0
LINE
  8
0
 62
7
 10
358.0983426108396
 20
419.574755324229
 30
0
 11
358.0983426108396
 21
412.4232708346219
 31
0
  0
LINE
  8
0
 62
7
 10
377.2952440815589
 20
420.4232721460297
 30
0
 11
369.0680000619504
 21
420.4232721460297
 31
0
  0
LINE
  8
0
 62
7
 10
369.0680000619504
 20
420.4232721460297
 30
0
 11
360.8407597677415
 21
420.4232721460297
 31
0
  0
LINE
  8
0
 62
7
 10
363.5831731989447
 20
419.574755324229
 30
0
 11
363.5831731989447
 21
412.4232708346219
 31
0
  0
LINE
  8
0
 62
7
 10
380.0376537876609
 20
419.574755324229
 30
0
 11
380.0376537876609
 21
412.4232708346219
 31
0
  0
LINE
  8
0
 62
7
 10
374.5528269246561
 20
419.574755324229
 30
0
 11
374.5528269246561
 21
412.4232708346219
 31
0
  0
LINE
  8
0
 62
7
 10
290.6927006006717
 20
420.4232721460297
 30
0
 11
289.4199421316707
 21
420.4232721460297
 31
0
  0
LINE
  8
0
 62
7
 10
308.4199415207895
 20
420.4232721460297
 30
0
 11
307.1471830517885
 21
420.4232721460297
 31
0
  0
LINE
  8
0
 62
7
 10
304.9199418782864
 20
367.4232690465768
 30
0
 11
293.7237895712751
 21
367.4232690465768
 31
0
  0
LINE
  8
0
 62
7
 10
293.7237895712751
 20
367.4232690465768
 30
0
 11
292.9199417738737
 21
367.4232690465768
 31
0
  0
LINE
  8
0
 62
7
 10
287.9502871691693
 20
419.574755324229
 30
0
 11
287.9502871691693
 21
412.4232708346219
 31
0
  0
LINE
  8
0
 62
7
 10
309.8895964829908
 20
419.574755324229
 30
0
 11
309.8895964829908
 21
412.4232708346219
 31
0
  0
LINE
  8
0
 62
7
 10
298.9199418260805
 20
420.4232721460297
 30
0
 11
290.6927006006717
 21
420.4232721460297
 31
0
  0
LINE
  8
0
 62
7
 10
307.1471830517885
 20
420.4232721460297
 30
0
 11
298.9199418260805
 21
420.4232721460297
 31
0
  0
LINE
  8
0
 62
7
 10
304.4047691546857
 20
419.574755324229
 30
0
 11
304.4047691546857
 21
412.4232708346219
 31
0
  0
LINE
  8
0
 62
7
 10
293.4351144977754
 20
419.574755324229
 30
0
 11
293.4351144977754
 21
412.4232708346219
 31
0
  0
LINE
  8
0
 62
7
 10
289.4199421316707
 20
368.4232636224777
 30
0
 11
290.6927006006717
 21
368.4232636224777
 31
0
  0
LINE
  8
0
 62
7
 10
308.4199415207895
 20
368.4232636224777
 30
0
 11
307.1471830517885
 21
368.4232636224777
 31
0
  0
LINE
  8
0
 62
7
 10
287.9502871691693
 20
369.2717729937786
 30
0
 11
287.9502871691693
 21
378.4232689869877
 31
0
  0
LINE
  8
0
 62
7
 10
309.8895964829908
 20
369.2717729937786
 30
0
 11
309.8895964829908
 21
378.4232689869877
 31
0
  0
LINE
  8
0
 62
7
 10
298.9199418260805
 20
368.4232636224777
 30
0
 11
290.6927006006717
 21
368.4232636224777
 31
0
  0
LINE
  8
0
 62
7
 10
307.1471830517885
 20
368.4232636224777
 30
0
 11
298.9199418260805
 21
368.4232636224777
 31
0
  0
LINE
  8
0
 62
7
 10
293.4351144977754
 20
369.2717729937786
 30
0
 11
293.4351144977754
 21
378.4232689869877
 31
0
  0
LINE
  8
0
 62
7
 10
304.4047691546857
 20
369.2717729937786
 30
0
 11
304.4047691546857
 21
378.4232689869877
 31
0
  0
LINE
  8
0
 62
7
 10
360.8407597677415
 20
368.4232636224777
 30
0
 11
359.5679994360407
 21
368.4232636224777
 31
0
  0
LINE
  8
0
 62
7
 10
378.5679969624598
 20
368.4232636224777
 30
0
 11
377.2952440815589
 21
368.4232636224777
 31
0
  0
LINE
  8
0
 62
7
 10
358.0983426108396
 20
369.2717729937786
 30
0
 11
358.0983426108396
 21
378.4232689869877
 31
0
  0
LINE
  8
0
 62
7
 10
380.0376537876609
 20
369.2717729937786
 30
0
 11
380.0376537876609
 21
378.4232689869877
 31
0
  0
LINE
  8
0
 62
7
 10
377.2952440815589
 20
368.4232636224777
 30
0
 11
369.0680000619504
 21
368.4232636224777
 31
0
  0
LINE
  8
0
 62
7
 10
360.8407597677415
 20
368.4232636224777
 30
0
 11
369.0680000619504
 21
368.4232636224777
 31
0
  0
LINE
  8
0
 62
7
 10
363.5831731989447
 20
369.2717729937786
 30
0
 11
363.5831731989447
 21
378.4232689869877
 31
0
  0
LINE
  8
0
 62
7
 10
374.5528269246561
 20
369.2717729937786
 30
0
 11
374.5528269246561
 21
378.4232689869877
 31
0
  0
LINE
  8
0
 62
7
 10
220.5446395709014
 20
368.4232636224777
 30
0
 11
219.2718866900004
 21
368.4232636224777
 31
0
  0
LINE
  8
0
 62
7
 10
238.2718842164195
 20
368.4232636224777
 30
0
 11
236.9991238847188
 21
368.4232636224777
 31
0
  0
LINE
  8
0
 62
7
 10
217.8022298647993
 20
369.2717729937786
 30
0
 11
217.8022298647993
 21
378.4232689869877
 31
0
  0
LINE
  8
0
 62
7
 10
228.7718835905098
 20
368.4232636224777
 30
0
 11
220.5446395709014
 21
368.4232636224777
 31
0
  0
LINE
  8
0
 62
7
 10
223.2870567275049
 20
369.2717729937786
 30
0
 11
223.2870567275049
 21
378.4232689869877
 31
0
  0
LINE
  8
0
 62
7
 10
236.9991238847188
 20
368.4232636224777
 30
0
 11
228.7718835905098
 21
368.4232636224777
 31
0
  0
LINE
  8
0
 62
7
 10
234.2567104532154
 20
369.2717729937786
 30
0
 11
234.2567104532154
 21
378.4232689869877
 31
0
  0
LINE
  8
0
 62
7
 10
239.7415410413214
 20
369.2717729937786
 30
0
 11
239.7415410413214
 21
378.4232689869877
 31
0
  0
LINE
  8
0
 62
7
 10
275.9199417815571
 20
444.0732627046535
 30
0
 11
283.4199420794648
 21
444.0732627046535
 31
0
  0
LINE
  8
0
 62
7
 10
275.9199417815571
 20
444.0732627046535
 30
0
 11
275.9199417815571
 21
443.0732606779525
 31
0
  0
LINE
  8
0
 62
7
 10
298.4199418025792
 20
444.0732627046535
 30
0
 11
305.9199420422874
 21
444.0732627046535
 31
0
  0
LINE
  8
0
 62
7
 10
305.9199420422874
 20
444.0732627046535
 30
0
 11
305.9199420422874
 21
443.0732606779525
 31
0
  0
LINE
  8
0
 62
7
 10
356.325056000137
 20
436.0732613932455
 30
0
 11
356.9199401574379
 21
436.0732613932455
 31
0
  0
LINE
  8
0
 62
7
 10
356.325056000137
 20
434.0732722414433
 30
0
 11
356.9199401574379
 21
434.0732722414433
 31
0
  0
LINE
  8
0
 62
7
 10
352.5948892965334
 20
436.0732613932455
 30
0
 11
354.3455671206357
 21
436.0732613932455
 31
0
  0
LINE
  8
0
 62
7
 10
352.5948892965334
 20
434.0732722414433
 30
0
 11
354.3455671206357
 21
434.0732722414433
 31
0
  0
LINE
  8
0
 62
7
 10
354.3455671206357
 20
436.0732613932455
 30
0
 11
356.325056000137
 21
436.0732613932455
 31
0
  0
LINE
  8
0
 62
7
 10
356.325056000137
 20
434.0732722414433
 30
0
 11
354.3455671206357
 21
434.0732722414433
 31
0
  0
LINE
  8
0
 62
7
 10
350.6430718734318
 20
436.0732613932455
 30
0
 11
352.5948892965334
 21
436.0732613932455
 31
0
  0
LINE
  8
0
 62
7
 10
352.5948892965334
 20
434.0732722414433
 30
0
 11
350.6430718734318
 21
434.0732722414433
 31
0
  0
LINE
  8
0
 62
7
 10
283.4199420794648
 20
444.0732627046535
 30
0
 11
290.9199414461718
 21
444.0732627046535
 31
0
  0
LINE
  8
0
 62
7
 10
283.4199420794648
 20
444.0732627046535
 30
0
 11
283.4199420794648
 21
443.0732606779525
 31
0
  0
LINE
  8
0
 62
7
 10
290.9199414461718
 20
444.0732627046535
 30
0
 11
298.4199418025792
 21
444.0732627046535
 31
0
  0
LINE
  8
0
 62
7
 10
298.4199418025792
 20
444.0732627046535
 30
0
 11
298.4199418025792
 21
443.0732606779525
 31
0
  0
LINE
  8
0
 62
7
 10
290.9199414461718
 20
444.0732627046535
 30
0
 11
290.9199414461718
 21
443.0732606779525
 31
0
  0
LINE
  8
0
 62
7
 10
236.4199418261178
 20
420.4232721460297
 30
0
 11
236.4199418261178
 21
427.5732665194369
 31
0
  0
LINE
  8
0
 62
7
 10
238.4199421538197
 20
429.573270572539
 30
0
 11
242.217562688923
 21
429.573270572539
 31
0
  0
LINE
  8
0
 62
7
 10
248.8813172711298
 20
416.5732591282261
 30
0
 11
243.8851590887252
 21
416.5732591282261
 31
0
  0
LINE
  8
0
 62
7
 10
262.919943375844
 20
444.0732627046535
 30
0
 11
272.9199412898543
 21
444.0732627046535
 31
0
  0
LINE
  8
0
 62
7
 10
272.9199412898543
 20
444.0732627046535
 30
0
 11
272.9199412898543
 21
443.0732606779525
 31
0
  0
LINE
  8
0
 62
7
 10
262.919943375844
 20
444.0732627046535
 30
0
 11
262.919943375844
 21
443.0732606779525
 31
0
  0
LINE
  8
0
 62
7
 10
335.9199423030168
 20
444.0732627046535
 30
0
 11
335.9199423030168
 21
443.0732606779525
 31
0
  0
LINE
  8
0
 62
7
 10
323.919942198605
 20
444.0732627046535
 30
0
 11
335.9199423030168
 21
444.0732627046535
 31
0
  0
LINE
  8
0
 62
7
 10
323.919942198605
 20
444.0732627046535
 30
0
 11
323.919942198605
 21
443.0732606779525
 31
0
  0
LINE
  8
0
 62
7
 10
320.9199417069021
 20
444.0732627046535
 30
0
 11
320.9199417069021
 21
443.0732606779525
 31
0
  0
LINE
  8
0
 62
7
 10
308.9199416027905
 20
444.0732627046535
 30
0
 11
320.9199417069021
 21
444.0732627046535
 31
0
  0
LINE
  8
0
 62
7
 10
308.9199416027905
 20
444.0732627046535
 30
0
 11
308.9199416027905
 21
443.0732606779525
 31
0
  0
LINE
  8
0
 62
7
 10
309.8895964829908
 20
416.5732591282261
 30
0
 11
351.9199412004336
 21
416.5732591282261
 31
0
  0
LINE
  8
0
 62
7
 10
283.9199421614658
 20
416.5732591282261
 30
0
 11
287.9502871691693
 21
416.5732591282261
 31
0
  0
LINE
  8
0
 62
7
 10
248.8813172711298
 20
416.5732591282261
 30
0
 11
273.9199414535551
 21
416.5732591282261
 31
0
  0
LINE
  8
0
 62
7
 10
273.9199414535551
 20
416.5732591282261
 30
0
 11
273.9199414535551
 21
432.0732681883414
 31
0
  0
LINE
  8
0
 62
7
 10
344.9199419157258
 20
443.0732606779525
 30
0
 11
252.9199417367345
 21
443.0732606779525
 31
0
  0
LINE
  8
0
 62
7
 10
362.9199448659438
 20
368.3996676336777
 30
0
 11
362.9199448659438
 21
368.4232636224777
 31
0
  0
LINE
  8
0
 62
7
 10
138.9199454023201
 20
214.9232654702243
 30
0
 11
140.9199345541219
 21
212.9232688676223
 31
0
  0
LINE
  8
0
 62
7
 10
140.9199345541219
 20
341.9232620727512
 30
0
 11
138.9199454023201
 21
339.9232654701493
 31
0
  0
LINE
  8
0
 62
7
 10
438.9199424224198
 20
339.9232654701493
 30
0
 11
436.9199383693185
 21
341.9232620727512
 31
0
  0
LINE
  8
0
 62
7
 10
436.9199383693185
 20
212.9232688676223
 30
0
 11
438.9199424224198
 21
214.9232654702243
 31
0
  0
LINE
  8
0
 62
7
 10
310.9199419304923
 20
378.4232689869877
 30
0
 11
310.9199419304923
 21
393.4232621323027
 31
0
  0
LINE
  8
0
 62
7
 10
286.9199417219679
 20
393.4232621323027
 30
0
 11
286.9199417219679
 21
378.4232689869877
 31
0
  0
LINE
  8
0
 62
7
 10
158.9199412300404
 20
382.9232632053924
 30
0
 11
140.9199345541219
 21
382.9232632053924
 31
0
  0
LINE
  8
0
 62
7
 10
436.9199383693185
 20
382.9232632053924
 30
0
 11
418.9199391441998
 21
382.9232632053924
 31
0
  0
LINE
  8
0
 62
7
 10
215.9199449851976
 20
403.4232674968127
 30
0
 11
215.9199449851976
 21
393.4232621323027
 31
0
  0
LINE
  8
0
 62
7
 10
381.9199386672626
 20
393.4232621323027
 30
0
 11
381.9199386672626
 21
403.4232674968127
 31
0
  0
LINE
  8
0
 62
7
 10
357.067998094838
 20
412.4232708346219
 30
0
 11
357.067998094838
 21
410.4232667815197
 31
0
  0
LINE
  8
0
 62
7
 10
381.0680020287618
 20
403.721290720613
 30
0
 11
381.0680020287618
 21
412.4232708346219
 31
0
  0
LINE
  8
0
 62
7
 10
216.7718816233983
 20
412.4232708346219
 30
0
 11
216.7718816233983
 21
403.721290720613
 31
0
  0
LINE
  8
0
 62
7
 10
240.7718855573221
 20
410.4232667815197
 30
0
 11
240.7718855573221
 21
412.4232708346219
 31
0
  0
LINE
  8
0
 62
7
 10
286.9199417219679
 20
412.4232708346219
 30
0
 11
286.9199417219679
 21
408.4232627284178
 31
0
  0
LINE
  8
0
 62
7
 10
310.9199419304923
 20
408.4232627284178
 30
0
 11
310.9199419304923
 21
412.4232708346219
 31
0
  0
LINE
  8
0
 62
7
 10
219.2718866900004
 20
420.4232721460297
 30
0
 11
217.8022298647993
 21
419.574755324229
 31
0
  0
LINE
  8
0
 62
7
 10
239.7415410413214
 20
419.574755324229
 30
0
 11
238.2718842164195
 21
420.4232721460297
 31
0
  0
LINE
  8
0
 62
7
 10
234.7718808485161
 20
367.4232690465768
 30
0
 11
234.7718808485161
 21
368.4232636224777
 31
0
  0
LINE
  8
0
 62
7
 10
222.7718863322043
 20
368.4232636224777
 30
0
 11
222.7718863322043
 21
367.4232690465768
 31
0
  0
LINE
  8
0
 62
7
 10
380.0376537876609
 20
419.574755324229
 30
0
 11
378.5679969624598
 21
420.4232721460297
 31
0
  0
LINE
  8
0
 62
7
 10
359.5679994360407
 20
420.4232721460297
 30
0
 11
358.0983426108396
 21
419.574755324229
 31
0
  0
LINE
  8
0
 62
7
 10
375.0679973199558
 20
367.4232690465768
 30
0
 11
375.0679973199558
 21
368.4232636224777
 31
0
  0
LINE
  8
0
 62
7
 10
363.068002803645
 20
368.4232636224777
 30
0
 11
363.068002803645
 21
367.4232690465768
 31
0
  0
LINE
  8
0
 62
7
 10
289.4199421316707
 20
420.4232721460297
 30
0
 11
287.9502871691693
 21
419.574755324229
 31
0
  0
LINE
  8
0
 62
7
 10
309.8895964829908
 20
419.574755324229
 30
0
 11
308.4199415207895
 21
420.4232721460297
 31
0
  0
LINE
  8
0
 62
7
 10
304.9199418782864
 20
367.4232690465768
 30
0
 11
304.9199418782864
 21
368.4232636224777
 31
0
  0
LINE
  8
0
 62
7
 10
292.9199417738737
 20
368.4232636224777
 30
0
 11
292.9199417738737
 21
367.4232690465768
 31
0
  0
LINE
  8
0
 62
7
 10
287.9502871691693
 20
369.2717729937786
 30
0
 11
289.4199421316707
 21
368.4232636224777
 31
0
  0
LINE
  8
0
 62
7
 10
308.4199415207895
 20
368.4232636224777
 30
0
 11
309.8895964829908
 21
369.2717729937786
 31
0
  0
LINE
  8
0
 62
7
 10
358.0983426108396
 20
369.2717729937786
 30
0
 11
359.5679994360407
 21
368.4232636224777
 31
0
  0
LINE
  8
0
 62
7
 10
378.5679969624598
 20
368.4232636224777
 30
0
 11
380.0376537876609
 21
369.2717729937786
 31
0
  0
LINE
  8
0
 62
7
 10
217.8022298647993
 20
369.2717729937786
 30
0
 11
219.2718866900004
 21
368.4232636224777
 31
0
  0
LINE
  8
0
 62
7
 10
238.2718842164195
 20
368.4232636224777
 30
0
 11
239.7415410413214
 21
369.2717729937786
 31
0
  0
LINE
  8
0
 62
7
 10
356.9199401574379
 20
434.0732722414433
 30
0
 11
356.9199401574379
 21
436.0732613932455
 31
0
  0
LINE
  8
0
 62
7
 10
245.9199424520275
 20
436.0732613932455
 30
0
 11
245.9199424520275
 21
434.5732658041439
 31
0
  0
LINE
  8
0
 62
7
 10
351.9199412004336
 20
416.5732591282261
 30
0
 11
351.9199412004336
 21
434.0732722414433
 31
0
  0
LINE
  8
0
 62
2
  6
DASHDOT
 10
861.3006623698276
 20
277.4232654701868
 30
0
 11
620.3006623696164
 21
277.4232654701868
 31
0
  0
LINE
  8
0
 62
2
  6
DASHDOT
 10
740.800662369722
 20
162.4232639797868
 30
0
 11
740.800662369722
 21
459.0732627046535
 31
0
  0
LINE
  8
1
 62
2
 10
883.6351263167816
 20
372.585512963198
 30
0
 11
883.6351263167816
 21
368.929262963198
 31
0
  0
LINE
  8
1
 62
2
 10
883.4406818723372
 20
373.710512963198
 30
0
 11
883.6351263167816
 21
372.585512963198
 31
0
  0
LINE
  8
1
 62
2
 10
883.0517929834483
 20
374.273012963198
 30
0
 11
883.4406818723372
 21
373.710512963198
 31
0
  0
LINE
  8
1
 62
2
 10
882.2740152056705
 20
374.554262963198
 30
0
 11
883.0517929834483
 21
374.273012963198
 31
0
  0
LINE
  8
1
 62
2
 10
880.5240152056705
 20
374.554262963198
 30
0
 11
882.2740152056705
 21
374.554262963198
 31
0
  0
LINE
  8
1
 62
2
 10
879.7462374278929
 20
374.273012963198
 30
0
 11
880.5240152056705
 21
374.554262963198
 31
0
  0
LINE
  8
1
 62
2
 10
879.3573485390037
 20
373.710512963198
 30
0
 11
879.7462374278929
 21
374.273012963198
 31
0
  0
LINE
  8
1
 62
2
 10
879.1629040945594
 20
372.585512963198
 30
0
 11
879.3573485390037
 21
373.710512963198
 31
0
  0
LINE
  8
1
 62
2
 10
879.1629040945594
 20
370.898012963198
 30
0
 11
879.1629040945594
 21
372.585512963198
 31
0
  0
LINE
  8
1
 62
2
 10
879.3573485390037
 20
369.773012963198
 30
0
 11
879.1629040945594
 21
370.898012963198
 31
0
  0
LINE
  8
1
 62
2
 10
879.7462374278929
 20
369.210512963198
 30
0
 11
879.3573485390037
 21
369.773012963198
 31
0
  0
LINE
  8
1
 62
2
 10
880.5240152056705
 20
368.929262963198
 30
0
 11
879.7462374278929
 21
369.210512963198
 31
0
  0
LINE
  8
1
 62
2
 10
882.2740152056705
 20
368.929262963198
 30
0
 11
880.5240152056705
 21
368.929262963198
 31
0
  0
LINE
  8
1
 62
2
 10
883.0517929834483
 20
369.210512963198
 30
0
 11
882.2740152056705
 21
368.929262963198
 31
0
  0
LINE
  8
1
 62
2
 10
883.4406818723372
 20
369.773012963198
 30
0
 11
883.0517929834483
 21
369.210512963198
 31
0
  0
LINE
  8
1
 62
2
 10
883.6351263167816
 20
370.898012963198
 30
0
 11
883.4406818723372
 21
369.773012963198
 31
0
  0
LINE
  8
1
 62
2
 10
883.6351263167816
 20
376.241762963198
 30
0
 11
883.6351263167816
 21
372.585512963198
 31
0
  0
LINE
  8
1
 62
2
 10
872.4829281292622
 20
376.241763661688
 30
0
 11
869.6829281292622
 21
367.241763661688
 31
0
  0
LINE
  8
1
 62
2
 10
873.3579281292622
 20
373.0917636616879
 30
0
 11
873.5329281292621
 21
372.1917636616878
 31
0
  0
LINE
  8
1
 62
2
 10
872.8329281292621
 20
373.991763661688
 30
0
 11
873.3579281292622
 21
373.0917636616879
 31
0
  0
LINE
  8
1
 62
2
 10
872.1329281292623
 20
374.666763661688
 30
0
 11
872.8329281292621
 21
373.991763661688
 31
0
  0
LINE
  8
1
 62
2
 10
871.4329281292622
 20
374.891763661688
 30
0
 11
872.1329281292623
 21
374.666763661688
 31
0
  0
LINE
  8
1
 62
2
 10
870.7329281292622
 20
374.891763661688
 30
0
 11
871.4329281292622
 21
374.891763661688
 31
0
  0
LINE
  8
1
 62
2
 10
870.0329281292621
 20
374.666763661688
 30
0
 11
870.7329281292622
 21
374.891763661688
 31
0
  0
LINE
  8
1
 62
2
 10
869.3329281292623
 20
373.991763661688
 30
0
 11
870.0329281292621
 21
374.666763661688
 31
0
  0
LINE
  8
1
 62
2
 10
868.8079281292622
 20
373.0917636616879
 30
0
 11
869.3329281292623
 21
373.991763661688
 31
0
  0
LINE
  8
1
 62
2
 10
868.632928129262
 20
372.1917636616878
 30
0
 11
868.8079281292622
 21
373.0917636616879
 31
0
  0
LINE
  8
1
 62
2
 10
868.632928129262
 20
371.291763661688
 30
0
 11
868.632928129262
 21
372.1917636616878
 31
0
  0
LINE
  8
1
 62
2
 10
868.8079281292622
 20
370.391763661688
 30
0
 11
868.632928129262
 21
371.291763661688
 31
0
  0
LINE
  8
1
 62
2
 10
869.3329281292623
 20
369.491763661688
 30
0
 11
868.8079281292622
 21
370.391763661688
 31
0
  0
LINE
  8
1
 62
2
 10
870.0329281292621
 20
368.8167636616878
 30
0
 11
869.3329281292623
 21
369.491763661688
 31
0
  0
LINE
  8
1
 62
2
 10
870.7329281292622
 20
368.5917636616879
 30
0
 11
870.0329281292621
 21
368.8167636616878
 31
0
  0
LINE
  8
1
 62
2
 10
871.4329281292622
 20
368.5917636616879
 30
0
 11
870.7329281292622
 21
368.5917636616879
 31
0
  0
LINE
  8
1
 62
2
 10
872.1329281292623
 20
368.8167636616878
 30
0
 11
871.4329281292622
 21
368.5917636616879
 31
0
  0
LINE
  8
1
 62
2
 10
872.8329281292621
 20
369.491763661688
 30
0
 11
872.1329281292623
 21
368.8167636616878
 31
0
  0
LINE
  8
1
 62
2
 10
873.3579281292622
 20
370.391763661688
 30
0
 11
872.8329281292621
 21
369.491763661688
 31
0
  0
LINE
  8
1
 62
2
 10
873.5329281292621
 20
371.291763661688
 30
0
 11
873.3579281292622
 21
370.391763661688
 31
0
  0
LINE
  8
1
 62
2
 10
873.5329281292621
 20
372.1917636616878
 30
0
 11
873.5329281292621
 21
371.291763661688
 31
0
  0
LINE
  8
1
 62
2
 10
859.9204275794069
 20
371.766763661688
 30
0
 11
863.4204275794072
 21
371.766763661688
 31
0
  0
LINE
  8
1
 62
2
 10
853.5037609127404
 20
372.273013661688
 30
0
 11
853.5037609127404
 21
374.241763661688
 31
0
  0
LINE
  8
1
 62
2
 10
857.9759831349626
 20
372.273013661688
 30
0
 11
857.9759831349626
 21
368.616763661688
 31
0
  0
LINE
  8
1
 62
2
 10
857.7815386905182
 20
373.398013661688
 30
0
 11
857.9759831349626
 21
372.273013661688
 31
0
  0
LINE
  8
1
 62
2
 10
857.3926498016293
 20
373.960513661688
 30
0
 11
857.7815386905182
 21
373.398013661688
 31
0
  0
LINE
  8
1
 62
2
 10
856.6148720238515
 20
374.241763661688
 30
0
 11
857.3926498016293
 21
373.960513661688
 31
0
  0
LINE
  8
1
 62
2
 10
854.8648720238515
 20
374.241763661688
 30
0
 11
856.6148720238515
 21
374.241763661688
 31
0
  0
LINE
  8
1
 62
2
 10
854.2815386905182
 20
373.960513661688
 30
0
 11
854.8648720238515
 21
374.241763661688
 31
0
  0
LINE
  8
1
 62
2
 10
853.8926498016293
 20
373.398013661688
 30
0
 11
854.2815386905182
 21
373.960513661688
 31
0
  0
LINE
  8
1
 62
2
 10
853.5037609127404
 20
372.273013661688
 30
0
 11
853.8926498016293
 21
373.398013661688
 31
0
  0
LINE
  8
1
 62
2
 10
853.5037609127404
 20
368.616763661688
 30
0
 11
853.5037609127404
 21
372.273013661688
 31
0
  0
LINE
  8
1
 62
2
 10
830.4829281292622
 20
635.241763661688
 30
0
 11
827.6829281292622
 21
626.241763661688
 31
0
  0
LINE
  8
1
 62
2
 10
831.3579281292622
 20
632.0917636616879
 30
0
 11
831.5329281292621
 21
631.1917636616879
 31
0
  0
LINE
  8
1
 62
2
 10
830.8329281292621
 20
632.991763661688
 30
0
 11
831.3579281292622
 21
632.0917636616879
 31
0
  0
LINE
  8
1
 62
2
 10
830.1329281292623
 20
633.666763661688
 30
0
 11
830.8329281292621
 21
632.991763661688
 31
0
  0
LINE
  8
1
 62
2
 10
829.4329281292622
 20
633.891763661688
 30
0
 11
830.1329281292623
 21
633.666763661688
 31
0
  0
LINE
  8
1
 62
2
 10
828.7329281292622
 20
633.891763661688
 30
0
 11
829.4329281292622
 21
633.891763661688
 31
0
  0
LINE
  8
1
 62
2
 10
828.0329281292621
 20
633.666763661688
 30
0
 11
828.7329281292622
 21
633.891763661688
 31
0
  0
LINE
  8
1
 62
2
 10
827.3329281292623
 20
632.991763661688
 30
0
 11
828.0329281292621
 21
633.666763661688
 31
0
  0
LINE
  8
1
 62
2
 10
826.8079281292622
 20
632.0917636616879
 30
0
 11
827.3329281292623
 21
632.991763661688
 31
0
  0
LINE
  8
1
 62
2
 10
826.632928129262
 20
631.1917636616879
 30
0
 11
826.8079281292622
 21
632.0917636616879
 31
0
  0
LINE
  8
1
 62
2
 10
826.632928129262
 20
630.291763661688
 30
0
 11
826.632928129262
 21
631.1917636616879
 31
0
  0
LINE
  8
1
 62
2
 10
826.8079281292622
 20
629.391763661688
 30
0
 11
826.632928129262
 21
630.291763661688
 31
0
  0
LINE
  8
1
 62
2
 10
827.3329281292623
 20
628.491763661688
 30
0
 11
826.8079281292622
 21
629.391763661688
 31
0
  0
LINE
  8
1
 62
2
 10
828.0329281292621
 20
627.8167636616879
 30
0
 11
827.3329281292623
 21
628.491763661688
 31
0
  0
LINE
  8
1
 62
2
 10
828.7329281292622
 20
627.5917636616879
 30
0
 11
828.0329281292621
 21
627.8167636616879
 31
0
  0
LINE
  8
1
 62
2
 10
829.4329281292622
 20
627.5917636616879
 30
0
 11
828.7329281292622
 21
627.5917636616879
 31
0
  0
LINE
  8
1
 62
2
 10
830.1329281292623
 20
627.8167636616879
 30
0
 11
829.4329281292622
 21
627.5917636616879
 31
0
  0
LINE
  8
1
 62
2
 10
830.8329281292621
 20
628.491763661688
 30
0
 11
830.1329281292623
 21
627.8167636616879
 31
0
  0
LINE
  8
1
 62
2
 10
831.3579281292622
 20
629.391763661688
 30
0
 11
830.8329281292621
 21
628.491763661688
 31
0
  0
LINE
  8
1
 62
2
 10
831.5329281292621
 20
630.291763661688
 30
0
 11
831.3579281292622
 21
629.391763661688
 31
0
  0
LINE
  8
1
 62
2
 10
831.5329281292621
 20
631.1917636616879
 30
0
 11
831.5329281292621
 21
630.291763661688
 31
0
  0
ARC
  8
0
 62
7
 10
670.2319489926513
 20
362.5626855405719
 30
0
 40
43.88937912556779
 50
103.1044473755991
 51
111.4103007685997
  0
ARC
  8
0
 62
7
 10
808.92593815699
 20
354.697105154164
 30
0
 40
52.1075339925959
 50
69.24557046239946
 51
76.23968139339975
  0
ARC
  8
0
 62
7
 10
765.464550159747
 20
347.9554539339572
 30
0
 40
57.8247200765878
 50
73.58509691360031
 51
83.63088248019977
  0
ARC
  8
0
 62
7
 10
716.1367745790976
 20
347.9554539378573
 30
0
 40
57.82472007267132
 50
96.36911751950073
 51
106.4149030867002
  0
ARC
  8
0
 62
7
 10
675.7027569312568
 20
335.554758727845
 30
0
 40
20.08371634221264
 50
111.032167115498
 51
156.5317557584004
  0
ARC
  8
0
 62
7
 10
805.901010886987
 20
335.5574945655448
 30
0
 40
20.08030954582934
 50
23.4638385114005
 51
68.97154083480005
  0
ARC
  8
0
 62
7
 10
740.800662369722
 20
277.4232654701868
 30
0
 40
105.5000000001053
 50
288.5822281093
 51
251.4177718906996
  0
ARC
  8
0
 62
7
 10
666.4013602179484
 20
402.4770440356119
 30
0
 40
8.003844145902834
 50
96.87925034720462
 51
118.1298436492064
  0
ARC
  8
0
 62
7
 10
815.2119861166966
 20
402.515161116112
 30
0
 40
7.964564973702935
 50
61.81714145099978
 51
83.17376455259932
  0
ARC
  8
0
 62
7
 10
733.7154226420153
 20
412.0547069236215
 30
0
 40
1.536374144822244
 50
0.6923750106893969
 51
81.26667501301964
  0
ARC
  8
0
 62
7
 10
747.8785779763293
 20
412.0610690914215
 30
0
 40
1.528986547424679
 50
98.49824846578181
 51
179.5427015105074
  0
ARC
  8
0
 62
7
 10
776.0178541834575
 20
414.694300948324
 30
0
 40
8.089058772010562
 50
219.6244149802998
 51
230.8276524295005
  0
ARC
  8
0
 62
7
 10
695.6724182358767
 20
406.0221615826153
 30
0
 40
14.40162524164703
 50
90.48439660689976
 51
109.7720105431006
  0
ARC
  8
0
 62
7
 10
705.172417104086
 20
406.0221719566154
 30
0
 40
14.40161488474223
 50
90.48440478359591
 51
109.7720179239985
  0
ARC
  8
0
 62
7
 10
786.1724126911677
 20
406.0221979942153
 30
0
 40
14.40158880863313
 50
90.48438715529927
 51
109.7720355523006
  0
ARC
  8
0
 62
7
 10
817.1724137674983
 20
406.0222099876153
 30
0
 40
14.40157679767821
 50
90.48437903549846
 51
109.7720436721013
  0
ARC
  8
0
 62
7
 10
655.1724132906365
 20
406.0222099876153
 30
0
 40
14.40157679767338
 50
90.48437903550224
 51
109.7720436721006
  0
ARC
  8
0
 62
7
 10
664.429226148045
 20
382.8226804116922
 30
0
 40
14.39992882590405
 50
270.4831803743027
 51
289.7730681497029
  0
ARC
  8
0
 62
7
 10
826.4292266249076
 20
382.8226804116922
 30
0
 40
14.39992882590568
 50
270.483180374299
 51
289.7730681497015
  0
ARC
  8
0
 62
7
 10
675.4999179648567
 20
368.740831786578
 30
0
 40
1.304493315311791
 50
326.9693500313067
 51
4.346597061006485
  0
ARC
  8
0
 62
7
 10
806.0879432872871
 20
368.731825365378
 30
0
 40
1.291789858575804
 50
175.2098201972919
 51
214.385124850297
  0
ARC
  8
0
 62
7
 10
668.0706889035491
 20
375.8708757825852
 30
0
 40
11.5843363868832
 50
311.0962073307002
 51
317.0547640914991
  0
ARC
  8
0
 62
7
 10
813.3035521771944
 20
375.647948883085
 30
0
 40
11.26643051976386
 50
222.901115959498
 51
228.8250344613989
  0
ARC
  8
0
 62
7
 10
671.8006623696538
 20
373.4232654702827
 30
0
 40
5.000000000004548
 50
0
 51
90
  0
ARC
  8
0
 62
7
 10
809.8006623697911
 20
373.4232654702827
 30
0
 40
5.000000000004832
 50
90
 51
180
  0
ARC
  8
0
 62
7
 10
687.8006623695692
 20
414.5732654704239
 30
0
 40
2.000000000002217
 50
90
 51
180
  0
ARC
  8
0
 62
7
 10
793.8006623698748
 20
414.5732654704239
 30
0
 40
2.000000000002729
 50
0
 51
90
  0
ARC
  8
0
 62
7
 10
804.3006623698857
 20
412.0732654702213
 30
0
 40
1.500000000001819
 50
0
 51
90
  0
ARC
  8
0
 62
7
 10
677.3006623695583
 20
412.0732654702213
 30
0
 40
1.500000000001478
 50
90
 51
180
  0
ARC
  8
0
 62
7
 10
786.8006623696674
 20
436.0732654702453
 30
0
 40
7.000000000008186
 50
0
 51
90
  0
ARC
  8
0
 62
7
 10
694.8006623697766
 20
436.0732654702453
 30
0
 40
7.000000000007276
 50
90
 51
180
  0
ARC
  8
0
 62
7
 10
1190.999142300573
 20
629.6016251933368
 30
0
 40
973.0792004745256
 50
179.6859527075117
 51
179.7816184650116
  0
ARC
  8
0
 62
7
 10
298.9199418260805
 20
629.6016251931389
 30
0
 40
58.0000000000589
 50
167.8574392187003
 51
192.1425607813
  0
ARC
  8
0
 62
7
 10
251.8013825936332
 20
634.3222864764437
 30
0
 40
12.15689549527815
 50
128.7623120781009
 51
142.031056723901
  0
ARC
  8
0
 62
7
 10
251.8749362063336
 20
624.9535060200342
 30
0
 40
12.2595172713127
 50
218.0247245638971
 51
231.1819066340983
  0
ARC
  8
0
 62
7
 10
330.7799354553027
 20
481.1796086122885
 30
0
 40
59.32616189212363
 50
100.9600302259903
 51
101.6471856535907
  0
ARC
  8
0
 62
7
 10
269.1892568276787
 20
779.2420036345943
 30
0
 40
245.0331789269183
 50
281.1825229309932
 51
281.6818587335933
  0
ARC
  8
0
 62
7
 10
291.6414503822695
 20
680.9039312547898
 30
0
 40
144.2852182483863
 50
276.5983683028013
 51
277.8085253604014
  0
ARC
  8
0
 62
7
 10
298.1204322173772
 20
635.4109214493445
 30
0
 40
98.36037857262259
 50
276.3710016895013
 51
277.1212989450012
  0
ARC
  8
0
 62
7
 10
295.0406937263849
 20
660.8855545803712
 30
0
 40
124.0203367138616
 50
277.074121685296
 51
277.453215242896
  0
ARC
  8
0
 62
7
 10
297.8706337940794
 20
634.722337356344
 30
0
 40
97.72208960853924
 50
279.8671408069999
 51
280.5599082401
  0
ARC
  8
0
 62
7
 10
294.052335676161
 20
655.7875143771623
 30
0
 40
119.1303057558142
 50
280.5085198313071
 51
280.9639054260067
  0
ARC
  8
0
 62
7
 10
288.0778930001565
 20
682.9365841293896
 30
0
 40
146.8930833168703
 50
280.039932150905
 51
281.2398525136052
  0
ARC
  8
0
 62
7
 10
368.2289804751288
 20
475.9595927626763
 30
0
 40
76.07684291700043
 50
113.3255618873833
 51
113.8990380410831
  0
ARC
  8
0
 62
7
 10
257.6166235694453
 20
725.5148930857379
 30
0
 40
196.8937447003858
 50
293.242377729498
 51
293.9069349933981
  0
ARC
  8
0
 62
7
 10
279.8668114766606
 20
673.3424260491825
 30
0
 40
140.1750698464318
 50
291.9622971606002
 51
293.3012117012
  0
ARC
  8
0
 62
7
 10
120.3131997645859
 20
1129.642765561134
 30
0
 40
623.4469032662577
 50
289.6390641967015
 51
289.8775224297015
  0
ARC
  8
0
 62
7
 10
281.7983222498551
 20
676.7826764946833
 30
0
 40
142.6562522870878
 50
288.3995037086031
 51
289.6841144816032
  0
ARC
  8
0
 62
7
 10
297.1652644397718
 20
634.4685267252417
 30
0
 40
97.66671739272903
 50
288.1817544822041
 51
288.9733996384037
  0
ARC
  8
0
 62
7
 10
290.1298074698818
 20
655.3011053181683
 30
0
 40
119.6549465147676
 50
288.9159095993948
 51
289.3284432311946
  0
ARC
  8
0
 62
7
 10
296.7965483195931
 20
634.4854504611496
 30
0
 40
97.81779031255651
 50
291.862544278591
 51
292.5983609916906
  0
ARC
  8
0
 62
7
 10
290.8286418299642
 20
649.0936050978551
 30
0
 40
113.5976768397655
 50
292.5460261437047
 51
293.0550029878044
  0
ARC
  8
0
 62
7
 10
292.3089612653739
 20
544.1350950965536
 30
0
 40
6.817263769153285
 50
258.0715140176962
 51
275.6046350160976
  0
ARC
  8
0
 62
7
 10
307.6358248460881
 20
700.0534252219093
 30
0
 40
163.4474655294663
 50
262.9334761895
 51
264.1229949067005
  0
ARC
  8
0
 62
7
 10
303.2838942956827
 20
666.568603109476
 30
0
 40
129.6817663533562
 50
261.1125497377007
 51
263.0216254347006
  0
ARC
  8
0
 62
7
 10
294.4978655522775
 20
599.4437634894085
 30
0
 40
62.0203730746447
 50
260.3511330432982
 51
262.9444933243981
  0
ARC
  8
0
 62
7
 10
302.2892705570972
 20
655.1978644713628
 30
0
 40
118.3126109130718
 50
262.5163507232933
 51
263.4022421693933
  0
ARC
  8
0
 62
7
 10
271.890879382453
 20
549.8295318758592
 30
0
 40
8.296747516575822
 50
230.9649373212033
 51
268.9121093809968
  0
ARC
  8
0
 62
7
 10
294.6112264343756
 20
598.3205538459076
 30
0
 40
54.90457643063546
 50
253.9375323032996
 51
262.7741313997002
  0
ARC
  8
0
 62
7
 10
298.9717762007804
 20
636.9510429912461
 30
0
 40
79.20027363819378
 50
98.17340780299983
 51
108.4399125171
  0
ARC
  8
0
 62
7
 10
219.7399778309009
 20
631.5571204608409
 30
0
 40
16.78861521124844
 50
186.6888500551995
 51
197.1677306708
  0
ARC
  8
0
 62
7
 10
219.7399778309009
 20
627.646129925437
 30
0
 40
16.78861521125097
 50
162.8322693292003
 51
173.3111499448008
  0
ARC
  8
0
 62
7
 10
291.5975600150732
 20
680.3635171836895
 30
0
 40
142.2558476032258
 50
276.7107248282998
 51
277.9384770891999
  0
ARC
  8
0
 62
7
 10
288.0210145202791
 20
682.3092819492933
 30
0
 40
144.7893069244853
 50
280.210226132496
 51
281.428304284796
  0
ARC
  8
0
 62
7
 10
269.0230455773686
 20
777.5474497663904
 30
0
 40
241.9036427490694
 50
281.3692480287955
 51
281.8753862633955
  0
ARC
  8
0
 62
7
 10
330.7532690292082
 20
483.8057240530923
 30
0
 40
58.25436228825112
 50
101.1375143004961
 51
101.8377657877963
  0
ARC
  8
0
 62
7
 10
281.7361203173654
 20
676.0994236452863
 30
0
 40
140.5354364276082
 50
288.7141404746988
 51
290.0207221777989
  0
ARC
  8
0
 62
7
 10
126.1727807748769
 20
1104.430745020102
 30
0
 40
596.2410639336538
 50
289.9744973292032
 51
290.2243750126031
  0
ARC
  8
0
 62
7
 10
279.9270783575612
 20
672.3759206769817
 30
0
 40
137.7655614273406
 50
292.3398829784998
 51
293.7061377971001
  0
ARC
  8
0
 62
7
 10
258.5582330438479
 20
721.5379902565342
 30
0
 40
191.370672502908
 50
293.6463558153973
 51
294.3322769580972
  0
ARC
  8
0
 62
7
 10
368.2372483026275
 20
478.9822589623786
 30
0
 40
74.82994582811729
 50
113.744795057782
 51
114.3297398487812
  0
ARC
  8
0
 62
7
 10
298.9199418260805
 20
629.6016251931389
 30
0
 40
80.00000000007994
 50
313.5513868704999
 51
321.4807121888999
  0
ARC
  8
0
 62
7
 10
298.9199418260776
 20
629.6016251931421
 30
0
 40
80.00000000007962
 50
38.51928781109731
 51
46.44861312949714
  0
ARC
  8
0
 62
7
 10
298.9199418260805
 20
629.6016251931389
 30
0
 40
80.00000000008032
 50
226.4486131294997
 51
252.1666172902
  0
ARC
  8
0
 62
7
 10
298.9199418260805
 20
629.6016251931389
 30
0
 40
80.00000000007988
 50
286.4486131294997
 51
313.5513868704999
  0
ARC
  8
0
 62
7
 10
298.9199418260805
 20
629.6016251931389
 30
0
 40
80.00000000007994
 50
46.44861312950021
 51
73.5513868705003
  0
ARC
  8
0
 62
7
 10
298.9199418260805
 20
629.6016251931389
 30
0
 40
80.00000000008009
 50
106.4486131295003
 51
133.5513868705003
  0
ARC
  8
0
 62
7
 10
270.6044124404516
 20
533.6942177855431
 30
0
 40
20.00000000002028
 50
27.76566615159997
 51
63.84656657209958
  0
ARC
  8
0
 62
7
 10
367.8204283593486
 20
557.1259537196663
 30
0
 40
20.00000000002021
 50
87.76566615159928
 51
133.5513868704979
  0
ARC
  8
0
 62
7
 10
230.0194552931116
 20
702.0772966663112
 30
0
 40
20.00000000001975
 50
267.7656661515994
 51
313.5513868704989
  0
ARC
  8
0
 62
7
 10
327.2354712117085
 20
725.5090326007346
 30
0
 40
20.00000000002017
 50
207.7656661515994
 51
253.551386870499
  0
ARC
  8
0
 62
7
 10
327.2354712117085
 20
533.6942177855431
 30
0
 40
20.00000000001993
 50
106.4486131295011
 51
152.2343338483999
  0
ARC
  8
0
 62
7
 10
230.0194552931116
 20
557.1259537196663
 30
0
 40
20.00000000001942
 50
46.44861312950216
 51
92.23433384840065
  0
ARC
  8
0
 62
7
 10
367.8204283593486
 20
702.0772966663112
 30
0
 40
20.00000000001903
 50
226.4486131295015
 51
272.2343338484008
  0
ARC
  8
0
 62
7
 10
270.6044124404516
 20
725.5090326007346
 30
0
 40
20.00000000001993
 50
286.448613129501
 51
332.2343338484006
  0
ARC
  8
0
 62
7
 10
-593.1592586484117
 20
629.6016251931389
 30
0
 40
975.0792004745267
 50
357.5898518572
 51
2.410148142800001
  0
ARC
  8
0
 62
7
 10
1190.999142300572
 20
629.6016251931389
 30
0
 40
975.0792004745269
 50
177.5898518572
 51
182.4101481428
  0
ARC
  8
0
 62
7
 10
220.1040325148015
 20
628.752552715838
 30
0
 40
1.694634753705908
 50
52.96263412180792
 51
95.39058329472847
  0
ARC
  8
0
 62
7
 10
219.7566592313015
 20
630.50707025464
 30
0
 40
2.005082982585052
 50
261.4184174441822
 51
313.0253644198795
  0
ARC
  8
0
 62
7
 10
219.1651016285005
 20
630.9469081182401
 30
0
 40
2.440051418894918
 50
228.0401236268066
 51
276.8816472617033
  0
ARC
  8
0
 62
7
 10
219.724836362001
 20
630.2699242623396
 30
0
 40
2.454239405949163
 50
264.9492650747833
 51
316.6510741876003
  0
ARC
  8
0
 62
7
 10
218.9691321236005
 20
634.9964535084444
 30
0
 40
2.591330565855373
 50
226.9501469368015
 51
278.5605594359091
  0
ARC
  8
0
 62
7
 10
219.698205699201
 20
635.2029805086445
 30
0
 40
2.790192985804069
 50
262.9316614418932
 51
311.1755225190007
  0
ARC
  8
0
 62
7
 10
219.7504975994007
 20
633.2099747625425
 30
0
 40
2.628464889696424
 50
47.23581398359028
 51
98.65700205549102
  0
ARC
  8
0
 62
7
 10
219.0200143970005
 20
633.0821113329423
 30
0
 40
2.746868379291707
 50
82.99810099120607
 51
131.4911926360032
  0
ARC
  8
0
 62
7
 10
219.0133849514004
 20
635.7646801800449
 30
0
 40
2.653530443644514
 50
237.4313457940974
 51
277.3938123719001
  0
ARC
  8
0
 62
7
 10
218.9556918560002
 20
632.736177878742
 30
0
 40
2.406432497504483
 50
80.45181150170787
 51
124.7230446910132
  0
ARC
  8
0
 62
7
 10
219.7046331788015
 20
632.4219252789417
 30
0
 40
2.710013814724471
 50
57.7579845813205
 51
97.41559629070291
  0
ARC
  8
0
 62
7
 10
219.7619112638013
 20
635.5603327167448
 30
0
 40
2.461014935484936
 50
260.4796321040874
 51
304.3467728512989
  0
ARC
  8
0
 62
7
 10
298.9199418260805
 20
629.6016251931389
 30
0
 40
75.00000000007547
 50
282.2688989960002
 51
317.7311010039998
  0
ARC
  8
0
 62
7
 10
298.9199418260805
 20
629.6016251931389
 30
0
 40
75.0000000000754
 50
222.2688989959997
 51
250.9334198992994
  0
ARC
  8
0
 62
7
 10
298.9199418260805
 20
629.6016251931389
 30
0
 40
75.00000000007502
 50
192.5000000000001
 51
197.731101004
  0
ARC
  8
0
 62
7
 10
298.9199418260805
 20
629.6016251931389
 30
0
 40
75.00000000007502
 50
167.4999999999999
 51
192.5000000000001
  0
ARC
  8
0
 62
7
 10
298.9199418260805
 20
629.6016251931389
 30
0
 40
75.00000000007498
 50
162.268898996
 51
167.4999999999999
  0
ARC
  8
0
 62
7
 10
298.9199418260805
 20
629.6016251931389
 30
0
 40
75.00000000007498
 50
342.268898996
 51
17.73110100399999
  0
ARC
  8
0
 62
7
 10
298.9199418260805
 20
629.6016251931389
 30
0
 40
65.00000000006517
 50
167.5
 51
192.5000000000002
  0
ARC
  8
0
 62
7
 10
298.9199418260805
 20
629.6016251931389
 30
0
 40
75.00000000007474
 50
42.26889899600013
 51
77.73110100399964
  0
ARC
  8
0
 62
7
 10
298.9199418260805
 20
629.6016251931389
 30
0
 40
75.00000000007498
 50
102.2688989960002
 51
137.7311010039999
  0
ARC
  8
0
 62
7
 10
281.9199418262633
 20
551.4287398682607
 30
0
 40
5.000000000005514
 50
0
 51
77.73110100400119
  0
ARC
  8
0
 62
7
 10
315.9199418261969
 20
551.4287398682607
 30
0
 40
5.000000000005232
 50
102.2688989959962
 51
180
  0
ARC
  8
0
 62
7
 10
358.1196464046398
 20
575.792750666385
 30
0
 40
5.000000000004864
 50
60.00000000000811
 51
137.731101004001
  0
ARC
  8
0
 62
7
 10
239.7202372478205
 20
575.792750666385
 30
0
 40
5.000000000005765
 50
42.26889899600019
 51
119.9999999999921
  0
ARC
  8
0
 62
7
 10
222.7202372477041
 20
605.2376143950146
 30
0
 40
5.000000000005304
 50
300.0000000000006
 51
17.73110100399892
  0
ARC
  8
0
 62
7
 10
375.1196464047562
 20
605.2376143950146
 30
0
 40
5.000000000004534
 50
162.2688989959983
 51
240.0000000000079
  0
ARC
  8
0
 62
7
 10
375.1196464047562
 20
653.9656359912633
 30
0
 40
5.000000000004667
 50
119.9999999999932
 51
197.7311010040013
  0
ARC
  8
0
 62
7
 10
222.7202372477041
 20
653.9656359912633
 30
0
 40
5.000000000005292
 50
342.2688989960011
 51
59.99999999999759
  0
ARC
  8
0
 62
7
 10
358.1196464046398
 20
683.4104997198926
 30
0
 40
5.000000000005717
 50
222.2688989959972
 51
299.9999999999925
  0
ARC
  8
0
 62
7
 10
239.7202372478205
 20
683.4104997198926
 30
0
 40
5.000000000004667
 50
240.0000000000068
 51
317.7311010040023
  0
ARC
  8
0
 62
7
 10
315.9199418261969
 20
707.7745105180172
 30
0
 40
5.0000000000054
 50
180
 51
257.7311010040028
  0
ARC
  8
0
 62
7
 10
281.9199418262633
 20
707.7745105180172
 30
0
 40
5.000000000004813
 50
282.2688989959985
 51
0
  0
ARC
  8
0
 62
7
 10
298.9199418260805
 20
629.6016251931389
 30
0
 40
65.00000000006487
 50
4.897237558600104
 51
164.3815017243999
  0
ARC
  8
0
 62
7
 10
298.9199418260805
 20
629.6016251931389
 30
0
 40
65.00000000006492
 50
195.6184982756001
 51
247.8567792986003
  0
ARC
  8
0
 62
7
 10
298.9199418260805
 20
629.6016251931389
 30
0
 40
65.00000000006537
 50
252.5423968762993
 51
355.1027624413998
  0
ARC
  8
0
 62
7
 10
357.9199418262388
 20
629.6016251931389
 30
0
 40
5.250000000005202
 50
256.5054122687063
 51
103.4945877312937
  0
ARC
  8
0
 62
7
 10
357.9199418262388
 20
629.6016251931389
 30
0
 40
8.000000000008186
 50
270
 51
90
  0
ARC
  8
0
 62
7
 10
298.9199418260805
 20
629.6016251931389
 30
0
 40
55.00000000005516
 50
195.2729592612002
 51
243.5409564953993
  0
ARC
  8
0
 62
7
 10
298.9199418260805
 20
629.6016251931389
 30
0
 40
55.00000000005514
 50
249.2344110821997
 51
349.0673388552
  0
ARC
  8
0
 62
7
 10
298.9199418260805
 20
629.6016251931389
 30
0
 40
55.00000000005488
 50
10.9326611447999
 51
164.7270407388
  0
ARC
  8
0
 62
7
 10
357.9199418262388
 20
629.6016251931389
 30
0
 40
5.00000000000498
 50
261.3730734413076
 51
278.6269265587008
  0
ARC
  8
0
 62
7
 10
357.9199418262388
 20
629.6016251931389
 30
0
 40
5.000000000005091
 50
81.37307344129926
 51
98.62692655869257
  0
ARC
  8
0
 62
7
 10
357.9199418262388
 20
629.6016251931389
 30
0
 40
5.000000000005091
 50
278.6269265587008
 51
81.37307344129926
  0
ARC
  8
0
 62
7
 10
228.7718841197093
 20
670.1016251931794
 30
0
 40
9.500000000008814
 50
210.000000000001
 51
270
  0
ARC
  8
0
 62
7
 10
228.7718841197093
 20
670.1016251931794
 30
0
 40
9.50000000000955
 50
270
 51
330.0000000000043
  0
ARC
  8
0
 62
7
 10
228.7718841197093
 20
670.1016251931794
 30
0
 40
9.500000000010338
 50
330.0000000000043
 51
29.99999999999567
  0
ARC
  8
0
 62
7
 10
228.7718841197093
 20
670.1016251931794
 30
0
 40
9.500000000010338
 50
29.99999999999567
 51
90
  0
ARC
  8
0
 62
7
 10
228.7718841197093
 20
670.1016251931794
 30
0
 40
9.500000000009777
 50
90
 51
149.999999999999
  0
ARC
  8
0
 62
7
 10
228.7718841197093
 20
670.1016251931794
 30
0
 40
9.500000000008814
 50
149.999999999999
 51
210.000000000001
  0
ARC
  8
0
 62
7
 10
228.7718841197106
 20
589.1016251930993
 30
0
 40
9.500000000009663
 50
269.9999999999923
 51
329.9999999999964
  0
ARC
  8
0
 62
7
 10
228.7718841197093
 20
589.1016251930985
 30
0
 40
9.500000000010338
 50
330.0000000000043
 51
29.99999999999567
  0
ARC
  8
0
 62
7
 10
228.7718841197093
 20
589.1016251930985
 30
0
 40
9.500000000010338
 50
29.99999999999567
 51
90
  0
ARC
  8
0
 62
7
 10
228.7718841197093
 20
589.1016251930985
 30
0
 40
9.50000000000955
 50
90
 51
149.999999999999
  0
ARC
  8
0
 62
7
 10
228.7718841197093
 20
589.1016251930985
 30
0
 40
9.500000000008814
 50
149.999999999999
 51
210.000000000001
  0
ARC
  8
0
 62
7
 10
228.7718841197093
 20
589.1016251930985
 30
0
 40
9.500000000008814
 50
210.000000000001
 51
270
  0
ARC
  8
0
 62
7
 10
369.067999532751
 20
589.1016251930985
 30
0
 40
9.500000000009521
 50
150.0000000000047
 51
209.9999999999957
  0
ARC
  8
0
 62
7
 10
369.067999532751
 20
589.1016251930985
 30
0
 40
9.500000000010338
 50
209.9999999999957
 51
270
  0
ARC
  8
0
 62
7
 10
369.067999532751
 20
589.1016251930985
 30
0
 40
9.50000000000955
 50
270
 51
329.9999999999986
  0
ARC
  8
0
 62
7
 10
369.067999532751
 20
589.1016251930985
 30
0
 40
9.500000000008715
 50
329.9999999999986
 51
30.00000000000133
  0
ARC
  8
0
 62
7
 10
369.067999532751
 20
589.1016251930985
 30
0
 40
9.500000000008754
 50
90
 51
150.0000000000047
  0
ARC
  8
0
 62
7
 10
369.067999532751
 20
589.1016251930985
 30
0
 40
9.500000000008715
 50
30.00000000000133
 51
90
  0
ARC
  8
0
 62
7
 10
369.067999532751
 20
670.1016251931794
 30
0
 40
9.500000000009777
 50
90
 51
150.0000000000044
  0
ARC
  8
0
 62
7
 10
369.067999532751
 20
670.1016251931794
 30
0
 40
9.500000000010338
 50
150.0000000000044
 51
209.9999999999957
  0
ARC
  8
0
 62
7
 10
369.067999532751
 20
670.1016251931794
 30
0
 40
9.500000000010338
 50
209.9999999999957
 51
270
  0
ARC
  8
0
 62
7
 10
369.067999532751
 20
670.1016251931794
 30
0
 40
9.50000000000955
 50
270
 51
329.9999999999986
  0
ARC
  8
0
 62
7
 10
369.067999532751
 20
670.1016251931794
 30
0
 40
9.500000000008715
 50
329.9999999999986
 51
30.00000000000133
  0
ARC
  8
0
 62
7
 10
369.067999532751
 20
670.1016251931794
 30
0
 40
9.500000000008715
 50
30.00000000000133
 51
90
  0
ARC
  8
0
 62
7
 10
298.9199418260805
 20
710.6016251932199
 30
0
 40
9.500000000009763
 50
150.0000000000007
 51
209.9999999999982
  0
ARC
  8
0
 62
7
 10
298.9199418260805
 20
710.6016251932199
 30
0
 40
9.500000000009601
 50
209.9999999999982
 51
270
  0
ARC
  8
0
 62
7
 10
298.9199418260805
 20
710.6016251932199
 30
0
 40
9.500000000009777
 50
270
 51
329.999999999999
  0
ARC
  8
0
 62
7
 10
298.9199418260805
 20
710.6016251932199
 30
0
 40
9.500000000008814
 50
329.999999999999
 51
30.00000000000217
  0
ARC
  8
0
 62
7
 10
298.9199418260805
 20
710.6016251932199
 30
0
 40
9.500000000008981
 50
90
 51
150.0000000000007
  0
ARC
  8
0
 62
7
 10
298.9199418260805
 20
710.6016251932199
 30
0
 40
9.500000000008926
 50
30.00000000000217
 51
90
  0
ARC
  8
0
 62
7
 10
298.9199418260805
 20
548.601625193058
 30
0
 40
9.500000000009575
 50
329.9999999999993
 51
30.00000000000098
  0
ARC
  8
0
 62
7
 10
298.9199418260805
 20
548.601625193058
 30
0
 40
9.500000000009601
 50
150.0000000000018
 51
209.9999999999982
  0
ARC
  8
0
 62
7
 10
298.9199418260805
 20
548.601625193058
 30
0
 40
9.500000000009601
 50
209.9999999999982
 51
270
  0
ARC
  8
0
 62
7
 10
298.9199418260805
 20
548.601625193058
 30
0
 40
9.50000000000955
 50
270
 51
329.9999999999993
  0
ARC
  8
0
 62
7
 10
298.9199418260805
 20
548.601625193058
 30
0
 40
9.500000000008868
 50
90
 51
150.0000000000018
  0
ARC
  8
0
 62
7
 10
298.9199418260805
 20
548.601625193058
 30
0
 40
9.500000000008814
 50
30.00000000000098
 51
90
  0
ARC
  8
0
 62
7
 10
238.4199418262197
 20
617.4016251930266
 30
0
 40
2.000000000001904
 50
180
 51
270
  0
ARC
  8
0
 62
7
 10
238.4199418262197
 20
641.8016251932511
 30
0
 40
2.000000000002046
 50
90
 51
180
  0
ARC
  8
0
 62
7
 10
244.1900596775249
 20
648.8016251931581
 30
0
 40
5.000000000005002
 50
270
 51
340.6684235941015
  0
ARC
  8
0
 62
7
 10
244.1900596775249
 20
610.4016251931198
 30
0
 40
5.000000000005188
 50
19.33157640589622
 51
90
  0
ARC
  8
0
 62
7
 10
354.3455676684353
 20
621.6016251930309
 30
0
 40
2.000000000002046
 50
270
 51
351.7867892983049
  0
ARC
  8
0
 62
7
 10
298.9199418260805
 20
629.6016251931389
 30
0
 40
58.00000000005721
 50
351.7867892983
 51
8.213210701700008
  0
ARC
  8
0
 62
7
 10
354.3455676684353
 20
637.601625193247
 30
0
 40
2.000000000002228
 50
8.213210701694187
 51
90
  0
ARC
  8
0
 62
7
 10
352.5948894276344
 20
641.6016251931508
 30
0
 40
2.000000000002674
 50
192.6022648414964
 51
270
  0
ARC
  8
0
 62
7
 10
352.5948894276344
 20
617.6016251931269
 30
0
 40
2.000000000002274
 50
90
 51
167.3977351585043
  0
ARC
  8
0
 62
7
 10
298.9199418260805
 20
629.6016251931389
 30
0
 40
53.00000000005298
 50
12.60226484150005
 51
347.3977351585
  0
ARC
  8
0
 62
7
 10
298.9199418260805
 20
629.6016251931389
 30
0
 40
53.00000000005298
 50
347.3977351585
 51
12.60226484150005
  0
ARC
  8
0
 62
7
 10
330.0794615844116
 20
644.3965539660537
 30
0
 40
1.194631596000088
 50
84.76144147942497
 51
135.0970713793242
  0
ARC
  8
0
 62
7
 10
330.1108539744109
 20
641.5637934948509
 30
0
 40
1.181653324193334
 50
105.9402917674074
 51
183.686715225616
  0
ARC
  8
0
 62
7
 10
331.1214806694125
 20
641.3666055783506
 30
0
 40
1.385068396598806
 50
224.7754297649871
 51
275.0881189960978
  0
ARC
  8
0
 62
7
 10
331.1214816657121
 20
644.1373447329534
 30
0
 40
1.385068784737678
 50
224.7753874394313
 51
275.0880761945033
  0
ARC
  8
0
 62
7
 10
330.0794648052115
 20
653.3965465587628
 30
0
 40
1.194640147379918
 50
84.76163419051183
 51
135.0968786682055
  0
ARC
  8
0
 62
7
 10
330.1108521897113
 20
650.5637943654599
 30
0
 40
1.181651624169921
 50
105.9402253179122
 51
183.6867816751111
  0
ARC
  8
0
 62
7
 10
331.1214840819121
 20
650.3666145318596
 30
0
 40
1.385077397993542
 50
224.7756046359066
 51
275.0879441252195
  0
ARC
  8
0
 62
7
 10
331.1214824445124
 20
653.1373442292625
 30
0
 40
1.38506860002988
 50
224.7753339849935
 51
275.0880445218702
  0
ARC
  8
0
 62
7
 10
408.9199418262897
 20
573.4609131020827
 30
0
 40
10.00000000001091
 50
0
 51
71.21417090449569
  0
ARC
  8
0
 62
7
 10
408.9199418262897
 20
685.7423372841952
 30
0
 40
10.0000000000106
 50
288.7858290955039
 51
0
  0
ARC
  8
0
 62
7
 10
168.9199390306503
 20
575.9030346941852
 30
0
 40
9.99999780109925
 50
85.84381289820132
 51
179.9993889724984
  0
ARC
  8
0
 62
7
 10
168.9199309846499
 20
683.3002213800924
 30
0
 40
9.999989755066865
 50
180.000430173598
 51
274.2194139171016
  0
ARC
  8
0
 62
7
 10
295.4081546960761
 20
625.7760408597351
 30
0
 40
86.01606381423667
 50
224.2038688271004
 51
247.2444514554006
  0
ARC
  8
0
 62
7
 10
298.7390200502796
 20
629.0640677253384
 30
0
 40
91.44942825661569
 50
97.71435193629993
 51
135.2914845057996
  0
ARC
  8
0
 62
7
 10
292.157675411373
 20
633.2662756602426
 30
0
 40
89.23771850359327
 50
184.2843665336999
 51
229.1324249871002
  0
ARC
  8
0
 62
7
 10
291.927192680073
 20
626.0725823484354
 30
0
 40
88.98440208462847
 50
130.8124798204
 51
175.7916098223999
  0
ARC
  8
0
 62
7
 10
300.3017963237817
 20
633.0201661908425
 30
0
 40
87.32702719622218
 50
61.55842595600028
 51
82.36096559580045
  0
ARC
  8
0
 62
7
 10
408.9199418262897
 20
354.2350802181637
 30
0
 40
10.00000000001046
 50
291.4760679237051
 51
0
  0
ARC
  8
0
 62
7
 10
385.5425097537673
 20
345.0378004926544
 30
0
 40
10.00005405596341
 50
194.8996294717006
 51
291.4766695932968
  0
ARC
  8
0
 62
7
 10
183.1617464779638
 20
339.5723260989489
 30
0
 40
19.99542954074594
 50
259.7265981391022
 51
354.6278370882995
  0
ARC
  8
0
 62
7
 10
183.2868569710645
 20
340.1134552104493
 30
0
 40
20.55041450360641
 50
259.1627295627007
 51
353.3589966855012
  0
ARC
  8
0
 62
7
 10
379.0194800157606
 20
212.759096331522
 30
0
 40
10.00306903072546
 50
67.97140487670446
 51
169.0051399840002
  0
ARC
  8
0
 62
7
 10
408.9199418262897
 20
200.6788121114101
 30
0
 40
10.00000000001091
 50
0
 51
67.99502377409884
  0
ARC
  8
0
 62
7
 10
355.5924020238372
 20
355.669594976165
 30
0
 40
11.08817189453757
 50
75.89076398600298
 51
96.45641054910347
  0
ARC
  8
0
 62
7
 10
298.9542425636801
 20
304.0429556847134
 30
0
 40
125.5888534918585
 50
285.9226419801999
 51
292.8871705421001
  0
ARC
  8
0
 62
7
 10
200.4472098166816
 20
314.693085554724
 30
0
 40
3.007395284066405
 50
237.53652625481
 51
6.117256835703879
  0
ARC
  8
0
 62
7
 10
349.5217301952307
 20
362.7005537766721
 30
0
 40
3.530969765924046
 50
13.91775362629609
 51
78.6405835451921
  0
ARC
  8
0
 62
7
 10
408.9042618804897
 20
333.4786838667428
 30
0
 40
10.01567855296362
 50
288.8501008897052
 51
0.02907240070042902
  0
ARC
  8
0
 62
7
 10
408.9043677318905
 20
221.3679227450307
 30
0
 40
10.01557274012398
 50
359.9704943994
 51
71.15033231020195
  0
ARC
  8
0
 62
7
 10
168.9199488481499
 20
330.9232718367403
 30
0
 40
10.00000761813666
 50
180.0000342570992
 51
269.9999870872
  0
ARC
  8
0
 62
7
 10
168.9199401166497
 20
220.3943555069297
 30
0
 40
9.999998886787191
 50
69.17111760659792
 51
180.0000117142004
  0
ARC
  8
0
 62
7
 10
238.6606145036194
 20
334.5539301801439
 30
0
 40
35.73023162979862
 50
113.0840394926003
 51
174.9480827220995
  0
ARC
  8
0
 62
7
 10
168.9050958268499
 20
264.9195582326742
 30
0
 40
55.91874085146853
 50
57.64393403889962
 51
79.17113591060002
  0
ARC
  8
0
 62
7
 10
283.9155049904648
 20
304.3701503181136
 30
0
 40
125.9472420729109
 50
260.9682190016002
 51
273.4159334217003
  0
ARC
  8
0
 62
7
 10
333.8815829181149
 20
221.5072706876309
 30
0
 40
35.97475642132725
 50
349.0388191294003
 51
45.38801615029976
  0
ARC
  8
0
 62
7
 10
404.0247076563846
 20
349.9957719963593
 30
0
 40
29.13569092647287
 50
194.9763425485
 51
267.9526532485002
  0
ARC
  8
0
 62
7
 10
408.8646154236903
 20
315.0774141498244
 30
0
 40
81.06970708945538
 50
231.9166734054998
 51
265.1549381538003
  0
ARC
  8
0
 62
7
 10
292.0095930668731
 20
227.7920060798371
 30
0
 40
1.313855723631279
 50
261.6025421522112
 51
347.0579669867067
  0
ARC
  8
0
 62
7
 10
297.5255346104796
 20
227.7920057618372
 30
0
 40
1.313855410240401
 50
261.6025397656703
 51
347.0579780761979
  0
ARC
  8
0
 62
7
 10
302.2178508998832
 20
224.3918346128338
 30
0
 40
3.992935824993865
 50
354.0577613583995
 51
38.022138978393
  0
ARC
  8
0
 62
7
 10
302.0576313305828
 20
224.4491919506339
 30
0
 40
3.268003673711386
 50
351.7182021559979
 51
35.53579207429358
  0
ARC
  8
0
 62
7
 10
301.8330052328829
 20
223.5767798237329
 30
0
 40
3.481797711383857
 50
326.9940237754027
 51
6.624765804399047
  0
ARC
  8
0
 62
7
 10
336.194830600517
 20
307.536223464317
 30
0
 40
1.918736901904314
 50
354.8953674026973
 51
50.7719870215775
  0
ARC
  8
0
 62
7
 10
335.5162275891162
 20
305.9022577515153
 30
0
 40
3.649104198754531
 50
58.76891293309012
 51
93.15874409528396
  0
ARC
  8
0
 62
7
 10
335.2571504421167
 20
305.8401346155152
 30
0
 40
3.706137152817407
 50
89.10326727631077
 51
143.1419363612007
  0
ARC
  8
0
 62
7
 10
330.0197296716106
 20
307.0733270736164
 30
0
 40
2.478321364117603
 50
23.54157908478951
 51
93.93096893088236
  0
ARC
  8
0
 62
7
 10
329.7918471996109
 20
305.8400941110152
 30
0
 40
3.706177341563047
 50
89.10358410779165
 51
143.141619529698
  0
ARC
  8
0
 62
7
 10
329.0218230939108
 20
305.7346741236151
 30
0
 40
2.204513628903239
 50
128.8007608743124
 51
185.2217569546964
  0
ARC
  8
0
 62
7
 10
328.9174602378098
 20
305.8008681861151
 30
0
 40
2.08791180881919
 50
89.94234674710017
 51
127.7070087352884
  0
ARC
  8
0
 62
7
 10
328.9369148508104
 20
306.5457429498159
 30
0
 40
1.343148098802073
 50
53.62214371720672
 51
90.74029065520954
  0
ARC
  8
0
 62
7
 10
328.0787852106096
 20
306.7873712349162
 30
0
 40
1.855653635393278
 50
356.3055811363992
 51
26.90724116350287
  0
ARC
  8
0
 62
7
 10
334.597722381016
 20
305.7370973580151
 30
0
 40
2.199051061771931
 50
128.7244433596015
 51
185.298168746298
  0
ARC
  8
0
 62
7
 10
334.4503841028163
 20
305.9456321130153
 30
0
 40
1.944250449282897
 50
91.93060187310269
 51
129.1814081039133
  0
ARC
  8
0
 62
7
 10
334.4658496194161
 20
306.3920192265157
 30
0
 40
1.498947970977511
 50
55.48657155371767
 51
93.09632554531925
  0
ARC
  8
0
 62
7
 10
334.0090340823153
 20
306.665936480716
 30
0
 40
1.621685100941449
 50
356.9832673269032
 51
36.35030185199126
  0
ARC
  8
0
 62
7
 10
286.0828661987671
 20
303.3268944591127
 30
0
 40
3.805732053128117
 50
237.3010467513089
 51
272.2376058862985
  0
ARC
  8
0
 62
7
 10
286.3141784033678
 20
302.8933559286123
 30
0
 40
3.591557868289684
 50
176.2951487767016
 51
230.4430834694038
  0
ARC
  8
0
 62
7
 10
285.2897161313667
 20
303.1474589352125
 30
0
 40
5.542248119731082
 50
180.2277263984992
 51
231.2722761300974
  0
ARC
  8
0
 62
7
 10
285.7369421783669
 20
304.5936505287139
 30
0
 40
6.972449614791262
 50
235.8449912113024
 51
272.9993880933008
  0
ARC
  8
0
 62
7
 10
286.284632440168
 20
304.7257397874141
 30
0
 40
7.097343182350596
 50
268.5236774124997
 51
306.5458680795933
  0
ARC
  8
0
 62
7
 10
286.5565773989674
 20
304.0849737177134
 30
0
 40
6.422700970759249
 50
308.0008254387041
 51
2.149649804699593
  0
ARC
  8
0
 62
7
 10
287.1462954575682
 20
304.656599263814
 30
0
 40
5.837837944188982
 50
356.7524686455992
 51
49.98576138089988
  0
ARC
  8
0
 62
7
 10
287.6301828455689
 20
304.8249426696143
 30
0
 40
5.404149691143998
 50
52.76845259829835
 51
91.08082446390367
  0
ARC
  8
0
 62
7
 10
287.318562289769
 20
303.9737264658133
 30
0
 40
6.257918287681613
 50
88.07984053619836
 51
130.5665947238015
  0
ARC
  8
0
 62
7
 10
286.8397305413682
 20
304.1828549703135
 30
0
 40
4.344813957643484
 50
89.47091632199425
 51
148.9063121340002
  0
ARC
  8
0
 62
7
 10
286.9329682247681
 20
305.6423628297151
 30
0
 40
2.885609776233301
 50
52.35622034789184
 51
91.05473726819673
  0
ARC
  8
0
 62
7
 10
285.5832066932671
 20
304.7724669963141
 30
0
 40
4.431496491784286
 50
354.2162537032015
 51
45.38983062930188
  0
ARC
  8
0
 62
7
 10
285.0797349119666
 20
303.9329256411133
 30
0
 40
4.928101158716425
 50
312.925412224305
 51
4.573558742898332
  0
ARC
  8
0
 62
7
 10
286.1660345657674
 20
303.1407746034126
 30
0
 40
3.617301990655434
 50
271.0362894536003
 51
308.8680626315033
  0
ARC
  8
0
 62
7
 10
317.5884646715995
 20
307.5358008162169
 30
0
 40
1.919702401056424
 50
354.9106060315985
 51
50.75663898012216
  0
ARC
  8
0
 62
7
 10
316.9021364660985
 20
305.8673212173152
 30
0
 40
3.683521767475159
 50
58.9345062393042
 51
92.99315078910247
  0
ARC
  8
0
 62
7
 10
316.6524825962979
 20
305.8387292070152
 30
0
 40
3.707531671447536
 50
89.11425654869717
 51
143.1309470888016
  0
ARC
  8
0
 62
7
 10
311.4595028981921
 20
307.1476594227165
 30
0
 40
2.407779559198084
 50
22.34883153548971
 51
95.12373586768234
  0
ARC
  8
0
 62
7
 10
311.1871657886923
 20
305.8387144650152
 30
0
 40
3.707546299969188
 50
89.11437177689264
 51
143.1308318606974
  0
ARC
  8
0
 62
7
 10
310.4167040270922
 20
305.734572771915
 30
0
 40
2.204742317357186
 50
128.8039488617113
 51
185.2185689671948
  0
ARC
  8
0
 62
7
 10
310.3090361228915
 20
305.8098622362152
 30
0
 40
2.078923123047363
 50
89.85759333008606
 51
127.7917621522062
  0
ARC
  8
0
 62
7
 10
310.3352038100911
 20
306.5570890164159
 30
0
 40
1.33185549987392
 50
53.45896121156735
 51
90.90347316085922
  0
ARC
  8
0
 62
7
 10
309.4697958065908
 20
306.7866271860161
 30
0
 40
1.859228909556579
 50
356.335671890004
 51
26.87704366780048
  0
ARC
  8
0
 62
7
 10
315.9982550663972
 20
305.7345976254151
 30
0
 40
2.204687811509443
 50
128.8032180345862
 51
185.2193469328016
  0
ARC
  8
0
 62
7
 10
315.8477320502971
 20
305.9384188080153
 30
0
 40
1.951552338903307
 50
92.00283812241079
 51
129.1091718544985
  0
ARC
  8
0
 62
7
 10
315.8610419150973
 20
306.3939724170157
 30
0
 40
1.497027446743281
 50
55.46153980901146
 51
93.12135729000224
  0
ARC
  8
0
 62
7
 10
315.3990198005968
 20
306.664542182416
 30
0
 40
1.626263338272921
 50
357.0409577903973
 51
36.2926113885012
  0
ARC
  8
0
 62
7
 10
357.7484311245389
 20
405.5034737071149
 30
0
 40
5.04968804954853
 50
52.98400568989617
 51
76.97622417840337
  0
ARC
  8
0
 62
7
 10
240.1072080374215
 20
405.4697165008147
 30
0
 40
5.086133389051133
 50
103.1109998816056
 51
126.9287702502039
  0
ARC
  8
0
 62
7
 10
246.6732801530279
 20
414.5613112492241
 30
0
 40
2.012014722075749
 50
89.53296340699963
 51
179.6594514818106
  0
ARC
  8
0
 62
7
 10
312.9199418261942
 20
407.4232654702168
 30
0
 40
2.000000000002672
 50
180
 51
270
  0
ARC
  8
0
 62
7
 10
284.919941826266
 20
407.4232654702168
 30
0
 40
2.000000000001876
 50
270
 51
0
  0
ARC
  8
0
 62
7
 10
220.6581135926017
 20
415.2005257720244
 30
0
 40
5.223978947287542
 50
91.24466311469821
 51
123.1400536301901
  0
ARC
  8
0
 62
7
 10
228.9016844108101
 20
401.4329729947107
 30
0
 40
18.99074274762541
 50
90.39161696760064
 51
107.1965643793016
  0
ARC
  8
0
 62
7
 10
360.9542250993427
 20
415.2005287813244
 30
0
 40
5.223975749781316
 50
91.24456854360238
 51
123.1400602923025
  0
ARC
  8
0
 62
7
 10
377.408709412859
 20
415.2005287813244
 30
0
 40
5.223975749781052
 50
91.24456854361243
 51
123.1400602923047
  0
ARC
  8
0
 62
7
 10
307.2606500774882
 20
415.2005342767246
 30
0
 40
5.223970292442221
 50
91.24458842990343
 51
123.1400788660956
  0
ARC
  8
0
 62
7
 10
299.0497368527804
 20
401.4330073633108
 30
0
 40
18.9907083403844
 50
90.39160019729931
 51
107.1965796796989
  0
ARC
  8
0
 62
7
 10
290.5794281633716
 20
373.6454109837831
 30
0
 40
5.223375700555554
 50
271.2425951629077
 51
303.1417880104021
  0
ARC
  8
0
 62
7
 10
298.7905075835797
 20
387.4113555684967
 30
0
 40
18.98853309167534
 50
270.3905564067006
 51
287.1974714475009
  0
ARC
  8
0
 62
7
 10
377.1819646536587
 20
373.6454194728829
 30
0
 40
5.22338433906087
 50
271.2426698055921
 51
303.1417628161991
  0
ARC
  8
0
 62
7
 10
368.9385600282503
 20
387.4113899220968
 30
0
 40
18.98856748390761
 50
270.3905731739995
 51
287.1974561501977
  0
ARC
  8
0
 62
7
 10
220.4313688247012
 20
373.6454164887829
 30
0
 40
5.223381167351136
 50
271.2425753083071
 51
303.1417694052025
  0
ARC
  8
0
 62
7
 10
236.8858531385185
 20
373.6454164887829
 30
0
 40
5.223381167351497
 50
271.2425753082883
 51
303.1417694051935
  0
ARC
  8
0
 62
7
 10
238.4199418262197
 20
427.5732654703369
 30
0
 40
2.000000000002103
 50
90
 51
180
  0
ARC
  8
0
 62
7
 10
240.4199418260214
 20
416.5732654702259
 30
0
 40
4.000000000003986
 50
311.4096221093049
 51
0
  0
ARC
  8
0
 62
7
 10
240.4199418260214
 20
416.5732654702259
 30
0
 40
1.600000000001467
 50
244.9125144385031
 51
0
  0
ARC
  8
0
 62
7
 10
240.4199418260214
 20
416.5732654702259
 30
0
 40
1.600000000001302
 50
0
 51
115.0874855614949
  0
ARC
  8
0
 62
7
 10
276.9199395590586
 20
432.0732732763415
 30
0
 40
2.999998105321382
 50
14.14446204380294
 51
180.0000971723979
  0
ARC
  8
0
 62
7
 10
242.5614549176235
 20
367.9332302118774
 30
0
 40
2.682296329143018
 50
333.9746622532077
 51
354.6571096927987
  0
ARC
  8
0
 62
7
 10
298.9199418260805
 20
304.4232654702138
 30
0
 40
126.000000000126
 50
271.1777465194998
 51
285.8870382584998
  0
ARC
  8
0
 62
7
 10
361.724934250843
 20
249.0179230193583
 30
0
 40
3.475516785487681
 50
138.9662201378057
 51
184.2605176193003
  0
ARC
  8
0
 62
7
 10
208.5537248782903
 20
380.9577575340902
 30
0
 40
39.21207898082712
 50
318.3923310009
 51
332.2495019051999
  0
ARC
  8
0
 62
7
 10
333.9199418262151
 20
221.5076457113308
 30
0
 40
36.00000000003626
 50
296.4851519808004
 51
349.0116719968002
  0
ARC
  8
0
 62
7
 10
217.9199418259987
 20
403.4232654703127
 30
0
 40
2.000000000001903
 50
125.0316505289881
 51
180
  0
ARC
  8
0
 62
7
 10
379.9199418261615
 20
403.4232654703127
 30
0
 40
2.000000000001819
 50
0
 51
54.9683494710152
  0
ARC
  8
0
 62
7
 10
240.9199418261223
 20
434.5732654702438
 30
0
 40
5.000000000004945
 50
270
 51
0
  0
ARC
  8
0
 62
7
 10
344.9199418263261
 20
436.0732654702453
 30
0
 40
7.000000000007162
 50
0
 51
90
  0
ARC
  8
0
 62
7
 10
252.9199418261342
 20
436.0732654702453
 30
0
 40
7.000000000007276
 50
90
 51
180
  0
CIRCLE
  8
0
 62
2
  6
DASHDOT
 10
740.800662369722
 20
277.4232654701868
 30
0
 40
84.00000000008458
  0
CIRCLE
  8
0
 62
7
 10
800.1976319893811
 20
336.8202350898462
 30
0
 40
9.500000000009095
  0
CIRCLE
  8
0
 62
7
 10
800.1976319893811
 20
218.0262958505273
 30
0
 40
9.500000000009095
  0
CIRCLE
  8
0
 62
7
 10
681.4036927500629
 20
336.8202350898462
 30
0
 40
9.500000000010004
  0
CIRCLE
  8
0
 62
7
 10
681.4036927500629
 20
218.0262958505273
 30
0
 40
9.500000000010004
  0
CIRCLE
  8
0
 62
7
 10
740.800662369722
 20
277.4232654701868
 30
0
 40
47.00000000004729
  0
CIRCLE
  8
0
 62
7
 10
740.800662369722
 20
277.4232654701868
 30
0
 40
40.00000000004002
  0
CIRCLE
  8
0
 62
7
 10
740.800662369722
 20
277.4232654701868
 30
0
 40
47.50000000004729
  0
CIRCLE
  8
0
 62
7
 10
740.800662369722
 20
277.4232654701868
 30
0
 40
64.50000000006457
  0
CIRCLE
  8
0
 62
7
 10
740.800662369722
 20
277.4232654701868
 30
0
 40
48.00000000004729
  0
CIRCLE
  8
0
 62
7
 10
740.800662369722
 20
277.4232654701868
 30
0
 40
55.00000000005548
  0
CIRCLE
  8
0
 62
7
 10
740.800662369722
 20
277.4232654701868
 30
0
 40
54.50000000005457
  0
CIRCLE
  8
0
 62
7
 10
740.800662369722
 20
277.4232654701868
 30
0
 40
55.50000000005548
  0
CIRCLE
  8
0
 62
7
 10
740.800662369722
 20
277.4232654701868
 30
0
 40
62.50000000006276
  0
CIRCLE
  8
0
 62
7
 10
740.800662369722
 20
277.4232654701868
 30
0
 40
37.5000000000382
  0
CIRCLE
  8
0
 62
7
 10
298.9199418260805
 20
629.6016251931389
 30
0
 40
46.00000000004548
  0
CIRCLE
  8
0
 62
7
 10
298.9199418260805
 20
548.601625193058
 30
0
 40
12.00000000001182
  0
CIRCLE
  8
0
 62
7
 10
369.067999532751
 20
589.1016251930985
 30
0
 40
12.00000000001182
  0
CIRCLE
  8
0
 62
7
 10
228.7718841197093
 20
589.1016251930985
 30
0
 40
12.00000000001268
  0
CIRCLE
  8
0
 62
7
 10
228.7718841197093
 20
670.1016251931794
 30
0
 40
12.00000000001268
  0
CIRCLE
  8
0
 62
7
 10
369.067999532751
 20
670.1016251931794
 30
0
 40
12.00000000001182
  0
CIRCLE
  8
0
 62
7
 10
298.9199418260805
 20
710.6016251932199
 30
0
 40
12.00000000001182
  0
CIRCLE
  8
0
 62
7
 10
198.7948293766804
 20
319.2000141270285
 30
0
 40
1.250000000000881
  0
CIRCLE
  8
0
 62
7
 10
276.9199418261578
 20
431.0732654704405
 30
0
 40
2.500000000002672
  0
DIMENSION
  8
1
  6
CONTINUOUS
 62
2
  2
*D0
  3
DMST_1
 10
298.9199418260806
 20
132.9232639797868
 30
0
 11
368.9199421242502
 21
135.4232639797868
 31
0
 12
0
 22
0
 32
0
 70
0
 13
438.9199424224198
 23
214.9232654702243
 33
0
 14
298.9199418260805
 24
162.4232639797868
 34
0
 53
0
  0
DIMENSION
  8
1
  6
CONTINUOUS
 62
2
  2
*D1
  3
DMST_1
 10
138.9199454023201
 20
132.9232639797868
 30
0
 11
218.9199436142003
 21
135.4232639797868
 31
0
 12
0
 22
0
 32
0
 70
0
 13
298.9199418260805
 23
162.4232639797868
 33
0
 14
138.9199454023201
 24
214.9232654702243
 34
0
 53
0
  0
DIMENSION
  8
1
  6
CONTINUOUS
 62
2
  2
*D2
  3
DMST_1
 10
438.9199424224198
 20
112.9232639797868
 30
0
 11
298.9199418260805
 21
115.4232639797868
 31
0
 12
0
 22
0
 32
0
 70
0
 13
138.9199454023201
 23
214.9232654702243
 33
0
 14
438.9199424224198
 24
214.9232654702243
 34
0
 53
0
  0
DIMENSION
  8
1
  6
CONTINUOUS
 62
2
  2
*D3
  3
DMST_1
 10
471.4199424224198
 20
277.4232654701868
 30
0
 11
468.9199424224198
 21
227.4232647249868
 31
0
 12
0
 22
0
 32
0
 70
0
 13
348.9199425714305
 23
177.4232639797868
 33
0
 14
453.9199424224198
 24
277.4232654701868
 34
0
 50
90
 53
0
  0
DIMENSION
  8
1
  6
CONTINUOUS
 62
2
  2
*D4
  3
DMST_1
 10
491.4199424224198
 20
177.4232639797867
 30
0
 11
488.9199424224198
 21
310.7482633422201
 31
0
 12
0
 22
0
 32
0
 70
0
  1
267
 13
335.9199423030168
 23
444.0732627046535
 33
0
 14
348.9199425714305
 24
177.4232639797868
 34
0
 50
90
 53
0
  0
DIMENSION
  8
1
  6
CONTINUOUS
 62
2
  2
*D5
  3
DMST_1
 10
491.4199424224198
 20
524.1016274579336
 30
0
 11
488.9199424224198
 21
629.6016251931389
 31
0
 12
0
 22
0
 32
0
 70
0
 13
436.9199383693185
 23
735.1016229283443
 33
0
 14
436.9199383693185
 24
524.1016274579336
 34
0
 50
90
 53
0
  0
DIMENSION
  8
1
  6
CONTINUOUS
 62
2
  2
*D6
  3
DMST_2
 10
649.5782179138723
 20
224.4259482973181
 30
0
 11
849.9150438991001
 21
343.706508833179
 31
0
 12
0
 22
0
 32
0
 70
3
  1
D1
 15
832.0231068255716
 25
330.4205826430555
 35
0
 40
0
 53
0
  0
DIMENSION
  8
1
  6
CONTINUOUS
 62
2
  2
*D7
  3
DMST_2
 10
664.2438718892339
 20
242.8536569774534
 30
0
 11
855.296424518903
 21
331.867471469612
 31
0
 12
0
 22
0
 32
0
 70
3
  1
D2
 15
817.3574528502101
 25
311.9928739629202
 35
0
 40
0
 53
0
  0
DIMENSION
  8
1
  6
CONTINUOUS
 62
2
  2
*D8
  3
DMST_2
 10
681.4133737039124
 20
257.9450739491126
 30
0
 11
858.740508115577
 21
318.736902757292
 31
0
 12
0
 22
0
 32
0
 70
3
  1
D3
 15
800.1879510355316
 25
296.9014569912609
 35
0
 40
0
 53
0
  0
ENDSEC
  0
EOF
