  0
SECTION
  2
HEADER
  9
$ACADVER
  1
AC1009
  9
$INSBASE
 10
0
 20
0
  9
$EXTMIN
 10
1249.52913583403
 20
313.602522585742
  9
$EXTMAX
 10
1416.626503905703
 20
622.673066064002
  9
$LIMMIN
 10
1249.52913583403
 20
313.602522585742
  9
$LIMMAX
 10
1416.626503905703
 20
622.673066064002
  9
$VIEWCTR
 10
10
 20
10
  9
$VIEWSIZE
 40
10
  9
$SNAPMODE
 70
0
  9
$SNAPUNIT
 10
1
 20
1
  9
$SNAPBASE
 10
0
 20
0
  9
$SNAPANG
 50
0
  9
$SNAPSTYLE
 70
0
  9
$SNAPISOPAIR
 70
0
  9
$GRIDMODE
 70
0
  9
$GRIDUNIT
 10
0
 20
0
  9
$ORTHOMODE
 70
0
  9
$REGENMODE
 70
1
  9
$FILLMODE
 70
1
  9
$QTEXTMODE
 70
0
  9
$DRAGMODE
 70
2
  9
$LTSCALE
 40
1
  9
$OSMODE
 70
0
  9
$ATTMODE
 70
1
  9
$TEXTSIZE
 40
3.5
  9
$TRACEWID
 40
0.5
  9
$TEXTSTYLE
  7
STANDARD
  9
$CLAYER
  8
0
  9
$CELTYPE
  6
BYLAYER
  9
$CECOLOR
 62
256
  9
$DIMSCALE
 40
1
  9
$DIMASZ
 40
0.18
  9
$DIMEXO
 40
0.0625
  9
$DIMDLI
 40
0.38
  9
$DIMRND
 40
0
  9
$DIMDLE
 40
0
  9
$DIMEXE
 40
0.18
  9
$DIMTP
 40
0
  9
$DIMTM
 40
0
  9
$DIMTXT
 40
0.18
  9
$DIMCEN
 40
0.09
  9
$DIMTSZ
 40
0
  9
$DIMTOL
 70
0
  9
$DIMLIM
 70
0
  9
$DIMTIH
 70
1
  9
$DIMTOH
 70
1
  9
$DIMSE1
 70
0
  9
$DIMSE2
 70
0
  9
$DIMTAD
 70
0
  9
$DIMZIN
 70
0
  9
$DIMBLK
  1

  9
$DIMASO
 70
1
  9
$DIMSHO
 70
1
  9
$DIMPOST
  1

  9
$DIMAPOST
  1

  9
$DIMALT
 70
0
  9
$DIMALTD
 70
2
  9
$DIMALTF
 40
25.4
  9
$DIMLFAC
 40
1
  9
$DIMTOFL
 70
0
  9
$DIMTVP
 40
0
  9
$DIMTIX
 70
0
  9
$DIMSOXD
 70
0
  9
$DIMSAH
 70
0
  9
$DIMBLK1
  1

  9
$DIMBLK2
  1

  9
$DIMSTYLE
  2
*UNNAMED
  9
$DIMCLRD
 70
0
  9
$DIMCLRE
 70
0
  9
$DIMCLRT
 70
0
  9
$DIMTFAC
 40
1
  9
$DIMGAP
 40
0.09
  9
$LUNITS
 70
2
  9
$LUPREC
 70
4
  9
$AXISMODE
 70
0
  9
$AXISUNIT
 10
0
 20
0
  9
$SKETCHINC
 40
0.1
  9
$FILLETRAD
 40
2
  9
$AUNITS
 70
0
  9
$AUPREC
 70
0
  9
$MENU
  1
ACAD
  9
$ELEVATION
 40
0
  9
$THICKNESS
 40
0
  9
$VIEWDIR
 10
0
 20
0
 30
1
  9
$LIMCHECK
 70
0
  9
$BLIPMODE
 70
1
  9
$CHAMFERA
 40
0
  9
$CHAMFERB
 40
0
  9
$FASTZOOM
 70
1
  9
$SKPOLY
 70
0
  9
$ANGBASE
 50
0
  9
$ANGDIR
 70
0
  9
$PDMODE
 70
0
  9
$PDSIZE
 40
0
  9
$PLINEWID
 40
0
  9
$COORDS
 70
2
  0
ENDSEC
  0
SECTION
  2
TABLES
  0
TABLE
  2
DIMSTYLE
 70
2
  0
DIMSTYLE
  2
DMST_1
 70
0
  3

  4

  5

  6

  7

 40
1
 41
3
 42
0.5
 43
7
 44
1
 45
0
 46
0
 47
0
 48
0
140
3
141
0
142
0
143
25.4
144
1
145
0
146
1
147
0.09
 71
0
 72
0
 73
0
 74
0
 75
0
 76
0
 77
1
 78
1
170
0
171
2
172
0
173
0
174
0
175
0
176
2
177
2
178
2
  0
DIMSTYLE
  2
DMST_2
 70
0
  3
)
  4

  5

  6

  7

 40
1
 41
3
 42
0.5
 43
7
 44
1
 45
0
 46
0
 47
0
 48
0
140
3
141
0
142
0
143
25.4
144
1
145
0
146
1
147
0.09
 71
0
 72
0
 73
0
 74
0
 75
0
 76
0
 77
1
 78
1
170
0
171
2
172
0
173
0
174
0
175
0
176
2
177
2
178
2
  0
ENDTAB
  0
TABLE
  2
LTYPE
 70
9
  0
LTYPE
  2
CONTINUOUS
 70
64
  3
Solid line
 72
65
 73
0
 40
0
  0
LTYPE
  2
BORDER
 70
64
  3
__ __ . __ __ .
 72
65
 73
6
 40
14.23351187070934
 49
4.066717677345526
 49
-2.033358838672763
 49
4.066717677345526
 49
-2.033358838672763
 49
0
 49
-2.033358838672763
  0
LTYPE
  2
CENTER
 70
64
  3
____ _ ____ _
 72
65
 73
4
 40
16.2668707093821
 49
10.16679419336382
 49
-2.033358838672763
 49
2.033358838672763
 49
-2.033358838672763
  0
LTYPE
  2
DASHDOT
 70
64
  3
__ . __ . __ .
 72
65
 73
4
 40
8.133435354691052
 49
4.066717677345526
 49
-2.033358838672763
 49
0
 49
-2.033358838672763
  0
LTYPE
  2
DASHED
 70
64
  3
__ __ __ __ __
 72
65
 73
2
 40
6.100076516018289
 49
4.066717677345526
 49
-2.033358838672763
  0
LTYPE
  2
DIVIDE
 70
64
  3
__ . . __ . . 
 72
65
 73
6
 40
10.16679419336382
 49
4.066717677345526
 49
-2.033358838672763
 49
0
 49
-2.033358838672763
 49
0
 49
-2.033358838672763
  0
LTYPE
  2
DOT
 70
64
  3
..............
 72
65
 73
4
 40
4.066717677345526
 49
0
 49
-2.033358838672763
 49
0
 49
-2.033358838672763
  0
LTYPE
  2
HIDDEN
 70
64
  3
_ _ _ _ _ _ _
 72
65
 73
2
 40
3.050038258009145
 49
2.033358838672763
 49
-1.016679419336382
  0
LTYPE
  2
PHANTOM
 70
64
  3
_____ _ _ _____ _ _ 
 72
65
 73
6
 40
20.33358838672763
 49
10.16679419336382
 49
-2.033358838672763
 49
2.033358838672763
 49
-2.033358838672763
 49
2.033358838672763
 49
-2.033358838672763
  0
ENDTAB
  0
TABLE
  2
LAYER
 70
3
  0
LAYER
  2
0
 70
0
 62
7
  6
CONTINUOUS
  0
LAYER
  2
1
 70
0
 62
7
  6
CONTINUOUS
  0
ENDTAB
  0
TABLE
  2
STYLE
 70
4
  0
STYLE
  2
STANDARD
 70
0
 40
0
 41
1
 50
0
 71
0
 42
3.5
  3
txt
  4

  0
STYLE
  2
SIMPLEX
 70
0
 40
0
 41
1
 50
0
 71
0
 42
3.5
  3
simplex
  4

  0
STYLE
  2
COMPLEX
 70
0
 40
0
 41
1
 50
0
 71
0
 42
3.5
  3
complex
  4

  0
STYLE
  2
ITALIC
 70
0
 40
0
 41
1
 50
0
 71
0
 42
3.5
  3
italic
  4

  0
ENDTAB
  0
TABLE
  2
VIEW
 70
0
  0
ENDTAB
  0
ENDSEC
  0
SECTION
  2
BLOCKS
  0
BLOCK
  8
1
  2
*D0
 70
1
 10
0
 20
0
 30
0
  0
LINE
  8
1
 62
2
 10
1291.473158972351
 20
350.943413215318
 30
0
 11
1302.473158972351
 21
350.943413215318
 31
0
  0
LINE
  8
1
 62
2
 10
1302.473158972351
 20
360.975155293744
 30
0
 11
1302.473158972351
 21
350.443413215318
 31
0
  0
LINE
  8
1
 62
2
 10
1291.473158972351
 20
362.695655293744
 30
0
 11
1291.473158972351
 21
350.443413215318
 31
0
  0
LINE
  8
1
 62
2
 10
1291.473158972351
 20
350.943413215318
 30
0
 11
1294.473158972351
 21
351.753413215318
 31
0
  0
LINE
  8
1
 62
2
 10
1291.473158972351
 20
350.943413215318
 30
0
 11
1294.473158972351
 21
350.133413215318
 31
0
  0
LINE
  8
1
 62
2
 10
1302.473158972351
 20
350.943413215318
 30
0
 11
1299.473158972351
 21
350.133413215318
 31
0
  0
LINE
  8
1
 62
2
 10
1302.473158972351
 20
350.943413215318
 30
0
 11
1299.473158972351
 21
351.753413215318
 31
0
  0
TEXT
  8
1
 62
2
 10
1295.234735183704
 20
351.033413215318
 30
0
 40
3
  1
11
 41
0.8910000000000001
 51
15
  0
ENDBLK
  8
0
  0
BLOCK
  8
1
  2
*D1
 70
1
 10
0
 20
0
 30
0
  0
LINE
  8
1
 62
2
 10
1291.473158972351
 20
333.820131281394
 30
0
 11
1391.473158972351
 21
333.820131281394
 31
0
  0
LINE
  8
1
 62
2
 10
1391.473158972351
 20
362.695655293744
 30
0
 11
1391.473158972351
 21
333.320131281394
 31
0
  0
LINE
  8
1
 62
2
 10
1291.473158972351
 20
362.695655293744
 30
0
 11
1291.473158972351
 21
333.320131281394
 31
0
  0
LINE
  8
1
 62
2
 10
1291.473158972351
 20
333.820131281394
 30
0
 11
1294.473158972351
 21
334.630131281394
 31
0
  0
LINE
  8
1
 62
2
 10
1291.473158972351
 20
333.820131281394
 30
0
 11
1294.473158972351
 21
333.010131281394
 31
0
  0
LINE
  8
1
 62
2
 10
1391.473158972351
 20
333.820131281394
 30
0
 11
1388.473158972351
 21
333.010131281394
 31
0
  0
LINE
  8
1
 62
2
 10
1391.473158972351
 20
333.820131281394
 30
0
 11
1388.473158972351
 21
334.630131281394
 31
0
  0
TEXT
  8
1
 62
2
 10
1337.952735183704
 20
333.910131281394
 30
0
 40
3
  1
100
 41
0.8910000000000001
 51
15
  0
ENDBLK
  8
0
  0
BLOCK
  8
1
  2
*D2
 70
1
 10
0
 20
0
 30
0
  0
LINE
  8
1
 62
2
 10
1296.473158972351
 20
505.304139049809
 30
0
 11
1386.473158972351
 21
505.304139049809
 31
0
  0
LINE
  8
1
 62
2
 10
1386.473158972351
 20
453.6456565483439
 30
0
 11
1386.473158972351
 21
505.804139049809
 31
0
  0
LINE
  8
1
 62
2
 10
1296.473158972351
 20
453.6456565483439
 30
0
 11
1296.473158972351
 21
505.804139049809
 31
0
  0
LINE
  8
1
 62
2
 10
1386.473158972351
 20
505.304139049809
 30
0
 11
1383.473158972351
 21
504.494139049809
 31
0
  0
LINE
  8
1
 62
2
 10
1386.473158972351
 20
505.304139049809
 30
0
 11
1383.473158972351
 21
506.114139049809
 31
0
  0
LINE
  8
1
 62
2
 10
1296.473158972351
 20
505.304139049809
 30
0
 11
1299.473158972351
 21
506.114139049809
 31
0
  0
LINE
  8
1
 62
2
 10
1296.473158972351
 20
505.304139049809
 30
0
 11
1299.473158972351
 21
504.494139049809
 31
0
  0
TEXT
  8
1
 62
2
 10
1341.035158972351
 20
505.394139049809
 30
0
 40
3
  1
90
 41
0.8910000000000001
 51
15
  0
TEXT
  8
1
 62
2
 10
1336.652311395058
 20
505.394139049809
 30
0
 40
3
  1
%%c
 41
0.8910000000000001
 51
15
  0
ENDBLK
  8
0
  0
BLOCK
  8
1
  2
*D3
 70
1
 10
0
 20
0
 30
0
  0
LINE
  8
1
 62
2
 10
1415.82265632841
 20
351.6956552937446
 30
0
 11
1415.82265632841
 21
498.6456565483439
 31
0
  0
LINE
  8
1
 62
2
 10
1376.371272767266
 20
498.6456565483439
 30
0
 11
1416.32265632841
 21
498.6456565483439
 31
0
  0
LINE
  8
1
 62
2
 10
1366.973158972351
 20
351.6956552937446
 30
0
 11
1416.32265632841
 21
351.6956552937446
 31
0
  0
LINE
  8
1
 62
2
 10
1415.82265632841
 20
498.6456565483439
 30
0
 11
1416.63265632841
 21
495.6456565483439
 31
0
  0
LINE
  8
1
 62
2
 10
1415.82265632841
 20
498.6456565483439
 30
0
 11
1415.01265632841
 21
495.6456565483439
 31
0
  0
LINE
  8
1
 62
2
 10
1415.82265632841
 20
351.6956552937446
 30
0
 11
1415.01265632841
 21
354.6956552937446
 31
0
  0
LINE
  8
1
 62
2
 10
1415.82265632841
 20
351.6956552937446
 30
0
 11
1416.63265632841
 21
354.6956552937446
 31
0
  0
TEXT
  8
1
 62
2
 10
1415.73265632841
 20
413.4041127384944
 30
0
 40
3
  1
147
 50
90
 41
0.8910000000000001
 51
15
  0
TEXT
  8
1
 62
2
 10
1415.73265632841
 20
410.6547651612009
 30
0
 40
3
  1
(
 50
90
 41
0.8910000000000001
 51
15
  0
TEXT
  8
1
 62
2
 10
1415.73265632841
 20
421.9449603157877
 30
0
 40
3
  1
)
 50
90
 41
0.8910000000000001
 51
15
  0
ENDBLK
  8
0
  0
BLOCK
  8
1
  2
*D4
 70
1
 10
0
 20
0
 30
0
  0
LINE
  8
1
 62
2
 10
1404.66355141348
 20
351.6956552937446
 30
0
 11
1404.66355141348
 21
374.6956552937439
 31
0
  0
LINE
  8
1
 62
2
 10
1396.37828345507
 20
374.6956552937439
 30
0
 11
1405.16355141348
 21
374.6956552937439
 31
0
  0
LINE
  8
1
 62
2
 10
1366.973158972351
 20
351.6956552937446
 30
0
 11
1405.16355141348
 21
351.6956552937446
 31
0
  0
LINE
  8
1
 62
2
 10
1404.66355141348
 20
374.6956552937439
 30
0
 11
1405.47355141348
 21
371.6956552937439
 31
0
  0
LINE
  8
1
 62
2
 10
1404.66355141348
 20
374.6956552937439
 30
0
 11
1403.85355141348
 21
371.6956552937439
 31
0
  0
LINE
  8
1
 62
2
 10
1404.66355141348
 20
351.6956552937446
 30
0
 11
1403.85355141348
 21
354.6956552937446
 31
0
  0
LINE
  8
1
 62
2
 10
1404.66355141348
 20
351.6956552937446
 30
0
 11
1405.47355141348
 21
354.6956552937446
 31
0
  0
TEXT
  8
1
 62
2
 10
1404.57355141348
 20
360.5662315050976
 30
0
 40
3
  1
23
 50
90
 41
0.8910000000000001
 51
15
  0
ENDBLK
  8
0
  0
ENDSEC
  0
SECTION
  2
ENTITIES
  0
POLYLINE
  8
1
 62
7
 66
1
  0
VERTEX
  8
1
 10
1372.937627423614
 20
366.3778864730894
 30
0
 42
-0.03605798156221322
  0
VERTEX
  8
1
 10
1371.403759341661
 20
367.0972768371512
 30
0
 42
-0.03198946007809814
  0
VERTEX
  8
1
 10
1369.862734544151
 20
368.0968003900017
 30
0
 42
-0.03326804112388801
  0
VERTEX
  8
1
 10
1368.419966404363
 20
369.3255238245883
 30
0
 42
-0.03935897042469851
  0
VERTEX
  8
1
 10
1367.180868295576
 20
370.7325138338587
 30
0
 42
-0.05107277593832744
  0
VERTEX
  8
1
 10
1366.250853591068
 20
372.2668371107603
 30
0
 42
-0.06875757514358007
  0
VERTEX
  8
1
 10
1365.735335664118
 20
373.8775603482406
 30
0
 42
-0.08430435215533205
  0
VERTEX
  8
1
 10
1365.735335664119
 20
375.5137502392494
 30
0
 42
-0.06688905407335018
  0
VERTEX
  8
1
 10
1366.250853591071
 20
377.1244734767336
 30
0
 42
-0.04966908727887472
  0
VERTEX
  8
1
 10
1367.180868295583
 20
378.6587967536386
 30
0
 42
-0.03878965756357113
  0
VERTEX
  8
1
 10
1368.419966404375
 20
380.0657867629114
 30
0
 42
-0.03341875653031787
  0
VERTEX
  8
1
 10
1369.862734544168
 20
381.2945101974991
 30
0
 42
-0.03287397475129478
  0
VERTEX
  8
1
 10
1371.403759341682
 20
382.2940337503489
 30
0
 42
-0.03806555149239869
  0
VERTEX
  8
1
 10
1372.937627423638
 20
383.0134241144079
 30
0
  0
SEQEND
  8
1
  0
POLYLINE
  8
1
 62
7
 66
1
  0
VERTEX
  8
1
 10
1310.008690521088
 20
366.3778864730894
 30
0
 42
0.03605798156221299
  0
VERTEX
  8
1
 10
1311.542558603041
 20
367.0972768371512
 30
0
 42
0.03198946007796255
  0
VERTEX
  8
1
 10
1313.08358340055
 20
368.0968003900017
 30
0
 42
0.03326804112397704
  0
VERTEX
  8
1
 10
1314.526351540338
 20
369.3255238245883
 30
0
 42
0.03935897042478991
  0
VERTEX
  8
1
 10
1315.765449649125
 20
370.7325138338587
 30
0
 42
0.05107277593788609
  0
VERTEX
  8
1
 10
1316.695464353633
 20
372.2668371107603
 30
0
 42
0.06875757514397583
  0
VERTEX
  8
1
 10
1317.210982280583
 20
373.8775603482406
 30
0
 42
0.08430435215492382
  0
VERTEX
  8
1
 10
1317.210982280583
 20
375.5137502392494
 30
0
 42
0.06688905407298729
  0
VERTEX
  8
1
 10
1316.69546435363
 20
377.1244734767336
 30
0
 42
0.04966908727897205
  0
VERTEX
  8
1
 10
1315.765449649118
 20
378.6587967536386
 30
0
 42
0.03878965756375376
  0
VERTEX
  8
1
 10
1314.526351540326
 20
380.0657867629114
 30
0
 42
0.03341875653039017
  0
VERTEX
  8
1
 10
1313.083583400533
 20
381.2945101974991
 30
0
 42
0.03287397475117041
  0
VERTEX
  8
1
 10
1311.542558603019
 20
382.2940337503489
 30
0
 42
0.03806555149245011
  0
VERTEX
  8
1
 10
1310.008690521063
 20
383.0134241144079
 30
0
  0
SEQEND
  8
1
  0
POLYLINE
  8
1
 62
7
 66
1
 70
1
  0
VERTEX
  8
1
 10
1345.568629214031
 20
476.1200705580284
 30
0
 42
0.03571986069862532
  0
VERTEX
  8
1
 10
1345.4588153593
 20
475.9605554521698
 30
0
 42
0.05001447801596152
  0
VERTEX
  8
1
 10
1345.377810489532
 20
475.7848078763203
 30
0
 42
0.04733296127465595
  0
VERTEX
  8
1
 10
1345.34677291674
 20
475.6565238313394
 30
0
 42
0.04357203114872765
  0
VERTEX
  8
1
 10
1345.341941551064
 20
475.5662249421635
 30
0
 42
0.05357212706087103
  0
VERTEX
  8
1
 10
1345.353660225331
 20
475.4828767459017
 30
0
 42
0.1094247059508232
  0
VERTEX
  8
1
 10
1345.41598025231
 20
475.358839150715
 30
0
 42
0.1133878202661476
  0
VERTEX
  8
1
 10
1345.533037438544
 20
475.2723429666477
 30
0
 42
0.07195778157303685
  0
VERTEX
  8
1
 10
1345.650430441423
 20
475.2409457998928
 30
0
 42
0.05145352632584604
  0
VERTEX
  8
1
 10
1345.777373395972
 20
475.2386427540662
 30
0
 42
0.04142594342858708
  0
VERTEX
  8
1
 10
1345.915952817546
 20
475.261928600577
 30
0
 42
0.05088981411611245
  0
VERTEX
  8
1
 10
1346.136392007047
 20
475.3430257999032
 30
0
 42
0.04203820926543494
  0
VERTEX
  8
1
 10
1346.34456480154
 20
475.4664676249085
 30
0
 42
0.03827686564864456
  0
VERTEX
  8
1
 10
1346.532101017252
 20
475.6230735740266
 30
0
 42
0.04264275054387369
  0
VERTEX
  8
1
 10
1346.693575149296
 20
475.8096565000788
 30
0
 42
0.05310791306088496
  0
VERTEX
  8
1
 10
1346.803889627619
 20
475.9953344204026
 30
0
 42
0.05427745626851065
  0
VERTEX
  8
1
 10
1346.858387177764
 20
476.144571298203
 30
0
 42
0.0541823807867238
  0
VERTEX
  8
1
 10
1346.876773776849
 20
476.2549759502739
 30
0
 42
0.04895675332326085
  0
VERTEX
  8
1
 10
1346.874557316882
 20
476.3461498108325
 30
0
 42
0.06590206660873685
  0
VERTEX
  8
1
 10
1346.84162863238
 20
476.456711280136
 30
0
 42
0.1185715814429974
  0
VERTEX
  8
1
 10
1346.750137814118
 20
476.5651737128634
 30
0
 42
0.1025971211061599
  0
VERTEX
  8
1
 10
1346.629009452868
 20
476.6216747877134
 30
0
 42
0.05839274882660239
  0
VERTEX
  8
1
 10
1346.505799949279
 20
476.6375311556206
 30
0
 42
0.04342770515372074
  0
VERTEX
  8
1
 10
1346.372510070469
 20
476.6266299842002
 30
0
 42
0.03505393696025717
  0
VERTEX
  8
1
 10
1346.191501849885
 20
476.5771798851349
 30
0
 42
0.04373616893270865
  0
VERTEX
  8
1
 10
1345.966588404012
 20
476.4677509190956
 30
0
 42
0.0440485392543118
  0
VERTEX
  8
1
 10
1345.752640672555
 20
476.3107740291419
 30
0
 42
0.04130223793443624
  0
VERTEX
  8
1
 10
1345.568629214031
 20
476.1200705580284
 30
0
  0
SEQEND
  8
1
  0
POLYLINE
  8
1
 62
7
 66
1
 70
1
  0
VERTEX
  8
1
 10
1345.56862921403
 20
529.4737178065509
 30
0
 42
0.03571986069770099
  0
VERTEX
  8
1
 10
1345.4588153593
 20
529.3142027006924
 30
0
 42
0.05001447801683177
  0
VERTEX
  8
1
 10
1345.377810489532
 20
529.1384551248428
 30
0
 42
0.04733296127658383
  0
VERTEX
  8
1
 10
1345.34677291674
 20
529.0101710798618
 30
0
 42
0.04357203114879851
  0
VERTEX
  8
1
 10
1345.341941551064
 20
528.9198721906861
 30
0
 42
0.05357212706122554
  0
VERTEX
  8
1
 10
1345.353660225331
 20
528.8365239944242
 30
0
 42
0.1094247059511349
  0
VERTEX
  8
1
 10
1345.41598025231
 20
528.7124863992375
 30
0
 42
0.1133878202667786
  0
VERTEX
  8
1
 10
1345.533037438544
 20
528.6259902151703
 30
0
 42
0.07195778157279938
  0
VERTEX
  8
1
 10
1345.650430441423
 20
528.5945930484153
 30
0
 42
0.05145352632544752
  0
VERTEX
  8
1
 10
1345.777373395971
 20
528.5922900025887
 30
0
 42
0.04142594342780348
  0
VERTEX
  8
1
 10
1345.915952817545
 20
528.6155758490995
 30
0
 42
0.05088981411559107
  0
VERTEX
  8
1
 10
1346.136392007047
 20
528.6966730484257
 30
0
 42
0.04203820926505791
  0
VERTEX
  8
1
 10
1346.34456480154
 20
528.8201148734311
 30
0
 42
0.03827686564779689
  0
VERTEX
  8
1
 10
1346.532101017251
 20
528.9767208225492
 30
0
 42
0.04264275054393108
  0
VERTEX
  8
1
 10
1346.693575149295
 20
529.1633037486012
 30
0
 42
0.0531079130588208
  0
VERTEX
  8
1
 10
1346.803889627619
 20
529.348981668925
 30
0
 42
0.05427745627217961
  0
VERTEX
  8
1
 10
1346.858387177764
 20
529.4982185467253
 30
0
 42
0.05418238078939192
  0
VERTEX
  8
1
 10
1346.876773776849
 20
529.6086231987964
 30
0
 42
0.04895675332327821
  0
VERTEX
  8
1
 10
1346.874557316881
 20
529.699797059355
 30
0
 42
0.06590206660937564
  0
VERTEX
  8
1
 10
1346.84162863238
 20
529.8103585286584
 30
0
 42
0.1185715814430537
  0
VERTEX
  8
1
 10
1346.750137814118
 20
529.9188209613859
 30
0
 42
0.1025971211038051
  0
VERTEX
  8
1
 10
1346.629009452868
 20
529.975322036236
 30
0
 42
0.05839274882635074
  0
VERTEX
  8
1
 10
1346.505799949278
 20
529.9911784041431
 30
0
 42
0.04342770515238039
  0
VERTEX
  8
1
 10
1346.372510070469
 20
529.9802772327226
 30
0
 42
0.03505393695946923
  0
VERTEX
  8
1
 10
1346.191501849885
 20
529.9308271336573
 30
0
 42
0.04373616893250214
  0
VERTEX
  8
1
 10
1345.966588404012
 20
529.821398167618
 30
0
 42
0.04404853925425017
  0
VERTEX
  8
1
 10
1345.752640672555
 20
529.6644212776643
 30
0
 42
0.04130223793449418
  0
VERTEX
  8
1
 10
1345.56862921403
 20
529.4737178065509
 30
0
  0
SEQEND
  8
1
  0
POLYLINE
  8
1
 62
7
 66
1
  0
VERTEX
  8
1
 10
1378.473158972351
 20
561.904217532636
 30
0
 42
-0.000988159865205654
  0
VERTEX
  8
1
 10
1378.406327062964
 20
560.4573248376007
 30
0
 42
-0.007858628444978998
  0
VERTEX
  8
1
 10
1378.328097473996
 20
559.0118353476653
 30
0
 42
-6.381788968416585e-005
  0
VERTEX
  8
1
 10
1378.227072525866
 20
557.5691522679299
 30
0
 42
-0.01184373752785633
  0
VERTEX
  8
1
 10
1378.091854538996
 20
556.1306788034942
 30
0
 42
-0.004055919957782833
  0
VERTEX
  8
1
 10
1377.911045833803
 20
554.6978181594584
 30
0
 42
-0.01492370530552022
  0
VERTEX
  8
1
 10
1377.677285707642
 20
553.2806856365324
 30
0
 42
-0.003800815717474759
  0
VERTEX
  8
1
 10
1377.39035606888
 20
551.8719296281034
 30
0
 42
-0.01392492966820916
  0
VERTEX
  8
1
 10
1377.05338050396
 20
550.4729962236537
 30
0
 42
-0.002837302142698076
  0
VERTEX
  8
1
 10
1376.669482599329
 20
549.0853315126655
 30
0
 42
-0.02049561125401021
  0
VERTEX
  8
1
 10
1375.778502672633
 20
546.3654124009419
 30
0
 42
-0.01004428278817606
  0
VERTEX
  8
1
 10
1374.730351025801
 20
543.7230425622811
 30
0
 42
-0.046674806784606
  0
VERTEX
  8
1
 10
1371.415798508143
 20
537.5238785789062
 30
0
 42
-0.02889772470937032
  0
VERTEX
  8
1
 10
1368.099088543256
 20
533.0883366792596
 30
0
 42
-0.03142982050423011
  0
VERTEX
  8
1
 10
1365.256300530753
 20
530.1133731431984
 30
0
 42
-0.0306965350851573
  0
VERTEX
  8
1
 10
1361.088655961205
 20
526.7161861416142
 30
0
 42
-0.186648917073575
  0
VERTEX
  8
1
 10
1337.602429045604
 20
520.6321352967061
 30
0
 42
-0.04967186749634937
  0
VERTEX
  8
1
 10
1331.266257422111
 20
522.0147206308218
 30
0
 42
-0.03691308997050766
  0
VERTEX
  8
1
 10
1326.412445627318
 20
523.9979563748824
 30
0
 42
-0.03820232382475933
  0
VERTEX
  8
1
 10
1321.857661983498
 20
526.7161861416142
 30
0
 42
-0.03475430443791978
  0
VERTEX
  8
1
 10
1317.690017413949
 20
530.1133731431984
 30
0
 42
-0.02737288823556731
  0
VERTEX
  8
1
 10
1314.847229401446
 20
533.0883366792596
 30
0
 42
-0.04145297279462531
  0
VERTEX
  8
1
 10
1310.790062432507
 20
538.7106055479608
 30
0
 42
-0.02561435964904936
  0
VERTEX
  8
1
 10
1308.802031393219
 20
542.4286779385251
 30
0
 42
-0.03862938488752707
  0
VERTEX
  8
1
 10
1306.276835345374
 20
549.0853315126655
 30
0
 42
-0.00772912624381294
  0
VERTEX
  8
1
 10
1305.892937440742
 20
550.4729962236537
 30
0
 42
-0.009032597570185793
  0
VERTEX
  8
1
 10
1305.555961875822
 20
551.8719296281034
 30
0
 42
-0.008692694162548604
  0
VERTEX
  8
1
 10
1305.26903223706
 20
553.2806856365324
 30
0
 42
-0.01003125617253504
  0
VERTEX
  8
1
 10
1305.035272110899
 20
554.6978181594584
 30
0
 42
-0.008947814311827515
  0
VERTEX
  8
1
 10
1304.854463405706
 20
556.1306788034942
 30
0
 42
-0.006951617951734714
  0
VERTEX
  8
1
 10
1304.719245418836
 20
557.5691522679299
 30
0
 42
-0.004955536262422084
  0
VERTEX
  8
1
 10
1304.618220470707
 20
559.0118353476653
 30
0
 42
-0.00296679756915339
  0
VERTEX
  8
1
 10
1304.539990881739
 20
560.4573248376007
 30
0
 42
-0.0009881598653625288
  0
VERTEX
  8
1
 10
1304.473158972351
 20
561.904217532636
 30
0
  0
SEQEND
  8
1
  0
LINE
  8
1
 62
2
 10
1355.176916312671
 20
323.974114266106
 30
0
 11
1355.288027423782
 21
324.099114266106
 31
0
  0
LINE
  8
1
 62
2
 10
1355.176916312671
 20
324.724114266106
 30
0
 11
1354.510249646004
 21
324.724114266106
 31
0
  0
LINE
  8
1
 62
2
 10
1356.843582979338
 20
321.849114266106
 30
0
 11
1357.843582979338
 21
321.849114266106
 31
0
  0
LINE
  8
1
 62
2
 10
1355.732471868226
 20
321.849114266106
 30
0
 11
1356.843582979338
 21
321.849114266106
 31
0
  0
LINE
  8
1
 62
2
 10
1356.843582979338
 20
325.474114266106
 30
0
 11
1356.843582979338
 21
321.849114266106
 31
0
  0
LINE
  8
1
 62
2
 10
1356.06580520156
 20
323.974114266106
 30
0
 11
1357.621360757115
 21
323.974114266106
 31
0
  0
LINE
  8
1
 62
2
 10
1355.399138534893
 20
323.849114266106
 30
0
 11
1355.954694090449
 21
323.224114266106
 31
0
  0
LINE
  8
1
 62
2
 10
1355.176916312671
 20
324.724114266106
 30
0
 11
1355.176916312671
 21
325.474114266106
 31
0
  0
LINE
  8
1
 62
2
 10
1355.732471868226
 20
324.724114266106
 30
0
 11
1355.176916312671
 21
324.724114266106
 31
0
  0
LINE
  8
1
 62
2
 10
1355.288027423782
 20
324.099114266106
 30
0
 11
1355.732471868226
 21
324.724114266106
 31
0
  0
LINE
  8
1
 62
2
 10
1354.732471868226
 20
323.474114266106
 30
0
 11
1355.176916312671
 21
323.974114266106
 31
0
  0
LINE
  8
1
 62
2
 10
1354.288027423782
 20
323.099114266106
 30
0
 11
1354.732471868226
 21
323.474114266106
 31
0
  0
LINE
  8
1
 62
2
 10
1355.176916312671
 20
321.724114266106
 30
0
 11
1355.176916312671
 21
323.974114266106
 31
0
  0
LINE
  8
1
 62
2
 10
1352.06580520156
 20
323.099114266106
 30
0
 11
1350.954694090449
 21
321.724114266106
 31
0
  0
LINE
  8
1
 62
2
 10
1353.06580520156
 20
321.974114266106
 30
0
 11
1352.621360757115
 21
322.474114266106
 31
0
  0
LINE
  8
1
 62
2
 10
1353.399138534893
 20
321.599114266106
 30
0
 11
1353.06580520156
 21
321.974114266106
 31
0
  0
LINE
  8
1
 62
2
 10
1350.621360757115
 20
321.724114266106
 30
0
 11
1353.06580520156
 21
321.974114266106
 31
0
  0
LINE
  8
1
 62
2
 10
1350.843582979338
 20
323.224114266106
 30
0
 11
1353.399138534893
 21
323.224114266106
 31
0
  0
LINE
  8
1
 62
2
 10
1351.288027423782
 20
323.849114266106
 30
0
 11
1352.843582979338
 21
323.849114266106
 31
0
  0
LINE
  8
1
 62
2
 10
1352.06580520156
 20
325.474114266106
 30
0
 11
1353.843582979338
 21
323.599114266106
 31
0
  0
LINE
  8
1
 62
2
 10
1352.06580520156
 20
325.474114266106
 30
0
 11
1350.288027423782
 21
323.599114266106
 31
0
  0
LINE
  8
1
 62
2
 10
1347.288027423782
 20
323.724114266106
 30
0
 11
1346.510249646004
 21
323.724114266106
 31
0
  0
LINE
  8
1
 62
2
 10
1347.288027423782
 20
322.349114266106
 30
0
 11
1348.06580520156
 21
322.599114266106
 31
0
  0
LINE
  8
1
 62
2
 10
1349.510249646004
 20
321.724114266106
 30
0
 11
1349.843582979338
 21
322.099114266106
 31
0
  0
LINE
  8
1
 62
2
 10
1349.06580520156
 20
322.224114266106
 30
0
 11
1349.510249646004
 21
321.724114266106
 31
0
  0
LINE
  8
1
 62
2
 10
1348.621360757115
 20
323.099114266106
 30
0
 11
1349.06580520156
 21
322.224114266106
 31
0
  0
LINE
  8
1
 62
2
 10
1348.399138534893
 20
324.099114266106
 30
0
 11
1348.621360757115
 21
323.099114266106
 31
0
  0
LINE
  8
1
 62
2
 10
1348.288027423782
 20
325.599114266106
 30
0
 11
1348.399138534893
 21
324.099114266106
 31
0
  0
LINE
  8
1
 62
2
 10
1348.954694090449
 20
325.099114266106
 30
0
 11
1348.621360757115
 21
325.474114266106
 31
0
  0
LINE
  8
1
 62
2
 10
1346.288027423782
 20
324.724114266106
 30
0
 11
1349.510249646004
 21
324.724114266106
 31
0
  0
LINE
  8
1
 62
2
 10
1347.288027423782
 20
323.724114266106
 30
0
 11
1347.288027423782
 21
322.349114266106
 31
0
  0
LINE
  8
1
 62
2
 10
1348.06580520156
 20
323.724114266106
 30
0
 11
1347.288027423782
 21
323.724114266106
 31
0
  0
LINE
  8
1
 62
2
 10
1346.510249646004
 20
322.099114266106
 30
0
 11
1347.288027423782
 21
322.349114266106
 31
0
  0
LINE
  8
1
 62
2
 10
1343.06580520156
 20
324.474114266106
 30
0
 11
1343.06580520156
 21
325.599114266106
 31
0
  0
LINE
  8
1
 62
2
 10
1343.06580520156
 20
324.474114266106
 30
0
 11
1342.510249646004
 21
324.474114266106
 31
0
  0
LINE
  8
1
 62
2
 10
1345.288027423782
 20
322.599114266106
 30
0
 11
1345.732471868226
 21
321.724114266106
 31
0
  0
LINE
  8
1
 62
2
 10
1344.732471868226
 20
323.724114266106
 30
0
 11
1345.288027423782
 21
322.599114266106
 31
0
  0
LINE
  8
1
 62
2
 10
1344.399138534893
 20
322.849114266106
 30
0
 11
1344.732471868226
 21
323.724114266106
 31
0
  0
LINE
  8
1
 62
2
 10
1343.954694090449
 20
322.224114266106
 30
0
 11
1344.399138534893
 21
322.849114266106
 31
0
  0
LINE
  8
1
 62
2
 10
1343.621360757115
 20
321.724114266106
 30
0
 11
1343.954694090449
 21
322.224114266106
 31
0
  0
LINE
  8
1
 62
2
 10
1344.732471868226
 20
325.599114266106
 30
0
 11
1344.732471868226
 21
321.599114266106
 31
0
  0
LINE
  8
1
 62
2
 10
1345.732471868226
 20
323.724114266106
 30
0
 11
1343.843582979338
 21
323.724114266106
 31
0
  0
LINE
  8
1
 62
2
 10
1344.176916312671
 20
324.599114266106
 30
0
 11
1345.621360757115
 21
324.599114266106
 31
0
  0
LINE
  8
1
 62
2
 10
1344.176916312671
 20
324.599114266106
 30
0
 11
1344.288027423782
 21
325.224114266106
 31
0
  0
LINE
  8
1
 62
2
 10
1343.843582979338
 20
323.974114266106
 30
0
 11
1344.176916312671
 21
324.599114266106
 31
0
  0
LINE
  8
1
 62
2
 10
1343.06580520156
 20
324.474114266106
 30
0
 11
1343.621360757115
 21
323.474114266106
 31
0
  0
LINE
  8
1
 62
2
 10
1342.399138534893
 20
322.724114266106
 30
0
 11
1343.06580520156
 21
324.474114266106
 31
0
  0
LINE
  8
1
 62
2
 10
1343.621360757115
 20
324.474114266106
 30
0
 11
1343.06580520156
 21
324.474114266106
 31
0
  0
LINE
  8
1
 62
2
 10
1343.06580520156
 20
321.724114266106
 30
0
 11
1343.06580520156
 21
324.474114266106
 31
0
  0
LINE
  8
1
 62
2
 10
1338.621360757115
 20
324.099114266106
 30
0
 11
1338.621360757115
 21
324.724114266106
 31
0
  0
LINE
  8
1
 62
2
 10
1339.732471868226
 20
324.724114266106
 30
0
 11
1339.732471868226
 21
324.099114266106
 31
0
  0
LINE
  8
1
 62
2
 10
1338.621360757115
 20
324.724114266106
 30
0
 11
1338.621360757115
 21
325.349114266106
 31
0
  0
LINE
  8
1
 62
2
 10
1341.510249646004
 20
324.099114266106
 30
0
 11
1341.510249646004
 21
324.724114266106
 31
0
  0
LINE
  8
1
 62
2
 10
1340.399138534893
 20
324.724114266106
 30
0
 11
1340.399138534893
 21
324.099114266106
 31
0
  0
LINE
  8
1
 62
2
 10
1341.510249646004
 20
324.724114266106
 30
0
 11
1341.510249646004
 21
325.349114266106
 31
0
  0
LINE
  8
1
 62
2
 10
1338.621360757115
 20
321.849114266106
 30
0
 11
1338.621360757115
 21
321.724114266106
 31
0
  0
LINE
  8
1
 62
2
 10
1340.399138534893
 20
324.724114266106
 30
0
 11
1341.510249646004
 21
324.724114266106
 31
0
  0
LINE
  8
1
 62
2
 10
1340.399138534893
 20
324.099114266106
 30
0
 11
1341.510249646004
 21
324.099114266106
 31
0
  0
LINE
  8
1
 62
2
 10
1340.399138534893
 20
325.349114266106
 30
0
 11
1340.399138534893
 21
324.724114266106
 31
0
  0
LINE
  8
1
 62
2
 10
1341.510249646004
 20
325.349114266106
 30
0
 11
1340.399138534893
 21
325.349114266106
 31
0
  0
LINE
  8
1
 62
2
 10
1341.510249646004
 20
321.849114266106
 30
0
 11
1341.510249646004
 21
324.099114266106
 31
0
  0
LINE
  8
1
 62
2
 10
1341.399138534893
 20
321.724114266106
 30
0
 11
1341.510249646004
 21
321.849114266106
 31
0
  0
LINE
  8
1
 62
2
 10
1341.06580520156
 20
321.724114266106
 30
0
 11
1341.399138534893
 21
321.724114266106
 31
0
  0
LINE
  8
1
 62
2
 10
1339.732471868226
 20
324.724114266106
 30
0
 11
1338.621360757115
 21
324.724114266106
 31
0
  0
LINE
  8
1
 62
2
 10
1339.732471868226
 20
324.099114266106
 30
0
 11
1338.621360757115
 21
324.099114266106
 31
0
  0
LINE
  8
1
 62
2
 10
1339.732471868226
 20
325.349114266106
 30
0
 11
1339.732471868226
 21
324.724114266106
 31
0
  0
LINE
  8
1
 62
2
 10
1338.621360757115
 20
325.349114266106
 30
0
 11
1339.732471868226
 21
325.349114266106
 31
0
  0
LINE
  8
1
 62
2
 10
1338.621360757115
 20
321.849114266106
 30
0
 11
1338.621360757115
 21
324.099114266106
 31
0
  0
LINE
  8
1
 62
2
 10
1336.06580520156
 20
321.724114266106
 30
0
 11
1337.399138534893
 21
321.724114266106
 31
0
  0
LINE
  8
1
 62
2
 10
1336.06580520156
 20
324.099114266106
 30
0
 11
1336.843582979338
 21
324.099114266106
 31
0
  0
LINE
  8
1
 62
2
 10
1337.399138534893
 20
323.974114266106
 30
0
 11
1337.843582979338
 21
323.599114266106
 31
0
  0
LINE
  8
1
 62
2
 10
1336.621360757115
 20
324.849114266106
 30
0
 11
1337.399138534893
 21
323.974114266106
 31
0
  0
LINE
  8
1
 62
2
 10
1336.06580520156
 20
325.599114266106
 30
0
 11
1336.621360757115
 21
324.849114266106
 31
0
  0
LINE
  8
1
 62
2
 10
1335.510249646004
 20
324.849114266106
 30
0
 11
1336.06580520156
 21
325.599114266106
 31
0
  0
LINE
  8
1
 62
2
 10
1334.732471868226
 20
323.974114266106
 30
0
 11
1335.510249646004
 21
324.849114266106
 31
0
  0
LINE
  8
1
 62
2
 10
1334.288027423782
 20
323.599114266106
 30
0
 11
1334.732471868226
 21
323.974114266106
 31
0
  0
LINE
  8
1
 62
2
 10
1336.621360757115
 20
322.224114266106
 30
0
 11
1336.843582979338
 21
322.849114266106
 31
0
  0
LINE
  8
1
 62
2
 10
1335.288027423782
 20
322.849114266106
 30
0
 11
1335.510249646004
 21
322.224114266106
 31
0
  0
LINE
  8
1
 62
2
 10
1337.176916312671
 20
323.349114266106
 30
0
 11
1334.954694090449
 21
323.349114266106
 31
0
  0
LINE
  8
1
 62
2
 10
1335.288027423782
 20
324.099114266106
 30
0
 11
1336.06580520156
 21
324.099114266106
 31
0
  0
LINE
  8
1
 62
2
 10
1336.06580520156
 20
321.724114266106
 30
0
 11
1336.06580520156
 21
324.099114266106
 31
0
  0
LINE
  8
1
 62
2
 10
1334.621360757115
 20
321.724114266106
 30
0
 11
1336.06580520156
 21
321.724114266106
 31
0
  0
LINE
  8
1
 62
2
 10
1333.06580520156
 20
322.849114266106
 30
0
 11
1333.621360757115
 21
323.599114266106
 31
0
  0
LINE
  8
1
 62
2
 10
1332.176916312671
 20
322.349114266106
 30
0
 11
1333.06580520156
 21
322.849114266106
 31
0
  0
LINE
  8
1
 62
2
 10
1332.176916312671
 20
324.599114266106
 30
0
 11
1332.176916312671
 21
322.349114266106
 31
0
  0
LINE
  8
1
 62
2
 10
1331.288027423782
 20
323.599114266106
 30
0
 11
1331.399138534893
 21
324.599114266106
 31
0
  0
LINE
  8
1
 62
2
 10
1331.06580520156
 20
322.849114266106
 30
0
 11
1331.288027423782
 21
323.599114266106
 31
0
  0
LINE
  8
1
 62
2
 10
1330.732471868226
 20
322.224114266106
 30
0
 11
1331.06580520156
 21
322.849114266106
 31
0
  0
LINE
  8
1
 62
2
 10
1326.954694090449
 20
323.224114266106
 30
0
 11
1326.954694090449
 21
322.474114266106
 31
0
  0
LINE
  8
1
 62
2
 10
1328.176916312671
 20
321.974114266106
 30
0
 11
1328.843582979338
 21
322.099114266106
 31
0
  0
LINE
  8
1
 62
2
 10
1327.06580520156
 20
322.099114266106
 30
0
 11
1328.176916312671
 21
321.974114266106
 31
0
  0
LINE
  8
1
 62
2
 10
1326.954694090449
 20
322.474114266106
 30
0
 11
1327.06580520156
 21
322.099114266106
 31
0
  0
LINE
  8
1
 62
2
 10
1326.954694090449
 20
324.599114266106
 30
0
 11
1326.954694090449
 21
323.224114266106
 31
0
  0
LINE
  8
1
 62
2
 10
1329.06580520156
 20
324.849114266106
 30
0
 11
1329.399138534893
 21
324.474114266106
 31
0
  0
LINE
  8
1
 62
2
 10
1329.176916312671
 20
324.224114266106
 30
0
 11
1328.843582979338
 21
324.599114266106
 31
0
  0
LINE
  8
1
 62
2
 10
1327.954694090449
 20
323.599114266106
 30
0
 11
1328.621360757115
 21
323.974114266106
 31
0
  0
LINE
  8
1
 62
2
 10
1326.954694090449
 20
323.224114266106
 30
0
 11
1327.954694090449
 21
323.599114266106
 31
0
  0
LINE
  8
1
 62
2
 10
1324.510249646004
 20
322.849114266106
 30
0
 11
1325.176916312671
 21
322.099114266106
 31
0
  0
LINE
  8
1
 62
2
 10
1323.954694090449
 20
323.349114266106
 30
0
 11
1324.510249646004
 21
322.849114266106
 31
0
  0
LINE
  8
1
 62
2
 10
1325.288027423782
 20
325.099114266106
 30
0
 11
1325.621360757115
 21
324.724114266106
 31
0
  0
LINE
  8
1
 62
2
 10
1325.06580520156
 20
324.849114266106
 30
0
 11
1325.399138534893
 21
324.474114266106
 31
0
  0
LINE
  8
1
 62
2
 10
1324.621360757115
 20
324.599114266106
 30
0
 11
1323.176916312671
 21
324.599114266106
 31
0
  0
LINE
  8
1
 62
2
 10
1324.288027423782
 20
323.849114266106
 30
0
 11
1324.621360757115
 21
324.599114266106
 31
0
  0
LINE
  8
1
 62
2
 10
1323.510249646004
 20
322.724114266106
 30
0
 11
1324.288027423782
 21
323.849114266106
 31
0
  0
LINE
  8
1
 62
2
 10
1322.732471868226
 20
322.099114266106
 30
0
 11
1323.510249646004
 21
322.724114266106
 31
0
  0
LINE
  8
1
 62
2
 10
1321.399138534893
 20
324.474114266106
 30
0
 11
1320.399138534893
 21
323.349114266106
 31
0
  0
LINE
  8
1
 62
2
 10
1318.843582979338
 20
324.474114266106
 30
0
 11
1321.399138534893
 21
324.474114266106
 31
0
  0
LINE
  8
1
 62
2
 10
1320.06580520156
 20
323.349114266106
 30
0
 11
1320.176916312671
 21
323.974114266106
 31
0
  0
LINE
  8
1
 62
2
 10
1319.843582979338
 20
322.599114266106
 30
0
 11
1320.06580520156
 21
323.349114266106
 31
0
  0
LINE
  8
1
 62
2
 10
1319.399138534893
 20
321.849114266106
 30
0
 11
1319.843582979338
 21
322.599114266106
 31
0
  0
LINE
  8
1
 62
2
 10
1297.929292607272
 20
390.404103604258
 30
0
 11
1296.070184183395
 21
387.9161552937439
 31
0
  0
LINE
  8
1
 62
2
 10
1296.436245151605
 20
391.0003359458902
 30
0
 11
1296.070184183395
 21
387.9161552937439
 31
0
  0
LINE
  8
1
 62
2
 10
1301.37866513459
 20
401.2093187540511
 30
0
 11
1296.070184183395
 21
387.9161552937439
 31
0
  0
LINE
  8
1
 62
2
 10
1249.52913583403
 20
401.2093187540511
 30
0
 11
1301.37866513459
 21
401.2093187540511
 31
0
  0
LINE
  8
1
 62
2
 10
1321.610036573299
 20
351.3399037384424
 30
0
 11
1321.63190445531
 21
354.4456552937438
 31
0
  0
LINE
  8
1
 62
2
 10
1323.165842091612
 20
351.7450616080043
 30
0
 11
1321.63190445531
 21
354.4456552937438
 31
0
  0
LINE
  8
1
 62
2
 10
1325.021742481603
 20
341.4286831362023
 30
0
 11
1321.63190445531
 21
354.4456552937438
 31
0
  0
LINE
  8
1
 62
2
 10
1299.922092902731
 20
341.4286831362023
 30
0
 11
1325.021742481603
 21
341.4286831362023
 31
0
  0
LINE
  8
1
 62
2
 10
1360.141460977837
 20
351.3849620163193
 30
0
 11
1359.61389336222
 21
354.4456552937439
 31
0
  0
LINE
  8
1
 62
2
 10
1361.601126958271
 20
352.0588009701106
 30
0
 11
1359.61389336222
 21
354.4456552937439
 31
0
  0
LINE
  8
1
 62
2
 10
1365.070333755079
 20
342.6259461912828
 30
0
 11
1359.61389336222
 21
354.4456552937439
 31
0
  0
LINE
  8
1
 62
2
 10
1390.50881686569
 20
342.6259461912828
 30
0
 11
1365.070333755079
 21
342.6259461912828
 31
0
  0
LINE
  8
1
 62
7
 10
1293.193658972351
 20
569.1247175326361
 30
0
 11
1293.193658972351
 21
542.683717532636
 31
0
  0
LINE
  8
1
 62
7
 10
1385.890096954949
 20
569.1247175326361
 30
0
 11
1389.752658972351
 21
569.1247175326361
 31
0
  0
LINE
  8
1
 62
2
 10
1386.041145013342
 20
568.1247175326361
 30
0
 11
1390.752658972351
 21
568.1247175326361
 31
0
  0
LINE
  8
1
 62
7
 10
1297.056220989753
 20
569.1247175326361
 30
0
 11
1293.193658972351
 21
569.1247175326361
 31
0
  0
LINE
  8
1
 62
2
 10
1300.326915161403
 20
543.683717532636
 30
0
 11
1292.193658972351
 21
543.683717532636
 31
0
  0
LINE
  8
1
 62
7
 10
1292.193658972351
 20
568.1247175326361
 30
0
 11
1291.473158972351
 21
567.404217532636
 31
0
  0
LINE
  8
1
 62
7
 10
1292.193658972351
 20
543.683717532636
 30
0
 11
1293.193658972351
 21
542.683717532636
 31
0
  0
LINE
  8
1
 62
7
 10
1390.752658972351
 20
568.1247175326361
 30
0
 11
1391.473158972351
 21
567.404217532636
 31
0
  0
LINE
  8
1
 62
7
 10
1390.752658972351
 20
543.683717532636
 30
0
 11
1391.473158972351
 21
544.404217532636
 31
0
  0
LINE
  8
1
 62
7
 10
1389.752658972351
 20
569.1247175326361
 30
0
 11
1390.752658972351
 21
568.1247175326361
 31
0
  0
LINE
  8
1
 62
7
 10
1391.473158972351
 20
567.404217532636
 30
0
 11
1391.473158972351
 21
544.404217532636
 31
0
  0
LINE
  8
1
 62
7
 10
1389.752658972351
 20
569.1247175326361
 30
0
 11
1389.752658972351
 21
542.683717532636
 31
0
  0
LINE
  8
1
 62
7
 10
1389.752658972351
 20
542.683717532636
 30
0
 11
1382.161884434695
 21
542.683717532636
 31
0
  0
LINE
  8
1
 62
7
 10
1389.752658972351
 20
542.683717532636
 30
0
 11
1390.752658972351
 21
543.683717532636
 31
0
  0
LINE
  8
1
 62
7
 10
1291.473158972351
 20
544.404217532636
 30
0
 11
1292.193658972351
 21
543.683717532636
 31
0
  0
LINE
  8
1
 62
7
 10
1293.193658972351
 20
542.683717532636
 30
0
 11
1300.784433510007
 21
542.683717532636
 31
0
  0
LINE
  8
1
 62
7
 10
1293.193658972351
 20
569.1247175326361
 30
0
 11
1292.193658972351
 21
568.1247175326361
 31
0
  0
LINE
  8
1
 62
7
 10
1291.473158972351
 20
567.404217532636
 30
0
 11
1291.473158972351
 21
544.404217532636
 31
0
  0
LINE
  8
1
 62
2
 10
1292.193658972351
 20
568.1247175326361
 30
0
 11
1296.90517293136
 21
568.1247175326361
 31
0
  0
LINE
  8
1
 62
2
 10
1390.752658972351
 20
543.683717532636
 30
0
 11
1382.619402783299
 21
543.683717532636
 31
0
  0
LINE
  8
1
 62
2
  6
DASHDOT
 10
1393.23206504667
 20
555.904217532636
 30
0
 11
1383.82114555132
 21
555.904217532636
 31
0
  0
LINE
  8
1
 62
2
  6
DASHDOT
 10
1289.22517889972
 20
555.904217532636
 30
0
 11
1299.12287009311
 21
555.904217532636
 31
0
  0
LINE
  8
1
 62
7
 10
1338.473158972351
 20
414.6456565483441
 30
0
 11
1338.473158972351
 21
424.6456565483441
 31
0
  0
LINE
  8
1
 62
7
 10
1343.473158972351
 20
413.6456565483441
 30
0
 11
1339.473158972351
 21
413.6456565483441
 31
0
  0
LINE
  8
1
 62
7
 10
1344.473158972351
 20
424.6456565483441
 30
0
 11
1344.473158972351
 21
414.6456565483441
 31
0
  0
LINE
  8
1
 62
7
 10
1339.473158972351
 20
425.6456565483441
 30
0
 11
1343.473158972351
 21
425.6456565483441
 31
0
  0
LINE
  8
1
 62
7
 10
1297.973158972351
 20
425.6456565483441
 30
0
 11
1302.973158972351
 21
425.6456565483441
 31
0
  0
LINE
  8
1
 62
7
 10
1296.973158972351
 20
414.6456565483441
 30
0
 11
1296.973158972351
 21
424.6456565483441
 31
0
  0
LINE
  8
1
 62
7
 10
1302.973158972351
 20
413.6456565483441
 30
0
 11
1297.973158972351
 21
413.6456565483441
 31
0
  0
LINE
  8
1
 62
7
 10
1302.973158972351
 20
412.6456565483441
 30
0
 11
1302.973158972351
 21
413.6456565483441
 31
0
  0
LINE
  8
1
 62
7
 10
1303.973158972351
 20
411.6456565483442
 30
0
 11
1302.973158972351
 21
412.6456565483441
 31
0
  0
LINE
  8
1
 62
7
 10
1302.973158972351
 20
413.6456565483441
 30
0
 11
1302.973158972351
 21
425.6456565483441
 31
0
  0
LINE
  8
1
 62
7
 10
1302.973158972351
 20
425.6456565483441
 30
0
 11
1302.973158972351
 21
426.6456565483441
 31
0
  0
LINE
  8
1
 62
7
 10
1304.473158972351
 20
428.1456565483441
 30
0
 11
1304.473158972351
 21
435.6456565483441
 31
0
  0
LINE
  8
1
 62
7
 10
1304.473158972351
 20
435.6456565483441
 30
0
 11
1305.473158972351
 21
436.6456565483441
 31
0
  0
LINE
  8
1
 62
7
 10
1377.473158972351
 20
436.6456565483441
 30
0
 11
1378.473158972351
 21
435.6456565483441
 31
0
  0
LINE
  8
1
 62
7
 10
1305.473158972351
 20
436.6456565483441
 30
0
 11
1377.473158972351
 21
436.6456565483441
 31
0
  0
LINE
  8
1
 62
7
 10
1378.473158972351
 20
435.6456565483441
 30
0
 11
1378.473158972351
 21
428.1456565483441
 31
0
  0
LINE
  8
1
 62
7
 10
1379.973158972351
 20
426.6456565483441
 30
0
 11
1379.973158972351
 21
425.6456565483441
 31
0
  0
LINE
  8
1
 62
7
 10
1378.973158972351
 20
411.6456565483442
 30
0
 11
1303.973158972351
 21
411.6456565483442
 31
0
  0
LINE
  8
1
 62
7
 10
1379.973158972351
 20
425.6456565483441
 30
0
 11
1384.973158972351
 21
425.6456565483441
 31
0
  0
LINE
  8
1
 62
7
 10
1379.973158972351
 20
425.6456565483441
 30
0
 11
1379.973158972351
 21
413.6456565483441
 31
0
  0
LINE
  8
1
 62
7
 10
1385.973158972351
 20
424.6456565483441
 30
0
 11
1385.973158972351
 21
414.6456565483441
 31
0
  0
LINE
  8
1
 62
7
 10
1384.973158972351
 20
413.6456565483441
 30
0
 11
1379.973158972351
 21
413.6456565483441
 31
0
  0
LINE
  8
1
 62
7
 10
1379.973158972351
 20
413.6456565483441
 30
0
 11
1379.973158972351
 21
412.6456565483441
 31
0
  0
LINE
  8
1
 62
7
 10
1379.973158972351
 20
412.6456565483441
 30
0
 11
1378.973158972351
 21
411.6456565483442
 31
0
  0
LINE
  8
1
 62
7
 10
1378.973158972351
 20
427.6456565483441
 30
0
 11
1303.973158972351
 21
427.6456565483441
 31
0
  0
LINE
  8
1
 62
7
 10
1304.473158972351
 20
435.6456565483441
 30
0
 11
1378.473158972351
 21
435.6456565483441
 31
0
  0
LINE
  8
1
 62
2
 10
1302.47315897235
 20
362.475155293744
 30
0
 11
1292.193658972351
 21
362.475155293744
 31
0
  0
LINE
  8
1
 62
2
 10
1292.193658972351
 20
386.9161552937439
 30
0
 11
1302.47315897235
 21
386.9161552937439
 31
0
  0
LINE
  8
1
 62
2
 10
1390.752658972351
 20
362.475155293744
 30
0
 11
1380.473158972351
 21
362.475155293744
 31
0
  0
LINE
  8
1
 62
2
 10
1380.473158972351
 20
386.9161552937439
 30
0
 11
1390.752658972351
 21
386.9161552937439
 31
0
  0
LINE
  8
1
 62
2
 10
1306.473158972351
 20
406.6956552937439
 30
0
 11
1306.473158972351
 21
411.6456565483442
 31
0
  0
LINE
  8
1
 62
2
 10
1376.473158972351
 20
411.6456565483442
 30
0
 11
1376.473158972351
 21
406.6956552937439
 31
0
  0
LINE
  8
1
 62
7
 10
1358.473158972351
 20
376.695655293744
 30
0
 11
1351.473158972351
 21
380.195655293744
 31
0
  0
LINE
  8
1
 62
7
 10
1351.473158972351
 20
380.195655293744
 30
0
 11
1351.473158972351
 21
377.695655293744
 31
0
  0
LINE
  8
1
 62
7
 10
1324.473158972351
 20
377.695655293744
 30
0
 11
1324.473158972351
 21
375.695655293744
 31
0
  0
LINE
  8
1
 62
7
 10
1351.473158972351
 20
375.695655293744
 30
0
 11
1351.473158972351
 21
373.195655293744
 31
0
  0
LINE
  8
1
 62
7
 10
1351.473158972351
 20
373.195655293744
 30
0
 11
1358.473158972351
 21
376.695655293744
 31
0
  0
LINE
  8
1
 62
7
 10
1342.473158972351
 20
380.195655293744
 30
0
 11
1324.473158972351
 21
380.195655293744
 31
0
  0
LINE
  8
1
 62
7
 10
1324.473158972351
 20
377.695655293744
 30
0
 11
1351.473158972351
 21
377.695655293744
 31
0
  0
LINE
  8
1
 62
7
 10
1324.473158972351
 20
375.695655293744
 30
0
 11
1351.473158972351
 21
375.695655293744
 31
0
  0
LINE
  8
1
 62
7
 10
1324.473158972351
 20
373.195655293744
 30
0
 11
1342.473158972351
 21
373.195655293744
 31
0
  0
LINE
  8
1
 62
7
 10
1307.473158972351
 20
406.6956552937439
 30
0
 11
1305.473158972351
 21
406.6956552937439
 31
0
  0
LINE
  8
1
 62
7
 10
1309.473158972351
 20
385.195655293744
 30
0
 11
1309.473158972351
 21
404.6956552937439
 31
0
  0
LINE
  8
1
 62
7
 10
1377.473158972351
 20
406.6956552937439
 30
0
 11
1375.473158972351
 21
406.6956552937439
 31
0
  0
LINE
  8
1
 62
7
 10
1373.473158972351
 20
404.6956552937439
 30
0
 11
1373.473158972351
 21
385.195655293744
 31
0
  0
LINE
  8
1
 62
7
 10
1293.193658972351
 20
361.475155293744
 30
0
 11
1291.473158972351
 21
363.195655293744
 31
0
  0
LINE
  8
1
 62
7
 10
1291.473158972351
 20
386.195655293744
 30
0
 11
1293.193658972351
 21
387.9161552937439
 31
0
  0
LINE
  8
1
 62
7
 10
1302.473158972351
 20
364.195655293744
 30
0
 11
1302.473158972351
 21
361.475155293744
 31
0
  0
LINE
  8
1
 62
7
 10
1302.473158972351
 20
361.475155293744
 30
0
 11
1293.193658972351
 21
361.475155293744
 31
0
  0
LINE
  8
1
 62
7
 10
1302.473158972351
 20
385.195655293744
 30
0
 11
1302.473158972351
 21
387.9161552937439
 31
0
  0
LINE
  8
1
 62
7
 10
1302.473158972351
 20
387.9161552937439
 30
0
 11
1296.070184183395
 21
387.9161552937439
 31
0
  0
LINE
  8
1
 62
7
 10
1391.473158972351
 20
363.195655293744
 30
0
 11
1389.752658972351
 21
361.475155293744
 31
0
  0
LINE
  8
1
 62
7
 10
1389.752658972351
 20
387.9161552937439
 30
0
 11
1391.473158972351
 21
386.195655293744
 31
0
  0
LINE
  8
1
 62
7
 10
1380.473158972351
 20
361.475155293744
 30
0
 11
1380.473158972351
 21
364.195655293744
 31
0
  0
LINE
  8
1
 62
7
 10
1389.752658972351
 20
361.475155293744
 30
0
 11
1380.473158972351
 21
361.475155293744
 31
0
  0
LINE
  8
1
 62
7
 10
1380.473158972351
 20
387.9161552937439
 30
0
 11
1380.473158972351
 21
385.195655293744
 31
0
  0
LINE
  8
1
 62
7
 10
1389.752658972351
 20
387.9161552937439
 30
0
 11
1380.473158972351
 21
387.9161552937439
 31
0
  0
LINE
  8
1
 62
7
 10
1324.473158972351
 20
380.195655293744
 30
0
 11
1325.901730400922
 21
377.695655293744
 31
0
  0
LINE
  8
1
 62
7
 10
1342.473158972351
 20
373.195655293744
 30
0
 11
1343.901730400922
 21
375.695655293744
 31
0
  0
LINE
  8
1
 62
7
 10
1343.901730400922
 20
377.695655293744
 30
0
 11
1342.473158972351
 21
380.195655293744
 31
0
  0
LINE
  8
1
 62
7
 10
1325.901730400922
 20
375.695655293744
 30
0
 11
1324.473158972351
 21
373.195655293744
 31
0
  0
LINE
  8
1
 62
7
 10
1296.070184183395
 20
387.9161552937439
 30
0
 11
1293.193658972351
 21
387.9161552937439
 31
0
  0
LINE
  8
1
 62
7
 10
1391.473158972351
 20
363.195655293744
 30
0
 11
1391.473158972351
 21
386.195655293744
 31
0
  0
LINE
  8
1
 62
7
 10
1291.473158972351
 20
363.195655293744
 30
0
 11
1291.473158972351
 21
386.195655293744
 31
0
  0
LINE
  8
1
 62
7
 10
1377.473158972351
 20
406.6956552937439
 30
0
 11
1377.473158972351
 21
411.6456565483442
 31
0
  0
LINE
  8
1
 62
7
 10
1348.422124203867
 20
391.9109657242893
 30
0
 11
1348.422124203867
 21
386.695655293744
 31
0
  0
LINE
  8
1
 62
7
 10
1348.422124203867
 20
386.695655293744
 30
0
 11
1349.413618409119
 21
386.695655293744
 31
0
  0
LINE
  8
1
 62
7
 10
1349.413618409119
 20
386.695655293744
 30
0
 11
1349.413618409119
 21
391.9109657242893
 31
0
  0
LINE
  8
1
 62
7
 10
1345.84423927021
 20
391.9109657242893
 30
0
 11
1345.84423927021
 21
386.695655293744
 31
0
  0
LINE
  8
1
 62
7
 10
1345.84423927021
 20
386.695655293744
 30
0
 11
1346.835733475462
 21
386.695655293744
 31
0
  0
LINE
  8
1
 62
7
 10
1346.835733475462
 20
386.695655293744
 30
0
 11
1346.835733475462
 21
391.9109657242893
 31
0
  0
LINE
  8
1
 62
7
 10
1343.266354336553
 20
391.9109657242893
 30
0
 11
1343.266354336553
 21
386.695655293744
 31
0
  0
LINE
  8
1
 62
7
 10
1343.266354336553
 20
386.695655293744
 30
0
 11
1344.257848541805
 21
386.695655293744
 31
0
  0
LINE
  8
1
 62
7
 10
1344.257848541805
 20
386.695655293744
 30
0
 11
1344.257848541805
 21
391.9109657242893
 31
0
  0
LINE
  8
1
 62
7
 10
1342.473158972351
 20
393.695655293744
 30
0
 11
1342.473158972351
 21
392.7041610884914
 31
0
  0
LINE
  8
1
 62
7
 10
1357.423826649683
 20
391.9109657242893
 30
0
 11
1357.423826649683
 21
386.695655293744
 31
0
  0
LINE
  8
1
 62
7
 10
1357.423826649683
 20
386.695655293744
 30
0
 11
1358.415320854935
 21
386.695655293744
 31
0
  0
LINE
  8
1
 62
7
 10
1358.415320854935
 20
386.695655293744
 30
0
 11
1358.415320854935
 21
391.9109657242893
 31
0
  0
LINE
  8
1
 62
7
 10
1354.845941716026
 20
391.9109657242893
 30
0
 11
1354.845941716026
 21
386.695655293744
 31
0
  0
LINE
  8
1
 62
7
 10
1354.845941716026
 20
386.695655293744
 30
0
 11
1355.837435921278
 21
386.695655293744
 31
0
  0
LINE
  8
1
 62
7
 10
1355.837435921278
 20
386.695655293744
 30
0
 11
1355.837435921278
 21
391.9109657242893
 31
0
  0
LINE
  8
1
 62
7
 10
1352.268056782369
 20
391.9109657242893
 30
0
 11
1352.268056782369
 21
386.695655293744
 31
0
  0
LINE
  8
1
 62
7
 10
1352.268056782369
 20
386.695655293744
 30
0
 11
1353.259550987621
 21
386.695655293744
 31
0
  0
LINE
  8
1
 62
7
 10
1353.259550987621
 20
386.695655293744
 30
0
 11
1353.259550987621
 21
391.9109657242893
 31
0
  0
LINE
  8
1
 62
7
 10
1351.474861418167
 20
393.695655293744
 30
0
 11
1351.474861418167
 21
392.7041610884914
 31
0
  0
LINE
  8
1
 62
7
 10
1328.77549139408
 20
386.679703699071
 30
0
 11
1328.77549139408
 21
396.679703699071
 31
0
  0
LINE
  8
1
 62
7
 10
1328.77549139408
 20
396.679703699071
 30
0
 11
1327.62549139408
 21
396.679703699071
 31
0
  0
LINE
  8
1
 62
7
 10
1327.62549139408
 20
396.679703699071
 30
0
 11
1327.48174139408
 21
396.304703699071
 31
0
  0
LINE
  8
1
 62
7
 10
1327.48174139408
 20
396.304703699071
 30
0
 11
1327.05049139408
 21
395.804703699071
 31
0
  0
LINE
  8
1
 62
7
 10
1327.05049139408
 20
395.804703699071
 30
0
 11
1326.61924139408
 21
395.429703699071
 31
0
  0
LINE
  8
1
 62
7
 10
1326.61924139408
 20
395.429703699071
 30
0
 11
1326.04424139408
 21
395.179703699071
 31
0
  0
LINE
  8
1
 62
7
 10
1326.04424139408
 20
395.179703699071
 30
0
 11
1325.61299139408
 21
395.054703699071
 31
0
  0
LINE
  8
1
 62
7
 10
1325.61299139408
 20
395.054703699071
 30
0
 11
1324.89424139408
 21
394.929703699071
 31
0
  0
LINE
  8
1
 62
7
 10
1324.89424139408
 20
394.929703699071
 30
0
 11
1324.60674139408
 21
394.929703699071
 31
0
  0
LINE
  8
1
 62
7
 10
1324.60674139408
 20
394.929703699071
 30
0
 11
1324.60674139408
 21
393.929703699071
 31
0
  0
LINE
  8
1
 62
7
 10
1324.60674139408
 20
393.929703699071
 30
0
 11
1327.33799139408
 21
393.929703699071
 31
0
  0
LINE
  8
1
 62
7
 10
1327.33799139408
 20
393.929703699071
 30
0
 11
1327.33799139408
 21
386.679703699071
 31
0
  0
LINE
  8
1
 62
7
 10
1327.33799139408
 20
386.679703699071
 30
0
 11
1328.77549139408
 21
386.679703699071
 31
0
  0
LINE
  8
1
 62
7
 10
1336.96924139408
 20
387.304703699071
 30
0
 11
1336.53799139408
 21
387.054703699071
 31
0
  0
LINE
  8
1
 62
7
 10
1336.53799139408
 20
387.054703699071
 30
0
 11
1335.81924139408
 21
386.804703699071
 31
0
  0
LINE
  8
1
 62
7
 10
1335.81924139408
 20
386.804703699071
 30
0
 11
1335.10049139408
 21
386.679703699071
 31
0
  0
LINE
  8
1
 62
7
 10
1335.10049139408
 20
386.679703699071
 30
0
 11
1334.38174139408
 21
386.679703699071
 31
0
  0
LINE
  8
1
 62
7
 10
1334.38174139408
 20
386.679703699071
 30
0
 11
1333.66299139408
 21
386.804703699071
 31
0
  0
LINE
  8
1
 62
7
 10
1333.66299139408
 20
386.804703699071
 30
0
 11
1332.94424139408
 21
387.054703699071
 31
0
  0
LINE
  8
1
 62
7
 10
1332.94424139408
 20
387.054703699071
 30
0
 11
1332.51299139408
 21
387.304703699071
 31
0
  0
LINE
  8
1
 62
7
 10
1332.51299139408
 20
387.304703699071
 30
0
 11
1332.08174139408
 21
387.679703699071
 31
0
  0
LINE
  8
1
 62
7
 10
1332.08174139408
 20
387.679703699071
 30
0
 11
1331.65049139408
 21
388.179703699071
 31
0
  0
LINE
  8
1
 62
7
 10
1331.65049139408
 20
388.179703699071
 30
0
 11
1331.36299139408
 21
388.679703699071
 31
0
  0
LINE
  8
1
 62
7
 10
1331.36299139408
 20
388.679703699071
 30
0
 11
1331.07549139408
 21
389.429703699071
 31
0
  0
LINE
  8
1
 62
7
 10
1331.07549139408
 20
389.429703699071
 30
0
 11
1332.51299139408
 21
389.554703699071
 31
0
  0
LINE
  8
1
 62
7
 10
1332.51299139408
 20
389.554703699071
 30
0
 11
1332.80049139408
 21
388.929703699071
 31
0
  0
LINE
  8
1
 62
7
 10
1332.80049139408
 20
388.929703699071
 30
0
 11
1333.08799139408
 21
388.554703699071
 31
0
  0
LINE
  8
1
 62
7
 10
1333.08799139408
 20
388.554703699071
 30
0
 11
1333.66299139408
 21
388.179703699071
 31
0
  0
LINE
  8
1
 62
7
 10
1333.66299139408
 20
388.179703699071
 30
0
 11
1334.38174139408
 21
387.929703699071
 31
0
  0
LINE
  8
1
 62
7
 10
1334.38174139408
 20
387.929703699071
 30
0
 11
1335.10049139408
 21
387.929703699071
 31
0
  0
LINE
  8
1
 62
7
 10
1335.10049139408
 20
387.929703699071
 30
0
 11
1335.81924139408
 21
388.179703699071
 31
0
  0
LINE
  8
1
 62
7
 10
1335.81924139408
 20
388.179703699071
 30
0
 11
1336.39424139408
 21
388.554703699071
 31
0
  0
LINE
  8
1
 62
7
 10
1336.39424139408
 20
388.554703699071
 30
0
 11
1336.68174139408
 21
388.929703699071
 31
0
  0
LINE
  8
1
 62
7
 10
1336.68174139408
 20
388.929703699071
 30
0
 11
1336.96924139408
 21
389.554703699071
 31
0
  0
LINE
  8
1
 62
7
 10
1336.96924139408
 20
389.554703699071
 30
0
 11
1336.96924139408
 21
390.554703699071
 31
0
  0
LINE
  8
1
 62
7
 10
1336.96924139408
 20
390.554703699071
 30
0
 11
1336.68174139408
 21
391.179703699071
 31
0
  0
LINE
  8
1
 62
7
 10
1336.68174139408
 20
391.179703699071
 30
0
 11
1336.39424139408
 21
391.554703699071
 31
0
  0
LINE
  8
1
 62
7
 10
1336.39424139408
 20
391.554703699071
 30
0
 11
1335.81924139408
 21
391.929703699071
 31
0
  0
LINE
  8
1
 62
7
 10
1335.81924139408
 20
391.929703699071
 30
0
 11
1335.10049139408
 21
392.179703699071
 31
0
  0
LINE
  8
1
 62
7
 10
1335.10049139408
 20
392.179703699071
 30
0
 11
1334.38174139408
 21
392.179703699071
 31
0
  0
LINE
  8
1
 62
7
 10
1334.38174139408
 20
392.179703699071
 30
0
 11
1333.51924139408
 21
391.929703699071
 31
0
  0
LINE
  8
1
 62
7
 10
1333.51924139408
 20
391.929703699071
 30
0
 11
1332.94424139408
 21
391.554703699071
 31
0
  0
LINE
  8
1
 62
7
 10
1332.94424139408
 20
391.554703699071
 30
0
 11
1332.65674139408
 21
391.179703699071
 31
0
  0
LINE
  8
1
 62
7
 10
1332.65674139408
 20
391.179703699071
 30
0
 11
1331.21924139408
 21
391.179703699071
 31
0
  0
LINE
  8
1
 62
7
 10
1331.21924139408
 20
391.179703699071
 30
0
 11
1331.21924139408
 21
396.6797036990711
 31
0
  0
LINE
  8
1
 62
7
 10
1331.21924139408
 20
396.6797036990711
 30
0
 11
1337.97549139408
 21
396.679703699071
 31
0
  0
LINE
  8
1
 62
7
 10
1337.97549139408
 20
396.679703699071
 30
0
 11
1337.97549139408
 21
395.429703699071
 31
0
  0
LINE
  8
1
 62
7
 10
1337.97549139408
 20
395.429703699071
 30
0
 11
1332.80049139408
 21
395.429703699071
 31
0
  0
LINE
  8
1
 62
7
 10
1332.80049139408
 20
395.429703699071
 30
0
 11
1332.80049139408
 21
392.679703699071
 31
0
  0
LINE
  8
1
 62
7
 10
1332.80049139408
 20
392.679703699071
 30
0
 11
1333.51924139408
 21
393.054703699071
 31
0
  0
LINE
  8
1
 62
7
 10
1333.51924139408
 20
393.054703699071
 30
0
 11
1334.38174139408
 21
393.304703699071
 31
0
  0
LINE
  8
1
 62
7
 10
1334.38174139408
 20
393.304703699071
 30
0
 11
1335.10049139408
 21
393.304703699071
 31
0
  0
LINE
  8
1
 62
7
 10
1335.10049139408
 20
393.304703699071
 30
0
 11
1335.81924139408
 21
393.179703699071
 31
0
  0
LINE
  8
1
 62
7
 10
1335.81924139408
 20
393.179703699071
 30
0
 11
1336.53799139408
 21
392.929703699071
 31
0
  0
LINE
  8
1
 62
7
 10
1336.53799139408
 20
392.929703699071
 30
0
 11
1336.96924139408
 21
392.554703699071
 31
0
  0
LINE
  8
1
 62
7
 10
1336.96924139408
 20
392.554703699071
 30
0
 11
1337.40049139408
 21
392.179703699071
 31
0
  0
LINE
  8
1
 62
7
 10
1337.40049139408
 20
392.179703699071
 30
0
 11
1337.83174139408
 21
391.679703699071
 31
0
  0
LINE
  8
1
 62
7
 10
1337.83174139408
 20
391.679703699071
 30
0
 11
1338.11924139408
 21
391.179703699071
 31
0
  0
LINE
  8
1
 62
7
 10
1338.11924139408
 20
391.179703699071
 30
0
 11
1338.40674139408
 21
390.429703699071
 31
0
  0
LINE
  8
1
 62
7
 10
1338.40674139408
 20
390.429703699071
 30
0
 11
1338.40674139408
 21
389.429703699071
 31
0
  0
LINE
  8
1
 62
7
 10
1338.40674139408
 20
389.429703699071
 30
0
 11
1338.11924139408
 21
388.679703699071
 31
0
  0
LINE
  8
1
 62
7
 10
1338.11924139408
 20
388.679703699071
 30
0
 11
1337.83174139408
 21
388.179703699071
 31
0
  0
LINE
  8
1
 62
7
 10
1337.83174139408
 20
388.179703699071
 30
0
 11
1337.40049139408
 21
387.679703699071
 31
0
  0
LINE
  8
1
 62
7
 10
1337.40049139408
 20
387.679703699071
 30
0
 11
1336.96924139408
 21
387.304703699071
 31
0
  0
LINE
  8
1
 62
7
 10
1361.482408972351
 20
354.4456552937439
 30
0
 11
1357.473158972351
 21
354.4456552937439
 31
0
  0
LINE
  8
1
 62
7
 10
1357.473158972351
 20
354.4456552937439
 30
0
 11
1357.473158972351
 21
361.4456552937439
 31
0
  0
LINE
  8
1
 62
7
 10
1357.473158972351
 20
361.4456552937439
 30
0
 11
1361.413283972351
 21
361.4456552937439
 31
0
  0
LINE
  8
1
 62
7
 10
1361.413283972351
 20
361.4456552937439
 30
0
 11
1361.413283972351
 21
360.5706552937439
 31
0
  0
LINE
  8
1
 62
7
 10
1361.413283972351
 20
360.5706552937439
 30
0
 11
1358.233533972351
 21
360.5706552937439
 31
0
  0
LINE
  8
1
 62
7
 10
1358.233533972351
 20
360.5706552937439
 30
0
 11
1358.233533972351
 21
358.4706552937439
 31
0
  0
LINE
  8
1
 62
7
 10
1358.233533972351
 20
358.4706552937439
 30
0
 11
1361.136783972351
 21
358.4706552937439
 31
0
  0
LINE
  8
1
 62
7
 10
1361.136783972351
 20
358.4706552937439
 30
0
 11
1361.136783972351
 21
357.5956552937439
 31
0
  0
LINE
  8
1
 62
7
 10
1361.136783972351
 20
357.5956552937439
 30
0
 11
1358.233533972351
 21
357.5956552937439
 31
0
  0
LINE
  8
1
 62
7
 10
1358.233533972351
 20
357.5956552937439
 30
0
 11
1358.233533972351
 21
355.3206552937439
 31
0
  0
LINE
  8
1
 62
7
 10
1358.233533972351
 20
355.3206552937439
 30
0
 11
1361.482408972351
 21
355.3206552937439
 31
0
  0
LINE
  8
1
 62
7
 10
1361.482408972351
 20
355.3206552937439
 30
0
 11
1361.482408972351
 21
354.4456552937439
 31
0
  0
LINE
  8
1
 62
2
  6
DIVIDE
 10
1318.473158972351
 20
361.4456552937438
 30
0
 11
1328.467533972351
 21
361.4456552937438
 31
0
  0
LINE
  8
1
 62
2
  6
DIVIDE
 10
1328.467533972351
 20
361.4456552937438
 30
0
 11
1328.467533972351
 21
354.4456552937438
 31
0
  0
LINE
  8
1
 62
2
  6
DIVIDE
 10
1328.467533972351
 20
354.4456552937438
 30
0
 11
1318.473158972351
 21
354.4456552937438
 31
0
  0
LINE
  8
1
 62
2
  6
DIVIDE
 10
1318.473158972351
 20
354.4456552937438
 30
0
 11
1318.473158972351
 21
361.4456552937438
 31
0
  0
LINE
  8
1
 62
7
 10
1305.473158972351
 20
411.6456565483442
 30
0
 11
1305.473158972351
 21
406.6956552937439
 31
0
  0
LINE
  8
1
 62
7
 10
1307.473158972351
 20
406.6956552937439
 30
0
 11
1375.473158972351
 21
406.6956552937439
 31
0
  0
LINE
  8
1
 62
7
 10
1389.752658972351
 20
387.9161552937439
 30
0
 11
1389.752658972351
 21
361.475155293744
 31
0
  0
LINE
  8
1
 62
7
 10
1380.473158972351
 20
385.195655293744
 30
0
 11
1380.473158972351
 21
364.195655293744
 31
0
  0
LINE
  8
1
 62
7
 10
1293.193658972351
 20
387.9161552937439
 30
0
 11
1293.193658972351
 21
361.475155293744
 31
0
  0
LINE
  8
1
 62
7
 10
1302.473158972351
 20
385.195655293744
 30
0
 11
1302.473158972351
 21
364.195655293744
 31
0
  0
LINE
  8
1
 62
7
 10
1304.473158972351
 20
383.4456552937447
 30
0
 11
1307.473158972351
 21
383.4456552937447
 31
0
  0
LINE
  8
1
 62
7
 10
1366.473158972351
 20
351.6956552937446
 30
0
 11
1341.473158972351
 21
351.6956552937446
 31
0
  0
LINE
  8
1
 62
7
 10
1316.473158972351
 20
351.6956552937446
 30
0
 11
1341.473158972351
 21
351.6956552937446
 31
0
  0
LINE
  8
1
 62
7
 10
1349.973158972351
 20
358.1956552937447
 30
0
 11
1349.973158972351
 21
357.2446789821668
 31
0
  0
LINE
  8
1
 62
7
 10
1332.973158972351
 20
358.1956552937447
 30
0
 11
1332.973158972351
 21
357.2520778801982
 31
0
  0
LINE
  8
1
 62
7
 10
1342.7742206806
 20
351.9765481437155
 30
0
 11
1348.241013757573
 21
354.5257556210569
 31
0
  0
LINE
  8
1
 62
7
 10
1334.71484091582
 20
354.5287277982941
 30
0
 11
1340.248047838846
 21
351.9721214229213
 31
0
  0
LINE
  8
1
 62
7
 10
1378.473158972351
 20
366.1956552937447
 30
0
 11
1374.473158972351
 21
366.1956552937447
 31
0
  0
LINE
  8
1
 62
7
 10
1372.473158972351
 20
364.1956552937447
 30
0
 11
1354.973158972351
 21
364.1956552937447
 31
0
  0
LINE
  8
1
 62
7
 10
1366.473158972351
 20
351.6956552937446
 30
0
 11
1373.37659169649
 21
364.7649574033807
 31
0
  0
LINE
  8
1
 62
7
 10
1308.473158972351
 20
366.1956552937447
 30
0
 11
1304.473158972351
 21
366.1956552937447
 31
0
  0
LINE
  8
1
 62
7
 10
1327.973158972351
 20
364.1956552937447
 30
0
 11
1310.473158972351
 21
364.1956552937447
 31
0
  0
LINE
  8
1
 62
7
 10
1309.569726248212
 20
364.7649574033807
 30
0
 11
1316.473158972351
 21
351.6956552937446
 31
0
  0
LINE
  8
1
 62
7
 10
1378.473158972351
 20
383.1956552937447
 30
0
 11
1375.473158972351
 21
383.1956552937447
 31
0
  0
LINE
  8
1
 62
7
 10
1327.973158972351
 20
364.1956552937447
 30
0
 11
1338.973158972351
 21
364.1956552937447
 31
0
  0
LINE
  8
1
 62
7
 10
1339.973158972351
 20
363.1956552937447
 30
0
 11
1339.973158972351
 21
352.767858894046
 31
0
  0
LINE
  8
1
 62
7
 10
1342.973158972351
 20
363.1956552937447
 30
0
 11
1342.973158972351
 21
352.7507082227548
 31
0
  0
LINE
  8
1
 62
7
 10
1343.973158972351
 20
364.1956552937447
 30
0
 11
1354.973158972351
 21
364.1956552937447
 31
0
  0
LINE
  8
1
 62
7
 10
1338.973158972351
 20
364.1956552937447
 30
0
 11
1343.973158972351
 21
364.1956552937447
 31
0
  0
LINE
  8
1
 62
7
 10
1342.973158972351
 20
352.0785041627779
 30
0
 11
1342.973158972351
 21
352.0693145926593
 31
0
  0
LINE
  8
1
 62
2
  6
DASHDOT
 10
1341.473158972352
 20
501.4519597313001
 30
0
 11
1341.473158972351
 21
347.163255218066
 31
0
  0
LINE
  8
1
 62
2
  6
DASHDOT
 10
1395.87828345507
 20
374.6956552937439
 30
0
 11
1288.52252542104
 21
374.695655293744
 31
0
  0
LINE
  8
1
 62
7
 10
1344.232367620425
 20
494.6463163783191
 30
0
 11
1344.232367620425
 21
494.4635038783191
 31
0
  0
LINE
  8
1
 62
7
 10
1344.313617620425
 20
494.6463163783191
 30
0
 11
1344.232367620425
 21
494.6463163783191
 31
0
  0
LINE
  8
1
 62
7
 10
1344.394867620425
 20
494.6666288783191
 30
0
 11
1344.313617620425
 21
494.6463163783191
 31
0
  0
LINE
  8
1
 62
7
 10
1344.455805120425
 20
494.707253878319
 30
0
 11
1344.394867620425
 21
494.6666288783191
 31
0
  0
LINE
  8
1
 62
7
 10
1344.496430120425
 20
494.7681913783191
 30
0
 11
1344.455805120425
 21
494.707253878319
 31
0
  0
LINE
  8
1
 62
7
 10
1344.516742620425
 20
494.8291288783191
 30
0
 11
1344.496430120425
 21
494.7681913783191
 31
0
  0
LINE
  8
1
 62
7
 10
1344.516742620425
 20
494.910378878319
 30
0
 11
1344.516742620425
 21
494.8291288783191
 31
0
  0
LINE
  8
1
 62
7
 10
1344.496430120425
 20
494.9713163783191
 30
0
 11
1344.516742620425
 21
494.910378878319
 31
0
  0
LINE
  8
1
 62
7
 10
1344.455805120425
 20
495.0322538783191
 30
0
 11
1344.496430120425
 21
494.9713163783191
 31
0
  0
LINE
  8
1
 62
7
 10
1344.394867620425
 20
495.0728788783191
 30
0
 11
1344.455805120425
 21
495.0322538783191
 31
0
  0
LINE
  8
1
 62
7
 10
1344.313617620425
 20
495.093191378319
 30
0
 11
1344.394867620425
 21
495.0728788783191
 31
0
  0
LINE
  8
1
 62
7
 10
1344.232367620425
 20
495.093191378319
 30
0
 11
1344.313617620425
 21
495.093191378319
 31
0
  0
LINE
  8
1
 62
7
 10
1344.151117620425
 20
495.0728788783191
 30
0
 11
1344.232367620425
 21
495.093191378319
 31
0
  0
LINE
  8
1
 62
7
 10
1344.090180120425
 20
495.0322538783191
 30
0
 11
1344.151117620425
 21
495.0728788783191
 31
0
  0
LINE
  8
1
 62
7
 10
1344.049555120425
 20
494.9713163783191
 30
0
 11
1344.090180120425
 21
495.0322538783191
 31
0
  0
LINE
  8
1
 62
7
 10
1344.029242620425
 20
494.910378878319
 30
0
 11
1344.049555120425
 21
494.9713163783191
 31
0
  0
LINE
  8
1
 62
7
 10
1344.029242620425
 20
494.8291288783191
 30
0
 11
1344.029242620425
 21
494.910378878319
 31
0
  0
LINE
  8
1
 62
7
 10
1343.805805120425
 20
494.8291288783191
 30
0
 11
1344.029242620425
 21
494.8291288783191
 31
0
  0
LINE
  8
1
 62
7
 10
1343.805805120425
 20
494.910378878319
 30
0
 11
1343.805805120425
 21
494.8291288783191
 31
0
  0
LINE
  8
1
 62
7
 10
1343.826117620425
 20
495.011941378319
 30
0
 11
1343.805805120425
 21
494.910378878319
 31
0
  0
LINE
  8
1
 62
7
 10
1343.907367620425
 20
495.1338163783191
 30
0
 11
1343.826117620425
 21
495.011941378319
 31
0
  0
LINE
  8
1
 62
7
 10
1343.988617620425
 20
495.215066378319
 30
0
 11
1343.907367620425
 21
495.1338163783191
 31
0
  0
LINE
  8
1
 62
7
 10
1344.110492620425
 20
495.2760038783191
 30
0
 11
1343.988617620425
 21
495.215066378319
 31
0
  0
LINE
  8
1
 62
7
 10
1344.212055120425
 20
495.296316378319
 30
0
 11
1344.110492620425
 21
495.2760038783191
 31
0
  0
LINE
  8
1
 62
7
 10
1344.333930120425
 20
495.296316378319
 30
0
 11
1344.212055120425
 21
495.296316378319
 31
0
  0
LINE
  8
1
 62
7
 10
1344.435492620425
 20
495.2760038783191
 30
0
 11
1344.333930120425
 21
495.296316378319
 31
0
  0
LINE
  8
1
 62
7
 10
1344.557367620425
 20
495.215066378319
 30
0
 11
1344.435492620425
 21
495.2760038783191
 31
0
  0
LINE
  8
1
 62
7
 10
1344.638617620425
 20
495.1338163783191
 30
0
 11
1344.557367620425
 21
495.215066378319
 31
0
  0
LINE
  8
1
 62
7
 10
1344.719867620425
 20
495.011941378319
 30
0
 11
1344.638617620425
 21
495.1338163783191
 31
0
  0
LINE
  8
1
 62
7
 10
1344.740180120425
 20
494.910378878319
 30
0
 11
1344.719867620425
 21
495.011941378319
 31
0
  0
LINE
  8
1
 62
7
 10
1344.740180120425
 20
494.8291288783191
 30
0
 11
1344.740180120425
 21
494.910378878319
 31
0
  0
LINE
  8
1
 62
7
 10
1344.719867620425
 20
494.7275663783191
 30
0
 11
1344.740180120425
 21
494.8291288783191
 31
0
  0
LINE
  8
1
 62
7
 10
1344.638617620425
 20
494.605691378319
 30
0
 11
1344.719867620425
 21
494.7275663783191
 31
0
  0
LINE
  8
1
 62
7
 10
1344.597992620425
 20
494.5650663783191
 30
0
 11
1344.638617620425
 21
494.605691378319
 31
0
  0
LINE
  8
1
 62
7
 10
1344.699555120425
 20
494.483816378319
 30
0
 11
1344.597992620425
 21
494.5650663783191
 31
0
  0
LINE
  8
1
 62
7
 10
1344.780805120425
 20
494.3619413783191
 30
0
 11
1344.699555120425
 21
494.483816378319
 31
0
  0
LINE
  8
1
 62
7
 10
1344.821430120425
 20
494.2197538783191
 30
0
 11
1344.780805120425
 21
494.3619413783191
 31
0
  0
LINE
  8
1
 62
7
 10
1344.821430120425
 20
494.1181913783191
 30
0
 11
1344.821430120425
 21
494.2197538783191
 31
0
  0
LINE
  8
1
 62
7
 10
1344.780805120425
 20
493.976003878319
 30
0
 11
1344.821430120425
 21
494.1181913783191
 31
0
  0
LINE
  8
1
 62
7
 10
1344.719867620425
 20
493.874441378319
 30
0
 11
1344.780805120425
 21
493.976003878319
 31
0
  0
LINE
  8
1
 62
7
 10
1344.618305120425
 20
493.772878878319
 30
0
 11
1344.719867620425
 21
493.874441378319
 31
0
  0
LINE
  8
1
 62
7
 10
1344.496430120425
 20
493.7119413783191
 30
0
 11
1344.618305120425
 21
493.772878878319
 31
0
  0
LINE
  8
1
 62
7
 10
1344.333930120425
 20
493.671316378319
 30
0
 11
1344.496430120425
 21
493.7119413783191
 31
0
  0
LINE
  8
1
 62
7
 10
1344.212055120425
 20
493.671316378319
 30
0
 11
1344.333930120425
 21
493.671316378319
 31
0
  0
LINE
  8
1
 62
7
 10
1344.049555120425
 20
493.7119413783191
 30
0
 11
1344.212055120425
 21
493.671316378319
 31
0
  0
LINE
  8
1
 62
7
 10
1343.927680120425
 20
493.772878878319
 30
0
 11
1344.049555120425
 21
493.7119413783191
 31
0
  0
LINE
  8
1
 62
7
 10
1343.826117620425
 20
493.874441378319
 30
0
 11
1343.927680120425
 21
493.772878878319
 31
0
  0
LINE
  8
1
 62
7
 10
1343.765180120425
 20
493.976003878319
 30
0
 11
1343.826117620425
 21
493.874441378319
 31
0
  0
LINE
  8
1
 62
7
 10
1343.724555120425
 20
494.1181913783191
 30
0
 11
1343.765180120425
 21
493.976003878319
 31
0
  0
LINE
  8
1
 62
7
 10
1343.724555120425
 20
494.2197538783191
 30
0
 11
1343.724555120425
 21
494.1181913783191
 31
0
  0
LINE
  8
1
 62
7
 10
1343.968305120425
 20
494.2197538783191
 30
0
 11
1343.724555120425
 21
494.2197538783191
 31
0
  0
LINE
  8
1
 62
7
 10
1343.968305120425
 20
494.1385038783191
 30
0
 11
1343.968305120425
 21
494.2197538783191
 31
0
  0
LINE
  8
1
 62
7
 10
1343.988617620425
 20
494.0572538783191
 30
0
 11
1343.968305120425
 21
494.1385038783191
 31
0
  0
LINE
  8
1
 62
7
 10
1344.049555120425
 20
493.976003878319
 30
0
 11
1343.988617620425
 21
494.0572538783191
 31
0
  0
LINE
  8
1
 62
7
 10
1344.130805120425
 20
493.9150663783191
 30
0
 11
1344.049555120425
 21
493.976003878319
 31
0
  0
LINE
  8
1
 62
7
 10
1344.232367620425
 20
493.894753878319
 30
0
 11
1344.130805120425
 21
493.9150663783191
 31
0
  0
LINE
  8
1
 62
7
 10
1344.313617620425
 20
493.894753878319
 30
0
 11
1344.232367620425
 21
493.894753878319
 31
0
  0
LINE
  8
1
 62
7
 10
1344.415180120425
 20
493.9150663783191
 30
0
 11
1344.313617620425
 21
493.894753878319
 31
0
  0
LINE
  8
1
 62
7
 10
1344.496430120425
 20
493.976003878319
 30
0
 11
1344.415180120425
 21
493.9150663783191
 31
0
  0
LINE
  8
1
 62
7
 10
1344.557367620425
 20
494.0572538783191
 30
0
 11
1344.496430120425
 21
493.976003878319
 31
0
  0
LINE
  8
1
 62
7
 10
1344.577680120425
 20
494.1385038783191
 30
0
 11
1344.557367620425
 21
494.0572538783191
 31
0
  0
LINE
  8
1
 62
7
 10
1344.577680120425
 20
494.2197538783191
 30
0
 11
1344.577680120425
 21
494.1385038783191
 31
0
  0
LINE
  8
1
 62
7
 10
1344.557367620425
 20
494.301003878319
 30
0
 11
1344.577680120425
 21
494.2197538783191
 31
0
  0
LINE
  8
1
 62
7
 10
1344.496430120425
 20
494.382253878319
 30
0
 11
1344.557367620425
 21
494.301003878319
 31
0
  0
LINE
  8
1
 62
7
 10
1344.415180120425
 20
494.4431913783191
 30
0
 11
1344.496430120425
 21
494.382253878319
 31
0
  0
LINE
  8
1
 62
7
 10
1344.313617620425
 20
494.4635038783191
 30
0
 11
1344.415180120425
 21
494.4431913783191
 31
0
  0
LINE
  8
1
 62
7
 10
1344.232367620425
 20
494.4635038783191
 30
0
 11
1344.313617620425
 21
494.4635038783191
 31
0
  0
LINE
  8
1
 62
7
 10
1368.273856435268
 20
492.8105673163303
 30
0
 11
1366.336043935268
 21
492.8105673163303
 31
0
  0
LINE
  8
1
 62
7
 10
1368.273856435268
 20
493.0918173163303
 30
0
 11
1368.273856435268
 21
492.8105673163303
 31
0
  0
LINE
  8
1
 62
7
 10
1366.738231435268
 20
493.0918173163303
 30
0
 11
1368.273856435268
 21
493.0918173163303
 31
0
  0
LINE
  8
1
 62
7
 10
1366.738231435268
 20
495.0605673163303
 30
0
 11
1366.738231435268
 21
493.0918173163303
 31
0
  0
LINE
  8
1
 62
7
 10
1366.336043935268
 20
495.0605673163303
 30
0
 11
1366.738231435268
 21
495.0605673163303
 31
0
  0
LINE
  8
1
 62
7
 10
1366.336043935268
 20
492.8105673163303
 30
0
 11
1366.336043935268
 21
495.0605673163303
 31
0
  0
LINE
  8
1
 62
7
 10
1367.432193994562
 20
488.1955603740933
 30
0
 11
1367.432193994562
 21
489.7642341411511
 31
0
  0
LINE
  8
1
 62
7
 10
1366.158799995421
 20
488.1955603740933
 30
0
 11
1367.432193994562
 21
488.1955603740933
 31
0
  0
LINE
  8
1
 62
7
 10
1367.432193994562
 20
489.7642341411511
 30
0
 11
1366.158799995421
 21
488.1955603740933
 31
0
  0
LINE
  8
1
 62
7
 10
1365.549785474093
 20
488.2416978378303
 30
0
 11
1367.432193994562
 21
490.5947084884169
 31
0
  0
LINE
  8
1
 62
7
 10
1365.549785474093
 20
487.7341857367233
 30
0
 11
1365.549785474093
 21
488.2416978378303
 31
0
  0
LINE
  8
1
 62
7
 10
1367.432193994562
 20
487.7341857367233
 30
0
 11
1365.549785474093
 21
487.7341857367233
 31
0
  0
LINE
  8
1
 62
7
 10
1367.432193994562
 20
486.9037113894573
 30
0
 11
1367.432193994562
 21
487.7341857367233
 31
0
  0
LINE
  8
1
 62
7
 10
1368.041208515891
 20
486.9037113894573
 30
0
 11
1367.432193994562
 21
486.9037113894573
 31
0
  0
LINE
  8
1
 62
7
 10
1368.041208515891
 20
487.7341857367233
 30
0
 11
1368.041208515891
 21
486.9037113894573
 31
0
  0
LINE
  8
1
 62
7
 10
1368.594858080734
 20
487.7341857367233
 30
0
 11
1368.041208515891
 21
487.7341857367233
 31
0
  0
LINE
  8
1
 62
7
 10
1368.594858080734
 20
488.1955603740933
 30
0
 11
1368.594858080734
 21
487.7341857367233
 31
0
  0
LINE
  8
1
 62
7
 10
1368.041208515891
 20
488.1955603740933
 30
0
 11
1368.594858080734
 21
488.1955603740933
 31
0
  0
LINE
  8
1
 62
7
 10
1368.041208515891
 20
490.5947084884169
 30
0
 11
1368.041208515891
 21
488.1955603740933
 31
0
  0
LINE
  8
1
 62
7
 10
1367.432193994562
 20
490.5947084884169
 30
0
 11
1368.041208515891
 21
490.5947084884169
 31
0
  0
LINE
  8
1
 62
7
 10
1359.116748963632
 20
489.1183096488331
 30
0
 11
1359.116748963632
 21
488.7030724752001
 31
0
  0
LINE
  8
1
 62
7
 10
1359.33820878957
 20
489.1183096488331
 30
0
 11
1359.116748963632
 21
489.1183096488331
 31
0
  0
LINE
  8
1
 62
7
 10
1359.559668615508
 20
489.16444711257
 30
0
 11
1359.33820878957
 21
489.1183096488331
 31
0
  0
LINE
  8
1
 62
7
 10
1359.725763484961
 20
489.2567220400442
 30
0
 11
1359.559668615508
 21
489.16444711257
 31
0
  0
LINE
  8
1
 62
7
 10
1359.83649339793
 20
489.395134431255
 30
0
 11
1359.725763484961
 21
489.2567220400442
 31
0
  0
LINE
  8
1
 62
7
 10
1359.891858354414
 20
489.5335468224661
 30
0
 11
1359.83649339793
 21
489.395134431255
 31
0
  0
LINE
  8
1
 62
7
 10
1359.891858354414
 20
489.7180966774141
 30
0
 11
1359.891858354414
 21
489.5335468224661
 31
0
  0
LINE
  8
1
 62
7
 10
1359.83649339793
 20
489.856509068625
 30
0
 11
1359.891858354414
 21
489.7180966774141
 31
0
  0
LINE
  8
1
 62
7
 10
1359.725763484961
 20
489.9949214598361
 30
0
 11
1359.83649339793
 21
489.856509068625
 31
0
  0
LINE
  8
1
 62
7
 10
1359.559668615508
 20
490.0871963873099
 30
0
 11
1359.725763484961
 21
489.9949214598361
 31
0
  0
LINE
  8
1
 62
7
 10
1359.33820878957
 20
490.133333851047
 30
0
 11
1359.559668615508
 21
490.0871963873099
 31
0
  0
LINE
  8
1
 62
7
 10
1359.116748963632
 20
490.133333851047
 30
0
 11
1359.33820878957
 21
490.133333851047
 31
0
  0
LINE
  8
1
 62
7
 10
1358.895289137695
 20
490.0871963873099
 30
0
 11
1359.116748963632
 21
490.133333851047
 31
0
  0
LINE
  8
1
 62
7
 10
1358.729194268242
 20
489.9949214598361
 30
0
 11
1358.895289137695
 21
490.0871963873099
 31
0
  0
LINE
  8
1
 62
7
 10
1358.618464355273
 20
489.856509068625
 30
0
 11
1358.729194268242
 21
489.9949214598361
 31
0
  0
LINE
  8
1
 62
7
 10
1358.563099398788
 20
489.7180966774141
 30
0
 11
1358.618464355273
 21
489.856509068625
 31
0
  0
LINE
  8
1
 62
7
 10
1358.563099398788
 20
489.5335468224661
 30
0
 11
1358.563099398788
 21
489.7180966774141
 31
0
  0
LINE
  8
1
 62
7
 10
1357.95408487746
 20
489.5335468224661
 30
0
 11
1358.563099398788
 21
489.5335468224661
 31
0
  0
LINE
  8
1
 62
7
 10
1357.95408487746
 20
489.7180966774141
 30
0
 11
1357.95408487746
 21
489.5335468224661
 31
0
  0
LINE
  8
1
 62
7
 10
1358.009449833945
 20
489.9487839960991
 30
0
 11
1357.95408487746
 21
489.7180966774141
 31
0
  0
LINE
  8
1
 62
7
 10
1358.230909659882
 20
490.2256087785211
 30
0
 11
1358.009449833945
 21
489.9487839960991
 31
0
  0
LINE
  8
1
 62
7
 10
1358.45236948582
 20
490.4101586334688
 30
0
 11
1358.230909659882
 21
490.2256087785211
 31
0
  0
LINE
  8
1
 62
7
 10
1358.784559224726
 20
490.5485710246799
 30
0
 11
1358.45236948582
 21
490.4101586334688
 31
0
  0
LINE
  8
1
 62
7
 10
1359.061384007148
 20
490.5947084884169
 30
0
 11
1358.784559224726
 21
490.5485710246799
 31
0
  0
LINE
  8
1
 62
7
 10
1359.393573746054
 20
490.5947084884169
 30
0
 11
1359.061384007148
 21
490.5947084884169
 31
0
  0
LINE
  8
1
 62
7
 10
1359.670398528476
 20
490.5485710246799
 30
0
 11
1359.393573746054
 21
490.5947084884169
 31
0
  0
LINE
  8
1
 62
7
 10
1360.002588267383
 20
490.4101586334688
 30
0
 11
1359.670398528476
 21
490.5485710246799
 31
0
  0
LINE
  8
1
 62
7
 10
1360.22404809332
 20
490.2256087785211
 30
0
 11
1360.002588267383
 21
490.4101586334688
 31
0
  0
LINE
  8
1
 62
7
 10
1360.445507919258
 20
489.9487839960991
 30
0
 11
1360.22404809332
 21
490.2256087785211
 31
0
  0
LINE
  8
1
 62
7
 10
1360.500872875742
 20
489.7180966774141
 30
0
 11
1360.445507919258
 21
489.9487839960991
 31
0
  0
LINE
  8
1
 62
7
 10
1360.500872875742
 20
489.5335468224661
 30
0
 11
1360.500872875742
 21
489.7180966774141
 31
0
  0
LINE
  8
1
 62
7
 10
1360.445507919258
 20
489.3028595037811
 30
0
 11
1360.500872875742
 21
489.5335468224661
 31
0
  0
LINE
  8
1
 62
7
 10
1360.22404809332
 20
489.0260347213592
 30
0
 11
1360.445507919258
 21
489.3028595037811
 31
0
  0
LINE
  8
1
 62
7
 10
1360.113318180351
 20
488.9337597938851
 30
0
 11
1360.22404809332
 21
489.0260347213592
 31
0
  0
LINE
  8
1
 62
7
 10
1360.390142962774
 20
488.7492099389372
 30
0
 11
1360.113318180351
 21
488.9337597938851
 31
0
  0
LINE
  8
1
 62
7
 10
1360.611602788711
 20
488.4723851565151
 30
0
 11
1360.390142962774
 21
488.7492099389372
 31
0
  0
LINE
  8
1
 62
7
 10
1360.72233270168
 20
488.1494229103562
 30
0
 11
1360.611602788711
 21
488.4723851565151
 31
0
  0
LINE
  8
1
 62
7
 10
1360.72233270168
 20
487.9187355916712
 30
0
 11
1360.72233270168
 21
488.1494229103562
 31
0
  0
LINE
  8
1
 62
7
 10
1360.611602788711
 20
487.5957733455123
 30
0
 11
1360.72233270168
 21
487.9187355916712
 31
0
  0
LINE
  8
1
 62
7
 10
1360.445507919258
 20
487.3650860268273
 30
0
 11
1360.611602788711
 21
487.5957733455123
 31
0
  0
LINE
  8
1
 62
7
 10
1360.168683136836
 20
487.1343987081423
 30
0
 11
1360.445507919258
 21
487.3650860268273
 31
0
  0
LINE
  8
1
 62
7
 10
1359.83649339793
 20
486.9959863169314
 30
0
 11
1360.168683136836
 21
487.1343987081423
 31
0
  0
LINE
  8
1
 62
7
 10
1359.393573746054
 20
486.9037113894573
 30
0
 11
1359.83649339793
 21
486.9959863169314
 31
0
  0
LINE
  8
1
 62
7
 10
1359.061384007148
 20
486.9037113894573
 30
0
 11
1359.393573746054
 21
486.9037113894573
 31
0
  0
LINE
  8
1
 62
7
 10
1358.618464355273
 20
486.9959863169314
 30
0
 11
1359.061384007148
 21
486.9037113894573
 31
0
  0
LINE
  8
1
 62
7
 10
1358.286274616367
 20
487.1343987081423
 30
0
 11
1358.618464355273
 21
486.9959863169314
 31
0
  0
LINE
  8
1
 62
7
 10
1358.009449833945
 20
487.3650860268273
 30
0
 11
1358.286274616367
 21
487.1343987081423
 31
0
  0
LINE
  8
1
 62
7
 10
1357.843354964492
 20
487.5957733455123
 30
0
 11
1358.009449833945
 21
487.3650860268273
 31
0
  0
LINE
  8
1
 62
7
 10
1357.732625051523
 20
487.9187355916712
 30
0
 11
1357.843354964492
 21
487.5957733455123
 31
0
  0
LINE
  8
1
 62
7
 10
1357.732625051523
 20
488.1494229103562
 30
0
 11
1357.732625051523
 21
487.9187355916712
 31
0
  0
LINE
  8
1
 62
7
 10
1358.397004529335
 20
488.1494229103562
 30
0
 11
1357.732625051523
 21
488.1494229103562
 31
0
  0
LINE
  8
1
 62
7
 10
1358.397004529335
 20
487.9648730554083
 30
0
 11
1358.397004529335
 21
488.1494229103562
 31
0
  0
LINE
  8
1
 62
7
 10
1358.45236948582
 20
487.7803232004603
 30
0
 11
1358.397004529335
 21
487.9648730554083
 31
0
  0
LINE
  8
1
 62
7
 10
1358.618464355273
 20
487.5957733455123
 30
0
 11
1358.45236948582
 21
487.7803232004603
 31
0
  0
LINE
  8
1
 62
7
 10
1358.839924181211
 20
487.4573609543014
 30
0
 11
1358.618464355273
 21
487.5957733455123
 31
0
  0
LINE
  8
1
 62
7
 10
1359.116748963632
 20
487.4112234905643
 30
0
 11
1358.839924181211
 21
487.4573609543014
 31
0
  0
LINE
  8
1
 62
7
 10
1359.33820878957
 20
487.4112234905643
 30
0
 11
1359.116748963632
 21
487.4112234905643
 31
0
  0
LINE
  8
1
 62
7
 10
1359.615033571992
 20
487.4573609543014
 30
0
 11
1359.33820878957
 21
487.4112234905643
 31
0
  0
LINE
  8
1
 62
7
 10
1359.83649339793
 20
487.5957733455123
 30
0
 11
1359.615033571992
 21
487.4573609543014
 31
0
  0
LINE
  8
1
 62
7
 10
1360.002588267383
 20
487.7803232004603
 30
0
 11
1359.83649339793
 21
487.5957733455123
 31
0
  0
LINE
  8
1
 62
7
 10
1360.057953223867
 20
487.9648730554083
 30
0
 11
1360.002588267383
 21
487.7803232004603
 31
0
  0
LINE
  8
1
 62
7
 10
1360.057953223867
 20
488.1494229103562
 30
0
 11
1360.057953223867
 21
487.9648730554083
 31
0
  0
LINE
  8
1
 62
7
 10
1360.002588267383
 20
488.3339727653042
 30
0
 11
1360.057953223867
 21
488.1494229103562
 31
0
  0
LINE
  8
1
 62
7
 10
1359.83649339793
 20
488.5185226202522
 30
0
 11
1360.002588267383
 21
488.3339727653042
 31
0
  0
LINE
  8
1
 62
7
 10
1359.615033571992
 20
488.6569350114631
 30
0
 11
1359.83649339793
 21
488.5185226202522
 31
0
  0
LINE
  8
1
 62
7
 10
1359.33820878957
 20
488.7030724752001
 30
0
 11
1359.615033571992
 21
488.6569350114631
 31
0
  0
LINE
  8
1
 62
7
 10
1359.116748963632
 20
488.7030724752001
 30
0
 11
1359.33820878957
 21
488.7030724752001
 31
0
  0
LINE
  8
1
 62
7
 10
1354.069650223438
 20
486.9037113894573
 30
0
 11
1351.135307529765
 21
486.9037113894573
 31
0
  0
LINE
  8
1
 62
7
 10
1354.069650223438
 20
487.3650860268273
 30
0
 11
1354.069650223438
 21
486.9037113894573
 31
0
  0
LINE
  8
1
 62
7
 10
1351.910416920546
 20
487.3650860268273
 30
0
 11
1354.069650223438
 21
487.3650860268273
 31
0
  0
LINE
  8
1
 62
7
 10
1352.021146833515
 20
487.6419108092493
 30
0
 11
1351.910416920546
 21
487.3650860268273
 31
0
  0
LINE
  8
1
 62
7
 10
1352.297971615937
 20
487.9648730554083
 30
0
 11
1352.021146833515
 21
487.6419108092493
 31
0
  0
LINE
  8
1
 62
7
 10
1352.685526311328
 20
488.3339727653042
 30
0
 11
1352.297971615937
 21
487.9648730554083
 31
0
  0
LINE
  8
1
 62
7
 10
1353.073081006718
 20
488.6107975477261
 30
0
 11
1352.685526311328
 21
488.3339727653042
 31
0
  0
LINE
  8
1
 62
7
 10
1353.516000658594
 20
488.9337597938851
 30
0
 11
1353.073081006718
 21
488.6107975477261
 31
0
  0
LINE
  8
1
 62
7
 10
1353.626730571562
 20
489.0260347213592
 30
0
 11
1353.516000658594
 21
488.9337597938851
 31
0
  0
LINE
  8
1
 62
7
 10
1353.8481903975
 20
489.3028595037811
 30
0
 11
1353.626730571562
 21
489.0260347213592
 31
0
  0
LINE
  8
1
 62
7
 10
1353.903555353985
 20
489.5335468224661
 30
0
 11
1353.8481903975
 21
489.3028595037811
 31
0
  0
LINE
  8
1
 62
7
 10
1353.903555353985
 20
489.7180966774141
 30
0
 11
1353.903555353985
 21
489.5335468224661
 31
0
  0
LINE
  8
1
 62
7
 10
1353.8481903975
 20
489.9487839960991
 30
0
 11
1353.903555353985
 21
489.7180966774141
 31
0
  0
LINE
  8
1
 62
7
 10
1353.626730571562
 20
490.2256087785211
 30
0
 11
1353.8481903975
 21
489.9487839960991
 31
0
  0
LINE
  8
1
 62
7
 10
1353.405270745625
 20
490.4101586334688
 30
0
 11
1353.626730571562
 21
490.2256087785211
 31
0
  0
LINE
  8
1
 62
7
 10
1353.073081006718
 20
490.5485710246799
 30
0
 11
1353.405270745625
 21
490.4101586334688
 31
0
  0
LINE
  8
1
 62
7
 10
1352.796256224297
 20
490.5947084884169
 30
0
 11
1353.073081006718
 21
490.5485710246799
 31
0
  0
LINE
  8
1
 62
7
 10
1352.46406648539
 20
490.5947084884169
 30
0
 11
1352.796256224297
 21
490.5947084884169
 31
0
  0
LINE
  8
1
 62
7
 10
1352.187241702968
 20
490.5485710246799
 30
0
 11
1352.46406648539
 21
490.5947084884169
 31
0
  0
LINE
  8
1
 62
7
 10
1351.855051964062
 20
490.4101586334688
 30
0
 11
1352.187241702968
 21
490.5485710246799
 31
0
  0
LINE
  8
1
 62
7
 10
1351.633592138124
 20
490.2256087785211
 30
0
 11
1351.855051964062
 21
490.4101586334688
 31
0
  0
LINE
  8
1
 62
7
 10
1351.412132312187
 20
489.9487839960991
 30
0
 11
1351.633592138124
 21
490.2256087785211
 31
0
  0
LINE
  8
1
 62
7
 10
1351.356767355703
 20
489.7180966774141
 30
0
 11
1351.412132312187
 21
489.9487839960991
 31
0
  0
LINE
  8
1
 62
7
 10
1351.356767355703
 20
489.5335468224661
 30
0
 11
1351.356767355703
 21
489.7180966774141
 31
0
  0
LINE
  8
1
 62
7
 10
1351.965781877031
 20
489.5335468224661
 30
0
 11
1351.356767355703
 21
489.5335468224661
 31
0
  0
LINE
  8
1
 62
7
 10
1351.965781877031
 20
489.7180966774141
 30
0
 11
1351.965781877031
 21
489.5335468224661
 31
0
  0
LINE
  8
1
 62
7
 10
1352.021146833515
 20
489.856509068625
 30
0
 11
1351.965781877031
 21
489.7180966774141
 31
0
  0
LINE
  8
1
 62
7
 10
1352.131876746484
 20
489.9949214598361
 30
0
 11
1352.021146833515
 21
489.856509068625
 31
0
  0
LINE
  8
1
 62
7
 10
1352.297971615937
 20
490.0871963873099
 30
0
 11
1352.131876746484
 21
489.9949214598361
 31
0
  0
LINE
  8
1
 62
7
 10
1352.519431441875
 20
490.133333851047
 30
0
 11
1352.297971615937
 21
490.0871963873099
 31
0
  0
LINE
  8
1
 62
7
 10
1352.740891267812
 20
490.133333851047
 30
0
 11
1352.519431441875
 21
490.133333851047
 31
0
  0
LINE
  8
1
 62
7
 10
1352.96235109375
 20
490.0871963873099
 30
0
 11
1352.740891267812
 21
490.133333851047
 31
0
  0
LINE
  8
1
 62
7
 10
1353.128445963203
 20
489.9949214598361
 30
0
 11
1352.96235109375
 21
490.0871963873099
 31
0
  0
LINE
  8
1
 62
7
 10
1353.239175876172
 20
489.856509068625
 30
0
 11
1353.128445963203
 21
489.9949214598361
 31
0
  0
LINE
  8
1
 62
7
 10
1353.294540832656
 20
489.7180966774141
 30
0
 11
1353.239175876172
 21
489.856509068625
 31
0
  0
LINE
  8
1
 62
7
 10
1353.294540832656
 20
489.5335468224661
 30
0
 11
1353.294540832656
 21
489.7180966774141
 31
0
  0
LINE
  8
1
 62
7
 10
1353.239175876172
 20
489.395134431255
 30
0
 11
1353.294540832656
 21
489.5335468224661
 31
0
  0
LINE
  8
1
 62
7
 10
1353.128445963203
 20
489.2567220400442
 30
0
 11
1353.239175876172
 21
489.395134431255
 31
0
  0
LINE
  8
1
 62
7
 10
1352.740891267812
 20
488.9337597938851
 30
0
 11
1353.128445963203
 21
489.2567220400442
 31
0
  0
LINE
  8
1
 62
7
 10
1352.408701528906
 20
488.6569350114631
 30
0
 11
1352.740891267812
 21
488.9337597938851
 31
0
  0
LINE
  8
1
 62
7
 10
1352.07651179
 20
488.4262476927783
 30
0
 11
1352.408701528906
 21
488.6569350114631
 31
0
  0
LINE
  8
1
 62
7
 10
1351.744322051093
 20
488.1032854466192
 30
0
 11
1352.07651179
 21
488.4262476927783
 31
0
  0
LINE
  8
1
 62
7
 10
1351.467497268671
 20
487.8264606641973
 30
0
 11
1351.744322051093
 21
488.1032854466192
 31
0
  0
LINE
  8
1
 62
7
 10
1351.246037442734
 20
487.5034984180384
 30
0
 11
1351.467497268671
 21
487.8264606641973
 31
0
  0
LINE
  8
1
 62
7
 10
1351.135307529765
 20
487.1805361718793
 30
0
 11
1351.246037442734
 21
487.5034984180384
 31
0
  0
LINE
  8
1
 62
7
 10
1351.135307529765
 20
486.9037113894573
 30
0
 11
1351.135307529765
 21
487.1805361718793
 31
0
  0
LINE
  8
1
 62
7
 10
1316.098872915585
 20
487.0421237806684
 30
0
 11
1316.264967785038
 21
487.1343987081423
 31
0
  0
LINE
  8
1
 62
7
 10
1315.822048133163
 20
486.9498488531943
 30
0
 11
1316.098872915585
 21
487.0421237806684
 31
0
  0
LINE
  8
1
 62
7
 10
1315.600588307226
 20
486.9037113894573
 30
0
 11
1315.822048133163
 21
486.9498488531943
 31
0
  0
LINE
  8
1
 62
7
 10
1315.213033611835
 20
486.9037113894573
 30
0
 11
1315.600588307226
 21
486.9037113894573
 31
0
  0
LINE
  8
1
 62
7
 10
1314.991573785897
 20
486.9498488531943
 30
0
 11
1315.213033611835
 21
486.9037113894573
 31
0
  0
LINE
  8
1
 62
7
 10
1314.714749003475
 20
487.0421237806684
 30
0
 11
1314.991573785897
 21
486.9498488531943
 31
0
  0
LINE
  8
1
 62
7
 10
1314.548654134022
 20
487.1343987081423
 30
0
 11
1314.714749003475
 21
487.0421237806684
 31
0
  0
LINE
  8
1
 62
7
 10
1314.382559264569
 20
487.2728110993534
 30
0
 11
1314.548654134022
 21
487.1343987081423
 31
0
  0
LINE
  8
1
 62
7
 10
1314.216464395116
 20
487.4573609543014
 30
0
 11
1314.382559264569
 21
487.2728110993534
 31
0
  0
LINE
  8
1
 62
7
 10
1314.105734482147
 20
487.6419108092493
 30
0
 11
1314.216464395116
 21
487.4573609543014
 31
0
  0
LINE
  8
1
 62
7
 10
1313.995004569178
 20
487.8725981279342
 30
0
 11
1314.105734482147
 21
487.6419108092493
 31
0
  0
LINE
  8
1
 62
7
 10
1313.939639612694
 20
488.1494229103562
 30
0
 11
1313.995004569178
 21
487.8725981279342
 31
0
  0
LINE
  8
1
 62
7
 10
1313.88427465621
 20
488.5646600839892
 30
0
 11
1313.939639612694
 21
488.1494229103562
 31
0
  0
LINE
  8
1
 62
7
 10
1313.88427465621
 20
488.9337597938851
 30
0
 11
1313.88427465621
 21
488.5646600839892
 31
0
  0
LINE
  8
1
 62
7
 10
1313.939639612694
 20
489.3489969675181
 30
0
 11
1313.88427465621
 21
488.9337597938851
 31
0
  0
LINE
  8
1
 62
7
 10
1313.995004569178
 20
489.6258217499399
 30
0
 11
1313.939639612694
 21
489.3489969675181
 31
0
  0
LINE
  8
1
 62
7
 10
1314.105734482147
 20
489.856509068625
 30
0
 11
1313.995004569178
 21
489.6258217499399
 31
0
  0
LINE
  8
1
 62
7
 10
1314.216464395116
 20
490.041058923573
 30
0
 11
1314.105734482147
 21
489.856509068625
 31
0
  0
LINE
  8
1
 62
7
 10
1314.382559264569
 20
490.2256087785211
 30
0
 11
1314.216464395116
 21
490.041058923573
 31
0
  0
LINE
  8
1
 62
7
 10
1314.548654134022
 20
490.3640211697319
 30
0
 11
1314.382559264569
 21
490.2256087785211
 31
0
  0
LINE
  8
1
 62
7
 10
1314.714749003475
 20
490.456296097206
 30
0
 11
1314.548654134022
 21
490.3640211697319
 31
0
  0
LINE
  8
1
 62
7
 10
1314.991573785897
 20
490.5485710246799
 30
0
 11
1314.714749003475
 21
490.456296097206
 31
0
  0
LINE
  8
1
 62
7
 10
1315.213033611835
 20
490.5947084884169
 30
0
 11
1314.991573785897
 21
490.5485710246799
 31
0
  0
LINE
  8
1
 62
7
 10
1315.600588307226
 20
490.5947084884169
 30
0
 11
1315.213033611835
 21
490.5947084884169
 31
0
  0
LINE
  8
1
 62
7
 10
1315.822048133163
 20
490.5485710246799
 30
0
 11
1315.600588307226
 21
490.5947084884169
 31
0
  0
LINE
  8
1
 62
7
 10
1316.098872915585
 20
490.456296097206
 30
0
 11
1315.822048133163
 21
490.5485710246799
 31
0
  0
LINE
  8
1
 62
7
 10
1316.264967785038
 20
490.3640211697319
 30
0
 11
1316.098872915585
 21
490.456296097206
 31
0
  0
LINE
  8
1
 62
7
 10
1316.431062654491
 20
490.2256087785211
 30
0
 11
1316.264967785038
 21
490.3640211697319
 31
0
  0
LINE
  8
1
 62
7
 10
1316.597157523945
 20
490.041058923573
 30
0
 11
1316.431062654491
 21
490.2256087785211
 31
0
  0
LINE
  8
1
 62
7
 10
1316.707887436914
 20
489.856509068625
 30
0
 11
1316.597157523945
 21
490.041058923573
 31
0
  0
LINE
  8
1
 62
7
 10
1316.818617349882
 20
489.6258217499399
 30
0
 11
1316.707887436914
 21
489.856509068625
 31
0
  0
LINE
  8
1
 62
7
 10
1316.873982306367
 20
489.3489969675181
 30
0
 11
1316.818617349882
 21
489.6258217499399
 31
0
  0
LINE
  8
1
 62
7
 10
1316.929347262851
 20
488.9337597938851
 30
0
 11
1316.873982306367
 21
489.3489969675181
 31
0
  0
LINE
  8
1
 62
7
 10
1316.929347262851
 20
488.5646600839892
 30
0
 11
1316.929347262851
 21
488.9337597938851
 31
0
  0
LINE
  8
1
 62
7
 10
1316.873982306367
 20
488.1494229103562
 30
0
 11
1316.929347262851
 21
488.5646600839892
 31
0
  0
LINE
  8
1
 62
7
 10
1316.818617349882
 20
487.8725981279342
 30
0
 11
1316.873982306367
 21
488.1494229103562
 31
0
  0
LINE
  8
1
 62
7
 10
1316.707887436914
 20
487.6419108092493
 30
0
 11
1316.818617349882
 21
487.8725981279342
 31
0
  0
LINE
  8
1
 62
7
 10
1316.597157523945
 20
487.4573609543014
 30
0
 11
1316.707887436914
 21
487.6419108092493
 31
0
  0
LINE
  8
1
 62
7
 10
1316.431062654491
 20
487.2728110993534
 30
0
 11
1316.597157523945
 21
487.4573609543014
 31
0
  0
LINE
  8
1
 62
7
 10
1316.264967785038
 20
487.1343987081423
 30
0
 11
1316.431062654491
 21
487.2728110993534
 31
0
  0
LINE
  8
1
 62
7
 10
1314.991573785897
 20
487.4573609543014
 30
0
 11
1315.213033611835
 21
487.3650860268273
 31
0
  0
LINE
  8
1
 62
7
 10
1314.77011395996
 20
487.5957733455123
 30
0
 11
1314.991573785897
 21
487.4573609543014
 31
0
  0
LINE
  8
1
 62
7
 10
1314.659384046991
 20
487.7341857367233
 30
0
 11
1314.77011395996
 21
487.5957733455123
 31
0
  0
LINE
  8
1
 62
7
 10
1314.548654134022
 20
487.9648730554083
 30
0
 11
1314.659384046991
 21
487.7341857367233
 31
0
  0
LINE
  8
1
 62
7
 10
1314.493289177538
 20
488.4723851565151
 30
0
 11
1314.548654134022
 21
487.9648730554083
 31
0
  0
LINE
  8
1
 62
7
 10
1314.493289177538
 20
489.0260347213592
 30
0
 11
1314.493289177538
 21
488.4723851565151
 31
0
  0
LINE
  8
1
 62
7
 10
1314.548654134022
 20
489.5335468224661
 30
0
 11
1314.493289177538
 21
489.0260347213592
 31
0
  0
LINE
  8
1
 62
7
 10
1314.659384046991
 20
489.7642341411511
 30
0
 11
1314.548654134022
 21
489.5335468224661
 31
0
  0
LINE
  8
1
 62
7
 10
1314.77011395996
 20
489.902646532362
 30
0
 11
1314.659384046991
 21
489.7642341411511
 31
0
  0
LINE
  8
1
 62
7
 10
1314.991573785897
 20
490.041058923573
 30
0
 11
1314.77011395996
 21
489.902646532362
 31
0
  0
LINE
  8
1
 62
7
 10
1315.213033611835
 20
490.133333851047
 30
0
 11
1314.991573785897
 21
490.041058923573
 31
0
  0
LINE
  8
1
 62
7
 10
1315.600588307226
 20
490.133333851047
 30
0
 11
1315.213033611835
 21
490.133333851047
 31
0
  0
LINE
  8
1
 62
7
 10
1315.822048133163
 20
490.041058923573
 30
0
 11
1315.600588307226
 21
490.133333851047
 31
0
  0
LINE
  8
1
 62
7
 10
1316.043507959101
 20
489.902646532362
 30
0
 11
1315.822048133163
 21
490.041058923573
 31
0
  0
LINE
  8
1
 62
7
 10
1316.15423787207
 20
489.7642341411511
 30
0
 11
1316.043507959101
 21
489.902646532362
 31
0
  0
LINE
  8
1
 62
7
 10
1316.264967785038
 20
489.5335468224661
 30
0
 11
1316.15423787207
 21
489.7642341411511
 31
0
  0
LINE
  8
1
 62
7
 10
1316.320332741523
 20
489.0260347213592
 30
0
 11
1316.264967785038
 21
489.5335468224661
 31
0
  0
LINE
  8
1
 62
7
 10
1316.320332741523
 20
488.4723851565151
 30
0
 11
1316.320332741523
 21
489.0260347213592
 31
0
  0
LINE
  8
1
 62
7
 10
1316.264967785038
 20
487.9648730554083
 30
0
 11
1316.320332741523
 21
488.4723851565151
 31
0
  0
LINE
  8
1
 62
7
 10
1316.15423787207
 20
487.7341857367233
 30
0
 11
1316.264967785038
 21
487.9648730554083
 31
0
  0
LINE
  8
1
 62
7
 10
1316.043507959101
 20
487.5957733455123
 30
0
 11
1316.15423787207
 21
487.7341857367233
 31
0
  0
LINE
  8
1
 62
7
 10
1315.822048133163
 20
487.4573609543014
 30
0
 11
1316.043507959101
 21
487.5957733455123
 31
0
  0
LINE
  8
1
 62
7
 10
1315.600588307226
 20
487.3650860268273
 30
0
 11
1315.822048133163
 21
487.4573609543014
 31
0
  0
LINE
  8
1
 62
7
 10
1315.213033611835
 20
487.3650860268273
 30
0
 11
1315.600588307226
 21
487.3650860268273
 31
0
  0
LINE
  8
1
 62
7
 10
1322.723872915586
 20
487.0421237806684
 30
0
 11
1322.889967785039
 21
487.1343987081423
 31
0
  0
LINE
  8
1
 62
7
 10
1322.447048133164
 20
486.9498488531943
 30
0
 11
1322.723872915586
 21
487.0421237806684
 31
0
  0
LINE
  8
1
 62
7
 10
1322.225588307226
 20
486.9037113894573
 30
0
 11
1322.447048133164
 21
486.9498488531943
 31
0
  0
LINE
  8
1
 62
7
 10
1321.838033611835
 20
486.9037113894573
 30
0
 11
1322.225588307226
 21
486.9037113894573
 31
0
  0
LINE
  8
1
 62
7
 10
1321.616573785898
 20
486.9498488531943
 30
0
 11
1321.838033611835
 21
486.9037113894573
 31
0
  0
LINE
  8
1
 62
7
 10
1321.339749003476
 20
487.0421237806684
 30
0
 11
1321.616573785898
 21
486.9498488531943
 31
0
  0
LINE
  8
1
 62
7
 10
1321.173654134023
 20
487.1343987081423
 30
0
 11
1321.339749003476
 21
487.0421237806684
 31
0
  0
LINE
  8
1
 62
7
 10
1321.007559264569
 20
487.2728110993534
 30
0
 11
1321.173654134023
 21
487.1343987081423
 31
0
  0
LINE
  8
1
 62
7
 10
1320.841464395116
 20
487.4573609543014
 30
0
 11
1321.007559264569
 21
487.2728110993534
 31
0
  0
LINE
  8
1
 62
7
 10
1320.730734482148
 20
487.6419108092493
 30
0
 11
1320.841464395116
 21
487.4573609543014
 31
0
  0
LINE
  8
1
 62
7
 10
1320.620004569179
 20
487.8725981279342
 30
0
 11
1320.730734482148
 21
487.6419108092493
 31
0
  0
LINE
  8
1
 62
7
 10
1320.564639612694
 20
488.1494229103562
 30
0
 11
1320.620004569179
 21
487.8725981279342
 31
0
  0
LINE
  8
1
 62
7
 10
1320.50927465621
 20
488.5646600839892
 30
0
 11
1320.564639612694
 21
488.1494229103562
 31
0
  0
LINE
  8
1
 62
7
 10
1320.50927465621
 20
488.9337597938851
 30
0
 11
1320.50927465621
 21
488.5646600839892
 31
0
  0
LINE
  8
1
 62
7
 10
1320.564639612694
 20
489.3489969675181
 30
0
 11
1320.50927465621
 21
488.9337597938851
 31
0
  0
LINE
  8
1
 62
7
 10
1320.620004569179
 20
489.6258217499399
 30
0
 11
1320.564639612694
 21
489.3489969675181
 31
0
  0
LINE
  8
1
 62
7
 10
1320.730734482148
 20
489.856509068625
 30
0
 11
1320.620004569179
 21
489.6258217499399
 31
0
  0
LINE
  8
1
 62
7
 10
1320.841464395116
 20
490.041058923573
 30
0
 11
1320.730734482148
 21
489.856509068625
 31
0
  0
LINE
  8
1
 62
7
 10
1321.007559264569
 20
490.2256087785211
 30
0
 11
1320.841464395116
 21
490.041058923573
 31
0
  0
LINE
  8
1
 62
7
 10
1321.173654134023
 20
490.3640211697319
 30
0
 11
1321.007559264569
 21
490.2256087785211
 31
0
  0
LINE
  8
1
 62
7
 10
1321.339749003476
 20
490.456296097206
 30
0
 11
1321.173654134023
 21
490.3640211697319
 31
0
  0
LINE
  8
1
 62
7
 10
1321.616573785898
 20
490.5485710246799
 30
0
 11
1321.339749003476
 21
490.456296097206
 31
0
  0
LINE
  8
1
 62
7
 10
1321.838033611835
 20
490.5947084884169
 30
0
 11
1321.616573785898
 21
490.5485710246799
 31
0
  0
LINE
  8
1
 62
7
 10
1322.225588307226
 20
490.5947084884169
 30
0
 11
1321.838033611835
 21
490.5947084884169
 31
0
  0
LINE
  8
1
 62
7
 10
1322.447048133164
 20
490.5485710246799
 30
0
 11
1322.225588307226
 21
490.5947084884169
 31
0
  0
LINE
  8
1
 62
7
 10
1322.723872915586
 20
490.456296097206
 30
0
 11
1322.447048133164
 21
490.5485710246799
 31
0
  0
LINE
  8
1
 62
7
 10
1322.889967785039
 20
490.3640211697319
 30
0
 11
1322.723872915586
 21
490.456296097206
 31
0
  0
LINE
  8
1
 62
7
 10
1323.056062654492
 20
490.2256087785211
 30
0
 11
1322.889967785039
 21
490.3640211697319
 31
0
  0
LINE
  8
1
 62
7
 10
1323.222157523945
 20
490.041058923573
 30
0
 11
1323.056062654492
 21
490.2256087785211
 31
0
  0
LINE
  8
1
 62
7
 10
1323.332887436914
 20
489.856509068625
 30
0
 11
1323.222157523945
 21
490.041058923573
 31
0
  0
LINE
  8
1
 62
7
 10
1323.443617349883
 20
489.6258217499399
 30
0
 11
1323.332887436914
 21
489.856509068625
 31
0
  0
LINE
  8
1
 62
7
 10
1323.498982306367
 20
489.3489969675181
 30
0
 11
1323.443617349883
 21
489.6258217499399
 31
0
  0
LINE
  8
1
 62
7
 10
1323.554347262852
 20
488.9337597938851
 30
0
 11
1323.498982306367
 21
489.3489969675181
 31
0
  0
LINE
  8
1
 62
7
 10
1323.554347262852
 20
488.5646600839892
 30
0
 11
1323.554347262852
 21
488.9337597938851
 31
0
  0
LINE
  8
1
 62
7
 10
1323.498982306367
 20
488.1494229103562
 30
0
 11
1323.554347262852
 21
488.5646600839892
 31
0
  0
LINE
  8
1
 62
7
 10
1323.443617349883
 20
487.8725981279342
 30
0
 11
1323.498982306367
 21
488.1494229103562
 31
0
  0
LINE
  8
1
 62
7
 10
1323.332887436914
 20
487.6419108092493
 30
0
 11
1323.443617349883
 21
487.8725981279342
 31
0
  0
LINE
  8
1
 62
7
 10
1323.222157523945
 20
487.4573609543014
 30
0
 11
1323.332887436914
 21
487.6419108092493
 31
0
  0
LINE
  8
1
 62
7
 10
1323.056062654492
 20
487.2728110993534
 30
0
 11
1323.222157523945
 21
487.4573609543014
 31
0
  0
LINE
  8
1
 62
7
 10
1322.889967785039
 20
487.1343987081423
 30
0
 11
1323.056062654492
 21
487.2728110993534
 31
0
  0
LINE
  8
1
 62
7
 10
1321.616573785898
 20
487.4573609543014
 30
0
 11
1321.838033611835
 21
487.3650860268273
 31
0
  0
LINE
  8
1
 62
7
 10
1321.39511395996
 20
487.5957733455123
 30
0
 11
1321.616573785898
 21
487.4573609543014
 31
0
  0
LINE
  8
1
 62
7
 10
1321.284384046991
 20
487.7341857367233
 30
0
 11
1321.39511395996
 21
487.5957733455123
 31
0
  0
LINE
  8
1
 62
7
 10
1321.173654134023
 20
487.9648730554083
 30
0
 11
1321.284384046991
 21
487.7341857367233
 31
0
  0
LINE
  8
1
 62
7
 10
1321.118289177538
 20
488.4723851565151
 30
0
 11
1321.173654134023
 21
487.9648730554083
 31
0
  0
LINE
  8
1
 62
7
 10
1321.118289177538
 20
489.0260347213592
 30
0
 11
1321.118289177538
 21
488.4723851565151
 31
0
  0
LINE
  8
1
 62
7
 10
1321.173654134023
 20
489.5335468224661
 30
0
 11
1321.118289177538
 21
489.0260347213592
 31
0
  0
LINE
  8
1
 62
7
 10
1321.284384046991
 20
489.7642341411511
 30
0
 11
1321.173654134023
 21
489.5335468224661
 31
0
  0
LINE
  8
1
 62
7
 10
1321.39511395996
 20
489.902646532362
 30
0
 11
1321.284384046991
 21
489.7642341411511
 31
0
  0
LINE
  8
1
 62
7
 10
1321.616573785898
 20
490.041058923573
 30
0
 11
1321.39511395996
 21
489.902646532362
 31
0
  0
LINE
  8
1
 62
7
 10
1321.838033611835
 20
490.133333851047
 30
0
 11
1321.616573785898
 21
490.041058923573
 31
0
  0
LINE
  8
1
 62
7
 10
1322.225588307226
 20
490.133333851047
 30
0
 11
1321.838033611835
 21
490.133333851047
 31
0
  0
LINE
  8
1
 62
7
 10
1322.447048133164
 20
490.041058923573
 30
0
 11
1322.225588307226
 21
490.133333851047
 31
0
  0
LINE
  8
1
 62
7
 10
1322.668507959101
 20
489.902646532362
 30
0
 11
1322.447048133164
 21
490.041058923573
 31
0
  0
LINE
  8
1
 62
7
 10
1322.77923787207
 20
489.7642341411511
 30
0
 11
1322.668507959101
 21
489.902646532362
 31
0
  0
LINE
  8
1
 62
7
 10
1322.889967785039
 20
489.5335468224661
 30
0
 11
1322.77923787207
 21
489.7642341411511
 31
0
  0
LINE
  8
1
 62
7
 10
1322.945332741523
 20
489.0260347213592
 30
0
 11
1322.889967785039
 21
489.5335468224661
 31
0
  0
LINE
  8
1
 62
7
 10
1322.945332741523
 20
488.4723851565151
 30
0
 11
1322.945332741523
 21
489.0260347213592
 31
0
  0
LINE
  8
1
 62
7
 10
1322.889967785039
 20
487.9648730554083
 30
0
 11
1322.945332741523
 21
488.4723851565151
 31
0
  0
LINE
  8
1
 62
7
 10
1322.77923787207
 20
487.7341857367233
 30
0
 11
1322.889967785039
 21
487.9648730554083
 31
0
  0
LINE
  8
1
 62
7
 10
1322.668507959101
 20
487.5957733455123
 30
0
 11
1322.77923787207
 21
487.7341857367233
 31
0
  0
LINE
  8
1
 62
7
 10
1322.447048133164
 20
487.4573609543014
 30
0
 11
1322.668507959101
 21
487.5957733455123
 31
0
  0
LINE
  8
1
 62
7
 10
1322.225588307226
 20
487.3650860268273
 30
0
 11
1322.447048133164
 21
487.4573609543014
 31
0
  0
LINE
  8
1
 62
7
 10
1321.838033611835
 20
487.3650860268273
 30
0
 11
1322.225588307226
 21
487.3650860268273
 31
0
  0
LINE
  8
1
 62
7
 10
1329.348872915586
 20
487.0421237806684
 30
0
 11
1329.514967785039
 21
487.1343987081423
 31
0
  0
LINE
  8
1
 62
7
 10
1329.072048133164
 20
486.9498488531943
 30
0
 11
1329.348872915586
 21
487.0421237806684
 31
0
  0
LINE
  8
1
 62
7
 10
1328.850588307227
 20
486.9037113894573
 30
0
 11
1329.072048133164
 21
486.9498488531943
 31
0
  0
LINE
  8
1
 62
7
 10
1328.463033611836
 20
486.9037113894573
 30
0
 11
1328.850588307227
 21
486.9037113894573
 31
0
  0
LINE
  8
1
 62
7
 10
1328.241573785898
 20
486.9498488531943
 30
0
 11
1328.463033611836
 21
486.9037113894573
 31
0
  0
LINE
  8
1
 62
7
 10
1327.964749003476
 20
487.0421237806684
 30
0
 11
1328.241573785898
 21
486.9498488531943
 31
0
  0
LINE
  8
1
 62
7
 10
1327.798654134023
 20
487.1343987081423
 30
0
 11
1327.964749003476
 21
487.0421237806684
 31
0
  0
LINE
  8
1
 62
7
 10
1327.63255926457
 20
487.2728110993534
 30
0
 11
1327.798654134023
 21
487.1343987081423
 31
0
  0
LINE
  8
1
 62
7
 10
1327.466464395117
 20
487.4573609543014
 30
0
 11
1327.63255926457
 21
487.2728110993534
 31
0
  0
LINE
  8
1
 62
7
 10
1327.355734482148
 20
487.6419108092493
 30
0
 11
1327.466464395117
 21
487.4573609543014
 31
0
  0
LINE
  8
1
 62
7
 10
1327.245004569179
 20
487.8725981279342
 30
0
 11
1327.355734482148
 21
487.6419108092493
 31
0
  0
LINE
  8
1
 62
7
 10
1327.189639612695
 20
488.1494229103562
 30
0
 11
1327.245004569179
 21
487.8725981279342
 31
0
  0
LINE
  8
1
 62
7
 10
1327.13427465621
 20
488.5646600839892
 30
0
 11
1327.189639612695
 21
488.1494229103562
 31
0
  0
LINE
  8
1
 62
7
 10
1327.13427465621
 20
488.9337597938851
 30
0
 11
1327.13427465621
 21
488.5646600839892
 31
0
  0
LINE
  8
1
 62
7
 10
1327.189639612695
 20
489.3489969675181
 30
0
 11
1327.13427465621
 21
488.9337597938851
 31
0
  0
LINE
  8
1
 62
7
 10
1327.245004569179
 20
489.6258217499399
 30
0
 11
1327.189639612695
 21
489.3489969675181
 31
0
  0
LINE
  8
1
 62
7
 10
1327.355734482148
 20
489.856509068625
 30
0
 11
1327.245004569179
 21
489.6258217499399
 31
0
  0
LINE
  8
1
 62
7
 10
1327.466464395117
 20
490.041058923573
 30
0
 11
1327.355734482148
 21
489.856509068625
 31
0
  0
LINE
  8
1
 62
7
 10
1327.63255926457
 20
490.2256087785211
 30
0
 11
1327.466464395117
 21
490.041058923573
 31
0
  0
LINE
  8
1
 62
7
 10
1327.798654134023
 20
490.3640211697319
 30
0
 11
1327.63255926457
 21
490.2256087785211
 31
0
  0
LINE
  8
1
 62
7
 10
1327.964749003476
 20
490.456296097206
 30
0
 11
1327.798654134023
 21
490.3640211697319
 31
0
  0
LINE
  8
1
 62
7
 10
1328.241573785898
 20
490.5485710246799
 30
0
 11
1327.964749003476
 21
490.456296097206
 31
0
  0
LINE
  8
1
 62
7
 10
1328.463033611836
 20
490.5947084884169
 30
0
 11
1328.241573785898
 21
490.5485710246799
 31
0
  0
LINE
  8
1
 62
7
 10
1328.850588307227
 20
490.5947084884169
 30
0
 11
1328.463033611836
 21
490.5947084884169
 31
0
  0
LINE
  8
1
 62
7
 10
1329.072048133164
 20
490.5485710246799
 30
0
 11
1328.850588307227
 21
490.5947084884169
 31
0
  0
LINE
  8
1
 62
7
 10
1329.348872915586
 20
490.456296097206
 30
0
 11
1329.072048133164
 21
490.5485710246799
 31
0
  0
LINE
  8
1
 62
7
 10
1329.514967785039
 20
490.3640211697319
 30
0
 11
1329.348872915586
 21
490.456296097206
 31
0
  0
LINE
  8
1
 62
7
 10
1329.681062654492
 20
490.2256087785211
 30
0
 11
1329.514967785039
 21
490.3640211697319
 31
0
  0
LINE
  8
1
 62
7
 10
1329.847157523946
 20
490.041058923573
 30
0
 11
1329.681062654492
 21
490.2256087785211
 31
0
  0
LINE
  8
1
 62
7
 10
1329.957887436915
 20
489.856509068625
 30
0
 11
1329.847157523946
 21
490.041058923573
 31
0
  0
LINE
  8
1
 62
7
 10
1330.068617349883
 20
489.6258217499399
 30
0
 11
1329.957887436915
 21
489.856509068625
 31
0
  0
LINE
  8
1
 62
7
 10
1330.123982306368
 20
489.3489969675181
 30
0
 11
1330.068617349883
 21
489.6258217499399
 31
0
  0
LINE
  8
1
 62
7
 10
1330.179347262852
 20
488.9337597938851
 30
0
 11
1330.123982306368
 21
489.3489969675181
 31
0
  0
LINE
  8
1
 62
7
 10
1330.179347262852
 20
488.5646600839892
 30
0
 11
1330.179347262852
 21
488.9337597938851
 31
0
  0
LINE
  8
1
 62
7
 10
1330.123982306368
 20
488.1494229103562
 30
0
 11
1330.179347262852
 21
488.5646600839892
 31
0
  0
LINE
  8
1
 62
7
 10
1330.068617349883
 20
487.8725981279342
 30
0
 11
1330.123982306368
 21
488.1494229103562
 31
0
  0
LINE
  8
1
 62
7
 10
1329.957887436915
 20
487.6419108092493
 30
0
 11
1330.068617349883
 21
487.8725981279342
 31
0
  0
LINE
  8
1
 62
7
 10
1329.847157523946
 20
487.4573609543014
 30
0
 11
1329.957887436915
 21
487.6419108092493
 31
0
  0
LINE
  8
1
 62
7
 10
1329.681062654492
 20
487.2728110993534
 30
0
 11
1329.847157523946
 21
487.4573609543014
 31
0
  0
LINE
  8
1
 62
7
 10
1329.514967785039
 20
487.1343987081423
 30
0
 11
1329.681062654492
 21
487.2728110993534
 31
0
  0
LINE
  8
1
 62
7
 10
1328.241573785898
 20
487.4573609543014
 30
0
 11
1328.463033611836
 21
487.3650860268273
 31
0
  0
LINE
  8
1
 62
7
 10
1328.020113959961
 20
487.5957733455123
 30
0
 11
1328.241573785898
 21
487.4573609543014
 31
0
  0
LINE
  8
1
 62
7
 10
1327.909384046992
 20
487.7341857367233
 30
0
 11
1328.020113959961
 21
487.5957733455123
 31
0
  0
LINE
  8
1
 62
7
 10
1327.798654134023
 20
487.9648730554083
 30
0
 11
1327.909384046992
 21
487.7341857367233
 31
0
  0
LINE
  8
1
 62
7
 10
1327.743289177539
 20
488.4723851565151
 30
0
 11
1327.798654134023
 21
487.9648730554083
 31
0
  0
LINE
  8
1
 62
7
 10
1327.743289177539
 20
489.0260347213592
 30
0
 11
1327.743289177539
 21
488.4723851565151
 31
0
  0
LINE
  8
1
 62
7
 10
1327.798654134023
 20
489.5335468224661
 30
0
 11
1327.743289177539
 21
489.0260347213592
 31
0
  0
LINE
  8
1
 62
7
 10
1327.909384046992
 20
489.7642341411511
 30
0
 11
1327.798654134023
 21
489.5335468224661
 31
0
  0
LINE
  8
1
 62
7
 10
1328.020113959961
 20
489.902646532362
 30
0
 11
1327.909384046992
 21
489.7642341411511
 31
0
  0
LINE
  8
1
 62
7
 10
1328.241573785898
 20
490.041058923573
 30
0
 11
1328.020113959961
 21
489.902646532362
 31
0
  0
LINE
  8
1
 62
7
 10
1328.463033611836
 20
490.133333851047
 30
0
 11
1328.241573785898
 21
490.041058923573
 31
0
  0
LINE
  8
1
 62
7
 10
1328.850588307227
 20
490.133333851047
 30
0
 11
1328.463033611836
 21
490.133333851047
 31
0
  0
LINE
  8
1
 62
7
 10
1329.072048133164
 20
490.041058923573
 30
0
 11
1328.850588307227
 21
490.133333851047
 31
0
  0
LINE
  8
1
 62
7
 10
1329.293507959102
 20
489.902646532362
 30
0
 11
1329.072048133164
 21
490.041058923573
 31
0
  0
LINE
  8
1
 62
7
 10
1329.404237872071
 20
489.7642341411511
 30
0
 11
1329.293507959102
 21
489.902646532362
 31
0
  0
LINE
  8
1
 62
7
 10
1329.514967785039
 20
489.5335468224661
 30
0
 11
1329.404237872071
 21
489.7642341411511
 31
0
  0
LINE
  8
1
 62
7
 10
1329.570332741524
 20
489.0260347213592
 30
0
 11
1329.514967785039
 21
489.5335468224661
 31
0
  0
LINE
  8
1
 62
7
 10
1329.570332741524
 20
488.4723851565151
 30
0
 11
1329.570332741524
 21
489.0260347213592
 31
0
  0
LINE
  8
1
 62
7
 10
1329.514967785039
 20
487.9648730554083
 30
0
 11
1329.570332741524
 21
488.4723851565151
 31
0
  0
LINE
  8
1
 62
7
 10
1329.404237872071
 20
487.7341857367233
 30
0
 11
1329.514967785039
 21
487.9648730554083
 31
0
  0
LINE
  8
1
 62
7
 10
1329.293507959102
 20
487.5957733455123
 30
0
 11
1329.404237872071
 21
487.7341857367233
 31
0
  0
LINE
  8
1
 62
7
 10
1329.072048133164
 20
487.4573609543014
 30
0
 11
1329.293507959102
 21
487.5957733455123
 31
0
  0
LINE
  8
1
 62
7
 10
1328.850588307227
 20
487.3650860268273
 30
0
 11
1329.072048133164
 21
487.4573609543014
 31
0
  0
LINE
  8
1
 62
7
 10
1328.463033611836
 20
487.3650860268273
 30
0
 11
1328.850588307227
 21
487.3650860268273
 31
0
  0
LINE
  8
1
 62
7
 10
1335.973872915587
 20
487.0421237806684
 30
0
 11
1336.13996778504
 21
487.1343987081423
 31
0
  0
LINE
  8
1
 62
7
 10
1335.697048133165
 20
486.9498488531943
 30
0
 11
1335.973872915587
 21
487.0421237806684
 31
0
  0
LINE
  8
1
 62
7
 10
1335.475588307227
 20
486.9037113894573
 30
0
 11
1335.697048133165
 21
486.9498488531943
 31
0
  0
LINE
  8
1
 62
7
 10
1335.088033611836
 20
486.9037113894573
 30
0
 11
1335.475588307227
 21
486.9037113894573
 31
0
  0
LINE
  8
1
 62
7
 10
1334.866573785899
 20
486.9498488531943
 30
0
 11
1335.088033611836
 21
486.9037113894573
 31
0
  0
LINE
  8
1
 62
7
 10
1334.589749003477
 20
487.0421237806684
 30
0
 11
1334.866573785899
 21
486.9498488531943
 31
0
  0
LINE
  8
1
 62
7
 10
1334.423654134024
 20
487.1343987081423
 30
0
 11
1334.589749003477
 21
487.0421237806684
 31
0
  0
LINE
  8
1
 62
7
 10
1334.25755926457
 20
487.2728110993534
 30
0
 11
1334.423654134024
 21
487.1343987081423
 31
0
  0
LINE
  8
1
 62
7
 10
1334.091464395117
 20
487.4573609543014
 30
0
 11
1334.25755926457
 21
487.2728110993534
 31
0
  0
LINE
  8
1
 62
7
 10
1333.980734482148
 20
487.6419108092493
 30
0
 11
1334.091464395117
 21
487.4573609543014
 31
0
  0
LINE
  8
1
 62
7
 10
1333.87000456918
 20
487.8725981279342
 30
0
 11
1333.980734482148
 21
487.6419108092493
 31
0
  0
LINE
  8
1
 62
7
 10
1333.814639612695
 20
488.1494229103562
 30
0
 11
1333.87000456918
 21
487.8725981279342
 31
0
  0
LINE
  8
1
 62
7
 10
1333.759274656211
 20
488.5646600839892
 30
0
 11
1333.814639612695
 21
488.1494229103562
 31
0
  0
LINE
  8
1
 62
7
 10
1333.759274656211
 20
488.9337597938851
 30
0
 11
1333.759274656211
 21
488.5646600839892
 31
0
  0
LINE
  8
1
 62
7
 10
1333.814639612695
 20
489.3489969675181
 30
0
 11
1333.759274656211
 21
488.9337597938851
 31
0
  0
LINE
  8
1
 62
7
 10
1333.87000456918
 20
489.6258217499399
 30
0
 11
1333.814639612695
 21
489.3489969675181
 31
0
  0
LINE
  8
1
 62
7
 10
1333.980734482148
 20
489.856509068625
 30
0
 11
1333.87000456918
 21
489.6258217499399
 31
0
  0
LINE
  8
1
 62
7
 10
1334.091464395117
 20
490.041058923573
 30
0
 11
1333.980734482148
 21
489.856509068625
 31
0
  0
LINE
  8
1
 62
7
 10
1334.25755926457
 20
490.2256087785211
 30
0
 11
1334.091464395117
 21
490.041058923573
 31
0
  0
LINE
  8
1
 62
7
 10
1334.423654134024
 20
490.3640211697319
 30
0
 11
1334.25755926457
 21
490.2256087785211
 31
0
  0
LINE
  8
1
 62
7
 10
1334.589749003477
 20
490.456296097206
 30
0
 11
1334.423654134024
 21
490.3640211697319
 31
0
  0
LINE
  8
1
 62
7
 10
1334.866573785899
 20
490.5485710246799
 30
0
 11
1334.589749003477
 21
490.456296097206
 31
0
  0
LINE
  8
1
 62
7
 10
1335.088033611836
 20
490.5947084884169
 30
0
 11
1334.866573785899
 21
490.5485710246799
 31
0
  0
LINE
  8
1
 62
7
 10
1335.475588307227
 20
490.5947084884169
 30
0
 11
1335.088033611836
 21
490.5947084884169
 31
0
  0
LINE
  8
1
 62
7
 10
1335.697048133165
 20
490.5485710246799
 30
0
 11
1335.475588307227
 21
490.5947084884169
 31
0
  0
LINE
  8
1
 62
7
 10
1335.973872915587
 20
490.456296097206
 30
0
 11
1335.697048133165
 21
490.5485710246799
 31
0
  0
LINE
  8
1
 62
7
 10
1336.13996778504
 20
490.3640211697319
 30
0
 11
1335.973872915587
 21
490.456296097206
 31
0
  0
LINE
  8
1
 62
7
 10
1336.306062654493
 20
490.2256087785211
 30
0
 11
1336.13996778504
 21
490.3640211697319
 31
0
  0
LINE
  8
1
 62
7
 10
1336.472157523946
 20
490.041058923573
 30
0
 11
1336.306062654493
 21
490.2256087785211
 31
0
  0
LINE
  8
1
 62
7
 10
1336.582887436915
 20
489.856509068625
 30
0
 11
1336.472157523946
 21
490.041058923573
 31
0
  0
LINE
  8
1
 62
7
 10
1336.693617349884
 20
489.6258217499399
 30
0
 11
1336.582887436915
 21
489.856509068625
 31
0
  0
LINE
  8
1
 62
7
 10
1336.748982306368
 20
489.3489969675181
 30
0
 11
1336.693617349884
 21
489.6258217499399
 31
0
  0
LINE
  8
1
 62
7
 10
1336.804347262852
 20
488.9337597938851
 30
0
 11
1336.748982306368
 21
489.3489969675181
 31
0
  0
LINE
  8
1
 62
7
 10
1336.804347262852
 20
488.5646600839892
 30
0
 11
1336.804347262852
 21
488.9337597938851
 31
0
  0
LINE
  8
1
 62
7
 10
1336.748982306368
 20
488.1494229103562
 30
0
 11
1336.804347262852
 21
488.5646600839892
 31
0
  0
LINE
  8
1
 62
7
 10
1336.693617349884
 20
487.8725981279342
 30
0
 11
1336.748982306368
 21
488.1494229103562
 31
0
  0
LINE
  8
1
 62
7
 10
1336.582887436915
 20
487.6419108092493
 30
0
 11
1336.693617349884
 21
487.8725981279342
 31
0
  0
LINE
  8
1
 62
7
 10
1336.472157523946
 20
487.4573609543014
 30
0
 11
1336.582887436915
 21
487.6419108092493
 31
0
  0
LINE
  8
1
 62
7
 10
1336.306062654493
 20
487.2728110993534
 30
0
 11
1336.472157523946
 21
487.4573609543014
 31
0
  0
LINE
  8
1
 62
7
 10
1336.13996778504
 20
487.1343987081423
 30
0
 11
1336.306062654493
 21
487.2728110993534
 31
0
  0
LINE
  8
1
 62
7
 10
1334.866573785899
 20
487.4573609543014
 30
0
 11
1335.088033611836
 21
487.3650860268273
 31
0
  0
LINE
  8
1
 62
7
 10
1334.645113959961
 20
487.5957733455123
 30
0
 11
1334.866573785899
 21
487.4573609543014
 31
0
  0
LINE
  8
1
 62
7
 10
1334.534384046992
 20
487.7341857367233
 30
0
 11
1334.645113959961
 21
487.5957733455123
 31
0
  0
LINE
  8
1
 62
7
 10
1334.423654134024
 20
487.9648730554083
 30
0
 11
1334.534384046992
 21
487.7341857367233
 31
0
  0
LINE
  8
1
 62
7
 10
1334.368289177539
 20
488.4723851565151
 30
0
 11
1334.423654134024
 21
487.9648730554083
 31
0
  0
LINE
  8
1
 62
7
 10
1334.368289177539
 20
489.0260347213592
 30
0
 11
1334.368289177539
 21
488.4723851565151
 31
0
  0
LINE
  8
1
 62
7
 10
1334.423654134024
 20
489.5335468224661
 30
0
 11
1334.368289177539
 21
489.0260347213592
 31
0
  0
LINE
  8
1
 62
7
 10
1334.534384046992
 20
489.7642341411511
 30
0
 11
1334.423654134024
 21
489.5335468224661
 31
0
  0
LINE
  8
1
 62
7
 10
1334.645113959961
 20
489.902646532362
 30
0
 11
1334.534384046992
 21
489.7642341411511
 31
0
  0
LINE
  8
1
 62
7
 10
1334.866573785899
 20
490.041058923573
 30
0
 11
1334.645113959961
 21
489.902646532362
 31
0
  0
LINE
  8
1
 62
7
 10
1335.088033611836
 20
490.133333851047
 30
0
 11
1334.866573785899
 21
490.041058923573
 31
0
  0
LINE
  8
1
 62
7
 10
1335.475588307227
 20
490.133333851047
 30
0
 11
1335.088033611836
 21
490.133333851047
 31
0
  0
LINE
  8
1
 62
7
 10
1335.697048133165
 20
490.041058923573
 30
0
 11
1335.475588307227
 21
490.133333851047
 31
0
  0
LINE
  8
1
 62
7
 10
1335.918507959102
 20
489.902646532362
 30
0
 11
1335.697048133165
 21
490.041058923573
 31
0
  0
LINE
  8
1
 62
7
 10
1336.029237872071
 20
489.7642341411511
 30
0
 11
1335.918507959102
 21
489.902646532362
 31
0
  0
LINE
  8
1
 62
7
 10
1336.13996778504
 20
489.5335468224661
 30
0
 11
1336.029237872071
 21
489.7642341411511
 31
0
  0
LINE
  8
1
 62
7
 10
1336.195332741524
 20
489.0260347213592
 30
0
 11
1336.13996778504
 21
489.5335468224661
 31
0
  0
LINE
  8
1
 62
7
 10
1336.195332741524
 20
488.4723851565151
 30
0
 11
1336.195332741524
 21
489.0260347213592
 31
0
  0
LINE
  8
1
 62
7
 10
1336.13996778504
 20
487.9648730554083
 30
0
 11
1336.195332741524
 21
488.4723851565151
 31
0
  0
LINE
  8
1
 62
7
 10
1336.029237872071
 20
487.7341857367233
 30
0
 11
1336.13996778504
 21
487.9648730554083
 31
0
  0
LINE
  8
1
 62
7
 10
1335.918507959102
 20
487.5957733455123
 30
0
 11
1336.029237872071
 21
487.7341857367233
 31
0
  0
LINE
  8
1
 62
7
 10
1335.697048133165
 20
487.4573609543014
 30
0
 11
1335.918507959102
 21
487.5957733455123
 31
0
  0
LINE
  8
1
 62
7
 10
1335.475588307227
 20
487.3650860268273
 30
0
 11
1335.697048133165
 21
487.4573609543014
 31
0
  0
LINE
  8
1
 62
7
 10
1335.088033611836
 20
487.3650860268273
 30
0
 11
1335.475588307227
 21
487.3650860268273
 31
0
  0
LINE
  8
1
 62
7
 10
1341.680777559167
 20
486.9037113894576
 30
0
 11
1342.142152196537
 21
486.9037113894576
 31
0
  0
LINE
  8
1
 62
7
 10
1341.680777559167
 20
489.5796842862033
 30
0
 11
1341.680777559167
 21
486.9037113894576
 31
0
  0
LINE
  8
1
 62
7
 10
1340.804165748165
 20
489.5796842862033
 30
0
 11
1341.680777559167
 21
489.5796842862033
 31
0
  0
LINE
  8
1
 62
7
 10
1340.804165748165
 20
489.9487839960992
 30
0
 11
1340.804165748165
 21
489.5796842862033
 31
0
  0
LINE
  8
1
 62
7
 10
1340.896440675638
 20
489.9487839960992
 30
0
 11
1340.804165748165
 21
489.9487839960992
 31
0
  0
LINE
  8
1
 62
7
 10
1341.127127994323
 20
489.9949214598361
 30
0
 11
1340.896440675638
 21
489.9487839960992
 31
0
  0
LINE
  8
1
 62
7
 10
1341.265540385534
 20
490.0410589235731
 30
0
 11
1341.127127994323
 21
489.9949214598361
 31
0
  0
LINE
  8
1
 62
7
 10
1341.450090240482
 20
490.1333338510472
 30
0
 11
1341.265540385534
 21
490.0410589235731
 31
0
  0
LINE
  8
1
 62
7
 10
1341.588502631693
 20
490.2717462422581
 30
0
 11
1341.450090240482
 21
490.1333338510472
 31
0
  0
LINE
  8
1
 62
7
 10
1341.726915022904
 20
490.4562960972061
 30
0
 11
1341.588502631693
 21
490.2717462422581
 31
0
  0
LINE
  8
1
 62
7
 10
1341.773052486641
 20
490.5947084884172
 30
0
 11
1341.726915022904
 21
490.4562960972061
 31
0
  0
LINE
  8
1
 62
7
 10
1342.142152196537
 20
490.5947084884172
 30
0
 11
1341.773052486641
 21
490.5947084884172
 31
0
  0
LINE
  8
1
 62
7
 10
1342.142152196537
 20
486.9037113894576
 30
0
 11
1342.142152196537
 21
490.5947084884172
 31
0
  0
LINE
  8
1
 62
7
 10
1312.177217426332
 20
492.4615205401673
 30
0
 11
1312.177217426332
 21
488.8497150023255
 31
0
  0
LINE
  8
1
 62
7
 10
1370.723158972351
 20
492.4615205401667
 30
0
 11
1370.723158972351
 21
493.8202777508025
 31
0
  0
LINE
  8
1
 62
7
 10
1370.723158972351
 20
492.1079671495733
 30
0
 11
1370.723158972351
 21
492.4615205401667
 31
0
  0
LINE
  8
1
 62
7
 10
1368.638760398049
 20
482.7388022988516
 30
0
 11
1363.223158972351
 21
482.7388022988516
 31
0
  0
LINE
  8
1
 62
7
 10
1370.223158972351
 20
485.7272160031263
 30
0
 11
1370.223158972351
 21
488.4992099389363
 31
0
  0
LINE
  8
1
 62
7
 10
1370.723158972351
 20
488.9992099389363
 30
0
 11
1370.223158972351
 21
488.9992099389363
 31
0
  0
LINE
  8
1
 62
7
 10
1370.723158972351
 20
492.1079671495733
 30
0
 11
1346.071220687281
 21
492.1079671495742
 31
0
  0
LINE
  8
1
 62
7
 10
1312.177217426332
 20
492.4615205401673
 30
0
 11
1370.723158972351
 21
492.4615205401667
 31
0
  0
LINE
  8
1
 62
7
 10
1363.223158972351
 20
482.7388022988516
 30
0
 11
1363.223158972351
 21
485.036899337707
 31
0
  0
LINE
  8
1
 62
7
 10
1363.223158972351
 20
485.036899337707
 30
0
 11
1312.932627835245
 21
485.036899337708
 31
0
  0
LINE
  8
1
 62
7
 10
1365.223158972351
 20
484.1530158612246
 30
0
 11
1369.551579962425
 21
484.1530158612246
 31
0
  0
LINE
  8
1
 62
7
 10
1370.223158972351
 20
491.0473069777925
 30
0
 11
1347.571220687281
 21
491.0473069777934
 31
0
  0
LINE
  8
1
 62
7
 10
1347.571220687281
 20
491.0473069777934
 30
0
 11
1347.571220687281
 21
486.4511129000812
 31
0
  0
LINE
  8
1
 62
7
 10
1347.571220687281
 20
486.4511129000812
 30
0
 11
1365.223158972351
 21
486.4511129000803
 31
0
  0
LINE
  8
1
 62
7
 10
1365.223158972351
 20
486.4511129000803
 30
0
 11
1365.223158972351
 21
484.1530158612246
 31
0
  0
LINE
  8
1
 62
7
 10
1346.071220687281
 20
485.390452728302
 30
0
 11
1363.723158972351
 21
485.3904527283011
 31
0
  0
LINE
  8
1
 62
7
 10
1363.723158972351
 20
485.3904527283011
 30
0
 11
1363.723158972351
 21
483.0923556894448
 31
0
  0
LINE
  8
1
 62
7
 10
1363.723158972351
 20
483.0923556894448
 30
0
 11
1368.89951596935
 21
483.0923556894447
 31
0
  0
LINE
  8
1
 62
7
 10
1370.223158972351
 20
488.9992099389363
 30
0
 11
1370.223158972351
 21
491.0473069777925
 31
0
  0
LINE
  8
1
 62
7
 10
1370.223158972351
 20
488.4992099389363
 30
0
 11
1370.717014394586
 21
488.4992099389363
 31
0
  0
LINE
  8
1
 62
7
 10
1370.223158972351
 20
488.4992099389363
 30
0
 11
1370.223158972351
 21
488.9992099389363
 31
0
  0
LINE
  8
1
 62
7
 10
1346.071220687281
 20
492.1079671495742
 30
0
 11
1346.071220687281
 21
485.390452728302
 31
0
  0
LINE
  8
1
 62
7
 10
1312.723158972351
 20
486.4511129000812
 30
0
 11
1344.071220687281
 21
486.4511129000807
 31
0
  0
LINE
  8
1
 62
7
 10
1312.723158972351
 20
491.0473069777934
 30
0
 11
1312.723158972351
 21
486.4511129000812
 31
0
  0
LINE
  8
1
 62
7
 10
1344.071220687281
 20
486.4511129000807
 30
0
 11
1344.071220687281
 21
491.0473069777934
 31
0
  0
LINE
  8
1
 62
7
 10
1344.071220687281
 20
491.0473069777934
 30
0
 11
1312.723158972351
 21
491.0473069777934
 31
0
  0
LINE
  8
1
 62
7
 10
1369.997775530924
 20
488.5492099389372
 30
0
 11
1369.997775530924
 21
488.9492099389371
 31
0
  0
LINE
  8
1
 62
7
 10
1368.737770667364
 20
488.5492099389372
 30
0
 11
1369.997775530924
 21
488.5492099389372
 31
0
  0
LINE
  8
1
 62
7
 10
1368.737770667364
 20
488.9492099389371
 30
0
 11
1368.737770667364
 21
488.5492099389372
 31
0
  0
LINE
  8
1
 62
7
 10
1369.997775530924
 20
488.9492099389371
 30
0
 11
1368.737770667364
 21
488.9492099389371
 31
0
  0
LINE
  8
1
 62
7
 10
1339.863174609284
 20
494.9584811784469
 30
0
 11
1340.223174609284
 21
494.9584811784469
 31
0
  0
LINE
  8
1
 62
7
 10
1342.653174609284
 20
492.7264811784468
 30
0
 11
1343.013174609284
 21
492.7264811784468
 31
0
  0
LINE
  8
1
 62
7
 10
1341.258174609284
 20
492.7264811784468
 30
0
 11
1341.618174609284
 21
492.7264811784468
 31
0
  0
LINE
  8
1
 62
7
 10
1339.863174609284
 20
492.7264811784468
 30
0
 11
1340.223174609284
 21
492.7264811784468
 31
0
  0
LINE
  8
1
 62
7
 10
1343.013174609284
 20
492.7264811784468
 30
0
 11
1343.013174609284
 21
494.0809811784466
 31
0
  0
LINE
  8
1
 62
7
 10
1342.653174609284
 20
492.7264811784468
 30
0
 11
1342.653174609284
 21
494.0809811784466
 31
0
  0
LINE
  8
1
 62
7
 10
1341.618174609284
 20
492.7264811784468
 30
0
 11
1341.618174609284
 21
494.0809811784466
 31
0
  0
LINE
  8
1
 62
7
 10
1341.258174609284
 20
492.7264811784468
 30
0
 11
1341.258174609284
 21
494.0809811784466
 31
0
  0
LINE
  8
1
 62
7
 10
1340.223174609284
 20
494.789641887108
 30
0
 11
1340.223174609284
 21
494.9584811784469
 31
0
  0
LINE
  8
1
 62
7
 10
1340.223174609284
 20
492.7264811784468
 30
0
 11
1340.223174609284
 21
494.0809811784466
 31
0
  0
LINE
  8
1
 62
7
 10
1339.863174609284
 20
492.7264811784468
 30
0
 11
1339.863174609284
 21
494.9584811784469
 31
0
  0
LINE
  8
1
 62
7
 10
1342.653174609284
 20
492.7264811784468
 30
0
 11
1343.013174609284
 21
492.7264811784468
 31
0
  0
LINE
  8
1
 62
7
 10
1341.258174609284
 20
492.7264811784468
 30
0
 11
1341.618174609284
 21
492.7264811784468
 31
0
  0
LINE
  8
1
 62
7
 10
1339.863174609284
 20
492.7264811784468
 30
0
 11
1340.223174609284
 21
492.7264811784468
 31
0
  0
LINE
  8
1
 62
7
 10
1371.473158972351
 20
438.6456565483439
 30
0
 11
1373.973158972351
 21
438.645656548344
 31
0
  0
LINE
  8
1
 62
7
 10
1371.473158972351
 20
438.6456565483439
 30
0
 11
1371.473158972351
 21
436.6456565483439
 31
0
  0
LINE
  8
1
 62
7
 10
1311.473158972351
 20
438.6456565483439
 30
0
 11
1371.473158972351
 21
438.6456565483439
 31
0
  0
LINE
  8
1
 62
7
 10
1311.473158972351
 20
438.6456565483439
 30
0
 11
1311.473158972351
 21
436.6456565483439
 31
0
  0
LINE
  8
1
 62
7
 10
1375.973158972351
 20
445.6456565483439
 30
0
 11
1306.973158972351
 21
445.6456565483439
 31
0
  0
LINE
  8
1
 62
7
 10
1306.973158972351
 20
445.6456565483439
 30
0
 11
1296.473158972351
 21
445.6456565483439
 31
0
  0
LINE
  8
1
 62
7
 10
1307.973158972351
 20
439.6456565483439
 30
0
 11
1307.973158972351
 21
444.6456565483439
 31
0
  0
LINE
  8
1
 62
7
 10
1374.973158972351
 20
439.6456565483439
 30
0
 11
1374.973158972351
 21
444.6456565483439
 31
0
  0
LINE
  8
1
 62
7
 10
1308.973158972351
 20
438.645656548344
 30
0
 11
1311.473158972351
 21
438.6456565483439
 31
0
  0
LINE
  8
1
 62
7
 10
1312.177217426332
 20
493.8202777508025
 30
0
 11
1312.177217426332
 21
494.5273845319892
 31
0
  0
LINE
  8
1
 62
7
 10
1370.723158972351
 20
493.8202777508025
 30
0
 11
1370.723158972351
 21
494.5273845319892
 31
0
  0
LINE
  8
1
 62
7
 10
1312.177217426332
 20
493.8202777508025
 30
0
 11
1312.177217426332
 21
492.4615205401673
 31
0
  0
LINE
  8
1
 62
7
 10
1314.177217426332
 20
495.8202777508025
 30
0
 11
1368.723158972351
 21
495.8202777508025
 31
0
  0
LINE
  8
1
 62
7
 10
1368.723158972351
 20
496.5273845319892
 30
0
 11
1314.177217426332
 21
496.5273845319892
 31
0
  0
LINE
  8
1
 62
7
 10
1370.723158972351
 20
488.8497150023255
 30
0
 11
1370.723158972351
 21
492.1079671495733
 31
0
  0
LINE
  8
1
 62
7
 10
1322.177217426332
 20
478.8497150023255
 30
0
 11
1360.723158972351
 21
478.8497150023255
 31
0
  0
LINE
  8
1
 62
7
 10
1347.48044951158
 20
467.1456565483439
 30
0
 11
1382.973158972351
 21
467.1456565483439
 31
0
  0
LINE
  8
1
 62
7
 10
1298.473158972351
 20
454.6456565483439
 30
0
 11
1384.473158972351
 21
454.6456565483439
 31
0
  0
LINE
  8
1
 62
7
 10
1304.105196696452
 20
496.0699206170559
 30
0
 11
1299.973158972351
 21
467.1456565483439
 31
0
  0
LINE
  8
1
 62
7
 10
1382.973158972351
 20
467.1456565483439
 30
0
 11
1378.841121248249
 21
496.0699206170559
 31
0
  0
LINE
  8
1
 62
7
 10
1307.075045177436
 20
498.6456565483439
 30
0
 11
1375.871272767266
 21
498.6456565483439
 31
0
  0
LINE
  8
1
 62
7
 10
1299.973158972351
 20
467.1456565483439
 30
0
 11
1299.973158972351
 21
456.1456565483439
 31
0
  0
LINE
  8
1
 62
7
 10
1384.473158972351
 20
454.6456565483439
 30
0
 11
1384.973158972351
 21
454.6456565483439
 31
0
  0
LINE
  8
1
 62
7
 10
1382.973158972351
 20
467.1456565483439
 30
0
 11
1382.973158972351
 21
456.1456565483439
 31
0
  0
LINE
  8
1
 62
7
 10
1299.973158972351
 20
467.1456565483439
 30
0
 11
1335.465868433122
 21
467.1456565483439
 31
0
  0
LINE
  8
1
 62
7
 10
1296.473158972351
 20
445.6456565483439
 30
0
 11
1296.473158972351
 21
453.1456565483439
 31
0
  0
LINE
  8
1
 62
7
 10
1386.473158972351
 20
445.6456565483439
 30
0
 11
1375.973158972351
 21
445.6456565483439
 31
0
  0
LINE
  8
1
 62
7
 10
1386.473158972351
 20
453.1456565483439
 30
0
 11
1386.473158972351
 21
445.6456565483439
 31
0
  0
LINE
  8
1
 62
7
 10
1297.973158972351
 20
454.6456565483439
 30
0
 11
1298.473158972351
 21
454.6456565483439
 31
0
  0
LINE
  8
1
 62
2
  6
DASHDOT
 10
1373.667706872182
 20
442.1080787702676
 30
0
 11
1379.266392080033
 21
442.1080787702676
 31
0
  0
LINE
  8
1
 62
7
 10
1376.473977154169
 20
444.8595787702677
 30
0
 11
1376.473977154169
 21
439.3565787702676
 31
0
  0
LINE
  8
1
 62
7
 10
1376.473977154169
 20
439.3565787702676
 30
0
 11
1377.018720030812
 21
439.4042375965104
 31
0
  0
LINE
  8
1
 62
7
 10
1376.473977154169
 20
444.8595787702677
 30
0
 11
1377.018720030812
 21
444.8119199440249
 31
0
  0
LINE
  8
1
 62
2
 10
1374.973158972351
 20
440.907424224813
 30
0
 11
1376.473977154169
 21
440.907424224813
 31
0
  0
LINE
  8
1
 62
2
 10
1374.973158972351
 20
443.3087333157221
 30
0
 11
1376.473977154169
 21
443.3087333157221
 31
0
  0
LINE
  8
1
 62
2
 10
1377.552482524563
 20
442.1080787702676
 30
0
 11
1378.373497740913
 21
443.5301188387737
 31
0
  0
LINE
  8
1
 62
2
 10
1378.373497740913
 20
440.6860387017615
 30
0
 11
1377.552482524563
 21
442.1080787702676
 31
0
  0
LINE
  8
1
 62
7
 10
1376.473977154169
 20
440.6072605884496
 30
0
 11
1374.973158972351
 21
440.6072605884496
 31
0
  0
LINE
  8
1
 62
7
 10
1376.473977154169
 20
443.6088969520858
 30
0
 11
1374.973158972351
 21
443.6088969520858
 31
0
  0
LINE
  8
1
 62
7
 10
1343.537351983492
 20
548.0491219564968
 30
0
 11
1343.537351983492
 21
547.8663094564968
 31
0
  0
LINE
  8
1
 62
7
 10
1343.618601983492
 20
548.0491219564968
 30
0
 11
1343.537351983492
 21
548.0491219564968
 31
0
  0
LINE
  8
1
 62
7
 10
1343.699851983492
 20
548.0694344564968
 30
0
 11
1343.618601983492
 21
548.0491219564968
 31
0
  0
LINE
  8
1
 62
7
 10
1343.760789483492
 20
548.1100594564969
 30
0
 11
1343.699851983492
 21
548.0694344564968
 31
0
  0
LINE
  8
1
 62
7
 10
1343.801414483492
 20
548.1709969564968
 30
0
 11
1343.760789483492
 21
548.1100594564969
 31
0
  0
LINE
  8
1
 62
7
 10
1343.821726983492
 20
548.2319344564968
 30
0
 11
1343.801414483492
 21
548.1709969564968
 31
0
  0
LINE
  8
1
 62
7
 10
1343.821726983492
 20
548.3131844564969
 30
0
 11
1343.821726983492
 21
548.2319344564968
 31
0
  0
LINE
  8
1
 62
7
 10
1343.801414483492
 20
548.3741219564968
 30
0
 11
1343.821726983492
 21
548.3131844564969
 31
0
  0
LINE
  8
1
 62
7
 10
1343.760789483492
 20
548.4350594564968
 30
0
 11
1343.801414483492
 21
548.3741219564968
 31
0
  0
LINE
  8
1
 62
7
 10
1343.699851983492
 20
548.4756844564968
 30
0
 11
1343.760789483492
 21
548.4350594564968
 31
0
  0
LINE
  8
1
 62
7
 10
1343.618601983492
 20
548.4959969564968
 30
0
 11
1343.699851983492
 21
548.4756844564968
 31
0
  0
LINE
  8
1
 62
7
 10
1343.537351983492
 20
548.4959969564968
 30
0
 11
1343.618601983492
 21
548.4959969564968
 31
0
  0
LINE
  8
1
 62
7
 10
1343.456101983492
 20
548.4756844564968
 30
0
 11
1343.537351983492
 21
548.4959969564968
 31
0
  0
LINE
  8
1
 62
7
 10
1343.395164483492
 20
548.4350594564968
 30
0
 11
1343.456101983492
 21
548.4756844564968
 31
0
  0
LINE
  8
1
 62
7
 10
1343.354539483492
 20
548.3741219564968
 30
0
 11
1343.395164483492
 21
548.4350594564968
 31
0
  0
LINE
  8
1
 62
7
 10
1343.334226983492
 20
548.3131844564969
 30
0
 11
1343.354539483492
 21
548.3741219564968
 31
0
  0
LINE
  8
1
 62
7
 10
1343.334226983492
 20
548.2319344564968
 30
0
 11
1343.334226983492
 21
548.3131844564969
 31
0
  0
LINE
  8
1
 62
7
 10
1343.110789483492
 20
548.2319344564968
 30
0
 11
1343.334226983492
 21
548.2319344564968
 31
0
  0
LINE
  8
1
 62
7
 10
1343.110789483492
 20
548.3131844564969
 30
0
 11
1343.110789483492
 21
548.2319344564968
 31
0
  0
LINE
  8
1
 62
7
 10
1343.131101983492
 20
548.4147469564969
 30
0
 11
1343.110789483492
 21
548.3131844564969
 31
0
  0
LINE
  8
1
 62
7
 10
1343.212351983492
 20
548.5366219564968
 30
0
 11
1343.131101983492
 21
548.4147469564969
 31
0
  0
LINE
  8
1
 62
7
 10
1343.293601983492
 20
548.6178719564969
 30
0
 11
1343.212351983492
 21
548.5366219564968
 31
0
  0
LINE
  8
1
 62
7
 10
1343.415476983492
 20
548.6788094564968
 30
0
 11
1343.293601983492
 21
548.6178719564969
 31
0
  0
LINE
  8
1
 62
7
 10
1343.517039483492
 20
548.6991219564968
 30
0
 11
1343.415476983492
 21
548.6788094564968
 31
0
  0
LINE
  8
1
 62
7
 10
1343.638914483492
 20
548.6991219564968
 30
0
 11
1343.517039483492
 21
548.6991219564968
 31
0
  0
LINE
  8
1
 62
7
 10
1343.740476983492
 20
548.6788094564968
 30
0
 11
1343.638914483492
 21
548.6991219564968
 31
0
  0
LINE
  8
1
 62
7
 10
1343.862351983492
 20
548.6178719564969
 30
0
 11
1343.740476983492
 21
548.6788094564968
 31
0
  0
LINE
  8
1
 62
7
 10
1343.943601983492
 20
548.5366219564968
 30
0
 11
1343.862351983492
 21
548.6178719564969
 31
0
  0
LINE
  8
1
 62
7
 10
1344.024851983492
 20
548.4147469564969
 30
0
 11
1343.943601983492
 21
548.5366219564968
 31
0
  0
LINE
  8
1
 62
7
 10
1344.045164483492
 20
548.3131844564969
 30
0
 11
1344.024851983492
 21
548.4147469564969
 31
0
  0
LINE
  8
1
 62
7
 10
1344.045164483492
 20
548.2319344564968
 30
0
 11
1344.045164483492
 21
548.3131844564969
 31
0
  0
LINE
  8
1
 62
7
 10
1344.024851983492
 20
548.1303719564968
 30
0
 11
1344.045164483492
 21
548.2319344564968
 31
0
  0
LINE
  8
1
 62
7
 10
1343.943601983492
 20
548.0084969564969
 30
0
 11
1344.024851983492
 21
548.1303719564968
 31
0
  0
LINE
  8
1
 62
7
 10
1343.902976983492
 20
547.9678719564968
 30
0
 11
1343.943601983492
 21
548.0084969564969
 31
0
  0
LINE
  8
1
 62
7
 10
1344.004539483492
 20
547.8866219564968
 30
0
 11
1343.902976983492
 21
547.9678719564968
 31
0
  0
LINE
  8
1
 62
7
 10
1344.085789483492
 20
547.7647469564968
 30
0
 11
1344.004539483492
 21
547.8866219564968
 31
0
  0
LINE
  8
1
 62
7
 10
1344.126414483492
 20
547.6225594564968
 30
0
 11
1344.085789483492
 21
547.7647469564968
 31
0
  0
LINE
  8
1
 62
7
 10
1344.126414483492
 20
547.5209969564968
 30
0
 11
1344.126414483492
 21
547.6225594564968
 31
0
  0
LINE
  8
1
 62
7
 10
1344.085789483492
 20
547.3788094564968
 30
0
 11
1344.126414483492
 21
547.5209969564968
 31
0
  0
LINE
  8
1
 62
7
 10
1344.024851983492
 20
547.2772469564968
 30
0
 11
1344.085789483492
 21
547.3788094564968
 31
0
  0
LINE
  8
1
 62
7
 10
1343.923289483492
 20
547.1756844564968
 30
0
 11
1344.024851983492
 21
547.2772469564968
 31
0
  0
LINE
  8
1
 62
7
 10
1343.801414483492
 20
547.1147469564968
 30
0
 11
1343.923289483492
 21
547.1756844564968
 31
0
  0
LINE
  8
1
 62
7
 10
1343.638914483492
 20
547.0741219564968
 30
0
 11
1343.801414483492
 21
547.1147469564968
 31
0
  0
LINE
  8
1
 62
7
 10
1343.517039483492
 20
547.0741219564968
 30
0
 11
1343.638914483492
 21
547.0741219564968
 31
0
  0
LINE
  8
1
 62
7
 10
1343.354539483492
 20
547.1147469564968
 30
0
 11
1343.517039483492
 21
547.0741219564968
 31
0
  0
LINE
  8
1
 62
7
 10
1343.232664483492
 20
547.1756844564968
 30
0
 11
1343.354539483492
 21
547.1147469564968
 31
0
  0
LINE
  8
1
 62
7
 10
1343.131101983492
 20
547.2772469564968
 30
0
 11
1343.232664483492
 21
547.1756844564968
 31
0
  0
LINE
  8
1
 62
7
 10
1343.070164483492
 20
547.3788094564968
 30
0
 11
1343.131101983492
 21
547.2772469564968
 31
0
  0
LINE
  8
1
 62
7
 10
1343.029539483492
 20
547.5209969564968
 30
0
 11
1343.070164483492
 21
547.3788094564968
 31
0
  0
LINE
  8
1
 62
7
 10
1343.029539483492
 20
547.6225594564968
 30
0
 11
1343.029539483492
 21
547.5209969564968
 31
0
  0
LINE
  8
1
 62
7
 10
1343.273289483492
 20
547.6225594564968
 30
0
 11
1343.029539483492
 21
547.6225594564968
 31
0
  0
LINE
  8
1
 62
7
 10
1343.273289483492
 20
547.5413094564968
 30
0
 11
1343.273289483492
 21
547.6225594564968
 31
0
  0
LINE
  8
1
 62
7
 10
1343.293601983492
 20
547.4600594564968
 30
0
 11
1343.273289483492
 21
547.5413094564968
 31
0
  0
LINE
  8
1
 62
7
 10
1343.354539483492
 20
547.3788094564968
 30
0
 11
1343.293601983492
 21
547.4600594564968
 31
0
  0
LINE
  8
1
 62
7
 10
1343.435789483492
 20
547.3178719564968
 30
0
 11
1343.354539483492
 21
547.3788094564968
 31
0
  0
LINE
  8
1
 62
7
 10
1343.537351983492
 20
547.2975594564969
 30
0
 11
1343.435789483492
 21
547.3178719564968
 31
0
  0
LINE
  8
1
 62
7
 10
1343.618601983492
 20
547.2975594564969
 30
0
 11
1343.537351983492
 21
547.2975594564969
 31
0
  0
LINE
  8
1
 62
7
 10
1343.720164483492
 20
547.3178719564968
 30
0
 11
1343.618601983492
 21
547.2975594564969
 31
0
  0
LINE
  8
1
 62
7
 10
1343.801414483492
 20
547.3788094564968
 30
0
 11
1343.720164483492
 21
547.3178719564968
 31
0
  0
LINE
  8
1
 62
7
 10
1343.862351983492
 20
547.4600594564968
 30
0
 11
1343.801414483492
 21
547.3788094564968
 31
0
  0
LINE
  8
1
 62
7
 10
1343.882664483492
 20
547.5413094564968
 30
0
 11
1343.862351983492
 21
547.4600594564968
 31
0
  0
LINE
  8
1
 62
7
 10
1343.882664483492
 20
547.6225594564968
 30
0
 11
1343.882664483492
 21
547.5413094564968
 31
0
  0
LINE
  8
1
 62
7
 10
1343.862351983492
 20
547.7038094564969
 30
0
 11
1343.882664483492
 21
547.6225594564968
 31
0
  0
LINE
  8
1
 62
7
 10
1343.801414483492
 20
547.7850594564968
 30
0
 11
1343.862351983492
 21
547.7038094564969
 31
0
  0
LINE
  8
1
 62
7
 10
1343.720164483492
 20
547.8459969564968
 30
0
 11
1343.801414483492
 21
547.7850594564968
 31
0
  0
LINE
  8
1
 62
7
 10
1343.618601983492
 20
547.8663094564968
 30
0
 11
1343.720164483492
 21
547.8459969564968
 31
0
  0
LINE
  8
1
 62
7
 10
1343.537351983492
 20
547.8663094564968
 30
0
 11
1343.618601983492
 21
547.8663094564968
 31
0
  0
LINE
  8
1
 62
7
 10
1368.273856435268
 20
545.953264308799
 30
0
 11
1366.336043935268
 21
545.953264308799
 31
0
  0
LINE
  8
1
 62
7
 10
1368.273856435268
 20
546.234514308799
 30
0
 11
1368.273856435268
 21
545.953264308799
 31
0
  0
LINE
  8
1
 62
7
 10
1366.738231435268
 20
546.234514308799
 30
0
 11
1368.273856435268
 21
546.234514308799
 31
0
  0
LINE
  8
1
 62
7
 10
1366.738231435268
 20
548.203264308799
 30
0
 11
1366.738231435268
 21
546.234514308799
 31
0
  0
LINE
  8
1
 62
7
 10
1366.336043935268
 20
548.203264308799
 30
0
 11
1366.738231435268
 21
548.203264308799
 31
0
  0
LINE
  8
1
 62
7
 10
1366.336043935268
 20
545.953264308799
 30
0
 11
1366.336043935268
 21
548.203264308799
 31
0
  0
LINE
  8
1
 62
7
 10
1332.473158972351
 20
570.904217532636
 30
0
 11
1341.473158972351
 21
570.904217532636
 31
0
  0
LINE
  8
1
 62
7
 10
1332.473158972351
 20
570.904217532636
 30
0
 11
1332.473158972351
 21
571.404217532636
 31
0
  0
LINE
  8
1
 62
7
 10
1333.473158972351
 20
572.404217532636
 30
0
 11
1333.473158972351
 21
572.904217532636
 31
0
  0
LINE
  8
1
 62
7
 10
1349.473158972351
 20
572.404217532636
 30
0
 11
1349.473158972351
 21
572.904217532636
 31
0
  0
LINE
  8
1
 62
7
 10
1350.473158972351
 20
570.904217532636
 30
0
 11
1350.473158972351
 21
571.404217532636
 31
0
  0
LINE
  8
1
 62
7
 10
1332.473158972351
 20
571.404217532636
 30
0
 11
1333.473158972351
 21
572.404217532636
 31
0
  0
LINE
  8
1
 62
7
 10
1349.473158972351
 20
572.404217532636
 30
0
 11
1350.473158972351
 21
571.404217532636
 31
0
  0
LINE
  8
1
 62
7
 10
1302.183974710012
 20
572.904217532636
 30
0
 11
1333.473158972351
 21
572.904217532636
 31
0
  0
LINE
  8
1
 62
7
 10
1314.177217426332
 20
549.3288387350947
 30
0
 11
1368.723158972351
 21
549.3288387350947
 31
0
  0
LINE
  8
1
 62
7
 10
1377.49065492566
 20
552.404217532636
 30
0
 11
1305.455663019041
 21
552.404217532636
 31
0
  0
LINE
  8
1
 62
7
 10
1320.677217426332
 20
532.3582759866175
 30
0
 11
1362.223158972351
 21
532.3582759866175
 31
0
  0
LINE
  8
1
 62
7
 10
1370.723158972351
 20
541.211829377211
 30
0
 11
1370.723158972351
 21
547.3288387350947
 31
0
  0
LINE
  8
1
 62
7
 10
1370.723158972351
 20
540.8582759866175
 30
0
 11
1370.723158972351
 21
541.211829377211
 31
0
  0
LINE
  8
1
 62
7
 10
1320.677217426332
 20
532.711829377211
 30
0
 11
1362.223158972351
 21
532.711829377211
 31
0
  0
LINE
  8
1
 62
7
 10
1312.177217426332
 20
541.211829377211
 30
0
 11
1312.177217426332
 21
547.3288387350947
 31
0
  0
LINE
  8
1
 62
7
 10
1312.177217426332
 20
540.8582759866175
 30
0
 11
1312.177217426332
 21
541.211829377211
 31
0
  0
LINE
  8
1
 62
7
 10
1339.168158972351
 20
546.1292867566249
 30
0
 11
1339.528158972351
 21
546.1292867566249
 31
0
  0
LINE
  8
1
 62
7
 10
1340.563158972351
 20
546.1292867566249
 30
0
 11
1340.923158972351
 21
546.1292867566249
 31
0
  0
LINE
  8
1
 62
7
 10
1341.958158972351
 20
546.1292867566249
 30
0
 11
1342.318158972351
 21
546.1292867566249
 31
0
  0
LINE
  8
1
 62
7
 10
1339.168158972351
 20
546.1292867566249
 30
0
 11
1339.168158972351
 21
548.3612867566249
 31
0
  0
LINE
  8
1
 62
7
 10
1339.528158972351
 20
546.1292867566249
 30
0
 11
1339.528158972351
 21
547.4837867566248
 31
0
  0
LINE
  8
1
 62
7
 10
1339.528158972351
 20
548.1924474652858
 30
0
 11
1339.528158972351
 21
548.3612867566249
 31
0
  0
LINE
  8
1
 62
7
 10
1340.563158972351
 20
546.1292867566249
 30
0
 11
1340.563158972351
 21
547.4837867566248
 31
0
  0
LINE
  8
1
 62
7
 10
1340.923158972351
 20
546.1292867566249
 30
0
 11
1340.923158972351
 21
547.4837867566248
 31
0
  0
LINE
  8
1
 62
7
 10
1341.958158972351
 20
546.1292867566249
 30
0
 11
1341.958158972351
 21
547.4837867566248
 31
0
  0
LINE
  8
1
 62
7
 10
1342.318158972351
 20
546.1292867566249
 30
0
 11
1342.318158972351
 21
547.4837867566248
 31
0
  0
LINE
  8
1
 62
7
 10
1339.168158972351
 20
546.1292867566249
 30
0
 11
1339.528158972351
 21
546.1292867566249
 31
0
  0
LINE
  8
1
 62
7
 10
1340.563158972351
 20
546.1292867566249
 30
0
 11
1340.923158972351
 21
546.1292867566249
 31
0
  0
LINE
  8
1
 62
7
 10
1341.958158972351
 20
546.1292867566249
 30
0
 11
1342.318158972351
 21
546.1292867566249
 31
0
  0
LINE
  8
1
 62
7
 10
1339.168158972351
 20
548.3612867566249
 30
0
 11
1339.528158972351
 21
548.3612867566249
 31
0
  0
LINE
  8
1
 62
7
 10
1370.723158972351
 20
541.9924119947946
 30
0
 11
1370.723158972351
 21
545.2506641420421
 31
0
  0
LINE
  8
1
 62
7
 10
1369.997775530924
 20
542.091906931406
 30
0
 11
1368.737770667364
 21
542.091906931406
 31
0
  0
LINE
  8
1
 62
7
 10
1368.737770667364
 20
542.091906931406
 30
0
 11
1368.737770667364
 21
541.6919069314059
 31
0
  0
LINE
  8
1
 62
7
 10
1368.737770667364
 20
541.6919069314059
 30
0
 11
1369.997775530924
 21
541.6919069314059
 31
0
  0
LINE
  8
1
 62
7
 10
1369.997775530924
 20
541.6919069314059
 30
0
 11
1369.997775530924
 21
542.091906931406
 31
0
  0
LINE
  8
1
 62
7
 10
1344.071220687281
 20
544.1900039702623
 30
0
 11
1312.723158972351
 21
544.1900039702623
 31
0
  0
LINE
  8
1
 62
7
 10
1344.071220687281
 20
539.5938098925499
 30
0
 11
1344.071220687281
 21
544.1900039702623
 31
0
  0
LINE
  8
1
 62
7
 10
1312.723158972351
 20
544.1900039702623
 30
0
 11
1312.723158972351
 21
539.5938098925501
 31
0
  0
LINE
  8
1
 62
7
 10
1312.723158972351
 20
539.5938098925501
 30
0
 11
1344.071220687281
 21
539.5938098925499
 31
0
  0
LINE
  8
1
 62
7
 10
1346.071220687281
 20
545.250664142043
 30
0
 11
1346.071220687281
 21
538.5331497207708
 31
0
  0
LINE
  8
1
 62
7
 10
1370.223158972351
 20
541.6419069314052
 30
0
 11
1370.223158972351
 21
542.1419069314052
 31
0
  0
LINE
  8
1
 62
7
 10
1370.223158972351
 20
541.6419069314052
 30
0
 11
1370.717014394586
 21
541.6419069314052
 31
0
  0
LINE
  8
1
 62
7
 10
1370.223158972351
 20
542.1419069314052
 30
0
 11
1370.223158972351
 21
544.1900039702614
 31
0
  0
LINE
  8
1
 62
7
 10
1363.723158972351
 20
536.2350526819139
 30
0
 11
1368.89951596935
 21
536.2350526819137
 31
0
  0
LINE
  8
1
 62
7
 10
1363.723158972351
 20
538.5331497207699
 30
0
 11
1363.723158972351
 21
536.2350526819139
 31
0
  0
LINE
  8
1
 62
7
 10
1346.071220687281
 20
538.5331497207708
 30
0
 11
1363.723158972351
 21
538.5331497207699
 31
0
  0
LINE
  8
1
 62
7
 10
1365.223158972351
 20
539.5938098925492
 30
0
 11
1365.223158972351
 21
537.2957128536933
 31
0
  0
LINE
  8
1
 62
7
 10
1347.571220687281
 20
539.5938098925501
 30
0
 11
1365.223158972351
 21
539.5938098925492
 31
0
  0
LINE
  8
1
 62
7
 10
1347.571220687281
 20
544.1900039702623
 30
0
 11
1347.571220687281
 21
539.5938098925501
 31
0
  0
LINE
  8
1
 62
7
 10
1370.223158972351
 20
544.1900039702614
 30
0
 11
1347.571220687281
 21
544.1900039702623
 31
0
  0
LINE
  8
1
 62
7
 10
1365.223158972351
 20
537.2957128536933
 30
0
 11
1369.551579962425
 21
537.2957128536933
 31
0
  0
LINE
  8
1
 62
7
 10
1363.223158972351
 20
538.1795963301761
 30
0
 11
1312.932627835245
 21
538.1795963301769
 31
0
  0
LINE
  8
1
 62
7
 10
1363.223158972351
 20
535.8814992913202
 30
0
 11
1363.223158972351
 21
538.1795963301761
 31
0
  0
LINE
  8
1
 62
7
 10
1312.177217426332
 20
545.6042175326363
 30
0
 11
1370.723158972351
 21
545.6042175326354
 31
0
  0
LINE
  8
1
 62
7
 10
1370.723158972351
 20
545.2506641420421
 30
0
 11
1346.071220687281
 21
545.250664142043
 31
0
  0
LINE
  8
1
 62
7
 10
1370.723158972351
 20
542.1419069314052
 30
0
 11
1370.223158972351
 21
542.1419069314052
 31
0
  0
LINE
  8
1
 62
7
 10
1370.223158972351
 20
538.8699129955952
 30
0
 11
1370.223158972351
 21
541.6419069314052
 31
0
  0
LINE
  8
1
 62
7
 10
1368.638760398049
 20
535.8814992913202
 30
0
 11
1363.223158972351
 21
535.8814992913202
 31
0
  0
LINE
  8
1
 62
7
 10
1370.723158972351
 20
545.2506641420421
 30
0
 11
1370.723158972351
 21
545.6042175326354
 31
0
  0
LINE
  8
1
 62
7
 10
1312.177217426332
 20
545.6042175326363
 30
0
 11
1312.177217426332
 21
541.9924119947946
 31
0
  0
LINE
  8
1
 62
7
 10
1342.142152196537
 20
540.0464083819264
 30
0
 11
1342.142152196537
 21
543.7374054808861
 31
0
  0
LINE
  8
1
 62
7
 10
1342.142152196537
 20
543.7374054808861
 30
0
 11
1341.773052486641
 21
543.7374054808861
 31
0
  0
LINE
  8
1
 62
7
 10
1341.773052486641
 20
543.7374054808861
 30
0
 11
1341.726915022904
 21
543.5989930896751
 31
0
  0
LINE
  8
1
 62
7
 10
1341.726915022904
 20
543.5989930896751
 30
0
 11
1341.588502631693
 21
543.4144432347271
 31
0
  0
LINE
  8
1
 62
7
 10
1341.588502631693
 20
543.4144432347271
 30
0
 11
1341.450090240482
 21
543.2760308435161
 31
0
  0
LINE
  8
1
 62
7
 10
1341.450090240482
 20
543.2760308435161
 30
0
 11
1341.265540385534
 21
543.1837559160422
 31
0
  0
LINE
  8
1
 62
7
 10
1341.265540385534
 20
543.1837559160422
 30
0
 11
1341.127127994323
 21
543.1376184523051
 31
0
  0
LINE
  8
1
 62
7
 10
1341.127127994323
 20
543.1376184523051
 30
0
 11
1340.896440675638
 21
543.0914809885683
 31
0
  0
LINE
  8
1
 62
7
 10
1340.896440675638
 20
543.0914809885683
 30
0
 11
1340.804165748165
 21
543.0914809885683
 31
0
  0
LINE
  8
1
 62
7
 10
1340.804165748165
 20
543.0914809885683
 30
0
 11
1340.804165748165
 21
542.7223812786722
 31
0
  0
LINE
  8
1
 62
7
 10
1340.804165748165
 20
542.7223812786722
 30
0
 11
1341.680777559167
 21
542.7223812786722
 31
0
  0
LINE
  8
1
 62
7
 10
1341.680777559167
 20
542.7223812786722
 30
0
 11
1341.680777559167
 21
540.0464083819264
 31
0
  0
LINE
  8
1
 62
7
 10
1341.680777559167
 20
540.0464083819264
 30
0
 11
1342.142152196537
 21
540.0464083819264
 31
0
  0
LINE
  8
1
 62
7
 10
1335.088033611836
 20
540.5077830192962
 30
0
 11
1335.475588307227
 21
540.5077830192962
 31
0
  0
LINE
  8
1
 62
7
 10
1335.475588307227
 20
540.5077830192962
 30
0
 11
1335.697048133165
 21
540.6000579467701
 31
0
  0
LINE
  8
1
 62
7
 10
1335.697048133165
 20
540.6000579467701
 30
0
 11
1335.918507959102
 21
540.7384703379812
 31
0
  0
LINE
  8
1
 62
7
 10
1335.918507959102
 20
540.7384703379812
 30
0
 11
1336.029237872071
 21
540.8768827291922
 31
0
  0
LINE
  8
1
 62
7
 10
1336.029237872071
 20
540.8768827291922
 30
0
 11
1336.13996778504
 21
541.1075700478772
 31
0
  0
LINE
  8
1
 62
7
 10
1336.13996778504
 20
541.1075700478772
 30
0
 11
1336.195332741524
 21
541.615082148984
 31
0
  0
LINE
  8
1
 62
7
 10
1336.195332741524
 20
541.615082148984
 30
0
 11
1336.195332741524
 21
542.1687317138279
 31
0
  0
LINE
  8
1
 62
7
 10
1336.195332741524
 20
542.1687317138279
 30
0
 11
1336.13996778504
 21
542.6762438149349
 31
0
  0
LINE
  8
1
 62
7
 10
1336.13996778504
 20
542.6762438149349
 30
0
 11
1336.029237872071
 21
542.90693113362
 31
0
  0
LINE
  8
1
 62
7
 10
1336.029237872071
 20
542.90693113362
 30
0
 11
1335.918507959102
 21
543.045343524831
 31
0
  0
LINE
  8
1
 62
7
 10
1335.918507959102
 20
543.045343524831
 30
0
 11
1335.697048133165
 21
543.183755916042
 31
0
  0
LINE
  8
1
 62
7
 10
1335.697048133165
 20
543.183755916042
 30
0
 11
1335.475588307227
 21
543.2760308435161
 31
0
  0
LINE
  8
1
 62
7
 10
1335.475588307227
 20
543.2760308435161
 30
0
 11
1335.088033611836
 21
543.2760308435161
 31
0
  0
LINE
  8
1
 62
7
 10
1335.088033611836
 20
543.2760308435161
 30
0
 11
1334.866573785899
 21
543.183755916042
 31
0
  0
LINE
  8
1
 62
7
 10
1334.866573785899
 20
543.183755916042
 30
0
 11
1334.645113959961
 21
543.045343524831
 31
0
  0
LINE
  8
1
 62
7
 10
1334.645113959961
 20
543.045343524831
 30
0
 11
1334.534384046992
 21
542.90693113362
 31
0
  0
LINE
  8
1
 62
7
 10
1334.534384046992
 20
542.90693113362
 30
0
 11
1334.423654134024
 21
542.6762438149349
 31
0
  0
LINE
  8
1
 62
7
 10
1334.423654134024
 20
542.6762438149349
 30
0
 11
1334.368289177539
 21
542.1687317138279
 31
0
  0
LINE
  8
1
 62
7
 10
1334.368289177539
 20
542.1687317138279
 30
0
 11
1334.368289177539
 21
541.615082148984
 31
0
  0
LINE
  8
1
 62
7
 10
1334.368289177539
 20
541.615082148984
 30
0
 11
1334.423654134024
 21
541.1075700478772
 31
0
  0
LINE
  8
1
 62
7
 10
1334.423654134024
 20
541.1075700478772
 30
0
 11
1334.534384046992
 21
540.8768827291922
 31
0
  0
LINE
  8
1
 62
7
 10
1334.534384046992
 20
540.8768827291922
 30
0
 11
1334.645113959961
 21
540.7384703379812
 31
0
  0
LINE
  8
1
 62
7
 10
1334.645113959961
 20
540.7384703379812
 30
0
 11
1334.866573785899
 21
540.6000579467701
 31
0
  0
LINE
  8
1
 62
7
 10
1334.866573785899
 20
540.6000579467701
 30
0
 11
1335.088033611836
 21
540.5077830192962
 31
0
  0
LINE
  8
1
 62
7
 10
1336.13996778504
 20
540.2770957006112
 30
0
 11
1336.306062654493
 21
540.4155080918222
 31
0
  0
LINE
  8
1
 62
7
 10
1336.306062654493
 20
540.4155080918222
 30
0
 11
1336.472157523946
 21
540.6000579467701
 31
0
  0
LINE
  8
1
 62
7
 10
1336.472157523946
 20
540.6000579467701
 30
0
 11
1336.582887436915
 21
540.7846078017183
 31
0
  0
LINE
  8
1
 62
7
 10
1336.582887436915
 20
540.7846078017183
 30
0
 11
1336.693617349884
 21
541.0152951204032
 31
0
  0
LINE
  8
1
 62
7
 10
1336.693617349884
 20
541.0152951204032
 30
0
 11
1336.748982306368
 21
541.2921199028251
 31
0
  0
LINE
  8
1
 62
7
 10
1336.748982306368
 20
541.2921199028251
 30
0
 11
1336.804347262852
 21
541.7073570764583
 31
0
  0
LINE
  8
1
 62
7
 10
1336.804347262852
 20
541.7073570764583
 30
0
 11
1336.804347262852
 21
542.076456786354
 31
0
  0
LINE
  8
1
 62
7
 10
1336.804347262852
 20
542.076456786354
 30
0
 11
1336.748982306368
 21
542.4916939599871
 31
0
  0
LINE
  8
1
 62
7
 10
1336.748982306368
 20
542.4916939599871
 30
0
 11
1336.693617349884
 21
542.7685187424089
 31
0
  0
LINE
  8
1
 62
7
 10
1336.693617349884
 20
542.7685187424089
 30
0
 11
1336.582887436915
 21
542.9992060610939
 31
0
  0
LINE
  8
1
 62
7
 10
1336.582887436915
 20
542.9992060610939
 30
0
 11
1336.472157523946
 21
543.183755916042
 31
0
  0
LINE
  8
1
 62
7
 10
1336.472157523946
 20
543.183755916042
 30
0
 11
1336.306062654493
 21
543.3683057709899
 31
0
  0
LINE
  8
1
 62
7
 10
1336.306062654493
 20
543.3683057709899
 30
0
 11
1336.13996778504
 21
543.506718162201
 31
0
  0
LINE
  8
1
 62
7
 10
1336.13996778504
 20
543.506718162201
 30
0
 11
1335.973872915587
 21
543.5989930896749
 31
0
  0
LINE
  8
1
 62
7
 10
1335.973872915587
 20
543.5989930896749
 30
0
 11
1335.697048133165
 21
543.6912680171488
 31
0
  0
LINE
  8
1
 62
7
 10
1335.697048133165
 20
543.6912680171488
 30
0
 11
1335.475588307227
 21
543.7374054808859
 31
0
  0
LINE
  8
1
 62
7
 10
1335.475588307227
 20
543.7374054808859
 30
0
 11
1335.088033611836
 21
543.7374054808859
 31
0
  0
LINE
  8
1
 62
7
 10
1335.088033611836
 20
543.7374054808859
 30
0
 11
1334.866573785899
 21
543.6912680171488
 31
0
  0
LINE
  8
1
 62
7
 10
1334.866573785899
 20
543.6912680171488
 30
0
 11
1334.589749003477
 21
543.5989930896749
 31
0
  0
LINE
  8
1
 62
7
 10
1334.589749003477
 20
543.5989930896749
 30
0
 11
1334.423654134024
 21
543.506718162201
 31
0
  0
LINE
  8
1
 62
7
 10
1334.423654134024
 20
543.506718162201
 30
0
 11
1334.25755926457
 21
543.3683057709899
 31
0
  0
LINE
  8
1
 62
7
 10
1334.25755926457
 20
543.3683057709899
 30
0
 11
1334.091464395117
 21
543.183755916042
 31
0
  0
LINE
  8
1
 62
7
 10
1334.091464395117
 20
543.183755916042
 30
0
 11
1333.980734482148
 21
542.9992060610939
 31
0
  0
LINE
  8
1
 62
7
 10
1333.980734482148
 20
542.9992060610939
 30
0
 11
1333.87000456918
 21
542.7685187424089
 31
0
  0
LINE
  8
1
 62
7
 10
1333.87000456918
 20
542.7685187424089
 30
0
 11
1333.814639612695
 21
542.4916939599871
 31
0
  0
LINE
  8
1
 62
7
 10
1333.814639612695
 20
542.4916939599871
 30
0
 11
1333.759274656211
 21
542.076456786354
 31
0
  0
LINE
  8
1
 62
7
 10
1333.759274656211
 20
542.076456786354
 30
0
 11
1333.759274656211
 21
541.7073570764583
 31
0
  0
LINE
  8
1
 62
7
 10
1333.759274656211
 20
541.7073570764583
 30
0
 11
1333.814639612695
 21
541.2921199028251
 31
0
  0
LINE
  8
1
 62
7
 10
1333.814639612695
 20
541.2921199028251
 30
0
 11
1333.87000456918
 21
541.0152951204032
 31
0
  0
LINE
  8
1
 62
7
 10
1333.87000456918
 20
541.0152951204032
 30
0
 11
1333.980734482148
 21
540.7846078017183
 31
0
  0
LINE
  8
1
 62
7
 10
1333.980734482148
 20
540.7846078017183
 30
0
 11
1334.091464395117
 21
540.6000579467701
 31
0
  0
LINE
  8
1
 62
7
 10
1334.091464395117
 20
540.6000579467701
 30
0
 11
1334.25755926457
 21
540.4155080918222
 31
0
  0
LINE
  8
1
 62
7
 10
1334.25755926457
 20
540.4155080918222
 30
0
 11
1334.423654134024
 21
540.2770957006112
 31
0
  0
LINE
  8
1
 62
7
 10
1334.423654134024
 20
540.2770957006112
 30
0
 11
1334.589749003477
 21
540.1848207731373
 31
0
  0
LINE
  8
1
 62
7
 10
1334.589749003477
 20
540.1848207731373
 30
0
 11
1334.866573785899
 21
540.0925458456634
 31
0
  0
LINE
  8
1
 62
7
 10
1334.866573785899
 20
540.0925458456634
 30
0
 11
1335.088033611836
 21
540.0464083819262
 31
0
  0
LINE
  8
1
 62
7
 10
1335.088033611836
 20
540.0464083819262
 30
0
 11
1335.475588307227
 21
540.0464083819262
 31
0
  0
LINE
  8
1
 62
7
 10
1335.475588307227
 20
540.0464083819262
 30
0
 11
1335.697048133165
 21
540.0925458456634
 31
0
  0
LINE
  8
1
 62
7
 10
1335.697048133165
 20
540.0925458456634
 30
0
 11
1335.973872915587
 21
540.1848207731373
 31
0
  0
LINE
  8
1
 62
7
 10
1335.973872915587
 20
540.1848207731373
 30
0
 11
1336.13996778504
 21
540.2770957006112
 31
0
  0
LINE
  8
1
 62
7
 10
1328.463033611836
 20
540.5077830192962
 30
0
 11
1328.850588307227
 21
540.5077830192962
 31
0
  0
LINE
  8
1
 62
7
 10
1328.850588307227
 20
540.5077830192962
 30
0
 11
1329.072048133164
 21
540.6000579467701
 31
0
  0
LINE
  8
1
 62
7
 10
1329.072048133164
 20
540.6000579467701
 30
0
 11
1329.293507959102
 21
540.7384703379812
 31
0
  0
LINE
  8
1
 62
7
 10
1329.293507959102
 20
540.7384703379812
 30
0
 11
1329.404237872071
 21
540.8768827291922
 31
0
  0
LINE
  8
1
 62
7
 10
1329.404237872071
 20
540.8768827291922
 30
0
 11
1329.514967785039
 21
541.1075700478772
 31
0
  0
LINE
  8
1
 62
7
 10
1329.514967785039
 20
541.1075700478772
 30
0
 11
1329.570332741524
 21
541.615082148984
 31
0
  0
LINE
  8
1
 62
7
 10
1329.570332741524
 20
541.615082148984
 30
0
 11
1329.570332741524
 21
542.1687317138279
 31
0
  0
LINE
  8
1
 62
7
 10
1329.570332741524
 20
542.1687317138279
 30
0
 11
1329.514967785039
 21
542.6762438149349
 31
0
  0
LINE
  8
1
 62
7
 10
1329.514967785039
 20
542.6762438149349
 30
0
 11
1329.404237872071
 21
542.90693113362
 31
0
  0
LINE
  8
1
 62
7
 10
1329.404237872071
 20
542.90693113362
 30
0
 11
1329.293507959102
 21
543.045343524831
 31
0
  0
LINE
  8
1
 62
7
 10
1329.293507959102
 20
543.045343524831
 30
0
 11
1329.072048133164
 21
543.183755916042
 31
0
  0
LINE
  8
1
 62
7
 10
1329.072048133164
 20
543.183755916042
 30
0
 11
1328.850588307227
 21
543.2760308435161
 31
0
  0
LINE
  8
1
 62
7
 10
1328.850588307227
 20
543.2760308435161
 30
0
 11
1328.463033611836
 21
543.2760308435161
 31
0
  0
LINE
  8
1
 62
7
 10
1328.463033611836
 20
543.2760308435161
 30
0
 11
1328.241573785898
 21
543.183755916042
 31
0
  0
LINE
  8
1
 62
7
 10
1328.241573785898
 20
543.183755916042
 30
0
 11
1328.020113959961
 21
543.045343524831
 31
0
  0
LINE
  8
1
 62
7
 10
1328.020113959961
 20
543.045343524831
 30
0
 11
1327.909384046992
 21
542.90693113362
 31
0
  0
LINE
  8
1
 62
7
 10
1327.909384046992
 20
542.90693113362
 30
0
 11
1327.798654134023
 21
542.6762438149349
 31
0
  0
LINE
  8
1
 62
7
 10
1327.798654134023
 20
542.6762438149349
 30
0
 11
1327.743289177539
 21
542.1687317138279
 31
0
  0
LINE
  8
1
 62
7
 10
1327.743289177539
 20
542.1687317138279
 30
0
 11
1327.743289177539
 21
541.615082148984
 31
0
  0
LINE
  8
1
 62
7
 10
1327.743289177539
 20
541.615082148984
 30
0
 11
1327.798654134023
 21
541.1075700478772
 31
0
  0
LINE
  8
1
 62
7
 10
1327.798654134023
 20
541.1075700478772
 30
0
 11
1327.909384046992
 21
540.8768827291922
 31
0
  0
LINE
  8
1
 62
7
 10
1327.909384046992
 20
540.8768827291922
 30
0
 11
1328.020113959961
 21
540.7384703379812
 31
0
  0
LINE
  8
1
 62
7
 10
1328.020113959961
 20
540.7384703379812
 30
0
 11
1328.241573785898
 21
540.6000579467701
 31
0
  0
LINE
  8
1
 62
7
 10
1328.241573785898
 20
540.6000579467701
 30
0
 11
1328.463033611836
 21
540.5077830192962
 31
0
  0
LINE
  8
1
 62
7
 10
1329.514967785039
 20
540.2770957006112
 30
0
 11
1329.681062654493
 21
540.4155080918222
 31
0
  0
LINE
  8
1
 62
7
 10
1329.681062654493
 20
540.4155080918222
 30
0
 11
1329.847157523946
 21
540.6000579467701
 31
0
  0
LINE
  8
1
 62
7
 10
1329.847157523946
 20
540.6000579467701
 30
0
 11
1329.957887436915
 21
540.7846078017183
 31
0
  0
LINE
  8
1
 62
7
 10
1329.957887436915
 20
540.7846078017183
 30
0
 11
1330.068617349883
 21
541.0152951204032
 31
0
  0
LINE
  8
1
 62
7
 10
1330.068617349883
 20
541.0152951204032
 30
0
 11
1330.123982306368
 21
541.2921199028251
 31
0
  0
LINE
  8
1
 62
7
 10
1330.123982306368
 20
541.2921199028251
 30
0
 11
1330.179347262852
 21
541.7073570764583
 31
0
  0
LINE
  8
1
 62
7
 10
1330.179347262852
 20
541.7073570764583
 30
0
 11
1330.179347262852
 21
542.076456786354
 31
0
  0
LINE
  8
1
 62
7
 10
1330.179347262852
 20
542.076456786354
 30
0
 11
1330.123982306368
 21
542.4916939599871
 31
0
  0
LINE
  8
1
 62
7
 10
1330.123982306368
 20
542.4916939599871
 30
0
 11
1330.068617349883
 21
542.7685187424089
 31
0
  0
LINE
  8
1
 62
7
 10
1330.068617349883
 20
542.7685187424089
 30
0
 11
1329.957887436915
 21
542.9992060610939
 31
0
  0
LINE
  8
1
 62
7
 10
1329.957887436915
 20
542.9992060610939
 30
0
 11
1329.847157523946
 21
543.183755916042
 31
0
  0
LINE
  8
1
 62
7
 10
1329.847157523946
 20
543.183755916042
 30
0
 11
1329.681062654493
 21
543.3683057709899
 31
0
  0
LINE
  8
1
 62
7
 10
1329.681062654493
 20
543.3683057709899
 30
0
 11
1329.514967785039
 21
543.506718162201
 31
0
  0
LINE
  8
1
 62
7
 10
1329.514967785039
 20
543.506718162201
 30
0
 11
1329.348872915586
 21
543.5989930896749
 31
0
  0
LINE
  8
1
 62
7
 10
1329.348872915586
 20
543.5989930896749
 30
0
 11
1329.072048133164
 21
543.6912680171488
 31
0
  0
LINE
  8
1
 62
7
 10
1329.072048133164
 20
543.6912680171488
 30
0
 11
1328.850588307227
 21
543.7374054808859
 31
0
  0
LINE
  8
1
 62
7
 10
1328.850588307227
 20
543.7374054808859
 30
0
 11
1328.463033611836
 21
543.7374054808859
 31
0
  0
LINE
  8
1
 62
7
 10
1328.463033611836
 20
543.7374054808859
 30
0
 11
1328.241573785898
 21
543.6912680171488
 31
0
  0
LINE
  8
1
 62
7
 10
1328.241573785898
 20
543.6912680171488
 30
0
 11
1327.964749003476
 21
543.5989930896749
 31
0
  0
LINE
  8
1
 62
7
 10
1327.964749003476
 20
543.5989930896749
 30
0
 11
1327.798654134023
 21
543.506718162201
 31
0
  0
LINE
  8
1
 62
7
 10
1327.798654134023
 20
543.506718162201
 30
0
 11
1327.63255926457
 21
543.3683057709899
 31
0
  0
LINE
  8
1
 62
7
 10
1327.63255926457
 20
543.3683057709899
 30
0
 11
1327.466464395117
 21
543.183755916042
 31
0
  0
LINE
  8
1
 62
7
 10
1327.466464395117
 20
543.183755916042
 30
0
 11
1327.355734482148
 21
542.9992060610939
 31
0
  0
LINE
  8
1
 62
7
 10
1327.355734482148
 20
542.9992060610939
 30
0
 11
1327.245004569179
 21
542.7685187424089
 31
0
  0
LINE
  8
1
 62
7
 10
1327.245004569179
 20
542.7685187424089
 30
0
 11
1327.189639612695
 21
542.4916939599871
 31
0
  0
LINE
  8
1
 62
7
 10
1327.189639612695
 20
542.4916939599871
 30
0
 11
1327.13427465621
 21
542.076456786354
 31
0
  0
LINE
  8
1
 62
7
 10
1327.13427465621
 20
542.076456786354
 30
0
 11
1327.13427465621
 21
541.7073570764583
 31
0
  0
LINE
  8
1
 62
7
 10
1327.13427465621
 20
541.7073570764583
 30
0
 11
1327.189639612695
 21
541.2921199028251
 31
0
  0
LINE
  8
1
 62
7
 10
1327.189639612695
 20
541.2921199028251
 30
0
 11
1327.245004569179
 21
541.0152951204032
 31
0
  0
LINE
  8
1
 62
7
 10
1327.245004569179
 20
541.0152951204032
 30
0
 11
1327.355734482148
 21
540.7846078017183
 31
0
  0
LINE
  8
1
 62
7
 10
1327.355734482148
 20
540.7846078017183
 30
0
 11
1327.466464395117
 21
540.6000579467701
 31
0
  0
LINE
  8
1
 62
7
 10
1327.466464395117
 20
540.6000579467701
 30
0
 11
1327.63255926457
 21
540.4155080918222
 31
0
  0
LINE
  8
1
 62
7
 10
1327.63255926457
 20
540.4155080918222
 30
0
 11
1327.798654134023
 21
540.2770957006112
 31
0
  0
LINE
  8
1
 62
7
 10
1327.798654134023
 20
540.2770957006112
 30
0
 11
1327.964749003476
 21
540.1848207731373
 31
0
  0
LINE
  8
1
 62
7
 10
1327.964749003476
 20
540.1848207731373
 30
0
 11
1328.241573785898
 21
540.0925458456634
 31
0
  0
LINE
  8
1
 62
7
 10
1328.241573785898
 20
540.0925458456634
 30
0
 11
1328.463033611836
 21
540.0464083819262
 31
0
  0
LINE
  8
1
 62
7
 10
1328.463033611836
 20
540.0464083819262
 30
0
 11
1328.850588307227
 21
540.0464083819262
 31
0
  0
LINE
  8
1
 62
7
 10
1328.850588307227
 20
540.0464083819262
 30
0
 11
1329.072048133164
 21
540.0925458456634
 31
0
  0
LINE
  8
1
 62
7
 10
1329.072048133164
 20
540.0925458456634
 30
0
 11
1329.348872915586
 21
540.1848207731373
 31
0
  0
LINE
  8
1
 62
7
 10
1329.348872915586
 20
540.1848207731373
 30
0
 11
1329.514967785039
 21
540.2770957006112
 31
0
  0
LINE
  8
1
 62
7
 10
1321.838033611835
 20
540.5077830192962
 30
0
 11
1322.225588307226
 21
540.5077830192962
 31
0
  0
LINE
  8
1
 62
7
 10
1322.225588307226
 20
540.5077830192962
 30
0
 11
1322.447048133164
 21
540.6000579467701
 31
0
  0
LINE
  8
1
 62
7
 10
1322.447048133164
 20
540.6000579467701
 30
0
 11
1322.668507959101
 21
540.7384703379812
 31
0
  0
LINE
  8
1
 62
7
 10
1322.668507959101
 20
540.7384703379812
 30
0
 11
1322.77923787207
 21
540.8768827291922
 31
0
  0
LINE
  8
1
 62
7
 10
1322.77923787207
 20
540.8768827291922
 30
0
 11
1322.889967785039
 21
541.1075700478772
 31
0
  0
LINE
  8
1
 62
7
 10
1322.889967785039
 20
541.1075700478772
 30
0
 11
1322.945332741523
 21
541.615082148984
 31
0
  0
LINE
  8
1
 62
7
 10
1322.945332741523
 20
541.615082148984
 30
0
 11
1322.945332741523
 21
542.1687317138279
 31
0
  0
LINE
  8
1
 62
7
 10
1322.945332741523
 20
542.1687317138279
 30
0
 11
1322.889967785039
 21
542.6762438149349
 31
0
  0
LINE
  8
1
 62
7
 10
1322.889967785039
 20
542.6762438149349
 30
0
 11
1322.77923787207
 21
542.90693113362
 31
0
  0
LINE
  8
1
 62
7
 10
1322.77923787207
 20
542.90693113362
 30
0
 11
1322.668507959101
 21
543.045343524831
 31
0
  0
LINE
  8
1
 62
7
 10
1322.668507959101
 20
543.045343524831
 30
0
 11
1322.447048133164
 21
543.183755916042
 31
0
  0
LINE
  8
1
 62
7
 10
1322.447048133164
 20
543.183755916042
 30
0
 11
1322.225588307226
 21
543.2760308435161
 31
0
  0
LINE
  8
1
 62
7
 10
1322.225588307226
 20
543.2760308435161
 30
0
 11
1321.838033611835
 21
543.2760308435161
 31
0
  0
LINE
  8
1
 62
7
 10
1321.838033611835
 20
543.2760308435161
 30
0
 11
1321.616573785898
 21
543.183755916042
 31
0
  0
LINE
  8
1
 62
7
 10
1321.616573785898
 20
543.183755916042
 30
0
 11
1321.39511395996
 21
543.045343524831
 31
0
  0
LINE
  8
1
 62
7
 10
1321.39511395996
 20
543.045343524831
 30
0
 11
1321.284384046991
 21
542.90693113362
 31
0
  0
LINE
  8
1
 62
7
 10
1321.284384046991
 20
542.90693113362
 30
0
 11
1321.173654134023
 21
542.6762438149349
 31
0
  0
LINE
  8
1
 62
7
 10
1321.173654134023
 20
542.6762438149349
 30
0
 11
1321.118289177538
 21
542.1687317138279
 31
0
  0
LINE
  8
1
 62
7
 10
1321.118289177538
 20
542.1687317138279
 30
0
 11
1321.118289177538
 21
541.615082148984
 31
0
  0
LINE
  8
1
 62
7
 10
1321.118289177538
 20
541.615082148984
 30
0
 11
1321.173654134023
 21
541.1075700478772
 31
0
  0
LINE
  8
1
 62
7
 10
1321.173654134023
 20
541.1075700478772
 30
0
 11
1321.284384046991
 21
540.8768827291922
 31
0
  0
LINE
  8
1
 62
7
 10
1321.284384046991
 20
540.8768827291922
 30
0
 11
1321.39511395996
 21
540.7384703379812
 31
0
  0
LINE
  8
1
 62
7
 10
1321.39511395996
 20
540.7384703379812
 30
0
 11
1321.616573785898
 21
540.6000579467701
 31
0
  0
LINE
  8
1
 62
7
 10
1321.616573785898
 20
540.6000579467701
 30
0
 11
1321.838033611835
 21
540.5077830192962
 31
0
  0
LINE
  8
1
 62
7
 10
1322.889967785039
 20
540.2770957006112
 30
0
 11
1323.056062654492
 21
540.4155080918222
 31
0
  0
LINE
  8
1
 62
7
 10
1323.056062654492
 20
540.4155080918222
 30
0
 11
1323.222157523945
 21
540.6000579467701
 31
0
  0
LINE
  8
1
 62
7
 10
1323.222157523945
 20
540.6000579467701
 30
0
 11
1323.332887436914
 21
540.7846078017183
 31
0
  0
LINE
  8
1
 62
7
 10
1323.332887436914
 20
540.7846078017183
 30
0
 11
1323.443617349883
 21
541.0152951204032
 31
0
  0
LINE
  8
1
 62
7
 10
1323.443617349883
 20
541.0152951204032
 30
0
 11
1323.498982306367
 21
541.2921199028251
 31
0
  0
LINE
  8
1
 62
7
 10
1323.498982306367
 20
541.2921199028251
 30
0
 11
1323.554347262852
 21
541.7073570764583
 31
0
  0
LINE
  8
1
 62
7
 10
1323.554347262852
 20
541.7073570764583
 30
0
 11
1323.554347262852
 21
542.076456786354
 31
0
  0
LINE
  8
1
 62
7
 10
1323.554347262852
 20
542.076456786354
 30
0
 11
1323.498982306367
 21
542.4916939599871
 31
0
  0
LINE
  8
1
 62
7
 10
1323.498982306367
 20
542.4916939599871
 30
0
 11
1323.443617349883
 21
542.7685187424089
 31
0
  0
LINE
  8
1
 62
7
 10
1323.443617349883
 20
542.7685187424089
 30
0
 11
1323.332887436914
 21
542.9992060610939
 31
0
  0
LINE
  8
1
 62
7
 10
1323.332887436914
 20
542.9992060610939
 30
0
 11
1323.222157523945
 21
543.183755916042
 31
0
  0
LINE
  8
1
 62
7
 10
1323.222157523945
 20
543.183755916042
 30
0
 11
1323.056062654492
 21
543.3683057709899
 31
0
  0
LINE
  8
1
 62
7
 10
1323.056062654492
 20
543.3683057709899
 30
0
 11
1322.889967785039
 21
543.506718162201
 31
0
  0
LINE
  8
1
 62
7
 10
1322.889967785039
 20
543.506718162201
 30
0
 11
1322.723872915586
 21
543.5989930896749
 31
0
  0
LINE
  8
1
 62
7
 10
1322.723872915586
 20
543.5989930896749
 30
0
 11
1322.447048133164
 21
543.6912680171488
 31
0
  0
LINE
  8
1
 62
7
 10
1322.447048133164
 20
543.6912680171488
 30
0
 11
1322.225588307226
 21
543.7374054808859
 31
0
  0
LINE
  8
1
 62
7
 10
1322.225588307226
 20
543.7374054808859
 30
0
 11
1321.838033611835
 21
543.7374054808859
 31
0
  0
LINE
  8
1
 62
7
 10
1321.838033611835
 20
543.7374054808859
 30
0
 11
1321.616573785898
 21
543.6912680171488
 31
0
  0
LINE
  8
1
 62
7
 10
1321.616573785898
 20
543.6912680171488
 30
0
 11
1321.339749003476
 21
543.5989930896749
 31
0
  0
LINE
  8
1
 62
7
 10
1321.339749003476
 20
543.5989930896749
 30
0
 11
1321.173654134023
 21
543.506718162201
 31
0
  0
LINE
  8
1
 62
7
 10
1321.173654134023
 20
543.506718162201
 30
0
 11
1321.007559264569
 21
543.3683057709899
 31
0
  0
LINE
  8
1
 62
7
 10
1321.007559264569
 20
543.3683057709899
 30
0
 11
1320.841464395116
 21
543.183755916042
 31
0
  0
LINE
  8
1
 62
7
 10
1320.841464395116
 20
543.183755916042
 30
0
 11
1320.730734482148
 21
542.9992060610939
 31
0
  0
LINE
  8
1
 62
7
 10
1320.730734482148
 20
542.9992060610939
 30
0
 11
1320.620004569179
 21
542.7685187424089
 31
0
  0
LINE
  8
1
 62
7
 10
1320.620004569179
 20
542.7685187424089
 30
0
 11
1320.564639612694
 21
542.4916939599871
 31
0
  0
LINE
  8
1
 62
7
 10
1320.564639612694
 20
542.4916939599871
 30
0
 11
1320.50927465621
 21
542.076456786354
 31
0
  0
LINE
  8
1
 62
7
 10
1320.50927465621
 20
542.076456786354
 30
0
 11
1320.50927465621
 21
541.7073570764583
 31
0
  0
LINE
  8
1
 62
7
 10
1320.50927465621
 20
541.7073570764583
 30
0
 11
1320.564639612694
 21
541.2921199028251
 31
0
  0
LINE
  8
1
 62
7
 10
1320.564639612694
 20
541.2921199028251
 30
0
 11
1320.620004569179
 21
541.0152951204032
 31
0
  0
LINE
  8
1
 62
7
 10
1320.620004569179
 20
541.0152951204032
 30
0
 11
1320.730734482148
 21
540.7846078017183
 31
0
  0
LINE
  8
1
 62
7
 10
1320.730734482148
 20
540.7846078017183
 30
0
 11
1320.841464395116
 21
540.6000579467701
 31
0
  0
LINE
  8
1
 62
7
 10
1320.841464395116
 20
540.6000579467701
 30
0
 11
1321.007559264569
 21
540.4155080918222
 31
0
  0
LINE
  8
1
 62
7
 10
1321.007559264569
 20
540.4155080918222
 30
0
 11
1321.173654134023
 21
540.2770957006112
 31
0
  0
LINE
  8
1
 62
7
 10
1321.173654134023
 20
540.2770957006112
 30
0
 11
1321.339749003476
 21
540.1848207731373
 31
0
  0
LINE
  8
1
 62
7
 10
1321.339749003476
 20
540.1848207731373
 30
0
 11
1321.616573785898
 21
540.0925458456634
 31
0
  0
LINE
  8
1
 62
7
 10
1321.616573785898
 20
540.0925458456634
 30
0
 11
1321.838033611835
 21
540.0464083819262
 31
0
  0
LINE
  8
1
 62
7
 10
1321.838033611835
 20
540.0464083819262
 30
0
 11
1322.225588307226
 21
540.0464083819262
 31
0
  0
LINE
  8
1
 62
7
 10
1322.225588307226
 20
540.0464083819262
 30
0
 11
1322.447048133164
 21
540.0925458456634
 31
0
  0
LINE
  8
1
 62
7
 10
1322.447048133164
 20
540.0925458456634
 30
0
 11
1322.723872915586
 21
540.1848207731373
 31
0
  0
LINE
  8
1
 62
7
 10
1322.723872915586
 20
540.1848207731373
 30
0
 11
1322.889967785039
 21
540.2770957006112
 31
0
  0
LINE
  8
1
 62
7
 10
1315.213033611835
 20
540.5077830192962
 30
0
 11
1315.600588307226
 21
540.5077830192962
 31
0
  0
LINE
  8
1
 62
7
 10
1315.600588307226
 20
540.5077830192962
 30
0
 11
1315.822048133163
 21
540.6000579467701
 31
0
  0
LINE
  8
1
 62
7
 10
1315.822048133163
 20
540.6000579467701
 30
0
 11
1316.043507959101
 21
540.7384703379812
 31
0
  0
LINE
  8
1
 62
7
 10
1316.043507959101
 20
540.7384703379812
 30
0
 11
1316.15423787207
 21
540.8768827291922
 31
0
  0
LINE
  8
1
 62
7
 10
1316.15423787207
 20
540.8768827291922
 30
0
 11
1316.264967785038
 21
541.1075700478772
 31
0
  0
LINE
  8
1
 62
7
 10
1316.264967785038
 20
541.1075700478772
 30
0
 11
1316.320332741523
 21
541.615082148984
 31
0
  0
LINE
  8
1
 62
7
 10
1316.320332741523
 20
541.615082148984
 30
0
 11
1316.320332741523
 21
542.1687317138279
 31
0
  0
LINE
  8
1
 62
7
 10
1316.320332741523
 20
542.1687317138279
 30
0
 11
1316.264967785038
 21
542.6762438149349
 31
0
  0
LINE
  8
1
 62
7
 10
1316.264967785038
 20
542.6762438149349
 30
0
 11
1316.15423787207
 21
542.90693113362
 31
0
  0
LINE
  8
1
 62
7
 10
1316.15423787207
 20
542.90693113362
 30
0
 11
1316.043507959101
 21
543.045343524831
 31
0
  0
LINE
  8
1
 62
7
 10
1316.043507959101
 20
543.045343524831
 30
0
 11
1315.822048133163
 21
543.183755916042
 31
0
  0
LINE
  8
1
 62
7
 10
1315.822048133163
 20
543.183755916042
 30
0
 11
1315.600588307226
 21
543.2760308435161
 31
0
  0
LINE
  8
1
 62
7
 10
1315.600588307226
 20
543.2760308435161
 30
0
 11
1315.213033611835
 21
543.2760308435161
 31
0
  0
LINE
  8
1
 62
7
 10
1315.213033611835
 20
543.2760308435161
 30
0
 11
1314.991573785897
 21
543.183755916042
 31
0
  0
LINE
  8
1
 62
7
 10
1314.991573785897
 20
543.183755916042
 30
0
 11
1314.77011395996
 21
543.045343524831
 31
0
  0
LINE
  8
1
 62
7
 10
1314.77011395996
 20
543.045343524831
 30
0
 11
1314.659384046991
 21
542.90693113362
 31
0
  0
LINE
  8
1
 62
7
 10
1314.659384046991
 20
542.90693113362
 30
0
 11
1314.548654134022
 21
542.6762438149349
 31
0
  0
LINE
  8
1
 62
7
 10
1314.548654134022
 20
542.6762438149349
 30
0
 11
1314.493289177538
 21
542.1687317138279
 31
0
  0
LINE
  8
1
 62
7
 10
1314.493289177538
 20
542.1687317138279
 30
0
 11
1314.493289177538
 21
541.615082148984
 31
0
  0
LINE
  8
1
 62
7
 10
1314.493289177538
 20
541.615082148984
 30
0
 11
1314.548654134022
 21
541.1075700478772
 31
0
  0
LINE
  8
1
 62
7
 10
1314.548654134022
 20
541.1075700478772
 30
0
 11
1314.659384046991
 21
540.8768827291922
 31
0
  0
LINE
  8
1
 62
7
 10
1314.659384046991
 20
540.8768827291922
 30
0
 11
1314.77011395996
 21
540.7384703379812
 31
0
  0
LINE
  8
1
 62
7
 10
1314.77011395996
 20
540.7384703379812
 30
0
 11
1314.991573785897
 21
540.6000579467701
 31
0
  0
LINE
  8
1
 62
7
 10
1314.991573785897
 20
540.6000579467701
 30
0
 11
1315.213033611835
 21
540.5077830192962
 31
0
  0
LINE
  8
1
 62
7
 10
1316.264967785038
 20
540.2770957006112
 30
0
 11
1316.431062654492
 21
540.4155080918222
 31
0
  0
LINE
  8
1
 62
7
 10
1316.431062654492
 20
540.4155080918222
 30
0
 11
1316.597157523945
 21
540.6000579467701
 31
0
  0
LINE
  8
1
 62
7
 10
1316.597157523945
 20
540.6000579467701
 30
0
 11
1316.707887436914
 21
540.7846078017183
 31
0
  0
LINE
  8
1
 62
7
 10
1316.707887436914
 20
540.7846078017183
 30
0
 11
1316.818617349882
 21
541.0152951204032
 31
0
  0
LINE
  8
1
 62
7
 10
1316.818617349882
 20
541.0152951204032
 30
0
 11
1316.873982306367
 21
541.2921199028251
 31
0
  0
LINE
  8
1
 62
7
 10
1316.873982306367
 20
541.2921199028251
 30
0
 11
1316.929347262851
 21
541.7073570764583
 31
0
  0
LINE
  8
1
 62
7
 10
1316.929347262851
 20
541.7073570764583
 30
0
 11
1316.929347262851
 21
542.076456786354
 31
0
  0
LINE
  8
1
 62
7
 10
1316.929347262851
 20
542.076456786354
 30
0
 11
1316.873982306367
 21
542.4916939599871
 31
0
  0
LINE
  8
1
 62
7
 10
1316.873982306367
 20
542.4916939599871
 30
0
 11
1316.818617349882
 21
542.7685187424089
 31
0
  0
LINE
  8
1
 62
7
 10
1316.818617349882
 20
542.7685187424089
 30
0
 11
1316.707887436914
 21
542.9992060610939
 31
0
  0
LINE
  8
1
 62
7
 10
1316.707887436914
 20
542.9992060610939
 30
0
 11
1316.597157523945
 21
543.183755916042
 31
0
  0
LINE
  8
1
 62
7
 10
1316.597157523945
 20
543.183755916042
 30
0
 11
1316.431062654492
 21
543.3683057709899
 31
0
  0
LINE
  8
1
 62
7
 10
1316.431062654492
 20
543.3683057709899
 30
0
 11
1316.264967785038
 21
543.506718162201
 31
0
  0
LINE
  8
1
 62
7
 10
1316.264967785038
 20
543.506718162201
 30
0
 11
1316.098872915585
 21
543.5989930896749
 31
0
  0
LINE
  8
1
 62
7
 10
1316.098872915585
 20
543.5989930896749
 30
0
 11
1315.822048133163
 21
543.6912680171488
 31
0
  0
LINE
  8
1
 62
7
 10
1315.822048133163
 20
543.6912680171488
 30
0
 11
1315.600588307226
 21
543.7374054808859
 31
0
  0
LINE
  8
1
 62
7
 10
1315.600588307226
 20
543.7374054808859
 30
0
 11
1315.213033611835
 21
543.7374054808859
 31
0
  0
LINE
  8
1
 62
7
 10
1315.213033611835
 20
543.7374054808859
 30
0
 11
1314.991573785897
 21
543.6912680171488
 31
0
  0
LINE
  8
1
 62
7
 10
1314.991573785897
 20
543.6912680171488
 30
0
 11
1314.714749003475
 21
543.5989930896749
 31
0
  0
LINE
  8
1
 62
7
 10
1314.714749003475
 20
543.5989930896749
 30
0
 11
1314.548654134022
 21
543.506718162201
 31
0
  0
LINE
  8
1
 62
7
 10
1314.548654134022
 20
543.506718162201
 30
0
 11
1314.382559264569
 21
543.3683057709899
 31
0
  0
LINE
  8
1
 62
7
 10
1314.382559264569
 20
543.3683057709899
 30
0
 11
1314.216464395116
 21
543.183755916042
 31
0
  0
LINE
  8
1
 62
7
 10
1314.216464395116
 20
543.183755916042
 30
0
 11
1314.105734482147
 21
542.9992060610939
 31
0
  0
LINE
  8
1
 62
7
 10
1314.105734482147
 20
542.9992060610939
 30
0
 11
1313.995004569178
 21
542.7685187424089
 31
0
  0
LINE
  8
1
 62
7
 10
1313.995004569178
 20
542.7685187424089
 30
0
 11
1313.939639612694
 21
542.4916939599871
 31
0
  0
LINE
  8
1
 62
7
 10
1313.939639612694
 20
542.4916939599871
 30
0
 11
1313.88427465621
 21
542.076456786354
 31
0
  0
LINE
  8
1
 62
7
 10
1313.88427465621
 20
542.076456786354
 30
0
 11
1313.88427465621
 21
541.7073570764583
 31
0
  0
LINE
  8
1
 62
7
 10
1313.88427465621
 20
541.7073570764583
 30
0
 11
1313.939639612694
 21
541.2921199028251
 31
0
  0
LINE
  8
1
 62
7
 10
1313.939639612694
 20
541.2921199028251
 30
0
 11
1313.995004569178
 21
541.0152951204032
 31
0
  0
LINE
  8
1
 62
7
 10
1313.995004569178
 20
541.0152951204032
 30
0
 11
1314.105734482147
 21
540.7846078017183
 31
0
  0
LINE
  8
1
 62
7
 10
1314.105734482147
 20
540.7846078017183
 30
0
 11
1314.216464395116
 21
540.6000579467701
 31
0
  0
LINE
  8
1
 62
7
 10
1314.216464395116
 20
540.6000579467701
 30
0
 11
1314.382559264569
 21
540.4155080918222
 31
0
  0
LINE
  8
1
 62
7
 10
1314.382559264569
 20
540.4155080918222
 30
0
 11
1314.548654134022
 21
540.2770957006112
 31
0
  0
LINE
  8
1
 62
7
 10
1314.548654134022
 20
540.2770957006112
 30
0
 11
1314.714749003475
 21
540.1848207731373
 31
0
  0
LINE
  8
1
 62
7
 10
1314.714749003475
 20
540.1848207731373
 30
0
 11
1314.991573785897
 21
540.0925458456634
 31
0
  0
LINE
  8
1
 62
7
 10
1314.991573785897
 20
540.0925458456634
 30
0
 11
1315.213033611835
 21
540.0464083819262
 31
0
  0
LINE
  8
1
 62
7
 10
1315.213033611835
 20
540.0464083819262
 30
0
 11
1315.600588307226
 21
540.0464083819262
 31
0
  0
LINE
  8
1
 62
7
 10
1315.600588307226
 20
540.0464083819262
 30
0
 11
1315.822048133163
 21
540.0925458456634
 31
0
  0
LINE
  8
1
 62
7
 10
1315.822048133163
 20
540.0925458456634
 30
0
 11
1316.098872915585
 21
540.1848207731373
 31
0
  0
LINE
  8
1
 62
7
 10
1316.098872915585
 20
540.1848207731373
 30
0
 11
1316.264967785038
 21
540.2770957006112
 31
0
  0
LINE
  8
1
 62
7
 10
1351.135307529765
 20
540.0464083819262
 30
0
 11
1351.135307529765
 21
540.3232331643483
 31
0
  0
LINE
  8
1
 62
7
 10
1351.135307529765
 20
540.3232331643483
 30
0
 11
1351.246037442734
 21
540.6461954105072
 31
0
  0
LINE
  8
1
 62
7
 10
1351.246037442734
 20
540.6461954105072
 30
0
 11
1351.467497268671
 21
540.9691576566661
 31
0
  0
LINE
  8
1
 62
7
 10
1351.467497268671
 20
540.9691576566661
 30
0
 11
1351.744322051093
 21
541.2459824390883
 31
0
  0
LINE
  8
1
 62
7
 10
1351.744322051093
 20
541.2459824390883
 30
0
 11
1352.07651179
 21
541.5689446852472
 31
0
  0
LINE
  8
1
 62
7
 10
1352.07651179
 20
541.5689446852472
 30
0
 11
1352.408701528906
 21
541.7996320039322
 31
0
  0
LINE
  8
1
 62
7
 10
1352.408701528906
 20
541.7996320039322
 30
0
 11
1352.740891267812
 21
542.076456786354
 31
0
  0
LINE
  8
1
 62
7
 10
1352.740891267812
 20
542.076456786354
 30
0
 11
1353.128445963203
 21
542.3994190325128
 31
0
  0
LINE
  8
1
 62
7
 10
1353.128445963203
 20
542.3994190325128
 30
0
 11
1353.239175876172
 21
542.5378314237239
 31
0
  0
LINE
  8
1
 62
7
 10
1353.239175876172
 20
542.5378314237239
 30
0
 11
1353.294540832656
 21
542.6762438149349
 31
0
  0
LINE
  8
1
 62
7
 10
1353.294540832656
 20
542.6762438149349
 30
0
 11
1353.294540832656
 21
542.8607936698828
 31
0
  0
LINE
  8
1
 62
7
 10
1353.294540832656
 20
542.8607936698828
 30
0
 11
1353.239175876172
 21
542.9992060610939
 31
0
  0
LINE
  8
1
 62
7
 10
1353.239175876172
 20
542.9992060610939
 30
0
 11
1353.128445963203
 21
543.1376184523049
 31
0
  0
LINE
  8
1
 62
7
 10
1353.128445963203
 20
543.1376184523049
 30
0
 11
1352.96235109375
 21
543.2298933797788
 31
0
  0
LINE
  8
1
 62
7
 10
1352.96235109375
 20
543.2298933797788
 30
0
 11
1352.740891267812
 21
543.2760308435161
 31
0
  0
LINE
  8
1
 62
7
 10
1352.740891267812
 20
543.2760308435161
 30
0
 11
1352.519431441875
 21
543.2760308435161
 31
0
  0
LINE
  8
1
 62
7
 10
1352.519431441875
 20
543.2760308435161
 30
0
 11
1352.297971615937
 21
543.2298933797788
 31
0
  0
LINE
  8
1
 62
7
 10
1352.297971615937
 20
543.2298933797788
 30
0
 11
1352.131876746484
 21
543.1376184523049
 31
0
  0
LINE
  8
1
 62
7
 10
1352.131876746484
 20
543.1376184523049
 30
0
 11
1352.021146833515
 21
542.9992060610939
 31
0
  0
LINE
  8
1
 62
7
 10
1352.021146833515
 20
542.9992060610939
 30
0
 11
1351.965781877031
 21
542.8607936698828
 31
0
  0
LINE
  8
1
 62
7
 10
1351.965781877031
 20
542.8607936698828
 30
0
 11
1351.965781877031
 21
542.6762438149349
 31
0
  0
LINE
  8
1
 62
7
 10
1351.965781877031
 20
542.6762438149349
 30
0
 11
1351.356767355703
 21
542.6762438149349
 31
0
  0
LINE
  8
1
 62
7
 10
1351.356767355703
 20
542.6762438149349
 30
0
 11
1351.356767355703
 21
542.8607936698828
 31
0
  0
LINE
  8
1
 62
7
 10
1351.356767355703
 20
542.8607936698828
 30
0
 11
1351.412132312187
 21
543.0914809885678
 31
0
  0
LINE
  8
1
 62
7
 10
1351.412132312187
 20
543.0914809885678
 30
0
 11
1351.633592138124
 21
543.3683057709899
 31
0
  0
LINE
  8
1
 62
7
 10
1351.633592138124
 20
543.3683057709899
 30
0
 11
1351.855051964062
 21
543.5528556259378
 31
0
  0
LINE
  8
1
 62
7
 10
1351.855051964062
 20
543.5528556259378
 30
0
 11
1352.187241702968
 21
543.6912680171488
 31
0
  0
LINE
  8
1
 62
7
 10
1352.187241702968
 20
543.6912680171488
 30
0
 11
1352.46406648539
 21
543.7374054808859
 31
0
  0
LINE
  8
1
 62
7
 10
1352.46406648539
 20
543.7374054808859
 30
0
 11
1352.796256224297
 21
543.7374054808859
 31
0
  0
LINE
  8
1
 62
7
 10
1352.796256224297
 20
543.7374054808859
 30
0
 11
1353.073081006718
 21
543.6912680171488
 31
0
  0
LINE
  8
1
 62
7
 10
1353.073081006718
 20
543.6912680171488
 30
0
 11
1353.405270745625
 21
543.5528556259378
 31
0
  0
LINE
  8
1
 62
7
 10
1353.405270745625
 20
543.5528556259378
 30
0
 11
1353.626730571562
 21
543.3683057709899
 31
0
  0
LINE
  8
1
 62
7
 10
1353.626730571562
 20
543.3683057709899
 30
0
 11
1353.8481903975
 21
543.0914809885678
 31
0
  0
LINE
  8
1
 62
7
 10
1353.8481903975
 20
543.0914809885678
 30
0
 11
1353.903555353985
 21
542.8607936698828
 31
0
  0
LINE
  8
1
 62
7
 10
1353.903555353985
 20
542.8607936698828
 30
0
 11
1353.903555353985
 21
542.6762438149349
 31
0
  0
LINE
  8
1
 62
7
 10
1353.903555353985
 20
542.6762438149349
 30
0
 11
1353.8481903975
 21
542.44555649625
 31
0
  0
LINE
  8
1
 62
7
 10
1353.8481903975
 20
542.44555649625
 30
0
 11
1353.626730571562
 21
542.1687317138279
 31
0
  0
LINE
  8
1
 62
7
 10
1353.626730571562
 20
542.1687317138279
 30
0
 11
1353.516000658594
 21
542.076456786354
 31
0
  0
LINE
  8
1
 62
7
 10
1353.516000658594
 20
542.076456786354
 30
0
 11
1353.073081006718
 21
541.7534945401951
 31
0
  0
LINE
  8
1
 62
7
 10
1353.073081006718
 20
541.7534945401951
 30
0
 11
1352.685526311328
 21
541.4766697577732
 31
0
  0
LINE
  8
1
 62
7
 10
1352.685526311328
 20
541.4766697577732
 30
0
 11
1352.297971615937
 21
541.1075700478772
 31
0
  0
LINE
  8
1
 62
7
 10
1352.297971615937
 20
541.1075700478772
 30
0
 11
1352.021146833515
 21
540.7846078017183
 31
0
  0
LINE
  8
1
 62
7
 10
1352.021146833515
 20
540.7846078017183
 30
0
 11
1351.910416920546
 21
540.5077830192962
 31
0
  0
LINE
  8
1
 62
7
 10
1351.910416920546
 20
540.5077830192962
 30
0
 11
1354.069650223438
 21
540.5077830192962
 31
0
  0
LINE
  8
1
 62
7
 10
1354.069650223438
 20
540.5077830192962
 30
0
 11
1354.069650223438
 21
540.0464083819262
 31
0
  0
LINE
  8
1
 62
7
 10
1354.069650223438
 20
540.0464083819262
 30
0
 11
1351.135307529765
 21
540.0464083819262
 31
0
  0
LINE
  8
1
 62
7
 10
1359.116748963633
 20
541.845769467669
 30
0
 11
1359.33820878957
 21
541.845769467669
 31
0
  0
LINE
  8
1
 62
7
 10
1359.33820878957
 20
541.845769467669
 30
0
 11
1359.615033571992
 21
541.7996320039322
 31
0
  0
LINE
  8
1
 62
7
 10
1359.615033571992
 20
541.7996320039322
 30
0
 11
1359.83649339793
 21
541.661219612721
 31
0
  0
LINE
  8
1
 62
7
 10
1359.83649339793
 20
541.661219612721
 30
0
 11
1360.002588267383
 21
541.4766697577732
 31
0
  0
LINE
  8
1
 62
7
 10
1360.002588267383
 20
541.4766697577732
 30
0
 11
1360.057953223867
 21
541.2921199028251
 31
0
  0
LINE
  8
1
 62
7
 10
1360.057953223867
 20
541.2921199028251
 30
0
 11
1360.057953223867
 21
541.1075700478772
 31
0
  0
LINE
  8
1
 62
7
 10
1360.057953223867
 20
541.1075700478772
 30
0
 11
1360.002588267383
 21
540.9230201929292
 31
0
  0
LINE
  8
1
 62
7
 10
1360.002588267383
 20
540.9230201929292
 30
0
 11
1359.83649339793
 21
540.7384703379812
 31
0
  0
LINE
  8
1
 62
7
 10
1359.83649339793
 20
540.7384703379812
 30
0
 11
1359.615033571992
 21
540.6000579467701
 31
0
  0
LINE
  8
1
 62
7
 10
1359.615033571992
 20
540.6000579467701
 30
0
 11
1359.33820878957
 21
540.5539204830334
 31
0
  0
LINE
  8
1
 62
7
 10
1359.33820878957
 20
540.5539204830334
 30
0
 11
1359.116748963633
 21
540.5539204830334
 31
0
  0
LINE
  8
1
 62
7
 10
1359.116748963633
 20
540.5539204830334
 30
0
 11
1358.839924181211
 21
540.6000579467701
 31
0
  0
LINE
  8
1
 62
7
 10
1358.839924181211
 20
540.6000579467701
 30
0
 11
1358.618464355273
 21
540.7384703379812
 31
0
  0
LINE
  8
1
 62
7
 10
1358.618464355273
 20
540.7384703379812
 30
0
 11
1358.45236948582
 21
540.9230201929292
 31
0
  0
LINE
  8
1
 62
7
 10
1358.45236948582
 20
540.9230201929292
 30
0
 11
1358.397004529335
 21
541.1075700478772
 31
0
  0
LINE
  8
1
 62
7
 10
1358.397004529335
 20
541.1075700478772
 30
0
 11
1358.397004529335
 21
541.2921199028251
 31
0
  0
LINE
  8
1
 62
7
 10
1358.397004529335
 20
541.2921199028251
 30
0
 11
1357.732625051523
 21
541.2921199028251
 31
0
  0
LINE
  8
1
 62
7
 10
1357.732625051523
 20
541.2921199028251
 30
0
 11
1357.732625051523
 21
541.0614325841401
 31
0
  0
LINE
  8
1
 62
7
 10
1357.732625051523
 20
541.0614325841401
 30
0
 11
1357.843354964492
 21
540.7384703379812
 31
0
  0
LINE
  8
1
 62
7
 10
1357.843354964492
 20
540.7384703379812
 30
0
 11
1358.009449833945
 21
540.5077830192962
 31
0
  0
LINE
  8
1
 62
7
 10
1358.009449833945
 20
540.5077830192962
 30
0
 11
1358.286274616367
 21
540.2770957006112
 31
0
  0
LINE
  8
1
 62
7
 10
1358.286274616367
 20
540.2770957006112
 30
0
 11
1358.618464355273
 21
540.1386833094001
 31
0
  0
LINE
  8
1
 62
7
 10
1358.618464355273
 20
540.1386833094001
 30
0
 11
1359.061384007148
 21
540.0464083819262
 31
0
  0
LINE
  8
1
 62
7
 10
1359.061384007148
 20
540.0464083819262
 30
0
 11
1359.393573746054
 21
540.0464083819262
 31
0
  0
LINE
  8
1
 62
7
 10
1359.393573746054
 20
540.0464083819262
 30
0
 11
1359.83649339793
 21
540.1386833094001
 31
0
  0
LINE
  8
1
 62
7
 10
1359.83649339793
 20
540.1386833094001
 30
0
 11
1360.168683136836
 21
540.2770957006112
 31
0
  0
LINE
  8
1
 62
7
 10
1360.168683136836
 20
540.2770957006112
 30
0
 11
1360.445507919258
 21
540.5077830192962
 31
0
  0
LINE
  8
1
 62
7
 10
1360.445507919258
 20
540.5077830192962
 30
0
 11
1360.611602788711
 21
540.7384703379812
 31
0
  0
LINE
  8
1
 62
7
 10
1360.611602788711
 20
540.7384703379812
 30
0
 11
1360.72233270168
 21
541.0614325841401
 31
0
  0
LINE
  8
1
 62
7
 10
1360.72233270168
 20
541.0614325841401
 30
0
 11
1360.72233270168
 21
541.2921199028251
 31
0
  0
LINE
  8
1
 62
7
 10
1360.72233270168
 20
541.2921199028251
 30
0
 11
1360.611602788711
 21
541.615082148984
 31
0
  0
LINE
  8
1
 62
7
 10
1360.611602788711
 20
541.615082148984
 30
0
 11
1360.390142962774
 21
541.8919069314061
 31
0
  0
LINE
  8
1
 62
7
 10
1360.390142962774
 20
541.8919069314061
 30
0
 11
1360.113318180352
 21
542.076456786354
 31
0
  0
LINE
  8
1
 62
7
 10
1360.113318180352
 20
542.076456786354
 30
0
 11
1360.22404809332
 21
542.1687317138279
 31
0
  0
LINE
  8
1
 62
7
 10
1360.22404809332
 20
542.1687317138279
 30
0
 11
1360.445507919258
 21
542.44555649625
 31
0
  0
LINE
  8
1
 62
7
 10
1360.445507919258
 20
542.44555649625
 30
0
 11
1360.500872875742
 21
542.6762438149349
 31
0
  0
LINE
  8
1
 62
7
 10
1360.500872875742
 20
542.6762438149349
 30
0
 11
1360.500872875742
 21
542.8607936698828
 31
0
  0
LINE
  8
1
 62
7
 10
1360.500872875742
 20
542.8607936698828
 30
0
 11
1360.445507919258
 21
543.0914809885678
 31
0
  0
LINE
  8
1
 62
7
 10
1360.445507919258
 20
543.0914809885678
 30
0
 11
1360.22404809332
 21
543.3683057709899
 31
0
  0
LINE
  8
1
 62
7
 10
1360.22404809332
 20
543.3683057709899
 30
0
 11
1360.002588267383
 21
543.5528556259378
 31
0
  0
LINE
  8
1
 62
7
 10
1360.002588267383
 20
543.5528556259378
 30
0
 11
1359.670398528476
 21
543.6912680171488
 31
0
  0
LINE
  8
1
 62
7
 10
1359.670398528476
 20
543.6912680171488
 30
0
 11
1359.393573746054
 21
543.7374054808859
 31
0
  0
LINE
  8
1
 62
7
 10
1359.393573746054
 20
543.7374054808859
 30
0
 11
1359.061384007148
 21
543.7374054808859
 31
0
  0
LINE
  8
1
 62
7
 10
1359.061384007148
 20
543.7374054808859
 30
0
 11
1358.784559224726
 21
543.6912680171488
 31
0
  0
LINE
  8
1
 62
7
 10
1358.784559224726
 20
543.6912680171488
 30
0
 11
1358.45236948582
 21
543.5528556259378
 31
0
  0
LINE
  8
1
 62
7
 10
1358.45236948582
 20
543.5528556259378
 30
0
 11
1358.230909659882
 21
543.3683057709899
 31
0
  0
LINE
  8
1
 62
7
 10
1358.230909659882
 20
543.3683057709899
 30
0
 11
1358.009449833945
 21
543.0914809885678
 31
0
  0
LINE
  8
1
 62
7
 10
1358.009449833945
 20
543.0914809885678
 30
0
 11
1357.95408487746
 21
542.8607936698828
 31
0
  0
LINE
  8
1
 62
7
 10
1357.95408487746
 20
542.8607936698828
 30
0
 11
1357.95408487746
 21
542.6762438149349
 31
0
  0
LINE
  8
1
 62
7
 10
1357.95408487746
 20
542.6762438149349
 30
0
 11
1358.563099398789
 21
542.6762438149349
 31
0
  0
LINE
  8
1
 62
7
 10
1358.563099398789
 20
542.6762438149349
 30
0
 11
1358.563099398789
 21
542.8607936698828
 31
0
  0
LINE
  8
1
 62
7
 10
1358.563099398789
 20
542.8607936698828
 30
0
 11
1358.618464355273
 21
542.9992060610939
 31
0
  0
LINE
  8
1
 62
7
 10
1358.618464355273
 20
542.9992060610939
 30
0
 11
1358.729194268242
 21
543.1376184523049
 31
0
  0
LINE
  8
1
 62
7
 10
1358.729194268242
 20
543.1376184523049
 30
0
 11
1358.895289137695
 21
543.2298933797788
 31
0
  0
LINE
  8
1
 62
7
 10
1358.895289137695
 20
543.2298933797788
 30
0
 11
1359.116748963633
 21
543.2760308435161
 31
0
  0
LINE
  8
1
 62
7
 10
1359.116748963633
 20
543.2760308435161
 30
0
 11
1359.33820878957
 21
543.2760308435161
 31
0
  0
LINE
  8
1
 62
7
 10
1359.33820878957
 20
543.2760308435161
 30
0
 11
1359.559668615508
 21
543.2298933797788
 31
0
  0
LINE
  8
1
 62
7
 10
1359.559668615508
 20
543.2298933797788
 30
0
 11
1359.725763484961
 21
543.1376184523049
 31
0
  0
LINE
  8
1
 62
7
 10
1359.725763484961
 20
543.1376184523049
 30
0
 11
1359.83649339793
 21
542.9992060610939
 31
0
  0
LINE
  8
1
 62
7
 10
1359.83649339793
 20
542.9992060610939
 30
0
 11
1359.891858354414
 21
542.8607936698828
 31
0
  0
LINE
  8
1
 62
7
 10
1359.891858354414
 20
542.8607936698828
 30
0
 11
1359.891858354414
 21
542.6762438149349
 31
0
  0
LINE
  8
1
 62
7
 10
1359.891858354414
 20
542.6762438149349
 30
0
 11
1359.83649339793
 21
542.5378314237239
 31
0
  0
LINE
  8
1
 62
7
 10
1359.83649339793
 20
542.5378314237239
 30
0
 11
1359.725763484961
 21
542.3994190325128
 31
0
  0
LINE
  8
1
 62
7
 10
1359.725763484961
 20
542.3994190325128
 30
0
 11
1359.559668615508
 21
542.3071441050389
 31
0
  0
LINE
  8
1
 62
7
 10
1359.559668615508
 20
542.3071441050389
 30
0
 11
1359.33820878957
 21
542.2610066413022
 31
0
  0
LINE
  8
1
 62
7
 10
1359.33820878957
 20
542.2610066413022
 30
0
 11
1359.116748963633
 21
542.2610066413022
 31
0
  0
LINE
  8
1
 62
7
 10
1359.116748963633
 20
542.2610066413022
 30
0
 11
1359.116748963633
 21
541.845769467669
 31
0
  0
LINE
  8
1
 62
7
 10
1367.432193994562
 20
543.7374054808859
 30
0
 11
1368.041208515891
 21
543.7374054808859
 31
0
  0
LINE
  8
1
 62
7
 10
1368.041208515891
 20
543.7374054808859
 30
0
 11
1368.041208515891
 21
541.3382573665622
 31
0
  0
LINE
  8
1
 62
7
 10
1368.041208515891
 20
541.3382573665622
 30
0
 11
1368.594858080734
 21
541.3382573665622
 31
0
  0
LINE
  8
1
 62
7
 10
1368.594858080734
 20
541.3382573665622
 30
0
 11
1368.594858080734
 21
540.8768827291922
 31
0
  0
LINE
  8
1
 62
7
 10
1368.594858080734
 20
540.8768827291922
 30
0
 11
1368.041208515891
 21
540.8768827291922
 31
0
  0
LINE
  8
1
 62
7
 10
1368.041208515891
 20
540.8768827291922
 30
0
 11
1368.041208515891
 21
540.0464083819262
 31
0
  0
LINE
  8
1
 62
7
 10
1368.041208515891
 20
540.0464083819262
 30
0
 11
1367.432193994562
 21
540.0464083819262
 31
0
  0
LINE
  8
1
 62
7
 10
1367.432193994562
 20
540.0464083819262
 30
0
 11
1367.432193994562
 21
540.8768827291922
 31
0
  0
LINE
  8
1
 62
7
 10
1367.432193994562
 20
540.8768827291922
 30
0
 11
1365.549785474093
 21
540.8768827291922
 31
0
  0
LINE
  8
1
 62
7
 10
1365.549785474093
 20
540.8768827291922
 30
0
 11
1365.549785474093
 21
541.384394830299
 31
0
  0
LINE
  8
1
 62
7
 10
1365.549785474093
 20
541.384394830299
 30
0
 11
1367.432193994562
 21
543.7374054808859
 31
0
  0
LINE
  8
1
 62
7
 10
1367.432193994562
 20
542.90693113362
 30
0
 11
1366.158799995421
 21
541.3382573665622
 31
0
  0
LINE
  8
1
 62
7
 10
1366.158799995421
 20
541.3382573665622
 30
0
 11
1367.432193994562
 21
541.3382573665622
 31
0
  0
LINE
  8
1
 62
7
 10
1367.432193994562
 20
541.3382573665622
 30
0
 11
1367.432193994562
 21
542.90693113362
 31
0
  0
LINE
  8
1
 62
7
 10
1341.473158972351
 20
570.904217532636
 30
0
 11
1350.473158972351
 21
570.904217532636
 31
0
  0
LINE
  8
1
 62
7
 10
1349.473158972351
 20
572.904217532636
 30
0
 11
1380.76234323469
 21
572.904217532636
 31
0
  0
LINE
  8
1
 62
2
  6
DASHDOT
 10
1395.77702991065
 20
561.904217532636
 30
0
 11
1284.68742688607
 21
561.904217532636
 31
0
  0
LINE
  8
1
 62
2
  6
DASHDOT
 10
1341.473158972351
 20
611.404217532636
 30
0
 11
1341.473158972351
 21
512.404217532636
 31
0
  0
LINE
  8
0
 62
7
 10
1346.09120692077
 20
471.8969117549924
 30
0
 11
1346.566524340898
 21
474.5929306017516
 31
0
  0
LINE
  8
0
 62
7
 10
1345.017097592269
 20
471.8969117549924
 30
0
 11
1346.09120692077
 21
471.8969117549924
 31
0
  0
LINE
  8
0
 62
7
 10
1345.442602349877
 20
474.3104856147876
 30
0
 11
1345.017097592269
 21
471.8969117549924
 31
0
  0
LINE
  8
0
 62
7
 10
1339.487618121152
 20
474.1190344916753
 30
0
 11
1339.475138749377
 21
474.1064169610035
 31
0
  0
LINE
  8
0
 62
7
 10
1338.227396060467
 20
474.1190344916753
 30
0
 11
1339.487618121152
 21
474.1190344916753
 31
0
  0
LINE
  8
0
 62
7
 10
1338.384044251673
 20
475.007966755225
 30
0
 11
1338.227396060467
 21
474.1190344916753
 31
0
  0
LINE
  8
0
 62
7
 10
1340.995135637452
 20
475.007966755225
 30
0
 11
1338.384044251673
 21
475.007966755225
 31
0
  0
LINE
  8
0
 62
7
 10
1340.865872325259
 20
474.341406164556
 30
0
 11
1340.995135637452
 21
475.007966755225
 31
0
  0
LINE
  8
0
 62
7
 10
1340.091384335594
 20
473.528354126298
 30
0
 11
1340.865872325259
 21
474.341406164556
 31
0
  0
LINE
  8
0
 62
7
 10
1339.335337766414
 20
472.7857052806019
 30
0
 11
1339.341477498515
 21
472.7984011754953
 31
0
  0
LINE
  8
0
 62
7
 10
1340.651785311528
 20
472.7857052806019
 30
0
 11
1339.335337766414
 21
472.7857052806019
 31
0
  0
LINE
  8
0
 62
7
 10
1340.495102464125
 20
471.8969117549924
 30
0
 11
1340.651785311528
 21
472.7857052806019
 31
0
  0
LINE
  8
0
 62
7
 10
1337.810020245092
 20
471.8969117549924
 30
0
 11
1340.495102464125
 21
471.8969117549924
 31
0
  0
LINE
  8
0
 62
7
 10
1337.931570695263
 20
472.5864547114807
 30
0
 11
1337.810020245092
 21
471.8969117549924
 31
0
  0
LINE
  8
0
 62
7
 10
1338.714539621349
 20
473.3766517088535
 30
0
 11
1337.931570695263
 21
472.5864547114807
 31
0
  0
LINE
  8
0
 62
7
 10
1342.583910351953
 20
474.1191038247387
 30
0
 11
1342.572264211706
 21
474.1191038247387
 31
0
  0
LINE
  8
0
 62
7
 10
1343.068968491275
 20
475.0041189902246
 30
0
 11
1342.583910351953
 21
474.1191038247387
 31
0
  0
LINE
  8
0
 62
7
 10
1341.977735083132
 20
476.5634943374544
 30
0
 11
1341.335040859512
 21
473.246741064314
 31
0
  0
LINE
  8
0
 62
7
 10
1343.05184420628
 20
476.5634943374544
 30
0
 11
1341.977735083132
 21
476.5634943374544
 31
0
  0
LINE
  8
0
 62
7
 10
1342.614243013587
 20
474.3053285531337
 30
0
 11
1343.05184420628
 21
476.5634943374544
 31
0
  0
LINE
  8
0
 62
7
 10
1335.984258449491
 20
472.785774593137
 30
0
 11
1335.995073804612
 21
472.7857746601547
 31
0
  0
LINE
  8
0
 62
7
 10
1335.499009776386
 20
471.9007247771583
 30
0
 11
1335.984258449491
 21
472.785774593137
 31
0
  0
LINE
  8
0
 62
7
 10
1337.235190501679
 20
473.6682593684117
 30
0
 11
1337.237712692707
 21
473.6804113768712
 31
0
  0
LINE
  8
0
 62
7
 10
1335.873055356481
 20
471.8969117289797
 30
0
 11
1336.965744614856
 21
471.8969117549924
 31
0
  0
LINE
  8
0
 62
7
 10
1348.817717362899
 20
476.5634943374544
 30
0
 11
1347.74350390144
 21
476.5634943374544
 31
0
  0
LINE
  8
0
 62
7
 10
1347.994820466762
 20
471.8969117549924
 30
0
 11
1348.817717362899
 21
476.5634943374544
 31
0
  0
LINE
  8
0
 62
7
 10
1346.920780779318
 20
471.8969117549924
 30
0
 11
1347.994820466762
 21
471.8969117549924
 31
0
  0
LINE
  8
0
 62
7
 10
1347.74350390144
 20
476.5634943374544
 30
0
 11
1346.920780779318
 21
471.8969117549924
 31
0
  0
LINE
  8
1
 62
7
 10
1328.723158972352
 20
477.2655758654715
 30
0
 11
1328.723158972352
 21
471.1945080536061
 31
0
  0
LINE
  8
1
 62
7
 10
1329.223158972352
 20
470.6945080536061
 30
0
 11
1353.723158972352
 21
470.6945080536061
 31
0
  0
LINE
  8
1
 62
7
 10
1354.223158972352
 20
471.1945080536061
 30
0
 11
1354.223158972352
 21
477.2655758654715
 31
0
  0
LINE
  8
1
 62
7
 10
1353.723158972352
 20
477.7655758654715
 30
0
 11
1329.223158972352
 21
477.7655758654715
 31
0
  0
LINE
  8
0
 62
7
 10
1346.09120692077
 20
525.2505590035149
 30
0
 11
1346.566524340898
 21
527.946577850274
 31
0
  0
LINE
  8
0
 62
7
 10
1345.017097592268
 20
525.2505590035149
 30
0
 11
1346.09120692077
 21
525.2505590035149
 31
0
  0
LINE
  8
0
 62
7
 10
1345.442602349877
 20
527.6641328633101
 30
0
 11
1345.017097592268
 21
525.2505590035149
 31
0
  0
LINE
  8
0
 62
7
 10
1339.487618121152
 20
527.4726817401978
 30
0
 11
1339.475138749376
 21
527.460064209526
 31
0
  0
LINE
  8
0
 62
7
 10
1338.227396060466
 20
527.4726817401978
 30
0
 11
1339.487618121152
 21
527.4726817401978
 31
0
  0
LINE
  8
0
 62
7
 10
1338.384044251673
 20
528.3616140037475
 30
0
 11
1338.227396060466
 21
527.4726817401978
 31
0
  0
LINE
  8
0
 62
7
 10
1340.995135637452
 20
528.3616140037475
 30
0
 11
1338.384044251673
 21
528.3616140037475
 31
0
  0
LINE
  8
0
 62
7
 10
1340.865872325258
 20
527.6950534130784
 30
0
 11
1340.995135637452
 21
528.3616140037475
 31
0
  0
LINE
  8
0
 62
7
 10
1340.091384335594
 20
526.8820013748205
 30
0
 11
1340.865872325258
 21
527.6950534130784
 31
0
  0
LINE
  8
0
 62
7
 10
1339.335337766414
 20
526.1393525291244
 30
0
 11
1339.341477498515
 21
526.1520484240178
 31
0
  0
LINE
  8
0
 62
7
 10
1340.651785311528
 20
526.1393525291244
 30
0
 11
1339.335337766414
 21
526.1393525291244
 31
0
  0
LINE
  8
0
 62
7
 10
1340.495102464124
 20
525.2505590035149
 30
0
 11
1340.651785311528
 21
526.1393525291244
 31
0
  0
LINE
  8
0
 62
7
 10
1337.810020245091
 20
525.2505590035149
 30
0
 11
1340.495102464124
 21
525.2505590035149
 31
0
  0
LINE
  8
0
 62
7
 10
1337.931570695263
 20
525.9401019600032
 30
0
 11
1337.810020245091
 21
525.2505590035149
 31
0
  0
LINE
  8
0
 62
7
 10
1338.714539621349
 20
526.730298957376
 30
0
 11
1337.931570695263
 21
525.9401019600032
 31
0
  0
LINE
  8
0
 62
7
 10
1342.583910351953
 20
527.4727510732612
 30
0
 11
1342.572264211706
 21
527.4727510732612
 31
0
  0
LINE
  8
0
 62
7
 10
1343.068968491275
 20
528.3577662387471
 30
0
 11
1342.583910351953
 21
527.4727510732612
 31
0
  0
LINE
  8
0
 62
7
 10
1341.977735083131
 20
529.9171415859769
 30
0
 11
1341.335040859512
 21
526.6003883128365
 31
0
  0
LINE
  8
0
 62
7
 10
1343.051844206279
 20
529.9171415859769
 30
0
 11
1341.977735083131
 21
529.9171415859769
 31
0
  0
LINE
  8
0
 62
7
 10
1342.614243013587
 20
527.6589758016562
 30
0
 11
1343.051844206279
 21
529.9171415859769
 31
0
  0
LINE
  8
0
 62
7
 10
1335.98425844949
 20
526.1394218416594
 30
0
 11
1335.995073804611
 21
526.1394219086772
 31
0
  0
LINE
  8
0
 62
7
 10
1335.499009776386
 20
525.2543720256807
 30
0
 11
1335.98425844949
 21
526.1394218416594
 31
0
  0
LINE
  8
0
 62
7
 10
1337.235190501679
 20
527.0219066169342
 30
0
 11
1337.237712692706
 21
527.0340586253938
 31
0
  0
LINE
  8
0
 62
7
 10
1335.87305535648
 20
525.2505589775022
 30
0
 11
1336.965744614856
 21
525.2505590035149
 31
0
  0
LINE
  8
0
 62
7
 10
1348.817717362899
 20
529.9171415859769
 30
0
 11
1347.743503901439
 21
529.9171415859769
 31
0
  0
LINE
  8
0
 62
7
 10
1347.994820466762
 20
525.2505590035149
 30
0
 11
1348.817717362899
 21
529.9171415859769
 31
0
  0
LINE
  8
0
 62
7
 10
1346.920780779318
 20
525.2505590035149
 30
0
 11
1347.994820466762
 21
525.2505590035149
 31
0
  0
LINE
  8
0
 62
7
 10
1347.743503901439
 20
529.9171415859769
 30
0
 11
1346.920780779318
 21
525.2505590035149
 31
0
  0
LINE
  8
1
 62
7
 10
1328.723158972351
 20
530.6192231139941
 30
0
 11
1328.723158972351
 21
524.5481553021285
 31
0
  0
LINE
  8
1
 62
7
 10
1329.223158972351
 20
524.0481553021285
 30
0
 11
1353.723158972351
 21
524.0481553021285
 31
0
  0
LINE
  8
1
 62
7
 10
1354.223158972351
 20
524.5481553021285
 30
0
 11
1354.223158972351
 21
530.6192231139941
 31
0
  0
LINE
  8
1
 62
7
 10
1353.723158972351
 20
531.1192231139941
 30
0
 11
1329.223158972351
 21
531.1192231139941
 31
0
  0
LINE
  8
1
 62
2
 10
1300.4932638481
 20
339.6388879150733
 30
0
 11
1300.284930514767
 21
339.2873254150733
 31
0
  0
LINE
  8
1
 62
2
 10
1300.284930514767
 20
339.2873254150733
 30
0
 11
1300.076597181433
 21
338.7013879150733
 31
0
  0
LINE
  8
1
 62
2
 10
1300.076597181433
 20
338.7013879150733
 30
0
 11
1300.076597181433
 21
336.8263879150733
 31
0
  0
LINE
  8
1
 62
2
 10
1300.076597181433
 20
336.8263879150733
 30
0
 11
1300.284930514767
 21
336.2404504150733
 31
0
  0
LINE
  8
1
 62
2
 10
1300.284930514767
 20
336.2404504150733
 30
0
 11
1300.4932638481
 21
335.8888879150733
 31
0
  0
LINE
  8
1
 62
2
 10
1302.784930514767
 20
336.1232629150733
 30
0
 11
1302.784930514767
 21
338.3498254150733
 31
0
  0
LINE
  8
1
 62
2
 10
1302.784930514767
 20
338.3498254150733
 30
0
 11
1305.284930514767
 21
338.3498254150733
 31
0
  0
LINE
  8
1
 62
2
 10
1305.284930514767
 20
338.3498254150733
 30
0
 11
1305.284930514767
 21
336.1232629150733
 31
0
  0
LINE
  8
1
 62
2
 10
1305.284930514767
 20
336.1232629150733
 30
0
 11
1302.784930514767
 21
336.1232629150733
 31
0
  0
LINE
  8
1
 62
2
 10
1302.9932638481
 20
336.9435754150733
 30
0
 11
1303.3057638481
 21
337.2951379150733
 31
0
  0
LINE
  8
1
 62
2
 10
1303.3057638481
 20
337.2951379150733
 30
0
 11
1303.6182638481
 21
337.9982629150733
 31
0
  0
LINE
  8
1
 62
2
 10
1303.6182638481
 20
337.9982629150733
 30
0
 11
1303.6182638481
 21
339.2873254150733
 31
0
  0
LINE
  8
1
 62
2
 10
1302.472430514767
 20
339.2873254150733
 30
0
 11
1303.6182638481
 21
339.2873254150733
 31
0
  0
LINE
  8
1
 62
2
 10
1304.347430514767
 20
339.2873254150733
 30
0
 11
1304.347430514767
 21
337.4123254150733
 31
0
  0
LINE
  8
1
 62
2
 10
1304.347430514767
 20
337.4123254150733
 30
0
 11
1304.451597181433
 21
337.1779504150733
 31
0
  0
LINE
  8
1
 62
2
 10
1304.451597181433
 20
337.1779504150733
 30
0
 11
1304.972430514767
 21
337.1779504150733
 31
0
  0
LINE
  8
1
 62
2
 10
1304.972430514767
 20
337.1779504150733
 30
0
 11
1305.076597181433
 21
337.4123254150733
 31
0
  0
LINE
  8
1
 62
2
 10
1304.347430514767
 20
339.2873254150733
 30
0
 11
1305.597430514767
 21
339.2873254150733
 31
0
  0
LINE
  8
1
 62
2
 10
1303.6182638481
 20
339.2873254150733
 30
0
 11
1304.347430514767
 21
339.2873254150733
 31
0
  0
LINE
  8
1
 62
2
 10
1306.1182638481
 20
336.1232629150733
 30
0
 11
1306.222430514767
 21
336.4748254150733
 31
0
  0
LINE
  8
1
 62
2
 10
1306.222430514767
 20
336.4748254150733
 30
0
 11
1306.326597181433
 21
337.5295129150733
 31
0
  0
LINE
  8
1
 62
2
 10
1306.326597181433
 20
337.5295129150733
 30
0
 11
1306.326597181433
 21
339.5217004150733
 31
0
  0
LINE
  8
1
 62
2
 10
1306.326597181433
 20
339.5217004150733
 30
0
 11
1309.2432638481
 21
339.5217004150733
 31
0
  0
LINE
  8
1
 62
2
 10
1309.2432638481
 20
338.7013879150733
 30
0
 11
1308.6182638481
 21
338.7013879150733
 31
0
  0
LINE
  8
1
 62
2
 10
1307.784930514767
 20
338.7013879150733
 30
0
 11
1306.7432638481
 21
338.7013879150733
 31
0
  0
LINE
  8
1
 62
2
 10
1307.264097181433
 20
339.2873254150733
 30
0
 11
1307.264097181433
 21
338.7013879150733
 31
0
  0
LINE
  8
1
 62
2
 10
1306.639097181433
 20
337.7638879150733
 30
0
 11
1306.951597181433
 21
338.1154504150733
 31
0
  0
LINE
  8
1
 62
2
 10
1306.951597181433
 20
338.1154504150733
 30
0
 11
1307.264097181433
 21
338.7013879150733
 31
0
  0
LINE
  8
1
 62
2
 10
1307.472430514767
 20
338.3498254150733
 30
0
 11
1307.784930514767
 21
337.9982629150733
 31
0
  0
LINE
  8
1
 62
2
 10
1307.784930514767
 20
337.6467004150733
 30
0
 11
1308.097430514767
 21
337.8810754150733
 31
0
  0
LINE
  8
1
 62
2
 10
1308.097430514767
 20
337.8810754150733
 30
0
 11
1308.6182638481
 21
338.7013879150733
 31
0
  0
LINE
  8
1
 62
2
 10
1308.6182638481
 20
339.2873254150733
 30
0
 11
1308.6182638481
 21
338.7013879150733
 31
0
  0
LINE
  8
1
 62
2
 10
1308.6182638481
 20
338.7013879150733
 30
0
 11
1308.9307638481
 21
338.2326379150733
 31
0
  0
LINE
  8
1
 62
2
 10
1308.9307638481
 20
338.2326379150733
 30
0
 11
1309.451597181433
 21
337.6467004150733
 31
0
  0
LINE
  8
1
 62
2
 10
1308.826597181433
 20
337.1779504150733
 30
0
 11
1307.159930514767
 21
337.1779504150733
 31
0
  0
LINE
  8
1
 62
2
 10
1307.159930514767
 20
337.1779504150733
 30
0
 11
1307.159930514767
 21
336.5920129150733
 31
0
  0
LINE
  8
1
 62
2
 10
1307.159930514767
 20
336.0060754150733
 30
0
 11
1308.826597181433
 21
336.0060754150733
 31
0
  0
LINE
  8
1
 62
2
 10
1308.826597181433
 20
336.0060754150733
 30
0
 11
1308.826597181433
 21
336.5920129150733
 31
0
  0
LINE
  8
1
 62
2
 10
1307.159930514767
 20
336.5920129150733
 30
0
 11
1308.826597181433
 21
336.5920129150733
 31
0
  0
LINE
  8
1
 62
2
 10
1308.826597181433
 20
336.5920129150733
 30
0
 11
1308.826597181433
 21
337.1779504150733
 31
0
  0
LINE
  8
1
 62
2
 10
1307.159930514767
 20
336.5920129150733
 30
0
 11
1307.159930514767
 21
336.0060754150733
 31
0
  0
LINE
  8
1
 62
2
 10
1308.6182638481
 20
338.7013879150733
 30
0
 11
1308.6182638481
 21
337.5295129150733
 31
0
  0
LINE
  8
1
 62
2
 10
1308.6182638481
 20
338.7013879150733
 30
0
 11
1307.9932638481
 21
338.7013879150733
 31
0
  0
LINE
  8
1
 62
2
 10
1307.264097181433
 20
338.7013879150733
 30
0
 11
1307.264097181433
 21
337.5295129150733
 31
0
  0
LINE
  8
1
 62
2
 10
1311.534930514767
 20
335.8888879150733
 30
0
 11
1311.534930514767
 21
339.1701379150733
 31
0
  0
LINE
  8
1
 62
2
 10
1313.097430514767
 20
339.1701379150733
 30
0
 11
1311.534930514767
 21
339.1701379150733
 31
0
  0
LINE
  8
1
 62
2
 10
1312.0557638481
 20
338.3498254150733
 30
0
 11
1312.6807638481
 21
337.6467004150733
 31
0
  0
LINE
  8
1
 62
2
 10
1311.534930514767
 20
339.1701379150733
 30
0
 11
1309.972430514767
 21
339.1701379150733
 31
0
  0
LINE
  8
1
 62
2
 10
1314.034930514767
 20
338.3498254150733
 30
0
 11
1314.139097181433
 21
338.5842004150733
 31
0
  0
LINE
  8
1
 62
2
 10
1314.139097181433
 20
338.5842004150733
 30
0
 11
1314.5557638481
 21
338.8185754150733
 31
0
  0
LINE
  8
1
 62
2
 10
1314.5557638481
 20
338.8185754150733
 30
0
 11
1314.972430514767
 21
338.9357629150733
 31
0
  0
LINE
  8
1
 62
2
 10
1314.972430514767
 20
338.9357629150733
 30
0
 11
1315.701597181433
 21
338.9357629150733
 31
0
  0
LINE
  8
1
 62
2
 10
1315.701597181433
 20
338.9357629150733
 30
0
 11
1316.1182638481
 21
338.8185754150733
 31
0
  0
LINE
  8
1
 62
2
 10
1316.1182638481
 20
338.8185754150733
 30
0
 11
1316.534930514767
 21
338.5842004150733
 31
0
  0
LINE
  8
1
 62
2
 10
1316.534930514767
 20
338.5842004150733
 30
0
 11
1316.639097181433
 21
338.3498254150733
 31
0
  0
LINE
  8
1
 62
2
 10
1316.639097181433
 20
338.3498254150733
 30
0
 11
1316.639097181433
 21
337.7638879150733
 31
0
  0
LINE
  8
1
 62
2
 10
1316.639097181433
 20
337.7638879150733
 30
0
 11
1316.534930514767
 21
337.5295129150733
 31
0
  0
LINE
  8
1
 62
2
 10
1316.534930514767
 20
337.5295129150733
 30
0
 11
1316.1182638481
 21
337.2951379150733
 31
0
  0
LINE
  8
1
 62
2
 10
1316.1182638481
 20
337.2951379150733
 30
0
 11
1314.451597181433
 21
337.0607629150733
 31
0
  0
LINE
  8
1
 62
2
 10
1314.451597181433
 20
337.0607629150733
 30
0
 11
1314.139097181433
 21
336.8263879150733
 31
0
  0
LINE
  8
1
 62
2
 10
1314.139097181433
 20
336.8263879150733
 30
0
 11
1314.034930514767
 21
336.5920129150733
 31
0
  0
LINE
  8
1
 62
2
 10
1314.034930514767
 20
336.5920129150733
 30
0
 11
1313.9307638481
 21
335.8888879150733
 31
0
  0
LINE
  8
1
 62
2
 10
1313.9307638481
 20
335.8888879150733
 30
0
 11
1316.639097181433
 21
335.8888879150733
 31
0
  0
LINE
  8
1
 62
2
 10
1317.576597181433
 20
338.5842004150733
 30
0
 11
1318.097430514767
 21
338.5842004150733
 31
0
  0
LINE
  8
1
 62
2
 10
1318.097430514767
 20
339.5217004150733
 30
0
 11
1318.097430514767
 21
338.5842004150733
 31
0
  0
LINE
  8
1
 62
2
 10
1318.097430514767
 20
338.5842004150733
 30
0
 11
1317.784930514767
 21
337.6467004150733
 31
0
  0
LINE
  8
1
 62
2
 10
1317.784930514767
 20
337.6467004150733
 30
0
 11
1317.576597181433
 21
337.2951379150733
 31
0
  0
LINE
  8
1
 62
2
 10
1317.576597181433
 20
337.2951379150733
 30
0
 11
1317.472430514767
 21
337.0607629150733
 31
0
  0
LINE
  8
1
 62
2
 10
1318.097430514767
 20
338.5842004150733
 30
0
 11
1318.514097181433
 21
337.6467004150733
 31
0
  0
LINE
  8
1
 62
2
 10
1319.2432638481
 20
339.4045129150733
 30
0
 11
1318.722430514767
 21
338.5842004150733
 31
0
  0
LINE
  8
1
 62
2
 10
1319.451597181433
 20
338.7013879150733
 30
0
 11
1319.139097181433
 21
338.1154504150733
 31
0
  0
LINE
  8
1
 62
2
 10
1319.139097181433
 20
338.1154504150733
 30
0
 11
1318.826597181433
 21
337.5295129150733
 31
0
  0
LINE
  8
1
 62
2
 10
1318.826597181433
 20
337.5295129150733
 30
0
 11
1318.514097181433
 21
337.1779504150733
 31
0
  0
LINE
  8
1
 62
2
 10
1319.034930514767
 20
337.8810754150733
 30
0
 11
1319.034930514767
 21
336.0060754150733
 31
0
  0
LINE
  8
1
 62
2
 10
1319.5557638481
 20
339.1701379150733
 30
0
 11
1320.4932638481
 21
339.1701379150733
 31
0
  0
LINE
  8
1
 62
2
 10
1319.451597181433
 20
338.2326379150733
 30
0
 11
1320.1807638481
 21
338.2326379150733
 31
0
  0
LINE
  8
1
 62
2
 10
1320.1807638481
 20
338.2326379150733
 30
0
 11
1320.1807638481
 21
336.2404504150733
 31
0
  0
LINE
  8
1
 62
2
 10
1320.1807638481
 20
336.2404504150733
 30
0
 11
1320.076597181433
 21
336.0060754150733
 31
0
  0
LINE
  8
1
 62
2
 10
1320.076597181433
 20
336.0060754150733
 30
0
 11
1319.764097181433
 21
336.0060754150733
 31
0
  0
LINE
  8
1
 62
2
 10
1320.1807638481
 20
338.2326379150733
 30
0
 11
1320.701597181433
 21
338.2326379150733
 31
0
  0
LINE
  8
1
 62
2
 10
1318.097430514767
 20
338.5842004150733
 30
0
 11
1318.097430514767
 21
336.0060754150733
 31
0
  0
LINE
  8
1
 62
2
 10
1318.097430514767
 20
338.5842004150733
 30
0
 11
1318.6182638481
 21
338.5842004150733
 31
0
  0
LINE
  8
1
 62
2
 10
1322.576597181433
 20
339.6388879150733
 30
0
 11
1322.784930514767
 21
339.2873254150733
 31
0
  0
LINE
  8
1
 62
2
 10
1322.784930514767
 20
339.2873254150733
 30
0
 11
1322.9932638481
 21
338.7013879150733
 31
0
  0
LINE
  8
1
 62
2
 10
1322.9932638481
 20
338.7013879150733
 30
0
 11
1322.9932638481
 21
336.8263879150733
 31
0
  0
LINE
  8
1
 62
2
 10
1322.9932638481
 20
336.8263879150733
 30
0
 11
1322.784930514767
 21
336.2404504150733
 31
0
  0
LINE
  8
1
 62
2
 10
1322.784930514767
 20
336.2404504150733
 30
0
 11
1322.576597181433
 21
335.8888879150733
 31
0
  0
LINE
  8
1
 62
2
 10
1256.291651249279
 20
406.0652513339737
 30
0
 11
1254.697901249279
 21
406.0652513339737
 31
0
  0
LINE
  8
1
 62
2
 10
1254.697901249279
 20
406.0652513339737
 30
0
 11
1254.297781012489
 21
405.9715013339737
 31
0
  0
LINE
  8
1
 62
2
 10
1254.297781012489
 20
405.9715013339737
 30
0
 11
1253.966290538908
 21
405.7840013339737
 31
0
  0
LINE
  8
1
 62
2
 10
1253.966290538908
 20
405.7840013339737
 30
0
 11
1253.728550065327
 21
405.5965013339737
 31
0
  0
LINE
  8
1
 62
2
 10
1253.728550065327
 20
405.5965013339737
 30
0
 11
1253.559439354956
 21
405.3152513339737
 31
0
  0
LINE
  8
1
 62
2
 10
1253.559439354956
 20
405.3152513339737
 30
0
 11
1253.365208407794
 21
404.9402513339737
 31
0
  0
LINE
  8
1
 62
2
 10
1253.365208407794
 20
404.9402513339737
 30
0
 11
1252.963284619148
 21
403.4402513339737
 31
0
  0
LINE
  8
1
 62
2
 10
1252.963284619148
 20
403.4402513339737
 30
0
 11
1252.956553671986
 21
403.0652513339737
 31
0
  0
LINE
  8
1
 62
2
 10
1252.956553671986
 20
403.0652513339737
 30
0
 11
1252.974942961615
 21
402.7840013339737
 31
0
  0
LINE
  8
1
 62
2
 10
1252.974942961615
 20
402.7840013339737
 30
0
 11
1253.112202488034
 21
402.5965013339737
 31
0
  0
LINE
  8
1
 62
2
 10
1253.112202488034
 20
402.5965013339737
 30
0
 11
1253.436962014453
 21
402.4090013339737
 31
0
  0
LINE
  8
1
 62
2
 10
1253.436962014453
 20
402.4090013339737
 30
0
 11
1253.693091777663
 21
402.3152513339737
 31
0
  0
LINE
  8
1
 62
2
 10
1253.693091777663
 20
402.3152513339737
 30
0
 11
1255.286841777663
 21
402.3152513339737
 31
0
  0
LINE
  8
1
 62
2
 10
1255.286841777663
 20
402.3152513339737
 30
0
 11
1255.839486987052
 21
404.3777513339737
 31
0
  0
LINE
  8
1
 62
2
 10
1255.839486987052
 20
404.3777513339737
 30
0
 11
1254.901986987052
 21
404.3777513339737
 31
0
  0
LINE
  8
1
 62
2
 10
1257.577227460633
 20
404.5652513339737
 30
0
 11
1258.514727460633
 21
404.5652513339737
 31
0
  0
LINE
  8
1
 62
2
 10
1257.416651249279
 20
406.0652513339737
 30
0
 11
1258.822901249279
 21
406.0652513339737
 31
0
  0
LINE
  8
1
 62
2
 10
1258.822901249279
 20
406.0652513339737
 30
0
 11
1259.266531012489
 21
405.9715013339737
 31
0
  0
LINE
  8
1
 62
2
 10
1259.266531012489
 20
405.9715013339737
 30
0
 11
1259.497540538908
 21
405.7840013339737
 31
0
  0
LINE
  8
1
 62
2
 10
1259.497540538908
 20
405.7840013339737
 30
0
 11
1259.515929828537
 21
405.5027513339737
 31
0
  0
LINE
  8
1
 62
2
 10
1259.515929828537
 20
405.5027513339737
 30
0
 11
1259.440569118166
 21
405.2215013339737
 31
0
  0
LINE
  8
1
 62
2
 10
1259.440569118166
 20
405.2215013339737
 30
0
 11
1259.271458407794
 21
404.9402513339737
 31
0
  0
LINE
  8
1
 62
2
 10
1259.271458407794
 20
404.9402513339737
 30
0
 11
1259.033717934213
 21
404.7527513339737
 31
0
  0
LINE
  8
1
 62
2
 10
1259.033717934213
 20
404.7527513339737
 30
0
 11
1258.821097697423
 21
404.6590013339737
 31
0
  0
LINE
  8
1
 62
2
 10
1258.821097697423
 20
404.6590013339737
 30
0
 11
1258.514727460633
 21
404.5652513339737
 31
0
  0
LINE
  8
1
 62
2
 10
1258.514727460633
 20
404.5652513339737
 30
0
 11
1258.864607223842
 21
404.4715013339737
 31
0
  0
LINE
  8
1
 62
2
 10
1258.864607223842
 20
404.4715013339737
 30
0
 11
1259.001866750261
 21
404.2840013339737
 31
0
  0
LINE
  8
1
 62
2
 10
1259.001866750261
 20
404.2840013339737
 30
0
 11
1259.045376276681
 21
404.0965013339737
 31
0
  0
LINE
  8
1
 62
2
 10
1259.045376276681
 20
404.0965013339737
 30
0
 11
1259.038645329519
 21
403.7215013339737
 31
0
  0
LINE
  8
1
 62
2
 10
1259.038645329519
 20
403.7215013339737
 30
0
 11
1258.913044145567
 21
403.2527513339737
 31
0
  0
LINE
  8
1
 62
2
 10
1258.913044145567
 20
403.2527513339737
 30
0
 11
1258.718813198405
 21
402.8777513339737
 31
0
  0
LINE
  8
1
 62
2
 10
1258.718813198405
 20
402.8777513339737
 30
0
 11
1258.455952488034
 21
402.5965013339737
 31
0
  0
LINE
  8
1
 62
2
 10
1258.455952488034
 20
402.5965013339737
 30
0
 11
1258.124462014453
 21
402.4090013339737
 31
0
  0
LINE
  8
1
 62
2
 10
1258.124462014453
 20
402.4090013339737
 30
0
 11
1257.818091777663
 21
402.3152513339737
 31
0
  0
LINE
  8
1
 62
2
 10
1257.818091777663
 20
402.3152513339737
 30
0
 11
1256.411841777663
 21
402.3152513339737
 31
0
  0
LINE
  8
1
 62
2
 10
1259.786841777663
 20
402.3152513339737
 30
0
 11
1262.291651249279
 21
406.0652513339737
 31
0
  0
LINE
  8
1
 62
2
 10
1265.104151249279
 20
406.0652513339737
 30
0
 11
1262.612803671986
 21
403.0652513339737
 31
0
  0
LINE
  8
1
 62
2
 10
1262.612803671986
 20
403.0652513339737
 30
0
 11
1264.862803671986
 21
403.0652513339737
 31
0
  0
LINE
  8
1
 62
2
 10
1264.501265566309
 20
403.8152513339737
 30
0
 11
1264.099341777663
 21
402.3152513339737
 31
0
  0
LINE
  8
1
 62
2
 10
1270.354151249279
 20
406.0652513339737
 30
0
 11
1269.778189354956
 21
405.3152513339737
 31
0
  0
LINE
  8
1
 62
2
 10
1269.778189354956
 20
405.3152513339737
 30
0
 11
1269.389727460633
 21
404.5652513339737
 31
0
  0
LINE
  8
1
 62
2
 10
1269.389727460633
 20
404.5652513339737
 30
0
 11
1269.188765566309
 21
403.8152513339737
 31
0
  0
LINE
  8
1
 62
2
 10
1269.188765566309
 20
403.8152513339737
 30
0
 11
1269.175303671986
 21
403.0652513339737
 31
0
  0
LINE
  8
1
 62
2
 10
1269.175303671986
 20
403.0652513339737
 30
0
 11
1269.349341777663
 21
402.3152513339737
 31
0
  0
LINE
  8
1
 62
2
 10
1271.328429828537
 20
405.5027513339737
 30
0
 11
1271.591290538908
 21
405.7840013339737
 31
0
  0
LINE
  8
1
 62
2
 10
1271.591290538908
 20
405.7840013339737
 30
0
 11
1271.922781012489
 21
405.9715013339737
 31
0
  0
LINE
  8
1
 62
2
 10
1271.922781012489
 20
405.9715013339737
 30
0
 11
1272.322901249279
 21
406.0652513339737
 31
0
  0
LINE
  8
1
 62
2
 10
1272.322901249279
 20
406.0652513339737
 30
0
 11
1272.885401249279
 21
406.0652513339737
 31
0
  0
LINE
  8
1
 62
2
 10
1272.885401249279
 20
406.0652513339737
 30
0
 11
1273.235281012489
 21
405.9715013339737
 31
0
  0
LINE
  8
1
 62
2
 10
1273.235281012489
 20
405.9715013339737
 30
0
 11
1273.466290538908
 21
405.7840013339737
 31
0
  0
LINE
  8
1
 62
2
 10
1273.466290538908
 20
405.7840013339737
 30
0
 11
1273.578429828537
 21
405.5027513339737
 31
0
  0
LINE
  8
1
 62
2
 10
1273.578429828537
 20
405.5027513339737
 30
0
 11
1273.477948881375
 21
405.1277513339737
 31
0
  0
LINE
  8
1
 62
2
 10
1273.477948881375
 20
405.1277513339737
 30
0
 11
1273.189967934213
 21
404.7527513339737
 31
0
  0
LINE
  8
1
 62
2
 10
1273.189967934213
 20
404.7527513339737
 30
0
 11
1270.474341777663
 21
402.3152513339737
 31
0
  0
LINE
  8
1
 62
2
 10
1270.474341777663
 20
402.3152513339737
 30
0
 11
1272.724341777663
 21
402.3152513339737
 31
0
  0
LINE
  8
1
 62
2
 10
1274.201025092729
 20
403.6277513339737
 30
0
 11
1274.39525603989
 21
404.0027513339737
 31
0
  0
LINE
  8
1
 62
2
 10
1274.39525603989
 20
404.0027513339737
 30
0
 11
1274.658116750261
 21
404.2840013339737
 31
0
  0
LINE
  8
1
 62
2
 10
1274.658116750261
 20
404.2840013339737
 30
0
 11
1274.989607223842
 21
404.4715013339737
 31
0
  0
LINE
  8
1
 62
2
 10
1274.989607223842
 20
404.4715013339737
 30
0
 11
1275.295977460633
 21
404.5652513339737
 31
0
  0
LINE
  8
1
 62
2
 10
1275.295977460633
 20
404.5652513339737
 30
0
 11
1275.858477460633
 21
404.5652513339737
 31
0
  0
LINE
  8
1
 62
2
 10
1275.858477460633
 20
404.5652513339737
 30
0
 11
1276.114607223842
 21
404.4715013339737
 31
0
  0
LINE
  8
1
 62
2
 10
1276.114607223842
 20
404.4715013339737
 30
0
 11
1276.345616750261
 21
404.2840013339737
 31
0
  0
LINE
  8
1
 62
2
 10
1276.345616750261
 20
404.2840013339737
 30
0
 11
1276.45775603989
 21
404.0027513339737
 31
0
  0
LINE
  8
1
 62
2
 10
1276.45775603989
 20
404.0027513339737
 30
0
 11
1276.451025092729
 21
403.6277513339737
 31
0
  0
LINE
  8
1
 62
2
 10
1276.451025092729
 20
403.6277513339737
 30
0
 11
1276.350544145567
 21
403.2527513339737
 31
0
  0
LINE
  8
1
 62
2
 10
1276.350544145567
 20
403.2527513339737
 30
0
 11
1276.156313198405
 21
402.8777513339737
 31
0
  0
LINE
  8
1
 62
2
 10
1276.156313198405
 20
402.8777513339737
 30
0
 11
1275.893452488034
 21
402.5965013339737
 31
0
  0
LINE
  8
1
 62
2
 10
1275.893452488034
 20
402.5965013339737
 30
0
 11
1275.561962014453
 21
402.4090013339737
 31
0
  0
LINE
  8
1
 62
2
 10
1275.561962014453
 20
402.4090013339737
 30
0
 11
1275.255591777663
 21
402.3152513339737
 31
0
  0
LINE
  8
1
 62
2
 10
1275.255591777663
 20
402.3152513339737
 30
0
 11
1274.693091777663
 21
402.3152513339737
 31
0
  0
LINE
  8
1
 62
2
 10
1274.693091777663
 20
402.3152513339737
 30
0
 11
1274.436962014453
 21
402.4090013339737
 31
0
  0
LINE
  8
1
 62
2
 10
1274.436962014453
 20
402.4090013339737
 30
0
 11
1274.205952488034
 21
402.5965013339737
 31
0
  0
LINE
  8
1
 62
2
 10
1274.205952488034
 20
402.5965013339737
 30
0
 11
1274.093813198405
 21
402.8777513339737
 31
0
  0
LINE
  8
1
 62
2
 10
1274.093813198405
 20
402.8777513339737
 30
0
 11
1274.100544145567
 21
403.2527513339737
 31
0
  0
LINE
  8
1
 62
2
 10
1274.100544145567
 20
403.2527513339737
 30
0
 11
1274.201025092729
 21
403.6277513339737
 31
0
  0
LINE
  8
1
 62
2
 10
1274.201025092729
 20
403.6277513339737
 30
0
 11
1274.495736987052
 21
404.3777513339737
 31
0
  0
LINE
  8
1
 62
2
 10
1274.495736987052
 20
404.3777513339737
 30
0
 11
1274.783717934213
 21
404.7527513339737
 31
0
  0
LINE
  8
1
 62
2
 10
1274.783717934213
 20
404.7527513339737
 30
0
 11
1275.284319118166
 21
405.2215013339737
 31
0
  0
LINE
  8
1
 62
2
 10
1275.284319118166
 20
405.2215013339737
 30
0
 11
1276.541651249279
 21
406.0652513339737
 31
0
  0
LINE
  8
1
 62
2
 10
1277.224341777663
 20
402.3152513339737
 30
0
 11
1277.249462014453
 21
402.4090013339737
 31
0
  0
LINE
  8
1
 62
2
 10
1277.249462014453
 20
402.4090013339737
 30
0
 11
1277.343212014453
 21
402.4090013339737
 31
0
  0
LINE
  8
1
 62
2
 10
1277.343212014453
 20
402.4090013339737
 30
0
 11
1277.318091777663
 21
402.3152513339737
 31
0
  0
LINE
  8
1
 62
2
 10
1277.318091777663
 20
402.3152513339737
 30
0
 11
1277.224341777663
 21
402.3152513339737
 31
0
  0
LINE
  8
1
 62
2
 10
1281.135401249279
 20
406.0652513339737
 30
0
 11
1278.644053671986
 21
403.0652513339737
 31
0
  0
LINE
  8
1
 62
2
 10
1278.644053671986
 20
403.0652513339737
 30
0
 11
1280.894053671986
 21
403.0652513339737
 31
0
  0
LINE
  8
1
 62
2
 10
1280.532515566309
 20
403.8152513339737
 30
0
 11
1280.130591777663
 21
402.3152513339737
 31
0
  0
LINE
  8
1
 62
2
 10
1284.510401249279
 20
406.0652513339737
 30
0
 11
1282.019053671986
 21
403.0652513339737
 31
0
  0
LINE
  8
1
 62
2
 10
1282.019053671986
 20
403.0652513339737
 30
0
 11
1284.269053671986
 21
403.0652513339737
 31
0
  0
LINE
  8
1
 62
2
 10
1283.907515566309
 20
403.8152513339737
 30
0
 11
1283.505591777663
 21
402.3152513339737
 31
0
  0
LINE
  8
1
 62
2
 10
1285.896458407794
 20
404.9402513339737
 30
0
 11
1287.322901249279
 21
406.0652513339737
 31
0
  0
LINE
  8
1
 62
2
 10
1287.322901249279
 20
406.0652513339737
 30
0
 11
1286.318091777663
 21
402.3152513339737
 31
0
  0
LINE
  8
1
 62
2
 10
1291.477798585387
 20
405.0105638339737
 30
0
 11
1290.818392369639
 21
402.5496263339737
 31
0
  0
LINE
  8
1
 62
2
 10
1290.818392369639
 20
402.5496263339737
 30
0
 11
1292.172559036305
 21
402.5496263339737
 31
0
  0
LINE
  8
1
 62
2
 10
1293.526725702972
 20
402.5496263339737
 30
0
 11
1294.186131918721
 21
405.0105638339737
 31
0
  0
LINE
  8
1
 62
2
 10
1293.05176732397
 20
405.8308763339737
 30
0
 11
1292.172559036305
 21
402.5496263339737
 31
0
  0
LINE
  8
1
 62
2
 10
1292.172559036305
 20
402.5496263339737
 30
0
 11
1293.526725702972
 21
402.5496263339737
 31
0
  0
LINE
  8
1
 62
2
 10
1294.896458407794
 20
404.9402513339737
 30
0
 11
1296.322901249279
 21
406.0652513339737
 31
0
  0
LINE
  8
1
 62
2
 10
1296.322901249279
 20
406.0652513339737
 30
0
 11
1295.318091777663
 21
402.3152513339737
 31
0
  0
LINE
  8
1
 62
2
 10
1299.135401249279
 20
406.0652513339737
 30
0
 11
1296.644053671986
 21
403.0652513339737
 31
0
  0
LINE
  8
1
 62
2
 10
1296.644053671986
 20
403.0652513339737
 30
0
 11
1298.894053671986
 21
403.0652513339737
 31
0
  0
LINE
  8
1
 62
2
 10
1298.532515566309
 20
403.8152513339737
 30
0
 11
1298.130591777663
 21
402.3152513339737
 31
0
  0
LINE
  8
1
 62
2
 10
1300.822901249279
 20
406.0652513339737
 30
0
 11
1300.996939354956
 21
405.3152513339737
 31
0
  0
LINE
  8
1
 62
2
 10
1300.996939354956
 20
405.3152513339737
 30
0
 11
1300.983477460633
 21
404.5652513339737
 31
0
  0
LINE
  8
1
 62
2
 10
1300.983477460633
 20
404.5652513339737
 30
0
 11
1300.782515566309
 21
403.8152513339737
 31
0
  0
LINE
  8
1
 62
2
 10
1300.782515566309
 20
403.8152513339737
 30
0
 11
1300.394053671986
 21
403.0652513339737
 31
0
  0
LINE
  8
1
 62
2
 10
1300.394053671986
 20
403.0652513339737
 30
0
 11
1299.818091777663
 21
402.3152513339737
 31
0
  0
LINE
  8
1
 62
2
 10
1307.115269722397
 20
342.8297194547885
 30
0
 11
1308.26110305573
 21
343.2984694547885
 31
0
  0
LINE
  8
1
 62
2
 10
1308.052769722397
 20
343.4156569547885
 30
0
 11
1308.156936389063
 21
344.0015944547885
 31
0
  0
LINE
  8
1
 62
2
 10
1308.26110305573
 20
344.3531569547885
 30
0
 11
1307.219436389063
 21
344.3531569547885
 31
0
  0
LINE
  8
1
 62
2
 10
1307.32360305573
 20
344.9390944547885
 30
0
 11
1307.740269722397
 21
344.9390944547885
 31
0
  0
LINE
  8
1
 62
2
 10
1308.365269722397
 20
345.5250319547885
 30
0
 11
1307.740269722397
 21
346.2281569547885
 31
0
  0
LINE
  8
1
 62
2
 10
1307.740269722397
 20
346.2281569547885
 30
0
 11
1307.32360305573
 21
345.4078444547885
 31
0
  0
LINE
  8
1
 62
2
 10
1307.32360305573
 20
345.4078444547885
 30
0
 11
1306.906936389063
 21
344.5875319547885
 31
0
  0
LINE
  8
1
 62
2
 10
1307.219436389063
 20
344.0015944547885
 30
0
 11
1307.427769722397
 21
343.4156569547885
 31
0
  0
LINE
  8
1
 62
2
 10
1307.740269722397
 20
343.0640944547885
 30
0
 11
1307.740269722397
 21
344.9390944547885
 31
0
  0
LINE
  8
1
 62
2
 10
1308.365269722397
 20
344.8219069547885
 30
0
 11
1310.240269722397
 21
344.8219069547885
 31
0
  0
LINE
  8
1
 62
2
 10
1310.240269722397
 20
344.1187819547885
 30
0
 11
1308.469436389063
 21
344.1187819547885
 31
0
  0
LINE
  8
1
 62
2
 10
1308.365269722397
 20
342.9469069547885
 30
0
 11
1308.781936389063
 21
343.6500319547885
 31
0
  0
LINE
  8
1
 62
2
 10
1308.781936389063
 20
343.6500319547885
 30
0
 11
1309.094436389063
 21
344.8219069547885
 31
0
  0
LINE
  8
1
 62
2
 10
1309.094436389063
 20
344.8219069547885
 30
0
 11
1309.19860305573
 21
346.2281569547885
 31
0
  0
LINE
  8
1
 62
2
 10
1308.469436389063
 20
345.8765944547885
 30
0
 11
1310.031936389063
 21
345.8765944547885
 31
0
  0
LINE
  8
1
 62
2
 10
1310.031936389063
 20
345.2906569547885
 30
0
 11
1308.57360305573
 21
345.2906569547885
 31
0
  0
LINE
  8
1
 62
2
 10
1309.82360305573
 20
344.5875319547885
 30
0
 11
1309.82360305573
 21
342.7125319547885
 31
0
  0
LINE
  8
1
 62
2
 10
1309.82360305573
 20
342.7125319547885
 30
0
 11
1309.406936389063
 21
342.7125319547885
 31
0
  0
LINE
  8
1
 62
2
 10
1309.406936389063
 20
343.1812819547885
 30
0
 11
1309.19860305573
 21
343.7672194547885
 31
0
  0
LINE
  8
1
 62
2
 10
1307.740269722397
 20
344.9390944547885
 30
0
 11
1308.26110305573
 21
344.9390944547885
 31
0
  0
LINE
  8
1
 62
2
 10
1310.865269722397
 20
343.0640944547885
 30
0
 11
1311.38610305573
 21
343.5328444547885
 31
0
  0
LINE
  8
1
 62
2
 10
1311.38610305573
 20
343.5328444547885
 30
0
 11
1311.38610305573
 21
344.8219069547885
 31
0
  0
LINE
  8
1
 62
2
 10
1311.38610305573
 20
344.8219069547885
 30
0
 11
1310.865269722397
 21
344.8219069547885
 31
0
  0
LINE
  8
1
 62
2
 10
1311.38610305573
 20
343.5328444547885
 30
0
 11
1311.594436389063
 21
343.0640944547885
 31
0
  0
LINE
  8
1
 62
2
 10
1311.594436389063
 20
343.0640944547885
 30
0
 11
1311.802769722397
 21
342.9469069547885
 31
0
  0
LINE
  8
1
 62
2
 10
1311.802769722397
 20
342.9469069547885
 30
0
 11
1313.88610305573
 21
342.9469069547885
 31
0
  0
LINE
  8
1
 62
2
 10
1313.365269722397
 20
343.5328444547885
 30
0
 11
1313.365269722397
 21
344.4703444547885
 31
0
  0
LINE
  8
1
 62
2
 10
1313.365269722397
 20
344.4703444547885
 30
0
 11
1312.219436389063
 21
344.4703444547885
 31
0
  0
LINE
  8
1
 62
2
 10
1312.219436389063
 20
344.4703444547885
 30
0
 11
1312.219436389063
 21
343.5328444547885
 31
0
  0
LINE
  8
1
 62
2
 10
1312.219436389063
 20
343.5328444547885
 30
0
 11
1313.365269722397
 21
343.5328444547885
 31
0
  0
LINE
  8
1
 62
2
 10
1313.781936389063
 20
344.9390944547885
 30
0
 11
1312.740269722397
 21
344.9390944547885
 31
0
  0
LINE
  8
1
 62
2
 10
1312.740269722397
 20
344.9390944547885
 30
0
 11
1312.740269722397
 21
346.4625319547885
 31
0
  0
LINE
  8
1
 62
2
 10
1313.57360305573
 20
345.7594069547885
 30
0
 11
1312.01110305573
 21
345.7594069547885
 31
0
  0
LINE
  8
1
 62
2
 10
1312.219436389063
 20
346.3453444547885
 30
0
 11
1312.01110305573
 21
345.7594069547885
 31
0
  0
LINE
  8
1
 62
2
 10
1312.01110305573
 20
345.7594069547885
 30
0
 11
1311.802769722397
 21
345.4078444547885
 31
0
  0
LINE
  8
1
 62
2
 10
1311.38610305573
 20
345.8765944547885
 30
0
 11
1311.07360305573
 21
346.3453444547885
 31
0
  0
LINE
  8
1
 62
2
 10
1310.865269722397
 20
343.0640944547885
 30
0
 11
1310.76110305573
 21
342.9469069547885
 31
0
  0
LINE
  8
1
 62
2
 10
1310.865269722397
 20
344.8219069547885
 30
0
 11
1310.76110305573
 21
344.8219069547885
 31
0
  0
LINE
  8
1
 62
2
 10
1312.740269722397
 20
344.9390944547885
 30
0
 11
1311.802769722397
 21
344.9390944547885
 31
0
  0
LINE
  8
1
 62
2
 10
1315.44860305573
 20
346.4625319547885
 30
0
 11
1315.240269722397
 21
346.1109694547885
 31
0
  0
LINE
  8
1
 62
2
 10
1315.240269722397
 20
346.1109694547885
 30
0
 11
1314.927769722397
 21
345.6422194547885
 31
0
  0
LINE
  8
1
 62
2
 10
1314.927769722397
 20
345.6422194547885
 30
0
 11
1314.615269722397
 21
345.2906569547885
 31
0
  0
LINE
  8
1
 62
2
 10
1315.13610305573
 20
345.8765944547885
 30
0
 11
1316.07360305573
 21
345.8765944547885
 31
0
  0
LINE
  8
1
 62
2
 10
1316.07360305573
 20
345.8765944547885
 30
0
 11
1316.07360305573
 21
342.7125319547885
 31
0
  0
LINE
  8
1
 62
2
 10
1315.031936389063
 20
344.9390944547885
 30
0
 11
1317.115269722397
 21
344.9390944547885
 31
0
  0
LINE
  8
1
 62
2
 10
1315.031936389063
 20
344.8219069547885
 30
0
 11
1315.031936389063
 21
344.0015944547885
 31
0
  0
LINE
  8
1
 62
2
 10
1314.406936389063
 20
344.0015944547885
 30
0
 11
1315.031936389063
 21
344.0015944547885
 31
0
  0
LINE
  8
1
 62
2
 10
1315.031936389063
 20
344.0015944547885
 30
0
 11
1317.740269722397
 21
344.0015944547885
 31
0
  0
LINE
  8
1
 62
2
 10
1316.07360305573
 20
345.8765944547885
 30
0
 11
1317.219436389063
 21
345.8765944547885
 31
0
  0
LINE
  8
1
 62
2
 10
1368.683819269832
 20
343.8677413742291
 30
0
 11
1368.683819269832
 21
347.6177413742291
 31
0
  0
LINE
  8
1
 62
2
 10
1369.204652603166
 20
346.5630538742291
 30
0
 11
1368.058819269832
 21
346.5630538742291
 31
0
  0
LINE
  8
1
 62
2
 10
1367.954652603166
 20
345.0396163742291
 30
0
 11
1368.371319269832
 21
345.7427413742291
 31
0
  0
LINE
  8
1
 62
2
 10
1368.371319269832
 20
345.7427413742291
 30
0
 11
1368.683819269832
 21
346.4458663742291
 31
0
  0
LINE
  8
1
 62
2
 10
1368.683819269832
 20
346.4458663742291
 30
0
 11
1369.204652603166
 21
345.6255538742291
 31
0
  0
LINE
  8
1
 62
2
 10
1369.308819269832
 20
344.5708663742291
 30
0
 11
1369.933819269832
 21
345.2739913742291
 31
0
  0
LINE
  8
1
 62
2
 10
1369.933819269832
 20
345.2739913742291
 30
0
 11
1370.454652603166
 21
346.3286788742291
 31
0
  0
LINE
  8
1
 62
2
 10
1371.079652603166
 20
346.4458663742291
 30
0
 11
1369.517152603166
 21
346.4458663742291
 31
0
  0
LINE
  8
1
 62
2
 10
1370.454652603166
 20
347.5005538742291
 30
0
 11
1370.558819269832
 21
344.1021163742291
 31
0
  0
LINE
  8
1
 62
2
 10
1370.558819269832
 20
344.1021163742291
 30
0
 11
1370.246319269832
 21
344.1021163742291
 31
0
  0
LINE
  8
1
 62
2
 10
1371.704652603166
 20
344.5708663742291
 30
0
 11
1372.017152603166
 21
345.1568038742291
 31
0
  0
LINE
  8
1
 62
2
 10
1372.017152603166
 20
345.1568038742291
 30
0
 11
1372.433819269832
 21
346.2114913742291
 31
0
  0
LINE
  8
1
 62
2
 10
1373.162985936499
 20
346.2114913742291
 30
0
 11
1371.704652603166
 21
346.2114913742291
 31
0
  0
LINE
  8
1
 62
2
 10
1371.808819269832
 20
347.1489913742291
 30
0
 11
1372.121319269832
 21
346.6802413742291
 31
0
  0
LINE
  8
1
 62
2
 10
1372.746319269832
 20
346.7974288742291
 30
0
 11
1372.954652603166
 21
347.2661788742291
 31
0
  0
LINE
  8
1
 62
2
 10
1372.433819269832
 20
347.5005538742291
 30
0
 11
1372.433819269832
 21
346.2114913742291
 31
0
  0
LINE
  8
1
 62
2
 10
1372.746319269832
 20
345.7427413742291
 30
0
 11
1372.954652603166
 21
345.2739913742291
 31
0
  0
LINE
  8
1
 62
2
 10
1373.162985936499
 20
345.1568038742291
 30
0
 11
1374.933819269832
 21
345.5083663742291
 31
0
  0
LINE
  8
1
 62
2
 10
1373.787985936499
 20
345.9771163742291
 30
0
 11
1373.475485936499
 21
346.4458663742291
 31
0
  0
LINE
  8
1
 62
2
 10
1373.787985936499
 20
346.9146163742291
 30
0
 11
1373.475485936499
 21
347.3833663742291
 31
0
  0
LINE
  8
1
 62
2
 10
1374.308819269832
 20
347.6177413742291
 30
0
 11
1374.308819269832
 21
343.8677413742291
 31
0
  0
LINE
  8
1
 62
2
 10
1372.433819269832
 20
346.2114913742291
 30
0
 11
1372.433819269832
 21
343.9849288742291
 31
0
  0
LINE
  8
1
 62
2
 10
1375.558819269832
 20
344.1021163742291
 30
0
 11
1375.558819269832
 21
345.0396163742291
 31
0
  0
LINE
  8
1
 62
2
 10
1375.558819269832
 20
345.0396163742291
 30
0
 11
1376.392152603166
 21
345.0396163742291
 31
0
  0
LINE
  8
1
 62
2
 10
1376.392152603166
 20
345.0396163742291
 30
0
 11
1376.392152603166
 21
344.1021163742291
 31
0
  0
LINE
  8
1
 62
2
 10
1376.392152603166
 20
344.1021163742291
 30
0
 11
1375.558819269832
 21
344.1021163742291
 31
0
  0
LINE
  8
1
 62
2
 10
1375.558819269832
 20
345.5083663742291
 30
0
 11
1376.392152603166
 21
345.5083663742291
 31
0
  0
LINE
  8
1
 62
2
 10
1376.392152603166
 20
346.0943038742291
 30
0
 11
1375.558819269832
 21
346.0943038742291
 31
0
  0
LINE
  8
1
 62
2
 10
1375.350485936499
 20
346.5630538742291
 30
0
 11
1376.704652603166
 21
346.5630538742291
 31
0
  0
LINE
  8
1
 62
2
 10
1375.454652603166
 20
347.1489913742291
 30
0
 11
1376.392152603166
 21
347.1489913742291
 31
0
  0
LINE
  8
1
 62
2
 10
1377.017152603166
 20
347.0318038742291
 30
0
 11
1378.162985936499
 21
347.0318038742291
 31
0
  0
LINE
  8
1
 62
2
 10
1378.162985936499
 20
347.0318038742291
 30
0
 11
1378.162985936499
 21
345.8599288742291
 31
0
  0
LINE
  8
1
 62
2
 10
1378.162985936499
 20
345.8599288742291
 30
0
 11
1377.017152603166
 21
345.8599288742291
 31
0
  0
LINE
  8
1
 62
2
 10
1377.017152603166
 20
345.8599288742291
 30
0
 11
1377.017152603166
 21
344.1021163742291
 31
0
  0
LINE
  8
1
 62
2
 10
1377.017152603166
 20
344.1021163742291
 30
0
 11
1377.433819269832
 21
344.1021163742291
 31
0
  0
LINE
  8
1
 62
2
 10
1377.433819269832
 20
344.1021163742291
 30
0
 11
1378.475485936499
 21
344.1021163742291
 31
0
  0
LINE
  8
1
 62
2
 10
1378.475485936499
 20
344.1021163742291
 30
0
 11
1378.475485936499
 21
344.4536788742291
 31
0
  0
LINE
  8
1
 62
2
 10
1379.933819269832
 20
347.3833663742291
 30
0
 11
1379.933819269832
 21
346.5630538742291
 31
0
  0
LINE
  8
1
 62
2
 10
1379.933819269832
 20
346.5630538742291
 30
0
 11
1381.600485936499
 21
346.5630538742291
 31
0
  0
LINE
  8
1
 62
2
 10
1381.600485936499
 20
346.5630538742291
 30
0
 11
1381.600485936499
 21
347.3833663742291
 31
0
  0
LINE
  8
1
 62
2
 10
1381.600485936499
 20
347.3833663742291
 30
0
 11
1379.933819269832
 21
347.3833663742291
 31
0
  0
LINE
  8
1
 62
2
 10
1379.204652603166
 20
345.9771163742291
 30
0
 11
1380.350485936499
 21
345.9771163742291
 31
0
  0
LINE
  8
1
 62
2
 10
1380.350485936499
 20
345.9771163742291
 30
0
 11
1380.037985936499
 21
344.8052413742291
 31
0
  0
LINE
  8
1
 62
2
 10
1380.142152603166
 20
345.2739913742291
 30
0
 11
1381.600485936499
 21
345.2739913742291
 31
0
  0
LINE
  8
1
 62
2
 10
1381.600485936499
 20
345.2739913742291
 30
0
 11
1381.392152603166
 21
344.5708663742291
 31
0
  0
LINE
  8
1
 62
2
 10
1381.392152603166
 20
344.5708663742291
 30
0
 11
1381.079652603166
 21
343.9849288742291
 31
0
  0
LINE
  8
1
 62
2
 10
1381.079652603166
 20
343.9849288742291
 30
0
 11
1380.871319269832
 21
343.8677413742291
 31
0
  0
LINE
  8
1
 62
2
 10
1380.871319269832
 20
343.8677413742291
 30
0
 11
1380.454652603166
 21
344.1021163742291
 31
0
  0
LINE
  8
1
 62
2
 10
1380.350485936499
 20
345.9771163742291
 30
0
 11
1382.225485936499
 21
345.9771163742291
 31
0
  0
LINE
  8
1
 62
2
 10
1388.850485936499
 20
345.9302413742291
 30
0
 11
1386.600485936499
 21
345.9302413742291
 31
0
  0
LINE
  8
1
 62
2
 10
1389.225485936499
 20
347.6177413742291
 30
0
 11
1386.600485936499
 21
347.6177413742291
 31
0
  0
LINE
  8
1
 62
2
 10
1386.600485936499
 20
347.6177413742291
 30
0
 11
1386.600485936499
 21
345.9302413742291
 31
0
  0
LINE
  8
1
 62
2
 10
1386.600485936499
 20
345.7427413742291
 30
0
 11
1386.600485936499
 21
343.8677413742291
 31
0
  0
LINE
  8
1
 62
2
 10
1386.600485936499
 20
343.8677413742291
 30
0
 11
1389.225485936499
 21
343.8677413742291
 31
0
  0
LINE
  8
1
 62
2
 10
1386.600485936499
 20
345.9302413742291
 30
0
 11
1386.600485936499
 21
345.7427413742291
 31
0
  0
LINE
  8
1
 62
2
 10
1306.408446104726
 20
619.626191064002
 30
0
 11
1306.92927943806
 21
619.860566064002
 31
0
  0
LINE
  8
1
 62
2
 10
1306.92927943806
 20
619.860566064002
 30
0
 11
1307.55427943806
 21
620.329316064002
 31
0
  0
LINE
  8
1
 62
2
 10
1307.55427943806
 20
620.329316064002
 30
0
 11
1307.86677943806
 21
620.798066064002
 31
0
  0
LINE
  8
1
 62
2
 10
1306.408446104726
 20
620.798066064002
 30
0
 11
1307.86677943806
 21
620.798066064002
 31
0
  0
LINE
  8
1
 62
2
 10
1309.11677943806
 20
621.384003564002
 30
0
 11
1306.92927943806
 21
621.384003564002
 31
0
  0
LINE
  8
1
 62
2
 10
1306.720946104726
 20
621.969941064002
 30
0
 11
1309.325112771393
 21
621.969941064002
 31
0
  0
LINE
  8
1
 62
2
 10
1307.970946104726
 20
622.555878564002
 30
0
 11
1307.970946104726
 21
620.798066064002
 31
0
  0
LINE
  8
1
 62
2
 10
1307.55427943806
 20
620.329316064002
 30
0
 11
1307.55427943806
 21
619.157441064002
 31
0
  0
LINE
  8
1
 62
2
 10
1307.033446104726
 20
618.923066064002
 30
0
 11
1308.283446104726
 21
619.509003564002
 31
0
  0
LINE
  8
1
 62
2
 10
1308.49177943806
 20
619.860566064002
 30
0
 11
1309.220946104726
 21
620.446503564002
 31
0
  0
LINE
  8
1
 62
2
 10
1308.075112771393
 20
620.563691064002
 30
0
 11
1308.387612771393
 21
619.977753564002
 31
0
  0
LINE
  8
1
 62
2
 10
1308.387612771393
 20
619.977753564002
 30
0
 11
1308.49177943806
 21
619.860566064002
 31
0
  0
LINE
  8
1
 62
2
 10
1309.012612771393
 20
619.274628564002
 30
0
 11
1309.533446104726
 21
619.040253564002
 31
0
  0
LINE
  8
1
 62
2
 10
1308.49177943806
 20
619.860566064002
 30
0
 11
1309.012612771393
 21
619.274628564002
 31
0
  0
LINE
  8
1
 62
2
 10
1307.970946104726
 20
620.798066064002
 30
0
 11
1309.637612771393
 21
620.798066064002
 31
0
  0
LINE
  8
1
 62
2
 10
1307.86677943806
 20
620.798066064002
 30
0
 11
1307.970946104726
 21
620.798066064002
 31
0
  0
LINE
  8
1
 62
2
 10
1310.67927943806
 20
622.321503564002
 30
0
 11
1312.970946104726
 21
622.321503564002
 31
0
  0
LINE
  8
1
 62
2
 10
1313.49177943806
 20
621.384003564002
 30
0
 11
1311.92927943806
 21
621.384003564002
 31
0
  0
LINE
  8
1
 62
2
 10
1311.92927943806
 20
621.384003564002
 30
0
 11
1311.92927943806
 21
619.040253564002
 31
0
  0
LINE
  8
1
 62
2
 10
1311.92927943806
 20
619.040253564002
 30
0
 11
1311.512612771393
 21
619.040253564002
 31
0
  0
LINE
  8
1
 62
2
 10
1310.470946104726
 20
619.391816064002
 30
0
 11
1310.887612771393
 21
619.860566064002
 31
0
  0
LINE
  8
1
 62
2
 10
1310.887612771393
 20
619.860566064002
 30
0
 11
1311.200112771393
 21
620.446503564002
 31
0
  0
LINE
  8
1
 62
2
 10
1312.55427943806
 20
620.563691064002
 30
0
 11
1312.970946104726
 21
619.977753564002
 31
0
  0
LINE
  8
1
 62
2
 10
1312.970946104726
 20
619.977753564002
 30
0
 11
1313.387612771393
 21
619.391816064002
 31
0
  0
LINE
  8
1
 62
2
 10
1311.92927943806
 20
621.384003564002
 30
0
 11
1310.36677943806
 21
621.384003564002
 31
0
  0
LINE
  8
1
 62
2
 10
1314.637612771393
 20
621.266816064002
 30
0
 11
1315.99177943806
 21
621.266816064002
 31
0
  0
LINE
  8
1
 62
2
 10
1315.99177943806
 20
621.266816064002
 30
0
 11
1315.783446104726
 21
619.626191064002
 31
0
  0
LINE
  8
1
 62
2
 10
1314.11677943806
 20
619.626191064002
 30
0
 11
1315.783446104726
 21
619.626191064002
 31
0
  0
LINE
  8
1
 62
2
 10
1315.783446104726
 20
619.626191064002
 30
0
 11
1317.033446104726
 21
619.626191064002
 31
0
  0
LINE
  8
1
 62
2
 10
1318.075112771393
 20
619.860566064002
 30
0
 11
1320.575112771393
 21
619.860566064002
 31
0
  0
LINE
  8
1
 62
2
 10
1318.49177943806
 20
621.266816064002
 30
0
 11
1320.262612771393
 21
621.266816064002
 31
0
  0
LINE
  8
1
 62
2
 10
1322.658446104726
 20
619.040253564002
 30
0
 11
1323.17927943806
 21
619.391816064002
 31
0
  0
LINE
  8
1
 62
2
 10
1323.17927943806
 20
619.391816064002
 30
0
 11
1323.80427943806
 21
620.212128564002
 31
0
  0
LINE
  8
1
 62
2
 10
1323.80427943806
 20
620.212128564002
 30
0
 11
1324.012612771393
 21
620.798066064002
 31
0
  0
LINE
  8
1
 62
2
 10
1323.075112771393
 20
620.915253564002
 30
0
 11
1323.17927943806
 21
620.446503564002
 31
0
  0
LINE
  8
1
 62
2
 10
1322.345946104726
 20
620.798066064002
 30
0
 11
1322.55427943806
 21
620.329316064002
 31
0
  0
LINE
  8
1
 62
2
 10
1326.61677943806
 20
622.204316064002
 30
0
 11
1326.61677943806
 21
619.274628564002
 31
0
  0
LINE
  8
1
 62
2
 10
1327.033446104726
 20
621.149628564002
 30
0
 11
1327.345946104726
 21
620.798066064002
 31
0
  0
LINE
  8
1
 62
2
 10
1327.345946104726
 20
620.798066064002
 30
0
 11
1327.55427943806
 21
620.329316064002
 31
0
  0
LINE
  8
1
 62
2
 10
1329.637612771393
 20
619.274628564002
 30
0
 11
1329.533446104726
 21
620.094941064002
 31
0
  0
LINE
  8
1
 62
2
 10
1329.533446104726
 20
620.094941064002
 30
0
 11
1329.533446104726
 21
621.149628564002
 31
0
  0
LINE
  8
1
 62
2
 10
1329.533446104726
 20
621.149628564002
 30
0
 11
1329.74177943806
 21
622.204316064002
 31
0
  0
LINE
  8
1
 62
2
 10
1330.36677943806
 20
621.384003564002
 30
0
 11
1331.30427943806
 21
621.501191064002
 31
0
  0
LINE
  8
1
 62
2
 10
1331.30427943806
 20
621.501191064002
 30
0
 11
1331.825112771393
 21
621.618378564002
 31
0
  0
LINE
  8
1
 62
2
 10
1331.200112771393
 20
622.204316064002
 30
0
 11
1331.30427943806
 21
620.094941064002
 31
0
  0
LINE
  8
1
 62
2
 10
1331.30427943806
 20
620.094941064002
 30
0
 11
1331.200112771393
 21
619.626191064002
 31
0
  0
LINE
  8
1
 62
2
 10
1331.200112771393
 20
619.626191064002
 30
0
 11
1330.99177943806
 21
619.391816064002
 31
0
  0
LINE
  8
1
 62
2
 10
1330.99177943806
 20
619.391816064002
 30
0
 11
1330.575112771393
 21
619.274628564002
 31
0
  0
LINE
  8
1
 62
2
 10
1330.575112771393
 20
619.274628564002
 30
0
 11
1330.262612771393
 21
619.509003564002
 31
0
  0
LINE
  8
1
 62
2
 10
1330.262612771393
 20
619.509003564002
 30
0
 11
1330.262612771393
 21
619.743378564002
 31
0
  0
LINE
  8
1
 62
2
 10
1330.262612771393
 20
619.743378564002
 30
0
 11
1330.783446104726
 21
619.860566064002
 31
0
  0
LINE
  8
1
 62
2
 10
1330.783446104726
 20
619.860566064002
 30
0
 11
1331.30427943806
 21
619.743378564002
 31
0
  0
LINE
  8
1
 62
2
 10
1331.30427943806
 20
619.743378564002
 30
0
 11
1331.825112771393
 21
619.391816064002
 31
0
  0
LINE
  8
1
 62
2
 10
1333.283446104726
 20
618.923066064002
 30
0
 11
1333.283446104726
 21
621.618378564002
 31
0
  0
LINE
  8
1
 62
2
 10
1332.658446104726
 20
620.563691064002
 30
0
 11
1332.970946104726
 21
621.032441064002
 31
0
  0
LINE
  8
1
 62
2
 10
1332.970946104726
 20
621.032441064002
 30
0
 11
1333.700112771393
 21
622.555878564002
 31
0
  0
LINE
  8
1
 62
2
 10
1334.012612771393
 20
621.501191064002
 30
0
 11
1334.637612771393
 21
621.735566064002
 31
0
  0
LINE
  8
1
 62
2
 10
1334.637612771393
 20
621.735566064002
 30
0
 11
1335.575112771393
 21
622.204316064002
 31
0
  0
LINE
  8
1
 62
2
 10
1334.950112771393
 20
621.852753564002
 30
0
 11
1334.950112771393
 21
619.157441064002
 31
0
  0
LINE
  8
1
 62
2
 10
1335.99177943806
 20
620.680878564002
 30
0
 11
1333.80427943806
 21
620.680878564002
 31
0
  0
LINE
  8
1
 62
2
 10
1334.012612771393
 20
619.157441064002
 30
0
 11
1334.950112771393
 21
619.157441064002
 31
0
  0
LINE
  8
1
 62
2
 10
1334.950112771393
 20
619.157441064002
 30
0
 11
1335.887612771393
 21
619.157441064002
 31
0
  0
LINE
  8
1
 62
2
 10
1336.61677943806
 20
619.040253564002
 30
0
 11
1336.825112771393
 21
619.391816064002
 31
0
  0
LINE
  8
1
 62
2
 10
1336.825112771393
 20
619.391816064002
 30
0
 11
1336.92927943806
 21
619.743378564002
 31
0
  0
LINE
  8
1
 62
2
 10
1337.450112771393
 20
619.743378564002
 30
0
 11
1337.450112771393
 21
619.157441064002
 31
0
  0
LINE
  8
1
 62
2
 10
1337.450112771393
 20
619.157441064002
 30
0
 11
1337.55427943806
 21
619.040253564002
 31
0
  0
LINE
  8
1
 62
2
 10
1337.55427943806
 20
619.040253564002
 30
0
 11
1338.283446104726
 21
618.923066064002
 31
0
  0
LINE
  8
1
 62
2
 10
1338.283446104726
 20
618.923066064002
 30
0
 11
1338.908446104726
 21
619.040253564002
 31
0
  0
LINE
  8
1
 62
2
 10
1338.908446104726
 20
619.040253564002
 30
0
 11
1339.012612771393
 21
619.157441064002
 31
0
  0
LINE
  8
1
 62
2
 10
1339.012612771393
 20
619.157441064002
 30
0
 11
1339.012612771393
 21
619.391816064002
 31
0
  0
LINE
  8
1
 62
2
 10
1339.42927943806
 20
619.274628564002
 30
0
 11
1339.220946104726
 21
619.509003564002
 31
0
  0
LINE
  8
1
 62
2
 10
1339.220946104726
 20
619.509003564002
 30
0
 11
1339.012612771393
 21
619.860566064002
 31
0
  0
LINE
  8
1
 62
2
 10
1338.387612771393
 20
619.509003564002
 30
0
 11
1338.17927943806
 21
619.860566064002
 31
0
  0
LINE
  8
1
 62
2
 10
1337.24177943806
 20
620.094941064002
 30
0
 11
1338.908446104726
 21
620.094941064002
 31
0
  0
LINE
  8
1
 62
2
 10
1338.908446104726
 20
620.094941064002
 30
0
 11
1338.908446104726
 21
620.563691064002
 31
0
  0
LINE
  8
1
 62
2
 10
1338.908446104726
 20
621.032441064002
 30
0
 11
1337.24177943806
 21
621.032441064002
 31
0
  0
LINE
  8
1
 62
2
 10
1337.24177943806
 20
621.032441064002
 30
0
 11
1337.24177943806
 21
620.563691064002
 31
0
  0
LINE
  8
1
 62
2
 10
1337.24177943806
 20
620.563691064002
 30
0
 11
1338.908446104726
 21
620.563691064002
 31
0
  0
LINE
  8
1
 62
2
 10
1339.74177943806
 20
621.384003564002
 30
0
 11
1336.408446104726
 21
621.384003564002
 31
0
  0
LINE
  8
1
 62
2
 10
1336.720946104726
 20
622.204316064002
 30
0
 11
1338.075112771393
 21
622.204316064002
 31
0
  0
LINE
  8
1
 62
2
 10
1338.075112771393
 20
622.673066064002
 30
0
 11
1338.075112771393
 21
622.204316064002
 31
0
  0
LINE
  8
1
 62
2
 10
1337.345946104726
 20
621.969941064002
 30
0
 11
1337.55427943806
 21
621.501191064002
 31
0
  0
LINE
  8
1
 62
2
 10
1338.700112771393
 20
621.969941064002
 30
0
 11
1338.49177943806
 21
621.501191064002
 31
0
  0
LINE
  8
1
 62
2
 10
1338.075112771393
 20
622.204316064002
 30
0
 11
1339.42927943806
 21
622.204316064002
 31
0
  0
LINE
  8
1
 62
2
 10
1338.908446104726
 20
620.563691064002
 30
0
 11
1338.908446104726
 21
621.032441064002
 31
0
  0
LINE
  8
1
 62
2
 10
1337.24177943806
 20
620.563691064002
 30
0
 11
1337.24177943806
 21
620.094941064002
 31
0
  0
LINE
  8
1
 62
2
 10
1341.92927943806
 20
621.852753564002
 30
0
 11
1341.61677943806
 21
620.680878564002
 31
0
  0
LINE
  8
1
 62
2
 10
1341.61677943806
 20
620.680878564002
 30
0
 11
1341.095946104726
 21
619.509003564002
 31
0
  0
LINE
  8
1
 62
2
 10
1341.095946104726
 20
619.509003564002
 30
0
 11
1340.67927943806
 21
619.743378564002
 31
0
  0
LINE
  8
1
 62
2
 10
1340.67927943806
 20
619.743378564002
 30
0
 11
1340.575112771393
 21
620.329316064002
 31
0
  0
LINE
  8
1
 62
2
 10
1340.575112771393
 20
620.329316064002
 30
0
 11
1340.67927943806
 21
621.032441064002
 31
0
  0
LINE
  8
1
 62
2
 10
1340.67927943806
 20
621.032441064002
 30
0
 11
1341.095946104726
 21
621.618378564002
 31
0
  0
LINE
  8
1
 62
2
 10
1341.095946104726
 20
621.618378564002
 30
0
 11
1341.720946104726
 21
621.852753564002
 31
0
  0
LINE
  8
1
 62
2
 10
1341.720946104726
 20
621.852753564002
 30
0
 11
1341.92927943806
 21
621.852753564002
 31
0
  0
LINE
  8
1
 62
2
 10
1342.345946104726
 20
621.852753564002
 30
0
 11
1342.762612771393
 21
621.618378564002
 31
0
  0
LINE
  8
1
 62
2
 10
1342.762612771393
 20
621.618378564002
 30
0
 11
1343.075112771393
 21
621.149628564002
 31
0
  0
LINE
  8
1
 62
2
 10
1343.075112771393
 20
621.149628564002
 30
0
 11
1343.075112771393
 21
620.329316064002
 31
0
  0
LINE
  8
1
 62
2
 10
1343.075112771393
 20
620.329316064002
 30
0
 11
1342.762612771393
 21
619.743378564002
 31
0
  0
LINE
  8
1
 62
2
 10
1342.762612771393
 20
619.743378564002
 30
0
 11
1342.24177943806
 21
619.274628564002
 31
0
  0
LINE
  8
1
 62
2
 10
1341.92927943806
 20
621.852753564002
 30
0
 11
1342.345946104726
 21
621.852753564002
 31
0
  0
LINE
  8
1
 62
2
 10
1344.220946104726
 20
619.040253564002
 30
0
 11
1344.220946104726
 21
621.852753564002
 31
0
  0
LINE
  8
1
 62
2
 10
1344.220946104726
 20
621.852753564002
 30
0
 11
1344.74177943806
 21
621.852753564002
 31
0
  0
LINE
  8
1
 62
2
 10
1346.92927943806
 20
621.852753564002
 30
0
 11
1346.92927943806
 21
619.040253564002
 31
0
  0
LINE
  8
1
 62
2
 10
1346.92927943806
 20
619.040253564002
 30
0
 11
1346.408446104726
 21
619.040253564002
 31
0
  0
LINE
  8
1
 62
2
 10
1345.158446104726
 20
620.094941064002
 30
0
 11
1345.158446104726
 21
621.032441064002
 31
0
  0
LINE
  8
1
 62
2
 10
1345.158446104726
 20
621.032441064002
 30
0
 11
1345.99177943806
 21
621.032441064002
 31
0
  0
LINE
  8
1
 62
2
 10
1345.99177943806
 20
621.032441064002
 30
0
 11
1345.99177943806
 21
620.094941064002
 31
0
  0
LINE
  8
1
 62
2
 10
1345.99177943806
 20
620.094941064002
 30
0
 11
1345.158446104726
 21
620.094941064002
 31
0
  0
LINE
  8
1
 62
2
 10
1344.74177943806
 20
621.852753564002
 30
0
 11
1345.262612771393
 21
622.555878564002
 31
0
  0
LINE
  8
1
 62
2
 10
1344.74177943806
 20
621.852753564002
 30
0
 11
1346.92927943806
 21
621.852753564002
 31
0
  0
LINE
  8
1
 62
2
 10
1348.595946104726
 20
620.915253564002
 30
0
 11
1349.533446104726
 21
621.149628564002
 31
0
  0
LINE
  8
1
 62
2
 10
1349.533446104726
 20
621.149628564002
 30
0
 11
1350.262612771393
 21
621.501191064002
 31
0
  0
LINE
  8
1
 62
2
 10
1349.74177943806
 20
622.087128564002
 30
0
 11
1349.325112771393
 21
621.852753564002
 31
0
  0
LINE
  8
1
 62
2
 10
1349.325112771393
 20
621.852753564002
 30
0
 11
1348.595946104726
 21
621.618378564002
 31
0
  0
LINE
  8
1
 62
2
 10
1348.908446104726
 20
622.438691064002
 30
0
 11
1349.42927943806
 21
621.618378564002
 31
0
  0
LINE
  8
1
 62
2
 10
1349.42927943806
 20
621.618378564002
 30
0
 11
1350.158446104726
 21
620.212128564002
 31
0
  0
LINE
  8
1
 62
2
 10
1350.158446104726
 20
620.212128564002
 30
0
 11
1349.74177943806
 21
620.329316064002
 31
0
  0
LINE
  8
1
 62
2
 10
1349.74177943806
 20
620.329316064002
 30
0
 11
1349.325112771393
 21
620.329316064002
 31
0
  0
LINE
  8
1
 62
2
 10
1349.325112771393
 20
620.329316064002
 30
0
 11
1348.908446104726
 21
620.094941064002
 31
0
  0
LINE
  8
1
 62
2
 10
1348.908446104726
 20
620.094941064002
 30
0
 11
1348.700112771393
 21
619.626191064002
 31
0
  0
LINE
  8
1
 62
2
 10
1348.700112771393
 20
619.626191064002
 30
0
 11
1349.11677943806
 21
619.274628564002
 31
0
  0
LINE
  8
1
 62
2
 10
1349.11677943806
 20
619.274628564002
 30
0
 11
1349.845946104726
 21
619.157441064002
 31
0
  0
LINE
  8
1
 62
2
 10
1352.137612771393
 20
619.274628564002
 30
0
 11
1352.033446104726
 21
620.094941064002
 31
0
  0
LINE
  8
1
 62
2
 10
1352.033446104726
 20
620.094941064002
 30
0
 11
1352.033446104726
 21
621.032441064002
 31
0
  0
LINE
  8
1
 62
2
 10
1352.033446104726
 20
621.032441064002
 30
0
 11
1352.24177943806
 21
621.852753564002
 31
0
  0
LINE
  8
1
 62
2
 10
1353.075112771393
 20
621.501191064002
 30
0
 11
1353.49177943806
 21
621.618378564002
 31
0
  0
LINE
  8
1
 62
2
 10
1353.49177943806
 20
621.618378564002
 30
0
 11
1354.11677943806
 21
621.618378564002
 31
0
  0
LINE
  8
1
 62
2
 10
1352.86677943806
 20
619.977753564002
 30
0
 11
1353.075112771393
 21
619.626191064002
 31
0
  0
LINE
  8
1
 62
2
 10
1353.075112771393
 20
619.626191064002
 30
0
 11
1353.595946104726
 21
619.509003564002
 31
0
  0
LINE
  8
1
 62
2
 10
1353.595946104726
 20
619.509003564002
 30
0
 11
1354.42927943806
 21
619.509003564002
 31
0
  0
LINE
  8
1
 62
2
 10
1355.575112771393
 20
619.040253564002
 30
0
 11
1355.887612771393
 21
619.157441064002
 31
0
  0
LINE
  8
1
 62
2
 10
1355.887612771393
 20
619.157441064002
 30
0
 11
1356.30427943806
 21
619.391816064002
 31
0
  0
LINE
  8
1
 62
2
 10
1356.30427943806
 20
619.391816064002
 30
0
 11
1356.92927943806
 21
619.860566064002
 31
0
  0
LINE
  8
1
 62
2
 10
1356.92927943806
 20
619.860566064002
 30
0
 11
1357.450112771393
 21
620.446503564002
 31
0
  0
LINE
  8
1
 62
2
 10
1357.450112771393
 20
620.446503564002
 30
0
 11
1356.095946104726
 21
620.446503564002
 31
0
  0
LINE
  8
1
 62
2
 10
1356.512612771393
 20
620.915253564002
 30
0
 11
1356.095946104726
 21
620.446503564002
 31
0
  0
LINE
  8
1
 62
2
 10
1355.99177943806
 20
620.329316064002
 30
0
 11
1355.67927943806
 21
620.094941064002
 31
0
  0
LINE
  8
1
 62
2
 10
1355.67927943806
 20
620.094941064002
 30
0
 11
1355.36677943806
 21
619.860566064002
 31
0
  0
LINE
  8
1
 62
2
 10
1356.408446104726
 20
620.329316064002
 30
0
 11
1356.720946104726
 21
619.977753564002
 31
0
  0
LINE
  8
1
 62
2
 10
1356.720946104726
 20
619.977753564002
 30
0
 11
1357.345946104726
 21
619.509003564002
 31
0
  0
LINE
  8
1
 62
2
 10
1357.345946104726
 20
619.509003564002
 30
0
 11
1357.86677943806
 21
619.274628564002
 31
0
  0
LINE
  8
1
 62
2
 10
1357.86677943806
 20
619.274628564002
 30
0
 11
1358.387612771393
 21
619.040253564002
 31
0
  0
LINE
  8
1
 62
2
 10
1358.283446104726
 20
621.149628564002
 30
0
 11
1357.762612771393
 21
621.618378564002
 31
0
  0
LINE
  8
1
 62
2
 10
1356.825112771393
 20
620.915253564002
 30
0
 11
1357.033446104726
 21
620.915253564002
 31
0
  0
LINE
  8
1
 62
2
 10
1357.033446104726
 20
620.915253564002
 30
0
 11
1357.137612771393
 21
621.149628564002
 31
0
  0
LINE
  8
1
 62
2
 10
1357.137612771393
 20
621.149628564002
 30
0
 11
1357.137612771393
 21
622.087128564002
 31
0
  0
LINE
  8
1
 62
2
 10
1356.512612771393
 20
622.087128564002
 30
0
 11
1356.408446104726
 21
621.501191064002
 31
0
  0
LINE
  8
1
 62
2
 10
1356.408446104726
 20
621.501191064002
 30
0
 11
1356.200112771393
 21
621.032441064002
 31
0
  0
LINE
  8
1
 62
2
 10
1356.200112771393
 20
621.032441064002
 30
0
 11
1355.887612771393
 21
620.798066064002
 31
0
  0
LINE
  8
1
 62
2
 10
1355.887612771393
 20
620.798066064002
 30
0
 11
1355.67927943806
 21
620.680878564002
 31
0
  0
LINE
  8
1
 62
2
 10
1355.36677943806
 20
621.149628564002
 30
0
 11
1355.783446104726
 21
621.618378564002
 31
0
  0
LINE
  8
1
 62
2
 10
1355.36677943806
 20
622.087128564002
 30
0
 11
1356.512612771393
 21
622.087128564002
 31
0
  0
LINE
  8
1
 62
2
 10
1356.825112771393
 20
622.204316064002
 30
0
 11
1356.825112771393
 21
622.555878564002
 31
0
  0
LINE
  8
1
 62
2
 10
1356.512612771393
 20
622.087128564002
 30
0
 11
1358.283446104726
 21
622.087128564002
 31
0
  0
LINE
  8
1
 62
2
 10
1356.095946104726
 20
620.446503564002
 30
0
 11
1355.99177943806
 21
620.329316064002
 31
0
  0
LINE
  8
1
 62
2
 10
1359.533446104726
 20
619.274628564002
 30
0
 11
1361.200112771393
 21
621.266816064002
 31
0
  0
LINE
  8
1
 62
2
 10
1361.200112771393
 20
621.266816064002
 30
0
 11
1360.67927943806
 21
621.149628564002
 31
0
  0
LINE
  8
1
 62
2
 10
1360.67927943806
 20
621.149628564002
 30
0
 11
1359.845946104726
 21
621.032441064002
 31
0
  0
LINE
  8
1
 62
2
 10
1360.262612771393
 20
622.321503564002
 30
0
 11
1360.575112771393
 21
622.087128564002
 31
0
  0
LINE
  8
1
 62
2
 10
1360.575112771393
 20
622.087128564002
 30
0
 11
1360.99177943806
 21
621.852753564002
 31
0
  0
LINE
  8
1
 62
2
 10
1360.36677943806
 20
620.212128564002
 30
0
 11
1360.575112771393
 21
620.329316064002
 31
0
  0
LINE
  8
1
 62
2
 10
1360.575112771393
 20
620.329316064002
 30
0
 11
1360.783446104726
 21
620.329316064002
 31
0
  0
LINE
  8
1
 62
2
 10
1360.783446104726
 20
620.329316064002
 30
0
 11
1360.783446104726
 21
619.509003564002
 31
0
  0
LINE
  8
1
 62
2
 10
1360.783446104726
 20
619.509003564002
 30
0
 11
1360.887612771393
 21
619.157441064002
 31
0
  0
LINE
  8
1
 62
2
 10
1360.887612771393
 20
619.157441064002
 30
0
 11
1361.408446104726
 21
619.157441064002
 31
0
  0
LINE
  8
1
 62
2
 10
1361.408446104726
 20
619.157441064002
 30
0
 11
1361.825112771393
 21
619.274628564002
 31
0
  0
LINE
  8
1
 62
2
 10
1364.220946104726
 20
619.157441064002
 30
0
 11
1364.74177943806
 21
619.274628564002
 31
0
  0
LINE
  8
1
 62
2
 10
1364.74177943806
 20
619.274628564002
 30
0
 11
1365.262612771393
 21
619.626191064002
 31
0
  0
LINE
  8
1
 62
2
 10
1365.262612771393
 20
619.626191064002
 30
0
 11
1365.470946104726
 21
619.977753564002
 31
0
  0
LINE
  8
1
 62
2
 10
1365.470946104726
 20
619.977753564002
 30
0
 11
1365.36677943806
 21
620.446503564002
 31
0
  0
LINE
  8
1
 62
2
 10
1365.36677943806
 20
620.446503564002
 30
0
 11
1364.950112771393
 21
620.680878564002
 31
0
  0
LINE
  8
1
 62
2
 10
1364.950112771393
 20
620.680878564002
 30
0
 11
1364.533446104726
 21
620.680878564002
 31
0
  0
LINE
  8
1
 62
2
 10
1364.533446104726
 20
620.680878564002
 30
0
 11
1364.11677943806
 21
620.446503564002
 31
0
  0
LINE
  8
1
 62
2
 10
1364.11677943806
 20
620.446503564002
 30
0
 11
1363.595946104726
 21
620.094941064002
 31
0
  0
LINE
  8
1
 62
2
 10
1363.595946104726
 20
620.094941064002
 30
0
 11
1363.700112771393
 21
620.915253564002
 31
0
  0
LINE
  8
1
 62
2
 10
1363.700112771393
 20
620.915253564002
 30
0
 11
1363.908446104726
 21
621.618378564002
 31
0
  0
LINE
  8
1
 62
2
 10
1364.11677943806
 20
622.321503564002
 30
0
 11
1364.42927943806
 21
622.087128564002
 31
0
  0
LINE
  8
1
 62
2
 10
1364.42927943806
 20
622.087128564002
 30
0
 11
1364.637612771393
 21
621.852753564002
 31
0
  0
LINE
  8
1
 62
2
 10
1367.55427943806
 20
622.204316064002
 30
0
 11
1367.450112771393
 21
620.563691064002
 31
0
  0
LINE
  8
1
 62
2
 10
1367.450112771393
 20
620.563691064002
 30
0
 11
1367.450112771393
 21
619.157441064002
 31
0
  0
LINE
  8
1
 62
2
 10
1366.825112771393
 20
620.798066064002
 30
0
 11
1367.658446104726
 21
621.384003564002
 31
0
  0
LINE
  8
1
 62
2
 10
1367.658446104726
 20
621.384003564002
 30
0
 11
1367.450112771393
 21
620.680878564002
 31
0
  0
LINE
  8
1
 62
2
 10
1367.450112771393
 20
620.680878564002
 30
0
 11
1366.825112771393
 21
619.509003564002
 31
0
  0
LINE
  8
1
 62
2
 10
1367.345946104726
 20
620.446503564002
 30
0
 11
1367.970946104726
 21
621.266816064002
 31
0
  0
LINE
  8
1
 62
2
 10
1367.970946104726
 20
621.266816064002
 30
0
 11
1368.387612771393
 21
621.618378564002
 31
0
  0
LINE
  8
1
 62
2
 10
1368.387612771393
 20
621.618378564002
 30
0
 11
1368.700112771393
 21
621.618378564002
 31
0
  0
LINE
  8
1
 62
2
 10
1368.700112771393
 20
621.618378564002
 30
0
 11
1368.80427943806
 21
621.266816064002
 31
0
  0
LINE
  8
1
 62
2
 10
1368.80427943806
 20
621.266816064002
 30
0
 11
1368.700112771393
 21
619.860566064002
 31
0
  0
LINE
  8
1
 62
2
 10
1368.700112771393
 20
619.860566064002
 30
0
 11
1368.908446104726
 21
619.509003564002
 31
0
  0
LINE
  8
1
 62
2
 10
1368.908446104726
 20
619.509003564002
 30
0
 11
1369.220946104726
 21
619.509003564002
 31
0
  0
LINE
  8
1
 62
2
 10
1369.220946104726
 20
619.509003564002
 30
0
 11
1369.42927943806
 21
619.743378564002
 31
0
  0
LINE
  8
1
 62
2
 10
1370.887612771393
 20
620.915253564002
 30
0
 11
1371.825112771393
 21
620.915253564002
 31
0
  0
LINE
  8
1
 62
2
 10
1371.825112771393
 20
620.915253564002
 30
0
 11
1372.658446104726
 21
621.149628564002
 31
0
  0
LINE
  8
1
 62
2
 10
1372.55427943806
 20
621.852753564002
 30
0
 11
1371.825112771393
 21
621.735566064002
 31
0
  0
LINE
  8
1
 62
2
 10
1371.825112771393
 20
621.735566064002
 30
0
 11
1371.200112771393
 21
621.735566064002
 31
0
  0
LINE
  8
1
 62
2
 10
1371.92927943806
 20
622.438691064002
 30
0
 11
1371.92927943806
 21
621.501191064002
 31
0
  0
LINE
  8
1
 62
2
 10
1371.92927943806
 20
621.501191064002
 30
0
 11
1372.033446104726
 21
619.860566064002
 31
0
  0
LINE
  8
1
 62
2
 10
1372.033446104726
 20
619.860566064002
 30
0
 11
1371.825112771393
 21
619.391816064002
 31
0
  0
LINE
  8
1
 62
2
 10
1371.825112771393
 20
619.391816064002
 30
0
 11
1371.408446104726
 21
619.157441064002
 31
0
  0
LINE
  8
1
 62
2
 10
1371.408446104726
 20
619.157441064002
 30
0
 11
1370.99177943806
 21
619.274628564002
 31
0
  0
LINE
  8
1
 62
2
 10
1370.99177943806
 20
619.274628564002
 30
0
 11
1370.887612771393
 21
619.509003564002
 31
0
  0
LINE
  8
1
 62
2
 10
1370.887612771393
 20
619.509003564002
 30
0
 11
1371.095946104726
 21
619.743378564002
 31
0
  0
LINE
  8
1
 62
2
 10
1371.095946104726
 20
619.743378564002
 30
0
 11
1371.61677943806
 21
619.860566064002
 31
0
  0
LINE
  8
1
 62
2
 10
1371.61677943806
 20
619.860566064002
 30
0
 11
1372.137612771393
 21
619.626191064002
 31
0
  0
LINE
  8
1
 62
2
 10
1372.137612771393
 20
619.626191064002
 30
0
 11
1372.55427943806
 21
619.274628564002
 31
0
  0
LINE
  8
1
 62
2
 10
1375.36677943806
 20
619.040253564002
 30
0
 11
1375.67927943806
 21
619.626191064002
 31
0
  0
LINE
  8
1
 62
2
 10
1375.67927943806
 20
619.626191064002
 30
0
 11
1375.887612771393
 21
620.094941064002
 31
0
  0
LINE
  8
1
 62
2
 10
1375.887612771393
 20
620.094941064002
 30
0
 11
1375.887612771393
 21
620.798066064002
 31
0
  0
LINE
  8
1
 62
2
 10
1375.887612771393
 20
620.798066064002
 30
0
 11
1375.67927943806
 21
621.032441064002
 31
0
  0
LINE
  8
1
 62
2
 10
1375.67927943806
 20
621.032441064002
 30
0
 11
1375.36677943806
 21
620.915253564002
 31
0
  0
LINE
  8
1
 62
2
 10
1375.36677943806
 20
620.915253564002
 30
0
 11
1375.262612771393
 21
620.563691064002
 31
0
  0
LINE
  8
1
 62
2
 10
1375.262612771393
 20
620.563691064002
 30
0
 11
1375.575112771393
 21
620.094941064002
 31
0
  0
LINE
  8
1
 62
2
 10
1375.575112771393
 20
620.094941064002
 30
0
 11
1375.887612771393
 21
620.329316064002
 31
0
  0
LINE
  8
1
 62
2
 10
1375.887612771393
 20
620.329316064002
 30
0
 11
1375.887612771393
 21
622.438691064002
 31
0
  0
LINE
  8
1
 62
2
 10
1374.325112771393
 20
621.384003564002
 30
0
 11
1375.470946104726
 21
621.618378564002
 31
0
  0
LINE
  8
1
 62
2
 10
1375.470946104726
 20
621.618378564002
 30
0
 11
1377.033446104726
 21
621.618378564002
 31
0
  0
LINE
  8
1
 62
2
 10
1378.595946104726
 20
619.509003564002
 30
0
 11
1379.012612771393
 21
619.509003564002
 31
0
  0
LINE
  8
1
 62
2
 10
1379.012612771393
 20
619.509003564002
 30
0
 11
1379.012612771393
 21
619.977753564002
 31
0
  0
LINE
  8
1
 62
2
 10
1379.012612771393
 20
619.977753564002
 30
0
 11
1378.595946104726
 21
619.977753564002
 31
0
  0
LINE
  8
1
 62
2
 10
1378.595946104726
 20
619.977753564002
 30
0
 11
1378.595946104726
 21
619.509003564002
 31
0
  0
LINE
  8
1
 62
2
 10
1318.4658011772
 20
313.602522585742
 30
0
 11
1318.4658011772
 21
317.352522585742
 31
0
  0
LINE
  8
1
 62
2
 10
1318.4658011772
 20
317.352522585742
 30
0
 11
1321.0908011772
 21
313.602522585742
 31
0
  0
LINE
  8
1
 62
2
 10
1321.0908011772
 20
313.602522585742
 30
0
 11
1321.0908011772
 21
317.352522585742
 31
0
  0
LINE
  8
1
 62
2
 10
1322.9658011772
 20
315.477522585742
 30
0
 11
1322.2158011772
 21
314.727522585742
 31
0
  0
LINE
  8
1
 62
2
 10
1324.8408011772
 20
317.352522585742
 30
0
 11
1322.9658011772
 21
315.477522585742
 31
0
  0
LINE
  8
1
 62
2
 10
1322.9658011772
 20
315.477522585742
 30
0
 11
1324.8408011772
 21
313.602522585742
 31
0
  0
LINE
  8
1
 62
2
 10
1322.2158011772
 20
313.602522585742
 30
0
 11
1322.2158011772
 21
314.727522585742
 31
0
  0
LINE
  8
1
 62
2
 10
1322.2158011772
 20
314.727522585742
 30
0
 11
1322.2158011772
 21
317.352522585742
 31
0
  0
LINE
  8
1
 62
2
 10
1328.5908011772
 20
317.352522585742
 30
0
 11
1328.5908011772
 21
315.665022585742
 31
0
  0
LINE
  8
1
 62
2
 10
1325.9658011772
 20
315.665022585742
 30
0
 11
1328.5908011772
 21
315.665022585742
 31
0
  0
LINE
  8
1
 62
2
 10
1325.9658011772
 20
317.352522585742
 30
0
 11
1325.9658011772
 21
315.665022585742
 31
0
  0
LINE
  8
1
 62
2
 10
1325.9658011772
 20
315.477522585742
 30
0
 11
1325.9658011772
 21
313.602522585742
 31
0
  0
LINE
  8
1
 62
2
 10
1328.5908011772
 20
315.665022585742
 30
0
 11
1328.5908011772
 21
313.602522585742
 31
0
  0
LINE
  8
1
 62
2
 10
1325.9658011772
 20
315.665022585742
 30
0
 11
1325.9658011772
 21
315.477522585742
 31
0
  0
LINE
  8
1
 62
2
 10
1330.1845511772
 20
314.727522585742
 30
0
 11
1332.2470511772
 21
314.727522585742
 31
0
  0
LINE
  8
1
 62
2
 10
1329.7158011772
 20
313.602522585742
 30
0
 11
1331.2158011772
 21
317.352522585742
 31
0
  0
LINE
  8
1
 62
2
 10
1331.2158011772
 20
317.352522585742
 30
0
 11
1332.7158011772
 21
313.602522585742
 31
0
  0
LINE
  8
1
 62
2
 10
1334.049134510533
 20
313.719710085742
 30
0
 11
1335.611634510533
 21
313.719710085742
 31
0
  0
LINE
  8
1
 62
2
 10
1336.6533011772
 20
314.540022585742
 30
0
 11
1334.361634510533
 21
314.540022585742
 31
0
  0
LINE
  8
1
 62
2
 10
1334.049134510533
 20
315.008772585742
 30
0
 11
1334.361634510533
 21
315.477522585742
 31
0
  0
LINE
  8
1
 62
2
 10
1334.361634510533
 20
315.477522585742
 30
0
 11
1334.569967843867
 21
316.297835085742
 31
0
  0
LINE
  8
1
 62
2
 10
1334.569967843867
 20
316.297835085742
 30
0
 11
1334.569967843867
 21
317.118147585742
 31
0
  0
LINE
  8
1
 62
2
 10
1335.611634510533
 20
317.118147585742
 30
0
 11
1335.0908011772
 21
317.118147585742
 31
0
  0
LINE
  8
1
 62
2
 10
1333.944967843867
 20
316.297835085742
 30
0
 11
1335.7158011772
 21
316.297835085742
 31
0
  0
LINE
  8
1
 62
2
 10
1335.0908011772
 20
317.118147585742
 30
0
 11
1335.0908011772
 21
315.125960085742
 31
0
  0
LINE
  8
1
 62
2
 10
1336.132467843867
 20
315.594710085742
 30
0
 11
1336.132467843867
 21
317.118147585742
 31
0
  0
LINE
  8
1
 62
2
 10
1336.861634510533
 20
317.235335085742
 30
0
 11
1336.861634510533
 21
315.125960085742
 31
0
  0
LINE
  8
1
 62
2
 10
1336.861634510533
 20
315.125960085742
 30
0
 11
1336.549134510533
 21
315.125960085742
 31
0
  0
LINE
  8
1
 62
2
 10
1335.611634510533
 20
315.125960085742
 30
0
 11
1335.611634510533
 21
313.719710085742
 31
0
  0
LINE
  8
1
 62
2
 10
1335.611634510533
 20
313.719710085742
 30
0
 11
1337.069967843867
 21
313.719710085742
 31
0
  0
LINE
  8
1
 62
2
 10
1335.0908011772
 20
317.118147585742
 30
0
 11
1334.049134510533
 21
317.118147585742
 31
0
  0
LINE
  8
1
 62
2
 10
1337.5908011772
 20
316.227522585742
 30
0
 11
1338.7158011772
 21
317.352522585742
 31
0
  0
LINE
  8
1
 62
2
 10
1338.7158011772
 20
317.352522585742
 30
0
 11
1338.7158011772
 21
313.602522585742
 31
0
  0
LINE
  8
1
 62
2
 10
1341.9033011772
 20
317.352522585742
 30
0
 11
1339.8408011772
 21
317.352522585742
 31
0
  0
LINE
  8
1
 62
2
 10
1339.8408011772
 20
317.352522585742
 30
0
 11
1339.8408011772
 21
315.852522585742
 31
0
  0
LINE
  8
1
 62
2
 10
1339.8408011772
 20
315.852522585742
 30
0
 11
1341.2470511772
 21
315.852522585742
 31
0
  0
LINE
  8
1
 62
2
 10
1341.2470511772
 20
315.852522585742
 30
0
 11
1341.7158011772
 21
315.758772585742
 31
0
  0
LINE
  8
1
 62
2
 10
1341.7158011772
 20
315.758772585742
 30
0
 11
1341.9970511772
 21
315.477522585742
 31
0
  0
LINE
  8
1
 62
2
 10
1341.9970511772
 20
315.477522585742
 30
0
 11
1342.0908011772
 21
315.102522585742
 31
0
  0
LINE
  8
1
 62
2
 10
1342.0908011772
 20
315.102522585742
 30
0
 11
1342.0908011772
 21
314.540022585742
 31
0
  0
LINE
  8
1
 62
2
 10
1342.0908011772
 20
314.540022585742
 30
0
 11
1341.9970511772
 21
314.165022585742
 31
0
  0
LINE
  8
1
 62
2
 10
1341.9970511772
 20
314.165022585742
 30
0
 11
1341.8095511772
 21
313.883772585742
 31
0
  0
LINE
  8
1
 62
2
 10
1341.8095511772
 20
313.883772585742
 30
0
 11
1341.5283011772
 21
313.696272585742
 31
0
  0
LINE
  8
1
 62
2
 10
1341.5283011772
 20
313.696272585742
 30
0
 11
1341.2470511772
 21
313.602522585742
 31
0
  0
LINE
  8
1
 62
2
 10
1341.2470511772
 20
313.602522585742
 30
0
 11
1339.8408011772
 21
313.602522585742
 31
0
  0
LINE
  8
1
 62
2
 10
1343.2158011772
 20
313.602522585742
 30
0
 11
1343.2158011772
 21
316.227522585742
 31
0
  0
LINE
  8
1
 62
2
 10
1343.2158011772
 20
316.227522585742
 30
0
 11
1344.5283011772
 21
316.227522585742
 31
0
  0
LINE
  8
1
 62
2
 10
1345.2783011772
 20
316.227522585742
 30
0
 11
1345.5595511772
 21
316.133772585742
 31
0
  0
LINE
  8
1
 62
2
 10
1345.5595511772
 20
316.133772585742
 30
0
 11
1345.7470511772
 21
315.946272585742
 31
0
  0
LINE
  8
1
 62
2
 10
1345.7470511772
 20
315.946272585742
 30
0
 11
1345.8408011772
 21
315.758772585742
 31
0
  0
LINE
  8
1
 62
2
 10
1345.8408011772
 20
315.758772585742
 30
0
 11
1345.8408011772
 21
313.602522585742
 31
0
  0
LINE
  8
1
 62
2
 10
1344.5283011772
 20
316.227522585742
 30
0
 11
1344.5283011772
 21
313.602522585742
 31
0
  0
LINE
  8
1
 62
2
 10
1344.5283011772
 20
316.227522585742
 30
0
 11
1345.2783011772
 21
316.227522585742
 31
0
  0
LINE
  8
1
 62
2
 10
1346.9658011772
 20
313.602522585742
 30
0
 11
1346.9658011772
 21
316.227522585742
 31
0
  0
LINE
  8
1
 62
2
 10
1346.9658011772
 20
316.227522585742
 30
0
 11
1348.2783011772
 21
316.227522585742
 31
0
  0
LINE
  8
1
 62
2
 10
1349.0283011772
 20
316.227522585742
 30
0
 11
1349.3095511772
 21
316.133772585742
 31
0
  0
LINE
  8
1
 62
2
 10
1349.3095511772
 20
316.133772585742
 30
0
 11
1349.4970511772
 21
315.946272585742
 31
0
  0
LINE
  8
1
 62
2
 10
1349.4970511772
 20
315.946272585742
 30
0
 11
1349.5908011772
 21
315.758772585742
 31
0
  0
LINE
  8
1
 62
2
 10
1349.5908011772
 20
315.758772585742
 30
0
 11
1349.5908011772
 21
313.602522585742
 31
0
  0
LINE
  8
1
 62
2
 10
1348.2783011772
 20
316.227522585742
 30
0
 11
1348.2783011772
 21
313.602522585742
 31
0
  0
LINE
  8
1
 62
2
 10
1348.2783011772
 20
316.227522585742
 30
0
 11
1349.0283011772
 21
316.227522585742
 31
0
  0
LINE
  8
1
 62
2
 10
1350.819967843867
 20
313.719710085742
 30
0
 11
1351.3408011772
 21
315.125960085742
 31
0
  0
LINE
  8
1
 62
2
 10
1351.132467843867
 20
315.594710085742
 30
0
 11
1350.7158011772
 21
315.946272585742
 31
0
  0
LINE
  8
1
 62
2
 10
1351.3408011772
 20
316.649397585742
 30
0
 11
1350.924134510533
 21
317.000960085742
 31
0
  0
LINE
  8
1
 62
2
 10
1352.069967843867
 20
317.000960085742
 30
0
 11
1352.069967843867
 21
316.297835085742
 31
0
  0
LINE
  8
1
 62
2
 10
1352.069967843867
 20
315.594710085742
 30
0
 11
1353.319967843867
 21
315.594710085742
 31
0
  0
LINE
  8
1
 62
2
 10
1353.319967843867
 20
315.594710085742
 30
0
 11
1353.319967843867
 21
316.297835085742
 31
0
  0
LINE
  8
1
 62
2
 10
1353.319967843867
 20
317.000960085742
 30
0
 11
1352.069967843867
 21
317.000960085742
 31
0
  0
LINE
  8
1
 62
2
 10
1352.069967843867
 20
316.297835085742
 30
0
 11
1353.319967843867
 21
316.297835085742
 31
0
  0
LINE
  8
1
 62
2
 10
1351.9658011772
 20
313.719710085742
 30
0
 11
1351.9658011772
 21
315.008772585742
 31
0
  0
LINE
  8
1
 62
2
 10
1351.9658011772
 20
315.008772585742
 30
0
 11
1352.486634510533
 21
315.008772585742
 31
0
  0
LINE
  8
1
 62
2
 10
1353.5283011772
 20
315.008772585742
 30
0
 11
1353.5283011772
 21
313.719710085742
 31
0
  0
LINE
  8
1
 62
2
 10
1353.007467843867
 20
313.719710085742
 30
0
 11
1353.007467843867
 21
315.008772585742
 31
0
  0
LINE
  8
1
 62
2
 10
1352.486634510533
 20
315.008772585742
 30
0
 11
1352.486634510533
 21
313.719710085742
 31
0
  0
LINE
  8
1
 62
2
 10
1351.444967843867
 20
313.719710085742
 30
0
 11
1351.9658011772
 21
313.719710085742
 31
0
  0
LINE
  8
1
 62
2
 10
1352.486634510533
 20
313.719710085742
 30
0
 11
1354.049134510533
 21
313.719710085742
 31
0
  0
LINE
  8
1
 62
2
 10
1352.486634510533
 20
315.008772585742
 30
0
 11
1353.5283011772
 21
315.008772585742
 31
0
  0
LINE
  8
1
 62
2
 10
1351.9658011772
 20
313.719710085742
 30
0
 11
1352.486634510533
 21
313.719710085742
 31
0
  0
LINE
  8
1
 62
2
 10
1353.319967843867
 20
316.297835085742
 30
0
 11
1353.319967843867
 21
317.000960085742
 31
0
  0
LINE
  8
1
 62
2
 10
1352.069967843867
 20
316.297835085742
 30
0
 11
1352.069967843867
 21
315.594710085742
 31
0
  0
LINE
  8
1
 62
2
 10
1354.674134510533
 20
314.188460085742
 30
0
 11
1355.0908011772
 21
314.657210085742
 31
0
  0
LINE
  8
1
 62
2
 10
1355.0908011772
 20
314.657210085742
 30
0
 11
1355.507467843867
 21
315.360335085742
 31
0
  0
LINE
  8
1
 62
2
 10
1355.507467843867
 20
315.360335085742
 30
0
 11
1355.7158011772
 21
316.063460085742
 31
0
  0
LINE
  8
1
 62
2
 10
1355.7158011772
 20
316.063460085742
 30
0
 11
1354.674134510533
 21
316.063460085742
 31
0
  0
LINE
  8
1
 62
2
 10
1356.236634510533
 20
317.235335085742
 30
0
 11
1356.236634510533
 21
313.602522585742
 31
0
  0
LINE
  8
1
 62
2
 10
1356.236634510533
 20
313.602522585742
 30
0
 11
1355.924134510533
 21
313.719710085742
 31
0
  0
LINE
  8
1
 62
2
 10
1357.486634510533
 20
316.415022585742
 30
0
 11
1356.757467843867
 21
315.829085085742
 31
0
  0
LINE
  8
1
 62
2
 10
1356.549134510533
 20
316.297835085742
 30
0
 11
1356.861634510533
 21
315.477522585742
 31
0
  0
LINE
  8
1
 62
2
 10
1356.861634510533
 20
315.477522585742
 30
0
 11
1357.2783011772
 21
314.774397585742
 31
0
  0
LINE
  8
1
 62
2
 10
1357.2783011772
 20
314.774397585742
 30
0
 11
1357.799134510533
 21
314.188460085742
 31
0
  0
LINE
  8
1
 62
2
 10
1358.8408011772
 20
314.071272585742
 30
0
 11
1359.569967843867
 21
314.657210085742
 31
0
  0
LINE
  8
1
 62
2
 10
1359.569967843867
 20
314.657210085742
 30
0
 11
1360.4033011772
 21
315.711897585742
 31
0
  0
LINE
  8
1
 62
2
 10
1360.4033011772
 20
315.711897585742
 30
0
 11
1360.924134510533
 21
316.766585085742
 31
0
  0
LINE
  8
1
 62
2
 10
1359.674134510533
 20
316.063460085742
 30
0
 11
1360.194967843867
 21
315.477522585742
 31
0
  0
LINE
  8
1
 62
2
 10
1360.194967843867
 20
315.477522585742
 30
0
 11
1360.7158011772
 21
314.657210085742
 31
0
  0
LINE
  8
1
 62
2
 10
1362.486634510533
 20
315.594710085742
 30
0
 11
1362.694967843867
 21
315.477522585742
 31
0
  0
LINE
  8
1
 62
2
 10
1362.694967843867
 20
315.477522585742
 30
0
 11
1364.569967843867
 21
315.477522585742
 31
0
  0
LINE
  8
1
 62
2
 10
1364.569967843867
 20
315.477522585742
 30
0
 11
1364.7783011772
 21
315.360335085742
 31
0
  0
LINE
  8
1
 62
2
 10
1366.3408011772
 20
314.071272585742
 30
0
 11
1367.2783011772
 21
314.774397585742
 31
0
  0
LINE
  8
1
 62
2
 10
1367.2783011772
 20
314.774397585742
 30
0
 11
1368.111634510533
 21
315.711897585742
 31
0
  0
LINE
  8
1
 62
2
 10
1368.111634510533
 20
315.711897585742
 30
0
 11
1368.5283011772
 21
316.532210085742
 31
0
  0
LINE
  8
1
 62
2
 10
1368.5283011772
 20
316.532210085742
 30
0
 11
1367.174134510533
 21
316.532210085742
 31
0
  0
LINE
  8
1
 62
2
 10
1367.486634510533
 20
317.000960085742
 30
0
 11
1366.9658011772
 21
316.297835085742
 31
0
  0
LINE
  8
1
 62
2
 10
1366.9658011772
 20
316.297835085742
 30
0
 11
1366.444967843867
 21
315.711897585742
 31
0
  0
LINE
  8
1
 62
2
 10
1367.2783011772
 20
315.829085085742
 30
0
 11
1368.111634510533
 21
314.891585085742
 31
0
  0
LINE
  8
1
 62
2
 10
1369.986634510533
 20
315.594710085742
 30
0
 11
1370.194967843867
 21
315.477522585742
 31
0
  0
LINE
  8
1
 62
2
 10
1370.194967843867
 20
315.477522585742
 30
0
 11
1372.069967843867
 21
315.477522585742
 31
0
  0
LINE
  8
1
 62
2
 10
1372.069967843867
 20
315.477522585742
 30
0
 11
1372.2783011772
 21
315.360335085742
 31
0
  0
ARC
  8
1
 62
7
 10
1343.473158972351
 20
414.6456565483441
 30
0
 40
1
 50
270
 51
0
  0
ARC
  8
1
 62
7
 10
1339.473158972351
 20
414.6456565483441
 30
0
 40
1
 50
180
 51
270
  0
ARC
  8
1
 62
7
 10
1339.473158972351
 20
424.6456565483441
 30
0
 40
1
 50
90
 51
180
  0
ARC
  8
1
 62
7
 10
1343.473158972351
 20
424.6456565483441
 30
0
 40
1
 50
0
 51
90
  0
ARC
  8
1
 62
7
 10
1297.973158972351
 20
424.6456565483441
 30
0
 40
1
 50
90
 51
180
  0
ARC
  8
1
 62
7
 10
1297.973158972351
 20
414.6456565483441
 30
0
 40
1
 50
180
 51
270
  0
ARC
  8
1
 62
7
 10
1303.973158972351
 20
426.6456565483441
 30
0
 40
1
 50
90
 51
180
  0
ARC
  8
1
 62
7
 10
1303.973158972351
 20
428.1456565483441
 30
0
 40
0.5
 50
270
 51
0
  0
ARC
  8
1
 62
7
 10
1303.973158972351
 20
426.6456565483441
 30
0
 40
1
 50
90
 51
180
  0
ARC
  8
1
 62
7
 10
1378.973158972351
 20
428.1456565483441
 30
0
 40
0.5
 50
180
 51
270
  0
ARC
  8
1
 62
7
 10
1378.973158972351
 20
426.6456565483441
 30
0
 40
1
 50
0
 51
90
  0
ARC
  8
1
 62
7
 10
1384.973158972351
 20
424.6456565483441
 30
0
 40
1
 50
0
 51
90
  0
ARC
  8
1
 62
7
 10
1384.973158972351
 20
414.6456565483441
 30
0
 40
1
 50
270
 51
0
  0
ARC
  8
1
 62
7
 10
1307.473158972351
 20
404.6956552937439
 30
0
 40
2
 50
0
 51
90
  0
ARC
  8
1
 62
7
 10
1375.473158972351
 20
404.6956552937439
 30
0
 40
2
 50
90
 51
180
  0
ARC
  8
1
 62
7
 10
1307.473158972351
 20
385.4456552937447
 30
0
 40
2
 50
270
 51
0
  0
ARC
  8
1
 62
7
 10
1304.473158972351
 20
385.4456552937447
 30
0
 40
2
 50
180
 51
270
  0
ARC
  8
1
 62
7
 10
1327.473158972351
 20
358.6956552937447
 30
0
 40
5.522680508593631
 50
354.8055710922652
 51
84.8055710922652
  0
ARC
  8
1
 62
7
 10
1355.473158972351
 20
358.6956552937447
 30
0
 40
5.522680508593631
 50
95.19442890773482
 51
185.1944289077348
  0
ARC
  8
1
 62
7
 10
1378.473158972351
 20
364.1956552937447
 30
0
 40
2
 50
0
 51
90
  0
ARC
  8
1
 62
7
 10
1346.973158972351
 20
357.2446789821668
 30
0
 40
2.999999999999941
 50
294.9999999999978
 51
0
  0
ARC
  8
1
 62
7
 10
1335.973158972351
 20
357.2520778801982
 30
0
 40
3
 50
180
 51
245.2008034880245
  0
ARC
  8
1
 62
7
 10
1341.506365895378
 20
354.6954715048254
 30
0
 40
2.999999999999842
 50
254.5377474627296
 51
283.4971230385803
  0
ARC
  8
1
 62
7
 10
1374.473158972351
 20
365.1956552937447
 30
0
 40
1
 50
90
 51
180
  0
ARC
  8
1
 62
7
 10
1372.473158972351
 20
365.1956552937447
 30
0
 40
1
 50
270
 51
0
  0
ARC
  8
1
 62
7
 10
1304.473158972351
 20
364.1956552937447
 30
0
 40
2
 50
90
 51
180
  0
ARC
  8
1
 62
7
 10
1308.473158972351
 20
365.1956552937447
 30
0
 40
1
 50
0
 51
90
  0
ARC
  8
1
 62
7
 10
1310.473158972351
 20
365.1956552937447
 30
0
 40
1
 50
180
 51
270
  0
ARC
  8
1
 62
7
 10
1375.473158972351
 20
385.1956552937447
 30
0
 40
2
 50
180
 51
270
  0
ARC
  8
1
 62
7
 10
1378.473158972351
 20
385.1956552937447
 30
0
 40
2
 50
270
 51
0
  0
ARC
  8
1
 62
7
 10
1338.973158972351
 20
363.1956552937447
 30
0
 40
1
 50
0
 51
90
  0
ARC
  8
1
 62
7
 10
1343.973158972351
 20
363.1956552937447
 30
0
 40
1
 50
90
 51
180
  0
ARC
  8
1
 62
7
 10
1340.973158972351
 20
352.767858894046
 30
0
 40
1
 50
180
 51
254.5377474627437
  0
ARC
  8
1
 62
7
 10
1341.973158972351
 20
352.7507082227548
 30
0
 40
0.9999999999997294
 50
283.4971230385605
 51
0
  0
ARC
  8
1
 62
7
 10
1322.177217426332
 20
488.8497150023245
 30
0
 40
10
 50
180
 51
202.4130884470873
  0
ARC
  8
1
 62
7
 10
1360.723158972351
 20
488.8497150023255
 30
0
 40
10
 50
270
 51
322.3315491906257
  0
ARC
  8
1
 62
7
 10
1360.72315897235
 20
488.8497150023241
 30
0
 40
9.999999999999588
 50
322.3315491906361
 51
324.8488137824488
  0
ARC
  8
1
 62
7
 10
1360.723158972352
 20
488.8497150023277
 30
0
 40
9.999999999999975
 50
324.8488137824252
 51
331.987127919305
  0
ARC
  8
1
 62
7
 10
1360.723158972351
 20
488.8497150023255
 30
0
 40
10.00000000000002
 50
341.805127661233
 51
357.9913424883849
  0
ARC
  8
1
 62
7
 10
1360.723158972352
 20
488.8497150023266
 30
0
 40
9.99999999999951
 50
331.9871279193105
 51
341.8051276612254
  0
ARC
  8
1
 62
7
 10
1308.973158972351
 20
439.6456565483439
 30
0
 40
1
 50
180
 51
270
  0
ARC
  8
1
 62
7
 10
1373.973158972351
 20
439.6456565483439
 30
0
 40
0.9999999999998863
 50
270
 51
0
  0
ARC
  8
1
 62
7
 10
1375.973158972351
 20
444.645656548344
 30
0
 40
0.9999999999998863
 50
90
 51
180
  0
ARC
  8
1
 62
7
 10
1306.973158972351
 20
444.645656548344
 30
0
 40
1
 50
0
 51
90
  0
ARC
  8
1
 62
7
 10
1368.723158972351
 20
494.5273845319892
 30
0
 40
2
 50
0
 51
90
  0
ARC
  8
1
 62
7
 10
1314.177217426332
 20
494.5273845319892
 30
0
 40
2
 50
90
 51
180
  0
ARC
  8
1
 62
7
 10
1314.177217426332
 20
493.8202777508025
 30
0
 40
2
 50
90
 51
180
  0
ARC
  8
1
 62
7
 10
1368.723158972351
 20
493.8202777508025
 30
0
 40
2
 50
0
 51
90
  0
ARC
  8
1
 62
7
 10
1322.177217426332
 20
488.8497150023255
 30
0
 40
9.999999999999229
 50
202.4130884470937
 51
270
  0
ARC
  8
1
 62
7
 10
1360.723158972351
 20
488.8497150023321
 30
0
 40
10
 50
357.9913424883472
 51
359.9999999999623
  0
ARC
  8
1
 62
7
 10
1375.871272767266
 20
495.6456565483439
 30
0
 40
2.999999999999566
 50
8.130102354159202
 51
57.33037977072236
  0
ARC
  8
1
 62
7
 10
1307.075045177436
 20
495.6456565483439
 30
0
 40
3
 50
90
 51
122.6696202292831
  0
ARC
  8
1
 62
7
 10
1307.075045177436
 20
495.6456565483439
 30
0
 40
3.000000000000149
 50
122.6696202292831
 51
171.8698976458439
  0
ARC
  8
1
 62
7
 10
1375.871272767266
 20
495.6456565483439
 30
0
 40
3.00000000000017
 50
57.33037977072236
 51
90
  0
ARC
  8
1
 62
7
 10
1298.473158972351
 20
456.1456565483439
 30
0
 40
1.5
 50
270
 51
0
  0
ARC
  8
1
 62
7
 10
1384.473158972351
 20
456.1456565483439
 30
0
 40
1.5
 50
180
 51
270
  0
ARC
  8
1
 62
7
 10
1297.973158972351
 20
453.1456565483439
 30
0
 40
1.5
 50
90
 51
180
  0
ARC
  8
1
 62
7
 10
1384.973158972351
 20
453.1456565483439
 30
0
 40
1.5
 50
0
 51
90
  0
ARC
  8
1
 62
7
 10
1376.887915107447
 20
443.3168128284979
 30
0
 40
1.50081818181806
 50
8.170915410685931
 51
85.00000000002689
  0
ARC
  8
1
 62
7
 10
1376.887915107447
 20
440.8993447120374
 30
0
 40
1.500818181818146
 50
274.9999999999731
 51
351.8290845893098
  0
ARC
  8
1
 62
7
 10
1314.177217426332
 20
547.3288387350947
 30
0
 40
2
 50
90
 51
180
  0
ARC
  8
1
 62
7
 10
1368.723158972351
 20
547.3288387350947
 30
0
 40
2
 50
0
 51
90
  0
ARC
  8
1
 62
7
 10
1362.223158972351
 20
541.211829377211
 30
0
 40
8.5
 50
270
 51
0
  0
ARC
  8
1
 62
7
 10
1362.223158972351
 20
540.8582759866175
 30
0
 40
8.5
 50
270
 51
0
  0
ARC
  8
1
 62
7
 10
1320.677217426332
 20
541.211829377211
 30
0
 40
8.5
 50
180
 51
270
  0
ARC
  8
1
 62
7
 10
1320.677217426332
 20
540.8582759866175
 30
0
 40
8.5
 50
180
 51
270
  0
ARC
  8
1
 62
7
 10
1360.723158972351
 20
541.9924119948011
 30
0
 40
10
 50
357.9913424883468
 51
359.9999999999629
  0
ARC
  8
1
 62
7
 10
1360.723158972351
 20
541.9924119947946
 30
0
 40
9.999999999999963
 50
331.9871279193167
 51
341.8051276612324
  0
ARC
  8
1
 62
7
 10
1360.723158972351
 20
541.9924119947946
 30
0
 40
10.00000000000005
 50
341.8051276612324
 51
357.991342488384
  0
ARC
  8
1
 62
7
 10
1360.723158972353
 20
541.9924119947978
 30
0
 40
9.999999999999668
 50
324.8488137824164
 51
331.9871279192951
  0
ARC
  8
1
 62
7
 10
1360.723158972347
 20
541.9924119947885
 30
0
 40
9.999999999999393
 50
322.3315491906653
 51
324.8488137824798
  0
ARC
  8
1
 62
7
 10
1322.177217426332
 20
541.9924119947934
 30
0
 40
10
 50
180
 51
202.4130884470873
  0
ARC
  8
1
 62
7
 10
1353.723158972352
 20
477.2655758654715
 30
0
 40
0.5
 50
0
 51
90
  0
ARC
  8
1
 62
7
 10
1353.723158972352
 20
471.1945080536061
 30
0
 40
0.5
 50
270
 51
0
  0
ARC
  8
1
 62
7
 10
1329.223158972352
 20
471.1945080536061
 30
0
 40
0.5
 50
180
 51
270
  0
ARC
  8
1
 62
7
 10
1329.223158972352
 20
477.2655758654715
 30
0
 40
0.5
 50
90
 51
180
  0
ARC
  8
1
 62
7
 10
1353.723158972351
 20
530.6192231139941
 30
0
 40
0.5
 50
0
 51
90
  0
ARC
  8
1
 62
7
 10
1353.723158972351
 20
524.5481553021285
 30
0
 40
0.5
 50
270
 51
0
  0
ARC
  8
1
 62
7
 10
1329.223158972351
 20
524.5481553021285
 30
0
 40
0.5
 50
180
 51
270
  0
ARC
  8
1
 62
7
 10
1329.223158972351
 20
530.6192231139941
 30
0
 40
0.5
 50
90
 51
180
  0
ARC
  8
1
 62
7
 10
1347.628928839665
 20
391.9109657242893
 30
0
 40
0.7931953642021199
 50
0
 51
180
  0
ARC
  8
1
 62
7
 10
1345.051043906008
 20
391.9109657242893
 30
0
 40
0.7931953642018925
 50
0
 51
180
  0
ARC
  8
1
 62
7
 10
1342.473158972351
 20
391.9109657242893
 30
0
 40
0.7931953642018925
 50
0
 51
90
  0
ARC
  8
1
 62
7
 10
1347.628928839665
 20
391.9109657242893
 30
0
 40
1.784689569454031
 50
0
 51
136.2382573073268
  0
ARC
  8
1
 62
7
 10
1345.051043906008
 20
391.9109657242893
 30
0
 40
1.784689569454259
 50
43.76174269269038
 51
136.2382573073336
  0
ARC
  8
1
 62
7
 10
1342.473158972351
 20
391.9109657242893
 30
0
 40
1.784689569454462
 50
43.76174269268665
 51
90
  0
ARC
  8
1
 62
7
 10
1356.630631285481
 20
391.9109657242893
 30
0
 40
0.7931953642018925
 50
0
 51
180
  0
ARC
  8
1
 62
7
 10
1354.052746351824
 20
391.9109657242893
 30
0
 40
0.7931953642018925
 50
0
 51
180
  0
ARC
  8
1
 62
7
 10
1351.474861418167
 20
391.9109657242893
 30
0
 40
0.7931953642021199
 50
0
 51
90
  0
ARC
  8
1
 62
7
 10
1356.630631285481
 20
391.9109657242893
 30
0
 40
1.784689569454031
 50
0
 51
136.2382573073349
  0
ARC
  8
1
 62
7
 10
1354.052746351824
 20
391.9109657242893
 30
0
 40
1.784689569454423
 50
43.76174269268532
 51
136.2382573073336
  0
ARC
  8
1
 62
7
 10
1351.474861418167
 20
391.9109657242893
 30
0
 40
1.784689569454462
 50
43.76174269268665
 51
90
  0
ARC
  8
1
 62
7
 10
1341.506365895378
 20
354.6954715048254
 30
0
 40
2.99999999999973
 50
283.4971230385803
 51
299.2703451823199
  0
ARC
  8
1
 62
7
 10
1342.135674609284
 20
494.0809811784466
 30
0
 40
0.8775000000000546
 50
0
 51
142.6431480270897
  0
ARC
  8
1
 62
7
 10
1342.135674609284
 20
494.0809811784466
 30
0
 40
0.5174999999999272
 50
0
 51
180
  0
ARC
  8
1
 62
7
 10
1340.740674609284
 20
494.0809811784466
 30
0
 40
0.877500000000072
 50
37.35685197291033
 51
126.138814663127
  0
ARC
  8
1
 62
7
 10
1340.740674609284
 20
494.0809811784466
 30
0
 40
0.5174999999999272
 50
0
 51
180
  0
ARC
  8
1
 62
7
 10
1341.473158972351
 20
502.9831961710544
 30
0
 40
36.33753962271137
 50
187.6099843283898
 51
352.3900156716105
  0
ARC
  8
1
 62
7
 10
1368.469613517805
 20
442.1080787702676
 30
0
 40
10.00545454545489
 50
351.8290845893108
 51
8.170915410689576
  0
ARC
  8
1
 62
7
 10
1341.473158972351
 20
561.904217532636
 30
0
 40
37
 50
90
 51
180
  0
ARC
  8
1
 62
7
 10
1341.473158972351
 20
561.904217532636
 30
0
 40
45
 50
90
 51
180
  0
ARC
  8
1
 62
7
 10
1341.473158972351
 20
561.904217532636
 30
0
 40
45
 50
180
 51
0
  0
ARC
  8
1
 62
7
 10
1340.045658972351
 20
547.4837867566248
 30
0
 40
0.5174999999999272
 50
0
 51
180
  0
ARC
  8
1
 62
7
 10
1340.045658972351
 20
547.4837867566248
 30
0
 40
0.8774999999999685
 50
37.35685197290147
 51
126.1388146631304
  0
ARC
  8
1
 62
7
 10
1341.440658972351
 20
547.4837867566248
 30
0
 40
0.5174999999999272
 50
0
 51
180
  0
ARC
  8
1
 62
7
 10
1341.440658972351
 20
547.4837867566248
 30
0
 40
0.8775000000000546
 50
0
 51
142.6431480270985
  0
ARC
  8
1
 62
7
 10
1341.473158972351
 20
561.904217532636
 30
0
 40
37
 50
0
 51
90
  0
ARC
  8
1
 62
7
 10
1341.473158972351
 20
561.904217532636
 30
0
 40
41.5
 50
180
 51
0
  0
ARC
  8
1
 62
7
 10
1341.473158972351
 20
561.904217532636
 30
0
 40
40.8000000000003
 50
90
 51
164.3590674270524
  0
ARC
  8
1
 62
7
 10
1341.473158972351
 20
561.904217532636
 30
0
 40
40.80000000000028
 50
15.64093257294761
 51
90
  0
ARC
  8
1
 62
7
 10
1341.473158972351
 20
561.904217532636
 30
0
 40
41.5
 50
90
 51
180
  0
ARC
  8
1
 62
7
 10
1341.473158972351
 20
561.904217532636
 30
0
 40
41.5
 50
0
 51
90
  0
ARC
  8
1
 62
7
 10
1341.473158972351
 20
561.904217532636
 30
0
 40
45
 50
0
 51
90
  0
ARC
  8
0
 62
7
 10
1345.542290912146
 20
476.0263951622641
 30
0
 40
1.718802892878763
 50
266.6750457458111
 51
275.4218690389096
  0
ARC
  8
0
 62
7
 10
1345.498558713634
 20
476.3717758868233
 30
0
 40
2.066799309328743
 50
275.7240983539797
 51
286.2021801110947
  0
ARC
  8
0
 62
7
 10
1345.376106091223
 20
476.7445812245293
 30
0
 40
2.459003052389194
 50
286.5182793796807
 51
298.9539196960703
  0
ARC
  8
0
 62
7
 10
1295.176065291662
 20
515.9077310255149
 30
0
 40
61.75271225771443
 50
316.4626075602507
 51
316.6639949016504
  0
ARC
  8
0
 62
7
 10
1331.963949525054
 20
480.9270285909121
 30
0
 40
10.98858934359436
 50
315.2272455761722
 51
316.555767368976
  0
ARC
  8
0
 62
7
 10
1335.295309800873
 20
477.6219873326163
 30
0
 40
6.295907913288644
 50
309.9909255903999
 51
315.2272604206983
  0
ARC
  8
0
 62
7
 10
1363.79951934633
 20
449.2408542522791
 30
0
 40
34.81081623098613
 50
135.6943451355277
 51
136.1047651243285
  0
ARC
  8
0
 62
7
 10
1347.597923851928
 20
465.0545084458094
 30
0
 40
12.17095413971051
 50
134.9731493495902
 51
135.6945381183905
  0
ARC
  8
0
 62
7
 10
1344.701177421587
 20
467.9538866117258
 30
0
 40
8.072474711275966
 50
133.5926032835743
 51
134.9727251818729
  0
ARC
  8
0
 62
7
 10
1345.363176179842
 20
467.2183375010291
 30
0
 40
9.06171194805248
 50
130.5243367853915
 51
133.4173308558894
  0
ARC
  8
0
 62
7
 10
1342.592612492578
 20
474.0527519532765
 30
0
 40
1.242646409920575
 50
318.6813280027825
 51
329.8795967184754
  0
ARC
  8
0
 62
7
 10
1342.864971825293
 20
473.9032934305424
 30
0
 40
0.9320912622321833
 50
329.4248679771308
 51
340.6009138199255
  0
ARC
  8
0
 62
7
 10
1343.111298806691
 20
473.8219355387338
 30
0
 40
0.6727452230286306
 50
340.1684731595967
 51
351.2936691955066
  0
ARC
  8
0
 62
7
 10
1343.279063358264
 20
473.7987069384561
 30
0
 40
0.503403562439765
 50
351.0166851486748
 51
1.201556572061337
  0
ARC
  8
0
 62
7
 10
1343.397522080491
 20
473.8038614089432
 30
0
 40
0.3848720572171803
 50
0.8041744668198114
 51
14.19886403311015
  0
ARC
  8
0
 62
7
 10
1343.47708971554
 20
473.8271504672179
 30
0
 40
0.3020381730735911
 50
13.61827017959467
 51
39.70484417387192
  0
ARC
  8
0
 62
7
 10
1343.467026264386
 20
473.812196176553
 30
0
 40
0.31937407967367
 50
40.61554558048591
 51
66.46428072259931
  0
ARC
  8
0
 62
7
 10
1343.423912763272
 20
473.6976325661121
 30
0
 40
0.4416672167130684
 50
67.27129166746876
 51
82.79245651199727
  0
ARC
  8
0
 62
7
 10
1343.405708599043
 20
473.5088709015334
 30
0
 40
0.631246327134068
 50
83.30279098562113
 51
94.63330600912664
  0
ARC
  8
0
 62
7
 10
1343.429904681471
 20
473.2747272135878
 30
0
 40
0.8665949950890005
 50
94.97732764181492
 51
104.1072484950606
  0
ARC
  8
0
 62
7
 10
1343.517967569506
 20
472.9678407150889
 30
0
 40
1.185737852983683
 50
104.6198037180153
 51
115.7787876143805
  0
ARC
  8
0
 62
7
 10
1343.660869142406
 20
472.6938545330157
 30
0
 40
1.49463480406216
 50
116.1438864370825
 51
129.8179120069958
  0
ARC
  8
0
 62
7
 10
1343.650620944133
 20
472.7006052702732
 30
0
 40
1.482891488820422
 50
129.6808000712892
 51
139.0437663055045
  0
ARC
  8
0
 62
7
 10
1343.464609518427
 20
472.8518605329247
 30
0
 40
1.243292382763651
 50
138.6890265671015
 51
149.8826782971755
  0
ARC
  8
0
 62
7
 10
1343.192186513252
 20
473.0013575714603
 30
0
 40
0.9326622736993206
 50
149.42933817492
 51
160.59970146591
  0
ARC
  8
0
 62
7
 10
1342.945273655801
 20
473.0829254203372
 30
0
 40
0.672694007841949
 50
160.1670523942829
 51
171.2937153163898
  0
ARC
  8
0
 62
7
 10
1342.777842816735
 20
473.1061082036447
 30
0
 40
0.5036891185999904
 50
171.0174981449039
 51
181.1968966379212
  0
ARC
  8
0
 62
7
 10
1342.659131921139
 20
473.1009841076357
 30
0
 40
0.3849061667726196
 50
180.8034192551825
 51
194.1961976248762
  0
ARC
  8
0
 62
7
 10
1342.579292292723
 20
473.0776200154592
 30
0
 40
0.3017904497079944
 50
193.6132487491859
 51
219.7172885492458
  0
ARC
  8
0
 62
7
 10
1342.589684579898
 20
473.0928682089092
 30
0
 40
0.3195683745209895
 50
220.6296218987054
 51
246.4697174738277
  0
ARC
  8
0
 62
7
 10
1342.632900821845
 20
473.2077343721376
 30
0
 40
0.442180674466162
 50
247.2777339516327
 51
262.7843541093409
  0
ARC
  8
0
 62
7
 10
1342.651003462585
 20
473.3958683637947
 30
0
 40
0.6311239745829974
 50
263.2992076498803
 51
274.6333230083359
  0
ARC
  8
0
 62
7
 10
1342.627004066229
 20
473.6288565672847
 30
0
 40
0.8653044590232165
 50
274.9710524254892
 51
284.1148556552441
  0
ARC
  8
0
 62
7
 10
1342.539356815461
 20
473.9350316942673
 30
0
 40
1.183655145418758
 50
284.6151470680655
 51
295.7933475219425
  0
ARC
  8
0
 62
7
 10
1342.396253244645
 20
474.2095775367557
 30
0
 40
1.49314544541451
 50
296.153432911744
 51
309.840203523151
  0
ARC
  8
0
 62
7
 10
1342.407176625556
 20
474.2034096565015
 30
0
 40
1.481418128439265
 50
309.6686389999865
 51
319.0403260000086
  0
ARC
  8
0
 62
7
 10
1343.638473142165
 20
473.0325552802833
 30
0
 40
2.052169342365009
 50
99.56229361217983
 51
106.1118571840731
  0
ARC
  8
0
 62
7
 10
1343.596900624038
 20
473.3284175195087
 30
0
 40
1.753530876510026
 50
89.55297322837676
 51
99.82871253907609
  0
ARC
  8
0
 62
7
 10
1343.607572675762
 20
473.6461969847621
 30
0
 40
1.435701193764799
 50
78.07240234273611
 51
89.87991658823252
  0
ARC
  8
0
 62
7
 10
1343.667324087432
 20
473.8953230160751
 30
0
 40
1.179625364309953
 50
64.78121738917599
 51
78.4110963842588
  0
ARC
  8
0
 62
7
 10
1343.747641775418
 20
474.050634314522
 30
0
 40
1.004916699689488
 50
39.85527632880943
 51
65.15113638196239
  0
ARC
  8
0
 62
7
 10
1343.754753099588
 20
474.0584618047242
 30
0
 40
0.9944423882453357
 50
26.63004200769102
 51
39.77164100769517
  0
ARC
  8
0
 62
7
 10
1343.637585169355
 20
474.0118144193747
 30
0
 40
1.120141973490406
 50
8.053801308471241
 51
26.0766400982396
  0
ARC
  8
0
 62
7
 10
1343.356731740953
 20
473.9847730815303
 30
0
 40
1.402070281666539
 50
353.9064145925555
 51
7.539966323250016
  0
ARC
  8
0
 62
7
 10
1342.969328000761
 20
474.0419885174722
 30
0
 40
1.793428022427688
 50
340.6705988787223
 51
353.4026518460179
  0
ARC
  8
0
 62
7
 10
1342.539242200239
 20
474.2120575468054
 30
0
 40
2.255635852823986
 50
326.9880507263022
 51
340.2102073503127
  0
ARC
  8
0
 62
7
 10
1342.181955574152
 20
474.4675819224556
 30
0
 40
2.694525690599534
 50
309.8083257403605
 51
326.5709153524433
  0
ARC
  8
0
 62
7
 10
1342.182887494763
 20
474.4593314117441
 30
0
 40
2.68759497026578
 50
300.0173698478276
 51
309.9056720958409
  0
ARC
  8
0
 62
7
 10
1342.337887724238
 20
474.1602603077287
 30
0
 40
2.351146794140154
 50
286.0012452984108
 51
300.3927431872868
  0
ARC
  8
0
 62
7
 10
1342.444541941993
 20
473.7431252566797
 30
0
 40
1.920813675949933
 50
273.9104758042429
 51
286.3730575903522
  0
ARC
  8
0
 62
7
 10
1342.459891201727
 20
473.352743846287
 30
0
 40
1.530336147994254
 50
261.2671872514744
 51
274.3339107265875
  0
ARC
  8
0
 62
7
 10
1342.402134288144
 20
473.0432212317747
 30
0
 40
1.21567464828887
 50
246.3214825404306
 51
261.7429072665458
  0
ARC
  8
0
 62
7
 10
1342.311691937018
 20
472.8570508615975
 30
0
 40
1.008887518228502
 50
219.8875068774512
 51
246.7793060060371
  0
ARC
  8
0
 62
7
 10
1342.33881327309
 20
472.8671482011033
 30
0
 40
1.036217985892889
 50
195.6498705970973
 51
219.3542134098122
  0
ARC
  8
0
 62
7
 10
1342.561751882495
 20
472.9161308793039
 30
0
 40
1.26417188038491
 50
179.6512415986228
 51
195.0619020303265
  0
ARC
  8
0
 62
7
 10
1342.880358195259
 20
472.9039556675346
 30
0
 40
1.582879495225608
 50
167.4930455576927
 51
179.280737417685
  0
ARC
  8
0
 62
7
 10
1340.628025894292
 20
474.6901805761341
 30
0
 40
2.023158304381459
 50
347.4100174335022
 51
349.034178968497
  0
ARC
  8
0
 62
7
 10
1335.269434073158
 20
475.8871743146312
 30
0
 40
7.513814030817706
 50
346.3901430210493
 51
347.4086018937489
  0
ARC
  8
0
 62
7
 10
1335.103500707679
 20
474.0531755706729
 30
0
 40
1.243329913603114
 50
318.6836905084709
 51
329.8771477119642
  0
ARC
  8
0
 62
7
 10
1335.376406025332
 20
473.9033119067084
 30
0
 40
0.9320990102609673
 50
329.4263044563452
 51
340.6034046199297
  0
ARC
  8
0
 62
7
 10
1335.62298574667
 20
473.8218626422281
 30
0
 40
0.672483915669999
 50
340.1719483446756
 51
351.3017710467911
  0
ARC
  8
0
 62
7
 10
1335.790647291456
 20
473.7986536005377
 30
0
 40
0.5032465971685002
 50
351.0269993735035
 51
1.214663622411442
  0
ARC
  8
0
 62
7
 10
1335.909360790577
 20
473.8038312671399
 30
0
 40
0.3844592183427815
 50
0.8182449050138091
 51
14.22638281539636
  0
ARC
  8
0
 62
7
 10
1335.988811755363
 20
473.8271333280611
 30
0
 40
0.3017338012784684
 50
13.64492152425088
 51
39.7571058602644
  0
ARC
  8
0
 62
7
 10
1335.978474145019
 20
473.8123592537955
 30
0
 40
0.319164792663943
 50
40.6092183648987
 51
66.47136353248564
  0
ARC
  8
0
 62
7
 10
1335.935249762657
 20
473.6976432964719
 30
0
 40
0.4416418610446337
 50
67.27116060162248
 51
82.79177730259795
  0
ARC
  8
0
 62
7
 10
1335.91705519966
 20
473.5089643436695
 30
0
 40
0.6311376587331153
 50
83.30232621078763
 51
94.63371819162143
  0
ARC
  8
0
 62
7
 10
1335.940956811944
 20
473.2765553724591
 30
0
 40
0.8647326428617463
 50
94.96820649518794
 51
104.1167374817167
  0
ARC
  8
0
 62
7
 10
1336.029025260789
 20
472.9688141453536
 30
0
 40
1.184705303379704
 50
104.6173618859099
 51
115.7843637294789
  0
ARC
  8
0
 62
7
 10
1336.171757490644
 20
472.695008745153
 30
0
 40
1.493366102081921
 50
116.145786147861
 51
129.8286798460718
  0
ARC
  8
0
 62
7
 10
1336.163508173776
 20
472.6990943238602
 30
0
 40
1.484949544720627
 50
129.6852084723437
 51
139.036713211025
  0
ARC
  8
0
 62
7
 10
1335.976640825064
 20
472.8512993282884
 30
0
 40
1.244081636064794
 50
138.6880272629879
 51
149.8755017775946
  0
ARC
  8
0
 62
7
 10
1335.703227284071
 20
473.0014381165326
 30
0
 40
0.9322734827397924
 50
149.423142242375
 51
160.5982301662758
  0
ARC
  8
0
 62
7
 10
1335.456574964775
 20
473.082909486427
 30
0
 40
0.6725832269000077
 50
160.1645618234444
 51
171.2923908491405
  0
ARC
  8
0
 62
7
 10
1335.288886621004
 20
473.106132184925
 30
0
 40
0.5033178352450207
 50
171.0155787771073
 51
181.2017439945824
  0
ARC
  8
0
 62
7
 10
1335.170320413243
 20
473.1009865429681
 30
0
 40
0.3846789697928742
 50
180.8058706516322
 51
194.2058027621867
  0
ARC
  8
0
 62
7
 10
1335.090705338683
 20
473.07766621781
 30
0
 40
0.3017911541040209
 50
193.6230941251268
 51
219.728580238047
  0
ARC
  8
0
 62
7
 10
1335.10112302641
 20
473.0928478216102
 30
0
 40
0.3195459364712679
 50
220.6282556552506
 51
246.4698107108879
  0
ARC
  8
0
 62
7
 10
1335.144335386449
 20
473.207676220287
 30
0
 40
0.4421219130829918
 50
247.2764159788718
 51
262.7844841078733
  0
ARC
  8
0
 62
7
 10
1335.162443446631
 20
473.3957970010062
 30
0
 40
0.6310527362783078
 50
263.2987180138387
 51
274.6335288139125
  0
ARC
  8
0
 62
7
 10
1335.13844934579
 20
473.6287403022511
 30
0
 40
0.8651880430952091
 50
274.9711386415548
 51
284.1157486437032
  0
ARC
  8
0
 62
7
 10
1335.050826946368
 20
473.9348655284777
 30
0
 40
1.18348429485642
 50
284.6152944584075
 51
295.7947196417077
  0
ARC
  8
0
 62
7
 10
1334.907610682873
 20
474.2096491846314
 30
0
 40
1.49323791407548
 50
296.1544208457446
 51
309.8401654848235
  0
ARC
  8
0
 62
7
 10
1334.91875270605
 20
474.2033125590115
 30
0
 40
1.481241139788518
 50
309.6662680094543
 51
319.0399120094587
  0
ARC
  8
0
 62
7
 10
1334.929666903034
 20
473.8713187869881
 30
0
 40
2.051192838085645
 50
279.5637989054254
 51
286.1150326431174
  0
ARC
  8
0
 62
7
 10
1334.971322095125
 20
473.5750083182027
 30
0
 40
1.752098870096634
 50
269.5477841659899
 51
279.8304615113828
  0
ARC
  8
0
 62
7
 10
1334.960619836577
 20
473.2591541391136
 30
0
 40
1.436193521346104
 50
258.0723414311328
 51
269.8752782836199
  0
ARC
  8
0
 62
7
 10
1334.901216674487
 20
473.0109095637055
 30
0
 40
1.181051132215836
 50
244.7890520892141
 51
258.4029213812256
  0
ARC
  8
0
 62
7
 10
1334.820429300945
 20
472.8544429155089
 30
0
 40
1.005097712873424
 50
219.8640191530011
 51
245.1564369362216
  0
ARC
  8
0
 62
7
 10
1334.813090025735
 20
472.846069263348
 30
0
 40
0.9940985738778009
 50
206.6203896219579
 51
219.7647062389476
  0
ARC
  8
0
 62
7
 10
1334.931132128637
 20
472.8930868031261
 30
0
 40
1.120747698474127
 50
188.0534115959804
 51
206.0652615780995
  0
ARC
  8
0
 62
7
 10
1335.211545173346
 20
472.9199797212397
 30
0
 40
1.402220002369152
 50
173.904200507635
 51
187.5362258922349
  0
ARC
  8
0
 62
7
 10
1335.598599879311
 20
472.8628682951
 30
0
 40
1.793219539982663
 50
160.6691240868483
 51
173.4029826216439
  0
ARC
  8
0
 62
7
 10
1336.0296826275
 20
472.6924297887276
 30
0
 40
2.256490911132019
 50
146.9910805580997
 51
160.2087359000009
  0
ARC
  8
0
 62
7
 10
1336.386264678332
 20
472.4373370209655
 30
0
 40
2.694554065243349
 50
129.8092228613551
 51
146.5729906533458
  0
ARC
  8
0
 62
7
 10
1336.384351587457
 20
472.4469034023596
 30
0
 40
2.685984567160338
 50
120.015357815448
 51
129.9085230286721
  0
ARC
  8
0
 62
7
 10
1336.230203653428
 20
472.744622503822
 30
0
 40
2.351133210703764
 50
106.0012226650574
 51
120.3919484940395
  0
ARC
  8
0
 62
7
 10
1336.123575649206
 20
473.1614120445102
 30
0
 40
1.921138976256836
 50
93.91075382839325
 51
106.3708778797149
  0
ARC
  8
0
 62
7
 10
1336.10815562454
 20
473.5518500096572
 30
0
 40
1.530599768771536
 50
81.26721903974099
 51
94.33168826280054
  0
ARC
  8
0
 62
7
 10
1336.166038568785
 20
473.8620932896378
 30
0
 40
1.215206972509211
 50
66.31622934563482
 51
81.74384487557366
  0
ARC
  8
0
 62
7
 10
1336.256329658609
 20
474.047790669855
 30
0
 40
1.008913276633949
 50
39.88386297058336
 51
66.77588744929271
  0
ARC
  8
0
 62
7
 10
1336.23831188876
 20
474.0425185623839
 30
0
 40
1.026147256178241
 50
17.32803600316153
 51
39.46464000314094
  0
ARC
  8
0
 62
7
 10
1336.022808055968
 20
473.9900628349013
 30
0
 40
1.247573811190113
 50
0.2586513336931643
 51
16.67996079799051
  0
ARC
  8
0
 62
7
 10
1335.705231875997
 20
473.9984758086063
 30
0
 40
1.56513974977284
 50
348.2748028406369
 51
359.8981928379342
  0
ARC
  8
0
 62
7
 10
1335.587864190097
 20
474.0189377189913
 30
0
 40
1.684238487386886
 50
343.375832541777
 51
347.9824194735837
  0
ARC
  8
0
 62
7
 10
1340.012329265413
 20
471.7892606629974
 30
0
 40
4.14067352554776
 50
172.0422530221999
 51
178.5102310641991
  0
ARC
  8
0
 62
7
 10
1339.485358390448
 20
471.876978315818
 30
0
 40
3.606660128928695
 50
165.4054527325572
 51
172.263350874858
  0
ARC
  8
0
 62
7
 10
1350.632009831848
 20
469.8778832662349
 30
0
 40
13.91987366734412
 50
164.7591934710329
 51
165.2789240548323
  0
ARC
  8
0
 62
7
 10
1342.655842400324
 20
471.9634897119263
 30
0
 40
5.675556232523619
 50
165.1809136619802
 51
168.08504870248
  0
ARC
  8
0
 62
7
 10
1340.194002542235
 20
472.4940222812004
 30
0
 40
3.157241444529942
 50
168.2816227573617
 51
170.2378023404577
  0
ARC
  8
0
 62
7
 10
1343.039948103904
 20
472.0146800960062
 30
0
 40
6.04326313388411
 50
170.3340838832924
 51
172.0658069806926
  0
ARC
  8
0
 62
7
 10
1348.32103454324
 20
471.3065719791156
 30
0
 40
11.37157288764648
 50
172.2051146282169
 51
175.9637585386167
  0
ARC
  8
0
 62
7
 10
1343.820423778653
 20
471.6132912152035
 30
0
 40
6.860544223979886
 50
175.8733282604819
 51
177.6306701430825
  0
ARC
  8
0
 62
7
 10
1345.542290912145
 20
529.3800424107866
 30
0
 40
1.718802892878654
 50
266.6750457458412
 51
275.4218690389398
  0
ARC
  8
0
 62
7
 10
1345.498558713633
 20
529.7254231353458
 30
0
 40
2.066799309328856
 50
275.7240983540111
 51
286.2021801110943
  0
ARC
  8
0
 62
7
 10
1345.376106091224
 20
530.0982284730523
 30
0
 40
2.459003052389038
 50
286.5182793796266
 51
298.9539196960413
  0
ARC
  8
0
 62
7
 10
1295.176065291654
 20
569.26137827403
 30
0
 40
61.75271225771535
 50
316.4626075602608
 51
316.6639949016606
  0
ARC
  8
0
 62
7
 10
1331.963949525055
 20
534.2806758394358
 30
0
 40
10.98858934359447
 50
315.2272455761632
 51
316.5557673689668
  0
ARC
  8
0
 62
7
 10
1335.295309800873
 20
530.9756345811388
 30
0
 40
6.295907913288644
 50
309.9909255903999
 51
315.2272604206979
  0
ARC
  8
0
 62
7
 10
1363.799519346397
 20
502.5945015008718
 30
0
 40
34.81081623098566
 50
135.6943451356887
 51
136.104765124488
  0
ARC
  8
0
 62
7
 10
1347.597923851925
 20
518.408155694329
 30
0
 40
12.17095413971111
 50
134.9731493495737
 51
135.6945381183753
  0
ARC
  8
0
 62
7
 10
1344.701177421587
 20
521.3075338602496
 30
0
 40
8.072474711275719
 50
133.5926032835871
 51
134.9727251818837
  0
ARC
  8
0
 62
7
 10
1345.363176179843
 20
520.5719847495526
 30
0
 40
9.061711948053178
 50
130.5243367854067
 51
133.4173308559048
  0
ARC
  8
0
 62
7
 10
1342.592612492575
 20
527.4063992017962
 30
0
 40
1.24264640992044
 50
318.6813280029166
 51
329.8795967186466
  0
ARC
  8
0
 62
7
 10
1342.864971825293
 20
527.2569406790649
 30
0
 40
0.9320912622321542
 50
329.4248679771339
 51
340.6009138199255
  0
ARC
  8
0
 62
7
 10
1343.111298806691
 20
527.1755827872562
 30
0
 40
0.6727452230286112
 50
340.1684731596012
 51
351.2936691955066
  0
ARC
  8
0
 62
7
 10
1343.279063358264
 20
527.1523541869801
 30
0
 40
0.5034035624388729
 50
351.0166851484885
 51
1.201556571895332
  0
ARC
  8
0
 62
7
 10
1343.397522080491
 20
527.157508657469
 30
0
 40
0.3848720572162254
 50
0.8041744663394103
 51
14.19886403263433
  0
ARC
  8
0
 62
7
 10
1343.47708971554
 20
527.1807977157404
 30
0
 40
0.3020381730735911
 50
13.61827017959467
 51
39.70484417387192
  0
ARC
  8
0
 62
7
 10
1343.467026264386
 20
527.1658434250754
 30
0
 40
0.319374079673707
 50
40.61554558049365
 51
66.46428072260341
  0
ARC
  8
0
 62
7
 10
1343.423912763273
 20
527.0512798146343
 30
0
 40
0.4416672167129267
 50
67.27129166758897
 51
82.79245651211801
  0
ARC
  8
0
 62
7
 10
1343.405708599042
 20
526.862518150056
 30
0
 40
0.6312463271340614
 50
83.30279098553794
 51
94.63330600904476
  0
ARC
  8
0
 62
7
 10
1343.429904681471
 20
526.6283744621103
 30
0
 40
0.8665949950890571
 50
94.9773276418146
 51
104.1072484950606
  0
ARC
  8
0
 62
7
 10
1343.517967569505
 20
526.3214879636109
 30
0
 40
1.185737852983837
 50
104.6198037179566
 51
115.7787876143598
  0
ARC
  8
0
 62
7
 10
1343.660869142406
 20
526.0475017815382
 30
0
 40
1.494634804062561
 50
116.1438864371138
 51
129.8179120070226
  0
ARC
  8
0
 62
7
 10
1343.650620944135
 20
526.0542525187984
 30
0
 40
1.482891488820209
 50
129.6808000714444
 51
139.043766305636
  0
ARC
  8
0
 62
7
 10
1343.464609518422
 20
526.2055077814431
 30
0
 40
1.243292382762633
 50
138.6890265668057
 51
149.8826782969094
  0
ARC
  8
0
 62
7
 10
1343.192186513251
 20
526.3550048199834
 30
0
 40
0.9326622736982195
 50
149.4293381749247
 51
160.5997014659376
  0
ARC
  8
0
 62
7
 10
1342.9452736558
 20
526.4365726688615
 30
0
 40
0.672694007841565
 50
160.1670523944307
 51
171.293715316543
  0
ARC
  8
0
 62
7
 10
1342.777842816735
 20
526.4597554521672
 30
0
 40
0.50368911860088
 50
171.0174981449265
 51
181.196896637912
  0
ARC
  8
0
 62
7
 10
1342.659131921138
 20
526.4546313561631
 30
0
 40
0.3849061667726866
 50
180.8034192558932
 51
194.196197625615
  0
ARC
  8
0
 62
7
 10
1342.579292292723
 20
526.4312672639817
 30
0
 40
0.3017904497079811
 50
193.6132487491754
 51
219.7172885492292
  0
ARC
  8
0
 62
7
 10
1342.589684579898
 20
526.4465154574317
 30
0
 40
0.3195683745209525
 50
220.6296218986977
 51
246.4697174738359
  0
ARC
  8
0
 62
7
 10
1342.632900821844
 20
526.5613816206601
 30
0
 40
0.4421806744658632
 50
247.2777339517442
 51
262.7843541094561
  0
ARC
  8
0
 62
7
 10
1342.651003462585
 20
526.7495156123172
 30
0
 40
0.6311239745828846
 50
263.299207649879
 51
274.6333230082326
  0
ARC
  8
0
 62
7
 10
1342.627004066229
 20
526.9825038158073
 30
0
 40
0.865304459023288
 50
274.9710524254132
 51
284.1148556552413
  0
ARC
  8
0
 62
7
 10
1342.539356815461
 20
527.2886789427897
 30
0
 40
1.183655145418758
 50
284.6151470680655
 51
295.7933475219436
  0
ARC
  8
0
 62
7
 10
1342.396253244645
 20
527.5632247852782
 30
0
 40
1.49314544541451
 50
296.153432911744
 51
309.8402035231538
  0
ARC
  8
0
 62
7
 10
1342.407176625555
 20
527.5570569050228
 30
0
 40
1.481418128439028
 50
309.6686390000511
 51
319.0403260000253
  0
ARC
  8
0
 62
7
 10
1343.638473142164
 20
526.3862025288055
 30
0
 40
2.052169342365138
 50
99.5622936121535
 51
106.111857184046
  0
ARC
  8
0
 62
7
 10
1343.596900624039
 20
526.6820647680313
 30
0
 40
1.753530876510074
 50
89.5529732284139
 51
99.82871253911334
  0
ARC
  8
0
 62
7
 10
1343.607572675761
 20
526.9998442332845
 30
0
 40
1.435701193764931
 50
78.07240234270013
 51
89.87991658819627
  0
ARC
  8
0
 62
7
 10
1343.66732408743
 20
527.248970264598
 30
0
 40
1.179625364309951
 50
64.78121738906607
 51
78.41109638415588
  0
ARC
  8
0
 62
7
 10
1343.747641775418
 20
527.4042815630445
 30
0
 40
1.004916699688717
 50
39.85527632883768
 51
65.15113638194877
  0
ARC
  8
0
 62
7
 10
1343.754753099588
 20
527.4121090532467
 30
0
 40
0.9944423882446246
 50
26.63004200772622
 51
39.77164100772365
  0
ARC
  8
0
 62
7
 10
1343.637585169355
 20
527.3654616678986
 30
0
 40
1.120141973489298
 50
8.053801308402909
 51
26.07664009820782
  0
ARC
  8
0
 62
7
 10
1343.356731740953
 20
527.3384203300542
 30
0
 40
1.402070281665548
 50
353.9064145924975
 51
7.539966323195021
  0
ARC
  8
0
 62
7
 10
1342.969328000761
 20
527.3956357659947
 30
0
 40
1.793428022427706
 50
340.6705988787206
 51
353.4026518460161
  0
ARC
  8
0
 62
7
 10
1342.539242200239
 20
527.5657047953292
 30
0
 40
2.255635852824512
 50
326.9880507262816
 51
340.2102073502801
  0
ARC
  8
0
 62
7
 10
1342.181955574152
 20
527.8212291709781
 30
0
 40
2.694525690599301
 50
309.8083257403395
 51
326.5709153524504
  0
ARC
  8
0
 62
7
 10
1342.182887494763
 20
527.8129786602666
 30
0
 40
2.687594970265436
 50
300.0173698478318
 51
309.9056720958191
  0
ARC
  8
0
 62
7
 10
1342.337887724237
 20
527.5139075562512
 30
0
 40
2.351146794140045
 50
286.0012452984116
 51
300.3927431873162
  0
ARC
  8
0
 62
7
 10
1342.444541941992
 20
527.0967725052021
 30
0
 40
1.920813675949933
 50
273.9104758042429
 51
286.3730575903536
  0
ARC
  8
0
 62
7
 10
1342.459891201727
 20
526.7063910948094
 30
0
 40
1.530336147994254
 50
261.2671872514744
 51
274.3339107265451
  0
ARC
  8
0
 62
7
 10
1342.402134288142
 20
526.3968684802976
 30
0
 40
1.215674648289142
 50
246.3214825404947
 51
261.7429072666448
  0
ARC
  8
0
 62
7
 10
1342.311691937018
 20
526.21069811012
 30
0
 40
1.0088875182292
 50
219.887506877418
 51
246.7793060059985
  0
ARC
  8
0
 62
7
 10
1342.338813273089
 20
526.2207954496258
 30
0
 40
1.03621798589292
 50
195.6498705971033
 51
219.3542134098122
  0
ARC
  8
0
 62
7
 10
1342.561751882495
 20
526.2697781278264
 30
0
 40
1.264171880386047
 50
179.6512415986206
 51
195.0619020303183
  0
ARC
  8
0
 62
7
 10
1342.880358195258
 20
526.2576029160571
 30
0
 40
1.582879495224498
 50
167.4930455576837
 51
179.2807374176825
  0
ARC
  8
0
 62
7
 10
1340.628025894291
 20
528.043827824656
 30
0
 40
2.023158304382235
 50
347.410017433522
 51
349.0341789685193
  0
ARC
  8
0
 62
7
 10
1335.269434073158
 20
529.2408215631546
 30
0
 40
7.51381403081792
 50
346.3901430210426
 51
347.4086018937418
  0
ARC
  8
0
 62
7
 10
1335.103500707676
 20
527.4068228191914
 30
0
 40
1.243329913602632
 50
318.6836905087025
 51
329.877147712167
  0
ARC
  8
0
 62
7
 10
1335.376406025334
 20
527.2569591552353
 30
0
 40
0.9320990102605109
 50
329.426304456008
 51
340.6034046196308
  0
ARC
  8
0
 62
7
 10
1335.622985746668
 20
527.1755098907463
 30
0
 40
0.6724839156704586
 50
340.171948345081
 51
351.3017710471648
  0
ARC
  8
0
 62
7
 10
1335.790647291455
 20
527.1523008490644
 30
0
 40
0.5032465971693896
 50
351.0269993730281
 51
1.214663621923426
  0
ARC
  8
0
 62
7
 10
1335.909360790577
 20
527.1574785156578
 30
0
 40
0.3844592183428474
 50
0.8182449056999184
 51
14.22638281610302
  0
ARC
  8
0
 62
7
 10
1335.988811755361
 20
527.1807805765849
 30
0
 40
0.3017338012792782
 50
13.64492152396919
 51
39.75710585984163
  0
ARC
  8
0
 62
7
 10
1335.978474145018
 20
527.1660065023179
 30
0
 40
0.3191647926647075
 50
40.60921836480791
 51
66.47136353233188
  0
ARC
  8
0
 62
7
 10
1335.935249762657
 20
527.0512905449939
 30
0
 40
0.4416418610450007
 50
67.27116060164244
 51
82.79177730260443
  0
ARC
  8
0
 62
7
 10
1335.917055199659
 20
526.8626115921919
 30
0
 40
0.6311376587332215
 50
83.30232621070563
 51
94.63371819153829
  0
ARC
  8
0
 62
7
 10
1335.940956811944
 20
526.6302026209816
 30
0
 40
0.8647326428618031
 50
94.9682064951876
 51
104.1167374817167
  0
ARC
  8
0
 62
7
 10
1336.029025260787
 20
526.3224613938755
 30
0
 40
1.184705303379682
 50
104.6173618858079
 51
115.7843637294286
  0
ARC
  8
0
 62
7
 10
1336.171757490644
 20
526.0486559936763
 30
0
 40
1.493366102081656
 50
116.1457861479146
 51
129.8286798460927
  0
ARC
  8
0
 62
7
 10
1336.163508173772
 20
526.0527415723796
 30
0
 40
1.484949544720419
 50
129.6852084721452
 51
139.0367132108591
  0
ARC
  8
0
 62
7
 10
1335.976640825066
 20
526.2049465768142
 30
0
 40
1.244081636064972
 50
138.6880272632007
 51
149.8755017777755
  0
ARC
  8
0
 62
7
 10
1335.703227284071
 20
526.3550853650551
 30
0
 40
0.9322734827397924
 50
149.423142242375
 51
160.5982301662791
  0
ARC
  8
0
 62
7
 10
1335.456574964775
 20
526.4365567349495
 30
0
 40
0.6725832268999884
 50
160.164561823449
 51
171.2923908491357
  0
ARC
  8
0
 62
7
 10
1335.288886621003
 20
526.4597794334475
 30
0
 40
0.5033178352441313
 50
171.0155787770847
 51
181.2017439945846
  0
ARC
  8
0
 62
7
 10
1335.170320413243
 20
526.4546337914906
 30
0
 40
0.3846789697928742
 50
180.8058706516322
 51
194.2058027621867
  0
ARC
  8
0
 62
7
 10
1335.090705338683
 20
526.4313134663307
 30
0
 40
0.3017911541036058
 50
193.6230941248017
 51
219.7285802376794
  0
ARC
  8
0
 62
7
 10
1335.10112302641
 20
526.4464950701328
 30
0
 40
0.3195459364720322
 50
220.6282556551599
 51
246.4698107107506
  0
ARC
  8
0
 62
7
 10
1335.144335386448
 20
526.56132346881
 30
0
 40
0.4421219130834284
 50
247.2764159789274
 51
262.7844841079108
  0
ARC
  8
0
 62
7
 10
1335.162443446631
 20
526.7494442495287
 30
0
 40
0.6310527362784141
 50
263.2987180137567
 51
274.6335288138104
  0
ARC
  8
0
 62
7
 10
1335.13844934579
 20
526.9823875507736
 30
0
 40
0.8651880430950542
 50
274.9711386414801
 51
284.1157486436438
  0
ARC
  8
0
 62
7
 10
1335.050826946367
 20
527.2885127770002
 30
0
 40
1.183484294856478
 50
284.6152944584181
 51
295.7947196417089
  0
ARC
  8
0
 62
7
 10
1334.907610682875
 20
527.5632964331551
 30
0
 40
1.493237914075097
 50
296.1544208456157
 51
309.8401654847325
  0
ARC
  8
0
 62
7
 10
1334.91875270605
 20
527.556959807534
 30
0
 40
1.481241139788562
 50
309.6662680094529
 51
319.0399120094604
  0
ARC
  8
0
 62
7
 10
1334.929666903037
 20
527.2249660355112
 30
0
 40
2.05119283808549
 50
279.5637989053424
 51
286.1150326430328
  0
ARC
  8
0
 62
7
 10
1334.971322095124
 20
526.9286555667252
 30
0
 40
1.752098870096682
 50
269.5477841660272
 51
279.830461511421
  0
ARC
  8
0
 62
7
 10
1334.960619836576
 20
526.6128013876361
 30
0
 40
1.436193521346271
 50
258.0723414311342
 51
269.8752782836652
  0
ARC
  8
0
 62
7
 10
1334.901216674487
 20
526.364556812228
 30
0
 40
1.181051132216224
 50
244.7890520891741
 51
258.4029213811732
  0
ARC
  8
0
 62
7
 10
1334.820429300944
 20
526.2080901640314
 30
0
 40
1.005097712873322
 50
219.8640191530144
 51
245.1564369362348
  0
ARC
  8
0
 62
7
 10
1334.813090025734
 20
526.1997165118705
 30
0
 40
0.994098573877826
 50
206.6203896219315
 51
219.7647062389526
  0
ARC
  8
0
 62
7
 10
1334.931132128638
 20
526.246734051647
 30
0
 40
1.120747698474812
 50
188.0534115958962
 51
206.0652615779596
  0
ARC
  8
0
 62
7
 10
1335.211545173346
 20
526.2736269697622
 30
0
 40
1.402220002369152
 50
173.904200507635
 51
187.5362258922372
  0
ARC
  8
0
 62
7
 10
1335.598599879311
 20
526.2165155436225
 30
0
 40
1.793219539982644
 50
160.66912408685
 51
173.4029826216402
  0
ARC
  8
0
 62
7
 10
1336.0296826275
 20
526.0460770372501
 30
0
 40
2.25649091113205
 50
146.9910805580985
 51
160.2087359000036
  0
ARC
  8
0
 62
7
 10
1336.386264678331
 20
525.7909842694879
 30
0
 40
2.694554065243144
 50
129.8092228613272
 51
146.5729906533295
  0
ARC
  8
0
 62
7
 10
1336.384351587455
 20
525.8005506508813
 30
0
 40
2.685984567160114
 50
120.0153578154227
 51
129.9085230286192
  0
ARC
  8
0
 62
7
 10
1336.230203653428
 20
526.0982697523444
 30
0
 40
2.351133210703874
 50
106.0012226650566
 51
120.3919484940636
  0
ARC
  8
0
 62
7
 10
1336.123575649206
 20
526.5150592930327
 30
0
 40
1.921138976257182
 50
93.91075382841974
 51
106.3708778797139
  0
ARC
  8
0
 62
7
 10
1336.108155624539
 20
526.9054972581797
 30
0
 40
1.530599768771505
 50
81.26721903970638
 51
94.33168826279989
  0
ARC
  8
0
 62
7
 10
1336.166038568784
 20
527.2157405381603
 30
0
 40
1.215206972509042
 50
66.31622934561962
 51
81.74384487551984
  0
ARC
  8
0
 62
7
 10
1336.256329658609
 20
527.4014379183775
 30
0
 40
1.008913276633142
 50
39.88386297060905
 51
66.77588744933252
  0
ARC
  8
0
 62
7
 10
1336.238311888761
 20
527.396165810905
 30
0
 40
1.026147256177864
 50
17.32803600326452
 51
39.4646400032594
  0
ARC
  8
0
 62
7
 10
1336.022808055967
 20
527.3437100834268
 30
0
 40
1.247573811190099
 50
0.2586513335600261
 51
16.67996079785849
  0
ARC
  8
0
 62
7
 10
1335.705231875997
 20
527.3521230571289
 30
0
 40
1.56513974977195
 50
348.2748028406302
 51
359.8981928379342
  0
ARC
  8
0
 62
7
 10
1335.587864190097
 20
527.3725849675154
 30
0
 40
1.684238487387326
 50
343.3758325417269
 51
347.9824194735288
  0
ARC
  8
0
 62
7
 10
1340.012329265412
 20
525.14290791152
 30
0
 40
4.140673525547752
 50
172.0422530222007
 51
178.5102310641998
  0
ARC
  8
0
 62
7
 10
1339.485358390449
 20
525.2306255643427
 30
0
 40
3.606660128930102
 50
165.4054527326003
 51
172.2633508748968
  0
ARC
  8
0
 62
7
 10
1350.632009831848
 20
523.2315305147574
 30
0
 40
13.91987366734413
 50
164.7591934710328
 51
165.2789240548321
  0
ARC
  8
0
 62
7
 10
1342.655842400324
 20
525.3171369604492
 30
0
 40
5.675556232523547
 50
165.180913661983
 51
168.0850487024833
  0
ARC
  8
0
 62
7
 10
1340.194002542234
 20
525.8476695297239
 30
0
 40
3.157241444528844
 50
168.2816227573765
 51
170.2378023404762
  0
ARC
  8
0
 62
7
 10
1343.039948103909
 20
525.3683273445658
 30
0
 40
6.043263133883939
 50
170.3340838836486
 51
172.0658069810477
  0
ARC
  8
0
 62
7
 10
1348.32103454324
 20
524.6602192276381
 30
0
 40
11.37157288764648
 50
172.2051146282169
 51
175.9637585386173
  0
ARC
  8
0
 62
7
 10
1343.820423778653
 20
524.9669384637259
 30
0
 40
6.860544223979886
 50
175.8733282604819
 51
177.6306701430816
  0
DIMENSION
  8
1
  6
CONTINUOUS
 62
2
  2
*D0
  3
DMST_1
 10
1302.473158972351
 20
350.943413215318
 30
0
 11
1296.973158972351
 21
352.533413215318
 31
0
 12
0
 22
0
 32
0
 70
0
 13
1291.473158972351
 23
363.195655293744
 33
0
 14
1302.473158972351
 24
361.475155293744
 34
0
 53
0
  0
DIMENSION
  8
1
  6
CONTINUOUS
 62
2
  2
*D1
  3
DMST_1
 10
1391.473158972351
 20
333.820131281394
 30
0
 11
1341.473158972351
 21
335.410131281394
 31
0
 12
0
 22
0
 32
0
 70
0
 13
1291.473158972351
 23
363.195655293744
 33
0
 14
1391.473158972351
 24
363.195655293744
 34
0
 53
0
  0
DIMENSION
  8
1
  6
CONTINUOUS
 62
2
  2
*D2
  3
DMST_1
 10
1386.473158972351
 20
505.304139049809
 30
0
 11
1341.473158972351
 21
506.894139049809
 31
0
 12
0
 22
0
 32
0
 70
0
  1
90
 13
1296.473158972351
 23
453.1456565483439
 33
0
 14
1386.473158972351
 24
453.1456565483439
 34
0
 53
0
  0
DIMENSION
  8
1
  6
CONTINUOUS
 62
2
  2
*D3
  3
DMST_2
 10
1415.82265632841
 20
351.6956552937446
 30
0
 11
1414.23265632841
 21
416.924536527141
 31
0
 12
0
 22
0
 32
0
 70
0
  1
147
 13
1375.871272767266
 23
498.6456565483439
 33
0
 14
1366.473158972351
 24
351.6956552937446
 34
0
 50
90
 53
0
  0
DIMENSION
  8
1
  6
CONTINUOUS
 62
2
  2
*D4
  3
DMST_1
 10
1404.66355141348
 20
374.6956552937439
 30
0
 11
1403.07355141348
 21
363.1956552937443
 31
0
 12
0
 22
0
 32
0
 70
0
 13
1366.473158972351
 23
351.6956552937446
 33
0
 14
1395.87828345507
 24
374.6956552937439
 34
0
 50
90
 53
0
  0
ENDSEC
  0
EOF
