  0
SECTION
  2
HEADER
  9
$ACADVER
  1
AC1009
  9
$INSBASE
 10
0
 20
0
  9
$EXTMIN
 10
304.892456537163
 20
283.3506619434251
  9
$EXTMAX
 10
544.9213203435596
 20
615.7568428444954
  9
$LIMMIN
 10
304.892456537163
 20
283.3506619434251
  9
$LIMMAX
 10
544.9213203435596
 20
615.7568428444954
  9
$VIEWCTR
 10
10
 20
10
  9
$VIEWSIZE
 40
10
  9
$SNAPMODE
 70
0
  9
$SNAPUNIT
 10
1
 20
1
  9
$SNAPBASE
 10
0
 20
0
  9
$SNAPANG
 50
0
  9
$SNAPSTYLE
 70
0
  9
$SNAPISOPAIR
 70
0
  9
$GRIDMODE
 70
0
  9
$GRIDUNIT
 10
0
 20
0
  9
$ORTHOMODE
 70
0
  9
$REGENMODE
 70
1
  9
$FILLMODE
 70
1
  9
$QTEXTMODE
 70
0
  9
$DRAGMODE
 70
2
  9
$LTSCALE
 40
1
  9
$OSMODE
 70
0
  9
$ATTMODE
 70
1
  9
$TEXTSIZE
 40
3.5
  9
$TRACEWID
 40
0.5
  9
$TEXTSTYLE
  7
STANDARD
  9
$CLAYER
  8
0
  9
$CELTYPE
  6
BYLAYER
  9
$CECOLOR
 62
256
  9
$DIMSCALE
 40
1
  9
$DIMASZ
 40
0.18
  9
$DIMEXO
 40
0.0625
  9
$DIMDLI
 40
0.38
  9
$DIMRND
 40
0
  9
$DIMDLE
 40
0
  9
$DIMEXE
 40
0.18
  9
$DIMTP
 40
0
  9
$DIMTM
 40
0
  9
$DIMTXT
 40
0.18
  9
$DIMCEN
 40
0.09
  9
$DIMTSZ
 40
0
  9
$DIMTOL
 70
0
  9
$DIMLIM
 70
0
  9
$DIMTIH
 70
1
  9
$DIMTOH
 70
1
  9
$DIMSE1
 70
0
  9
$DIMSE2
 70
0
  9
$DIMTAD
 70
0
  9
$DIMZIN
 70
0
  9
$DIMBLK
  1

  9
$DIMASO
 70
1
  9
$DIMSHO
 70
1
  9
$DIMPOST
  1

  9
$DIMAPOST
  1

  9
$DIMALT
 70
0
  9
$DIMALTD
 70
2
  9
$DIMALTF
 40
25.4
  9
$DIMLFAC
 40
1
  9
$DIMTOFL
 70
0
  9
$DIMTVP
 40
0
  9
$DIMTIX
 70
0
  9
$DIMSOXD
 70
0
  9
$DIMSAH
 70
0
  9
$DIMBLK1
  1

  9
$DIMBLK2
  1

  9
$DIMSTYLE
  2
*UNNAMED
  9
$DIMCLRD
 70
0
  9
$DIMCLRE
 70
0
  9
$DIMCLRT
 70
0
  9
$DIMTFAC
 40
1
  9
$DIMGAP
 40
0.09
  9
$LUNITS
 70
2
  9
$LUPREC
 70
4
  9
$AXISMODE
 70
0
  9
$AXISUNIT
 10
0
 20
0
  9
$SKETCHINC
 40
0.1
  9
$FILLETRAD
 40
2
  9
$AUNITS
 70
0
  9
$AUPREC
 70
0
  9
$MENU
  1
ACAD
  9
$ELEVATION
 40
0
  9
$THICKNESS
 40
0
  9
$VIEWDIR
 10
0
 20
0
 30
1
  9
$LIMCHECK
 70
0
  9
$BLIPMODE
 70
1
  9
$CHAMFERA
 40
0
  9
$CHAMFERB
 40
0
  9
$FASTZOOM
 70
1
  9
$SKPOLY
 70
0
  9
$ANGBASE
 50
0
  9
$ANGDIR
 70
0
  9
$PDMODE
 70
0
  9
$PDSIZE
 40
0
  9
$PLINEWID
 40
0
  9
$COORDS
 70
2
  0
ENDSEC
  0
SECTION
  2
TABLES
  0
TABLE
  2
DIMSTYLE
 70
2
  0
DIMSTYLE
  2
DMST_1
 70
0
  3

  4

  5

  6

  7

 40
1
 41
3
 42
0.5
 43
7
 44
0.9999999999999998
 45
0
 46
0
 47
0
 48
0
140
3
141
0
142
0
143
25.4
144
1
145
0
146
1
147
0.09
 71
0
 72
0
 73
0
 74
0
 75
0
 76
0
 77
1
 78
9
170
0
171
2
172
0
173
0
174
0
175
0
176
2
177
2
178
2
  0
DIMSTYLE
  2
DMST_2
 70
0
  3

  4

  5

  6

  7

 40
1
 41
3.2
 42
0.5
 43
7
 44
1.5
 45
0
 46
0
 47
0
 48
0
140
3.2
141
0
142
0
143
25.4
144
1
145
0
146
1
147
0.09
 71
0
 72
0
 73
0
 74
0
 75
0
 76
0
 77
1
 78
9
170
0
171
2
172
0
173
0
174
0
175
0
176
2
177
2
178
2
  0
ENDTAB
  0
TABLE
  2
LTYPE
 70
9
  0
LTYPE
  2
CONTINUOUS
 70
64
  3
Solid line
 72
65
 73
0
 40
0
  0
LTYPE
  2
BORDER
 70
64
  3
__ __ . __ __ .
 72
65
 73
6
 40
15.30817938360192
 49
4.373765538171978
 49
-2.186882769085989
 49
4.373765538171978
 49
-2.186882769085989
 49
0
 49
-2.186882769085989
  0
LTYPE
  2
CENTER
 70
64
  3
____ _ ____ _
 72
65
 73
4
 40
17.49506215268791
 49
10.93441384542994
 49
-2.186882769085989
 49
2.186882769085989
 49
-2.186882769085989
  0
LTYPE
  2
DASHDOT
 70
64
  3
__ . __ . __ .
 72
65
 73
4
 40
8.747531076343956
 49
4.373765538171978
 49
-2.186882769085989
 49
0
 49
-2.186882769085989
  0
LTYPE
  2
DASHED
 70
64
  3
__ __ __ __ __
 72
65
 73
2
 40
6.560648307257967
 49
4.373765538171978
 49
-2.186882769085989
  0
LTYPE
  2
DIVIDE
 70
64
  3
__ . . __ . . 
 72
65
 73
6
 40
10.93441384542994
 49
4.373765538171978
 49
-2.186882769085989
 49
0
 49
-2.186882769085989
 49
0
 49
-2.186882769085989
  0
LTYPE
  2
DOT
 70
64
  3
..............
 72
65
 73
4
 40
4.373765538171978
 49
0
 49
-2.186882769085989
 49
0
 49
-2.186882769085989
  0
LTYPE
  2
HIDDEN
 70
64
  3
_ _ _ _ _ _ _
 72
65
 73
2
 40
3.280324153628984
 49
2.186882769085989
 49
-1.093441384542994
  0
LTYPE
  2
PHANTOM
 70
64
  3
_____ _ _ _____ _ _ 
 72
65
 73
6
 40
21.86882769085989
 49
10.93441384542994
 49
-2.186882769085989
 49
2.186882769085989
 49
-2.186882769085989
 49
2.186882769085989
 49
-2.186882769085989
  0
ENDTAB
  0
TABLE
  2
LAYER
 70
3
  0
LAYER
  2
0
 70
0
 62
7
  6
CONTINUOUS
  0
LAYER
  2
1
 70
0
 62
7
  6
CONTINUOUS
  0
ENDTAB
  0
TABLE
  2
STYLE
 70
4
  0
STYLE
  2
STANDARD
 70
0
 40
0
 41
1
 50
0
 71
0
 42
3.5
  3
txt
  4

  0
STYLE
  2
SIMPLEX
 70
0
 40
0
 41
1
 50
0
 71
0
 42
3.5
  3
simplex
  4

  0
STYLE
  2
COMPLEX
 70
0
 40
0
 41
1
 50
0
 71
0
 42
3.5
  3
complex
  4

  0
STYLE
  2
ITALIC
 70
0
 40
0
 41
1
 50
0
 71
0
 42
3.5
  3
italic
  4

  0
ENDTAB
  0
TABLE
  2
VIEW
 70
0
  0
ENDTAB
  0
ENDSEC
  0
SECTION
  2
BLOCKS
  0
BLOCK
  8
1
  2
*D0
 70
1
 10
0
 20
0
 30
0
  0
LINE
  8
1
 62
2
 10
316.3783849413539
 20
344.5973766531676
 30
0
 11
526.3783849413538
 21
344.5973766531676
 31
0
  0
LINE
  8
1
 62
2
 10
316.3783849413539
 20
378.7728782368495
 30
0
 11
316.3783849413539
 21
343.5973766531676
 31
0
  0
LINE
  8
1
 62
2
 10
526.3783849413538
 20
378.7728782368495
 30
0
 11
526.3783849413538
 21
343.5973766531676
 31
0
  0
LINE
  8
1
 62
2
 10
316.3783849413539
 20
344.5973766531676
 30
0
 11
319.3783849413539
 21
345.4073766531676
 31
0
  0
LINE
  8
1
 62
2
 10
316.3783849413539
 20
344.5973766531676
 30
0
 11
319.3783849413539
 21
343.7873766531676
 31
0
  0
LINE
  8
1
 62
2
 10
526.3783849413538
 20
344.5973766531676
 30
0
 11
523.3783849413538
 21
343.7873766531676
 31
0
  0
LINE
  8
1
 62
2
 10
526.3783849413538
 20
344.5973766531676
 30
0
 11
523.3783849413538
 21
345.4073766531676
 31
0
  0
TEXT
  8
1
 62
2
 10
417.8264611527071
 20
345.3973766531676
 30
0
 40
3
  1
210
 41
0.9
 51
15
  0
ENDBLK
  8
0
  0
BLOCK
  8
1
  2
*D1
 70
1
 10
0
 20
0
 30
0
  0
LINE
  8
1
 62
2
 10
543.9213203435596
 20
362.7728782368495
 30
0
 11
543.9213203435596
 21
474.1828803677497
 31
0
  0
LINE
  8
1
 62
2
 10
454.3803973282328
 20
362.7728782368495
 30
0
 11
544.9213203435596
 21
362.7728782368495
 31
0
  0
LINE
  8
1
 62
2
 10
408.5762477120378
 20
474.1828803677497
 30
0
 11
544.9213203435596
 21
474.1828803677497
 31
0
  0
LINE
  8
1
 62
2
 10
543.9213203435596
 20
474.1828803677497
 30
0
 11
544.7313203435596
 21
471.1828803677497
 31
0
  0
LINE
  8
1
 62
2
 10
543.9213203435596
 20
474.1828803677497
 30
0
 11
543.1113203435597
 21
471.1828803677497
 31
0
  0
LINE
  8
1
 62
2
 10
543.9213203435596
 20
362.7728782368495
 30
0
 11
543.1113203435597
 21
365.7728782368495
 31
0
  0
LINE
  8
1
 62
2
 10
543.9213203435596
 20
362.7728782368495
 30
0
 11
544.7313203435596
 21
365.7728782368495
 31
0
  0
TEXT
  8
1
 62
2
 10
543.1213203435597
 20
414.0259555136529
 30
0
 40
3
  1
(112)
 50
90
 41
0.9
 51
15
  0
ENDBLK
  8
0
  0
BLOCK
  8
1
  2
*D2
 70
1
 10
0
 20
0
 30
0
  0
LINE
  8
1
 62
2
 10
536.9899215961395
 20
362.7728782368495
 30
0
 11
536.9899215961395
 21
397.7728782368495
 31
0
  0
LINE
  8
1
 62
2
 10
454.3803973282328
 20
362.7728782368495
 30
0
 11
537.9899215961395
 21
362.7728782368495
 31
0
  0
LINE
  8
1
 62
2
 10
531.892456537163
 20
397.7728782368495
 30
0
 11
537.9899215961395
 21
397.7728782368495
 31
0
  0
LINE
  8
1
 62
2
 10
536.9899215961395
 20
397.7728782368495
 30
0
 11
537.7999215961395
 21
394.7728782368495
 31
0
  0
LINE
  8
1
 62
2
 10
536.9899215961395
 20
397.7728782368495
 30
0
 11
536.1799215961396
 21
394.7728782368495
 31
0
  0
LINE
  8
1
 62
2
 10
536.9899215961395
 20
362.7728782368495
 30
0
 11
536.1799215961396
 21
365.7728782368495
 31
0
  0
LINE
  8
1
 62
2
 10
536.9899215961395
 20
362.7728782368495
 30
0
 11
537.7999215961395
 21
365.7728782368495
 31
0
  0
TEXT
  8
1
 62
2
 10
536.1899215961396
 20
377.6209544482028
 30
0
 40
3
  1
35
 50
90
 41
0.9
 51
15
  0
ENDBLK
  8
0
  0
BLOCK
  8
1
  2
*D3
 70
1
 10
0
 20
0
 30
0
  0
LINE
  8
1
 62
2
 10
543.9213203435596
 20
508.9248216488084
 30
0
 11
543.9213203435596
 21
606.9248181545084
 31
0
  0
LINE
  8
1
 62
2
 10
427.3783841451538
 20
508.9248216488084
 30
0
 11
544.9213203435596
 21
508.9248216488084
 31
0
  0
LINE
  8
1
 62
2
 10
427.3783905046538
 20
606.9248181545084
 30
0
 11
544.9213203435596
 21
606.9248181545084
 31
0
  0
LINE
  8
1
 62
2
 10
543.9213203435596
 20
606.9248181545084
 30
0
 11
544.7313203435596
 21
603.9248181545084
 31
0
  0
LINE
  8
1
 62
2
 10
543.9213203435596
 20
606.9248181545084
 30
0
 11
543.1113203435597
 21
603.9248181545084
 31
0
  0
LINE
  8
1
 62
2
 10
543.9213203435596
 20
508.9248216488084
 30
0
 11
543.1113203435597
 21
511.9248216488084
 31
0
  0
LINE
  8
1
 62
2
 10
543.9213203435596
 20
508.9248216488084
 30
0
 11
544.7313203435596
 21
511.9248216488084
 31
0
  0
TEXT
  8
1
 62
2
 10
543.1213203435597
 20
555.2728961130117
 30
0
 40
3
  1
98
 50
90
 41
0.9
 51
15
  0
ENDBLK
  8
0
  0
BLOCK
  8
1
  2
*D4
 70
1
 10
0
 20
0
 30
0
  0
LINE
  8
1
 62
2
 10
316.3783849413538
 20
370.7118951609981
 30
0
 11
331.3792171087209
 21
370.7118951609981
 31
0
  0
LINE
  8
1
 62
2
 10
316.3783849413538
 20
378.7728782368495
 30
0
 11
316.3783849413538
 21
369.2118951609981
 31
0
  0
LINE
  8
1
 62
2
 10
331.3792171087209
 20
378.7728782368495
 30
0
 11
331.3792171087209
 21
369.2118951609981
 31
0
  0
LINE
  8
1
 62
2
 10
316.3783849413538
 20
370.7118951609981
 30
0
 11
319.5783849413538
 21
371.5758951609981
 31
0
  0
LINE
  8
1
 62
2
 10
316.3783849413538
 20
370.7118951609981
 30
0
 11
319.5783849413538
 21
369.8478951609981
 31
0
  0
LINE
  8
1
 62
2
 10
331.3792171087209
 20
370.7118951609981
 30
0
 11
328.1792171087209
 21
369.8478951609981
 31
0
  0
LINE
  8
1
 62
2
 10
331.3792171087209
 20
370.7118951609981
 30
0
 11
328.1792171087209
 21
371.5758951609981
 31
0
  0
TEXT
  8
1
 62
2
 10
321.5300823171476
 20
371.7118951609981
 30
0
 40
3.2
  1
15
 41
0.9
 51
15
  0
ENDBLK
  8
0
  0
ENDSEC
  0
SECTION
  2
ENTITIES
  0
POLYLINE
  8
0
 62
7
 66
1
  0
VERTEX
  8
0
 10
381.869743158538
 20
455.1852241862497
 30
0
  0
VERTEX
  8
0
 10
381.4956644078378
 20
454.1649714816498
 30
0
  0
VERTEX
  8
0
 10
381.1742314597378
 20
453.3544507581497
 30
0
  0
SEQEND
  8
0
  0
POLYLINE
  8
0
 62
7
 66
1
  0
VERTEX
  8
0
 10
405.8783852214539
 20
495.8666351401083
 30
0
  0
VERTEX
  8
0
 10
405.8323760236539
 20
495.8864611351084
 30
0
  0
VERTEX
  8
0
 10
405.7864264304538
 20
495.9066708349083
 30
0
  0
VERTEX
  8
0
 10
405.7405383045538
 20
495.9272642397084
 30
0
  0
VERTEX
  8
0
 10
405.6947097832539
 20
495.9482450747084
 30
0
  0
VERTEX
  8
0
 10
405.6558717692539
 20
495.9663537108084
 30
0
  0
VERTEX
  8
0
 10
405.6170784587538
 20
495.9847436064082
 30
0
  0
VERTEX
  8
0
 10
405.5783298517537
 20
496.0034184866084
 30
0
  0
VERTEX
  8
0
 10
405.5396259481537
 20
496.0223802142083
 30
0
  0
VERTEX
  8
0
 10
405.5009667480537
 20
496.0416269266084
 30
0
  0
VERTEX
  8
0
 10
405.4623522515539
 20
496.0611642115082
 30
0
  0
VERTEX
  8
0
 10
405.4237843210539
 20
496.0809920691084
 30
0
  0
VERTEX
  8
0
 10
405.3852629567538
 20
496.1011123620083
 30
0
  0
VERTEX
  8
0
 10
405.3467862958538
 20
496.1215288155084
 30
0
  0
VERTEX
  8
0
 10
405.3083580637539
 20
496.1422377043083
 30
0
  0
VERTEX
  8
0
 10
405.2699745352537
 20
496.1632464789083
 30
0
  0
VERTEX
  8
0
 10
405.2316394353537
 20
496.1845532768083
 30
0
  0
VERTEX
  8
0
 10
405.1898714805537
 20
496.2081399523084
 30
0
  0
VERTEX
  8
0
 10
405.1481612677538
 20
496.2320861184084
 30
0
  0
VERTEX
  8
0
 10
405.1065087969538
 20
496.2563955002084
 30
0
  0
VERTEX
  8
0
 10
405.0649122054537
 20
496.2810699605083
 30
0
  0
VERTEX
  8
0
 10
405.0233752186538
 20
496.3061094992084
 30
0
  0
VERTEX
  8
0
 10
404.9818959737537
 20
496.3315178417083
 30
0
  0
VERTEX
  8
0
 10
404.9404744709538
 20
496.3572968506084
 30
0
  0
VERTEX
  8
0
 10
404.9025566036538
 20
496.3812560551084
 30
0
  0
VERTEX
  8
0
 10
404.8646890277538
 20
496.4055300467084
 30
0
  0
VERTEX
  8
0
 10
404.8268717432537
 20
496.4301206880083
 30
0
  0
VERTEX
  8
0
 10
404.7891028876537
 20
496.4550298416083
 30
0
  0
VERTEX
  8
0
 10
404.7513861859537
 20
496.4802575075084
 30
0
  0
VERTEX
  8
0
 10
404.7137216384537
 20
496.5058074110084
 30
0
  0
VERTEX
  8
0
 10
404.6726894284537
 20
496.5340506994084
 30
0
  0
VERTEX
  8
0
 10
404.6317205483537
 20
496.5626795553083
 30
0
  0
VERTEX
  8
0
 10
404.5908112729538
 20
496.5916958415084
 30
0
  0
VERTEX
  8
0
 10
404.5499653274538
 20
496.6210958325084
 30
0
  0
VERTEX
  8
0
 10
404.5091789866539
 20
496.6508497261084
 30
0
  0
VERTEX
  8
0
 10
404.4684559757537
 20
496.6809184067083
 30
0
  0
VERTEX
  8
0
 10
404.4277907068537
 20
496.7112702095083
 30
0
  0
VERTEX
  8
0
 10
404.3804236407538
 20
496.7469938808083
 30
0
  0
VERTEX
  8
0
 10
404.3331366683539
 20
496.7829988115083
 30
0
  0
VERTEX
  8
0
 10
404.2859279269538
 20
496.8192328476083
 30
0
  0
VERTEX
  8
0
 10
404.2387955541539
 20
496.8556401097083
 30
0
  0
VERTEX
  8
0
 10
404.1917414123537
 20
496.8921647184083
 30
0
  0
VERTEX
  8
0
 10
404.1447617764537
 20
496.9287526571083
 30
0
  0
VERTEX
  8
0
 10
404.0922351832538
 20
496.9697401636083
 30
0
  0
VERTEX
  8
0
 10
404.0397979969538
 20
497.0106587522083
 30
0
  0
VERTEX
  8
0
 10
403.9874520803538
 20
497.0514357798084
 30
0
  0
VERTEX
  8
0
 10
403.9475393200538
 20
497.0824283325083
 30
0
  0
VERTEX
  8
0
 10
403.9076768512538
 20
497.1132588350083
 30
0
  0
VERTEX
  8
0
 10
403.8678646738537
 20
497.1438918971084
 30
0
  0
VERTEX
  8
0
 10
403.8281046504538
 20
497.1742921286084
 30
0
  0
VERTEX
  8
0
 10
403.7883911932537
 20
497.2044260018083
 30
0
  0
VERTEX
  8
0
 10
403.7565231973537
 20
497.2284205966083
 30
0
  0
VERTEX
  8
0
 10
403.7246850038538
 20
497.2522028499083
 30
0
  0
VERTEX
  8
0
 10
403.6928766126538
 20
497.2757541352084
 30
0
  0
VERTEX
  8
0
 10
403.6610998863538
 20
497.2990595513084
 30
0
  0
VERTEX
  8
0
 10
403.6287755424538
 20
497.3225139790083
 30
0
  0
VERTEX
  8
0
 10
403.5964810008537
 20
497.3456759714083
 30
0
  0
VERTEX
  8
0
 10
403.5642181242537
 20
497.3685250395083
 30
0
  0
VERTEX
  8
0
 10
403.5319850499537
 20
497.3910444193083
 30
0
  0
VERTEX
  8
0
 10
403.4997817779537
 20
497.4132117592083
 30
0
  0
VERTEX
  8
0
 10
403.4729690010537
 20
497.4314023518083
 30
0
  0
VERTEX
  8
0
 10
403.4461748505538
 20
497.4493284487084
 30
0
  0
VERTEX
  8
0
 10
403.4194011891538
 20
497.4669751488084
 30
0
  0
VERTEX
  8
0
 10
403.3926480169538
 20
497.4843312763083
 30
0
  0
VERTEX
  8
0
 10
403.3659134710537
 20
497.5013893806083
 30
0
  0
VERTEX
  8
0
 10
403.3391975517537
 20
497.5181364231084
 30
0
  0
VERTEX
  8
0
 10
403.3167713041538
 20
497.5319572501084
 30
0
  0
VERTEX
  8
0
 10
403.2943599576537
 20
497.5455433839083
 30
0
  0
VERTEX
  8
0
 10
403.2719597871538
 20
497.5588892364084
 30
0
  0
VERTEX
  8
0
 10
403.2495745177538
 20
497.5719892197083
 30
0
  0
VERTEX
  8
0
 10
403.2267943675537
 20
497.5850687139082
 30
0
  0
VERTEX
  8
0
 10
403.2040272558537
 20
497.5978781246083
 30
0
  0
VERTEX
  8
0
 10
403.1812731827537
 20
497.6104118638083
 30
0
  0
VERTEX
  8
0
 10
403.1585340107537
 20
497.6226643436084
 30
0
  0
VERTEX
  8
0
 10
403.1358060146537
 20
497.6346262508083
 30
0
  0
VERTEX
  8
0
 10
403.1130426282538
 20
497.6463180744084
 30
0
  0
VERTEX
  8
0
 10
403.0902904177539
 20
497.6577062868083
 30
0
  0
VERTEX
  8
0
 10
403.0675512457539
 20
497.6687834375082
 30
0
  0
VERTEX
  8
0
 10
403.0448251123538
 20
497.6795420759084
 30
0
  0
VERTEX
  8
0
 10
403.0221120173538
 20
497.6899766140083
 30
0
  0
VERTEX
  8
0
 10
402.9994100982539
 20
497.7000777387084
 30
0
  0
VERTEX
  8
0
 10
402.9767193550537
 20
497.7098417245083
 30
0
  0
VERTEX
  8
0
 10
402.9544961358537
 20
497.7190767192083
 30
0
  0
VERTEX
  8
0
 10
402.9322822297537
 20
497.7279708498084
 30
0
  0
VERTEX
  8
0
 10
402.9100813622537
 20
497.7365222537083
 30
0
  0
VERTEX
  8
0
 10
402.8878916705538
 20
497.7447234802084
 30
0
  0
VERTEX
  8
0
 10
402.8690715039537
 20
497.7514010631084
 30
0
  0
VERTEX
  8
0
 10
402.8502587879538
 20
497.7578178756084
 30
0
  0
VERTEX
  8
0
 10
402.8314553851538
 20
497.7639683299083
 30
0
  0
VERTEX
  8
0
 10
402.8126575703537
 20
497.7698505633082
 30
0
  0
VERTEX
  8
0
 10
402.7938690687537
 20
497.7754589879084
 30
0
  0
VERTEX
  8
0
 10
402.7750880176537
 20
497.7807917409083
 30
0
  0
VERTEX
  8
0
 10
402.7573873008538
 20
497.7855619751082
 30
0
  0
VERTEX
  8
0
 10
402.7396921719538
 20
497.7900788896083
 30
0
  0
VERTEX
  8
0
 10
402.7220044935538
 20
497.7943387591083
 30
0
  0
VERTEX
  8
0
 10
402.7043224031537
 20
497.7983397209083
 30
0
  0
VERTEX
  8
0
 10
402.6866477633538
 20
497.8020780497083
 30
0
  0
VERTEX
  8
0
 10
402.6679076905538
 20
497.8057511859083
 30
0
  0
VERTEX
  8
0
 10
402.6491750682538
 20
497.8091207110083
 30
0
  0
VERTEX
  8
0
 10
402.6304480339537
 20
497.8121847623084
 30
0
  0
VERTEX
  8
0
 10
402.6117303128539
 20
497.8149358891083
 30
0
  0
VERTEX
  8
0
 10
402.5930181796538
 20
497.8173703664084
 30
0
  0
VERTEX
  8
0
 10
402.5743116343537
 20
497.8194881939084
 30
0
  0
VERTEX
  8
0
 10
402.5556144023539
 20
497.8212819212083
 30
0
  0
VERTEX
  8
0
 10
402.5369208956537
 20
497.8227478229083
 30
0
  0
VERTEX
  8
0
 10
402.5182367021538
 20
497.8238840364084
 30
0
  0
VERTEX
  8
0
 10
402.4995562339537
 20
497.8246831112083
 30
0
  0
VERTEX
  8
0
 10
402.4808832163539
 20
497.8251450472083
 30
0
  0
VERTEX
  8
0
 10
402.4622176493537
 20
497.8252642565083
 30
0
  0
VERTEX
  8
0
 10
402.4444051737538
 20
497.8250537776084
 30
0
  0
VERTEX
  8
0
 10
402.4265982861538
 20
497.8245229237083
 30
0
  0
VERTEX
  8
0
 10
402.4087969864537
 20
497.8236716949083
 30
0
  0
VERTEX
  8
0
 10
402.3910012746538
 20
497.8224926405083
 30
0
  0
VERTEX
  8
0
 10
402.3732111508538
 20
497.8209838979083
 30
0
  0
VERTEX
  8
0
 10
402.3554266149537
 20
497.8191417419083
 30
0
  0
VERTEX
  8
0
 10
402.3376458043537
 20
497.8169643097083
 30
0
  0
VERTEX
  8
0
 10
402.3198724443538
 20
497.8144460135083
 30
0
  0
VERTEX
  8
0
 10
402.3022816235538
 20
497.8116147928083
 30
0
  0
VERTEX
  8
0
 10
402.2846963907538
 20
497.8084538840083
 30
0
  0
VERTEX
  8
0
 10
402.2671148831538
 20
497.8049651497083
 30
0
  0
VERTEX
  8
0
 10
402.2495389635539
 20
497.8011560403084
 30
0
  0
VERTEX
  8
0
 10
402.2319686318537
 20
497.7970284187083
 30
0
  0
VERTEX
  8
0
 10
402.2144001627538
 20
497.7925915979083
 30
0
  0
VERTEX
  8
0
 10
402.1968372816538
 20
497.7878474407084
 30
0
  0
VERTEX
  8
0
 10
402.1796301657538
 20
497.7829077058084
 30
0
  0
VERTEX
  8
0
 10
402.1624249125538
 20
497.7776829862084
 30
0
  0
VERTEX
  8
0
 10
402.1452252472537
 20
497.7721807324083
 30
0
  0
VERTEX
  8
0
 10
402.1280274445538
 20
497.7664028071083
 30
0
  0
VERTEX
  8
0
 10
402.1105223054539
 20
497.7602449023084
 30
0
  0
VERTEX
  8
0
 10
402.0930190289538
 20
497.7538113259083
 30
0
  0
VERTEX
  8
0
 10
402.0755194778539
 20
497.7471095287084
 30
0
  0
VERTEX
  8
0
 10
402.0580236519537
 20
497.7401450985083
 30
0
  0
VERTEX
  8
0
 10
402.0405296886537
 20
497.7329198979084
 30
0
  0
VERTEX
  8
0
 10
402.0210091675539
 20
497.7245603465084
 30
0
  0
VERTEX
  8
0
 10
402.0014923716539
 20
497.7158897333083
 30
0
  0
VERTEX
  8
0
 10
401.9819774384538
 20
497.7069192343083
 30
0
  0
VERTEX
  8
0
 10
401.9624662304537
 20
497.6976563000083
 30
0
  0
VERTEX
  8
0
 10
401.9429587478538
 20
497.6881046556082
 30
0
  0
VERTEX
  8
0
 10
401.9234531278538
 20
497.6782736145084
 30
0
  0
VERTEX
  8
0
 10
401.9039493704537
 20
497.6681706273083
 30
0
  0
VERTEX
  8
0
 10
401.8844474757538
 20
497.6578031444083
 30
0
  0
VERTEX
  8
0
 10
401.8626079613538
 20
497.6458840780082
 30
0
  0
VERTEX
  8
0
 10
401.8407703096538
 20
497.6336520874084
 30
0
  0
VERTEX
  8
0
 10
401.8189363832538
 20
497.6211164855083
 30
0
  0
VERTEX
  8
0
 10
401.7971024567538
 20
497.6082884484083
 30
0
  0
VERTEX
  8
0
 10
401.7748736495538
 20
497.5949351453084
 30
0
  0
VERTEX
  8
0
 10
401.7526467050537
 20
497.5812987201082
 30
0
  0
VERTEX
  8
0
 10
401.7304197604539
 20
497.5673903488083
 30
0
  0
VERTEX
  8
0
 10
401.7081928158538
 20
497.5532193445083
 30
0
  0
VERTEX
  8
0
 10
401.6859677339538
 20
497.5387987458083
 30
0
  0
VERTEX
  8
0
 10
401.6599801088538
 20
497.5216326081084
 30
0
  0
VERTEX
  8
0
 10
401.6339924837538
 20
497.5041554086083
 30
0
  0
VERTEX
  8
0
 10
401.6080048585537
 20
497.4863820486084
 30
0
  0
VERTEX
  8
0
 10
401.5820153708538
 20
497.4683330171083
 30
0
  0
VERTEX
  8
0
 10
401.5560240204537
 20
497.4500213527083
 30
0
  0
VERTEX
  8
0
 10
401.5300308073537
 20
497.4314675443083
 30
0
  0
VERTEX
  8
0
 10
401.4969465042537
 20
497.4075269662083
 30
0
  0
VERTEX
  8
0
 10
401.4638547504538
 20
497.3832548373082
 30
0
  0
VERTEX
  8
0
 10
401.4307574088538
 20
497.3586865478083
 30
0
  0
VERTEX
  8
0
 10
401.3976526165537
 20
497.3338574879083
 30
0
  0
VERTEX
  8
0
 10
401.3645403737538
 20
497.3087993227082
 30
0
  0
VERTEX
  8
0
 10
401.3314188177538
 20
497.2835511677083
 30
0
  0
VERTEX
  8
0
 10
401.2817178572537
 20
497.2453967445082
 30
0
  0
VERTEX
  8
0
 10
401.2319908196538
 20
497.2070076280084
 30
0
  0
VERTEX
  8
0
 10
401.1822358424537
 20
497.1685030275084
 30
0
  0
VERTEX
  8
0
 10
401.1324492002538
 20
497.1300040149083
 30
0
  0
VERTEX
  8
0
 10
401.0962188894538
 20
497.1020736509083
 30
0
  0
VERTEX
  8
0
 10
401.0599699522537
 20
497.0742531829083
 30
0
  0
VERTEX
  8
0
 10
401.0236986632539
 20
497.0465873145083
 30
0
  0
VERTEX
  8
0
 10
400.9874068851538
 20
497.0191244744084
 30
0
  0
VERTEX
  8
0
 10
400.9510908926537
 20
496.9919056409084
 30
0
  0
VERTEX
  8
0
 10
400.9147506857538
 20
496.9649811052083
 30
0
  0
VERTEX
  8
0
 10
400.8783844018539
 20
496.9383937084083
 30
0
  0
SEQEND
  8
0
  0
POLYLINE
  8
0
 62
7
 66
1
  0
VERTEX
  8
0
 10
405.1872675026538
 20
563.0390506946084
 30
0
  0
VERTEX
  8
0
 10
405.3052809740537
 20
563.0781364404085
 30
0
  0
VERTEX
  8
0
 10
405.4637827629537
 20
563.0883958899085
 30
0
  0
SEQEND
  8
0
  0
POLYLINE
  8
0
 62
7
 66
1
  0
VERTEX
  8
0
 10
405.1118545884539
 20
562.8370170258085
 30
0
  0
VERTEX
  8
0
 10
405.1261410767537
 20
562.9326154255084
 30
0
  0
VERTEX
  8
0
 10
405.1872675026538
 20
563.0390506946084
 30
0
  0
SEQEND
  8
0
  0
POLYLINE
  8
0
 62
7
 66
1
  0
VERTEX
  8
0
 10
405.2375421578537
 20
562.5195366107083
 30
0
  0
VERTEX
  8
0
 10
405.1536132300538
 20
562.6474966072085
 30
0
  0
VERTEX
  8
0
 10
405.1118545884539
 20
562.8370170258085
 30
0
  0
SEQEND
  8
0
  0
POLYLINE
  8
0
 62
7
 66
1
  0
VERTEX
  8
0
 10
404.6342369819537
 20
563.0679142438085
 30
0
  0
VERTEX
  8
0
 10
404.7223363722538
 20
562.6844701134085
 30
0
  0
VERTEX
  8
0
 10
405.0615780706538
 20
562.3175066673084
 30
0
  0
SEQEND
  8
0
  0
POLYLINE
  8
0
 62
7
 66
1
  0
VERTEX
  8
0
 10
404.6342369819537
 20
564.4244228267085
 30
0
  0
VERTEX
  8
0
 10
404.7223363722538
 20
564.0409786962084
 30
0
  0
VERTEX
  8
0
 10
405.0615780705958
 20
563.6740115248504
 30
0
  0
SEQEND
  8
0
  0
POLYLINE
  8
0
 62
7
 66
1
  0
VERTEX
  8
0
 10
404.7850628102627
 20
564.9439331852432
 30
0
  0
VERTEX
  8
0
 10
404.6733339036538
 20
564.7302393579083
 30
0
  0
VERTEX
  8
0
 10
404.6342369819537
 20
564.4244228267085
 30
0
  0
SEQEND
  8
0
  0
POLYLINE
  8
0
 62
7
 66
1
  0
VERTEX
  8
0
 10
405.1872675026538
 20
564.4244228267085
 30
0
  0
VERTEX
  8
0
 10
405.3129308576537
 20
564.4830700718084
 30
0
  0
VERTEX
  8
0
 10
405.4889210219538
 20
564.5026278459084
 30
0
  0
SEQEND
  8
0
  0
POLYLINE
  8
0
 62
7
 66
1
  0
VERTEX
  8
0
 10
405.1118545884539
 20
564.1935256087085
 30
0
  0
VERTEX
  8
0
 10
405.1242691184538
 20
564.3017341160085
 30
0
  0
VERTEX
  8
0
 10
405.1872675026538
 20
564.4244228267085
 30
0
  0
SEQEND
  8
0
  0
POLYLINE
  8
0
 62
7
 66
1
  0
VERTEX
  8
0
 10
405.2375421578537
 20
563.9049087428084
 30
0
  0
VERTEX
  8
0
 10
405.1570162827537
 20
564.0208025240085
 30
0
  0
VERTEX
  8
0
 10
405.1118545884539
 20
564.1935256087085
 30
0
  0
SEQEND
  8
0
  0
POLYLINE
  8
0
 62
7
 66
1
  0
VERTEX
  8
0
 10
405.5913720930538
 20
565.6443920695083
 30
0
  0
VERTEX
  8
0
 10
405.4862946922539
 20
565.5666452610083
 30
0
  0
VERTEX
  8
0
 10
405.3204987848538
 20
565.5456346237085
 30
0
  0
SEQEND
  8
0
  0
POLYLINE
  8
0
 62
7
 66
1
  0
VERTEX
  8
0
 10
405.6506246979537
 20
565.8528742157083
 30
0
  0
VERTEX
  8
0
 10
405.6410469765539
 20
565.7564227246085
 30
0
  0
VERTEX
  8
0
 10
405.5913720930538
 20
565.6443920695083
 30
0
  0
SEQEND
  8
0
  0
POLYLINE
  8
0
 62
7
 66
1
  0
VERTEX
  8
0
 10
405.5744425112538
 20
566.0613563620084
 30
0
  0
VERTEX
  8
0
 10
405.6251399869537
 20
565.9760509395084
 30
0
  0
VERTEX
  8
0
 10
405.6506246979537
 20
565.8528742157083
 30
0
  0
SEQEND
  8
0
  0
POLYLINE
  8
0
 62
7
 66
1
  0
VERTEX
  8
0
 10
404.8126131946598
 20
566.0394106769072
 30
0
  0
VERTEX
  8
0
 10
404.8655681962538
 20
565.9297828340084
 30
0
  0
VERTEX
  8
0
 10
404.8887972439537
 20
565.7760661804084
 30
0
  0
SEQEND
  8
0
  0
POLYLINE
  8
0
 62
7
 66
1
  0
VERTEX
  8
0
 10
404.3639820719537
 20
566.0284396969083
 30
0
  0
VERTEX
  8
0
 10
404.4590850080537
 20
566.1006581747083
 30
0
  0
VERTEX
  8
0
 10
404.6094600761538
 20
566.1271934175084
 30
0
  0
SEQEND
  8
0
  0
POLYLINE
  8
0
 62
7
 66
1
  0
VERTEX
  8
0
 10
404.3131933266537
 20
565.8638489210084
 30
0
  0
VERTEX
  8
0
 10
404.3220502043538
 20
565.9402993285084
 30
0
  0
VERTEX
  8
0
 10
404.3639820719537
 20
566.0284396969083
 30
0
  0
SEQEND
  8
0
  0
POLYLINE
  8
0
 62
7
 66
1
  0
VERTEX
  8
0
 10
404.3639820719537
 20
565.6992544197085
 30
0
  0
VERTEX
  8
0
 10
404.3279957676538
 20
565.7671552860085
 30
0
  0
VERTEX
  8
0
 10
404.3131933266537
 20
565.8638489210084
 30
0
  0
SEQEND
  8
0
  0
POLYLINE
  8
0
 62
7
 66
1
  0
VERTEX
  8
0
 10
404.6179239357538
 20
565.5785550140083
 30
0
  0
VERTEX
  8
0
 10
404.4933502281539
 20
565.6043265723083
 30
0
  0
VERTEX
  8
0
 10
404.3639820719537
 20
565.6992544197085
 30
0
  0
SEQEND
  8
0
  0
POLYLINE
  8
0
 62
7
 66
1
  0
VERTEX
  8
0
 10
405.0326977575538
 20
565.7760661804084
 30
0
  0
VERTEX
  8
0
 10
405.0372966284537
 20
565.8969704770084
 30
0
  0
VERTEX
  8
0
 10
405.0919503623937
 20
566.0394106768666
 30
0
  0
SEQEND
  8
0
  0
POLYLINE
  8
0
 62
7
 66
1
  0
VERTEX
  8
0
 10
404.2624045814538
 20
565.5236889385083
 30
0
  0
VERTEX
  8
0
 10
404.3969881440538
 20
565.4016782307083
 30
0
  0
VERTEX
  8
0
 10
404.6179239357538
 20
565.3371524774084
 30
0
  0
SEQEND
  8
0
  0
POLYLINE
  8
0
 62
7
 66
1
  0
VERTEX
  8
0
 10
404.1608270908538
 20
565.8638489210084
 30
0
  0
VERTEX
  8
0
 10
404.1779727394538
 20
565.7060307228085
 30
0
  0
VERTEX
  8
0
 10
404.2624045814538
 20
565.5236889385083
 30
0
  0
SEQEND
  8
0
  0
POLYLINE
  8
0
 62
7
 66
1
  0
VERTEX
  8
0
 10
404.2624045814538
 20
566.2149761580083
 30
0
  0
VERTEX
  8
0
 10
404.1887015754538
 20
566.0696712100083
 30
0
  0
VERTEX
  8
0
 10
404.1608270908538
 20
565.8638489210084
 30
0
  0
SEQEND
  8
0
  0
POLYLINE
  8
0
 62
7
 66
1
  0
VERTEX
  8
0
 10
404.5756009126538
 20
566.3685959541083
 30
0
  0
VERTEX
  8
0
 10
404.4199582839539
 20
566.3391512596085
 30
0
  0
VERTEX
  8
0
 10
404.2624045814538
 20
566.2149761580083
 30
0
  0
SEQEND
  8
0
  0
POLYLINE
  8
0
 62
7
 66
1
  0
VERTEX
  8
0
 10
404.8464723582537
 20
566.2478965484085
 30
0
  0
VERTEX
  8
0
 10
404.7429353649537
 20
566.3335335218084
 30
0
  0
VERTEX
  8
0
 10
404.5756009126538
 20
566.3685959541083
 30
0
  0
SEQEND
  8
0
  0
POLYLINE
  8
0
 62
7
 66
1
  0
VERTEX
  8
0
 10
404.9565155709537
 20
566.0394106769085
 30
0
  0
VERTEX
  8
0
 10
404.9187336767537
 20
566.1365438961084
 30
0
  0
VERTEX
  8
0
 10
404.8464723582537
 20
566.2478965484085
 30
0
  0
SEQEND
  8
0
  0
POLYLINE
  8
0
 62
7
 66
1
  0
VERTEX
  8
0
 10
405.0496273393538
 20
566.2588675283083
 30
0
  0
VERTEX
  8
0
 10
404.9974322969537
 20
566.1672961675083
 30
0
  0
VERTEX
  8
0
 10
404.9565155709537
 20
566.0394106769085
 30
0
  0
SEQEND
  8
0
  0
POLYLINE
  8
0
 62
7
 66
1
  0
VERTEX
  8
0
 10
405.3374283666539
 20
566.4124873244084
 30
0
  0
VERTEX
  8
0
 10
405.1932167912538
 20
566.3801406287083
 30
0
  0
VERTEX
  8
0
 10
405.0496273393538
 20
566.2588675283083
 30
0
  0
SEQEND
  8
0
  0
POLYLINE
  8
0
 62
7
 66
1
  0
VERTEX
  8
0
 10
405.6929477209538
 20
566.2369218432084
 30
0
  0
VERTEX
  8
0
 10
405.5585429723539
 20
566.3567718827084
 30
0
  0
VERTEX
  8
0
 10
405.3374283666539
 20
566.4124873244084
 30
0
  0
SEQEND
  8
0
  0
POLYLINE
  8
0
 62
7
 66
1
  0
VERTEX
  8
0
 10
405.8108270818537
 20
565.8528742157083
 30
0
  0
VERTEX
  8
0
 10
405.7904013151539
 20
566.0313230716083
 30
0
  0
VERTEX
  8
0
 10
405.6929477209538
 20
566.2369218432084
 30
0
  0
SEQEND
  8
0
  0
POLYLINE
  8
0
 62
7
 66
1
  0
VERTEX
  8
0
 10
405.7014134431537
 20
565.4578518831085
 30
0
  0
VERTEX
  8
0
 10
405.7818517739537
 20
565.6217385792085
 30
0
  0
VERTEX
  8
0
 10
405.8108270818537
 20
565.8528742157083
 30
0
  0
SEQEND
  8
0
  0
POLYLINE
  8
0
 62
7
 66
1
  0
VERTEX
  8
0
 10
381.8697423393538
 20
561.9248200916084
 30
0
  0
VERTEX
  8
0
 10
381.4956635887537
 20
562.1058692001084
 30
0
  0
VERTEX
  8
0
 10
381.1742306406537
 20
562.0631885492085
 30
0
  0
SEQEND
  8
0
  0
POLYLINE
  8
0
 62
7
 66
1
  0
VERTEX
  8
0
 10
381.8697423393538
 20
553.9248187803084
 30
0
  0
VERTEX
  8
0
 10
381.4956635887537
 20
553.7437696718084
 30
0
  0
VERTEX
  8
0
 10
381.1742306406537
 20
553.7864503228084
 30
0
  0
SEQEND
  8
0
  0
POLYLINE
  8
0
 62
7
 66
1
  0
VERTEX
  8
0
 10
382.3401906246537
 20
562.8852930628084
 30
0
  0
VERTEX
  8
0
 10
382.3316559846538
 20
562.6959253811085
 30
0
  0
VERTEX
  8
0
 10
382.3113419766538
 20
562.5149135255083
 30
0
  0
VERTEX
  8
0
 10
382.2799936587538
 20
562.3488773369085
 30
0
  0
VERTEX
  8
0
 10
382.2387584204538
 20
562.2038741373085
 30
0
  0
VERTEX
  8
0
 10
382.1891338283537
 20
562.0852050148083
 30
0
  0
VERTEX
  8
0
 10
382.1329378242539
 20
561.9972024821084
 30
0
  0
VERTEX
  8
0
 10
382.0722267682537
 20
561.9430814647083
 30
0
  0
VERTEX
  8
0
 10
382.0092097575538
 20
561.9248200916084
 30
0
  0
SEQEND
  8
0
  0
POLYLINE
  8
0
 62
7
 66
1
  0
VERTEX
  8
0
 10
382.3401906246537
 20
552.9643458091084
 30
0
  0
VERTEX
  8
0
 10
382.3316559846538
 20
553.1537172162084
 30
0
  0
VERTEX
  8
0
 10
382.3113419766538
 20
553.3347253465083
 30
0
  0
VERTEX
  8
0
 10
382.2799936587538
 20
553.5007652604086
 30
0
  0
VERTEX
  8
0
 10
382.2387584204538
 20
553.6457647346083
 30
0
  0
VERTEX
  8
0
 10
382.1891338283537
 20
553.7644338571083
 30
0
  0
VERTEX
  8
0
 10
382.1329378242539
 20
553.8524363898084
 30
0
  0
VERTEX
  8
0
 10
382.0722267682537
 20
553.9065574073084
 30
0
  0
VERTEX
  8
0
 10
382.0092097575538
 20
553.9248187803084
 30
0
  0
SEQEND
  8
0
  0
LINE
  8
1
 62
2
 10
487.8033849413539
 20
311.1631619434251
 30
0
 11
488.3033849413539
 21
310.3194119434251
 31
0
  0
LINE
  8
1
 62
2
 10
487.0533849413539
 20
312.0069119434251
 30
0
 11
487.8033849413539
 21
311.1631619434251
 31
0
  0
LINE
  8
1
 62
2
 10
486.0533849413539
 20
312.8506619434251
 30
0
 11
487.0533849413539
 21
312.0069119434251
 31
0
  0
LINE
  8
1
 62
2
 10
485.5533849413539
 20
313.9756619434251
 30
0
 11
484.8033849413539
 21
315.3819119434251
 31
0
  0
LINE
  8
1
 62
2
 10
486.8033849413539
 20
314.2569119434251
 30
0
 11
486.3033849413539
 21
315.6631619434251
 31
0
  0
LINE
  8
1
 62
2
 10
488.3033849413539
 20
313.6944119434251
 30
0
 11
489.0533849413539
 21
315.3819119434251
 31
0
  0
LINE
  8
1
 62
2
 10
486.8033849413539
 20
311.4444119434251
 30
0
 11
488.3033849413539
 21
313.6944119434251
 31
0
  0
LINE
  8
1
 62
2
 10
486.0533849413539
 20
310.6006619434251
 30
0
 11
486.8033849413539
 21
311.4444119434251
 31
0
  0
LINE
  8
1
 62
2
 10
484.8033849413539
 20
309.7569119434251
 30
0
 11
486.0533849413539
 21
310.6006619434251
 31
0
  0
LINE
  8
1
 62
2
 10
483.5533849413539
 20
316.7881619434251
 30
0
 11
483.5533849413539
 21
308.6319119434251
 31
0
  0
LINE
  8
1
 62
2
 10
490.0533849413539
 20
316.7881619434251
 30
0
 11
483.5533849413539
 21
316.7881619434251
 31
0
  0
LINE
  8
1
 62
2
 10
490.0533849413539
 20
308.6319119434251
 30
0
 11
490.0533849413539
 21
316.7881619434251
 31
0
  0
LINE
  8
1
 62
2
 10
483.5533849413539
 20
308.6319119434251
 30
0
 11
490.0533849413539
 21
308.6319119434251
 31
0
  0
LINE
  8
1
 62
2
 10
478.5533849413539
 20
312.5694119434251
 30
0
 11
481.5533849413539
 21
312.5694119434251
 31
0
  0
LINE
  8
1
 62
2
 10
479.8033849413539
 20
310.8819119434251
 30
0
 11
481.3033849413539
 21
308.3506619434251
 31
0
  0
LINE
  8
1
 62
2
 10
476.3033849413539
 20
308.6319119434251
 30
0
 11
480.5533849413539
 21
309.4756619434251
 31
0
  0
LINE
  8
1
 62
2
 10
478.5533849413539
 20
312.5694119434251
 30
0
 11
477.3033849413539
 21
308.9131619434251
 31
0
  0
LINE
  8
1
 62
2
 10
475.8033849413539
 20
312.5694119434251
 30
0
 11
478.5533849413539
 21
312.5694119434251
 31
0
  0
LINE
  8
1
 62
2
 10
478.8033849413539
 20
317.0694119434251
 30
0
 11
478.8033849413539
 21
312.5694119434251
 31
0
  0
LINE
  8
1
 62
2
 10
476.5533849413539
 20
314.8194119434251
 30
0
 11
481.3033849413539
 21
314.8194119434251
 31
0
  0
LINE
  8
1
 62
2
 10
474.5533849413539
 20
316.7881619434251
 30
0
 11
475.3033849413539
 21
315.6631619434251
 31
0
  0
LINE
  8
1
 62
2
 10
474.5533849413539
 20
313.4131619434251
 30
0
 11
473.8033849413539
 21
314.2569119434251
 31
0
  0
LINE
  8
1
 62
2
 10
474.0533849413539
 20
308.3506619434251
 30
0
 11
475.3033849413539
 21
312.0069119434251
 31
0
  0
LINE
  8
1
 62
2
 10
468.3033849413539
 20
311.7256619434251
 30
0
 11
467.3033849413539
 21
313.1319119434251
 31
0
  0
LINE
  8
1
 62
2
 10
470.3033849413539
 20
308.6319119434251
 30
0
 11
469.0533849413539
 21
308.6319119434251
 31
0
  0
LINE
  8
1
 62
2
 10
470.3033849413539
 20
316.7881619434251
 30
0
 11
470.3033849413539
 21
308.6319119434251
 31
0
  0
LINE
  8
1
 62
2
 10
465.5533849413539
 20
314.5381619434251
 30
0
 11
472.3033849413539
 21
314.5381619434251
 31
0
  0
LINE
  8
1
 62
2
 10
456.8033849413539
 20
310.3194119434251
 30
0
 11
456.8033849413539
 21
313.1319119434251
 31
0
  0
LINE
  8
1
 62
2
 10
458.3033849413539
 20
308.9131619434251
 30
0
 11
456.8033849413539
 21
308.9131619434251
 31
0
  0
LINE
  8
1
 62
2
 10
458.3033849413539
 20
313.1319119434251
 30
0
 11
459.5533849413539
 21
313.1319119434251
 31
0
  0
LINE
  8
1
 62
2
 10
458.0533849413539
 20
315.9444119434251
 30
0
 11
457.0533849413539
 21
315.9444119434251
 31
0
  0
LINE
  8
1
 62
2
 10
460.3033849413539
 20
314.8194119434251
 30
0
 11
460.3033849413539
 21
313.1319119434251
 31
0
  0
LINE
  8
1
 62
2
 10
462.8033849413539
 20
313.1319119434251
 30
0
 11
462.8033849413539
 21
316.5069119434251
 31
0
  0
LINE
  8
1
 62
2
 10
460.3033849413539
 20
313.1319119434251
 30
0
 11
460.3033849413539
 21
311.4444119434251
 31
0
  0
LINE
  8
1
 62
2
 10
461.0533849413539
 20
311.4444119434251
 30
0
 11
461.8033849413539
 21
311.4444119434251
 31
0
  0
LINE
  8
1
 62
2
 10
461.8033849413539
 20
311.4444119434251
 30
0
 11
462.8033849413539
 21
311.4444119434251
 31
0
  0
LINE
  8
1
 62
2
 10
463.5533849413539
 20
308.3506619434251
 30
0
 11
463.8033849413539
 21
308.9131619434251
 31
0
  0
LINE
  8
1
 62
2
 10
462.5533849413539
 20
308.3506619434251
 30
0
 11
463.5533849413539
 21
308.3506619434251
 31
0
  0
LINE
  8
1
 62
2
 10
461.8033849413539
 20
308.9131619434251
 30
0
 11
462.5533849413539
 21
308.3506619434251
 31
0
  0
LINE
  8
1
 62
2
 10
461.8033849413539
 20
311.4444119434251
 30
0
 11
461.8033849413539
 21
308.9131619434251
 31
0
  0
LINE
  8
1
 62
2
 10
460.3033849413539
 20
309.1944119434251
 30
0
 11
459.5533849413539
 21
308.3506619434251
 31
0
  0
LINE
  8
1
 62
2
 10
460.8033849413539
 20
310.6006619434251
 30
0
 11
460.3033849413539
 21
309.1944119434251
 31
0
  0
LINE
  8
1
 62
2
 10
461.0533849413539
 20
311.4444119434251
 30
0
 11
460.8033849413539
 21
310.6006619434251
 31
0
  0
LINE
  8
1
 62
2
 10
462.8033849413539
 20
313.1319119434251
 30
0
 11
460.3033849413539
 21
313.1319119434251
 31
0
  0
LINE
  8
1
 62
2
 10
460.3033849413539
 20
314.8194119434251
 30
0
 11
462.8033849413539
 21
314.8194119434251
 31
0
  0
LINE
  8
1
 62
2
 10
462.8033849413539
 20
316.5069119434251
 30
0
 11
460.3033849413539
 21
316.5069119434251
 31
0
  0
LINE
  8
1
 62
2
 10
462.8033849413539
 20
311.4444119434251
 30
0
 11
462.8033849413539
 21
313.1319119434251
 31
0
  0
LINE
  8
1
 62
2
 10
460.3033849413539
 20
311.4444119434251
 30
0
 11
461.0533849413539
 21
311.4444119434251
 31
0
  0
LINE
  8
1
 62
2
 10
460.3033849413539
 20
316.5069119434251
 30
0
 11
460.3033849413539
 21
314.8194119434251
 31
0
  0
LINE
  8
1
 62
2
 10
456.8033849413539
 20
315.9444119434251
 30
0
 11
457.3033849413539
 21
317.0694119434251
 31
0
  0
LINE
  8
1
 62
2
 10
456.0533849413539
 20
315.1006619434251
 30
0
 11
456.8033849413539
 21
315.9444119434251
 31
0
  0
LINE
  8
1
 62
2
 10
459.5533849413539
 20
315.9444119434251
 30
0
 11
458.0533849413539
 21
315.9444119434251
 31
0
  0
LINE
  8
1
 62
2
 10
457.0533849413539
 20
313.4131619434251
 30
0
 11
458.0533849413539
 21
315.9444119434251
 31
0
  0
LINE
  8
1
 62
2
 10
455.8033849413539
 20
311.7256619434251
 30
0
 11
457.0533849413539
 21
313.4131619434251
 31
0
  0
LINE
  8
1
 62
2
 10
459.8033849413539
 20
314.5381619434251
 30
0
 11
456.0533849413539
 21
314.5381619434251
 31
0
  0
LINE
  8
1
 62
2
 10
458.3033849413539
 20
313.1319119434251
 30
0
 11
458.5533849413539
 21
313.6944119434251
 31
0
  0
LINE
  8
1
 62
2
 10
458.3033849413539
 20
308.9131619434251
 30
0
 11
458.3033849413539
 21
313.1319119434251
 31
0
  0
LINE
  8
1
 62
2
 10
459.5533849413539
 20
308.9131619434251
 30
0
 11
458.3033849413539
 21
308.9131619434251
 31
0
  0
LINE
  8
1
 62
2
 10
456.8033849413539
 20
310.3194119434251
 30
0
 11
459.5533849413539
 21
310.3194119434251
 31
0
  0
LINE
  8
1
 62
2
 10
459.5533849413539
 20
311.7256619434251
 30
0
 11
456.8033849413539
 21
311.7256619434251
 31
0
  0
LINE
  8
1
 62
2
 10
456.8033849413539
 20
313.1319119434251
 30
0
 11
458.3033849413539
 21
313.1319119434251
 31
0
  0
LINE
  8
1
 62
2
 10
456.8033849413539
 20
308.3506619434251
 30
0
 11
456.8033849413539
 21
310.3194119434251
 31
0
  0
LINE
  8
1
 62
2
 10
453.5533849413539
 20
313.1319119434251
 30
0
 11
454.8033849413539
 21
311.7256619434251
 31
0
  0
LINE
  8
1
 62
2
 10
451.5533849413539
 20
315.1006619434251
 30
0
 11
453.5533849413539
 21
313.1319119434251
 31
0
  0
LINE
  8
1
 62
2
 10
452.0533849413539
 20
317.3506619434251
 30
0
 11
452.0533849413539
 21
308.3506619434251
 31
0
  0
LINE
  8
1
 62
2
 10
447.8033849413539
 20
313.6944119434251
 30
0
 11
449.5533849413539
 21
312.2881619434251
 31
0
  0
LINE
  8
1
 62
2
 10
447.8033849413539
 20
313.9756619434251
 30
0
 11
446.8033849413539
 21
312.5694119434251
 31
0
  0
LINE
  8
1
 62
2
 10
448.5533849413539
 20
315.6631619434251
 30
0
 11
447.8033849413539
 21
313.9756619434251
 31
0
  0
LINE
  8
1
 62
2
 10
449.0533849413539
 20
317.3506619434251
 30
0
 11
448.5533849413539
 21
315.6631619434251
 31
0
  0
LINE
  8
1
 62
2
 10
450.8033849413539
 20
315.3819119434251
 30
0
 11
448.5533849413539
 21
315.3819119434251
 31
0
  0
LINE
  8
1
 62
2
 10
450.3033849413539
 20
313.6944119434251
 30
0
 11
450.8033849413539
 21
315.3819119434251
 31
0
  0
LINE
  8
1
 62
2
 10
449.8033849413539
 20
312.5694119434251
 30
0
 11
450.3033849413539
 21
313.6944119434251
 31
0
  0
LINE
  8
1
 62
2
 10
448.8033849413539
 20
310.8819119434251
 30
0
 11
449.8033849413539
 21
312.5694119434251
 31
0
  0
LINE
  8
1
 62
2
 10
447.3033849413539
 20
308.9131619434251
 30
0
 11
448.8033849413539
 21
310.8819119434251
 31
0
  0
LINE
  8
1
 62
2
 10
431.9533849413539
 20
314.6506619434251
 30
0
 11
433.7533849413539
 21
314.6506619434251
 31
0
  0
LINE
  8
1
 62
2
 10
431.9533849413539
 20
314.6506619434251
 30
0
 11
431.9533849413539
 21
308.3506619434251
 31
0
  0
LINE
  8
1
 62
2
 10
435.1033849413539
 20
313.5256619434251
 30
0
 11
435.1033849413539
 21
308.3506619434251
 31
0
  0
LINE
  8
1
 62
2
 10
434.8783849413539
 20
313.9756619434251
 30
0
 11
435.1033849413539
 21
313.5256619434251
 31
0
  0
LINE
  8
1
 62
2
 10
434.4283849413539
 20
314.4256619434251
 30
0
 11
434.8783849413539
 21
313.9756619434251
 31
0
  0
LINE
  8
1
 62
2
 10
433.7533849413539
 20
314.6506619434251
 30
0
 11
434.4283849413539
 21
314.4256619434251
 31
0
  0
LINE
  8
1
 62
2
 10
428.8033849413539
 20
314.6506619434251
 30
0
 11
431.9533849413539
 21
314.6506619434251
 31
0
  0
LINE
  8
1
 62
2
 10
428.8033849413539
 20
308.3506619434251
 30
0
 11
428.8033849413539
 21
314.6506619434251
 31
0
  0
LINE
  8
1
 62
2
 10
422.9533849413539
 20
314.6506619434251
 30
0
 11
424.7533849413539
 21
314.6506619434251
 31
0
  0
LINE
  8
1
 62
2
 10
422.9533849413539
 20
314.6506619434251
 30
0
 11
422.9533849413539
 21
308.3506619434251
 31
0
  0
LINE
  8
1
 62
2
 10
426.1033849413539
 20
313.5256619434251
 30
0
 11
426.1033849413539
 21
308.3506619434251
 31
0
  0
LINE
  8
1
 62
2
 10
425.8783849413539
 20
313.9756619434251
 30
0
 11
426.1033849413539
 21
313.5256619434251
 31
0
  0
LINE
  8
1
 62
2
 10
425.4283849413539
 20
314.4256619434251
 30
0
 11
425.8783849413539
 21
313.9756619434251
 31
0
  0
LINE
  8
1
 62
2
 10
424.7533849413539
 20
314.6506619434251
 30
0
 11
425.4283849413539
 21
314.4256619434251
 31
0
  0
LINE
  8
1
 62
2
 10
419.8033849413539
 20
314.6506619434251
 30
0
 11
422.9533849413539
 21
314.6506619434251
 31
0
  0
LINE
  8
1
 62
2
 10
419.8033849413539
 20
308.3506619434251
 30
0
 11
419.8033849413539
 21
314.6506619434251
 31
0
  0
LINE
  8
1
 62
2
 10
415.0783849413539
 20
308.3506619434251
 30
0
 11
411.7033849413539
 21
308.3506619434251
 31
0
  0
LINE
  8
1
 62
2
 10
415.7533849413539
 20
308.5756619434251
 30
0
 11
415.0783849413539
 21
308.3506619434251
 31
0
  0
LINE
  8
1
 62
2
 10
416.4283849413539
 20
309.0256619434251
 30
0
 11
415.7533849413539
 21
308.5756619434251
 31
0
  0
LINE
  8
1
 62
2
 10
416.8783849413539
 20
309.7006619434251
 30
0
 11
416.4283849413539
 21
309.0256619434251
 31
0
  0
LINE
  8
1
 62
2
 10
417.1033849413539
 20
310.6006619434251
 30
0
 11
416.8783849413539
 21
309.7006619434251
 31
0
  0
LINE
  8
1
 62
2
 10
417.1033849413539
 20
311.9506619434251
 30
0
 11
417.1033849413539
 21
310.6006619434251
 31
0
  0
LINE
  8
1
 62
2
 10
416.8783849413539
 20
312.8506619434251
 30
0
 11
417.1033849413539
 21
311.9506619434251
 31
0
  0
LINE
  8
1
 62
2
 10
416.2033849413539
 20
313.5256619434251
 30
0
 11
416.8783849413539
 21
312.8506619434251
 31
0
  0
LINE
  8
1
 62
2
 10
415.0783849413539
 20
313.7506619434251
 30
0
 11
416.2033849413539
 21
313.5256619434251
 31
0
  0
LINE
  8
1
 62
2
 10
411.7033849413539
 20
313.7506619434251
 30
0
 11
415.0783849413539
 21
313.7506619434251
 31
0
  0
LINE
  8
1
 62
2
 10
411.7033849413539
 20
317.3506619434251
 30
0
 11
411.7033849413539
 21
313.7506619434251
 31
0
  0
LINE
  8
1
 62
2
 10
416.6533849413539
 20
317.3506619434251
 30
0
 11
411.7033849413539
 21
317.3506619434251
 31
0
  0
LINE
  8
1
 62
2
 10
403.6033849413539
 20
308.3506619434251
 30
0
 11
409.0033849413539
 21
308.3506619434251
 31
0
  0
LINE
  8
1
 62
2
 10
408.5533849413539
 20
314.2006619434251
 30
0
 11
403.6033849413539
 21
308.3506619434251
 31
0
  0
LINE
  8
1
 62
2
 10
409.0033849413539
 20
315.1006619434251
 30
0
 11
408.5533849413539
 21
314.2006619434251
 31
0
  0
LINE
  8
1
 62
2
 10
409.0033849413539
 20
316.0006619434251
 30
0
 11
409.0033849413539
 21
315.1006619434251
 31
0
  0
LINE
  8
1
 62
2
 10
408.5533849413539
 20
316.6756619434251
 30
0
 11
409.0033849413539
 21
316.0006619434251
 31
0
  0
LINE
  8
1
 62
2
 10
407.8783849413539
 20
317.1256619434251
 30
0
 11
408.5533849413539
 21
316.6756619434251
 31
0
  0
LINE
  8
1
 62
2
 10
406.9783849413539
 20
317.3506619434251
 30
0
 11
407.8783849413539
 21
317.1256619434251
 31
0
  0
LINE
  8
1
 62
2
 10
405.6283849413539
 20
317.3506619434251
 30
0
 11
406.9783849413539
 21
317.3506619434251
 31
0
  0
LINE
  8
1
 62
2
 10
404.7283849413539
 20
317.1256619434251
 30
0
 11
405.6283849413539
 21
317.3506619434251
 31
0
  0
LINE
  8
1
 62
2
 10
404.0533849413539
 20
316.6756619434251
 30
0
 11
404.7283849413539
 21
317.1256619434251
 31
0
  0
LINE
  8
1
 62
2
 10
403.6033849413539
 20
316.0006619434251
 30
0
 11
404.0533849413539
 21
316.6756619434251
 31
0
  0
LINE
  8
1
 62
2
 10
397.6033849413539
 20
316.7881619434251
 30
0
 11
395.1033849413539
 21
316.7881619434251
 31
0
  0
LINE
  8
1
 62
2
 10
398.8533849413539
 20
308.6319119434251
 30
0
 11
402.3533849413539
 21
308.6319119434251
 31
0
  0
LINE
  8
1
 62
2
 10
398.8533849413539
 20
312.0069119434251
 30
0
 11
398.8533849413539
 21
308.6319119434251
 31
0
  0
LINE
  8
1
 62
2
 10
401.8533849413539
 20
312.0069119434251
 30
0
 11
401.1033849413539
 21
312.0069119434251
 31
0
  0
LINE
  8
1
 62
2
 10
401.8533849413539
 20
317.0694119434251
 30
0
 11
401.8533849413539
 21
312.0069119434251
 31
0
  0
LINE
  8
1
 62
2
 10
400.1033849413539
 20
313.1319119434251
 30
0
 11
400.1033849413539
 21
316.7881619434251
 31
0
  0
LINE
  8
1
 62
2
 10
397.6033849413539
 20
316.7881619434251
 30
0
 11
397.6033849413539
 21
312.0069119434251
 31
0
  0
LINE
  8
1
 62
2
 10
394.8533849413539
 20
314.8194119434251
 30
0
 11
399.1033849413539
 21
314.8194119434251
 31
0
  0
LINE
  8
1
 62
2
 10
398.8533849413539
 20
316.7881619434251
 30
0
 11
397.6033849413539
 21
316.7881619434251
 31
0
  0
LINE
  8
1
 62
2
 10
396.3533849413539
 20
314.8194119434251
 30
0
 11
396.3533849413539
 21
316.7881619434251
 31
0
  0
LINE
  8
1
 62
2
 10
395.8533849413539
 20
312.8506619434251
 30
0
 11
396.3533849413539
 21
314.8194119434251
 31
0
  0
LINE
  8
1
 62
2
 10
395.1033849413539
 20
311.7256619434251
 30
0
 11
395.8533849413539
 21
312.8506619434251
 31
0
  0
LINE
  8
1
 62
2
 10
401.3533849413539
 20
310.6006619434251
 30
0
 11
395.8533849413539
 21
310.6006619434251
 31
0
  0
LINE
  8
1
 62
2
 10
395.1033849413539
 20
308.6319119434251
 30
0
 11
398.8533849413539
 21
308.6319119434251
 31
0
  0
LINE
  8
1
 62
2
 10
388.3033849413539
 20
317.3506619434251
 30
0
 11
391.9033849413539
 21
308.3506619434251
 31
0
  0
LINE
  8
1
 62
2
 10
384.7033849413539
 20
308.3506619434251
 30
0
 11
388.3033849413539
 21
317.3506619434251
 31
0
  0
LINE
  8
1
 62
2
 10
385.8283849413539
 20
311.0506619434251
 30
0
 11
390.7783849413539
 21
311.0506619434251
 31
0
  0
LINE
  8
1
 62
2
 10
381.7783849413539
 20
315.5506619434251
 30
0
 11
382.0033849413539
 21
314.6506619434251
 31
0
  0
LINE
  8
1
 62
2
 10
381.3283849413539
 20
316.2256619434251
 30
0
 11
381.7783849413539
 21
315.5506619434251
 31
0
  0
LINE
  8
1
 62
2
 10
380.8783849413539
 20
316.6756619434251
 30
0
 11
381.3283849413539
 21
316.2256619434251
 31
0
  0
LINE
  8
1
 62
2
 10
380.2033849413539
 20
317.1256619434251
 30
0
 11
380.8783849413539
 21
316.6756619434251
 31
0
  0
LINE
  8
1
 62
2
 10
379.3033849413539
 20
317.3506619434251
 30
0
 11
380.2033849413539
 21
317.1256619434251
 31
0
  0
LINE
  8
1
 62
2
 10
375.7033849413539
 20
317.3506619434251
 30
0
 11
379.3033849413539
 21
317.3506619434251
 31
0
  0
LINE
  8
1
 62
2
 10
375.7033849413539
 20
308.3506619434251
 30
0
 11
375.7033849413539
 21
317.3506619434251
 31
0
  0
LINE
  8
1
 62
2
 10
379.3033849413539
 20
308.3506619434251
 30
0
 11
375.7033849413539
 21
308.3506619434251
 31
0
  0
LINE
  8
1
 62
2
 10
380.2033849413539
 20
308.5756619434251
 30
0
 11
379.3033849413539
 21
308.3506619434251
 31
0
  0
LINE
  8
1
 62
2
 10
380.8783849413539
 20
309.0256619434251
 30
0
 11
380.2033849413539
 21
308.5756619434251
 31
0
  0
LINE
  8
1
 62
2
 10
381.3283849413539
 20
309.4756619434251
 30
0
 11
380.8783849413539
 21
309.0256619434251
 31
0
  0
LINE
  8
1
 62
2
 10
381.7783849413539
 20
310.1506619434251
 30
0
 11
381.3283849413539
 21
309.4756619434251
 31
0
  0
LINE
  8
1
 62
2
 10
382.0033849413539
 20
311.0506619434251
 30
0
 11
381.7783849413539
 21
310.1506619434251
 31
0
  0
LINE
  8
1
 62
2
 10
382.0033849413539
 20
314.6506619434251
 30
0
 11
382.0033849413539
 21
311.0506619434251
 31
0
  0
LINE
  8
1
 62
2
 10
366.7033849413539
 20
311.0506619434251
 30
0
 11
366.7033849413539
 21
317.3506619434251
 31
0
  0
LINE
  8
1
 62
2
 10
366.7033849413539
 20
308.3506619434251
 30
0
 11
366.7033849413539
 21
311.0506619434251
 31
0
  0
LINE
  8
1
 62
2
 10
368.5033849413539
 20
312.8506619434251
 30
0
 11
373.0033849413539
 21
308.3506619434251
 31
0
  0
LINE
  8
1
 62
2
 10
373.0033849413539
 20
317.3506619434251
 30
0
 11
368.5033849413539
 21
312.8506619434251
 31
0
  0
LINE
  8
1
 62
2
 10
368.5033849413539
 20
312.8506619434251
 30
0
 11
366.7033849413539
 21
311.0506619434251
 31
0
  0
LINE
  8
1
 62
2
 10
364.0033849413539
 20
313.3006619434251
 30
0
 11
361.7533849413539
 21
313.3006619434251
 31
0
  0
LINE
  8
1
 62
2
 10
364.0033849413539
 20
308.3506619434251
 30
0
 11
364.0033849413539
 21
313.3006619434251
 31
0
  0
LINE
  8
1
 62
2
 10
360.1783849413539
 20
308.3506619434251
 30
0
 11
364.0033849413539
 21
308.3506619434251
 31
0
  0
LINE
  8
1
 62
2
 10
359.5033849413539
 20
308.5756619434251
 30
0
 11
360.1783849413539
 21
308.3506619434251
 31
0
  0
LINE
  8
1
 62
2
 10
358.6033849413539
 20
309.0256619434251
 30
0
 11
359.5033849413539
 21
308.5756619434251
 31
0
  0
LINE
  8
1
 62
2
 10
358.1533849413539
 20
309.4756619434251
 30
0
 11
358.6033849413539
 21
309.0256619434251
 31
0
  0
LINE
  8
1
 62
2
 10
357.9283849413539
 20
310.1506619434251
 30
0
 11
358.1533849413539
 21
309.4756619434251
 31
0
  0
LINE
  8
1
 62
2
 10
357.7033849413539
 20
311.0506619434251
 30
0
 11
357.9283849413539
 21
310.1506619434251
 31
0
  0
LINE
  8
1
 62
2
 10
357.7033849413539
 20
314.6506619434251
 30
0
 11
357.7033849413539
 21
311.0506619434251
 31
0
  0
LINE
  8
1
 62
2
 10
357.9283849413539
 20
315.5506619434251
 30
0
 11
357.7033849413539
 21
314.6506619434251
 31
0
  0
LINE
  8
1
 62
2
 10
358.1533849413539
 20
316.2256619434251
 30
0
 11
357.9283849413539
 21
315.5506619434251
 31
0
  0
LINE
  8
1
 62
2
 10
358.6033849413539
 20
316.6756619434251
 30
0
 11
358.1533849413539
 21
316.2256619434251
 31
0
  0
LINE
  8
1
 62
2
 10
359.2783849413539
 20
317.1256619434251
 30
0
 11
358.6033849413539
 21
316.6756619434251
 31
0
  0
LINE
  8
1
 62
2
 10
360.1783849413539
 20
317.3506619434251
 30
0
 11
359.2783849413539
 21
317.1256619434251
 31
0
  0
LINE
  8
1
 62
2
 10
364.0033849413539
 20
317.3506619434251
 30
0
 11
360.1783849413539
 21
317.3506619434251
 31
0
  0
LINE
  8
1
 62
2
 10
462.3783849413539
 20
288.6944119434251
 30
0
 11
462.6283849413539
 21
288.9756619434251
 31
0
  0
LINE
  8
1
 62
2
 10
462.3783849413539
 20
290.3819119434251
 30
0
 11
460.8783849413539
 21
290.3819119434251
 31
0
  0
LINE
  8
1
 62
2
 10
466.1283849413539
 20
283.9131619434251
 30
0
 11
468.3783849413539
 21
283.9131619434251
 31
0
  0
LINE
  8
1
 62
2
 10
463.6283849413539
 20
283.9131619434251
 30
0
 11
466.1283849413539
 21
283.9131619434251
 31
0
  0
LINE
  8
1
 62
2
 10
466.1283849413539
 20
292.0694119434251
 30
0
 11
466.1283849413539
 21
283.9131619434251
 31
0
  0
LINE
  8
1
 62
2
 10
464.3783849413539
 20
288.6944119434251
 30
0
 11
467.8783849413539
 21
288.6944119434251
 31
0
  0
LINE
  8
1
 62
2
 10
462.8783849413539
 20
288.4131619434251
 30
0
 11
464.1283849413539
 21
287.0069119434251
 31
0
  0
LINE
  8
1
 62
2
 10
462.3783849413539
 20
290.3819119434251
 30
0
 11
462.3783849413539
 21
292.0694119434251
 31
0
  0
LINE
  8
1
 62
2
 10
463.6283849413539
 20
290.3819119434251
 30
0
 11
462.3783849413539
 21
290.3819119434251
 31
0
  0
LINE
  8
1
 62
2
 10
462.6283849413539
 20
288.9756619434251
 30
0
 11
463.6283849413539
 21
290.3819119434251
 31
0
  0
LINE
  8
1
 62
2
 10
461.3783849413539
 20
287.5694119434251
 30
0
 11
462.3783849413539
 21
288.6944119434251
 31
0
  0
LINE
  8
1
 62
2
 10
460.3783849413539
 20
286.7256619434251
 30
0
 11
461.3783849413539
 21
287.5694119434251
 31
0
  0
LINE
  8
1
 62
2
 10
462.3783849413539
 20
283.6319119434251
 30
0
 11
462.3783849413539
 21
288.6944119434251
 31
0
  0
LINE
  8
1
 62
2
 10
455.3783849413539
 20
286.7256619434251
 30
0
 11
452.8783849413539
 21
283.6319119434251
 31
0
  0
LINE
  8
1
 62
2
 10
457.6283849413539
 20
284.1944119434251
 30
0
 11
456.6283849413539
 21
285.3194119434251
 31
0
  0
LINE
  8
1
 62
2
 10
458.3783849413539
 20
283.3506619434251
 30
0
 11
457.6283849413539
 21
284.1944119434251
 31
0
  0
LINE
  8
1
 62
2
 10
452.1283849413539
 20
283.6319119434251
 30
0
 11
457.6283849413539
 21
284.1944119434251
 31
0
  0
LINE
  8
1
 62
2
 10
452.6283849413539
 20
287.0069119434251
 30
0
 11
458.3783849413539
 21
287.0069119434251
 31
0
  0
LINE
  8
1
 62
2
 10
453.6283849413539
 20
288.4131619434251
 30
0
 11
457.1283849413539
 21
288.4131619434251
 31
0
  0
LINE
  8
1
 62
2
 10
455.3783849413539
 20
292.0694119434251
 30
0
 11
459.3783849413539
 21
287.8506619434251
 31
0
  0
LINE
  8
1
 62
2
 10
455.3783849413539
 20
292.0694119434251
 30
0
 11
451.3783849413539
 21
287.8506619434251
 31
0
  0
LINE
  8
1
 62
2
 10
444.6283849413539
 20
288.1319119434251
 30
0
 11
442.8783849413539
 21
288.1319119434251
 31
0
  0
LINE
  8
1
 62
2
 10
444.6283849413539
 20
285.0381619434251
 30
0
 11
446.3783849413539
 21
285.6006619434251
 31
0
  0
LINE
  8
1
 62
2
 10
449.6283849413539
 20
283.6319119434251
 30
0
 11
450.3783849413539
 21
284.4756619434251
 31
0
  0
LINE
  8
1
 62
2
 10
448.6283849413539
 20
284.7569119434251
 30
0
 11
449.6283849413539
 21
283.6319119434251
 31
0
  0
LINE
  8
1
 62
2
 10
447.6283849413539
 20
286.7256619434251
 30
0
 11
448.6283849413539
 21
284.7569119434251
 31
0
  0
LINE
  8
1
 62
2
 10
447.1283849413539
 20
288.9756619434251
 30
0
 11
447.6283849413539
 21
286.7256619434251
 31
0
  0
LINE
  8
1
 62
2
 10
446.8783849413539
 20
292.3506619434251
 30
0
 11
447.1283849413539
 21
288.9756619434251
 31
0
  0
LINE
  8
1
 62
2
 10
448.3783849413539
 20
291.2256619434251
 30
0
 11
447.6283849413539
 21
292.0694119434251
 31
0
  0
LINE
  8
1
 62
2
 10
442.3783849413539
 20
290.3819119434251
 30
0
 11
449.6283849413539
 21
290.3819119434251
 31
0
  0
LINE
  8
1
 62
2
 10
444.6283849413539
 20
288.1319119434251
 30
0
 11
444.6283849413539
 21
285.0381619434251
 31
0
  0
LINE
  8
1
 62
2
 10
446.3783849413539
 20
288.1319119434251
 30
0
 11
444.6283849413539
 21
288.1319119434251
 31
0
  0
LINE
  8
1
 62
2
 10
442.8783849413539
 20
284.4756619434251
 30
0
 11
444.6283849413539
 21
285.0381619434251
 31
0
  0
LINE
  8
1
 62
2
 10
435.1283849413539
 20
289.8194119434251
 30
0
 11
435.1283849413539
 21
292.3506619434251
 31
0
  0
LINE
  8
1
 62
2
 10
435.1283849413539
 20
289.8194119434251
 30
0
 11
433.8783849413539
 21
289.8194119434251
 31
0
  0
LINE
  8
1
 62
2
 10
440.1283849413539
 20
285.6006619434251
 30
0
 11
441.1283849413539
 21
283.6319119434251
 31
0
  0
LINE
  8
1
 62
2
 10
438.8783849413539
 20
288.1319119434251
 30
0
 11
440.1283849413539
 21
285.6006619434251
 31
0
  0
LINE
  8
1
 62
2
 10
438.1283849413539
 20
286.1631619434251
 30
0
 11
438.8783849413539
 21
288.1319119434251
 31
0
  0
LINE
  8
1
 62
2
 10
437.1283849413539
 20
284.7569119434251
 30
0
 11
438.1283849413539
 21
286.1631619434251
 31
0
  0
LINE
  8
1
 62
2
 10
436.3783849413539
 20
283.6319119434251
 30
0
 11
437.1283849413539
 21
284.7569119434251
 31
0
  0
LINE
  8
1
 62
2
 10
438.8783849413539
 20
292.3506619434251
 30
0
 11
438.8783849413539
 21
283.3506619434251
 31
0
  0
LINE
  8
1
 62
2
 10
441.1283849413539
 20
288.1319119434251
 30
0
 11
436.8783849413539
 21
288.1319119434251
 31
0
  0
LINE
  8
1
 62
2
 10
437.6283849413539
 20
290.1006619434251
 30
0
 11
440.8783849413539
 21
290.1006619434251
 31
0
  0
LINE
  8
1
 62
2
 10
437.6283849413539
 20
290.1006619434251
 30
0
 11
437.8783849413539
 21
291.5069119434251
 31
0
  0
LINE
  8
1
 62
2
 10
436.8783849413539
 20
288.6944119434251
 30
0
 11
437.6283849413539
 21
290.1006619434251
 31
0
  0
LINE
  8
1
 62
2
 10
435.1283849413539
 20
289.8194119434251
 30
0
 11
436.3783849413539
 21
287.5694119434251
 31
0
  0
LINE
  8
1
 62
2
 10
433.6283849413539
 20
285.8819119434251
 30
0
 11
435.1283849413539
 21
289.8194119434251
 31
0
  0
LINE
  8
1
 62
2
 10
436.3783849413539
 20
289.8194119434251
 30
0
 11
435.1283849413539
 21
289.8194119434251
 31
0
  0
LINE
  8
1
 62
2
 10
435.1283849413539
 20
283.6319119434251
 30
0
 11
435.1283849413539
 21
289.8194119434251
 31
0
  0
LINE
  8
1
 62
2
 10
425.1283849413539
 20
288.9756619434251
 30
0
 11
425.1283849413539
 21
290.3819119434251
 31
0
  0
LINE
  8
1
 62
2
 10
427.6283849413539
 20
290.3819119434251
 30
0
 11
427.6283849413539
 21
288.9756619434251
 31
0
  0
LINE
  8
1
 62
2
 10
425.1283849413539
 20
290.3819119434251
 30
0
 11
425.1283849413539
 21
291.7881619434251
 31
0
  0
LINE
  8
1
 62
2
 10
431.6283849413539
 20
288.9756619434251
 30
0
 11
431.6283849413539
 21
290.3819119434251
 31
0
  0
LINE
  8
1
 62
2
 10
429.1283849413539
 20
290.3819119434251
 30
0
 11
429.1283849413539
 21
288.9756619434251
 31
0
  0
LINE
  8
1
 62
2
 10
431.6283849413539
 20
290.3819119434251
 30
0
 11
431.6283849413539
 21
291.7881619434251
 31
0
  0
LINE
  8
1
 62
2
 10
425.1283849413539
 20
283.9131619434251
 30
0
 11
425.1283849413539
 21
283.6319119434251
 31
0
  0
LINE
  8
1
 62
2
 10
429.1283849413539
 20
290.3819119434251
 30
0
 11
431.6283849413539
 21
290.3819119434251
 31
0
  0
LINE
  8
1
 62
2
 10
429.1283849413539
 20
288.9756619434251
 30
0
 11
431.6283849413539
 21
288.9756619434251
 31
0
  0
LINE
  8
1
 62
2
 10
429.1283849413539
 20
291.7881619434251
 30
0
 11
429.1283849413539
 21
290.3819119434251
 31
0
  0
LINE
  8
1
 62
2
 10
431.6283849413539
 20
291.7881619434251
 30
0
 11
429.1283849413539
 21
291.7881619434251
 31
0
  0
LINE
  8
1
 62
2
 10
431.6283849413539
 20
283.9131619434251
 30
0
 11
431.6283849413539
 21
288.9756619434251
 31
0
  0
LINE
  8
1
 62
2
 10
431.3783849413539
 20
283.6319119434251
 30
0
 11
431.6283849413539
 21
283.9131619434251
 31
0
  0
LINE
  8
1
 62
2
 10
430.6283849413539
 20
283.6319119434251
 30
0
 11
431.3783849413539
 21
283.6319119434251
 31
0
  0
LINE
  8
1
 62
2
 10
427.6283849413539
 20
290.3819119434251
 30
0
 11
425.1283849413539
 21
290.3819119434251
 31
0
  0
LINE
  8
1
 62
2
 10
427.6283849413539
 20
288.9756619434251
 30
0
 11
425.1283849413539
 21
288.9756619434251
 31
0
  0
LINE
  8
1
 62
2
 10
427.6283849413539
 20
291.7881619434251
 30
0
 11
427.6283849413539
 21
290.3819119434251
 31
0
  0
LINE
  8
1
 62
2
 10
425.1283849413539
 20
291.7881619434251
 30
0
 11
427.6283849413539
 21
291.7881619434251
 31
0
  0
LINE
  8
1
 62
2
 10
425.1283849413539
 20
283.9131619434251
 30
0
 11
425.1283849413539
 21
288.9756619434251
 31
0
  0
LINE
  8
1
 62
2
 10
419.3783849413539
 20
283.6319119434251
 30
0
 11
422.3783849413539
 21
283.6319119434251
 31
0
  0
LINE
  8
1
 62
2
 10
419.3783849413539
 20
288.9756619434251
 30
0
 11
421.1283849413539
 21
288.9756619434251
 31
0
  0
LINE
  8
1
 62
2
 10
422.3783849413539
 20
288.6944119434251
 30
0
 11
423.3783849413539
 21
287.8506619434251
 31
0
  0
LINE
  8
1
 62
2
 10
420.6283849413539
 20
290.6631619434251
 30
0
 11
422.3783849413539
 21
288.6944119434251
 31
0
  0
LINE
  8
1
 62
2
 10
419.3783849413539
 20
292.3506619434251
 30
0
 11
420.6283849413539
 21
290.6631619434251
 31
0
  0
LINE
  8
1
 62
2
 10
418.1283849413539
 20
290.6631619434251
 30
0
 11
419.3783849413539
 21
292.3506619434251
 31
0
  0
LINE
  8
1
 62
2
 10
416.3783849413539
 20
288.6944119434251
 30
0
 11
418.1283849413539
 21
290.6631619434251
 31
0
  0
LINE
  8
1
 62
2
 10
415.3783849413539
 20
287.8506619434251
 30
0
 11
416.3783849413539
 21
288.6944119434251
 31
0
  0
LINE
  8
1
 62
2
 10
420.6283849413539
 20
284.7569119434251
 30
0
 11
421.1283849413539
 21
286.1631619434251
 31
0
  0
LINE
  8
1
 62
2
 10
417.6283849413539
 20
286.1631619434251
 30
0
 11
418.1283849413539
 21
284.7569119434251
 31
0
  0
LINE
  8
1
 62
2
 10
421.8783849413539
 20
287.2881619434251
 30
0
 11
416.8783849413539
 21
287.2881619434251
 31
0
  0
LINE
  8
1
 62
2
 10
417.6283849413539
 20
288.9756619434251
 30
0
 11
419.3783849413539
 21
288.9756619434251
 31
0
  0
LINE
  8
1
 62
2
 10
419.3783849413539
 20
283.6319119434251
 30
0
 11
419.3783849413539
 21
288.9756619434251
 31
0
  0
LINE
  8
1
 62
2
 10
416.1283849413539
 20
283.6319119434251
 30
0
 11
419.3783849413539
 21
283.6319119434251
 31
0
  0
LINE
  8
1
 62
2
 10
412.6283849413539
 20
286.1631619434251
 30
0
 11
413.8783849413539
 21
287.8506619434251
 31
0
  0
LINE
  8
1
 62
2
 10
410.6283849413539
 20
285.0381619434251
 30
0
 11
412.6283849413539
 21
286.1631619434251
 31
0
  0
LINE
  8
1
 62
2
 10
410.6283849413539
 20
290.1006619434251
 30
0
 11
410.6283849413539
 21
285.0381619434251
 31
0
  0
LINE
  8
1
 62
2
 10
408.6283849413539
 20
287.8506619434251
 30
0
 11
408.8783849413539
 21
290.1006619434251
 31
0
  0
LINE
  8
1
 62
2
 10
408.1283849413539
 20
286.1631619434251
 30
0
 11
408.6283849413539
 21
287.8506619434251
 31
0
  0
LINE
  8
1
 62
2
 10
407.3783849413539
 20
284.7569119434251
 30
0
 11
408.1283849413539
 21
286.1631619434251
 31
0
  0
LINE
  8
1
 62
2
 10
398.8783849413539
 20
287.0069119434251
 30
0
 11
398.8783849413539
 21
285.3194119434251
 31
0
  0
LINE
  8
1
 62
2
 10
401.6283849413539
 20
284.1944119434251
 30
0
 11
403.1283849413539
 21
284.4756619434251
 31
0
  0
LINE
  8
1
 62
2
 10
399.1283849413539
 20
284.4756619434251
 30
0
 11
401.6283849413539
 21
284.1944119434251
 31
0
  0
LINE
  8
1
 62
2
 10
398.8783849413539
 20
285.3194119434251
 30
0
 11
399.1283849413539
 21
284.4756619434251
 31
0
  0
LINE
  8
1
 62
2
 10
398.8783849413539
 20
290.1006619434251
 30
0
 11
398.8783849413539
 21
287.0069119434251
 31
0
  0
LINE
  8
1
 62
2
 10
403.6283849413539
 20
290.6631619434251
 30
0
 11
404.3783849413539
 21
289.8194119434251
 31
0
  0
LINE
  8
1
 62
2
 10
403.8783849413539
 20
289.2569119434251
 30
0
 11
403.1283849413539
 21
290.1006619434251
 31
0
  0
LINE
  8
1
 62
2
 10
401.1283849413539
 20
287.8506619434251
 30
0
 11
402.6283849413539
 21
288.6944119434251
 31
0
  0
LINE
  8
1
 62
2
 10
398.8783849413539
 20
287.0069119434251
 30
0
 11
401.1283849413539
 21
287.8506619434251
 31
0
  0
LINE
  8
1
 62
2
 10
393.3783849413539
 20
286.1631619434251
 30
0
 11
394.8783849413539
 21
284.4756619434251
 31
0
  0
LINE
  8
1
 62
2
 10
392.1283849413539
 20
287.2881619434251
 30
0
 11
393.3783849413539
 21
286.1631619434251
 31
0
  0
LINE
  8
1
 62
2
 10
395.1283849413539
 20
291.2256619434251
 30
0
 11
395.8783849413539
 21
290.3819119434251
 31
0
  0
LINE
  8
1
 62
2
 10
394.6283849413539
 20
290.6631619434251
 30
0
 11
395.3783849413539
 21
289.8194119434251
 31
0
  0
LINE
  8
1
 62
2
 10
393.6283849413539
 20
290.1006619434251
 30
0
 11
390.3783849413539
 21
290.1006619434251
 31
0
  0
LINE
  8
1
 62
2
 10
392.8783849413539
 20
288.4131619434251
 30
0
 11
393.6283849413539
 21
290.1006619434251
 31
0
  0
LINE
  8
1
 62
2
 10
391.1283849413539
 20
285.8819119434251
 30
0
 11
392.8783849413539
 21
288.4131619434251
 31
0
  0
LINE
  8
1
 62
2
 10
389.3783849413539
 20
284.4756619434251
 30
0
 11
391.1283849413539
 21
285.8819119434251
 31
0
  0
LINE
  8
1
 62
2
 10
386.3783849413539
 20
289.8194119434251
 30
0
 11
384.1283849413539
 21
287.2881619434251
 31
0
  0
LINE
  8
1
 62
2
 10
380.6283849413539
 20
289.8194119434251
 30
0
 11
386.3783849413539
 21
289.8194119434251
 31
0
  0
LINE
  8
1
 62
2
 10
383.3783849413539
 20
287.2881619434251
 30
0
 11
383.6283849413539
 21
288.6944119434251
 31
0
  0
LINE
  8
1
 62
2
 10
382.8783849413539
 20
285.6006619434251
 30
0
 11
383.3783849413539
 21
287.2881619434251
 31
0
  0
LINE
  8
1
 62
2
 10
381.8783849413539
 20
283.9131619434251
 30
0
 11
382.8783849413539
 21
285.6006619434251
 31
0
  0
LINE
  8
1
 62
2
  6
DIVIDE
 10
358.8783849413539
 20
394.2728782368495
 30
0
 11
358.8783849413539
 21
401.2025246924778
 31
0
  0
LINE
  8
1
 62
2
  6
DIVIDE
 10
368.9194426555591
 20
394.2728782368495
 30
0
 11
358.8783849413539
 21
394.2728782368495
 31
0
  0
LINE
  8
1
 62
2
  6
DIVIDE
 10
368.9194426555591
 20
401.2025246924778
 30
0
 11
368.9194426555591
 21
394.2728782368495
 31
0
  0
LINE
  8
1
 62
2
  6
DIVIDE
 10
358.8783849413539
 20
401.2025246924778
 30
0
 11
368.9194426555591
 21
401.2025246924778
 31
0
  0
LINE
  8
1
 62
2
  6
DASHDOT
 10
305.9315907953752
 20
557.9248194360084
 30
0
 11
536.2676483627608
 21
557.9248194360084
 31
0
  0
LINE
  8
1
 62
7
 10
334.9544458863629
 20
542.6248505272134
 30
0
 11
386.2695736500793
 21
531.1170010314739
 31
0
  0
LINE
  8
1
 62
7
 10
368.97057487724
 20
533.97199404756
 30
0
 11
369.162595192243
 21
534.9533849985201
 31
0
  0
LINE
  8
1
 62
7
 10
365.066052641638
 20
534.8476160365955
 30
0
 11
368.97057487724
 21
533.97199404756
 31
0
  0
LINE
  8
1
 62
7
 10
365.2580729566407
 20
535.8290069875554
 30
0
 11
365.066052641638
 21
534.8476160365955
 31
0
  0
LINE
  8
1
 62
7
 10
362.9286985043604
 20
535.3269356992911
 30
0
 11
363.1207188193633
 21
536.3083266502511
 31
0
  0
LINE
  8
1
 62
7
 10
359.0241762687582
 20
536.2025576883266
 30
0
 11
362.9286985043604
 21
535.3269356992911
 31
0
  0
LINE
  8
1
 62
7
 10
359.2161965837611
 20
537.1839486392865
 30
0
 11
359.0241762687582
 21
536.2025576883266
 31
0
  0
LINE
  8
1
 62
2
 10
316.955735210543
 20
536.9698194360084
 30
0
 11
316.955735210543
 21
578.8798194360085
 31
0
  0
LINE
  8
1
 62
2
 10
330.801866839532
 20
578.8798194360085
 30
0
 11
330.801866839532
 21
536.9698194360084
 31
0
  0
LINE
  8
1
 62
2
 10
511.9188720891099
 20
578.8798194360085
 30
0
 11
511.9188720891099
 21
536.9698194360084
 31
0
  0
LINE
  8
1
 62
2
 10
525.8010346721638
 20
536.9698194360084
 30
0
 11
525.8010346721638
 21
578.8798194360085
 31
0
  0
LINE
  8
1
 62
7
 10
507.801359554668
 20
541.6666351137324
 30
0
 11
461.484908633087
 21
531.1185280035134
 31
0
  0
LINE
  8
1
 62
7
 10
461.484908633087
 20
584.7311108685034
 30
0
 11
507.801359554668
 21
574.1830037582845
 31
0
  0
LINE
  8
1
 62
7
 10
511.3783849413538
 20
577.3798194360084
 30
0
 11
511.3783849413538
 21
538.4698194360085
 31
0
  0
LINE
  8
1
 62
7
 10
331.3783849413539
 20
538.4698194360085
 30
0
 11
331.3783849413539
 21
577.3798194360084
 31
0
  0
LINE
  8
1
 62
7
 10
386.2695736500793
 20
584.7326378405429
 30
0
 11
334.9544458863629
 21
573.2247883448035
 31
0
  0
LINE
  8
1
 62
7
 10
526.3783849413538
 20
538.4698194360085
 30
0
 11
526.3783849413538
 21
577.3798194360084
 31
0
  0
LINE
  8
1
 62
7
 10
511.9188720891099
 20
578.8798194360085
 30
0
 11
525.8010346721638
 21
578.8798194360085
 31
0
  0
LINE
  8
1
 62
7
 10
511.9188720891099
 20
536.9698194360084
 30
0
 11
525.8010346721638
 21
536.9698194360084
 31
0
  0
LINE
  8
1
 62
7
 10
526.3783849413538
 20
538.4698194360085
 30
0
 11
525.8010346721638
 21
536.9698194360084
 31
0
  0
LINE
  8
1
 62
7
 10
526.3783849413538
 20
577.3798194360084
 30
0
 11
525.8010346721638
 21
578.8798194360085
 31
0
  0
LINE
  8
1
 62
7
 10
511.9188720891099
 20
578.8798194360085
 30
0
 11
511.3783849413538
 21
577.3798194360084
 31
0
  0
LINE
  8
1
 62
7
 10
511.9188720891099
 20
536.9698194360084
 30
0
 11
511.3783849413538
 21
538.4698194360085
 31
0
  0
LINE
  8
1
 62
2
 10
511.3783849413538
 20
577.3798194360084
 30
0
 11
526.3783849413538
 21
577.3798194360084
 31
0
  0
LINE
  8
1
 62
2
 10
511.3783849413538
 20
538.4698194360085
 30
0
 11
526.3783849413538
 21
538.4698194360085
 31
0
  0
LINE
  8
1
 62
7
 10
316.3783849413539
 20
577.3798194360084
 30
0
 11
316.3783849413539
 21
538.4698194360085
 31
0
  0
LINE
  8
1
 62
7
 10
316.955735210543
 20
578.8798194360085
 30
0
 11
330.801866839532
 21
578.8798194360085
 31
0
  0
LINE
  8
1
 62
7
 10
316.955735210543
 20
536.9698194360084
 30
0
 11
330.801866839532
 21
536.9698194360084
 31
0
  0
LINE
  8
1
 62
7
 10
330.801866839532
 20
578.8798194360085
 30
0
 11
331.3783849413539
 21
577.3798194360084
 31
0
  0
LINE
  8
1
 62
7
 10
316.3783849413539
 20
577.3798194360084
 30
0
 11
316.955735210543
 21
578.8798194360085
 31
0
  0
LINE
  8
1
 62
7
 10
316.3783849413539
 20
538.4698194360085
 30
0
 11
316.955735210543
 21
536.9698194360084
 31
0
  0
LINE
  8
1
 62
7
 10
330.801866839532
 20
536.9698194360084
 30
0
 11
331.3783849413539
 21
538.4698194360085
 31
0
  0
LINE
  8
1
 62
2
 10
316.3783849413539
 20
577.3798194360084
 30
0
 11
331.3783849413539
 21
577.3798194360084
 31
0
  0
LINE
  8
1
 62
2
 10
316.3783849413539
 20
538.4698194360085
 30
0
 11
331.3783849413539
 21
538.4698194360085
 31
0
  0
LINE
  8
1
 62
7
 10
375.0124512501195
 20
532.617052395829
 30
0
 11
375.2044715651226
 21
533.5984433467888
 31
0
  0
LINE
  8
1
 62
7
 10
371.1079290145175
 20
533.4926743848644
 30
0
 11
375.0124512501195
 21
532.617052395829
 31
0
  0
LINE
  8
1
 62
7
 10
371.2999493295204
 20
534.4740653358243
 30
0
 11
371.1079290145175
 21
533.4926743848644
 31
0
  0
LINE
  8
1
 62
7
 10
511.3690229635118
 20
379.2728428337218
 30
0
 11
511.8680668134207
 21
378.2728782368495
 31
0
  0
LINE
  8
1
 62
7
 10
511.8680668134207
 20
378.2728782368495
 30
0
 11
511.9188720891099
 21
378.2728782368495
 31
0
  0
LINE
  8
1
 62
7
 10
469.2074161856999
 20
379.6274481579511
 30
0
 11
508.2990955081993
 21
382.0911789059458
 31
0
  0
LINE
  8
1
 62
7
 10
526.3783849413538
 20
379.2728782368495
 30
0
 11
526.3783849413487
 21
416.2728782368524
 31
0
  0
LINE
  8
1
 62
2
  6
DASHDOT
 10
442.783842936279
 20
397.7728782368495
 30
0
 11
531.392456537163
 21
397.7728782368495
 31
0
  0
LINE
  8
1
 62
2
 10
460.1283849413538
 20
434.7728782368495
 30
0
 11
387.6283849413541
 21
434.7728782368495
 31
0
  0
LINE
  8
1
 62
2
 10
384.9783849413536
 20
436.6828782368497
 30
0
 11
384.9783849413537
 21
435.4432075456986
 31
0
  0
LINE
  8
1
 62
7
 10
383.8783849413537
 20
436.6828782368497
 30
0
 11
383.8783849413538
 21
435.7728782368495
 31
0
  0
LINE
  8
1
 62
7
 10
463.8783849413537
 20
436.6828782368497
 30
0
 11
463.8783849413538
 21
435.7728782368495
 31
0
  0
LINE
  8
1
 62
2
 10
462.7783849413538
 20
435.4432075456986
 30
0
 11
462.7783849413538
 21
436.6828782368497
 31
0
  0
LINE
  8
1
 62
7
 10
316.955735210543
 20
378.2728782368495
 30
0
 11
330.801866839532
 21
378.2728782368495
 31
0
  0
LINE
  8
1
 62
2
 10
316.955735210543
 20
417.2728782368495
 30
0
 11
316.955735210543
 21
378.2728782368495
 31
0
  0
LINE
  8
1
 62
7
 10
474.3612439460969
 20
421.1089689866565
 30
0
 11
467.9261400171958
 21
422.2351121742144
 31
0
  0
LINE
  8
1
 62
2
  6
DASHDOT
 10
304.892456537163
 20
397.7728782368495
 30
0
 11
356.298061713998
 21
397.7728782368495
 31
0
  0
LINE
  8
1
 62
2
  6
DASHDOT
 10
423.8783849413539
 20
360.2369297886422
 30
0
 11
423.8783849413539
 21
384.943560368365
 31
0
  0
LINE
  8
1
 62
2
  6
DASHDOT
 10
467.401051187566
 20
426.2728782368495
 30
0
 11
467.8783849413539
 21
426.2728782368495
 31
0
  0
LINE
  8
1
 62
7
 10
376.937496971268
 20
418.1376183708704
 30
0
 11
334.6582197031249
 21
413.4879510072043
 31
0
  0
LINE
  8
1
 62
7
 10
403.6243626875768
 20
365.2600901226273
 30
0
 11
411.9510583555499
 21
364.976167445402
 31
0
  0
LINE
  8
1
 62
7
 10
453.8803973282328
 20
362.7728782368495
 30
0
 11
393.8783849413539
 21
362.7728782368495
 31
0
  0
LINE
  8
1
 62
7
 10
526.3783849413538
 20
416.2728782368495
 30
0
 11
525.8010346721638
 21
417.2728782368495
 31
0
  0
LINE
  8
1
 62
7
 10
316.955735210543
 20
417.2728782368495
 30
0
 11
330.801866839532
 21
417.2728782368495
 31
0
  0
LINE
  8
1
 62
7
 10
316.3783849413539
 20
379.2728782368495
 30
0
 11
316.955735210543
 21
378.2728782368495
 31
0
  0
LINE
  8
1
 62
7
 10
393.8783849413539
 20
363.921623683604
 30
0
 11
393.8783849413539
 21
362.7728782368495
 31
0
  0
LINE
  8
1
 62
7
 10
425.3783849413539
 20
363.7817060305358
 30
0
 11
425.3783849413539
 21
362.7728782368495
 31
0
  0
LINE
  8
1
 62
2
 10
316.3783849413539
 20
416.2728782368495
 30
0
 11
331.3792171087209
 21
416.2728782368495
 31
0
  0
LINE
  8
1
 62
2
 10
316.3783849413539
 20
379.2728782368495
 30
0
 11
331.3792171087209
 21
379.2728782368495
 31
0
  0
LINE
  8
1
 62
2
 10
511.3690200571667
 20
379.2728782368495
 30
0
 11
526.3783849413538
 21
379.2728782368495
 31
0
  0
LINE
  8
1
 62
7
 10
385.8783849413539
 20
433.7728782368495
 30
0
 11
385.8783849413539
 21
429.433132274694
 31
0
  0
LINE
  8
1
 62
7
 10
468.8783849413539
 20
429.2728782368495
 30
0
 11
461.8783849413539
 21
429.2728782368495
 31
0
  0
LINE
  8
1
 62
7
 10
471.8783849413539
 20
424.0640603881237
 30
0
 11
471.8783849413539
 21
426.2728782368495
 31
0
  0
LINE
  8
1
 62
2
  6
DASHDOT
 10
467.8783849413539
 20
426.2728782368495
 30
0
 11
470.4161019499149
 21
426.2728782368495
 31
0
  0
LINE
  8
1
 62
2
  6
DASHDOT
 10
468.8783849413539
 20
424.7713991006866
 30
0
 11
468.8783849413539
 21
427.6842447524473
 31
0
  0
LINE
  8
1
 62
7
 10
456.894732435393
 20
368.1338199691962
 30
0
 11
505.4726783347742
 21
381.9130455789178
 31
0
  0
LINE
  8
1
 62
7
 10
316.3783849413539
 20
379.2728782368495
 30
0
 11
316.955735210543
 21
378.2728782368495
 31
0
  0
LINE
  8
1
 62
7
 10
525.8010346721638
 20
378.2728782368495
 30
0
 11
526.3783849413538
 21
379.2728782368495
 31
0
  0
LINE
  8
1
 62
7
 10
316.955735210543
 20
417.2728782368495
 30
0
 11
316.3783849413539
 21
416.2728782368495
 31
0
  0
LINE
  8
1
 62
7
 10
316.3783849413539
 20
416.2728782368495
 30
0
 11
316.3783849413539
 21
379.2728782368495
 31
0
  0
LINE
  8
1
 62
7
 10
422.3783849413539
 20
362.7728782368495
 30
0
 11
422.3783849413539
 21
363.7817814836698
 31
0
  0
LINE
  8
1
 62
7
 10
330.801866839532
 20
378.2728782368495
 30
0
 11
331.3792171087209
 21
379.2728782368495
 31
0
  0
LINE
  8
1
 62
7
 10
330.801866839532
 20
378.2728782368495
 30
0
 11
331.3792171087209
 21
379.2728782368495
 31
0
  0
LINE
  8
1
 62
7
 10
316.3783849413539
 20
379.2728782368495
 30
0
 11
316.955735210543
 21
378.2728782368495
 31
0
  0
LINE
  8
1
 62
7
 10
316.3783849413539
 20
379.2728782368495
 30
0
 11
316.955735210543
 21
378.2728782368495
 31
0
  0
LINE
  8
1
 62
7
 10
331.3792171087209
 20
416.2728782368495
 30
0
 11
330.801866839532
 21
417.2728782368495
 31
0
  0
LINE
  8
1
 62
7
 10
331.406315915932
 20
416.0726326757858
 30
0
 11
331.3792171087209
 21
416.2728782368495
 31
0
  0
LINE
  8
1
 62
7
 10
461.8783849413537
 20
429.433132274694
 30
0
 11
461.8783849413539
 21
433.7728782368495
 31
0
  0
LINE
  8
1
 62
7
 10
331.3792171087209
 20
379.2728782368495
 30
0
 11
331.3792171087209
 21
416.2728782368495
 31
0
  0
LINE
  8
1
 62
2
 10
330.801866839532
 20
378.2728782368495
 30
0
 11
330.801866839532
 21
417.2728782368495
 31
0
  0
LINE
  8
1
 62
2
 10
525.8010346721638
 20
417.2728782368495
 30
0
 11
525.8010346721638
 21
378.2728782368495
 31
0
  0
LINE
  8
1
 62
7
 10
511.9188720891099
 20
417.2728782368495
 30
0
 11
525.8010346721638
 21
417.2728782368495
 31
0
  0
LINE
  8
1
 62
7
 10
511.3690200571667
 20
416.2728782368495
 30
0
 11
526.3783849413538
 21
416.2728782368495
 31
0
  0
LINE
  8
1
 62
7
 10
508.0625192255169
 20
413.4879510072043
 30
0
 11
474.3327395032649
 21
421.1140991924648
 31
0
  0
LINE
  8
1
 62
7
 10
511.9188720891099
 20
417.2728782368495
 30
0
 11
511.3690200571667
 21
416.2728782368495
 31
0
  0
LINE
  8
1
 62
7
 10
511.3690200571667
 20
416.2728782368495
 30
0
 11
511.3690200571667
 21
379.2728782368495
 31
0
  0
LINE
  8
1
 62
2
 10
511.9188720891099
 20
417.2728782368495
 30
0
 11
511.9188720891099
 21
378.2728782368495
 31
0
  0
LINE
  8
1
 62
7
 10
511.9188720891099
 20
378.2728782368495
 30
0
 11
525.8010346721638
 21
378.2728782368495
 31
0
  0
LINE
  8
1
 62
7
 10
383.8783849413538
 20
435.7728782368495
 30
0
 11
463.8783849413538
 21
435.7728782368495
 31
0
  0
LINE
  8
1
 62
7
 10
426.8783849413539
 20
399.0671338721347
 30
0
 11
426.8783849413539
 21
400.7728782368495
 31
0
  0
LINE
  8
1
 62
7
  6
DIVIDE
 10
417.8783849413539
 20
400.7728782368495
 30
0
 11
417.8783849413539
 21
393.4364846134171
 31
0
  0
LINE
  8
1
 62
7
 10
434.8783849413539
 20
415.0228782368495
 30
0
 11
406.8783849413539
 21
415.0228782368495
 31
0
  0
LINE
  8
1
 62
7
 10
406.8783849413539
 20
416.5228782368495
 30
0
 11
434.8783849413539
 21
416.5228782368495
 31
0
  0
LINE
  8
1
 62
7
 10
406.8783849413539
 20
415.0228782368495
 30
0
 11
406.8783849413539
 21
416.5228782368495
 31
0
  0
LINE
  8
1
 62
7
 10
408.8783849413539
 20
416.5228782368495
 30
0
 11
406.8783849413539
 21
419.2728782368495
 31
0
  0
LINE
  8
1
 62
7
 10
406.8783849413539
 20
419.2728782368495
 30
0
 11
423.8783849413539
 21
419.2728782368495
 31
0
  0
LINE
  8
1
 62
7
 10
423.8783849413539
 20
419.2728782368495
 30
0
 11
425.8783849413539
 21
416.5228782368495
 31
0
  0
LINE
  8
1
 62
7
 10
434.8783849413539
 20
416.5228782368495
 30
0
 11
434.8783849413539
 21
419.2728782368495
 31
0
  0
LINE
  8
1
 62
7
 10
434.8783849413539
 20
419.2728782368495
 30
0
 11
440.8783849413539
 21
415.7728782368495
 31
0
  0
LINE
  8
1
 62
7
 10
406.8783849413539
 20
412.2728782368495
 30
0
 11
408.8783849413539
 21
415.0228782368495
 31
0
  0
LINE
  8
1
 62
7
 10
423.8783849413539
 20
412.2728782368495
 30
0
 11
406.8783849413539
 21
412.2728782368495
 31
0
  0
LINE
  8
1
 62
7
 10
425.8783849413539
 20
415.0228782368495
 30
0
 11
423.8783849413539
 21
412.2728782368495
 31
0
  0
LINE
  8
1
 62
7
 10
434.8783849413539
 20
412.2728782368495
 30
0
 11
434.8783849413539
 21
415.0228782368495
 31
0
  0
LINE
  8
1
 62
7
 10
440.8783849413539
 20
415.7728782368495
 30
0
 11
434.8783849413539
 21
412.2728782368495
 31
0
  0
LINE
  8
1
 62
7
 10
417.8783849413539
 20
393.4364846134171
 30
0
 11
423.1660635158761
 21
393.4364846134171
 31
0
  0
LINE
  8
1
 62
7
 10
419.6329756384859
 20
390.6569812502846
 30
0
 11
417.8783849413539
 21
390.467598099868
 31
0
  0
LINE
  8
1
 62
7
 10
423.4359094161961
 20
394.9139977355025
 30
0
 11
419.807790854255
 21
394.9139977355025
 31
0
  0
LINE
  8
1
 62
7
 10
419.807790854255
 20
394.9139977355025
 30
0
 11
419.807790854255
 21
399.0671338721347
 31
0
  0
LINE
  8
1
 62
7
 10
419.807790854255
 20
399.0671338721347
 30
0
 11
426.8783849413539
 21
399.0671338721347
 31
0
  0
LINE
  8
1
 62
7
 10
417.8783849413539
 20
393.4364846134171
 30
0
 11
417.8783849413539
 21
400.7728782368495
 31
0
  0
LINE
  8
1
 62
7
 10
417.8783849413539
 20
400.7728782368495
 30
0
 11
426.8783849413539
 21
400.7728782368495
 31
0
  0
LINE
  8
1
 62
2
  6
DASHDOT
 10
423.8783849413539
 20
403.802265440446
 30
0
 11
423.8783849413539
 21
469.517257962602
 31
0
  0
LINE
  8
1
 62
2
  6
DASHDOT
 10
376.237839051357
 20
397.7728782368495
 30
0
 11
405.426790213877
 21
397.7728782368495
 31
0
  0
LINE
  8
1
 62
7
 10
374.8165717892987
 20
394.2728782368496
 30
0
 11
370.1944976033947
 21
394.2728782368496
 31
0
  0
LINE
  8
1
 62
7
 10
370.1944976033947
 20
394.2728782368496
 30
0
 11
370.1944976033947
 21
401.2025246924778
 31
0
  0
LINE
  8
1
 62
7
 10
370.1944976033947
 20
401.2025246924778
 30
0
 11
374.7368808550589
 21
401.2025246924778
 31
0
  0
LINE
  8
1
 62
7
 10
374.7368808550589
 20
401.2025246924778
 30
0
 11
374.7368808550589
 21
400.3363188855242
 31
0
  0
LINE
  8
1
 62
7
 10
374.7368808550589
 20
400.3363188855242
 30
0
 11
371.0710978800316
 21
400.3363188855242
 31
0
  0
LINE
  8
1
 62
7
 10
371.0710978800316
 20
400.3363188855242
 30
0
 11
371.0710978800316
 21
398.2574249488358
 31
0
  0
LINE
  8
1
 62
7
 10
371.0710978800316
 20
398.2574249488358
 30
0
 11
374.4181171181
 21
398.2574249488358
 31
0
  0
LINE
  8
1
 62
7
 10
374.4181171181
 20
398.2574249488358
 30
0
 11
374.4181171181
 21
397.3912191418822
 31
0
  0
LINE
  8
1
 62
7
 10
374.4181171181
 20
397.3912191418822
 30
0
 11
371.0710978800316
 21
397.3912191418822
 31
0
  0
LINE
  8
1
 62
7
 10
371.0710978800316
 20
397.3912191418822
 30
0
 11
371.0710978800316
 21
395.1390840438031
 31
0
  0
LINE
  8
1
 62
7
 10
371.0710978800316
 20
395.1390840438031
 30
0
 11
374.8165717892987
 21
395.1390840438031
 31
0
  0
LINE
  8
1
 62
7
 10
374.8165717892987
 20
395.1390840438031
 30
0
 11
374.8165717892987
 21
394.2728782368496
 31
0
  0
LINE
  8
0
 62
7
 10
466.3783852657379
 20
453.1828785676497
 30
0
 11
466.3783857127379
 21
453.3544507581497
 31
0
  0
LINE
  8
0
 62
7
 10
466.3783857127379
 20
436.6828784119498
 30
0
 11
466.3783852657379
 21
439.1828785676497
 31
0
  0
LINE
  8
0
 62
7
 10
381.3783852657379
 20
439.1828785676497
 30
0
 11
381.3783848187378
 21
436.6828784119498
 31
0
  0
LINE
  8
0
 62
7
 10
464.3783853849378
 20
456.1828792799497
 30
0
 11
464.3783853849378
 21
461.1828782368497
 31
0
  0
LINE
  8
0
 62
7
 10
461.8783840438379
 20
461.1828782368497
 30
0
 11
461.8783840438379
 21
462.1828784007497
 31
0
  0
LINE
  8
0
 62
7
 10
385.8783864876378
 20
462.1828784007497
 30
0
 11
385.8783864876378
 21
461.1828782368497
 31
0
  0
LINE
  8
0
 62
7
 10
408.8783856010379
 20
462.1828784007497
 30
0
 11
408.8783856010379
 21
473.6828793544497
 31
0
  0
LINE
  8
0
 62
7
 10
398.3783857425379
 20
473.6828793544497
 30
0
 11
409.8783848336378
 21
473.6828793544497
 31
0
  0
LINE
  8
0
 62
7
 10
409.8783848336378
 20
473.6828793544497
 30
0
 11
409.8783848336378
 21
464.6828797418497
 31
0
  0
LINE
  8
0
 62
7
 10
399.3783859065378
 20
473.6828793544497
 30
0
 11
399.3783859065378
 21
463.6828785676497
 31
0
  0
LINE
  8
0
 62
7
 10
398.3783857425379
 20
464.6828797418497
 30
0
 11
398.3783857425379
 21
473.6828793544497
 31
0
  0
LINE
  8
0
 62
7
 10
398.3783857425379
 20
472.6828773278497
 30
0
 11
409.8783848336378
 21
472.6828773278497
 31
0
  0
LINE
  8
0
 62
7
 10
404.6342378011378
 20
474.1828803677497
 30
0
 11
404.6342378011378
 21
473.6828793544497
 31
0
  0
LINE
  8
0
 62
7
 10
408.0762477120378
 20
474.1828803677497
 30
0
 11
404.6342378011378
 21
474.1828803677497
 31
0
  0
LINE
  8
0
 62
7
 10
408.0762477120378
 20
474.1828803677497
 30
0
 11
408.0762477120378
 21
473.6828793544497
 31
0
  0
LINE
  8
0
 62
7
 10
404.2624054005379
 20
474.1828803677497
 30
0
 11
404.2624054005379
 21
473.6828793544497
 31
0
  0
LINE
  8
0
 62
7
 10
404.6179247549379
 20
474.1828803677497
 30
0
 11
404.6179247549379
 21
473.6828793544497
 31
0
  0
LINE
  8
0
 62
7
 10
404.6179247549379
 20
474.1828803677497
 30
0
 11
404.1608279099379
 21
474.1828803677497
 31
0
  0
LINE
  8
0
 62
7
 10
404.1608279099379
 20
474.1828803677497
 30
0
 11
404.1608279099379
 21
473.6828793544497
 31
0
  0
LINE
  8
0
 62
7
 10
398.3783857425379
 20
464.6828797418497
 30
0
 11
409.8783848336378
 21
464.6828797418497
 31
0
  0
LINE
  8
0
 62
7
 10
408.8783852657379
 20
463.6828785676497
 30
0
 11
399.3783859065378
 21
463.6828785676497
 31
0
  0
LINE
  8
0
 62
7
 10
409.8783848336378
 20
464.6828797418497
 30
0
 11
409.8783848336378
 21
462.1828784007497
 31
0
  0
LINE
  8
0
 62
7
 10
402.3783845356378
 20
462.1828784007497
 30
0
 11
402.3783845356378
 21
463.6828777152497
 31
0
  0
LINE
  8
0
 62
7
 10
427.8783852657379
 20
451.1828785676497
 30
0
 11
427.8783852657379
 21
441.1828785676497
 31
0
  0
LINE
  8
0
 62
7
 10
419.8783850757378
 20
441.1828786838497
 30
0
 11
419.8783852657379
 21
451.1828785676497
 31
0
  0
LINE
  8
0
 62
7
 10
426.8783852657379
 20
440.1828785676497
 30
0
 11
420.8783852657379
 21
440.1828785676497
 31
0
  0
LINE
  8
0
 62
7
 10
420.8783852396379
 20
452.1828786242497
 30
0
 11
426.8783852918378
 21
452.1828786242497
 31
0
  0
LINE
  8
0
 62
7
 10
381.660068919313
 20
453.3544507581384
 30
0
 11
381.6600689193218
 21
441.1828786839057
 31
0
  0
LINE
  8
0
 62
7
 10
466.096701612138
 20
441.1828786838497
 30
0
 11
466.0967016121168
 21
451.1828784603302
 31
0
  0
LINE
  8
0
 62
7
 10
381.3783848187378
 20
436.6828784119498
 30
0
 11
466.3783857127379
 21
436.6828784119498
 31
0
  0
LINE
  8
0
 62
7
 10
383.673405786407
 20
459.1828779089616
 30
0
 11
383.6734057864668
 21
456.1828792799254
 31
0
  0
LINE
  8
0
 62
7
 10
383.3783852657379
 20
461.1828782368497
 30
0
 11
464.3783853849378
 21
461.1828782368497
 31
0
  0
LINE
  8
0
 62
7
 10
381.1742314597378
 20
453.3544507581497
 30
0
 11
381.660068919313
 21
453.3544507581384
 31
0
  0
LINE
  8
0
 62
7
 10
380.6666979095379
 20
452.1747854310497
 30
0
 11
381.1742314597378
 21
453.3544507581497
 31
0
  0
LINE
  8
0
 62
7
 10
382.6806904277379
 20
457.8031514543498
 30
0
 11
383.0254772207378
 21
459.1828779090497
 31
0
  0
LINE
  8
0
 62
7
 10
374.8783852657379
 20
441.1828785676497
 30
0
 11
374.8783865472379
 21
443.0943102348498
 31
0
  0
LINE
  8
0
 62
7
 10
471.8783856829379
 20
440.1828785199497
 30
0
 11
467.3786941345881
 21
440.1828785199497
 31
0
  0
LINE
  8
0
 62
7
 10
472.8783852657379
 20
451.1828785676497
 30
0
 11
472.8783852657379
 21
441.1828785676497
 31
0
  0
LINE
  8
0
 62
7
 10
378.3783839842379
 20
460.1828787047496
 30
0
 11
383.2410038675509
 21
460.182877956996
 31
0
  0
LINE
  8
0
 62
7
 10
374.8783852657379
 20
456.6828785676497
 30
0
 11
374.8783865472379
 21
443.0943102348498
 31
0
  0
LINE
  8
0
 62
7
 10
405.8159930160379
 20
463.6828777152497
 30
0
 11
405.8159930160379
 21
462.1828784007497
 31
0
  0
LINE
  8
0
 62
7
 10
405.1076644560379
 20
462.1828784007497
 30
0
 11
405.1076644560379
 21
463.6828777152497
 31
0
  0
LINE
  8
0
 62
7
 10
402.5744633278379
 20
463.6828777152497
 30
0
 11
402.5744633278379
 21
462.1828784007497
 31
0
  0
LINE
  8
0
 62
7
 10
466.3783857127379
 20
453.3544507581497
 30
0
 11
381.660068919313
 21
453.3544507581384
 31
0
  0
LINE
  8
0
 62
7
 10
466.2771956524379
 20
453.1828787881497
 30
0
 11
466.3783852657379
 21
453.1828785676497
 31
0
  0
LINE
  8
0
 62
7
 10
466.3783852657379
 20
439.1828785676497
 30
0
 11
466.2771956524379
 21
439.1828783560497
 31
0
  0
LINE
  8
0
 62
7
 10
382.3401914438128
 20
454.2972602653882
 30
0
 11
465.7117189368379
 21
454.2972602654497
 31
0
  0
LINE
  8
0
 62
7
 10
383.6734057864668
 20
456.1828792799254
 30
0
 11
464.3783853849378
 21
456.1828792799497
 31
0
  0
LINE
  8
0
 62
7
 10
405.8783852214539
 20
495.8666351401083
 30
0
 11
405.8783852214539
 21
536.9248197191084
 31
0
  0
LINE
  8
0
 62
7
 10
400.8783844018539
 20
536.9248197191084
 30
0
 11
400.8783844018539
 21
496.9383937084083
 31
0
  0
LINE
  8
0
 62
7
 10
408.0762468929537
 20
563.7028750741083
 30
0
 11
408.0762468929537
 21
563.0883958899085
 31
0
  0
LINE
  8
0
 62
7
 10
408.0762468929537
 20
563.0883958899085
 30
0
 11
405.4637827629537
 21
563.0883958899085
 31
0
  0
LINE
  8
0
 62
7
 10
405.7905726785679
 20
562.3175066672823
 30
0
 11
408.0762468929537
 21
562.3175066673084
 31
0
  0
LINE
  8
0
 62
7
 10
408.0762468929537
 20
562.3175066673084
 30
0
 11
408.0762468929537
 21
561.7030274831084
 31
0
  0
LINE
  8
0
 62
7
 10
408.0762468929537
 20
561.7030274831084
 30
0
 11
404.6342369819537
 21
561.7030274831084
 31
0
  0
LINE
  8
0
 62
7
 10
404.6342369819537
 20
561.7030274831084
 30
0
 11
404.6342369819537
 21
562.3175066673084
 31
0
  0
LINE
  8
0
 62
7
 10
404.6342369819537
 20
562.3175066673084
 30
0
 11
405.0615780706538
 21
562.3175066673084
 31
0
  0
LINE
  8
0
 62
7
 10
405.2626804167538
 20
565.1171070301084
 30
0
 11
408.0762468929537
 21
565.1171070301084
 31
0
  0
LINE
  8
0
 62
7
 10
408.0762468929537
 20
565.1171070301084
 30
0
 11
408.0762468929537
 21
564.5026278459084
 31
0
  0
LINE
  8
0
 62
7
 10
408.0762468929537
 20
564.5026278459084
 30
0
 11
405.4889210219538
 21
564.5026278459084
 31
0
  0
LINE
  8
0
 62
7
 10
405.7905726785538
 20
563.7028750741083
 30
0
 11
408.0762468929537
 21
563.7028750741083
 31
0
  0
LINE
  8
0
 62
7
 10
404.6179239357538
 20
565.5785550140083
 30
0
 11
404.6179239357538
 21
565.3371524774084
 31
0
  0
LINE
  8
0
 62
7
 10
405.0326977575538
 20
565.7760661804084
 30
0
 11
404.8887972439537
 21
565.7760661804084
 31
0
  0
LINE
  8
0
 62
7
 10
405.3204987848538
 20
565.29326110708
 30
0
 11
405.3204987848538
 21
565.5456346237085
 31
0
  0
LINE
  8
0
 62
7
 10
402.3783837164539
 20
554.8530232870086
 30
0
 11
398.3783849234538
 21
547.9248196595086
 31
0
  0
LINE
  8
0
 62
7
 10
408.8783857131797
 20
576.9248206877278
 30
0
 11
405.8159921968928
 21
576.9248206876514
 31
0
  0
LINE
  8
0
 62
7
 10
402.3783837164539
 20
573.0905693733083
 30
0
 11
402.3783837164539
 21
554.8530232870086
 31
0
  0
LINE
  8
0
 62
7
 10
409.8783849457537
 20
537.9248190863084
 30
0
 11
409.8783849457537
 21
575.9248186611084
 31
0
  0
LINE
  8
0
 62
7
 10
399.3783858805538
 20
536.9248197191084
 30
0
 11
408.8783855785538
 21
536.9248197191083
 31
0
  0
LINE
  8
0
 62
7
 10
398.3783849234538
 20
547.9248196595086
 30
0
 11
398.3783849234538
 21
537.9248206762084
 31
0
  0
LINE
  8
0
 62
7
 10
397.8783839101537
 20
560.9248217904083
 30
0
 11
397.8783839101538
 21
554.9248208069084
 31
0
  0
LINE
  8
0
 62
7
 10
399.3783850873537
 20
560.9248217904083
 30
0
 11
399.3783850873538
 21
554.9248208069084
 31
0
  0
LINE
  8
0
 62
7
 10
397.8783839101537
 20
560.9248217904083
 30
0
 11
399.9783840681538
 21
560.9248217904083
 31
0
  0
LINE
  8
0
 62
7
 10
397.8783839101538
 20
554.9248208069084
 30
0
 11
399.9783840680638
 21
554.9248208068905
 31
0
  0
LINE
  8
0
 62
7
 10
399.8783842379538
 20
560.9248217904083
 30
0
 11
399.8783842379538
 21
554.9248208069084
 31
0
  0
LINE
  8
0
 62
7
 10
402.0320825929538
 20
562.9248183929083
 30
0
 11
402.3783837164539
 21
562.9248183929083
 31
0
  0
LINE
  8
0
 62
7
 10
409.8783849457537
 20
575.9248186611084
 30
0
 11
409.8783849457537
 21
577.9248189889084
 31
0
  0
LINE
  8
0
 62
7
 10
415.5006368363537
 20
580.9424978458084
 30
0
 11
414.4728330645572
 21
583.7663654625748
 31
0
  0
LINE
  8
0
 62
7
 10
413.3545906291001
 20
532.5181330663747
 30
0
 11
414.6939829642728
 21
535.7517109029145
 31
0
  0
LINE
  8
0
 62
7
 10
420.4693539498785
 20
533.6683042310934
 30
0
 11
420.3294708112584
 21
532.6729838513408
 31
0
  0
LINE
  8
0
 62
7
 10
436.0148549730669
 20
535.1576034687763
 30
0
 11
435.8995013589537
 21
535.4360931330084
 31
0
  0
LINE
  8
0
 62
7
 10
449.0644369925092
 20
553.9357413315155
 30
0
 11
448.0717075083304
 21
554.0929748312609
 31
0
  0
LINE
  8
0
 62
7
 10
421.6559135074477
 20
583.3277863227841
 30
0
 11
421.7435139416708
 21
582.3265102469516
 31
0
  0
LINE
  8
0
 62
7
 10
448.2390936704462
 20
560.4852334532086
 30
0
 11
449.2386930341658
 21
560.5902944468097
 31
0
  0
LINE
  8
0
 62
7
 10
433.0797842313914
 20
534.1428028168473
 30
0
 11
432.7763378794732
 21
534.8753853536448
 31
0
  0
LINE
  8
0
 62
7
 10
432.8845763265155
 20
535.136696713904
 30
0
 11
433.254127358315
 21
535.2897701373687
 31
0
  0
LINE
  8
0
 62
7
 10
397.4783845896537
 20
560.9248217904083
 30
0
 11
397.4783845896537
 21
554.9248208069083
 31
0
  0
LINE
  8
0
 62
7
 10
397.9783837402537
 20
554.4248197936083
 30
0
 11
399.4783849174538
 21
554.4248197936083
 31
0
  0
LINE
  8
0
 62
7
 10
399.9783840680638
 20
554.9248208068905
 30
0
 11
399.9783840681538
 21
560.9248217904083
 31
0
  0
LINE
  8
0
 62
7
 10
399.4783849174538
 20
561.4248190783084
 30
0
 11
397.9783837402798
 21
561.4248190783129
 31
0
  0
LINE
  8
0
 62
7
 10
411.1283856163537
 20
580.0084707104085
 30
0
 11
410.9783849398223
 21
580.2682724558629
 31
0
  0
LINE
  8
0
 62
7
 10
408.3515570218344
 20
578.5296161436344
 30
0
 11
408.5321022848378
 21
578.2900240981297
 31
0
  0
LINE
  8
0
 62
7
 10
402.3783837164539
 20
561.4248190783084
 30
0
 11
400.3648717607547
 21
570.1463048123881
 31
0
  0
LINE
  8
0
 62
7
 10
413.7946950909025
 20
536.0328890088414
 30
0
 11
410.6279655079528
 21
535.3017926924033
 31
0
  0
LINE
  8
0
 62
7
 10
408.8903899529674
 20
578.9248210155083
 30
0
 11
409.4201276729538
 21
578.9248210155083
 31
0
  0
LINE
  8
0
 62
7
 10
410.1783853674539
 20
579.1559305750084
 30
0
 11
410.1783853674539
 21
578.9248210155083
 31
0
  0
LINE
  8
0
 62
7
 10
374.8783857281309
 20
554.9248208068468
 30
0
 11
382.4869596118537
 21
554.9248208069084
 31
0
  0
LINE
  8
0
 62
7
 10
378.3783853704537
 20
560.9248217904083
 30
0
 11
378.3783853704537
 21
554.9248208069084
 31
0
  0
LINE
  8
0
 62
7
 10
382.4869596118537
 20
560.9248217904083
 30
0
 11
374.8783857281318
 21
560.9248217903635
 31
0
  0
LINE
  8
0
 62
7
 10
374.8783857281309
 20
554.9248208068468
 30
0
 11
374.8783857281318
 21
560.9248217903635
 31
0
  0
LINE
  8
0
 62
7
 10
375.8783840293987
 20
561.9248200916309
 30
0
 11
380.6666970903538
 21
561.9248200916084
 31
0
  0
LINE
  8
0
 62
7
 10
380.6666970903538
 20
561.9248200916084
 30
0
 11
381.1742306406537
 21
562.0631885492085
 31
0
  0
LINE
  8
0
 62
7
 10
381.8697423393538
 20
561.9248200916084
 30
0
 11
382.6806896085537
 21
561.9248200916084
 31
0
  0
LINE
  8
0
 62
7
 10
382.6806896085537
 20
561.9248200916084
 30
0
 11
383.0254764015878
 21
561.9861383699308
 31
0
  0
LINE
  8
0
 62
7
 10
382.6806896085537
 20
553.9248187803084
 30
0
 11
383.0254764015537
 21
553.8635005020083
 31
0
  0
LINE
  8
0
 62
7
 10
381.8697423393538
 20
553.9248187803084
 30
0
 11
382.6806896085537
 21
553.9248187803084
 31
0
  0
LINE
  8
0
 62
7
 10
380.6666970903538
 20
553.9248187803084
 30
0
 11
381.1742306406537
 21
553.7864503228084
 31
0
  0
LINE
  8
0
 62
7
 10
375.8783840293537
 20
553.9248187803084
 30
0
 11
380.6666970903538
 21
553.9248187803084
 31
0
  0
LINE
  8
0
 62
7
 10
467.0900714303538
 20
561.9248200916084
 30
0
 11
471.8783848638537
 21
561.9248200916084
 31
0
  0
LINE
  8
0
 62
7
 10
420.8783793199538
 20
606.9248181545084
 30
0
 11
426.8783905046538
 21
606.9248181545084
 31
0
  0
LINE
  8
0
 62
7
 10
427.8783851022537
 20
514.7131351289085
 30
0
 11
427.8783851022537
 21
509.9248226059085
 31
0
  0
LINE
  8
0
 62
7
 10
419.8783847222538
 20
601.1365111812085
 30
0
 11
419.8783847222538
 21
605.9248235569085
 31
0
  0
LINE
  8
0
 62
7
 10
419.8783847222538
 20
509.9248226059085
 30
0
 11
419.8783847222538
 21
514.7131351289085
 31
0
  0
LINE
  8
0
 62
7
 10
426.8783841451538
 20
508.9248216488084
 30
0
 11
420.8783856793538
 21
508.9248216488084
 31
0
  0
LINE
  8
0
 62
7
 10
472.8783831650538
 20
560.9248191345083
 30
0
 11
472.8783831650538
 21
554.9248197374084
 31
0
  0
LINE
  8
0
 62
7
 10
427.8783851022537
 20
605.9248235569085
 30
0
 11
427.8783851022537
 21
601.1365111812085
 31
0
  0
LINE
  8
0
 62
7
 10
471.8783822080537
 20
553.9248187803084
 30
0
 11
467.0900644491538
 21
553.9248187803084
 31
0
  0
LINE
  8
1
 62
2
  6
DASHDOT
 10
423.8783849413538
 20
615.7568428444954
 30
0
 11
423.8783849413538
 21
498.9427986529113
 31
0
  0
LINE
  8
1
 62
2
 10
415.3140182853018
 20
572.4732288787934
 30
0
 11
417.3443143894427
 21
574.5035249829343
 31
0
  0
LINE
  8
1
 62
2
 10
415.0862276091758
 20
570.8584439431697
 30
0
 11
418.8781737540438
 21
574.6503900880376
 31
0
  0
LINE
  8
1
 62
2
 10
415.7047520762527
 20
570.2399194761019
 30
0
 11
419.4966982211207
 21
574.0318656209698
 31
0
  0
LINE
  8
1
 62
2
 10
417.2259981045587
 20
570.5237627281936
 30
0
 11
419.2562942086998
 21
572.5540588323347
 31
0
  0
LINE
  8
1
 62
2
 10
432.5790637229917
 20
545.0872947362523
 30
0
 11
434.6093598271328
 21
547.1175908403934
 31
0
  0
LINE
  8
1
 62
2
 10
432.3512730468657
 20
543.4725098006288
 30
0
 11
436.1432191917337
 21
547.2644559454968
 31
0
  0
LINE
  8
1
 62
2
 10
432.9697975139428
 20
542.853985333561
 30
0
 11
436.7617436588108
 21
546.645931478429
 31
0
  0
LINE
  8
1
 62
2
 10
434.4910435422488
 20
543.1378285856526
 30
0
 11
436.5213396463897
 21
545.1681246897936
 31
0
  0
LINE
  8
1
 62
2
 10
321.5059287209089
 20
360.1815633631868
 30
0
 11
321.2702264605134
 21
359.7838157987694
 31
0
  0
LINE
  8
1
 62
2
 10
321.2702264605134
 20
359.7838157987694
 30
0
 11
321.0345242001179
 21
359.120903191407
 31
0
  0
LINE
  8
1
 62
2
 10
321.0345242001179
 20
359.120903191407
 30
0
 11
321.0345242001179
 21
356.9995828478474
 31
0
  0
LINE
  8
1
 62
2
 10
321.0345242001179
 20
356.9995828478474
 30
0
 11
321.2702264605134
 21
356.336670240485
 31
0
  0
LINE
  8
1
 62
2
 10
321.2702264605134
 20
356.336670240485
 30
0
 11
321.5059287209089
 21
355.9389226760675
 31
0
  0
LINE
  8
1
 62
2
 10
324.0986535852596
 20
356.2040877190125
 30
0
 11
324.0986535852596
 21
358.7231556269896
 31
0
  0
LINE
  8
1
 62
2
 10
324.0986535852596
 20
358.7231556269896
 30
0
 11
326.9270807100057
 21
358.7231556269896
 31
0
  0
LINE
  8
1
 62
2
 10
326.9270807100057
 20
358.7231556269896
 30
0
 11
326.9270807100057
 21
356.2040877190125
 31
0
  0
LINE
  8
1
 62
2
 10
326.9270807100057
 20
356.2040877190125
 30
0
 11
324.0986535852596
 21
356.2040877190125
 31
0
  0
LINE
  8
1
 62
2
 10
324.3343558456551
 20
357.1321653693198
 30
0
 11
324.6879092362483
 21
357.5299129337373
 31
0
  0
LINE
  8
1
 62
2
 10
324.6879092362483
 20
357.5299129337373
 30
0
 11
325.0414626268416
 21
358.3254080625721
 31
0
  0
LINE
  8
1
 62
2
 10
325.0414626268416
 20
358.3254080625721
 30
0
 11
325.0414626268416
 21
359.7838157987694
 31
0
  0
LINE
  8
1
 62
2
 10
323.7451001946663
 20
359.7838157987694
 30
0
 11
327.280634100599
 21
359.7838157987694
 31
0
  0
LINE
  8
1
 62
2
 10
325.8664205382259
 20
359.7838157987694
 30
0
 11
325.8664205382259
 21
357.6624954552098
 31
0
  0
LINE
  8
1
 62
2
 10
325.8664205382259
 20
357.6624954552098
 30
0
 11
325.9842716684237
 21
357.3973304122648
 31
0
  0
LINE
  8
1
 62
2
 10
325.9842716684237
 20
357.3973304122648
 30
0
 11
326.5735273194125
 21
357.3973304122648
 31
0
  0
LINE
  8
1
 62
2
 10
326.5735273194125
 20
357.3973304122648
 30
0
 11
326.6913784496102
 21
357.6624954552098
 31
0
  0
LINE
  8
1
 62
2
 10
327.8698897515878
 20
356.2040877190125
 30
0
 11
327.9877408817856
 21
356.6018352834299
 31
0
  0
LINE
  8
1
 62
2
 10
327.9877408817856
 20
356.6018352834299
 30
0
 11
328.1055920119833
 21
357.7950779766822
 31
0
  0
LINE
  8
1
 62
2
 10
328.1055920119833
 20
357.7950779766822
 30
0
 11
328.1055920119833
 21
360.0489808417144
 31
0
  0
LINE
  8
1
 62
2
 10
328.1055920119833
 20
360.0489808417144
 30
0
 11
331.4054236575206
 21
360.0489808417144
 31
0
  0
LINE
  8
1
 62
2
 10
331.4054236575206
 20
359.120903191407
 30
0
 11
329.9912100951475
 21
359.120903191407
 31
0
  0
LINE
  8
1
 62
2
 10
329.7555078347519
 20
359.120903191407
 30
0
 11
328.5769965327744
 21
359.120903191407
 31
0
  0
LINE
  8
1
 62
2
 10
329.1662521837632
 20
359.7838157987694
 30
0
 11
329.1662521837632
 21
357.7950779766822
 31
0
  0
LINE
  8
1
 62
2
 10
328.4591454025766
 20
358.0602430196272
 30
0
 11
328.8126987931699
 21
358.4579905840446
 31
0
  0
LINE
  8
1
 62
2
 10
328.8126987931699
 20
358.4579905840446
 30
0
 11
329.1662521837632
 21
359.120903191407
 31
0
  0
LINE
  8
1
 62
2
 10
329.4019544441587
 20
358.7231556269896
 30
0
 11
329.7555078347519
 21
358.3254080625721
 31
0
  0
LINE
  8
1
 62
2
 10
329.7555078347519
 20
357.9276604981547
 30
0
 11
330.1090612253452
 21
358.1928255410996
 31
0
  0
LINE
  8
1
 62
2
 10
330.1090612253452
 20
358.1928255410996
 30
0
 11
330.6983168763341
 21
359.120903191407
 31
0
  0
LINE
  8
1
 62
2
 10
330.6983168763341
 20
359.7838157987694
 30
0
 11
330.6983168763341
 21
357.7950779766822
 31
0
  0
LINE
  8
1
 62
2
 10
330.6983168763341
 20
359.120903191407
 30
0
 11
331.0518702669273
 21
358.5905731055171
 31
0
  0
LINE
  8
1
 62
2
 10
331.0518702669273
 20
358.5905731055171
 30
0
 11
331.6411259179161
 21
357.9276604981547
 31
0
  0
LINE
  8
1
 62
2
 10
330.9340191367296
 20
357.3973304122648
 30
0
 11
329.0484010535654
 21
357.3973304122648
 31
0
  0
LINE
  8
1
 62
2
 10
329.0484010535654
 20
357.3973304122648
 30
0
 11
329.0484010535654
 21
356.07150519754
 31
0
  0
LINE
  8
1
 62
2
 10
329.0484010535654
 20
356.07150519754
 30
0
 11
330.9340191367296
 21
356.07150519754
 31
0
  0
LINE
  8
1
 62
2
 10
330.9340191367296
 20
356.07150519754
 30
0
 11
330.9340191367296
 21
357.3973304122648
 31
0
  0
LINE
  8
1
 62
2
 10
329.0484010535654
 20
356.7344178049024
 30
0
 11
330.9340191367296
 21
356.7344178049024
 31
0
  0
LINE
  8
1
 62
2
 10
333.9981485218712
 20
355.9389226760675
 30
0
 11
333.9981485218712
 21
359.6512332772969
 31
0
  0
LINE
  8
1
 62
2
 10
335.7659154748376
 20
359.6512332772969
 30
0
 11
332.2303815689049
 21
359.6512332772969
 31
0
  0
LINE
  8
1
 62
2
 10
334.58740417286
 20
358.7231556269896
 30
0
 11
335.2945109540466
 21
357.9276604981547
 31
0
  0
LINE
  8
1
 62
2
 10
336.8265756466175
 20
358.7231556269896
 30
0
 11
336.9444267768152
 21
358.9883206699345
 31
0
  0
LINE
  8
1
 62
2
 10
336.9444267768152
 20
358.9883206699345
 30
0
 11
337.4158312976063
 21
359.2534857128795
 31
0
  0
LINE
  8
1
 62
2
 10
337.4158312976063
 20
359.2534857128795
 30
0
 11
337.8872358183972
 21
359.386068234352
 31
0
  0
LINE
  8
1
 62
2
 10
337.8872358183972
 20
359.386068234352
 30
0
 11
338.7121937297816
 21
359.386068234352
 31
0
  0
LINE
  8
1
 62
2
 10
338.7121937297816
 20
359.386068234352
 30
0
 11
339.1835982505726
 21
359.2534857128795
 31
0
  0
LINE
  8
1
 62
2
 10
339.1835982505726
 20
359.2534857128795
 30
0
 11
339.6550027713636
 21
358.9883206699345
 31
0
  0
LINE
  8
1
 62
2
 10
339.6550027713636
 20
358.9883206699345
 30
0
 11
339.7728539015614
 21
358.7231556269896
 31
0
  0
LINE
  8
1
 62
2
 10
339.7728539015614
 20
358.7231556269896
 30
0
 11
339.7728539015614
 21
358.0602430196272
 31
0
  0
LINE
  8
1
 62
2
 10
339.7728539015614
 20
358.0602430196272
 30
0
 11
339.6550027713636
 21
357.7950779766822
 31
0
  0
LINE
  8
1
 62
2
 10
339.6550027713636
 20
357.7950779766822
 30
0
 11
339.1835982505726
 21
357.5299129337373
 31
0
  0
LINE
  8
1
 62
2
 10
339.1835982505726
 20
357.5299129337373
 30
0
 11
337.2979801674085
 21
357.2647478907923
 31
0
  0
LINE
  8
1
 62
2
 10
337.2979801674085
 20
357.2647478907923
 30
0
 11
336.9444267768152
 21
356.9995828478474
 31
0
  0
LINE
  8
1
 62
2
 10
336.9444267768152
 20
356.9995828478474
 30
0
 11
336.8265756466175
 21
356.7344178049024
 31
0
  0
LINE
  8
1
 62
2
 10
336.8265756466175
 20
356.7344178049024
 30
0
 11
336.7087245164197
 21
355.9389226760675
 31
0
  0
LINE
  8
1
 62
2
 10
336.7087245164197
 20
355.9389226760675
 30
0
 11
339.7728539015614
 21
355.9389226760675
 31
0
  0
LINE
  8
1
 62
2
 10
340.8335140733412
 20
358.9883206699345
 30
0
 11
342.0120253753188
 21
358.9883206699345
 31
0
  0
LINE
  8
1
 62
2
 10
341.42276972433
 20
360.0489808417144
 30
0
 11
341.42276972433
 21
356.07150519754
 31
0
  0
LINE
  8
1
 62
2
 10
341.42276972433
 20
358.9883206699345
 30
0
 11
341.0692163337367
 21
357.9276604981547
 31
0
  0
LINE
  8
1
 62
2
 10
341.0692163337367
 20
357.9276604981547
 30
0
 11
340.8335140733412
 21
357.5299129337373
 31
0
  0
LINE
  8
1
 62
2
 10
340.8335140733412
 20
357.5299129337373
 30
0
 11
340.7156629431435
 21
357.2647478907923
 31
0
  0
LINE
  8
1
 62
2
 10
341.42276972433
 20
358.9883206699345
 30
0
 11
341.894174245121
 21
357.9276604981547
 31
0
  0
LINE
  8
1
 62
2
 10
342.7191321565053
 20
359.9163983202419
 30
0
 11
342.1298765055165
 21
358.9883206699345
 31
0
  0
LINE
  8
1
 62
2
 10
342.9548344169008
 20
359.120903191407
 30
0
 11
342.2477276357143
 21
357.7950779766822
 31
0
  0
LINE
  8
1
 62
2
 10
342.2477276357143
 20
357.7950779766822
 30
0
 11
341.894174245121
 21
357.3973304122648
 31
0
  0
LINE
  8
1
 62
2
 10
342.4834298961098
 20
358.1928255410996
 30
0
 11
342.4834298961098
 21
356.07150519754
 31
0
  0
LINE
  8
1
 62
2
 10
343.0726855470986
 20
359.6512332772969
 30
0
 11
344.1333457188785
 21
359.6512332772969
 31
0
  0
LINE
  8
1
 62
2
 10
342.9548344169008
 20
358.5905731055171
 30
0
 11
344.3690479792739
 21
358.5905731055171
 31
0
  0
LINE
  8
1
 62
2
 10
343.7797923282852
 20
358.5905731055171
 30
0
 11
343.7797923282852
 21
356.336670240485
 31
0
  0
LINE
  8
1
 62
2
 10
343.7797923282852
 20
356.336670240485
 30
0
 11
343.6619411980874
 21
356.07150519754
 31
0
  0
LINE
  8
1
 62
2
 10
343.6619411980874
 20
356.07150519754
 30
0
 11
343.3083878074941
 21
356.07150519754
 31
0
  0
LINE
  8
1
 62
2
 10
346.4903683228336
 20
360.1815633631868
 30
0
 11
346.7260705832291
 21
359.7838157987694
 31
0
  0
LINE
  8
1
 62
2
 10
346.7260705832291
 20
359.7838157987694
 30
0
 11
346.9617728436246
 21
359.120903191407
 31
0
  0
LINE
  8
1
 62
2
 10
346.9617728436246
 20
359.120903191407
 30
0
 11
346.9617728436246
 21
356.9995828478474
 31
0
  0
LINE
  8
1
 62
2
 10
346.9617728436246
 20
356.9995828478474
 30
0
 11
346.7260705832291
 21
356.336670240485
 31
0
  0
LINE
  8
1
 62
2
 10
346.7260705832291
 20
356.336670240485
 30
0
 11
346.4903683228336
 21
355.9389226760675
 31
0
  0
LINE
  8
1
 62
2
 10
355.2768690195175
 20
347.5114217109181
 30
0
 11
352.7312846072459
 21
347.5114217109181
 31
0
  0
LINE
  8
1
 62
2
 10
355.7011330882294
 20
349.4206100201217
 30
0
 11
352.7312846072459
 21
349.4206100201217
 31
0
  0
LINE
  8
1
 62
2
 10
352.7312846072459
 20
349.4206100201217
 30
0
 11
352.7312846072459
 21
345.1779693330025
 31
0
  0
LINE
  8
1
 62
2
 10
352.7312846072459
 20
345.1779693330025
 30
0
 11
355.7011330882294
 21
345.1779693330025
 31
0
  0
LINE
  8
1
 62
2
 10
348.9125371825547
 20
351.7386567011623
 30
0
 11
348.9125371825547
 21
355.9812973882816
 31
0
  0
LINE
  8
1
 62
2
 10
349.5017928335435
 20
354.7880546950293
 30
0
 11
348.2054304013682
 21
354.7880546950293
 31
0
  0
LINE
  8
1
 62
2
 10
348.0875792711705
 20
353.0644819158871
 30
0
 11
348.5589837919615
 21
353.859977044722
 31
0
  0
LINE
  8
1
 62
2
 10
348.5589837919615
 20
353.859977044722
 30
0
 11
348.9125371825547
 21
354.6554721735568
 31
0
  0
LINE
  8
1
 62
2
 10
348.9125371825547
 20
354.6554721735568
 30
0
 11
349.5017928335435
 21
353.7273945232495
 31
0
  0
LINE
  8
1
 62
2
 10
349.6196439637413
 20
352.5341518299972
 30
0
 11
350.3267507449278
 21
353.329646958832
 31
0
  0
LINE
  8
1
 62
2
 10
350.3267507449278
 20
353.329646958832
 30
0
 11
350.9160063959166
 21
354.5228896520844
 31
0
  0
LINE
  8
1
 62
2
 10
351.6231131771032
 20
354.6554721735568
 30
0
 11
349.8553462241368
 21
354.6554721735568
 31
0
  0
LINE
  8
1
 62
2
 10
350.9160063959166
 20
355.8487148668091
 30
0
 11
351.0338575261144
 21
352.0038217441073
 31
0
  0
LINE
  8
1
 62
2
 10
351.0338575261144
 20
352.0038217441073
 30
0
 11
350.6803041355211
 21
352.0038217441073
 31
0
  0
LINE
  8
1
 62
2
 10
352.3302199582898
 20
352.5341518299972
 30
0
 11
352.6837733488831
 21
353.1970644373596
 31
0
  0
LINE
  8
1
 62
2
 10
352.6837733488831
 20
353.1970644373596
 30
0
 11
353.1551778696741
 21
354.3903071306119
 31
0
  0
LINE
  8
1
 62
2
 10
353.9801357810584
 20
354.3903071306119
 30
0
 11
352.3302199582898
 21
354.3903071306119
 31
0
  0
LINE
  8
1
 62
2
 10
352.4480710884875
 20
355.4509673023917
 30
0
 11
352.8016244790808
 21
354.9206372165018
 31
0
  0
LINE
  8
1
 62
2
 10
353.5087312602673
 20
355.0532197379743
 30
0
 11
353.7444335206628
 21
355.5835498238642
 31
0
  0
LINE
  8
1
 62
2
 10
353.1551778696741
 20
355.8487148668091
 30
0
 11
353.1551778696741
 21
351.8712392226348
 31
0
  0
LINE
  8
1
 62
2
 10
353.5087312602673
 20
353.859977044722
 30
0
 11
353.7444335206628
 21
353.329646958832
 31
0
  0
LINE
  8
1
 62
2
 10
353.9801357810584
 20
353.1970644373596
 30
0
 11
355.9836049944203
 21
353.594812001777
 31
0
  0
LINE
  8
1
 62
2
 10
354.6872425622449
 20
354.1251420876669
 30
0
 11
354.3336891716517
 21
354.6554721735568
 31
0
  0
LINE
  8
1
 62
2
 10
354.6872425622449
 20
355.1858022594468
 30
0
 11
354.3336891716517
 21
355.7161323453366
 31
0
  0
LINE
  8
1
 62
2
 10
355.2764982132337
 20
355.9812973882816
 30
0
 11
355.2764982132337
 21
351.7386567011623
 31
0
  0
LINE
  8
1
 62
2
 10
356.6907117756068
 20
352.0038217441073
 30
0
 11
356.6907117756068
 21
353.0644819158871
 31
0
  0
LINE
  8
1
 62
2
 10
356.6907117756068
 20
353.0644819158871
 30
0
 11
357.6335208171889
 21
353.0644819158871
 31
0
  0
LINE
  8
1
 62
2
 10
357.6335208171889
 20
353.0644819158871
 30
0
 11
357.6335208171889
 21
352.0038217441073
 31
0
  0
LINE
  8
1
 62
2
 10
357.6335208171889
 20
352.0038217441073
 30
0
 11
356.6907117756068
 21
352.0038217441073
 31
0
  0
LINE
  8
1
 62
2
 10
356.6907117756068
 20
353.594812001777
 30
0
 11
357.6335208171889
 21
353.594812001777
 31
0
  0
LINE
  8
1
 62
2
 10
357.6335208171889
 20
354.2577246091394
 30
0
 11
356.6907117756068
 21
354.2577246091394
 31
0
  0
LINE
  8
1
 62
2
 10
356.4550095152113
 20
354.7880546950293
 30
0
 11
357.9870742077821
 21
354.7880546950293
 31
0
  0
LINE
  8
1
 62
2
 10
356.572860645409
 20
355.4509673023917
 30
0
 11
357.6335208171889
 21
355.4509673023917
 31
0
  0
LINE
  8
1
 62
2
 10
358.3406275983754
 20
355.3183847809192
 30
0
 11
359.6369900305508
 21
355.3183847809192
 31
0
  0
LINE
  8
1
 62
2
 10
359.6369900305508
 20
355.3183847809192
 30
0
 11
359.6369900305508
 21
353.9925595661944
 31
0
  0
LINE
  8
1
 62
2
 10
359.6369900305508
 20
353.9925595661944
 30
0
 11
358.3406275983754
 21
353.9925595661944
 31
0
  0
LINE
  8
1
 62
2
 10
358.3406275983754
 20
353.9925595661944
 30
0
 11
358.3406275983754
 21
352.0038217441073
 31
0
  0
LINE
  8
1
 62
2
 10
358.3406275983754
 20
352.0038217441073
 30
0
 11
359.990543421144
 21
352.0038217441073
 31
0
  0
LINE
  8
1
 62
2
 10
359.990543421144
 20
352.0038217441073
 30
0
 11
359.990543421144
 21
352.4015693085247
 31
0
  0
LINE
  8
1
 62
2
 10
361.6404592439126
 20
355.7161323453366
 30
0
 11
361.6404592439126
 21
354.7880546950293
 31
0
  0
LINE
  8
1
 62
2
 10
361.6404592439126
 20
354.7880546950293
 30
0
 11
363.5260773270767
 21
354.7880546950293
 31
0
  0
LINE
  8
1
 62
2
 10
363.5260773270767
 20
354.7880546950293
 30
0
 11
363.5260773270767
 21
355.7161323453366
 31
0
  0
LINE
  8
1
 62
2
 10
363.5260773270767
 20
355.7161323453366
 30
0
 11
361.6404592439126
 21
355.7161323453366
 31
0
  0
LINE
  8
1
 62
2
 10
360.8155013325283
 20
354.1251420876669
 30
0
 11
364.2331841082633
 21
354.1251420876669
 31
0
  0
LINE
  8
1
 62
2
 10
362.1118637647036
 20
354.1251420876669
 30
0
 11
361.7583103741104
 21
352.7993168729421
 31
0
  0
LINE
  8
1
 62
2
 10
361.8761615043081
 20
353.329646958832
 30
0
 11
363.5260773270767
 21
353.329646958832
 31
0
  0
LINE
  8
1
 62
2
 10
363.5260773270767
 20
353.329646958832
 30
0
 11
363.2903750666812
 21
352.5341518299972
 31
0
  0
LINE
  8
1
 62
2
 10
363.2903750666812
 20
352.5341518299972
 30
0
 11
362.9368216760879
 21
351.8712392226348
 31
0
  0
LINE
  8
1
 62
2
 10
362.9368216760879
 20
351.8712392226348
 30
0
 11
362.7011194156924
 21
351.7386567011623
 31
0
  0
LINE
  8
1
 62
2
 10
362.7011194156924
 20
351.7386567011623
 30
0
 11
362.2297148949014
 21
352.0038217441073
 31
0
  0
LINE
  8
1
 62
2
 10
327.280634100599
 20
363.0152034539456
 30
0
 11
328.5769965327743
 21
363.5455335398355
 31
0
  0
LINE
  8
1
 62
2
 10
328.3412942723788
 20
363.678116061308
 30
0
 11
328.4591454025766
 21
364.3410286686704
 31
0
  0
LINE
  8
1
 62
2
 10
328.5769965327743
 20
364.7387762330878
 30
0
 11
327.3984852307968
 21
364.7387762330878
 31
0
  0
LINE
  8
1
 62
2
 10
327.5163363609946
 20
365.4016888404502
 30
0
 11
328.5769965327743
 21
365.4016888404502
 31
0
  0
LINE
  8
1
 62
2
 10
328.6948476629721
 20
366.0646014478126
 30
0
 11
327.9877408817856
 21
366.8600965766474
 31
0
  0
LINE
  8
1
 62
2
 10
327.9877408817856
 20
366.8600965766474
 30
0
 11
327.0449318402035
 21
365.0039412760328
 31
0
  0
LINE
  8
1
 62
2
 10
327.3984852307968
 20
364.3410286686704
 30
0
 11
327.6341874911923
 21
363.678116061308
 31
0
  0
LINE
  8
1
 62
2
 10
327.9877408817856
 20
363.2803684968906
 30
0
 11
327.9877408817856
 21
365.4016888404502
 31
0
  0
LINE
  8
1
 62
2
 10
328.6948476629721
 20
365.2691063189777
 30
0
 11
330.8161680065318
 21
365.2691063189777
 31
0
  0
LINE
  8
1
 62
2
 10
330.8161680065318
 20
364.4736111901428
 30
0
 11
328.8126987931699
 21
364.4736111901428
 31
0
  0
LINE
  8
1
 62
2
 10
328.6948476629721
 20
363.1477859754181
 30
0
 11
329.1662521837632
 21
363.943281104253
 31
0
  0
LINE
  8
1
 62
2
 10
329.1662521837632
 20
363.943281104253
 30
0
 11
329.5198055743564
 21
365.2691063189777
 31
0
  0
LINE
  8
1
 62
2
 10
329.5198055743564
 20
365.2691063189777
 30
0
 11
329.6376567045542
 21
366.8600965766474
 31
0
  0
LINE
  8
1
 62
2
 10
328.8126987931699
 20
366.46234901223
 30
0
 11
330.5804657461363
 21
366.46234901223
 31
0
  0
LINE
  8
1
 62
2
 10
330.5804657461363
 20
365.7994364048676
 30
0
 11
328.9305499233676
 21
365.7994364048676
 31
0
  0
LINE
  8
1
 62
2
 10
330.3447634857407
 20
365.0039412760328
 30
0
 11
330.3447634857407
 21
362.8826209324731
 31
0
  0
LINE
  8
1
 62
2
 10
330.3447634857407
 20
362.8826209324731
 30
0
 11
329.8733589649497
 21
362.8826209324731
 31
0
  0
LINE
  8
1
 62
2
 10
329.8733589649497
 20
363.412951018363
 30
0
 11
329.6376567045542
 21
364.0758636257254
 31
0
  0
LINE
  8
1
 62
2
 10
331.5232747877183
 20
363.2803684968906
 30
0
 11
332.1125304387072
 21
363.8106985827805
 31
0
  0
LINE
  8
1
 62
2
 10
332.1125304387072
 20
363.8106985827805
 30
0
 11
332.1125304387072
 21
365.2691063189777
 31
0
  0
LINE
  8
1
 62
2
 10
332.1125304387072
 20
365.2691063189777
 30
0
 11
331.4054236575206
 21
365.2691063189777
 31
0
  0
LINE
  8
1
 62
2
 10
332.1125304387072
 20
363.8106985827805
 30
0
 11
332.3482326991027
 21
363.2803684968906
 31
0
  0
LINE
  8
1
 62
2
 10
332.3482326991027
 20
363.2803684968906
 30
0
 11
332.5839349594982
 21
363.1477859754181
 31
0
  0
LINE
  8
1
 62
2
 10
332.5839349594982
 20
363.1477859754181
 30
0
 11
334.9409575634533
 21
363.1477859754181
 31
0
  0
LINE
  8
1
 62
2
 10
334.3517019124645
 20
363.8106985827805
 30
0
 11
334.3517019124645
 21
364.8713587545603
 31
0
  0
LINE
  8
1
 62
2
 10
334.3517019124645
 20
364.8713587545603
 30
0
 11
333.0553394802892
 21
364.8713587545603
 31
0
  0
LINE
  8
1
 62
2
 10
333.0553394802892
 20
364.8713587545603
 30
0
 11
333.0553394802892
 21
363.8106985827805
 31
0
  0
LINE
  8
1
 62
2
 10
333.0553394802892
 20
363.8106985827805
 30
0
 11
334.3517019124645
 21
363.8106985827805
 31
0
  0
LINE
  8
1
 62
2
 10
334.8231064332556
 20
365.4016888404502
 30
0
 11
332.5839349594982
 21
365.4016888404502
 31
0
  0
LINE
  8
1
 62
2
 10
333.644595131278
 20
365.4016888404502
 30
0
 11
333.644595131278
 21
367.1252616195924
 31
0
  0
LINE
  8
1
 62
2
 10
334.58740417286
 20
366.3297664907576
 30
0
 11
332.8196372198937
 21
366.3297664907576
 31
0
  0
LINE
  8
1
 62
2
 10
333.0553394802892
 20
366.9926790981199
 30
0
 11
332.8196372198937
 21
366.3297664907576
 31
0
  0
LINE
  8
1
 62
2
 10
332.8196372198937
 20
366.3297664907576
 30
0
 11
332.5839349594982
 21
365.9320189263401
 31
0
  0
LINE
  8
1
 62
2
 10
332.1125304387072
 20
366.46234901223
 30
0
 11
331.7589770481139
 21
366.9926790981199
 31
0
  0
LINE
  8
1
 62
2
 10
331.5232747877183
 20
363.2803684968906
 30
0
 11
331.4054236575206
 21
363.1477859754181
 31
0
  0
LINE
  8
1
 62
2
 10
336.7087245164197
 20
367.1252616195924
 30
0
 11
336.4730222560241
 21
366.727514055175
 31
0
  0
LINE
  8
1
 62
2
 10
336.4730222560241
 20
366.727514055175
 30
0
 11
336.1194688654309
 21
366.1971839692851
 31
0
  0
LINE
  8
1
 62
2
 10
336.1194688654309
 20
366.1971839692851
 30
0
 11
335.7659154748376
 21
365.7994364048676
 31
0
  0
LINE
  8
1
 62
2
 10
336.3551711258264
 20
366.46234901223
 30
0
 11
338.7121937297816
 21
366.46234901223
 31
0
  0
LINE
  8
1
 62
2
 10
337.4158312976062
 20
366.46234901223
 30
0
 11
337.4158312976062
 21
362.8826209324731
 31
0
  0
LINE
  8
1
 62
2
 10
336.2373199956286
 20
365.4016888404502
 30
0
 11
338.5943425995838
 21
365.4016888404502
 31
0
  0
LINE
  8
1
 62
2
 10
336.2373199956286
 20
365.2691063189777
 30
0
 11
336.2373199956286
 21
364.3410286686704
 31
0
  0
LINE
  8
1
 62
2
 10
335.5302132144421
 20
364.3410286686704
 30
0
 11
339.3014493807704
 21
364.3410286686704
 31
0
  0
LINE
  8
1
 62
2
 10
327.8356314669895
 20
438.4964151975178
 30
0
 11
330.5854911716039
 21
438.4964151975178
 31
0
  0
LINE
  8
1
 62
2
 10
329.265558513389
 20
438.4964151975178
 30
0
 11
329.265558513389
 21
440.847545244963
 31
0
  0
LINE
  8
1
 62
2
 10
328.4955977960969
 20
440.847545244963
 30
0
 11
330.035519230681
 21
440.847545244963
 31
0
  0
LINE
  8
1
 62
2
 10
330.3655023952347
 20
440.1050831247172
 30
0
 11
328.1656146315432
 21
440.1050831247172
 31
0
  0
LINE
  8
1
 62
2
 10
328.4955977960969
 20
439.6101083778866
 30
0
 11
328.7155865724661
 21
438.9913899443483
 31
0
  0
LINE
  8
1
 62
2
 10
329.8155304543118
 20
438.9913899443483
 30
0
 11
330.035519230681
 21
439.6101083778866
 31
0
  0
LINE
  8
1
 62
2
 10
327.5056483024358
 20
440.3525704981324
 30
0
 11
327.9456258551741
 21
440.7238015582554
 31
0
  0
LINE
  8
1
 62
2
 10
327.9456258551741
 20
440.7238015582554
 30
0
 11
328.7155865724661
 21
441.5900073652089
 31
0
  0
LINE
  8
1
 62
2
 10
328.7155865724661
 20
441.5900073652089
 30
0
 11
329.265558513389
 21
442.3324694854548
 31
0
  0
LINE
  8
1
 62
2
 10
329.265558513389
 20
442.3324694854548
 30
0
 11
329.8155304543118
 21
441.5900073652089
 31
0
  0
LINE
  8
1
 62
2
 10
329.8155304543118
 20
441.5900073652089
 30
0
 11
330.5854911716039
 21
440.7238015582554
 31
0
  0
LINE
  8
1
 62
2
 10
330.5854911716039
 20
440.7238015582554
 30
0
 11
331.0254687243422
 21
440.3525704981324
 31
0
  0
LINE
  8
1
 62
2
 10
331.7954294416342
 20
438.4964151975178
 30
0
 11
331.7954294416342
 21
442.0849821120395
 31
0
  0
LINE
  8
1
 62
2
 10
331.7954294416342
 20
442.0849821120395
 30
0
 11
332.8953733234799
 21
442.0849821120395
 31
0
  0
LINE
  8
1
 62
2
 10
332.8953733234799
 20
442.0849821120395
 30
0
 11
332.8953733234799
 21
440.847545244963
 31
0
  0
LINE
  8
1
 62
2
 10
332.8953733234799
 20
440.847545244963
 30
0
 11
331.7954294416342
 21
440.847545244963
 31
0
  0
LINE
  8
1
 62
2
 10
332.8953733234799
 20
441.4662636785013
 30
0
 11
331.7954294416342
 21
441.4662636785013
 31
0
  0
LINE
  8
1
 62
2
 10
334.2153059816948
 20
438.4964151975178
 30
0
 11
334.5452891462485
 21
438.4964151975178
 31
0
  0
LINE
  8
1
 62
2
 10
334.5452891462485
 20
438.4964151975178
 30
0
 11
334.6552835344331
 21
438.6201588842254
 31
0
  0
LINE
  8
1
 62
2
 10
334.6552835344331
 20
438.6201588842254
 30
0
 11
334.6552835344331
 21
442.0849821120395
 31
0
  0
LINE
  8
1
 62
2
 10
334.6552835344331
 20
442.0849821120395
 30
0
 11
333.5553396525874
 21
442.0849821120395
 31
0
  0
LINE
  8
1
 62
2
 10
333.5553396525874
 20
442.0849821120395
 30
0
 11
333.5553396525874
 21
440.847545244963
 31
0
  0
LINE
  8
1
 62
2
 10
333.5553396525874
 20
440.847545244963
 30
0
 11
334.6552835344331
 21
440.847545244963
 31
0
  0
LINE
  8
1
 62
2
 10
333.5553396525874
 20
441.4662636785013
 30
0
 11
334.6552835344331
 21
441.4662636785013
 31
0
  0
LINE
  8
1
 62
2
 10
339.1870523276376
 20
440.7485502955969
 30
0
 11
340.1770018212987
 21
440.7485502955969
 31
0
  0
LINE
  8
1
 62
2
 10
338.5930826314408
 20
442.3324694854548
 30
0
 11
340.0780068719326
 21
442.3324694854548
 31
0
  0
LINE
  8
1
 62
2
 10
340.0780068719326
 20
442.3324694854548
 30
0
 11
340.5729816187632
 21
442.2334745360886
 31
0
  0
LINE
  8
1
 62
2
 10
340.5729816187632
 20
442.2334745360886
 30
0
 11
340.8699664668615
 21
442.0354846373564
 31
0
  0
LINE
  8
1
 62
2
 10
340.8699664668615
 20
442.0354846373564
 30
0
 11
340.9689614162276
 21
441.7384997892581
 31
0
  0
LINE
  8
1
 62
2
 10
340.9689614162276
 20
441.7384997892581
 30
0
 11
340.9689614162276
 21
441.4415149411597
 31
0
  0
LINE
  8
1
 62
2
 10
340.9689614162276
 20
441.4415149411597
 30
0
 11
340.8699664668615
 21
441.1445300930614
 31
0
  0
LINE
  8
1
 62
2
 10
340.8699664668615
 20
441.1445300930614
 30
0
 11
340.6719765681293
 21
440.9465401943292
 31
0
  0
LINE
  8
1
 62
2
 10
340.6719765681293
 20
440.9465401943292
 30
0
 11
340.4739866693971
 21
440.847545244963
 31
0
  0
LINE
  8
1
 62
2
 10
340.4739866693971
 20
440.847545244963
 30
0
 11
340.1770018212987
 21
440.7485502955969
 31
0
  0
LINE
  8
1
 62
2
 10
340.1770018212987
 20
440.7485502955969
 30
0
 11
340.5729816187632
 21
440.6495553462308
 31
0
  0
LINE
  8
1
 62
2
 10
340.5729816187632
 20
440.6495553462308
 30
0
 11
340.7709715174954
 21
440.4515654474986
 31
0
  0
LINE
  8
1
 62
2
 10
340.7709715174954
 20
440.4515654474986
 30
0
 11
340.8699664668615
 21
440.2535755487663
 31
0
  0
LINE
  8
1
 62
2
 10
340.8699664668615
 20
440.2535755487663
 30
0
 11
340.9689614162276
 21
439.8575957513019
 31
0
  0
LINE
  8
1
 62
2
 10
340.9689614162276
 20
439.8575957513019
 30
0
 11
340.9689614162276
 21
439.3626210044713
 31
0
  0
LINE
  8
1
 62
2
 10
340.9689614162276
 20
439.3626210044713
 30
0
 11
340.8699664668615
 21
438.9666412070068
 31
0
  0
LINE
  8
1
 62
2
 10
340.8699664668615
 20
438.9666412070068
 30
0
 11
340.6719765681293
 21
438.6696563589085
 31
0
  0
LINE
  8
1
 62
2
 10
340.6719765681293
 20
438.6696563589085
 30
0
 11
340.374991720031
 21
438.4716664601762
 31
0
  0
LINE
  8
1
 62
2
 10
340.374991720031
 20
438.4716664601762
 30
0
 11
340.0780068719326
 21
438.3726715108101
 31
0
  0
LINE
  8
1
 62
2
 10
340.0780068719326
 20
438.3726715108101
 30
0
 11
338.5930826314408
 21
438.3726715108101
 31
0
  0
LINE
  8
1
 62
2
 10
344.4337846440417
 20
440.1545805994002
 30
0
 11
343.047855352916
 21
440.1545805994002
 31
0
  0
LINE
  8
1
 62
2
 10
343.047855352916
 20
440.1545805994002
 30
0
 11
342.7508705048177
 21
440.2535755487663
 31
0
  0
LINE
  8
1
 62
2
 10
342.7508705048177
 20
440.2535755487663
 30
0
 11
342.4538856567194
 21
440.4515654474986
 31
0
  0
LINE
  8
1
 62
2
 10
342.4538856567194
 20
440.4515654474986
 30
0
 11
342.2558957579871
 21
440.7485502955969
 31
0
  0
LINE
  8
1
 62
2
 10
342.2558957579871
 20
440.7485502955969
 30
0
 11
342.156900808621
 21
441.1445300930614
 31
0
  0
LINE
  8
1
 62
2
 10
342.156900808621
 20
441.1445300930614
 30
0
 11
342.156900808621
 21
441.3425199917936
 31
0
  0
LINE
  8
1
 62
2
 10
342.156900808621
 20
441.3425199917936
 30
0
 11
342.2558957579871
 21
441.7384997892581
 31
0
  0
LINE
  8
1
 62
2
 10
342.2558957579871
 20
441.7384997892581
 30
0
 11
342.4538856567194
 21
442.0354846373564
 31
0
  0
LINE
  8
1
 62
2
 10
342.4538856567194
 20
442.0354846373564
 30
0
 11
342.7508705048177
 21
442.2334745360886
 31
0
  0
LINE
  8
1
 62
2
 10
342.7508705048177
 20
442.2334745360886
 30
0
 11
343.047855352916
 21
442.3324694854548
 31
0
  0
LINE
  8
1
 62
2
 10
343.047855352916
 20
442.3324694854548
 30
0
 11
343.6418250491128
 21
442.3324694854548
 31
0
  0
LINE
  8
1
 62
2
 10
343.6418250491128
 20
442.3324694854548
 30
0
 11
343.9388098972111
 21
442.2334745360886
 31
0
  0
LINE
  8
1
 62
2
 10
343.9388098972111
 20
442.2334745360886
 30
0
 11
344.2357947453095
 21
442.0354846373564
 31
0
  0
LINE
  8
1
 62
2
 10
344.2357947453095
 20
442.0354846373564
 30
0
 11
344.4337846440417
 21
441.7384997892581
 31
0
  0
LINE
  8
1
 62
2
 10
344.4337846440417
 20
441.7384997892581
 30
0
 11
344.5327795934078
 21
441.3425199917936
 31
0
  0
LINE
  8
1
 62
2
 10
344.5327795934078
 20
441.3425199917936
 30
0
 11
344.5327795934078
 21
440.6495553462308
 31
0
  0
LINE
  8
1
 62
2
 10
344.5327795934078
 20
440.6495553462308
 30
0
 11
344.4337846440417
 21
440.1545805994002
 31
0
  0
LINE
  8
1
 62
2
 10
344.4337846440417
 20
440.1545805994002
 30
0
 11
344.3347896946756
 21
439.7586008019358
 31
0
  0
LINE
  8
1
 62
2
 10
344.3347896946756
 20
439.7586008019358
 30
0
 11
344.0378048465772
 21
439.3626210044713
 31
0
  0
LINE
  8
1
 62
2
 10
344.0378048465772
 20
439.3626210044713
 30
0
 11
343.3448402010144
 21
438.7686513082746
 31
0
  0
LINE
  8
1
 62
2
 10
343.3448402010144
 20
438.7686513082746
 30
0
 11
342.4538856567194
 21
438.3726715108101
 31
0
  0
LINE
  8
1
 62
2
 10
345.7207189858012
 20
438.3726715108101
 30
0
 11
345.7207189858012
 21
438.4716664601762
 31
0
  0
LINE
  8
1
 62
2
 10
345.7207189858012
 20
438.4716664601762
 30
0
 11
345.8197139351673
 21
438.4716664601762
 31
0
  0
LINE
  8
1
 62
2
 10
345.8197139351673
 20
438.4716664601762
 30
0
 11
345.8197139351673
 21
438.3726715108101
 31
0
  0
LINE
  8
1
 62
2
 10
345.8197139351673
 20
438.3726715108101
 30
0
 11
345.7207189858012
 21
438.3726715108101
 31
0
  0
LINE
  8
1
 62
2
 10
349.3835321123475
 20
439.8575957513019
 30
0
 11
349.2845371629814
 21
439.2636260551051
 31
0
  0
LINE
  8
1
 62
2
 10
349.2845371629814
 20
439.2636260551051
 30
0
 11
349.0865472642492
 21
438.8676462576407
 31
0
  0
LINE
  8
1
 62
2
 10
349.0865472642492
 20
438.8676462576407
 30
0
 11
348.8885573655169
 21
438.6696563589085
 31
0
  0
LINE
  8
1
 62
2
 10
348.8885573655169
 20
438.6696563589085
 30
0
 11
348.5915725174186
 21
438.4716664601762
 31
0
  0
LINE
  8
1
 62
2
 10
348.5915725174186
 20
438.4716664601762
 30
0
 11
348.2945876693202
 21
438.3726715108101
 31
0
  0
LINE
  8
1
 62
2
 10
348.2945876693202
 20
438.3726715108101
 30
0
 11
348.096597770588
 21
438.3726715108101
 31
0
  0
LINE
  8
1
 62
2
 10
348.096597770588
 20
438.3726715108101
 30
0
 11
347.7996129224896
 21
438.4716664601762
 31
0
  0
LINE
  8
1
 62
2
 10
347.7996129224896
 20
438.4716664601762
 30
0
 11
347.5026280743913
 21
438.6696563589085
 31
0
  0
LINE
  8
1
 62
2
 10
347.5026280743913
 20
438.6696563589085
 30
0
 11
347.3046381756591
 21
438.8676462576407
 31
0
  0
LINE
  8
1
 62
2
 10
347.3046381756591
 20
438.8676462576407
 30
0
 11
347.1066482769268
 21
439.2636260551051
 31
0
  0
LINE
  8
1
 62
2
 10
347.1066482769268
 20
439.2636260551051
 30
0
 11
347.0076533275607
 21
439.8575957513019
 31
0
  0
LINE
  8
1
 62
2
 10
347.0076533275607
 20
439.8575957513019
 30
0
 11
347.0076533275607
 21
440.847545244963
 31
0
  0
LINE
  8
1
 62
2
 10
347.0076533275607
 20
440.847545244963
 30
0
 11
347.1066482769268
 21
441.4415149411597
 31
0
  0
LINE
  8
1
 62
2
 10
347.1066482769268
 20
441.4415149411597
 30
0
 11
347.3046381756591
 21
441.8374947386242
 31
0
  0
LINE
  8
1
 62
2
 10
347.3046381756591
 20
441.8374947386242
 30
0
 11
347.5026280743913
 21
442.0354846373564
 31
0
  0
LINE
  8
1
 62
2
 10
347.5026280743913
 20
442.0354846373564
 30
0
 11
347.7996129224896
 21
442.2334745360886
 31
0
  0
LINE
  8
1
 62
2
 10
347.7996129224896
 20
442.2334745360886
 30
0
 11
348.096597770588
 21
442.3324694854548
 31
0
  0
LINE
  8
1
 62
2
 10
348.096597770588
 20
442.3324694854548
 30
0
 11
348.2945876693202
 21
442.3324694854548
 31
0
  0
LINE
  8
1
 62
2
 10
348.2945876693202
 20
442.3324694854548
 30
0
 11
348.5915725174186
 21
442.2334745360886
 31
0
  0
LINE
  8
1
 62
2
 10
348.5915725174186
 20
442.2334745360886
 30
0
 11
348.8885573655169
 21
442.0354846373564
 31
0
  0
LINE
  8
1
 62
2
 10
348.8885573655169
 20
442.0354846373564
 30
0
 11
349.0865472642492
 21
441.8374947386242
 31
0
  0
LINE
  8
1
 62
2
 10
349.0865472642492
 20
441.8374947386242
 30
0
 11
349.2845371629814
 21
441.4415149411597
 31
0
  0
LINE
  8
1
 62
2
 10
349.2845371629814
 20
441.4415149411597
 30
0
 11
349.3835321123475
 21
440.847545244963
 31
0
  0
LINE
  8
1
 62
2
 10
349.3835321123475
 20
440.847545244963
 30
0
 11
349.3835321123475
 21
439.8575957513019
 31
0
  0
LINE
  8
1
 62
2
 10
357.2371314287261
 20
441.218776305086
 30
0
 11
357.2371314287261
 21
438.6201588842254
 31
0
  0
LINE
  8
1
 62
2
 10
357.2371314287261
 20
438.6201588842254
 30
0
 11
360.096985521525
 21
438.6201588842254
 31
0
  0
LINE
  8
1
 62
2
 10
360.096985521525
 20
438.6201588842254
 30
0
 11
360.096985521525
 21
441.218776305086
 31
0
  0
LINE
  8
1
 62
2
 10
358.6670584751256
 20
442.0849821120395
 30
0
 11
358.6670584751256
 21
438.6201588842254
 31
0
  0
LINE
  8
1
 62
2
 10
360.866946238817
 20
441.1445300930614
 30
0
 11
362.0548856312104
 21
442.3324694854548
 31
0
  0
LINE
  8
1
 62
2
 10
362.0548856312104
 20
442.3324694854548
 30
0
 11
362.0548856312104
 21
438.3726715108101
 31
0
  0
LINE
  8
1
 62
2
 10
365.024734112194
 20
442.3324694854548
 30
0
 11
363.2428250236039
 21
439.164631105739
 31
0
  0
LINE
  8
1
 62
2
 10
363.2428250236039
 20
439.164631105739
 30
0
 11
365.6187038083907
 21
439.164631105739
 31
0
  0
LINE
  8
1
 62
2
 10
365.024734112194
 20
439.956590700668
 30
0
 11
365.024734112194
 21
438.3726715108101
 31
0
  0
LINE
  8
1
 62
7
 10
431.7340300441243
 20
400.1645661505161
 30
0
 11
431.5415202229463
 21
399.5812030560372
 31
0
  0
LINE
  8
1
 62
7
 10
431.5415202229463
 20
399.5812030560372
 30
0
 11
431.2848404613756
 21
400.0478935316203
 31
0
  0
LINE
  8
1
 62
7
 10
431.2848404613756
 20
400.0478935316203
 30
0
 11
430.8998208190195
 21
400.5145840072034
 31
0
  0
LINE
  8
1
 62
7
 10
430.8998208190195
 20
400.5145840072034
 30
0
 11
430.4506312362707
 21
400.747929244995
 31
0
  0
LINE
  8
1
 62
7
 10
430.4506312362707
 20
400.747929244995
 30
0
 11
430.1939514747
 21
400.747929244995
 31
0
  0
LINE
  8
1
 62
7
 10
430.1939514747
 20
400.747929244995
 30
0
 11
429.8089318323439
 21
400.5145840072034
 31
0
  0
LINE
  8
1
 62
7
 10
429.8089318323439
 20
400.5145840072034
 30
0
 11
429.6164220111659
 21
400.0478935316203
 31
0
  0
LINE
  8
1
 62
7
 10
429.6164220111659
 20
400.0478935316203
 30
0
 11
429.6164220111659
 21
400.6312566260992
 31
0
  0
LINE
  8
1
 62
7
 10
429.6164220111659
 20
400.6312566260992
 30
0
 11
428.9105526668465
 21
400.6312566260992
 31
0
  0
LINE
  8
1
 62
7
 10
428.9105526668465
 20
400.6312566260992
 30
0
 11
428.9105526668465
 21
393.7475721112481
 31
0
  0
LINE
  8
1
 62
7
 10
428.9105526668465
 20
393.7475721112481
 30
0
 11
429.6164220111659
 21
393.7475721112481
 31
0
  0
LINE
  8
1
 62
7
 10
429.6164220111659
 20
393.7475721112481
 30
0
 11
429.6164220111659
 21
398.5311494859751
 31
0
  0
LINE
  8
1
 62
7
 10
429.6164220111659
 20
398.5311494859751
 30
0
 11
429.7447618919513
 21
399.114512580454
 31
0
  0
LINE
  8
1
 62
7
 10
429.7447618919513
 20
399.114512580454
 30
0
 11
430.001441653522
 21
399.4645304371414
 31
0
  0
LINE
  8
1
 62
7
 10
430.001441653522
 20
399.4645304371414
 30
0
 11
430.2581214150927
 21
399.5812030560372
 31
0
  0
LINE
  8
1
 62
7
 10
430.2581214150927
 20
399.5812030560372
 30
0
 11
430.5789711170561
 21
399.4645304371414
 31
0
  0
LINE
  8
1
 62
7
 10
430.5789711170561
 20
399.4645304371414
 30
0
 11
430.7714809382342
 21
399.114512580454
 31
0
  0
LINE
  8
1
 62
7
 10
430.7714809382342
 20
399.114512580454
 30
0
 11
430.9639907594122
 21
398.5311494859751
 31
0
  0
LINE
  8
1
 62
7
 10
430.9639907594122
 20
398.5311494859751
 30
0
 11
431.0281606998049
 21
398.064459010392
 31
0
  0
LINE
  8
1
 62
7
 10
431.0281606998049
 20
398.064459010392
 30
0
 11
431.0281606998049
 21
393.7475721112481
 31
0
  0
LINE
  8
1
 62
7
 10
431.0281606998049
 20
393.7475721112481
 30
0
 11
431.7340300441243
 21
393.7475721112481
 31
0
  0
LINE
  8
1
 62
7
 10
431.7340300441243
 20
393.7475721112481
 30
0
 11
431.7340300441243
 21
398.5311494859751
 31
0
  0
LINE
  8
1
 62
7
 10
431.7340300441243
 20
398.5311494859751
 30
0
 11
431.8623699249097
 21
399.114512580454
 31
0
  0
LINE
  8
1
 62
7
 10
431.8623699249097
 20
399.114512580454
 30
0
 11
432.1190496864804
 21
399.4645304371414
 31
0
  0
LINE
  8
1
 62
7
 10
432.1190496864804
 20
399.4645304371414
 30
0
 11
432.3757294480511
 21
399.5812030560372
 31
0
  0
LINE
  8
1
 62
7
 10
432.3757294480511
 20
399.5812030560372
 30
0
 11
432.6965791500145
 21
399.4645304371414
 31
0
  0
LINE
  8
1
 62
7
 10
432.6965791500145
 20
399.4645304371414
 30
0
 11
432.8890889711926
 21
399.114512580454
 31
0
  0
LINE
  8
1
 62
7
 10
432.8890889711926
 20
399.114512580454
 30
0
 11
433.0815987923706
 21
398.5311494859751
 31
0
  0
LINE
  8
1
 62
7
 10
433.0815987923706
 20
398.5311494859751
 30
0
 11
433.1457687327633
 21
398.064459010392
 31
0
  0
LINE
  8
1
 62
7
 10
433.1457687327633
 20
398.064459010392
 30
0
 11
433.1457687327633
 21
393.7475721112481
 31
0
  0
LINE
  8
1
 62
7
 10
433.1457687327633
 20
393.7475721112481
 30
0
 11
433.8516380770828
 21
393.7475721112481
 31
0
  0
LINE
  8
1
 62
7
 10
433.8516380770828
 20
393.7475721112481
 30
0
 11
433.8516380770828
 21
397.9477863914962
 31
0
  0
LINE
  8
1
 62
7
 10
433.8516380770828
 20
397.9477863914962
 30
0
 11
433.7874681366901
 21
398.8811673426625
 31
0
  0
LINE
  8
1
 62
7
 10
433.7874681366901
 20
398.8811673426625
 30
0
 11
433.594958315512
 21
399.5812030560372
 31
0
  0
LINE
  8
1
 62
7
 10
433.594958315512
 20
399.5812030560372
 30
0
 11
433.402448494334
 21
400.0478935316203
 31
0
  0
LINE
  8
1
 62
7
 10
433.402448494334
 20
400.0478935316203
 30
0
 11
433.0174288519779
 21
400.5145840072034
 31
0
  0
LINE
  8
1
 62
7
 10
433.0174288519779
 20
400.5145840072034
 30
0
 11
432.5682392692292
 21
400.747929244995
 31
0
  0
LINE
  8
1
 62
7
 10
432.5682392692292
 20
400.747929244995
 30
0
 11
432.3115595076584
 21
400.747929244995
 31
0
  0
LINE
  8
1
 62
7
 10
432.3115595076584
 20
400.747929244995
 30
0
 11
431.9907098056951
 21
400.5145840072034
 31
0
  0
LINE
  8
1
 62
7
 10
431.9907098056951
 20
400.5145840072034
 30
0
 11
431.7340300441243
 21
400.1645661505161
 31
0
  0
LINE
  8
1
 62
7
 10
438.6975337791307
 20
400.1645661505161
 30
0
 11
438.5050239579527
 21
399.5812030560372
 31
0
  0
LINE
  8
1
 62
7
 10
438.5050239579527
 20
399.5812030560372
 30
0
 11
438.248344196382
 21
400.0478935316203
 31
0
  0
LINE
  8
1
 62
7
 10
438.248344196382
 20
400.0478935316203
 30
0
 11
437.8633245540259
 21
400.5145840072034
 31
0
  0
LINE
  8
1
 62
7
 10
437.8633245540259
 20
400.5145840072034
 30
0
 11
437.4141349712771
 21
400.747929244995
 31
0
  0
LINE
  8
1
 62
7
 10
437.4141349712771
 20
400.747929244995
 30
0
 11
437.1574552097064
 21
400.747929244995
 31
0
  0
LINE
  8
1
 62
7
 10
437.1574552097064
 20
400.747929244995
 30
0
 11
436.7724355673503
 21
400.5145840072034
 31
0
  0
LINE
  8
1
 62
7
 10
436.7724355673503
 20
400.5145840072034
 30
0
 11
436.5799257461723
 21
400.0478935316203
 31
0
  0
LINE
  8
1
 62
7
 10
436.5799257461723
 20
400.0478935316203
 30
0
 11
436.5799257461723
 21
400.6312566260992
 31
0
  0
LINE
  8
1
 62
7
 10
436.5799257461723
 20
400.6312566260992
 30
0
 11
435.8740564018528
 21
400.6312566260992
 31
0
  0
LINE
  8
1
 62
7
 10
435.8740564018528
 20
400.6312566260992
 30
0
 11
435.8740564018528
 21
393.7475721112481
 31
0
  0
LINE
  8
1
 62
7
 10
435.8740564018528
 20
393.7475721112481
 30
0
 11
436.5799257461723
 21
393.7475721112481
 31
0
  0
LINE
  8
1
 62
7
 10
436.5799257461723
 20
393.7475721112481
 30
0
 11
436.5799257461723
 21
398.5311494859751
 31
0
  0
LINE
  8
1
 62
7
 10
436.5799257461723
 20
398.5311494859751
 30
0
 11
436.7082656269577
 21
399.114512580454
 31
0
  0
LINE
  8
1
 62
7
 10
436.7082656269577
 20
399.114512580454
 30
0
 11
436.9649453885284
 21
399.4645304371414
 31
0
  0
LINE
  8
1
 62
7
 10
436.9649453885284
 20
399.4645304371414
 30
0
 11
437.2216251500991
 21
399.5812030560372
 31
0
  0
LINE
  8
1
 62
7
 10
437.2216251500991
 20
399.5812030560372
 30
0
 11
437.5424748520625
 21
399.4645304371414
 31
0
  0
LINE
  8
1
 62
7
 10
437.5424748520625
 20
399.4645304371414
 30
0
 11
437.7349846732406
 21
399.114512580454
 31
0
  0
LINE
  8
1
 62
7
 10
437.7349846732406
 20
399.114512580454
 30
0
 11
437.9274944944186
 21
398.5311494859751
 31
0
  0
LINE
  8
1
 62
7
 10
437.9274944944186
 20
398.5311494859751
 30
0
 11
437.9916644348112
 21
398.064459010392
 31
0
  0
LINE
  8
1
 62
7
 10
437.9916644348112
 20
398.064459010392
 30
0
 11
437.9916644348112
 21
393.7475721112481
 31
0
  0
LINE
  8
1
 62
7
 10
437.9916644348112
 20
393.7475721112481
 30
0
 11
438.6975337791307
 21
393.7475721112481
 31
0
  0
LINE
  8
1
 62
7
 10
438.6975337791307
 20
393.7475721112481
 30
0
 11
438.6975337791307
 21
398.5311494859751
 31
0
  0
LINE
  8
1
 62
7
 10
438.6975337791307
 20
398.5311494859751
 30
0
 11
438.8258736599161
 21
399.114512580454
 31
0
  0
LINE
  8
1
 62
7
 10
438.8258736599161
 20
399.114512580454
 30
0
 11
439.0825534214868
 21
399.4645304371414
 31
0
  0
LINE
  8
1
 62
7
 10
439.0825534214868
 20
399.4645304371414
 30
0
 11
439.3392331830575
 21
399.5812030560372
 31
0
  0
LINE
  8
1
 62
7
 10
439.3392331830575
 20
399.5812030560372
 30
0
 11
439.6600828850209
 21
399.4645304371414
 31
0
  0
LINE
  8
1
 62
7
 10
439.6600828850209
 20
399.4645304371414
 30
0
 11
439.852592706199
 21
399.114512580454
 31
0
  0
LINE
  8
1
 62
7
 10
439.852592706199
 20
399.114512580454
 30
0
 11
440.045102527377
 21
398.5311494859751
 31
0
  0
LINE
  8
1
 62
7
 10
440.045102527377
 20
398.5311494859751
 30
0
 11
440.1092724677696
 21
398.064459010392
 31
0
  0
LINE
  8
1
 62
7
 10
440.1092724677696
 20
398.064459010392
 30
0
 11
440.1092724677696
 21
393.7475721112481
 31
0
  0
LINE
  8
1
 62
7
 10
440.1092724677696
 20
393.7475721112481
 30
0
 11
440.8151418120892
 21
393.7475721112481
 31
0
  0
LINE
  8
1
 62
7
 10
440.8151418120892
 20
393.7475721112481
 30
0
 11
440.8151418120892
 21
397.9477863914962
 31
0
  0
LINE
  8
1
 62
7
 10
440.8151418120892
 20
397.9477863914962
 30
0
 11
440.7509718716964
 21
398.8811673426625
 31
0
  0
LINE
  8
1
 62
7
 10
440.7509718716964
 20
398.8811673426625
 30
0
 11
440.5584620505184
 21
399.5812030560372
 31
0
  0
LINE
  8
1
 62
7
 10
440.5584620505184
 20
399.5812030560372
 30
0
 11
440.3659522293404
 21
400.0478935316203
 31
0
  0
LINE
  8
1
 62
7
 10
440.3659522293404
 20
400.0478935316203
 30
0
 11
439.9809325869843
 21
400.5145840072034
 31
0
  0
LINE
  8
1
 62
7
 10
439.9809325869843
 20
400.5145840072034
 30
0
 11
439.5317430042356
 21
400.747929244995
 31
0
  0
LINE
  8
1
 62
7
 10
439.5317430042356
 20
400.747929244995
 30
0
 11
439.2750632426648
 21
400.747929244995
 31
0
  0
LINE
  8
1
 62
7
 10
439.2750632426648
 20
400.747929244995
 30
0
 11
438.9542135407015
 21
400.5145840072034
 31
0
  0
LINE
  8
1
 62
7
 10
438.9542135407015
 20
400.5145840072034
 30
0
 11
438.6975337791307
 21
400.1645661505161
 31
0
  0
LINE
  8
1
 62
7
 10
406.9237706534889
 20
386.8313882307571
 30
0
 11
406.9237706534889
 21
387.8761384999602
 31
0
  0
LINE
  8
1
 62
7
 10
406.9237706534889
 20
387.8761384999602
 30
0
 11
407.2615732405313
 21
389.0950138140306
 31
0
  0
LINE
  8
1
 62
7
 10
407.2615732405313
 20
389.0950138140306
 30
0
 11
407.937178414616
 21
390.3138891281009
 31
0
  0
LINE
  8
1
 62
7
 10
407.937178414616
 20
390.3138891281009
 30
0
 11
408.7816848822218
 21
391.358639397304
 31
0
  0
LINE
  8
1
 62
7
 10
408.7816848822218
 20
391.358639397304
 30
0
 11
409.7950926433488
 21
392.5775147113743
 31
0
  0
LINE
  8
1
 62
7
 10
409.7950926433488
 20
392.5775147113743
 30
0
 11
410.8085004044759
 21
393.4481399357102
 31
0
  0
LINE
  8
1
 62
7
 10
410.8085004044759
 20
393.4481399357102
 30
0
 11
413.0042172202511
 21
395.7117655189837
 31
0
  0
LINE
  8
1
 62
7
 10
413.0042172202511
 20
395.7117655189837
 30
0
 11
413.3420198072935
 21
396.2341406535853
 31
0
  0
LINE
  8
1
 62
7
 10
413.3420198072935
 20
396.2341406535853
 30
0
 11
413.5109211008146
 21
396.7565157881868
 31
0
  0
LINE
  8
1
 62
7
 10
413.5109211008146
 20
396.7565157881868
 30
0
 11
413.5109211008146
 21
397.4530159676555
 31
0
  0
LINE
  8
1
 62
7
 10
413.5109211008146
 20
397.4530159676555
 30
0
 11
413.3420198072935
 21
397.9753911022571
 31
0
  0
LINE
  8
1
 62
7
 10
413.3420198072935
 20
397.9753911022571
 30
0
 11
413.0042172202511
 21
398.4977662368587
 31
0
  0
LINE
  8
1
 62
7
 10
413.0042172202511
 20
398.4977662368587
 30
0
 11
412.4975133396876
 21
398.846016326593
 31
0
  0
LINE
  8
1
 62
7
 10
412.4975133396876
 20
398.846016326593
 30
0
 11
411.8219081656029
 21
399.0201413714602
 31
0
  0
LINE
  8
1
 62
7
 10
411.8219081656029
 20
399.0201413714602
 30
0
 11
411.1463029915182
 21
399.0201413714602
 31
0
  0
LINE
  8
1
 62
7
 10
411.1463029915182
 20
399.0201413714602
 30
0
 11
410.4706978174335
 21
398.846016326593
 31
0
  0
LINE
  8
1
 62
7
 10
410.4706978174335
 20
398.846016326593
 30
0
 11
409.96399393687
 21
398.4977662368587
 31
0
  0
LINE
  8
1
 62
7
 10
409.96399393687
 20
398.4977662368587
 30
0
 11
409.6261913498277
 21
397.9753911022571
 31
0
  0
LINE
  8
1
 62
7
 10
409.6261913498277
 20
397.9753911022571
 30
0
 11
409.4572900563065
 21
397.4530159676555
 31
0
  0
LINE
  8
1
 62
7
 10
409.4572900563065
 20
397.4530159676555
 30
0
 11
409.4572900563065
 21
396.7565157881868
 31
0
  0
LINE
  8
1
 62
7
 10
409.4572900563065
 20
396.7565157881868
 30
0
 11
407.5993758275736
 21
396.7565157881868
 31
0
  0
LINE
  8
1
 62
7
 10
407.5993758275736
 20
396.7565157881868
 30
0
 11
407.5993758275736
 21
397.4530159676555
 31
0
  0
LINE
  8
1
 62
7
 10
407.5993758275736
 20
397.4530159676555
 30
0
 11
407.7682771210948
 21
398.3236411919915
 31
0
  0
LINE
  8
1
 62
7
 10
407.7682771210948
 20
398.3236411919915
 30
0
 11
408.4438822951795
 21
399.3683914611946
 31
0
  0
LINE
  8
1
 62
7
 10
408.4438822951795
 20
399.3683914611946
 30
0
 11
409.1194874692642
 21
400.0648916406634
 31
0
  0
LINE
  8
1
 62
7
 10
409.1194874692642
 20
400.0648916406634
 30
0
 11
410.1328952303912
 21
400.5872667752649
 31
0
  0
LINE
  8
1
 62
7
 10
410.1328952303912
 20
400.5872667752649
 30
0
 11
410.977401697997
 21
400.7613918201321
 31
0
  0
LINE
  8
1
 62
7
 10
410.977401697997
 20
400.7613918201321
 30
0
 11
411.9908094591241
 21
400.7613918201321
 31
0
  0
LINE
  8
1
 62
7
 10
411.9908094591241
 20
400.7613918201321
 30
0
 11
412.83531592673
 21
400.5872667752649
 31
0
  0
LINE
  8
1
 62
7
 10
412.83531592673
 20
400.5872667752649
 30
0
 11
413.848723687857
 21
400.0648916406634
 31
0
  0
LINE
  8
1
 62
7
 10
413.848723687857
 20
400.0648916406634
 30
0
 11
414.5243288619417
 21
399.3683914611946
 31
0
  0
LINE
  8
1
 62
7
 10
414.5243288619417
 20
399.3683914611946
 30
0
 11
415.1999340360263
 21
398.3236411919915
 31
0
  0
LINE
  8
1
 62
7
 10
415.1999340360263
 20
398.3236411919915
 30
0
 11
415.3688353295475
 21
397.4530159676555
 31
0
  0
LINE
  8
1
 62
7
 10
415.3688353295475
 20
397.4530159676555
 30
0
 11
415.3688353295475
 21
396.7565157881868
 31
0
  0
LINE
  8
1
 62
7
 10
415.3688353295475
 20
396.7565157881868
 30
0
 11
415.1999340360263
 21
395.8858905638509
 31
0
  0
LINE
  8
1
 62
7
 10
415.1999340360263
 20
395.8858905638509
 30
0
 11
414.5243288619417
 21
394.8411402946477
 31
0
  0
LINE
  8
1
 62
7
 10
414.5243288619417
 20
394.8411402946477
 30
0
 11
414.1865262748993
 21
394.4928902049134
 31
0
  0
LINE
  8
1
 62
7
 10
414.1865262748993
 20
394.4928902049134
 30
0
 11
412.83531592673
 21
393.274014890843
 31
0
  0
LINE
  8
1
 62
7
 10
412.83531592673
 20
393.274014890843
 30
0
 11
411.6530068720817
 21
392.2292646216399
 31
0
  0
LINE
  8
1
 62
7
 10
411.6530068720817
 20
392.2292646216399
 30
0
 11
410.4706978174335
 21
390.8362642627024
 31
0
  0
LINE
  8
1
 62
7
 10
410.4706978174335
 20
390.8362642627024
 30
0
 11
409.6261913498277
 21
389.6173889486321
 31
0
  0
LINE
  8
1
 62
7
 10
409.6261913498277
 20
389.6173889486321
 30
0
 11
409.2883887627854
 21
388.572638679429
 31
0
  0
LINE
  8
1
 62
7
 10
409.2883887627854
 20
388.572638679429
 30
0
 11
415.875539210111
 21
388.572638679429
 31
0
  0
LINE
  8
1
 62
7
 10
415.875539210111
 20
388.572638679429
 30
0
 11
415.875539210111
 21
386.8313882307571
 31
0
  0
LINE
  8
1
 62
7
 10
415.875539210111
 20
386.8313882307571
 30
0
 11
406.9237706534889
 21
386.8313882307571
 31
0
  0
LINE
  8
0
 62
7
 10
467.3786941345881
 20
440.1828785199497
 30
0
 11
467.3780763968878
 21
440.1828785199497
 31
0
  0
LINE
  8
0
 62
7
 10
467.3780488136202
 20
452.1828786242497
 30
0
 11
471.8783856829379
 21
452.1828786242497
 31
0
  0
LINE
  8
0
 62
7
 10
380.3786941345881
 20
440.1828785199497
 30
0
 11
375.8783848485379
 21
440.1828785199497
 31
0
  0
LINE
  8
1
 62
7
 10
381.479574879072
 20
439.1828783560856
 30
0
 11
381.3783852657379
 21
439.1828785676497
 31
0
  0
LINE
  8
1
 62
7
 10
382.4869596118537
 20
560.9248217904083
 30
0
 11
383.4843427593777
 21
560.8525325321127
 31
0
  0
LINE
  8
1
 62
7
 10
382.4869596118537
 20
554.9248208069084
 30
0
 11
383.4843427593287
 21
554.9971100651458
 31
0
  0
LINE
  8
0
 62
7
 10
431.2801027389697
 20
533.5226760022686
 30
0
 11
431.3954572843722
 21
533.2441863380639
 31
0
  0
LINE
  8
1
 62
7
 10
400.3980776586593
 20
536.9248197191084
 30
0
 11
400.8783844018539
 21
536.4015766196085
 31
0
  0
LINE
  8
0
 62
7
 10
399.3783859065378
 20
463.6828785676497
 30
0
 11
399.3783852657379
 21
463.6828785676497
 31
0
  0
LINE
  8
0
 62
7
 10
385.8783864876378
 20
462.1828784007497
 30
0
 11
461.8783840438379
 21
462.1828784007497
 31
0
  0
ARC
  8
1
 62
7
 10
423.8799309230518
 20
557.928371447809
 30
0
 40
42.99799588748915
 50
5.448577990033663
 51
14.5422667714802
  0
ARC
  8
1
 62
7
 10
423.8783849413539
 20
557.9248194360084
 30
0
 40
42.99999999999995
 50
14.54633081162907
 51
84.54700020925243
  0
ARC
  8
1
 62
7
 10
423.8783849413539
 20
557.9248194360084
 30
0
 40
43
 50
185.4866881673313
 51
264.5470037873481
  0
ARC
  8
1
 62
7
 10
508.3783849413539
 20
538.722651128871
 30
0
 40
2.999999999999886
 50
0
 51
101.0894803555144
  0
ARC
  8
1
 62
7
 10
464.3700355665164
 20
516.3986080792067
 30
0
 40
14.99999999999996
 50
101.0894803555145
 51
134.2773181517003
  0
ARC
  8
1
 62
7
 10
423.8783849413539
 20
557.9248194360084
 30
0
 40
42.99999999999986
 50
95.45299987213491
 51
174.5133118326954
  0
ARC
  8
1
 62
7
 10
464.3700355665164
 20
599.4510307928101
 30
0
 40
15.00000000000001
 50
225.7226818483
 51
258.9105196444857
  0
ARC
  8
1
 62
7
 10
508.3783849413539
 20
577.1269877431457
 30
0
 40
2.999999999999902
 50
258.9105196444852
 51
0
  0
ARC
  8
1
 62
7
 10
334.3783849413539
 20
539.6806776743333
 30
0
 40
3.000000000000156
 50
78.92928899411396
 51
180
  0
ARC
  8
1
 62
7
 10
423.8783849413539
 20
557.9248194360084
 30
0
 40
42.99999999999988
 50
275.4529961313764
 51
354.5470054324678
  0
ARC
  8
1
 62
7
 10
383.3892689250349
 20
516.396136767074
 30
0
 40
14.99999999999994
 50
45.72617887014541
 51
78.92928899411645
  0
ARC
  8
1
 62
7
 10
383.3892689250349
 20
599.4535021049427
 30
0
 40
14.99999999999985
 50
281.0707110058837
 51
314.2738211298549
  0
ARC
  8
1
 62
7
 10
334.3783849413539
 20
576.1689611976834
 30
0
 40
3
 50
180
 51
281.0707110058869
  0
ARC
  8
1
 62
7
 10
254.6110537645781
 20
394.3578114981723
 30
0
 40
137
 50
353.6747122774171
 51
4.160700482237295
  0
ARC
  8
1
 62
7
 10
505.7531090182988
 20
401.0068184844142
 30
0
 40
43.99999999999972
 50
175.2963545202532
 51
205.455335319852
  0
ARC
  8
1
 62
7
 10
500.8107299270839
 20
401.9586358393473
 30
0
 40
38.9999999999996
 50
151.1263247147809
 51
176.0945946171472
  0
ARC
  8
1
 62
7
 10
374.3757697359974
 20
402.2335579379694
 30
0
 40
17.0000000000011
 50
6.974155103505476
 51
66.11578954213623
  0
ARC
  8
1
 62
7
 10
376.100900527633
 20
423.0671321796042
 30
0
 40
4.999999999999957
 50
279.6319932573301
 51
353.6545960172256
  0
ARC
  8
1
 62
7
 10
334.3792171087209
 20
379.2728782368495
 30
0
 40
3.000000000000573
 50
65.73016935626613
 51
180
  0
ARC
  8
1
 62
7
 10
459.8783849413539
 20
362.9282635413326
 30
0
 40
5.999999999999893
 50
119.8199061988087
 51
181.4839862698327
  0
ARC
  8
1
 62
7
 10
446.949224082188
 20
385.4856747287406
 30
0
 40
19.99999999999984
 50
299.819906198815
 51
334.2751389910167
  0
ARC
  8
1
 62
7
 10
406.1294207868651
 20
521.9050699024164
 30
0
 40
156.6650088765553
 50
243.24900714918
 51
269.083807070611
  0
ARC
  8
1
 62
7
 10
423.8783849413539
 20
717.7728782368497
 30
0
 40
353.0000000000002
 50
270
 51
274.2833309031395
  0
ARC
  8
1
 62
7
 10
446.949224082188
 20
385.4856747287406
 30
0
 40
19.99999999999945
 50
279.4805069406063
 51
299.819906198815
  0
ARC
  8
1
 62
7
 10
388.9095702692388
 20
363.3640568677225
 30
0
 40
4.999999999999811
 50
6.402561678028239
 51
28.84857470050282
  0
ARC
  8
1
 62
7
 10
423.8783849413539
 20
714.7728782368497
 30
0
 40
350.0000000000002
 50
268.0470919588313
 51
270
  0
ARC
  8
1
 62
7
 10
383.8783849413539
 20
429.433132274694
 30
0
 40
1.999999999999918
 50
300.0000000000013
 51
0
  0
ARC
  8
1
 62
7
 10
388.8783849413539
 20
420.7728782368495
 30
0
 40
8.000000000000165
 50
119.9999999999993
 51
167.4256965937821
  0
ARC
  8
1
 62
7
 10
463.8783849413539
 20
429.433132274694
 30
0
 40
2.000000000000171
 50
180
 51
239.9999999999986
  0
ARC
  8
1
 62
7
 10
458.8783849413539
 20
420.7728782368495
 30
0
 40
8.00000000000006
 50
20.07375449334791
 51
60.00000000000068
  0
ARC
  8
1
 62
7
 10
468.2709006806999
 20
424.2051731085256
 30
0
 40
1.999999999999797
 50
200.0737544933498
 51
260.0737544933576
  0
ARC
  8
1
 62
7
 10
474.8783849413539
 20
424.0640603881237
 30
0
 40
3.00000000000014
 50
259.5206107033679
 51
260.0737544933444
  0
ARC
  8
1
 62
7
 10
421.3783849413539
 20
363.7817814836698
 30
0
 40
1
 50
0
 51
89.59190695181171
  0
ARC
  8
1
 62
7
 10
426.3783849413539
 20
363.7817060305358
 30
0
 40
1.000000000000206
 50
90.40463457477415
 51
180
  0
ARC
  8
1
 62
7
 10
334.3792171087209
 20
416.4749490909528
 30
0
 40
2.99999999999977
 50
187.706896844882
 51
275.3362683532384
  0
ARC
  8
1
 62
7
 10
508.3572862029739
 20
416.4913796053667
 30
0
 40
3.017858663897148
 50
264.3947428803251
 51
352.024114388681
  0
ARC
  8
1
 62
7
 10
474.8783849413539
 20
424.0640603881237
 30
0
 40
3
 50
180
 51
259.5206107033679
  0
ARC
  8
1
 62
7
 10
506.3056169237526
 20
416.7547305050205
 30
0
 40
5.0862788853751
 50
352.2931031551169
 51
354.5638911918903
  0
ARC
  8
1
 62
7
 10
423.4359094161961
 20
391.5389977355025
 30
0
 40
3.374999999999785
 50
358.1244947343119
 51
90
  0
ARC
  8
1
 62
7
 10
423.1660635158761
 20
391.1864846134171
 30
0
 40
2.249999999999993
 50
10.06068979215062
 51
90
  0
ARC
  8
1
 62
7
 10
422.5961803343097
 20
391.1892313172588
 30
0
 40
2.812500000000367
 50
260.6214524487997
 51
7.977046467635814
  0
ARC
  8
0
 62
7
 10
465.3783850050819
 20
453.354450784423
 30
0
 40
1.000000707656
 50
359.9999984946512
 51
70.52877786018073
  0
ARC
  8
0
 62
7
 10
466.3783858290481
 20
456.1828788394857
 30
0
 40
2.000000444110347
 50
179.9999873816381
 51
250.5287667471379
  0
ARC
  8
0
 62
7
 10
382.3783852657379
 20
461.1828785676497
 30
0
 40
1
 50
270
 51
359.9999810465566
  0
ARC
  8
0
 62
7
 10
467.3783852657379
 20
439.1828785676497
 30
0
 40
1
 50
90.01769688181425
 51
180
  0
ARC
  8
0
 62
7
 10
399.3783860912379
 20
464.6828789163498
 30
0
 40
1.000000348700382
 50
179.9999527023556
 51
269.9999527023491
  0
ARC
  8
0
 62
7
 10
408.8783844625879
 20
464.6828789386997
 30
0
 40
1.000000371050287
 50
270.0000460170875
 51
4.60170907765354e-005
  0
ARC
  8
0
 62
7
 10
426.8783852504879
 20
451.1828786089997
 30
0
 40
1.00000001525001
 50
359.9999976308192
 51
89.99999763082572
  0
ARC
  8
0
 62
7
 10
426.8783852657379
 20
441.1828785676497
 30
0
 40
1
 50
270
 51
0
  0
ARC
  8
0
 62
7
 10
420.8783852809879
 20
451.1828786089998
 30
0
 40
1.000000015249953
 50
90.00000236918079
 51
180.0000023691841
  0
ARC
  8
0
 62
7
 10
420.8783852288378
 20
441.1828787207497
 30
0
 40
1.000000153099962
 50
180.000002114215
 51
270.0000021142216
  0
ARC
  8
0
 62
7
 10
376.261243103838
 20
440.6619618588497
 30
0
 40
5.423898461859843
 50
344.1751534539008
 51
5.511240750000336
  0
ARC
  8
0
 62
7
 10
472.3622100842787
 20
451.6255797708316
 30
0
 40
6.281128948290286
 50
165.6447697706894
 51
184.0416244291887
  0
ARC
  8
0
 62
7
 10
472.3225172046885
 20
440.7365952097805
 30
0
 40
6.241790506871559
 50
175.8998950426633
 51
194.4137107563629
  0
ARC
  8
0
 62
7
 10
382.662153832138
 20
453.3482858722497
 30
0
 40
1.002103876017228
 50
108.7407412615034
 51
179.6475174089984
  0
ARC
  8
0
 62
7
 10
381.6734843708829
 20
456.1827807126736
 30
0
 40
1.999921418012732
 50
289.4732444205133
 51
0.002823854715472696
  0
ARC
  8
0
 62
7
 10
377.714767753438
 20
459.6285376619497
 30
0
 40
5.975280731762956
 50
355.7226853116997
 51
15.07768464090124
  0
ARC
  8
0
 62
7
 10
346.463333033738
 20
467.5862197609497
 30
0
 40
37.5154173884076
 50
347.0560934103999
 51
348.6184707324057
  0
ARC
  8
0
 62
7
 10
346.478385265738
 20
467.5828785676497
 30
0
 40
37.49999999999945
 50
321.6282848528995
 51
335.7397166507997
  0
ARC
  8
0
 62
7
 10
346.478385265738
 20
467.5828785676497
 30
0
 40
37.49999999999957
 50
340.6945519111997
 51
344.8828964310997
  0
ARC
  8
0
 62
7
 10
346.4841040183379
 20
467.5781177242498
 30
0
 40
37.4925607222459
 50
319.2294757831002
 51
321.6285635889
  0
ARC
  8
0
 62
7
 10
375.8783850809879
 20
441.1828783351998
 30
0
 40
0.999999815250048
 50
179.999986681599
 51
269.9999866815925
  0
ARC
  8
0
 62
7
 10
471.8783854460378
 20
451.1828788045497
 30
0
 40
0.9999998197001498
 50
359.999986426627
 51
89.99998642662047
  0
ARC
  8
0
 62
7
 10
471.878385450488
 20
441.1828783351997
 30
0
 40
0.9999998152499912
 50
270.0000133184011
 51
1.331840756125133e-005
  0
ARC
  8
0
 62
7
 10
378.3783846935378
 20
456.6828792769496
 30
0
 40
3.499999427800063
 50
90.00001161139849
 51
180.0000116113994
  0
ARC
  8
0
 62
7
 10
405.7291492888929
 20
563.0073074755279
 30
0
 40
0.6925301349800551
 50
224.7755710866923
 51
275.0884884480155
  0
ARC
  8
0
 62
7
 10
405.2238386993976
 20
563.1059050432833
 30
0
 40
0.5908244122052294
 50
105.9402199987745
 51
183.68673876373
  0
ARC
  8
0
 62
7
 10
405.2081482753927
 20
564.5222806662657
 30
0
 40
0.5973208162819528
 50
84.76191342704721
 51
135.0971918980895
  0
ARC
  8
0
 62
7
 10
405.7291532736581
 20
564.3926777960156
 30
0
 40
0.6925316876859244
 50
224.7752324897274
 51
275.0881460289002
  0
ARC
  8
0
 62
7
 10
405.3512851405806
 20
565.8634048103158
 30
0
 40
0.2983019089835737
 50
41.57460110023625
 51
95.92377946635031
  0
ARC
  8
0
 62
7
 10
405.3213137228537
 20
565.8818437568084
 30
0
 40
0.278271244324598
 50
90.16779518503392
 51
145.5119035596493
  0
ARC
  8
0
 62
7
 10
404.6272889458384
 20
565.8894871333982
 30
0
 40
0.2383739627129796
 50
38.97215361837326
 51
94.28936865859475
  0
ARC
  8
0
 62
7
 10
405.3534522679348
 20
565.7400697755703
 30
0
 40
0.4480222296776018
 50
265.781901006212
 51
320.9558240058646
  0
ARC
  8
0
 62
7
 10
399.3783858805538
 20
537.9248206762084
 30
0
 40
1.000000957100042
 50
180
 51
270
  0
ARC
  8
0
 62
7
 10
423.8783499508537
 20
557.9248302008084
 30
0
 40
26.49996770376639
 50
135.0990917903
 51
143.5062037248995
  0
ARC
  8
0
 62
7
 10
408.8783855785538
 20
575.9248213205085
 30
0
 40
0.9999993672194709
 50
359.9998476309975
 51
89.99999228649885
  0
ARC
  8
0
 62
7
 10
408.8783855785538
 20
537.9248190863084
 30
0
 40
0.9999993672000755
 50
270
 51
0
  0
ARC
  8
0
 62
7
 10
403.3783908958606
 20
573.0905700603973
 30
0
 40
1.000007179407585
 50
143.5063342522383
 51
180.0000393670188
  0
ARC
  8
0
 62
7
 10
405.8159857822034
 20
575.924840953847
 30
0
 40
0.9999797338249408
 50
89.99963245792294
 51
135.0997291201276
  0
ARC
  8
0
 62
7
 10
408.878385578515
 20
577.9248216482861
 30
0
 40
0.9999993672422083
 50
359.9998476287893
 51
89.31787259640512
  0
ARC
  8
0
 62
7
 10
423.8783825971196
 20
557.9248192822668
 30
0
 40
25.5000020258068
 50
5.999998055815596
 51
94.99999430051598
  0
ARC
  8
0
 62
7
 10
421.2454074107918
 20
582.2829339529807
 30
0
 40
0.5000090094193538
 50
276.1703253900413
 51
4.999728233833507
  0
ARC
  8
0
 62
7
 10
415.9704800919619
 20
581.1134947571134
 30
0
 40
0.4999926284620453
 50
199.9987025874749
 51
288.8312447076617
  0
ARC
  8
0
 62
7
 10
423.8783838282537
 20
557.9248214060085
 30
0
 40
27.00000090451231
 50
247.5000034568995
 51
109.9999958469996
  0
ARC
  8
0
 62
7
 10
423.8783757724538
 20
557.9247799318084
 30
0
 40
23.9999596127798
 50
247.4999847879995
 51
260.8306225048847
  0
ARC
  8
0
 62
7
 10
419.9742195194539
 20
533.7378908281085
 30
0
 40
0.5000003986758357
 50
352.0000010356689
 51
80.83062250488433
  0
ARC
  8
0
 62
7
 10
423.8783050155081
 20
557.9250126563603
 30
0
 40
25.80020864231922
 50
286.9394028664173
 51
298.0605962455597
  0
ARC
  8
0
 62
7
 10
423.8783727935537
 20
557.9248256859084
 30
0
 40
25.50001223176922
 50
298.1262891825997
 51
350.9999918504053
  0
ARC
  8
0
 62
7
 10
448.2913569551537
 20
559.9879761520083
 30
0
 40
0.4999962745115469
 50
95.99993576205456
 51
184.8306546727477
  0
ARC
  8
0
 62
7
 10
448.1499249823538
 20
554.5868186544083
 30
0
 40
0.4999996948539173
 50
172.1693222845475
 51
260.9999664434183
  0
ARC
  8
0
 62
7
 10
423.8783385930539
 20
557.9249808606085
 30
0
 40
23.99983191791046
 50
96.16931502200025
 51
108.8306371991004
  0
ARC
  8
0
 62
7
 10
423.8783845643471
 20
557.9248470192649
 30
0
 40
25.50002710348418
 50
262.0000092879679
 51
291.1517197091579
  0
ARC
  8
0
 62
7
 10
423.8785613294537
 20
557.9248222783083
 30
0
 40
23.99982401399122
 50
352.1693222845522
 51
4.8306546727487
  0
ARC
  8
0
 62
7
 10
423.8783850109538
 20
557.9248189285084
 30
0
 40
27.49999881252146
 50
247.4999989936589
 51
109.9999964770576
  0
ARC
  8
0
 62
7
 10
433.6368119133537
 20
534.3658901524084
 30
0
 40
1.000000847559411
 50
23.62351790197967
 51
112.5000495075486
  0
ARC
  8
0
 62
7
 10
432.9611127849538
 20
534.9519218095085
 30
0
 40
0.1999989869090995
 50
112.5000495075297
 51
202.5000487071464
  0
ARC
  8
0
 62
7
 10
423.8776882589452
 20
557.9262244952352
 30
0
 40
25.50156855768272
 50
294.7471369974198
 51
298.1261639855199
  0
ARC
  8
0
 62
7
 10
423.8783854088537
 20
557.9248188584086
 30
0
 40
30.49999938043455
 50
233.8313563654002
 51
1.084999474734605e-006
  0
ARC
  8
0
 62
7
 10
423.8783840180537
 20
557.9248215315084
 30
0
 40
30.50000077124606
 50
359.9999960634997
 51
213.2730487206
  0
ARC
  8
0
 62
7
 10
397.9783818884156
 20
560.9248217795544
 30
0
 40
0.4999972987619873
 50
89.99978779084474
 51
179.9999987562268
  0
ARC
  8
0
 62
7
 10
397.9783882479571
 20
554.9248234518987
 30
0
 40
0.5000036583104516
 50
180.0003030913481
 51
269.9994834590181
  0
ARC
  8
0
 62
7
 10
399.4783804097644
 20
554.9248234518946
 30
0
 40
0.5000036583065513
 50
270.0005165393795
 51
359.9996969070756
  0
ARC
  8
0
 62
7
 10
399.4783867693571
 20
560.9248217795152
 30
0
 40
0.4999972987967
 50
1.248254663642141e-006
 51
90.00021221363024
  0
ARC
  8
0
 62
7
 10
423.8778763052538
 20
557.9255477237084
 30
0
 40
25.79911289063378
 50
125.5162724331036
 51
127.0000710823148
  0
ARC
  8
0
 62
7
 10
423.8784338208537
 20
557.9249017197083
 30
0
 40
26.50009513749717
 50
232.4153501742003
 51
238.0994924605999
  0
ARC
  8
0
 62
7
 10
410.4030134847082
 20
536.2761610376402
 30
0
 40
0.9999985424796527
 50
238.0994915214438
 51
283.0000762540377
  0
ARC
  8
0
 62
7
 10
413.9071697962537
 20
535.5457069936083
 30
0
 40
0.4999968753094163
 50
65.98428514030907
 51
102.9999860146645
  0
ARC
  8
0
 62
7
 10
423.8785349903538
 20
557.9247415180083
 30
0
 40
26.50016920386541
 50
143.5062875178997
 51
152.5361984834006
  0
ARC
  8
0
 62
7
 10
423.8783413479716
 20
557.9248367816778
 30
0
 40
25.49995897677154
 50
126.9999455917217
 51
131.8324307991217
  0
ARC
  8
0
 62
7
 10
423.8788452537539
 20
557.9238492859083
 30
0
 40
25.50107300547671
 50
110.0002221359996
 51
119.9998005824997
  0
ARC
  8
0
 62
7
 10
423.8799309230518
 20
557.928371447809
 30
0
 40
24.00387287135542
 50
245.984285140316
 51
247.4998359453058
  0
ARC
  8
0
 62
7
 10
410.6784012383548
 20
579.1559230993921
 30
0
 40
0.5000158709571102
 50
121.8714418355557
 51
179.999143384669
  0
ARC
  8
0
 62
7
 10
409.4201308330896
 20
578.7248253914318
 30
0
 40
0.1999956241015287
 50
23.577654393813
 51
90.00090533202969
  0
ARC
  8
0
 62
7
 10
409.8783855040393
 20
578.9248207515972
 30
0
 40
0.299999863414443
 50
203.5779371290431
 51
5.040333927655645e-005
  0
ARC
  8
0
 62
7
 10
423.8798646585538
 20
557.9223595790085
 30
0
 40
25.50287283179548
 50
120.0001105811009
 51
121.8703230210013
  0
ARC
  8
0
 62
7
 10
423.8783838859537
 20
557.9248214842083
 30
0
 40
37.99999989501533
 50
270.0000015914008
 51
232.7522199611003
  0
ARC
  8
0
 62
7
 10
423.8783782095537
 20
557.9248129554085
 30
0
 40
37.99999136625517
 50
241.726291371701
 51
270.0000101501005
  0
ARC
  8
0
 62
7
 10
423.8783936267539
 20
557.9248473751084
 30
0
 40
31.50002751440112
 50
235.1501116389999
 51
269.9999842019993
  0
ARC
  8
0
 62
7
 10
423.8783842449538
 20
557.9248199204083
 30
0
 40
31.50000005969663
 50
270.0000012668008
 51
215.9505698715999
  0
ARC
  8
0
 62
7
 10
423.878383490654
 20
557.9248212645084
 30
0
 40
31.00000039052319
 50
270.0000026811997
 51
214.6560388191996
  0
ARC
  8
0
 62
7
 10
423.8783876228537
 20
557.9248329574084
 30
0
 40
31.0000120834885
 50
234.5040778260994
 51
269.9999950440005
  0
ARC
  8
0
 62
7
 10
382.6806851530722
 20
552.9248157895343
 30
0
 40
1.000004997217949
 50
6.920234158054647
 51
69.83105184617315
  0
ARC
  8
0
 62
7
 10
382.6806860833539
 20
562.9248217972083
 30
0
 40
1.00000347009062
 50
290.1689235119973
 51
353.0800444077016
  0
ARC
  8
0
 62
7
 10
423.8787961273536
 20
557.9248212986083
 30
0
 40
40.50041179998154
 50
184.1454377893362
 51
184.1454377893999
  0
ARC
  8
0
 62
7
 10
423.8783914359539
 20
557.9248248404083
 30
0
 40
40.50000842339245
 50
184.1454841735
 51
235.3959943820992
  0
ARC
  8
0
 62
7
 10
423.8783840039538
 20
557.9248226639085
 30
0
 40
40.50000065610701
 50
243.6122024220001
 51
175.8545219904
  0
ARC
  8
0
 62
7
 10
375.8783840904538
 20
560.9248217293084
 30
0
 40
0.9999983623224598
 50
90.00000349820306
 51
179.9999965017969
  0
ARC
  8
0
 62
7
 10
375.8783869741225
 20
554.9248200262966
 30
0
 40
1.000001245991903
 50
179.9999552778247
 51
269.999831277385
  0
ARC
  8
0
 62
7
 10
380.6666967549537
 20
552.9248190853084
 30
0
 40
0.9999995172833661
 50
6.600468976599194
 51
59.50028143239899
  0
ARC
  8
0
 62
7
 10
380.6666819383537
 20
562.9248288537085
 30
0
 40
1.000014849662262
 50
300.5001863582045
 51
353.3993245767981
  0
ARC
  8
0
 62
7
 10
423.8783843896665
 20
557.9248211417241
 30
0
 40
42.50000016024838
 50
244.9423859205938
 51
173.3996902621934
  0
ARC
  8
0
 62
7
 10
423.8783765696851
 20
557.9248141045518
 30
0
 40
42.49999154712592
 50
186.6003011050963
 51
237.2362429634958
  0
ARC
  8
0
 62
7
 10
467.0900714303538
 20
562.9248183074083
 30
0
 40
0.999998215793391
 50
186.6001774163946
 51
270
  0
ARC
  8
0
 62
7
 10
428.8783814801537
 20
514.7131351289085
 30
0
 40
0.9999963778607313
 50
96.6001373093136
 51
180
  0
ARC
  8
0
 62
7
 10
418.8783810413537
 20
601.1365111812085
 30
0
 40
1.000003680921208
 50
276.6005101183359
 51
0
  0
ARC
  8
0
 62
7
 10
428.8783887831538
 20
601.1365111812085
 30
0
 40
1.000003680900136
 50
180
 51
263.3994898817256
  0
ARC
  8
0
 62
7
 10
467.0900644491538
 20
552.9248279163085
 30
0
 40
0.9999908639999831
 50
90
 51
173.3999830123037
  0
ARC
  8
0
 62
7
 10
418.8783883444538
 20
514.7131351289085
 30
0
 40
0.9999963778000165
 50
0
 51
83.39986269067991
  0
ARC
  8
0
 62
7
 10
426.8783905046538
 20
605.9248235569085
 30
0
 40
0.9999945975998799
 50
0
 51
90
  0
ARC
  8
0
 62
7
 10
471.8783822080537
 20
554.9248197374084
 30
0
 40
1.000000957099928
 50
270
 51
0
  0
ARC
  8
0
 62
7
 10
420.8783793199538
 20
605.9248235569085
 30
0
 40
0.9999945975999935
 50
90
 51
180
  0
ARC
  8
0
 62
7
 10
420.8783856793538
 20
509.9248226059085
 30
0
 40
1.000000957099985
 50
180
 51
270
  0
ARC
  8
0
 62
7
 10
426.8783841451538
 20
509.9248226059085
 30
0
 40
1.000000957100099
 50
270
 51
0
  0
ARC
  8
0
 62
7
 10
471.8783822080537
 20
560.9248191345083
 30
0
 40
1.000000957000054
 50
0
 51
89.99984783281163
  0
ARC
  8
0
 62
7
 10
423.8783847242539
 20
557.9248180657085
 30
0
 40
29.99999905177279
 50
2.616999910110659e-006
 51
211.7883284169998
  0
ARC
  8
0
 62
7
 10
423.8783844778537
 20
557.9248189078085
 30
0
 40
29.99999929820831
 50
233.1301031241994
 51
1.008699923448538e-006
  0
ARC
  8
0
 62
7
 10
423.8783799946227
 20
557.9248186079888
 30
0
 40
41.83332961316658
 50
186.8099871833206
 51
236.64665600022
  0
ARC
  8
0
 62
7
 10
423.8783835418539
 20
557.9248204307085
 30
0
 40
41.83333311559094
 50
244.5147422556995
 51
173.1900136196001
  0
ARC
  8
0
 62
7
 10
467.3783852657379
 20
439.1828785676497
 30
0
 40
1
 50
89.98230311817925
 51
90.01769688181425
  0
ARC
  8
0
 62
7
 10
467.3783852657379
 20
453.1828785676497
 30
0
 40
1
 50
180
 51
269.9807227132826
  0
ARC
  8
0
 62
7
 10
380.3783852657379
 20
439.1828785676497
 30
0
 40
1
 50
0
 51
89.98230311817925
  0
ARC
  8
0
 62
7
 10
423.8787961273536
 20
557.9248212986083
 30
0
 40
40.50041179993569
 50
175.8545622105998
 51
184.1454377893362
  0
ARC
  8
0
 62
7
 10
423.8778763052538
 20
557.9255477237084
 30
0
 40
25.79911289063389
 50
125.5160015121476
 51
125.5162724331036
  0
ARC
  8
0
 62
7
 10
423.8778763052538
 20
557.9255477237084
 30
0
 40
25.79911289063381
 50
119.9998331087212
 51
125.5160015121476
  0
CIRCLE
  8
1
 62
7
 10
468.8783849413539
 20
426.2728782368495
 30
0
 40
1
  0
CIRCLE
  8
0
 62
7
 10
403.3783852657379
 20
468.6828785676497
 30
0
 40
2.5
  0
CIRCLE
  8
0
 62
7
 10
403.3783852657379
 20
468.6828785676497
 30
0
 40
2.60000000000008
  0
CIRCLE
  8
0
 62
7
 10
403.3783852657379
 20
468.6828785676497
 30
0
 40
3.10000000000008
  0
CIRCLE
  8
0
 62
7
 10
378.3783852657379
 20
456.6828785676497
 30
0
 40
1.35000000000008
  0
POLYLINE
  8
1
 62
7
 66
1
  0
VERTEX
  8
1
 10
419.807790854255
 20
387.4889678732258
 30
0
 42
0.06252953199531897
  0
VERTEX
  8
1
 10
420.7339721720423
 20
387.0533839982361
 30
0
 42
0.0396967792380566
  0
VERTEX
  8
1
 10
421.6777649839324
 20
386.8292274723871
 30
0
 42
0.04281793838473551
  0
VERTEX
  8
1
 10
422.570397423192
 20
386.7723066915098
 30
0
 42
0.04955366171852729
  0
VERTEX
  8
1
 10
423.4483179620983
 20
386.8793140513692
 30
0
 42
0.05749837801291616
  0
VERTEX
  8
1
 10
424.2905774504771
 20
387.1733532334823
 30
0
 42
0.05295707665798436
  0
VERTEX
  8
1
 10
425.0631104661881
 20
387.6533505229846
 30
0
 42
0.05048995255475661
  0
VERTEX
  8
1
 10
425.7223723211092
 20
388.2824079027546
 30
0
 42
0.05424811633518582
  0
VERTEX
  8
1
 10
426.274276672222
 20
389.0918316484848
 30
0
 42
0.05364305115592011
  0
VERTEX
  8
1
 10
426.640152203897
 20
390.0014241911503
 30
0
 42
0.05226734987109798
  0
VERTEX
  8
1
 10
426.8035771015175
 20
390.9483531520063
 30
0
  0
VERTEX
  8
1
 10
426.8091014249929
 20
391.4285410843007
 30
0
  0
SEQEND
  8
1
  0
POLYLINE
  8
1
 62
7
 66
1
  0
VERTEX
  8
1
 10
422.1378650021836
 20
388.4143253177085
 30
0
 42
-0.0308552594641661
  0
VERTEX
  8
1
 10
421.8618696395416
 20
388.4426551838768
 30
0
 42
-0.05061138585040426
  0
VERTEX
  8
1
 10
421.4113037710172
 20
388.5664759946269
 30
0
 42
-0.04491045513920421
  0
VERTEX
  8
1
 10
420.9861513763761
 20
388.7763218165811
 30
0
 42
-0.04087430038672033
  0
VERTEX
  8
1
 10
420.5975948592489
 20
389.0590799399072
 30
0
 42
-0.03895715976750852
  0
VERTEX
  8
1
 10
420.2568166232661
 20
389.401637654773
 30
0
 42
-0.03928427775654556
  0
VERTEX
  8
1
 10
419.9749990720576
 20
389.7908822513459
 30
0
 42
-0.0419224635644763
  0
VERTEX
  8
1
 10
419.763324609254
 20
390.2137010197939
 30
0
 42
-0.04687019939451986
  0
VERTEX
  8
1
 10
419.6329756384859
 20
390.6569812502846
 30
0
  0
SEQEND
  8
1
  0
POLYLINE
  8
1
 62
7
 66
1
  0
VERTEX
  8
1
 10
419.807790854255
 20
387.4889678732258
 30
0
 42
-0.005088325560055136
  0
VERTEX
  8
1
 10
419.451710915756
 20
387.807988662045
 30
0
 42
-0.01106010150606712
  0
VERTEX
  8
1
 10
419.096783611463
 20
388.1471358600639
 30
0
 42
-0.01730743667767189
  0
VERTEX
  8
1
 10
418.7589663828769
 20
388.5085441377444
 30
0
 42
-0.02432463219032009
  0
VERTEX
  8
1
 10
418.4542166714985
 20
388.894348165548
 30
0
 42
-0.03231747833664823
  0
VERTEX
  8
1
 10
418.1984919188287
 20
389.3066826139361
 30
0
 42
-0.04089149747552185
  0
VERTEX
  8
1
 10
418.0077495663686
 20
389.7476821533705
 30
0
 42
-0.04860134914231448
  0
VERTEX
  8
1
 10
417.8979470556185
 20
390.2194814543124
 30
0
  0
VERTEX
  8
1
 10
417.8783849413539
 20
390.467598099868
 30
0
  0
SEQEND
  8
1
  0
ARC
  8
1
 62
7
 10
508.3353575825562
 20
379.0495212288128
 30
0
 40
3.041873824289765
 50
4.210872096718183
 51
90.68303721635864
  0
ARC
  8
1
 62
7
 10
383.8783849413538
 20
433.7728782368495
 30
0
 40
2.000000000000114
 50
0
 51
90
  0
ARC
  8
1
 62
7
 10
463.8783849413537
 20
433.7728782368495
 30
0
 40
2
 50
90
 51
180
  0
ARC
  8
1
 62
7
 10
469.4714433077829
 20
374.6344240563864
 30
0
 40
5.000000000000127
 50
93.02693579188899
 51
154.275138991017
  0
ARC
  8
1
 62
7
 10
468.8783849413539
 20
426.2728782368495
 30
0
 40
3
 50
0
 51
90
  0
LINE
  8
1
 62
2
 10
345.9194023870169
 20
350.7773727473548
 30
0
 11
366.826978833967
 21
350.7773727473548
 31
0
  0
LINE
  8
1
 62
2
 10
366.826978833967
 20
350.7773727473548
 30
0
 11
372.5272283925457
 21
393.6893875348184
 31
0
  0
LINE
  8
1
 62
2
 10
372.9290391862193
 20
390.6096604343097
 30
0
 11
372.5272283925457
 21
393.6893875348184
 31
0
  0
LINE
  8
1
 62
2
 10
371.3353431971275
 20
390.8213602322177
 30
0
 11
372.5272283925457
 21
393.6893875348184
 31
0
  0
LINE
  8
1
 62
2
 10
322.7325821202168
 20
361.53209214783
 30
0
 11
341.6670610671466
 21
361.53209214783
 31
0
  0
LINE
  8
1
 62
2
 10
341.6670610671466
 20
361.53209214783
 30
0
 11
364.008229723801
 21
394.1066940106534
 31
0
  0
LINE
  8
1
 62
2
 10
362.9743380741012
 20
391.1780016430256
 30
0
 11
364.008229723801
 21
394.1066940106534
 31
0
  0
LINE
  8
1
 62
2
 10
361.6485071065865
 20
392.0873178452681
 30
0
 11
364.008229723801
 21
394.1066940106534
 31
0
  0
LINE
  8
1
 62
2
 10
367.241844416687
 20
437.327971852416
 30
0
 11
326.582102610781
 21
437.327971852416
 31
0
  0
LINE
  8
1
 62
2
 10
326.582102610781
 20
437.327971852416
 30
0
 11
320.602728815795
 21
417.2728782368495
 31
0
  0
LINE
  8
1
 62
2
 10
320.6895468371714
 20
420.3774931177462
 30
0
 11
320.602728815795
 21
417.2728782368495
 31
0
  0
LINE
  8
1
 62
2
 10
322.2302228682616
 20
419.918144581985
 30
0
 11
320.602728815795
 21
417.2728782368495
 31
0
  0
DIMENSION
  8
1
  6
CONTINUOUS
 62
2
  2
*D0
  3
DMST_1
 10
316.3783849413539
 20
344.5973766531676
 30
0
 11
421.3783849413538
 21
346.8973766531676
 31
0
 12
0
 22
0
 32
0
 70
0
 13
526.3783849413538
 23
379.2728782368495
 33
0
 14
316.3783849413539
 24
379.2728782368495
 34
0
 53
0
  0
DIMENSION
  8
1
  6
CONTINUOUS
 62
2
  2
*D1
  3
DMST_1
 10
543.9213203435596
 20
362.7728782368495
 30
0
 11
541.6213203435597
 21
418.4778793022996
 31
0
 12
0
 22
0
 32
0
 70
0
  1
(112)
 13
408.0762477120378
 23
474.1828803677497
 33
0
 14
453.8803973282328
 24
362.7728782368495
 34
0
 50
90
 53
0
  0
DIMENSION
  8
1
  6
CONTINUOUS
 62
2
  2
*D2
  3
DMST_1
 10
536.9899215961395
 20
362.7728782368495
 30
0
 11
534.6899215961396
 21
380.2728782368495
 31
0
 12
0
 22
0
 32
0
 70
0
 13
531.392456537163
 23
397.7728782368495
 33
0
 14
453.8803973282328
 24
362.7728782368495
 34
0
 50
90
 53
0
  0
DIMENSION
  8
1
  6
CONTINUOUS
 62
2
  2
*D3
  3
DMST_1
 10
543.9213203435596
 20
606.9248181545084
 30
0
 11
541.6213203435597
 21
557.9248199016585
 31
0
 12
0
 22
0
 32
0
 70
0
 13
426.8783841451538
 23
508.9248216488084
 33
0
 14
426.8783905046538
 24
606.9248181545084
 34
0
 50
90
 53
0
  0
DIMENSION
  8
1
  6
CONTINUOUS
 62
2
  2
*D4
  3
DMST_2
 10
331.3792171087209
 20
370.7118951609981
 30
0
 11
323.8788010250374
 21
373.3118951609981
 31
0
 12
0
 22
0
 32
0
 70
1
 13
316.3783849413539
 23
379.2728782368495
 33
0
 14
331.3792171087209
 24
379.2728782368495
 34
0
 53
0
  0
ENDSEC
  0
EOF
