  0
SECTION
  2
HEADER
  9
$ACADVER
  1
AC1009
  9
$INSBASE
 10
0
 20
0
  9
$EXTMIN
 10
-306.2075742301876
 20
-195.8538588362573
  9
$EXTMAX
 10
-41.03145798773107
 20
163.8415051348096
  9
$LIMMIN
 10
-306.2075742301876
 20
-195.8538588362573
  9
$LIMMAX
 10
-41.03145798773107
 20
163.8415051348096
  9
$VIEWCTR
 10
10
 20
10
  9
$VIEWSIZE
 40
10
  9
$SNAPMODE
 70
0
  9
$SNAPUNIT
 10
1
 20
1
  9
$SNAPBASE
 10
0
 20
0
  9
$SNAPANG
 50
0
  9
$SNAPSTYLE
 70
0
  9
$SNAPISOPAIR
 70
0
  9
$GRIDMODE
 70
0
  9
$GRIDUNIT
 10
0
 20
0
  9
$ORTHOMODE
 70
0
  9
$REGENMODE
 70
1
  9
$FILLMODE
 70
1
  9
$QTEXTMODE
 70
0
  9
$DRAGMODE
 70
2
  9
$LTSCALE
 40
1
  9
$OSMODE
 70
0
  9
$ATTMODE
 70
1
  9
$TEXTSIZE
 40
3.5
  9
$TRACEWID
 40
0.5
  9
$TEXTSTYLE
  7
STANDARD
  9
$CLAYER
  8
0
  9
$CELTYPE
  6
BYLAYER
  9
$CECOLOR
 62
256
  9
$DIMSCALE
 40
1
  9
$DIMASZ
 40
0.18
  9
$DIMEXO
 40
0.0625
  9
$DIMDLI
 40
0.38
  9
$DIMRND
 40
0
  9
$DIMDLE
 40
0
  9
$DIMEXE
 40
0.18
  9
$DIMTP
 40
0
  9
$DIMTM
 40
0
  9
$DIMTXT
 40
0.18
  9
$DIMCEN
 40
0.09
  9
$DIMTSZ
 40
0
  9
$DIMTOL
 70
0
  9
$DIMLIM
 70
0
  9
$DIMTIH
 70
1
  9
$DIMTOH
 70
1
  9
$DIMSE1
 70
0
  9
$DIMSE2
 70
0
  9
$DIMTAD
 70
0
  9
$DIMZIN
 70
0
  9
$DIMBLK
  1

  9
$DIMASO
 70
1
  9
$DIMSHO
 70
1
  9
$DIMPOST
  1

  9
$DIMAPOST
  1

  9
$DIMALT
 70
0
  9
$DIMALTD
 70
2
  9
$DIMALTF
 40
25.4
  9
$DIMLFAC
 40
1
  9
$DIMTOFL
 70
0
  9
$DIMTVP
 40
0
  9
$DIMTIX
 70
0
  9
$DIMSOXD
 70
0
  9
$DIMSAH
 70
0
  9
$DIMBLK1
  1

  9
$DIMBLK2
  1

  9
$DIMSTYLE
  2
*UNNAMED
  9
$DIMCLRD
 70
0
  9
$DIMCLRE
 70
0
  9
$DIMCLRT
 70
0
  9
$DIMTFAC
 40
1
  9
$DIMGAP
 40
0.09
  9
$LUNITS
 70
2
  9
$LUPREC
 70
4
  9
$AXISMODE
 70
0
  9
$AXISUNIT
 10
0
 20
0
  9
$SKETCHINC
 40
0.1
  9
$FILLETRAD
 40
2
  9
$AUNITS
 70
0
  9
$AUPREC
 70
0
  9
$MENU
  1
ACAD
  9
$ELEVATION
 40
0
  9
$THICKNESS
 40
0
  9
$VIEWDIR
 10
0
 20
0
 30
1
  9
$LIMCHECK
 70
0
  9
$BLIPMODE
 70
1
  9
$CHAMFERA
 40
0
  9
$CHAMFERB
 40
0
  9
$FASTZOOM
 70
1
  9
$SKPOLY
 70
0
  9
$ANGBASE
 50
0
  9
$ANGDIR
 70
0
  9
$PDMODE
 70
0
  9
$PDSIZE
 40
0
  9
$PLINEWID
 40
0
  9
$COORDS
 70
2
  0
ENDSEC
  0
SECTION
  2
TABLES
  0
TABLE
  2
DIMSTYLE
 70
3
  0
DIMSTYLE
  2
DMST_1
 70
0
  3

  4

  5

  6

  7

 40
1
 41
3
 42
0.4999999999999998
 43
7
 44
1.000000000000001
 45
0
 46
0
 47
0
 48
0
140
3
141
0
142
0
143
25.4
144
1
145
0
146
1
147
0.09
 71
0
 72
0
 73
0
 74
0
 75
0
 76
0
 77
1
 78
9
170
0
171
2
172
0
173
0
174
0
175
0
176
2
177
2
178
2
  0
DIMSTYLE
  2
DMST_2
 70
0
  3

  4

  5

  6

  7

 40
1
 41
3.200000000000001
 42
0.5
 43
7
 44
1.5
 45
0
 46
0
 47
0
 48
0
140
3.200000000000001
141
0
142
0
143
25.4
144
1
145
0
146
1
147
0.09
 71
0
 72
0
 73
0
 74
0
 75
0
 76
0
 77
1
 78
9
170
0
171
2
172
0
173
0
174
0
175
0
176
2
177
2
178
2
  0
DIMSTYLE
  2
DMST_3
 70
0
  3
)
  4

  5

  6

  7

 40
1
 41
3.200000000000001
 42
0.5
 43
7
 44
1.5
 45
0
 46
0
 47
0
 48
0
140
3.200000000000001
141
0
142
0
143
25.4
144
1
145
0
146
1
147
0.09
 71
0
 72
0
 73
0
 74
0
 75
0
 76
0
 77
1
 78
9
170
0
171
2
172
0
173
0
174
0
175
0
176
2
177
2
178
2
  0
ENDTAB
  0
TABLE
  2
LTYPE
 70
9
  0
LTYPE
  2
CONTINUOUS
 70
64
  3
Solid line
 72
65
 73
0
 40
0
  0
LTYPE
  2
BORDER
 70
64
  3
__ __ . __ __ .
 72
65
 73
6
 40
16.56491807761492
 49
4.732833736461407
 49
-2.366416868230703
 49
4.732833736461407
 49
-2.366416868230703
 49
0
 49
-2.366416868230703
  0
LTYPE
  2
CENTER
 70
64
  3
____ _ ____ _
 72
65
 73
4
 40
18.93133494584563
 49
11.83208434115352
 49
-2.366416868230703
 49
2.366416868230703
 49
-2.366416868230703
  0
LTYPE
  2
DASHDOT
 70
64
  3
__ . __ . __ .
 72
65
 73
4
 40
9.465667472922814
 49
4.732833736461407
 49
-2.366416868230703
 49
0
 49
-2.366416868230703
  0
LTYPE
  2
DASHED
 70
64
  3
__ __ __ __ __
 72
65
 73
2
 40
7.09925060469211
 49
4.732833736461407
 49
-2.366416868230703
  0
LTYPE
  2
DIVIDE
 70
64
  3
__ . . __ . . 
 72
65
 73
6
 40
11.83208434115352
 49
4.732833736461407
 49
-2.366416868230703
 49
0
 49
-2.366416868230703
 49
0
 49
-2.366416868230703
  0
LTYPE
  2
DOT
 70
64
  3
..............
 72
65
 73
4
 40
4.732833736461407
 49
0
 49
-2.366416868230703
 49
0
 49
-2.366416868230703
  0
LTYPE
  2
HIDDEN
 70
64
  3
_ _ _ _ _ _ _
 72
65
 73
2
 40
3.549625302346055
 49
2.366416868230703
 49
-1.183208434115352
  0
LTYPE
  2
PHANTOM
 70
64
  3
_____ _ _ _____ _ _ 
 72
65
 73
6
 40
23.66416868230704
 49
11.83208434115352
 49
-2.366416868230703
 49
2.366416868230703
 49
-2.366416868230703
 49
2.366416868230703
 49
-2.366416868230703
  0
ENDTAB
  0
TABLE
  2
LAYER
 70
3
  0
LAYER
  2
0
 70
0
 62
7
  6
CONTINUOUS
  0
LAYER
  2
1
 70
0
 62
7
  6
CONTINUOUS
  0
ENDTAB
  0
TABLE
  2
STYLE
 70
4
  0
STYLE
  2
STANDARD
 70
0
 40
0
 41
1
 50
0
 71
0
 42
3.5
  3
txt
  4

  0
STYLE
  2
SIMPLEX
 70
0
 40
0
 41
1
 50
0
 71
0
 42
3.5
  3
simplex
  4

  0
STYLE
  2
COMPLEX
 70
0
 40
0
 41
1
 50
0
 71
0
 42
3.5
  3
complex
  4

  0
STYLE
  2
ITALIC
 70
0
 40
0
 41
1
 50
0
 71
0
 42
3.5
  3
italic
  4

  0
ENDTAB
  0
TABLE
  2
VIEW
 70
0
  0
ENDTAB
  0
ENDSEC
  0
SECTION
  2
BLOCKS
  0
BLOCK
  8
1
  2
*D0
 70
1
 10
0
 20
0
 30
0
  0
LINE
  8
1
 62
2
 10
-42.53145798773107
 20
50.3374567731544
 30
0
 11
-42.53145798773107
 21
158.3374567731544
 31
0
  0
LINE
  8
1
 62
2
 10
-169.4131847604383
 20
50.3374567731544
 30
0
 11
-41.53145798773107
 21
50.3374567731544
 31
0
  0
LINE
  8
1
 62
2
 10
-169.4131847604383
 20
158.3374567731544
 30
0
 11
-41.53145798773107
 21
158.3374567731544
 31
0
  0
LINE
  8
1
 62
2
 10
-42.53145798773107
 20
158.3374567731544
 30
0
 11
-41.72145798773106
 21
155.3374567731544
 31
0
  0
LINE
  8
1
 62
2
 10
-42.53145798773107
 20
158.3374567731544
 30
0
 11
-43.34145798773107
 21
155.3374567731544
 31
0
  0
LINE
  8
1
 62
2
 10
-42.53145798773107
 20
50.3374567731544
 30
0
 11
-43.34145798773107
 21
53.3374567731544
 31
0
  0
LINE
  8
1
 62
2
 10
-42.53145798773107
 20
50.3374567731544
 30
0
 11
-41.72145798773106
 21
53.3374567731544
 31
0
  0
TEXT
  8
1
 62
2
 10
-43.33145798773106
 20
100.7855329845077
 30
0
 40
3
  1
108
 50
90
 41
0.9
 51
15
  0
ENDBLK
  8
0
  0
BLOCK
  8
1
  2
*D1
 70
1
 10
0
 20
0
 30
0
  0
LINE
  8
1
 62
2
 10
-297.4131847604382
 20
-135.803196133769
 30
0
 11
-67.41318476043819
 21
-135.803196133769
 31
0
  0
LINE
  8
1
 62
2
 10
-297.4131847604382
 20
-100.1316425428328
 30
0
 11
-297.4131847604382
 21
-136.803196133769
 31
0
  0
LINE
  8
1
 62
2
 10
-67.41318476043819
 20
-100.1316425428328
 30
0
 11
-67.41318476043819
 21
-136.803196133769
 31
0
  0
LINE
  8
1
 62
2
 10
-297.4131847604382
 20
-135.803196133769
 30
0
 11
-294.4131847604382
 21
-134.993196133769
 31
0
  0
LINE
  8
1
 62
2
 10
-297.4131847604382
 20
-135.803196133769
 30
0
 11
-294.4131847604382
 21
-136.613196133769
 31
0
  0
LINE
  8
1
 62
2
 10
-67.41318476043819
 20
-135.803196133769
 30
0
 11
-70.41318476043819
 21
-136.613196133769
 31
0
  0
LINE
  8
1
 62
2
 10
-67.41318476043819
 20
-135.803196133769
 30
0
 11
-70.41318476043819
 21
-134.993196133769
 31
0
  0
TEXT
  8
1
 62
2
 10
-176.6884048198088
 20
-135.003196133769
 30
0
 40
3
  1
230
 41
0.9
 51
15
  0
ENDBLK
  8
0
  0
BLOCK
  8
1
  2
*D2
 70
1
 10
0
 20
0
 30
0
  0
LINE
  8
1
 62
2
 10
-107.005028963789
 20
-116.4316425428328
 30
0
 11
-107.005028963789
 21
-76.43164254283282
 31
0
  0
LINE
  8
1
 62
2
 10
-136.9131847604382
 20
-116.4316425428328
 30
0
 11
-106.005028963789
 21
-116.4316425428328
 31
0
  0
LINE
  8
1
 62
2
 10
-106.523638432966
 20
-76.43164254283282
 30
0
 11
-108.005028963789
 21
-76.43164254283282
 31
0
  0
LINE
  8
1
 62
2
 10
-107.005028963789
 20
-116.4316425428328
 30
0
 11
-107.815028963789
 21
-113.4316425428328
 31
0
  0
LINE
  8
1
 62
2
 10
-107.005028963789
 20
-116.4316425428328
 30
0
 11
-106.195028963789
 21
-113.4316425428328
 31
0
  0
LINE
  8
1
 62
2
 10
-107.005028963789
 20
-76.43164254283282
 30
0
 11
-106.195028963789
 21
-79.43164254283282
 31
0
  0
LINE
  8
1
 62
2
 10
-107.005028963789
 20
-76.43164254283282
 30
0
 11
-107.815028963789
 21
-79.43164254283282
 31
0
  0
TEXT
  8
1
 62
2
 10
-108.386848475781
 20
-102.7757631152627
 30
0
 40
3
  1
40
 50
90
 41
0.9
 51
15
  0
ENDBLK
  8
0
  0
BLOCK
  8
1
  2
*D3
 70
1
 10
0
 20
0
 30
0
  0
LINE
  8
1
 62
2
 10
-297.4131847604382
 20
-110.953652075691
 30
0
 11
-280.4131847604382
 21
-110.953652075691
 31
0
  0
LINE
  8
1
 62
2
 10
-297.4131847604382
 20
-100.1316425428328
 30
0
 11
-297.4131847604382
 21
-112.453652075691
 31
0
  0
LINE
  8
1
 62
2
 10
-280.4131847604382
 20
-101.6316425428328
 30
0
 11
-280.4131847604382
 21
-112.453652075691
 31
0
  0
LINE
  8
1
 62
2
 10
-297.4131847604382
 20
-110.953652075691
 30
0
 11
-294.2131847604382
 21
-110.089652075691
 31
0
  0
LINE
  8
1
 62
2
 10
-297.4131847604382
 20
-110.953652075691
 30
0
 11
-294.2131847604382
 21
-111.817652075691
 31
0
  0
LINE
  8
1
 62
2
 10
-280.4131847604382
 20
-110.953652075691
 30
0
 11
-283.6131847604382
 21
-111.817652075691
 31
0
  0
LINE
  8
1
 62
2
 10
-280.4131847604382
 20
-110.953652075691
 30
0
 11
-283.6131847604382
 21
-110.089652075691
 31
0
  0
TEXT
  8
1
 62
2
 10
-291.261903468328
 20
-109.953652075691
 30
0
 40
3.200000000000001
  1
17
 41
0.9
 51
15
  0
ENDBLK
  8
0
  0
BLOCK
  8
1
  2
*D4
 70
1
 10
0
 20
0
 30
0
  0
LINE
  8
1
 62
2
 10
-42.53145798773107
 20
-116.4316425428328
 30
0
 11
-42.53145798773107
 21
3.618357185966993
 31
0
  0
LINE
  8
1
 62
2
 10
-136.9131847604382
 20
-116.4316425428328
 30
0
 11
-41.03145798773107
 21
-116.4316425428328
 31
0
  0
LINE
  8
1
 62
2
 10
-187.6153226004384
 20
3.618357185966993
 30
0
 11
-41.03145798773107
 21
3.618357185966993
 31
0
  0
LINE
  8
1
 62
2
 10
-42.53145798773107
 20
-116.4316425428328
 30
0
 11
-43.39545798773107
 21
-113.2316425428328
 31
0
  0
LINE
  8
1
 62
2
 10
-42.53145798773107
 20
-116.4316425428328
 30
0
 11
-41.66745798773107
 21
-113.2316425428328
 31
0
  0
LINE
  8
1
 62
2
 10
-42.53145798773107
 20
3.618357185966993
 30
0
 11
-41.66745798773107
 21
0.418357185966991
 31
0
  0
LINE
  8
1
 62
2
 10
-42.53145798773107
 20
3.618357185966993
 30
0
 11
-43.39545798773107
 21
0.4183571859669915
 31
0
  0
TEXT
  8
1
 62
2
 10
-43.53145798773107
 20
-60.19536138632271
 30
0
 40
3.200000000000001
  1
120
 50
90
 41
0.9
 51
15
  0
TEXT
  8
1
 62
2
 10
-43.53145798773107
 20
-63.1327988021023
 30
0
 40
3.200000000000001
  1
(
 50
90
 41
0.9
 51
15
  0
TEXT
  8
1
 62
2
 10
-43.53145798773107
 20
-51.01792397054311
 30
0
 40
3.200000000000001
  1
)
 50
90
 41
0.9
 51
15
  0
ENDBLK
  8
0
  0
ENDSEC
  0
SECTION
  2
ENTITIES
  0
POLYLINE
  8
0
 62
2
 66
1
  0
VERTEX
  8
0
 10
-191.6573322250382
 20
113.0370578236544
 30
0
  0
VERTEX
  8
0
 10
-191.6182353033383
 20
113.3428762174543
 30
0
  0
VERTEX
  8
0
 10
-191.5065063966382
 20
113.5565714418543
 30
0
  0
SEQEND
  8
0
  0
POLYLINE
  8
0
 62
2
 66
1
  0
VERTEX
  8
0
 10
-191.2299911363382
 20
112.2866493157543
 30
0
  0
VERTEX
  8
0
 10
-191.5692328347382
 20
112.6536160215543
 30
0
  0
VERTEX
  8
0
 10
-191.6573322250382
 20
113.0370578236544
 30
0
  0
SEQEND
  8
0
  0
POLYLINE
  8
0
 62
2
 66
1
  0
VERTEX
  8
0
 10
-191.2299911363382
 20
110.9301416642543
 30
0
  0
VERTEX
  8
0
 10
-191.5692328347382
 20
111.2971083700543
 30
0
  0
VERTEX
  8
0
 10
-191.6573322250382
 20
111.6805501721543
 30
0
  0
SEQEND
  8
0
  0
POLYLINE
  8
0
 62
2
 66
1
  0
VERTEX
  8
0
 10
-191.1797146184383
 20
111.4496552824543
 30
0
  0
VERTEX
  8
0
 10
-191.1379559768382
 20
111.2601325355543
 30
0
  0
VERTEX
  8
0
 10
-191.0540270491382
 20
111.1321744016544
 30
0
  0
SEQEND
  8
0
  0
POLYLINE
  8
0
 62
2
 66
1
  0
VERTEX
  8
0
 10
-191.1043017043382
 20
111.6516880198542
 30
0
  0
VERTEX
  8
0
 10
-191.1654281301383
 20
111.5452504224543
 30
0
  0
VERTEX
  8
0
 10
-191.1797146184383
 20
111.4496552824543
 30
0
  0
SEQEND
  8
0
  0
POLYLINE
  8
0
 62
2
 66
1
  0
VERTEX
  8
0
 10
-190.8277864439383
 20
111.7010327495544
 30
0
  0
VERTEX
  8
0
 10
-190.9862882329383
 20
111.6907714374543
 30
0
  0
VERTEX
  8
0
 10
-191.1043017043382
 20
111.6516880198542
 30
0
  0
SEQEND
  8
0
  0
POLYLINE
  8
0
 62
2
 66
1
  0
VERTEX
  8
0
 10
-191.1797146184383
 20
112.8061629339543
 30
0
  0
VERTEX
  8
0
 10
-191.1345529241382
 20
112.6334398492543
 30
0
  0
VERTEX
  8
0
 10
-191.0540270491382
 20
112.5175442054543
 30
0
  0
SEQEND
  8
0
  0
POLYLINE
  8
0
 62
2
 66
1
  0
VERTEX
  8
0
 10
-191.1043017043382
 20
113.0370578236544
 30
0
  0
VERTEX
  8
0
 10
-191.1673000885382
 20
112.9143700442543
 30
0
  0
VERTEX
  8
0
 10
-191.1797146184383
 20
112.8061629339543
 30
0
  0
SEQEND
  8
0
  0
POLYLINE
  8
0
 62
2
 66
1
  0
VERTEX
  8
0
 10
-190.8026481850383
 20
113.1152642398543
 30
0
  0
VERTEX
  8
0
 10
-190.9786383493382
 20
113.0957064658543
 30
0
  0
VERTEX
  8
0
 10
-191.1043017043382
 20
113.0370578236544
 30
0
  0
SEQEND
  8
0
  0
POLYLINE
  8
0
 62
2
 66
1
  0
VERTEX
  8
0
 10
-190.7001971139383
 20
114.2570275321543
 30
0
  0
VERTEX
  8
0
 10
-190.6505222304382
 20
114.3690581872543
 30
0
  0
VERTEX
  8
0
 10
-190.6409445090383
 20
114.4655115410542
 30
0
  0
SEQEND
  8
0
  0
POLYLINE
  8
0
 62
2
 66
1
  0
VERTEX
  8
0
 10
-190.9710704220383
 20
114.1582719489543
 30
0
  0
VERTEX
  8
0
 10
-190.8052745147382
 20
114.1792830519543
 30
0
  0
VERTEX
  8
0
 10
-190.7001971139383
 20
114.2570275321543
 30
0
  0
SEQEND
  8
0
  0
POLYLINE
  8
0
 62
2
 66
1
  0
VERTEX
  8
0
 10
-190.4807421250383
 20
114.4655115410542
 30
0
  0
VERTEX
  8
0
 10
-190.5097174330383
 20
114.2343754388543
 30
0
  0
VERTEX
  8
0
 10
-190.5901557637383
 20
114.0704892083543
 30
0
  0
SEQEND
  8
0
  0
POLYLINE
  8
0
 62
2
 66
1
  0
VERTEX
  8
0
 10
-190.5986214859383
 20
114.8495600998543
 30
0
  0
VERTEX
  8
0
 10
-190.5011678917383
 20
114.6439613282543
 30
0
  0
VERTEX
  8
0
 10
-190.4807421250383
 20
114.4655115410542
 30
0
  0
SEQEND
  8
0
  0
POLYLINE
  8
0
 62
2
 66
1
  0
VERTEX
  8
0
 10
-190.9541408403383
 20
115.0251255809543
 30
0
  0
VERTEX
  8
0
 10
-190.7330262346383
 20
114.9694092079542
 30
0
  0
VERTEX
  8
0
 10
-190.5986214859383
 20
114.8495600998543
 30
0
  0
SEQEND
  8
0
  0
POLYLINE
  8
0
 62
2
 66
1
  0
VERTEX
  8
0
 10
-191.2419418676383
 20
114.8715057849543
 30
0
  0
VERTEX
  8
0
 10
-191.0983524157383
 20
114.9927788853543
 30
0
  0
VERTEX
  8
0
 10
-190.9541408403383
 20
115.0251255809543
 30
0
  0
SEQEND
  8
0
  0
POLYLINE
  8
0
 62
2
 66
1
  0
VERTEX
  8
0
 10
-191.3350536359382
 20
114.6520489334543
 30
0
  0
VERTEX
  8
0
 10
-191.2941369099382
 20
114.7799316301543
 30
0
  0
VERTEX
  8
0
 10
-191.2419418676383
 20
114.8715057849543
 30
0
  0
SEQEND
  8
0
  0
POLYLINE
  8
0
 62
2
 66
1
  0
VERTEX
  8
0
 10
-191.4450968487383
 20
114.8605329423543
 30
0
  0
VERTEX
  8
0
 10
-191.3728355301383
 20
114.7491812213544
 30
0
  0
VERTEX
  8
0
 10
-191.3350536359382
 20
114.6520489334543
 30
0
  0
SEQEND
  8
0
  0
POLYLINE
  8
0
 62
2
 66
1
  0
VERTEX
  8
0
 10
-191.7159682943382
 20
114.9812342106543
 30
0
  0
VERTEX
  8
0
 10
-191.5486338420382
 20
114.9461699157543
 30
0
  0
VERTEX
  8
0
 10
-191.4450968487383
 20
114.8605329423543
 30
0
  0
SEQEND
  8
0
  0
POLYLINE
  8
0
 62
2
 66
1
  0
VERTEX
  8
0
 10
-192.0291646255382
 20
114.8276144146543
 30
0
  0
VERTEX
  8
0
 10
-191.8716109229382
 20
114.9517867222543
 30
0
  0
VERTEX
  8
0
 10
-191.7159682943382
 20
114.9812342106543
 30
0
  0
SEQEND
  8
0
  0
POLYLINE
  8
0
 62
2
 66
1
  0
VERTEX
  8
0
 10
-192.1307421161382
 20
114.4764843836543
 30
0
  0
VERTEX
  8
0
 10
-192.1028676314382
 20
114.6823066725543
 30
0
  0
VERTEX
  8
0
 10
-192.0291646255382
 20
114.8276144146543
 30
0
  0
SEQEND
  8
0
  0
POLYLINE
  8
0
 62
2
 66
1
  0
VERTEX
  8
0
 10
-192.0291646255382
 20
114.1363262638543
 30
0
  0
VERTEX
  8
0
 10
-192.1135964675382
 20
114.3186680480543
 30
0
  0
VERTEX
  8
0
 10
-192.1307421161382
 20
114.4764843836543
 30
0
  0
SEQEND
  8
0
  0
POLYLINE
  8
0
 62
2
 66
1
  0
VERTEX
  8
0
 10
-191.6736452712382
 20
113.9497879400542
 30
0
  0
VERTEX
  8
0
 10
-191.8945810629382
 20
114.0143164872543
 30
0
  0
VERTEX
  8
0
 10
-192.0291646255382
 20
114.1363262638543
 30
0
  0
SEQEND
  8
0
  0
POLYLINE
  8
0
 62
2
 66
1
  0
VERTEX
  8
0
 10
-191.9275871349383
 20
114.3118912793544
 30
0
  0
VERTEX
  8
0
 10
-191.7982189788382
 20
114.2169638976543
 30
0
  0
VERTEX
  8
0
 10
-191.6736452712382
 20
114.1911904766543
 30
0
  0
SEQEND
  8
0
  0
POLYLINE
  8
0
 62
2
 66
1
  0
VERTEX
  8
0
 10
-191.9783758802383
 20
114.4764843836543
 30
0
  0
VERTEX
  8
0
 10
-191.9635734392383
 20
114.3797916799543
 30
0
  0
VERTEX
  8
0
 10
-191.9275871349383
 20
114.3118912793544
 30
0
  0
SEQEND
  8
0
  0
POLYLINE
  8
0
 62
2
 66
1
  0
VERTEX
  8
0
 10
-191.9275871349383
 20
114.6410760908544
 30
0
  0
VERTEX
  8
0
 10
-191.9695190025383
 20
114.5529357224544
 30
0
  0
VERTEX
  8
0
 10
-191.9783758802383
 20
114.4764843836543
 30
0
  0
SEQEND
  8
0
  0
POLYLINE
  8
0
 62
2
 66
1
  0
VERTEX
  8
0
 10
-191.6821091307382
 20
114.7398316740543
 30
0
  0
VERTEX
  8
0
 10
-191.8324841989382
 20
114.7132954999543
 30
0
  0
VERTEX
  8
0
 10
-191.9275871349383
 20
114.6410760908544
 30
0
  0
SEQEND
  8
0
  0
POLYLINE
  8
0
 62
2
 66
1
  0
VERTEX
  8
0
 10
-191.4027719630383
 20
114.3887016430543
 30
0
  0
VERTEX
  8
0
 10
-191.4260010106382
 20
114.5424192279543
 30
0
  0
VERTEX
  8
0
 10
-191.4789560122382
 20
114.6520489334543
 30
0
  0
SEQEND
  8
0
  0
POLYLINE
  8
0
 62
2
 66
1
  0
VERTEX
  8
0
 10
-191.1996188445382
 20
114.6520489334543
 30
0
  0
VERTEX
  8
0
 10
-191.2542725785382
 20
114.5096087336543
 30
0
  0
VERTEX
  8
0
 10
-191.2588714493382
 20
114.3887016430543
 30
0
  0
SEQEND
  8
0
  0
POLYLINE
  8
0
 62
2
 66
1
  0
VERTEX
  8
0
 10
-190.6409445090383
 20
114.4655115410542
 30
0
  0
VERTEX
  8
0
 10
-190.6664292199383
 20
114.5886882647542
 30
0
  0
VERTEX
  8
0
 10
-190.7171266956383
 20
114.6739946186543
 30
0
  0
SEQEND
  8
0
  0
LINE
  8
1
 62
2
 10
-108.4881847604382
 20
-168.0413588362573
 30
0
 11
-107.9881847604382
 21
-168.8851088362573
 31
0
  0
LINE
  8
1
 62
2
 10
-109.2381847604382
 20
-167.1976088362573
 30
0
 11
-108.4881847604382
 21
-168.0413588362573
 31
0
  0
LINE
  8
1
 62
2
 10
-110.2381847604382
 20
-166.3538588362573
 30
0
 11
-109.2381847604382
 21
-167.1976088362573
 31
0
  0
LINE
  8
1
 62
2
 10
-110.7381847604382
 20
-165.2288588362573
 30
0
 11
-111.4881847604382
 21
-163.8226088362573
 31
0
  0
LINE
  8
1
 62
2
 10
-109.4881847604382
 20
-164.9476088362573
 30
0
 11
-109.9881847604382
 21
-163.5413588362573
 31
0
  0
LINE
  8
1
 62
2
 10
-107.9881847604382
 20
-165.5101088362573
 30
0
 11
-107.2381847604382
 21
-163.8226088362573
 31
0
  0
LINE
  8
1
 62
2
 10
-109.4881847604382
 20
-167.7601088362573
 30
0
 11
-107.9881847604382
 21
-165.5101088362573
 31
0
  0
LINE
  8
1
 62
2
 10
-110.2381847604382
 20
-168.6038588362573
 30
0
 11
-109.4881847604382
 21
-167.7601088362573
 31
0
  0
LINE
  8
1
 62
2
 10
-111.4881847604382
 20
-169.4476088362573
 30
0
 11
-110.2381847604382
 21
-168.6038588362573
 31
0
  0
LINE
  8
1
 62
2
 10
-112.7381847604382
 20
-162.4163588362573
 30
0
 11
-112.7381847604382
 21
-170.5726088362573
 31
0
  0
LINE
  8
1
 62
2
 10
-106.2381847604382
 20
-162.4163588362573
 30
0
 11
-112.7381847604382
 21
-162.4163588362573
 31
0
  0
LINE
  8
1
 62
2
 10
-106.2381847604382
 20
-170.5726088362573
 30
0
 11
-106.2381847604382
 21
-162.4163588362573
 31
0
  0
LINE
  8
1
 62
2
 10
-112.7381847604382
 20
-170.5726088362573
 30
0
 11
-106.2381847604382
 21
-170.5726088362573
 31
0
  0
LINE
  8
1
 62
2
 10
-117.7381847604382
 20
-166.6351088362573
 30
0
 11
-114.7381847604382
 21
-166.6351088362573
 31
0
  0
LINE
  8
1
 62
2
 10
-116.4881847604382
 20
-168.3226088362573
 30
0
 11
-114.9881847604382
 21
-170.8538588362573
 31
0
  0
LINE
  8
1
 62
2
 10
-119.9881847604382
 20
-170.5726088362573
 30
0
 11
-115.7381847604382
 21
-169.7288588362573
 31
0
  0
LINE
  8
1
 62
2
 10
-117.7381847604382
 20
-166.6351088362573
 30
0
 11
-118.9881847604382
 21
-170.2913588362573
 31
0
  0
LINE
  8
1
 62
2
 10
-120.4881847604382
 20
-166.6351088362573
 30
0
 11
-117.7381847604382
 21
-166.6351088362573
 31
0
  0
LINE
  8
1
 62
2
 10
-117.4881847604382
 20
-162.1351088362573
 30
0
 11
-117.4881847604382
 21
-166.6351088362573
 31
0
  0
LINE
  8
1
 62
2
 10
-119.7381847604382
 20
-164.3851088362573
 30
0
 11
-114.9881847604382
 21
-164.3851088362573
 31
0
  0
LINE
  8
1
 62
2
 10
-121.7381847604382
 20
-162.4163588362573
 30
0
 11
-120.9881847604382
 21
-163.5413588362573
 31
0
  0
LINE
  8
1
 62
2
 10
-121.7381847604382
 20
-165.7913588362573
 30
0
 11
-122.4881847604382
 21
-164.9476088362573
 31
0
  0
LINE
  8
1
 62
2
 10
-122.2381847604382
 20
-170.8538588362573
 30
0
 11
-120.9881847604382
 21
-167.1976088362573
 31
0
  0
LINE
  8
1
 62
2
 10
-127.9881847604382
 20
-167.4788588362573
 30
0
 11
-128.9881847604382
 21
-166.0726088362573
 31
0
  0
LINE
  8
1
 62
2
 10
-125.9881847604382
 20
-170.5726088362573
 30
0
 11
-127.2381847604382
 21
-170.5726088362573
 31
0
  0
LINE
  8
1
 62
2
 10
-125.9881847604382
 20
-162.4163588362573
 30
0
 11
-125.9881847604382
 21
-170.5726088362573
 31
0
  0
LINE
  8
1
 62
2
 10
-130.7381847604382
 20
-164.6663588362573
 30
0
 11
-123.9881847604382
 21
-164.6663588362573
 31
0
  0
LINE
  8
1
 62
2
 10
-139.4881847604382
 20
-168.8851088362573
 30
0
 11
-139.4881847604382
 21
-166.0726088362573
 31
0
  0
LINE
  8
1
 62
2
 10
-137.9881847604382
 20
-170.2913588362573
 30
0
 11
-139.4881847604382
 21
-170.2913588362573
 31
0
  0
LINE
  8
1
 62
2
 10
-137.9881847604382
 20
-166.0726088362573
 30
0
 11
-136.7381847604382
 21
-166.0726088362573
 31
0
  0
LINE
  8
1
 62
2
 10
-138.2381847604382
 20
-163.2601088362573
 30
0
 11
-139.2381847604382
 21
-163.2601088362573
 31
0
  0
LINE
  8
1
 62
2
 10
-135.9881847604382
 20
-164.3851088362573
 30
0
 11
-135.9881847604382
 21
-166.0726088362573
 31
0
  0
LINE
  8
1
 62
2
 10
-133.4881847604382
 20
-166.0726088362573
 30
0
 11
-133.4881847604382
 21
-162.6976088362573
 31
0
  0
LINE
  8
1
 62
2
 10
-135.9881847604382
 20
-166.0726088362573
 30
0
 11
-135.9881847604382
 21
-167.7601088362573
 31
0
  0
LINE
  8
1
 62
2
 10
-135.2381847604382
 20
-167.7601088362573
 30
0
 11
-134.4881847604382
 21
-167.7601088362573
 31
0
  0
LINE
  8
1
 62
2
 10
-134.4881847604382
 20
-167.7601088362573
 30
0
 11
-133.4881847604382
 21
-167.7601088362573
 31
0
  0
LINE
  8
1
 62
2
 10
-132.7381847604382
 20
-170.8538588362573
 30
0
 11
-132.4881847604382
 21
-170.2913588362573
 31
0
  0
LINE
  8
1
 62
2
 10
-133.7381847604382
 20
-170.8538588362573
 30
0
 11
-132.7381847604382
 21
-170.8538588362573
 31
0
  0
LINE
  8
1
 62
2
 10
-134.4881847604382
 20
-170.2913588362573
 30
0
 11
-133.7381847604382
 21
-170.8538588362573
 31
0
  0
LINE
  8
1
 62
2
 10
-134.4881847604382
 20
-167.7601088362573
 30
0
 11
-134.4881847604382
 21
-170.2913588362573
 31
0
  0
LINE
  8
1
 62
2
 10
-135.9881847604382
 20
-170.0101088362573
 30
0
 11
-136.7381847604382
 21
-170.8538588362573
 31
0
  0
LINE
  8
1
 62
2
 10
-135.4881847604382
 20
-168.6038588362573
 30
0
 11
-135.9881847604382
 21
-170.0101088362573
 31
0
  0
LINE
  8
1
 62
2
 10
-135.2381847604382
 20
-167.7601088362573
 30
0
 11
-135.4881847604382
 21
-168.6038588362573
 31
0
  0
LINE
  8
1
 62
2
 10
-133.4881847604382
 20
-166.0726088362573
 30
0
 11
-135.9881847604382
 21
-166.0726088362573
 31
0
  0
LINE
  8
1
 62
2
 10
-135.9881847604382
 20
-164.3851088362573
 30
0
 11
-133.4881847604382
 21
-164.3851088362573
 31
0
  0
LINE
  8
1
 62
2
 10
-133.4881847604382
 20
-162.6976088362573
 30
0
 11
-135.9881847604382
 21
-162.6976088362573
 31
0
  0
LINE
  8
1
 62
2
 10
-133.4881847604382
 20
-167.7601088362573
 30
0
 11
-133.4881847604382
 21
-166.0726088362573
 31
0
  0
LINE
  8
1
 62
2
 10
-135.9881847604382
 20
-167.7601088362573
 30
0
 11
-135.2381847604382
 21
-167.7601088362573
 31
0
  0
LINE
  8
1
 62
2
 10
-135.9881847604382
 20
-162.6976088362573
 30
0
 11
-135.9881847604382
 21
-164.3851088362573
 31
0
  0
LINE
  8
1
 62
2
 10
-139.4881847604382
 20
-163.2601088362573
 30
0
 11
-138.9881847604382
 21
-162.1351088362573
 31
0
  0
LINE
  8
1
 62
2
 10
-140.2381847604382
 20
-164.1038588362573
 30
0
 11
-139.4881847604382
 21
-163.2601088362573
 31
0
  0
LINE
  8
1
 62
2
 10
-136.7381847604382
 20
-163.2601088362573
 30
0
 11
-138.2381847604382
 21
-163.2601088362573
 31
0
  0
LINE
  8
1
 62
2
 10
-139.2381847604382
 20
-165.7913588362573
 30
0
 11
-138.2381847604382
 21
-163.2601088362573
 31
0
  0
LINE
  8
1
 62
2
 10
-140.4881847604382
 20
-167.4788588362573
 30
0
 11
-139.2381847604382
 21
-165.7913588362573
 31
0
  0
LINE
  8
1
 62
2
 10
-136.4881847604382
 20
-164.6663588362573
 30
0
 11
-140.2381847604382
 21
-164.6663588362573
 31
0
  0
LINE
  8
1
 62
2
 10
-137.9881847604382
 20
-166.0726088362573
 30
0
 11
-137.7381847604382
 21
-165.5101088362573
 31
0
  0
LINE
  8
1
 62
2
 10
-137.9881847604382
 20
-170.2913588362573
 30
0
 11
-137.9881847604382
 21
-166.0726088362573
 31
0
  0
LINE
  8
1
 62
2
 10
-136.7381847604382
 20
-170.2913588362573
 30
0
 11
-137.9881847604382
 21
-170.2913588362573
 31
0
  0
LINE
  8
1
 62
2
 10
-139.4881847604382
 20
-168.8851088362573
 30
0
 11
-136.7381847604382
 21
-168.8851088362573
 31
0
  0
LINE
  8
1
 62
2
 10
-136.7381847604382
 20
-167.4788588362573
 30
0
 11
-139.4881847604382
 21
-167.4788588362573
 31
0
  0
LINE
  8
1
 62
2
 10
-139.4881847604382
 20
-166.0726088362573
 30
0
 11
-137.9881847604382
 21
-166.0726088362573
 31
0
  0
LINE
  8
1
 62
2
 10
-139.4881847604382
 20
-170.8538588362573
 30
0
 11
-139.4881847604382
 21
-168.8851088362573
 31
0
  0
LINE
  8
1
 62
2
 10
-142.7381847604382
 20
-166.0726088362573
 30
0
 11
-141.4881847604382
 21
-167.4788588362573
 31
0
  0
LINE
  8
1
 62
2
 10
-144.7381847604382
 20
-164.1038588362573
 30
0
 11
-142.7381847604382
 21
-166.0726088362573
 31
0
  0
LINE
  8
1
 62
2
 10
-144.2381847604382
 20
-161.8538588362573
 30
0
 11
-144.2381847604382
 21
-170.8538588362573
 31
0
  0
LINE
  8
1
 62
2
 10
-148.4881847604382
 20
-165.5101088362573
 30
0
 11
-146.7381847604382
 21
-166.9163588362573
 31
0
  0
LINE
  8
1
 62
2
 10
-148.4881847604382
 20
-165.2288588362573
 30
0
 11
-149.4881847604382
 21
-166.6351088362573
 31
0
  0
LINE
  8
1
 62
2
 10
-147.7381847604382
 20
-163.5413588362573
 30
0
 11
-148.4881847604382
 21
-165.2288588362573
 31
0
  0
LINE
  8
1
 62
2
 10
-147.2381847604382
 20
-161.8538588362573
 30
0
 11
-147.7381847604382
 21
-163.5413588362573
 31
0
  0
LINE
  8
1
 62
2
 10
-145.4881847604382
 20
-163.8226088362573
 30
0
 11
-147.7381847604382
 21
-163.8226088362573
 31
0
  0
LINE
  8
1
 62
2
 10
-145.9881847604382
 20
-165.5101088362573
 30
0
 11
-145.4881847604382
 21
-163.8226088362573
 31
0
  0
LINE
  8
1
 62
2
 10
-146.4881847604382
 20
-166.6351088362573
 30
0
 11
-145.9881847604382
 21
-165.5101088362573
 31
0
  0
LINE
  8
1
 62
2
 10
-147.4881847604382
 20
-168.3226088362573
 30
0
 11
-146.4881847604382
 21
-166.6351088362573
 31
0
  0
LINE
  8
1
 62
2
 10
-148.9881847604382
 20
-170.2913588362573
 30
0
 11
-147.4881847604382
 21
-168.3226088362573
 31
0
  0
LINE
  8
1
 62
2
 10
-164.3381847604382
 20
-164.5538588362573
 30
0
 11
-162.5381847604382
 21
-164.5538588362573
 31
0
  0
LINE
  8
1
 62
2
 10
-164.3381847604382
 20
-164.5538588362573
 30
0
 11
-164.3381847604382
 21
-170.8538588362573
 31
0
  0
LINE
  8
1
 62
2
 10
-161.1881847604382
 20
-165.6788588362573
 30
0
 11
-161.1881847604382
 21
-170.8538588362573
 31
0
  0
LINE
  8
1
 62
2
 10
-161.4131847604382
 20
-165.2288588362573
 30
0
 11
-161.1881847604382
 21
-165.6788588362573
 31
0
  0
LINE
  8
1
 62
2
 10
-161.8631847604382
 20
-164.7788588362573
 30
0
 11
-161.4131847604382
 21
-165.2288588362573
 31
0
  0
LINE
  8
1
 62
2
 10
-162.5381847604382
 20
-164.5538588362573
 30
0
 11
-161.8631847604382
 21
-164.7788588362573
 31
0
  0
LINE
  8
1
 62
2
 10
-167.4881847604382
 20
-164.5538588362573
 30
0
 11
-164.3381847604382
 21
-164.5538588362573
 31
0
  0
LINE
  8
1
 62
2
 10
-167.4881847604382
 20
-170.8538588362573
 30
0
 11
-167.4881847604382
 21
-164.5538588362573
 31
0
  0
LINE
  8
1
 62
2
 10
-173.3381847604382
 20
-164.5538588362573
 30
0
 11
-171.5381847604382
 21
-164.5538588362573
 31
0
  0
LINE
  8
1
 62
2
 10
-173.3381847604382
 20
-164.5538588362573
 30
0
 11
-173.3381847604382
 21
-170.8538588362573
 31
0
  0
LINE
  8
1
 62
2
 10
-170.1881847604382
 20
-165.6788588362573
 30
0
 11
-170.1881847604382
 21
-170.8538588362573
 31
0
  0
LINE
  8
1
 62
2
 10
-170.4131847604382
 20
-165.2288588362573
 30
0
 11
-170.1881847604382
 21
-165.6788588362573
 31
0
  0
LINE
  8
1
 62
2
 10
-170.8631847604382
 20
-164.7788588362573
 30
0
 11
-170.4131847604382
 21
-165.2288588362573
 31
0
  0
LINE
  8
1
 62
2
 10
-171.5381847604382
 20
-164.5538588362573
 30
0
 11
-170.8631847604382
 21
-164.7788588362573
 31
0
  0
LINE
  8
1
 62
2
 10
-176.4881847604382
 20
-164.5538588362573
 30
0
 11
-173.3381847604382
 21
-164.5538588362573
 31
0
  0
LINE
  8
1
 62
2
 10
-176.4881847604382
 20
-170.8538588362573
 30
0
 11
-176.4881847604382
 21
-164.5538588362573
 31
0
  0
LINE
  8
1
 62
2
 10
-179.1881847604382
 20
-165.2288588362573
 30
0
 11
-179.1881847604382
 21
-167.4788588362573
 31
0
  0
LINE
  8
1
 62
2
 10
-179.4131847604382
 20
-163.8788588362573
 30
0
 11
-179.1881847604382
 21
-165.2288588362573
 31
0
  0
LINE
  8
1
 62
2
 10
-179.8631847604382
 20
-162.9788588362573
 30
0
 11
-179.4131847604382
 21
-163.8788588362573
 31
0
  0
LINE
  8
1
 62
2
 10
-180.3131847604382
 20
-162.5288588362573
 30
0
 11
-179.8631847604382
 21
-162.9788588362573
 31
0
  0
LINE
  8
1
 62
2
 10
-180.9881847604382
 20
-162.0788588362573
 30
0
 11
-180.3131847604382
 21
-162.5288588362573
 31
0
  0
LINE
  8
1
 62
2
 10
-181.6631847604382
 20
-161.8538588362573
 30
0
 11
-180.9881847604382
 21
-162.0788588362573
 31
0
  0
LINE
  8
1
 62
2
 10
-182.1131847604382
 20
-161.8538588362573
 30
0
 11
-181.6631847604382
 21
-161.8538588362573
 31
0
  0
LINE
  8
1
 62
2
 10
-182.7881847604382
 20
-162.0788588362573
 30
0
 11
-182.1131847604382
 21
-161.8538588362573
 31
0
  0
LINE
  8
1
 62
2
 10
-183.4631847604382
 20
-162.5288588362573
 30
0
 11
-182.7881847604382
 21
-162.0788588362573
 31
0
  0
LINE
  8
1
 62
2
 10
-183.9131847604382
 20
-162.9788588362573
 30
0
 11
-183.4631847604382
 21
-162.5288588362573
 31
0
  0
LINE
  8
1
 62
2
 10
-184.3631847604382
 20
-163.8788588362573
 30
0
 11
-183.9131847604382
 21
-162.9788588362573
 31
0
  0
LINE
  8
1
 62
2
 10
-184.5881847604382
 20
-165.2288588362573
 30
0
 11
-184.3631847604382
 21
-163.8788588362573
 31
0
  0
LINE
  8
1
 62
2
 10
-184.5881847604382
 20
-167.4788588362573
 30
0
 11
-184.5881847604382
 21
-165.2288588362573
 31
0
  0
LINE
  8
1
 62
2
 10
-184.3631847604382
 20
-168.8288588362573
 30
0
 11
-184.5881847604382
 21
-167.4788588362573
 31
0
  0
LINE
  8
1
 62
2
 10
-183.9131847604382
 20
-169.7288588362573
 30
0
 11
-184.3631847604382
 21
-168.8288588362573
 31
0
  0
LINE
  8
1
 62
2
 10
-183.4631847604382
 20
-170.1788588362573
 30
0
 11
-183.9131847604382
 21
-169.7288588362573
 31
0
  0
LINE
  8
1
 62
2
 10
-182.7881847604382
 20
-170.6288588362573
 30
0
 11
-183.4631847604382
 21
-170.1788588362573
 31
0
  0
LINE
  8
1
 62
2
 10
-182.1131847604382
 20
-170.8538588362573
 30
0
 11
-182.7881847604382
 21
-170.6288588362573
 31
0
  0
LINE
  8
1
 62
2
 10
-181.6631847604382
 20
-170.8538588362573
 30
0
 11
-182.1131847604382
 21
-170.8538588362573
 31
0
  0
LINE
  8
1
 62
2
 10
-180.9881847604382
 20
-170.6288588362573
 30
0
 11
-181.6631847604382
 21
-170.8538588362573
 31
0
  0
LINE
  8
1
 62
2
 10
-180.3131847604382
 20
-170.1788588362573
 30
0
 11
-180.9881847604382
 21
-170.6288588362573
 31
0
  0
LINE
  8
1
 62
2
 10
-179.8631847604382
 20
-169.7288588362573
 30
0
 11
-180.3131847604382
 21
-170.1788588362573
 31
0
  0
LINE
  8
1
 62
2
 10
-179.4131847604382
 20
-168.8288588362573
 30
0
 11
-179.8631847604382
 21
-169.7288588362573
 31
0
  0
LINE
  8
1
 62
2
 10
-179.1881847604382
 20
-167.4788588362573
 30
0
 11
-179.4131847604382
 21
-168.8288588362573
 31
0
  0
LINE
  8
1
 62
2
 10
-189.3131847604382
 20
-170.8538588362573
 30
0
 11
-192.6881847604382
 21
-170.8538588362573
 31
0
  0
LINE
  8
1
 62
2
 10
-188.6381847604382
 20
-170.6288588362573
 30
0
 11
-189.3131847604382
 21
-170.8538588362573
 31
0
  0
LINE
  8
1
 62
2
 10
-187.9631847604382
 20
-170.1788588362573
 30
0
 11
-188.6381847604382
 21
-170.6288588362573
 31
0
  0
LINE
  8
1
 62
2
 10
-187.5131847604382
 20
-169.5038588362573
 30
0
 11
-187.9631847604382
 21
-170.1788588362573
 31
0
  0
LINE
  8
1
 62
2
 10
-187.2881847604382
 20
-168.6038588362573
 30
0
 11
-187.5131847604382
 21
-169.5038588362573
 31
0
  0
LINE
  8
1
 62
2
 10
-187.2881847604382
 20
-167.4788588362573
 30
0
 11
-187.2881847604382
 21
-168.6038588362573
 31
0
  0
LINE
  8
1
 62
2
 10
-187.5131847604382
 20
-166.5788588362573
 30
0
 11
-187.2881847604382
 21
-167.4788588362573
 31
0
  0
LINE
  8
1
 62
2
 10
-187.7381847604382
 20
-166.1288588362573
 30
0
 11
-187.5131847604382
 21
-166.5788588362573
 31
0
  0
LINE
  8
1
 62
2
 10
-188.1881847604382
 20
-165.6788588362573
 30
0
 11
-187.7381847604382
 21
-166.1288588362573
 31
0
  0
LINE
  8
1
 62
2
 10
-189.0881847604382
 20
-165.4538588362573
 30
0
 11
-188.1881847604382
 21
-165.6788588362573
 31
0
  0
LINE
  8
1
 62
2
 10
-188.4131847604382
 20
-165.2288588362573
 30
0
 11
-189.0881847604382
 21
-165.4538588362573
 31
0
  0
LINE
  8
1
 62
2
 10
-187.9631847604382
 20
-165.0038588362573
 30
0
 11
-188.4131847604382
 21
-165.2288588362573
 31
0
  0
LINE
  8
1
 62
2
 10
-187.5131847604382
 20
-164.5538588362573
 30
0
 11
-187.9631847604382
 21
-165.0038588362573
 31
0
  0
LINE
  8
1
 62
2
 10
-187.2881847604382
 20
-163.8788588362573
 30
0
 11
-187.5131847604382
 21
-164.5538588362573
 31
0
  0
LINE
  8
1
 62
2
 10
-187.2881847604382
 20
-163.2038588362573
 30
0
 11
-187.2881847604382
 21
-163.8788588362573
 31
0
  0
LINE
  8
1
 62
2
 10
-187.5131847604382
 20
-162.5288588362573
 30
0
 11
-187.2881847604382
 21
-163.2038588362573
 31
0
  0
LINE
  8
1
 62
2
 10
-188.1881847604382
 20
-162.0788588362573
 30
0
 11
-187.5131847604382
 21
-162.5288588362573
 31
0
  0
LINE
  8
1
 62
2
 10
-189.3131847604382
 20
-161.8538588362573
 30
0
 11
-188.1881847604382
 21
-162.0788588362573
 31
0
  0
LINE
  8
1
 62
2
 10
-192.6881847604382
 20
-161.8538588362573
 30
0
 11
-189.3131847604382
 21
-161.8538588362573
 31
0
  0
LINE
  8
1
 62
2
 10
-191.3381847604382
 20
-165.4538588362573
 30
0
 11
-189.0881847604382
 21
-165.4538588362573
 31
0
  0
LINE
  8
1
 62
2
 10
-198.6881847604382
 20
-162.4163588362573
 30
0
 11
-201.1881847604382
 21
-162.4163588362573
 31
0
  0
LINE
  8
1
 62
2
 10
-197.4381847604382
 20
-170.5726088362573
 30
0
 11
-193.9381847604382
 21
-170.5726088362573
 31
0
  0
LINE
  8
1
 62
2
 10
-197.4381847604382
 20
-167.1976088362573
 30
0
 11
-197.4381847604382
 21
-170.5726088362573
 31
0
  0
LINE
  8
1
 62
2
 10
-194.4381847604382
 20
-167.1976088362573
 30
0
 11
-195.1881847604382
 21
-167.1976088362573
 31
0
  0
LINE
  8
1
 62
2
 10
-194.4381847604382
 20
-162.1351088362573
 30
0
 11
-194.4381847604382
 21
-167.1976088362573
 31
0
  0
LINE
  8
1
 62
2
 10
-196.1881847604382
 20
-166.0726088362573
 30
0
 11
-196.1881847604382
 21
-162.4163588362573
 31
0
  0
LINE
  8
1
 62
2
 10
-198.6881847604382
 20
-162.4163588362573
 30
0
 11
-198.6881847604382
 21
-167.1976088362573
 31
0
  0
LINE
  8
1
 62
2
 10
-201.4381847604382
 20
-164.3851088362573
 30
0
 11
-197.1881847604382
 21
-164.3851088362573
 31
0
  0
LINE
  8
1
 62
2
 10
-197.4381847604382
 20
-162.4163588362573
 30
0
 11
-198.6881847604382
 21
-162.4163588362573
 31
0
  0
LINE
  8
1
 62
2
 10
-199.9381847604382
 20
-164.3851088362573
 30
0
 11
-199.9381847604382
 21
-162.4163588362573
 31
0
  0
LINE
  8
1
 62
2
 10
-200.4381847604382
 20
-166.3538588362573
 30
0
 11
-199.9381847604382
 21
-164.3851088362573
 31
0
  0
LINE
  8
1
 62
2
 10
-201.1881847604382
 20
-167.4788588362573
 30
0
 11
-200.4381847604382
 21
-166.3538588362573
 31
0
  0
LINE
  8
1
 62
2
 10
-194.9381847604382
 20
-168.6038588362573
 30
0
 11
-200.4381847604382
 21
-168.6038588362573
 31
0
  0
LINE
  8
1
 62
2
 10
-201.1881847604382
 20
-170.5726088362573
 30
0
 11
-197.4381847604382
 21
-170.5726088362573
 31
0
  0
LINE
  8
1
 62
2
 10
-207.9881847604382
 20
-161.8538588362573
 30
0
 11
-204.3881847604382
 21
-170.8538588362573
 31
0
  0
LINE
  8
1
 62
2
 10
-211.5881847604382
 20
-170.8538588362573
 30
0
 11
-207.9881847604382
 21
-161.8538588362573
 31
0
  0
LINE
  8
1
 62
2
 10
-210.4631847604382
 20
-168.1538588362573
 30
0
 11
-205.5131847604382
 21
-168.1538588362573
 31
0
  0
LINE
  8
1
 62
2
 10
-214.5131847604382
 20
-163.6538588362573
 30
0
 11
-214.2881847604382
 21
-164.5538588362573
 31
0
  0
LINE
  8
1
 62
2
 10
-214.9631847604382
 20
-162.9788588362573
 30
0
 11
-214.5131847604382
 21
-163.6538588362573
 31
0
  0
LINE
  8
1
 62
2
 10
-215.4131847604382
 20
-162.5288588362573
 30
0
 11
-214.9631847604382
 21
-162.9788588362573
 31
0
  0
LINE
  8
1
 62
2
 10
-216.0881847604382
 20
-162.0788588362573
 30
0
 11
-215.4131847604382
 21
-162.5288588362573
 31
0
  0
LINE
  8
1
 62
2
 10
-216.9881847604382
 20
-161.8538588362573
 30
0
 11
-216.0881847604382
 21
-162.0788588362573
 31
0
  0
LINE
  8
1
 62
2
 10
-220.5881847604382
 20
-161.8538588362573
 30
0
 11
-216.9881847604382
 21
-161.8538588362573
 31
0
  0
LINE
  8
1
 62
2
 10
-220.5881847604382
 20
-170.8538588362573
 30
0
 11
-220.5881847604382
 21
-161.8538588362573
 31
0
  0
LINE
  8
1
 62
2
 10
-216.9881847604382
 20
-170.8538588362573
 30
0
 11
-220.5881847604382
 21
-170.8538588362573
 31
0
  0
LINE
  8
1
 62
2
 10
-216.0881847604382
 20
-170.6288588362573
 30
0
 11
-216.9881847604382
 21
-170.8538588362573
 31
0
  0
LINE
  8
1
 62
2
 10
-215.4131847604382
 20
-170.1788588362573
 30
0
 11
-216.0881847604382
 21
-170.6288588362573
 31
0
  0
LINE
  8
1
 62
2
 10
-214.9631847604382
 20
-169.7288588362573
 30
0
 11
-215.4131847604382
 21
-170.1788588362573
 31
0
  0
LINE
  8
1
 62
2
 10
-214.5131847604382
 20
-169.0538588362573
 30
0
 11
-214.9631847604382
 21
-169.7288588362573
 31
0
  0
LINE
  8
1
 62
2
 10
-214.2881847604382
 20
-168.1538588362573
 30
0
 11
-214.5131847604382
 21
-169.0538588362573
 31
0
  0
LINE
  8
1
 62
2
 10
-214.2881847604382
 20
-164.5538588362573
 30
0
 11
-214.2881847604382
 21
-168.1538588362573
 31
0
  0
LINE
  8
1
 62
2
 10
-229.5881847604382
 20
-168.1538588362573
 30
0
 11
-229.5881847604382
 21
-161.8538588362573
 31
0
  0
LINE
  8
1
 62
2
 10
-229.5881847604382
 20
-170.8538588362573
 30
0
 11
-229.5881847604382
 21
-168.1538588362573
 31
0
  0
LINE
  8
1
 62
2
 10
-227.7881847604382
 20
-166.3538588362573
 30
0
 11
-223.2881847604382
 21
-170.8538588362573
 31
0
  0
LINE
  8
1
 62
2
 10
-223.2881847604382
 20
-161.8538588362573
 30
0
 11
-227.7881847604382
 21
-166.3538588362573
 31
0
  0
LINE
  8
1
 62
2
 10
-227.7881847604382
 20
-166.3538588362573
 30
0
 11
-229.5881847604382
 21
-168.1538588362573
 31
0
  0
LINE
  8
1
 62
2
 10
-232.2881847604382
 20
-165.9038588362573
 30
0
 11
-234.5381847604382
 21
-165.9038588362573
 31
0
  0
LINE
  8
1
 62
2
 10
-232.2881847604382
 20
-170.8538588362573
 30
0
 11
-232.2881847604382
 21
-165.9038588362573
 31
0
  0
LINE
  8
1
 62
2
 10
-236.1131847604382
 20
-170.8538588362573
 30
0
 11
-232.2881847604382
 21
-170.8538588362573
 31
0
  0
LINE
  8
1
 62
2
 10
-236.7881847604382
 20
-170.6288588362573
 30
0
 11
-236.1131847604382
 21
-170.8538588362573
 31
0
  0
LINE
  8
1
 62
2
 10
-237.6881847604382
 20
-170.1788588362573
 30
0
 11
-236.7881847604382
 21
-170.6288588362573
 31
0
  0
LINE
  8
1
 62
2
 10
-238.1381847604382
 20
-169.7288588362573
 30
0
 11
-237.6881847604382
 21
-170.1788588362573
 31
0
  0
LINE
  8
1
 62
2
 10
-238.3631847604382
 20
-169.0538588362573
 30
0
 11
-238.1381847604382
 21
-169.7288588362573
 31
0
  0
LINE
  8
1
 62
2
 10
-238.5881847604382
 20
-168.1538588362573
 30
0
 11
-238.3631847604382
 21
-169.0538588362573
 31
0
  0
LINE
  8
1
 62
2
 10
-238.5881847604382
 20
-164.5538588362573
 30
0
 11
-238.5881847604382
 21
-168.1538588362573
 31
0
  0
LINE
  8
1
 62
2
 10
-238.3631847604382
 20
-163.6538588362573
 30
0
 11
-238.5881847604382
 21
-164.5538588362573
 31
0
  0
LINE
  8
1
 62
2
 10
-238.1381847604382
 20
-162.9788588362573
 30
0
 11
-238.3631847604382
 21
-163.6538588362573
 31
0
  0
LINE
  8
1
 62
2
 10
-237.6881847604382
 20
-162.5288588362573
 30
0
 11
-238.1381847604382
 21
-162.9788588362573
 31
0
  0
LINE
  8
1
 62
2
 10
-237.0131847604382
 20
-162.0788588362573
 30
0
 11
-237.6881847604382
 21
-162.5288588362573
 31
0
  0
LINE
  8
1
 62
2
 10
-236.1131847604382
 20
-161.8538588362573
 30
0
 11
-237.0131847604382
 21
-162.0788588362573
 31
0
  0
LINE
  8
1
 62
2
 10
-232.2881847604382
 20
-161.8538588362573
 30
0
 11
-236.1131847604382
 21
-161.8538588362573
 31
0
  0
LINE
  8
1
 62
2
 10
-133.9131847604382
 20
-190.5101088362573
 30
0
 11
-133.6631847604382
 21
-190.2288588362573
 31
0
  0
LINE
  8
1
 62
2
 10
-133.9131847604382
 20
-188.8226088362573
 30
0
 11
-135.4131847604382
 21
-188.8226088362573
 31
0
  0
LINE
  8
1
 62
2
 10
-130.1631847604382
 20
-195.2913588362573
 30
0
 11
-127.9131847604382
 21
-195.2913588362573
 31
0
  0
LINE
  8
1
 62
2
 10
-132.6631847604382
 20
-195.2913588362573
 30
0
 11
-130.1631847604382
 21
-195.2913588362573
 31
0
  0
LINE
  8
1
 62
2
 10
-130.1631847604382
 20
-187.1351088362573
 30
0
 11
-130.1631847604382
 21
-195.2913588362573
 31
0
  0
LINE
  8
1
 62
2
 10
-131.9131847604382
 20
-190.5101088362573
 30
0
 11
-128.4131847604382
 21
-190.5101088362573
 31
0
  0
LINE
  8
1
 62
2
 10
-133.4131847604382
 20
-190.7913588362573
 30
0
 11
-132.1631847604382
 21
-192.1976088362573
 31
0
  0
LINE
  8
1
 62
2
 10
-133.9131847604382
 20
-188.8226088362573
 30
0
 11
-133.9131847604382
 21
-187.1351088362573
 31
0
  0
LINE
  8
1
 62
2
 10
-132.6631847604382
 20
-188.8226088362573
 30
0
 11
-133.9131847604382
 21
-188.8226088362573
 31
0
  0
LINE
  8
1
 62
2
 10
-133.6631847604382
 20
-190.2288588362573
 30
0
 11
-132.6631847604382
 21
-188.8226088362573
 31
0
  0
LINE
  8
1
 62
2
 10
-134.9131847604382
 20
-191.6351088362573
 30
0
 11
-133.9131847604382
 21
-190.5101088362573
 31
0
  0
LINE
  8
1
 62
2
 10
-135.9131847604382
 20
-192.4788588362573
 30
0
 11
-134.9131847604382
 21
-191.6351088362573
 31
0
  0
LINE
  8
1
 62
2
 10
-133.9131847604382
 20
-195.5726088362573
 30
0
 11
-133.9131847604382
 21
-190.5101088362573
 31
0
  0
LINE
  8
1
 62
2
 10
-140.9131847604382
 20
-192.4788588362573
 30
0
 11
-143.4131847604382
 21
-195.5726088362573
 31
0
  0
LINE
  8
1
 62
2
 10
-138.6631847604382
 20
-195.0101088362573
 30
0
 11
-139.6631847604382
 21
-193.8851088362573
 31
0
  0
LINE
  8
1
 62
2
 10
-137.9131847604382
 20
-195.8538588362573
 30
0
 11
-138.6631847604382
 21
-195.0101088362573
 31
0
  0
LINE
  8
1
 62
2
 10
-144.1631847604382
 20
-195.5726088362573
 30
0
 11
-138.6631847604382
 21
-195.0101088362573
 31
0
  0
LINE
  8
1
 62
2
 10
-143.6631847604382
 20
-192.1976088362573
 30
0
 11
-137.9131847604382
 21
-192.1976088362573
 31
0
  0
LINE
  8
1
 62
2
 10
-142.6631847604382
 20
-190.7913588362573
 30
0
 11
-139.1631847604382
 21
-190.7913588362573
 31
0
  0
LINE
  8
1
 62
2
 10
-140.9131847604382
 20
-187.1351088362573
 30
0
 11
-136.9131847604382
 21
-191.3538588362573
 31
0
  0
LINE
  8
1
 62
2
 10
-140.9131847604382
 20
-187.1351088362573
 30
0
 11
-144.9131847604382
 21
-191.3538588362573
 31
0
  0
LINE
  8
1
 62
2
 10
-151.6631847604382
 20
-191.0726088362573
 30
0
 11
-153.4131847604382
 21
-191.0726088362573
 31
0
  0
LINE
  8
1
 62
2
 10
-151.6631847604382
 20
-194.1663588362573
 30
0
 11
-149.9131847604382
 21
-193.6038588362573
 31
0
  0
LINE
  8
1
 62
2
 10
-146.6631847604382
 20
-195.5726088362573
 30
0
 11
-145.9131847604382
 21
-194.7288588362573
 31
0
  0
LINE
  8
1
 62
2
 10
-147.6631847604382
 20
-194.4476088362573
 30
0
 11
-146.6631847604382
 21
-195.5726088362573
 31
0
  0
LINE
  8
1
 62
2
 10
-148.6631847604382
 20
-192.4788588362573
 30
0
 11
-147.6631847604382
 21
-194.4476088362573
 31
0
  0
LINE
  8
1
 62
2
 10
-149.1631847604382
 20
-190.2288588362573
 30
0
 11
-148.6631847604382
 21
-192.4788588362573
 31
0
  0
LINE
  8
1
 62
2
 10
-149.4131847604382
 20
-186.8538588362573
 30
0
 11
-149.1631847604382
 21
-190.2288588362573
 31
0
  0
LINE
  8
1
 62
2
 10
-147.9131847604382
 20
-187.9788588362573
 30
0
 11
-148.6631847604382
 21
-187.1351088362573
 31
0
  0
LINE
  8
1
 62
2
 10
-153.9131847604382
 20
-188.8226088362573
 30
0
 11
-146.6631847604382
 21
-188.8226088362573
 31
0
  0
LINE
  8
1
 62
2
 10
-151.6631847604382
 20
-191.0726088362573
 30
0
 11
-151.6631847604382
 21
-194.1663588362573
 31
0
  0
LINE
  8
1
 62
2
 10
-149.9131847604382
 20
-191.0726088362573
 30
0
 11
-151.6631847604382
 21
-191.0726088362573
 31
0
  0
LINE
  8
1
 62
2
 10
-153.4131847604382
 20
-194.7288588362573
 30
0
 11
-151.6631847604382
 21
-194.1663588362573
 31
0
  0
LINE
  8
1
 62
2
 10
-161.1631847604382
 20
-189.3851088362573
 30
0
 11
-161.1631847604382
 21
-186.8538588362573
 31
0
  0
LINE
  8
1
 62
2
 10
-161.1631847604382
 20
-189.3851088362573
 30
0
 11
-162.4131847604382
 21
-189.3851088362573
 31
0
  0
LINE
  8
1
 62
2
 10
-156.1631847604382
 20
-193.6038588362573
 30
0
 11
-155.1631847604382
 21
-195.5726088362573
 31
0
  0
LINE
  8
1
 62
2
 10
-157.4131847604382
 20
-191.0726088362573
 30
0
 11
-156.1631847604382
 21
-193.6038588362573
 31
0
  0
LINE
  8
1
 62
2
 10
-158.1631847604382
 20
-193.0413588362573
 30
0
 11
-157.4131847604382
 21
-191.0726088362573
 31
0
  0
LINE
  8
1
 62
2
 10
-159.1631847604382
 20
-194.4476088362573
 30
0
 11
-158.1631847604382
 21
-193.0413588362573
 31
0
  0
LINE
  8
1
 62
2
 10
-159.9131847604382
 20
-195.5726088362573
 30
0
 11
-159.1631847604382
 21
-194.4476088362573
 31
0
  0
LINE
  8
1
 62
2
 10
-157.4131847604382
 20
-186.8538588362573
 30
0
 11
-157.4131847604382
 21
-195.8538588362573
 31
0
  0
LINE
  8
1
 62
2
 10
-155.1631847604382
 20
-191.0726088362573
 30
0
 11
-159.4131847604382
 21
-191.0726088362573
 31
0
  0
LINE
  8
1
 62
2
 10
-158.6631847604382
 20
-189.1038588362573
 30
0
 11
-155.4131847604382
 21
-189.1038588362573
 31
0
  0
LINE
  8
1
 62
2
 10
-158.6631847604382
 20
-189.1038588362573
 30
0
 11
-158.4131847604382
 21
-187.6976088362573
 31
0
  0
LINE
  8
1
 62
2
 10
-159.4131847604382
 20
-190.5101088362573
 30
0
 11
-158.6631847604382
 21
-189.1038588362573
 31
0
  0
LINE
  8
1
 62
2
 10
-161.1631847604382
 20
-189.3851088362573
 30
0
 11
-159.9131847604382
 21
-191.6351088362573
 31
0
  0
LINE
  8
1
 62
2
 10
-162.6631847604382
 20
-193.3226088362573
 30
0
 11
-161.1631847604382
 21
-189.3851088362573
 31
0
  0
LINE
  8
1
 62
2
 10
-159.9131847604382
 20
-189.3851088362573
 30
0
 11
-161.1631847604382
 21
-189.3851088362573
 31
0
  0
LINE
  8
1
 62
2
 10
-161.1631847604382
 20
-195.5726088362573
 30
0
 11
-161.1631847604382
 21
-189.3851088362573
 31
0
  0
LINE
  8
1
 62
2
 10
-171.1631847604382
 20
-190.2288588362573
 30
0
 11
-171.1631847604382
 21
-188.8226088362573
 31
0
  0
LINE
  8
1
 62
2
 10
-168.6631847604382
 20
-188.8226088362573
 30
0
 11
-168.6631847604382
 21
-190.2288588362573
 31
0
  0
LINE
  8
1
 62
2
 10
-171.1631847604382
 20
-188.8226088362573
 30
0
 11
-171.1631847604382
 21
-187.4163588362573
 31
0
  0
LINE
  8
1
 62
2
 10
-164.6631847604382
 20
-190.2288588362573
 30
0
 11
-164.6631847604382
 21
-188.8226088362573
 31
0
  0
LINE
  8
1
 62
2
 10
-167.1631847604382
 20
-188.8226088362573
 30
0
 11
-167.1631847604382
 21
-190.2288588362573
 31
0
  0
LINE
  8
1
 62
2
 10
-164.6631847604382
 20
-188.8226088362573
 30
0
 11
-164.6631847604382
 21
-187.4163588362573
 31
0
  0
LINE
  8
1
 62
2
 10
-171.1631847604382
 20
-195.2913588362573
 30
0
 11
-171.1631847604382
 21
-195.5726088362573
 31
0
  0
LINE
  8
1
 62
2
 10
-167.1631847604382
 20
-188.8226088362573
 30
0
 11
-164.6631847604382
 21
-188.8226088362573
 31
0
  0
LINE
  8
1
 62
2
 10
-167.1631847604382
 20
-190.2288588362573
 30
0
 11
-164.6631847604382
 21
-190.2288588362573
 31
0
  0
LINE
  8
1
 62
2
 10
-167.1631847604382
 20
-187.4163588362573
 30
0
 11
-167.1631847604382
 21
-188.8226088362573
 31
0
  0
LINE
  8
1
 62
2
 10
-164.6631847604382
 20
-187.4163588362573
 30
0
 11
-167.1631847604382
 21
-187.4163588362573
 31
0
  0
LINE
  8
1
 62
2
 10
-164.6631847604382
 20
-195.2913588362573
 30
0
 11
-164.6631847604382
 21
-190.2288588362573
 31
0
  0
LINE
  8
1
 62
2
 10
-164.9131847604382
 20
-195.5726088362573
 30
0
 11
-164.6631847604382
 21
-195.2913588362573
 31
0
  0
LINE
  8
1
 62
2
 10
-165.6631847604382
 20
-195.5726088362573
 30
0
 11
-164.9131847604382
 21
-195.5726088362573
 31
0
  0
LINE
  8
1
 62
2
 10
-168.6631847604382
 20
-188.8226088362573
 30
0
 11
-171.1631847604382
 21
-188.8226088362573
 31
0
  0
LINE
  8
1
 62
2
 10
-168.6631847604382
 20
-190.2288588362573
 30
0
 11
-171.1631847604382
 21
-190.2288588362573
 31
0
  0
LINE
  8
1
 62
2
 10
-168.6631847604382
 20
-187.4163588362573
 30
0
 11
-168.6631847604382
 21
-188.8226088362573
 31
0
  0
LINE
  8
1
 62
2
 10
-171.1631847604382
 20
-187.4163588362573
 30
0
 11
-168.6631847604382
 21
-187.4163588362573
 31
0
  0
LINE
  8
1
 62
2
 10
-171.1631847604382
 20
-195.2913588362573
 30
0
 11
-171.1631847604382
 21
-190.2288588362573
 31
0
  0
LINE
  8
1
 62
2
 10
-176.9131847604382
 20
-195.5726088362573
 30
0
 11
-173.9131847604382
 21
-195.5726088362573
 31
0
  0
LINE
  8
1
 62
2
 10
-176.9131847604382
 20
-190.2288588362573
 30
0
 11
-175.1631847604382
 21
-190.2288588362573
 31
0
  0
LINE
  8
1
 62
2
 10
-173.9131847604382
 20
-190.5101088362573
 30
0
 11
-172.9131847604382
 21
-191.3538588362573
 31
0
  0
LINE
  8
1
 62
2
 10
-175.6631847604382
 20
-188.5413588362573
 30
0
 11
-173.9131847604382
 21
-190.5101088362573
 31
0
  0
LINE
  8
1
 62
2
 10
-176.9131847604382
 20
-186.8538588362573
 30
0
 11
-175.6631847604382
 21
-188.5413588362573
 31
0
  0
LINE
  8
1
 62
2
 10
-178.1631847604382
 20
-188.5413588362573
 30
0
 11
-176.9131847604382
 21
-186.8538588362573
 31
0
  0
LINE
  8
1
 62
2
 10
-179.9131847604382
 20
-190.5101088362573
 30
0
 11
-178.1631847604382
 21
-188.5413588362573
 31
0
  0
LINE
  8
1
 62
2
 10
-180.9131847604382
 20
-191.3538588362573
 30
0
 11
-179.9131847604382
 21
-190.5101088362573
 31
0
  0
LINE
  8
1
 62
2
 10
-175.6631847604382
 20
-194.4476088362573
 30
0
 11
-175.1631847604382
 21
-193.0413588362573
 31
0
  0
LINE
  8
1
 62
2
 10
-178.6631847604382
 20
-193.0413588362573
 30
0
 11
-178.1631847604382
 21
-194.4476088362573
 31
0
  0
LINE
  8
1
 62
2
 10
-174.4131847604382
 20
-191.9163588362573
 30
0
 11
-179.4131847604382
 21
-191.9163588362573
 31
0
  0
LINE
  8
1
 62
2
 10
-178.6631847604382
 20
-190.2288588362573
 30
0
 11
-176.9131847604382
 21
-190.2288588362573
 31
0
  0
LINE
  8
1
 62
2
 10
-176.9131847604382
 20
-195.5726088362573
 30
0
 11
-176.9131847604382
 21
-190.2288588362573
 31
0
  0
LINE
  8
1
 62
2
 10
-180.1631847604382
 20
-195.5726088362573
 30
0
 11
-176.9131847604382
 21
-195.5726088362573
 31
0
  0
LINE
  8
1
 62
2
 10
-183.6631847604382
 20
-193.0413588362573
 30
0
 11
-182.4131847604382
 21
-191.3538588362573
 31
0
  0
LINE
  8
1
 62
2
 10
-185.6631847604382
 20
-194.1663588362573
 30
0
 11
-183.6631847604382
 21
-193.0413588362573
 31
0
  0
LINE
  8
1
 62
2
 10
-185.6631847604382
 20
-189.1038588362573
 30
0
 11
-185.6631847604382
 21
-194.1663588362573
 31
0
  0
LINE
  8
1
 62
2
 10
-187.6631847604382
 20
-191.3538588362573
 30
0
 11
-187.4131847604382
 21
-189.1038588362573
 31
0
  0
LINE
  8
1
 62
2
 10
-188.1631847604382
 20
-193.0413588362573
 30
0
 11
-187.6631847604382
 21
-191.3538588362573
 31
0
  0
LINE
  8
1
 62
2
 10
-188.9131847604382
 20
-194.4476088362573
 30
0
 11
-188.1631847604382
 21
-193.0413588362573
 31
0
  0
LINE
  8
1
 62
2
 10
-197.4131847604382
 20
-192.1976088362573
 30
0
 11
-197.4131847604382
 21
-193.8851088362573
 31
0
  0
LINE
  8
1
 62
2
 10
-194.6631847604382
 20
-195.0101088362573
 30
0
 11
-193.1631847604382
 21
-194.7288588362573
 31
0
  0
LINE
  8
1
 62
2
 10
-197.1631847604382
 20
-194.7288588362573
 30
0
 11
-194.6631847604382
 21
-195.0101088362573
 31
0
  0
LINE
  8
1
 62
2
 10
-197.4131847604382
 20
-193.8851088362573
 30
0
 11
-197.1631847604382
 21
-194.7288588362573
 31
0
  0
LINE
  8
1
 62
2
 10
-197.4131847604382
 20
-189.1038588362573
 30
0
 11
-197.4131847604382
 21
-192.1976088362573
 31
0
  0
LINE
  8
1
 62
2
 10
-192.6631847604382
 20
-188.5413588362573
 30
0
 11
-191.9131847604382
 21
-189.3851088362573
 31
0
  0
LINE
  8
1
 62
2
 10
-192.4131847604382
 20
-189.9476088362573
 30
0
 11
-193.1631847604382
 21
-189.1038588362573
 31
0
  0
LINE
  8
1
 62
2
 10
-195.1631847604382
 20
-191.3538588362573
 30
0
 11
-193.6631847604382
 21
-190.5101088362573
 31
0
  0
LINE
  8
1
 62
2
 10
-197.4131847604382
 20
-192.1976088362573
 30
0
 11
-195.1631847604382
 21
-191.3538588362573
 31
0
  0
LINE
  8
1
 62
2
 10
-202.9131847604382
 20
-193.0413588362573
 30
0
 11
-201.4131847604382
 21
-194.7288588362573
 31
0
  0
LINE
  8
1
 62
2
 10
-204.1631847604382
 20
-191.9163588362573
 30
0
 11
-202.9131847604382
 21
-193.0413588362573
 31
0
  0
LINE
  8
1
 62
2
 10
-201.1631847604382
 20
-187.9788588362573
 30
0
 11
-200.4131847604382
 21
-188.8226088362573
 31
0
  0
LINE
  8
1
 62
2
 10
-201.6631847604382
 20
-188.5413588362573
 30
0
 11
-200.9131847604382
 21
-189.3851088362573
 31
0
  0
LINE
  8
1
 62
2
 10
-202.6631847604382
 20
-189.1038588362573
 30
0
 11
-205.9131847604382
 21
-189.1038588362573
 31
0
  0
LINE
  8
1
 62
2
 10
-203.4131847604382
 20
-190.7913588362573
 30
0
 11
-202.6631847604382
 21
-189.1038588362573
 31
0
  0
LINE
  8
1
 62
2
 10
-205.1631847604382
 20
-193.3226088362573
 30
0
 11
-203.4131847604382
 21
-190.7913588362573
 31
0
  0
LINE
  8
1
 62
2
 10
-206.9131847604382
 20
-194.7288588362573
 30
0
 11
-205.1631847604382
 21
-193.3226088362573
 31
0
  0
LINE
  8
1
 62
2
 10
-209.9131847604382
 20
-189.3851088362573
 30
0
 11
-212.1631847604382
 21
-191.9163588362573
 31
0
  0
LINE
  8
1
 62
2
 10
-215.6631847604382
 20
-189.3851088362573
 30
0
 11
-209.9131847604382
 21
-189.3851088362573
 31
0
  0
LINE
  8
1
 62
2
 10
-212.9131847604382
 20
-191.9163588362573
 30
0
 11
-212.6631847604382
 21
-190.5101088362573
 31
0
  0
LINE
  8
1
 62
2
 10
-213.4131847604382
 20
-193.6038588362573
 30
0
 11
-212.9131847604382
 21
-191.9163588362573
 31
0
  0
LINE
  8
1
 62
2
 10
-214.4131847604382
 20
-195.2913588362573
 30
0
 11
-213.4131847604382
 21
-193.6038588362573
 31
0
  0
LINE
  8
1
 62
2
 10
-214.9131847604382
 20
-35.93164254283276
 30
0
 11
-129.9131847604382
 21
-35.93164254283276
 31
0
  0
LINE
  8
1
 62
2
  6
DASHDOT
 10
-172.4131847604384
 20
46.53924985876279
 30
0
 11
-172.4131847604384
 21
163.8415051348096
 31
0
  0
LINE
  8
1
 62
2
  6
DASHDOT
 10
-306.2075742301876
 20
-76.43164254283281
 30
0
 11
-241.763609778798
 21
-76.43164254283282
 31
0
  0
LINE
  8
1
 62
2
  6
DASHDOT
 10
-172.4131847604382
 20
2.18248257820726
 30
0
 11
-172.4131847604382
 21
-122.973023640872
 31
0
  0
LINE
  8
1
 62
2
  6
DASHDOT
 10
-106.023638432966
 20
-76.43164254283282
 30
0
 11
-60.78568191617637
 21
-76.43164254283281
 31
0
  0
LINE
  8
1
 62
2
  6
DASHDOT
 10
-147.149505831229
 20
-76.43164254283282
 30
0
 11
-106.023638432966
 21
-76.43164254283282
 31
0
  0
LINE
  8
1
 62
2
  6
DASHDOT
 10
-216.638811840568
 20
-76.43164254283282
 30
0
 11
-195.814654990863
 21
-76.43164254283282
 31
0
  0
LINE
  8
0
 62
7
 10
-193.8131849619384
 20
-7.881642516732811
 30
0
 11
-193.8131849619384
 21
-6.881642080933005
 31
0
  0
LINE
  8
0
 62
7
 10
-191.0839059728384
 20
-7.881642516732811
 30
0
 11
-191.0839059728384
 21
-6.881642080933005
 31
0
  0
LINE
  8
0
 62
7
 10
-187.3131850606384
 20
-7.881642516732811
 30
0
 11
-187.3131850606384
 21
-6.881642080933005
 31
0
  0
LINE
  8
0
 62
7
 10
-196.8131852208385
 20
3.118357695566985
 30
0
 11
-196.8131852208385
 21
-5.881642848333016
 31
0
  0
LINE
  8
0
 62
7
 10
-187.3131850606384
 20
-5.881642848333016
 30
0
 11
-187.3131850606384
 21
3.118357695566985
 31
0
  0
LINE
  8
0
 62
7
 10
-196.8131852208385
 20
2.118357531666987
 30
0
 11
-187.3131850606384
 21
2.118357531666987
 31
0
  0
LINE
  8
0
 62
7
 10
-197.8131849191384
 20
-5.881642848333016
 30
0
 11
-197.8131849191384
 21
3.118357695566985
 31
0
  0
LINE
  8
0
 62
7
 10
-196.8131852208385
 20
2.118357531666987
 30
0
 11
-197.8131849191384
 21
2.118357531666987
 31
0
  0
LINE
  8
0
 62
7
 10
-186.3131851296384
 20
3.118357695566985
 30
0
 11
-186.3131851296384
 21
-7.881642516732811
 31
0
  0
LINE
  8
0
 62
7
 10
-197.8131849191384
 20
3.118357695566985
 30
0
 11
-186.3131851296384
 21
3.118357695566985
 31
0
  0
LINE
  8
0
 62
7
 10
-186.3131851296384
 20
2.118357531666987
 30
0
 11
-187.3131850606384
 21
2.118357531666987
 31
0
  0
LINE
  8
0
 62
7
 10
-191.5573328605384
 20
3.618357185966983
 30
0
 11
-191.5573328605384
 21
3.118357695566985
 31
0
  0
LINE
  8
0
 62
7
 10
-188.1153226004384
 20
3.618357185966983
 30
0
 11
-191.5573328605384
 21
3.618357185966983
 31
0
  0
LINE
  8
0
 62
7
 10
-188.1153226004384
 20
3.618357185966983
 30
0
 11
-188.1153226004384
 21
3.118357695566985
 31
0
  0
LINE
  8
0
 62
7
 10
-191.9291645626383
 20
3.618357185966983
 30
0
 11
-191.9291645626383
 21
3.118357695566985
 31
0
  0
LINE
  8
0
 62
7
 10
-191.5736448590384
 20
3.618357185966983
 30
0
 11
-191.5736448590384
 21
3.118357695566985
 31
0
  0
LINE
  8
0
 62
7
 10
-191.5736448590384
 20
3.618357185966983
 30
0
 11
-192.0307415875384
 21
3.618357185966983
 31
0
  0
LINE
  8
0
 62
7
 10
-192.0307415875384
 20
3.618357185966983
 30
0
 11
-192.0307415875384
 21
3.118357695566985
 31
0
  0
LINE
  8
0
 62
7
 10
-197.8131849191384
 20
-5.881642848333016
 30
0
 11
-186.3131851296384
 21
-5.881642848333016
 31
0
  0
LINE
  8
0
 62
7
 10
-196.8131852208385
 20
-6.881642080933005
 30
0
 11
-196.8131852208385
 21
-5.881642848333016
 31
0
  0
LINE
  8
0
 62
7
 10
-187.3131850606384
 20
-6.881642080933005
 30
0
 11
-196.8131852208385
 21
-6.881642080933005
 31
0
  0
LINE
  8
0
 62
7
 10
-187.3131850606384
 20
-6.881642080933005
 30
0
 11
-187.3131850606384
 21
-5.881642848333016
 31
0
  0
LINE
  8
0
 62
7
 10
-190.3755769180384
 20
-6.881642080933005
 30
0
 11
-190.3755769180384
 21
-7.881642516732811
 31
0
  0
LINE
  8
0
 62
7
 10
-193.6171066354384
 20
-6.881642080933005
 30
0
 11
-193.6171066354384
 21
-7.881642516732811
 31
0
  0
LINE
  8
0
 62
7
 10
-186.4131851925382
 20
86.53745720825437
 30
0
 11
-186.4131851925382
 21
81.24525020565447
 31
0
  0
LINE
  8
0
 62
7
 10
-198.3131854667382
 20
103.0374567696544
 30
0
 11
-196.8131842895382
 21
103.0374567696544
 31
0
  0
LINE
  8
0
 62
7
 10
-198.8131846173382
 20
109.5374567873544
 30
0
 11
-198.8131846173382
 21
103.5374567933543
 31
0
  0
LINE
  8
0
 62
7
 10
-196.8131842895382
 20
110.0374568692544
 30
0
 11
-198.3131854667382
 21
110.0374568692544
 31
0
  0
LINE
  8
0
 62
7
 10
-196.3131851389382
 20
103.5374567933543
 30
0
 11
-196.3131851389382
 21
109.5374567873544
 31
0
  0
LINE
  8
0
 62
7
 10
-186.4131851925382
 20
127.4296633406544
 30
0
 11
-186.4131851925382
 21
125.5374561502544
 31
0
  0
LINE
  8
0
 62
7
 10
-186.4131851925382
 20
125.5374561502544
 30
0
 11
-187.4131844250383
 21
125.5374561503544
 31
0
  0
LINE
  8
1
 62
2
 10
-178.4431180182298
 20
119.7271944489739
 30
0
 11
-176.4128219140886
 21
121.757490553115
 31
0
  0
LINE
  8
1
 62
2
 10
-179.9643640465358
 20
119.4433511968823
 30
0
 11
-176.1724179016678
 21
123.2352973417502
 31
0
  0
LINE
  8
1
 62
2
 10
-180.5828885136127
 20
120.0618756639501
 30
0
 11
-176.7909423687447
 21
123.853821808818
 31
0
  0
LINE
  8
1
 62
2
 10
-180.3550978374867
 20
121.6766605995737
 30
0
 11
-178.3248017333457
 21
123.7069567037147
 31
0
  0
LINE
  8
1
 62
2
 10
-163.6249018099998
 20
87.51900550050547
 30
0
 11
-161.5946057058586
 21
89.54930160464656
 31
0
  0
LINE
  8
1
 62
2
 10
-165.1461478383058
 20
87.23516224841384
 30
0
 11
-161.3542016934377
 21
91.02710839328174
 31
0
  0
LINE
  8
1
 62
2
 10
-165.7646723053827
 20
87.85368671548164
 30
0
 11
-161.9727261605146
 21
91.64563286034954
 31
0
  0
LINE
  8
1
 62
2
 10
-165.5368816292566
 20
89.46847165110526
 30
0
 11
-163.5065855251157
 21
91.49876775524623
 31
0
  0
LINE
  8
1
 62
7
 10
-119.4131847604384
 20
-16.88164251673284
 30
0
 11
-218.9131847604384
 21
-16.88164251673284
 31
0
  0
LINE
  8
1
 62
7
 10
-125.9131847604384
 20
-33.88164251673284
 30
0
 11
-218.9131847604384
 21
-33.88164251673284
 31
0
  0
LINE
  8
1
 62
7
 10
-129.9131847604384
 20
-7.881642516732811
 30
0
 11
-214.9131847604384
 21
-7.881642516732811
 31
0
  0
LINE
  8
1
 62
7
 10
-129.9131847604384
 20
-7.881642516732811
 30
0
 11
-129.9131847604384
 21
-9.381642516732811
 31
0
  0
LINE
  8
1
 62
7
 10
-214.9131847604384
 20
-7.881642516732811
 30
0
 11
-214.9131847604384
 21
-9.381642516732811
 31
0
  0
LINE
  8
1
 62
7
 10
-125.9131847604384
 20
-33.88164251673284
 30
0
 11
-125.9131847604384
 21
-16.88164251673284
 31
0
  0
LINE
  8
1
 62
7
 10
-127.4131847604384
 20
-9.381642516732811
 30
0
 11
-127.4131847604384
 21
-15.88164251673284
 31
0
  0
LINE
  8
1
 62
7
 10
-125.9131847604384
 20
-32.88164251673284
 30
0
 11
-119.4131847604384
 21
-32.88164251673284
 31
0
  0
LINE
  8
1
 62
7
 10
-118.4131847604384
 20
-17.88164251673284
 30
0
 11
-118.4131847604384
 21
-31.88164251673284
 31
0
  0
LINE
  8
1
 62
7
 10
-127.4131847604384
 20
-9.381642516732811
 30
0
 11
-217.4131847604384
 21
-9.381642516732811
 31
0
  0
LINE
  8
1
 62
7
 10
-217.4131847604384
 20
-9.381642516732811
 30
0
 11
-217.4131847604384
 21
-15.38164251673281
 31
0
  0
LINE
  8
1
 62
7
 10
-217.4131847604384
 20
-10.38164251673281
 30
0
 11
-224.9131847604384
 21
-10.38164251673281
 31
0
  0
LINE
  8
1
 62
7
 10
-218.9131847604384
 20
-32.88164251673284
 30
0
 11
-225.4131847604384
 21
-32.88164251673284
 31
0
  0
LINE
  8
1
 62
7
 10
-218.9131847604384
 20
-16.88164251673284
 30
0
 11
-218.9131847604384
 21
-33.88164251673284
 31
0
  0
LINE
  8
1
 62
7
 10
-226.4131847604384
 20
-11.88164251673281
 30
0
 11
-226.4131847604384
 21
-31.88164251673284
 31
0
  0
LINE
  8
1
 62
7
 10
-176.4131847604382
 20
-17.88164251673281
 30
0
 11
-176.4131847604382
 21
-31.88164251673281
 31
0
  0
LINE
  8
1
 62
7
 10
-168.4131847604382
 20
-31.88164251673281
 30
0
 11
-168.4131847604382
 21
-17.88164251673281
 31
0
  0
LINE
  8
1
 62
7
 10
-175.4131847604382
 20
-32.88164251673281
 30
0
 11
-169.4131847604382
 21
-32.88164251673281
 31
0
  0
LINE
  8
1
 62
2
  6
DASHDOT
 10
-172.4131847604382
 20
163.5271205963281
 30
0
 11
-172.4131847604382
 21
42.89920755285021
 31
0
  0
LINE
  8
1
 62
2
  6
DASHDOT
 10
-63.07564812639691
 20
104.3374567731544
 30
0
 11
-304.2123872568317
 21
104.3374567731544
 31
0
  0
LINE
  8
1
 62
7
 10
-224.9131847604382
 20
108.3374567731544
 30
0
 11
-218.5867702828989
 21
108.3374567731544
 31
0
  0
LINE
  8
1
 62
7
 10
-226.4131847604382
 20
101.8374567731544
 30
0
 11
-226.4131847604382
 21
106.8374567731544
 31
0
  0
LINE
  8
1
 62
7
 10
-218.5867702828989
 20
100.3374567731544
 30
0
 11
-224.9131847604382
 21
100.3374567731544
 31
0
  0
LINE
  8
1
 62
7
 10
-174.9131847604382
 20
158.3374567731544
 30
0
 11
-169.9131847604382
 21
158.3374567731544
 31
0
  0
LINE
  8
1
 62
7
 10
-176.4131847604382
 20
156.8374567731544
 30
0
 11
-176.4131847604382
 21
152.0213114831083
 31
0
  0
LINE
  8
1
 62
7
 10
-168.4131847604382
 20
156.8374567731544
 30
0
 11
-168.4131847604382
 21
152.0213114831083
 31
0
  0
LINE
  8
1
 62
7
 10
-124.7293300504844
 20
108.3374567731544
 30
0
 11
-119.9131847604382
 21
108.3374567731544
 31
0
  0
LINE
  8
1
 62
7
 10
-118.4131847604382
 20
106.8374567731544
 30
0
 11
-118.4131847604382
 21
101.8374567731544
 31
0
  0
LINE
  8
1
 62
7
 10
-169.9131847604382
 20
50.3374567731544
 30
0
 11
-174.9131847604382
 21
50.3374567731544
 31
0
  0
LINE
  8
1
 62
7
 10
-176.4131847604382
 20
56.6536020632004
 30
0
 11
-176.4131847604382
 21
51.8374567731544
 31
0
  0
LINE
  8
1
 62
7
 10
-168.4131847604382
 20
56.6536020632004
 30
0
 11
-168.4131847604382
 21
51.8374567731544
 31
0
  0
LINE
  8
1
 62
7
 10
-119.9131847604382
 20
100.3374567731544
 30
0
 11
-124.7293300504844
 21
100.3374567731544
 31
0
  0
LINE
  8
1
 62
7
 10
-231.4852627353864
 20
75.94312536085229
 30
0
 11
-267.7387788487868
 21
81.6137556771218
 31
0
  0
LINE
  8
1
 62
7
 10
-221.6053926936331
 20
74.39775551577799
 30
0
 11
-221.7290222812392
 21
73.6073659124377
 31
0
  0
LINE
  8
1
 62
7
 10
-225.6809702979405
 20
74.22551385046739
 30
0
 11
-221.7290222812392
 21
73.6073659124377
 31
0
  0
LINE
  8
1
 62
7
 10
-225.5573407103344
 20
75.0159034538078
 30
0
 11
-225.6809702979405
 21
74.22551385046739
 31
0
  0
LINE
  8
1
 62
2
 10
-68.27921016422278
 20
79.63745677315441
 30
0
 11
-68.27921016422278
 21
129.0374567731544
 31
0
  0
LINE
  8
1
 62
7
 10
-67.41318476043841
 20
127.5374567731544
 30
0
 11
-68.27921016422278
 21
129.0374567731544
 31
0
  0
LINE
  8
1
 62
7
 10
-67.41318476043841
 20
81.1374567731544
 30
0
 11
-67.41318476043841
 21
127.5374567731544
 31
0
  0
LINE
  8
1
 62
7
 10
-84.41318476043841
 20
79.63745677315441
 30
0
 11
-84.41318476043841
 21
129.0374567731544
 31
0
  0
LINE
  8
1
 62
7
 10
-68.27921016422278
 20
129.0374567731544
 30
0
 11
-84.41318476043841
 21
129.0374567731544
 31
0
  0
LINE
  8
1
 62
7
 10
-68.27921016422278
 20
79.63745677315441
 30
0
 11
-84.41318476043841
 21
79.63745677315441
 31
0
  0
LINE
  8
1
 62
7
 10
-68.27921016422278
 20
79.63745677315441
 30
0
 11
-67.41318476043841
 21
81.1374567731544
 31
0
  0
LINE
  8
1
 62
2
 10
-67.41318476043841
 20
127.5374567731544
 30
0
 11
-84.41318476043841
 21
127.5374567731544
 31
0
  0
LINE
  8
1
 62
2
 10
-67.41318476043841
 20
81.1374567731544
 30
0
 11
-84.41318476043841
 21
81.1374567731544
 31
0
  0
LINE
  8
1
 62
2
 10
-296.547159356654
 20
129.0374567731544
 30
0
 11
-296.547159356654
 21
79.63745677315441
 31
0
  0
LINE
  8
1
 62
7
 10
-296.547159356654
 20
129.0374567731544
 30
0
 11
-297.4131847604384
 21
127.5374567731544
 31
0
  0
LINE
  8
1
 62
7
 10
-297.4131847604384
 20
127.5374567731544
 30
0
 11
-297.4131847604384
 21
81.1374567731544
 31
0
  0
LINE
  8
1
 62
7
 10
-280.4131847604384
 20
129.0374567731544
 30
0
 11
-280.4131847604384
 21
79.63745677315441
 31
0
  0
LINE
  8
1
 62
7
 10
-280.4131847604384
 20
129.0374567731544
 30
0
 11
-296.547159356654
 21
129.0374567731544
 31
0
  0
LINE
  8
1
 62
7
 10
-280.4131847604384
 20
79.63745677315441
 30
0
 11
-296.547159356654
 21
79.63745677315441
 31
0
  0
LINE
  8
1
 62
7
 10
-297.4131847604384
 20
81.1374567731544
 30
0
 11
-296.547159356654
 21
79.63745677315441
 31
0
  0
LINE
  8
1
 62
2
 10
-280.4131847604384
 20
127.5374567731544
 30
0
 11
-297.4131847604384
 21
127.5374567731544
 31
0
  0
LINE
  8
1
 62
2
 10
-280.4131847604384
 20
81.1374567731544
 30
0
 11
-297.4131847604384
 21
81.1374567731544
 31
0
  0
LINE
  8
1
 62
7
 10
-267.7387788487868
 20
127.0611578691869
 30
0
 11
-206.0836575692622
 21
136.705005897261
 31
0
  0
LINE
  8
1
 62
7
 10
-237.4131847604384
 20
76.87034726789679
 30
0
 11
-237.5368143480445
 21
76.07995766455679
 31
0
  0
LINE
  8
1
 62
7
 10
-233.4612367437371
 20
76.25219932986701
 30
0
 11
-233.5848663313431
 21
75.46180972652661
 31
0
  0
LINE
  8
1
 62
7
 10
-231.4852627353864
 20
75.94312536085229
 30
0
 11
-231.6088923229925
 21
75.15273575751189
 31
0
  0
LINE
  8
1
 62
7
 10
-227.5333147186851
 20
75.32497742282251
 30
0
 11
-227.6569443062912
 21
74.5345878194822
 31
0
  0
LINE
  8
1
 62
7
 10
-231.6088923229925
 20
75.15273575751189
 30
0
 11
-227.6569443062912
 21
74.5345878194822
 31
0
  0
LINE
  8
1
 62
7
 10
-237.5368143480445
 20
76.07995766455679
 30
0
 11
-233.5848663313431
 21
75.46180972652661
 31
0
  0
LINE
  8
1
 62
7
 10
-138.5931666516163
 20
72.42419346275401
 30
0
 11
-89.45496432835878
 21
85.67944295570901
 31
0
  0
LINE
  8
1
 62
7
 10
-206.0836575692624
 20
71.9699076490478
 30
0
 11
-231.4852627353864
 21
75.94312536085229
 31
0
  0
LINE
  8
1
 62
7
 10
-139.1888035922384
 20
72.26351773833039
 30
0
 11
-138.5931666516163
 21
72.42419346275401
 31
0
  0
LINE
  8
1
 62
7
 10
-89.45496432835878
 20
122.9954705905998
 30
0
 11
-138.5931666516163
 21
136.2507200835547
 31
0
  0
LINE
  8
0
 62
7
 10
-196.3131851388382
 20
103.5374567351543
 30
0
 11
-196.3131851388382
 21
109.5374567873543
 31
0
  0
LINE
  8
0
 62
7
 10
-195.4131848050382
 20
85.01421394495432
 30
0
 11
-195.8918976469383
 21
85.53745704435431
 31
0
  0
LINE
  8
0
 62
7
 10
-196.4131849689383
 20
109.5374567873543
 30
0
 11
-196.3131851388382
 21
109.5374567873543
 31
0
  0
LINE
  8
0
 62
7
 10
-196.4131849689383
 20
103.5374567351543
 30
0
 11
-196.3131851388382
 21
103.5374567351543
 31
0
  0
LINE
  8
0
 62
7
 10
-198.4131852968382
 20
109.5374567873543
 30
0
 11
-196.9131841196382
 21
109.5374567873543
 31
0
  0
LINE
  8
0
 62
7
 10
-198.4131852968382
 20
103.5374567351543
 30
0
 11
-196.9131841196382
 21
103.5374567351543
 31
0
  0
LINE
  8
0
 62
7
 10
-198.4131852968382
 20
109.5374567873543
 30
0
 11
-198.4131852968382
 21
103.5374567351543
 31
0
  0
LINE
  8
0
 62
7
 10
-196.9131841196382
 20
109.5374567873543
 30
0
 11
-196.4131849689383
 21
109.5374567873543
 31
0
  0
LINE
  8
0
 62
7
 10
-196.9131841196382
 20
103.5374567351543
 30
0
 11
-196.4131849689383
 21
103.5374567351543
 31
0
  0
LINE
  8
0
 62
7
 10
-196.4131849689383
 20
109.5374567873543
 30
0
 11
-196.4131849689383
 21
103.5374567351543
 31
0
  0
LINE
  8
0
 62
7
 10
-196.9131841196382
 20
109.5374567873543
 30
0
 11
-196.9131841196382
 21
103.5374567351543
 31
0
  0
LINE
  8
0
 62
7
 10
-187.4131844250383
 20
125.5374561503544
 30
0
 11
-190.4755770100383
 21
125.5374561503543
 31
0
  0
LINE
  8
0
 62
7
 10
-196.9131841196382
 20
85.53745704435431
 30
0
 11
-187.4131844250383
 21
85.53745704435431
 31
0
  0
LINE
  8
0
 62
7
 10
-186.4131851925382
 20
86.53745720825437
 30
0
 11
-186.4131851925383
 21
124.5374559864543
 31
0
  0
LINE
  8
0
 62
7
 10
-193.9131854905382
 20
121.7032076298543
 30
0
 11
-193.9131854905382
 21
103.4656599137543
 31
0
  0
LINE
  8
0
 62
7
 10
-193.9131854905382
 20
103.4656599137543
 30
0
 11
-197.9131842835382
 21
96.5374569847543
 31
0
  0
LINE
  8
0
 62
7
 10
-197.9131842835382
 20
96.5374569847543
 30
0
 11
-197.9131842835382
 21
86.5374572082543
 31
0
  0
LINE
  8
0
 62
2
 10
-188.2153223140383
 20
113.7297424926543
 30
0
 11
-188.2153223140383
 21
113.1152642398543
 31
0
  0
LINE
  8
0
 62
2
 10
-191.0288887901382
 20
113.7297424926543
 30
0
 11
-188.2153223140383
 21
113.7297424926543
 31
0
  0
LINE
  8
0
 62
2
 10
-191.6573322250382
 20
110.9301416642543
 30
0
 11
-191.2299911363382
 21
110.9301416642543
 31
0
  0
LINE
  8
0
 62
2
 10
-191.6573322250382
 20
110.3156631786543
 30
0
 11
-191.6573322250382
 21
110.9301416642543
 31
0
  0
LINE
  8
0
 62
2
 10
-188.2153223140383
 20
110.3156631786543
 30
0
 11
-191.6573322250382
 21
110.3156631786543
 31
0
  0
LINE
  8
0
 62
2
 10
-188.2153223140383
 20
110.9301416642543
 30
0
 11
-188.2153223140383
 21
110.3156631786543
 31
0
  0
LINE
  8
0
 62
2
 10
-190.5009965284383
 20
110.9301416642543
 30
0
 11
-188.2153223140383
 21
110.9301416642543
 31
0
  0
LINE
  8
0
 62
2
 10
-188.2153223140383
 20
111.7010327495544
 30
0
 11
-190.8277864439383
 21
111.7010327495544
 31
0
  0
LINE
  8
0
 62
2
 10
-188.2153223140383
 20
112.3155110023543
 30
0
 11
-188.2153223140383
 21
111.7010327495544
 31
0
  0
LINE
  8
0
 62
2
 10
-190.5009965284383
 20
112.3155110023543
 30
0
 11
-188.2153223140383
 21
112.3155110023543
 31
0
  0
LINE
  8
0
 62
2
 10
-188.2153223140383
 20
113.1152642398543
 30
0
 11
-190.8026481850383
 21
113.1152642398543
 31
0
  0
LINE
  8
0
 62
2
 10
-190.9710704220383
 20
113.9058970354543
 30
0
 11
-190.9710704220383
 21
114.1582719489543
 31
0
  0
LINE
  8
0
 62
2
 10
-191.6736452712382
 20
114.1911904766543
 30
0
 11
-191.6736452712382
 21
113.9497879400542
 31
0
  0
LINE
  8
0
 62
2
 10
-191.2588714493382
 20
114.3887016430543
 30
0
 11
-191.4027719630383
 21
114.3887016430543
 31
0
  0
LINE
  8
0
 62
7
 10
-190.4131839855383
 20
45.2374584480543
 30
0
 11
-190.4131839855383
 21
85.53745704435431
 31
0
  0
LINE
  8
0
 62
7
 10
-195.4131848050382
 20
85.53745704435431
 30
0
 11
-195.4131848050382
 21
45.2374584480543
 31
0
  0
LINE
  8
1
 62
7
 10
-172.4131847604383
 20
-78.12695874380383
 30
0
 11
-172.4131847604383
 21
-75.12695874380383
 31
0
  0
LINE
  8
1
 62
7
 10
-174.0331847604383
 20
-75.12695874380383
 30
0
 11
-174.0331847604383
 21
-78.12695874380383
 31
0
  0
LINE
  8
1
 62
7
 10
-172.4144172055698
 20
-75.02164736140925
 30
0
 11
-172.4144172055698
 21
-78.12695874380383
 31
0
  0
LINE
  8
1
 62
7
 10
-179.7931847604384
 20
-75.12695874380383
 30
0
 11
-179.7931847604384
 21
-78.12695874380383
 31
0
  0
LINE
  8
1
 62
7
 10
-181.4131847604383
 20
-75.12695874380383
 30
0
 11
-181.4131847604383
 21
-78.12695874380383
 31
0
  0
LINE
  8
1
 62
7
 10
-189.758483627984
 20
-75.42695874380355
 30
0
 11
-189.758483627984
 21
-76.62695874380383
 31
0
  0
LINE
  8
1
 62
7
 10
-185.5972570712109
 20
-72.42695874380355
 30
0
 11
-189.758483627984
 21
-75.42695874380355
 31
0
  0
LINE
  8
1
 62
7
 10
-192.3316061869118
 20
-72.42695874380355
 30
0
 11
-192.3316061869117
 21
-70.62695874380383
 31
0
  0
LINE
  8
1
 62
7
 10
-192.3316061869118
 20
-72.42695874380355
 30
0
 11
-185.5972570712109
 21
-72.42695874380355
 31
0
  0
LINE
  8
1
 62
7
 10
-192.3316061869117
 20
-70.62695874380383
 30
0
 11
-183.3316061869118
 21
-70.62695874380383
 31
0
  0
LINE
  8
1
 62
7
 10
-189.758483627984
 20
-76.62695874380383
 30
0
 11
-187.2316061869118
 21
-76.62695874380383
 31
0
  0
LINE
  8
1
 62
7
 10
-187.2316061869118
 20
-80.82695874380364
 30
0
 11
-188.4316061869117
 21
-80.82695874380364
 31
0
  0
LINE
  8
1
 62
1
 10
-188.4316061869117
 20
-82.6269587438036
 30
0
 11
-188.6840458240154
 21
-82.6269587438036
 31
0
  0
LINE
  8
1
 62
7
 10
-188.4316061869117
 20
-82.6269587438036
 30
0
 11
-187.2316061869118
 21
-82.6269587438036
 31
0
  0
LINE
  8
1
 62
7
 10
-186.8255042770179
 20
-74.84815980098905
 30
0
 11
-183.3316061869118
 21
-72.32926443989449
 31
0
  0
LINE
  8
1
 62
7
 10
-183.3316061869118
 20
-70.62695874380383
 30
0
 11
-183.3316061869118
 21
-72.32926443989449
 31
0
  0
LINE
  8
1
 62
7
 10
-190.4859526318301
 20
-79.16245924236922
 30
0
 11
-192.0654483578208
 21
-80.1430064396542
 31
0
  0
LINE
  8
1
 62
1
  6
CENTER
 10
-168.4131847604383
 20
-81.03014932154669
 30
0
 11
-168.4131847604383
 21
-82.63164254283278
 31
0
  0
LINE
  8
1
 62
7
 10
-162.4131847604378
 20
-56.63164254283276
 30
0
 11
-152.4131847604382
 21
-60.63164254283276
 31
0
  0
LINE
  8
1
 62
7
 10
-162.4131847604382
 20
-59.13164254283276
 30
0
 11
-162.4131847604378
 21
-56.63164254283276
 31
0
  0
LINE
  8
1
 62
7
 10
-192.4131847604384
 20
-59.13164254283276
 30
0
 11
-162.4131847604382
 21
-59.13164254283276
 31
0
  0
LINE
  8
1
 62
7
 10
-172.4131847604382
 20
-56.63164254283276
 30
0
 11
-170.4131847604382
 21
-59.13164254283276
 31
0
  0
LINE
  8
1
 62
7
 10
-192.4131847604382
 20
-56.63164254283276
 30
0
 11
-172.4131847604382
 21
-56.63164254283276
 31
0
  0
LINE
  8
1
 62
7
 10
-190.413184760438
 20
-59.13164254283276
 30
0
 11
-192.4131847604382
 21
-56.63164254283276
 31
0
  0
LINE
  8
1
 62
7
 10
-162.4131847604382
 20
-64.63164254283275
 30
0
 11
-152.4131847604382
 21
-60.63164254283276
 31
0
  0
LINE
  8
1
 62
7
 10
-192.4131847604382
 20
-62.13164254283276
 30
0
 11
-162.413184760438
 21
-62.13164254283276
 31
0
  0
LINE
  8
1
 62
7
 10
-162.4131847604382
 20
-64.63164254283275
 30
0
 11
-162.413184760438
 21
-62.13164254283276
 31
0
  0
LINE
  8
1
 62
7
 10
-172.4131847604382
 20
-64.63164254283275
 30
0
 11
-170.4131847604382
 21
-62.13164254283276
 31
0
  0
LINE
  8
1
 62
7
 10
-192.4131847604382
 20
-64.63164254283275
 30
0
 11
-172.4131847604382
 21
-64.63164254283275
 31
0
  0
LINE
  8
1
 62
7
 10
-190.413184760438
 20
-62.13164254283276
 30
0
 11
-192.4131847604382
 21
-64.63164254283275
 31
0
  0
LINE
  8
1
 62
7
 10
-192.4131847604382
 20
-62.13164254283276
 30
0
 11
-192.4131847604384
 21
-59.13164254283276
 31
0
  0
LINE
  8
1
 62
2
 10
-68.2792101642226
 20
-101.1316425428328
 30
0
 11
-68.2792101642226
 21
-51.73164254283283
 31
0
  0
LINE
  8
1
 62
7
 10
-68.2792101642226
 20
-101.1316425428328
 30
0
 11
-67.41318476043824
 21
-99.63164254283278
 31
0
  0
LINE
  8
1
 62
7
 10
-67.41318476043824
 20
-99.63164254283278
 30
0
 11
-67.41318476043824
 21
-53.2316425428328
 31
0
  0
LINE
  8
1
 62
7
 10
-84.41318476043824
 20
-101.1316425428328
 30
0
 11
-84.41318476043824
 21
-51.7316425428328
 31
0
  0
LINE
  8
1
 62
7
 10
-84.41318476043824
 20
-101.1316425428328
 30
0
 11
-68.2792101642226
 21
-101.1316425428328
 31
0
  0
LINE
  8
1
 62
7
 10
-84.41318476043824
 20
-51.7316425428328
 30
0
 11
-68.2792101642226
 21
-51.73164254283283
 31
0
  0
LINE
  8
1
 62
7
 10
-67.41318476043824
 20
-53.2316425428328
 30
0
 11
-68.2792101642226
 21
-51.73164254283283
 31
0
  0
LINE
  8
1
 62
2
 10
-84.41318476043824
 20
-99.63164254283278
 30
0
 11
-67.41318476043824
 21
-99.63164254283278
 31
0
  0
LINE
  8
1
 62
2
 10
-84.41318476043824
 20
-53.2316425428328
 30
0
 11
-67.41318476043824
 21
-53.2316425428328
 31
0
  0
LINE
  8
1
 62
2
 10
-296.5471593566538
 20
-51.73164254283283
 30
0
 11
-296.5471593566538
 21
-101.1316425428328
 31
0
  0
LINE
  8
1
 62
7
 10
-297.4131847604382
 20
-99.63164254283278
 30
0
 11
-296.5471593566538
 21
-101.1316425428328
 31
0
  0
LINE
  8
1
 62
7
 10
-297.4131847604382
 20
-53.2316425428328
 30
0
 11
-297.4131847604382
 21
-99.63164254283278
 31
0
  0
LINE
  8
1
 62
7
 10
-264.1844282051152
 20
-53.4316425428328
 30
0
 11
-221.3964179630783
 21
-53.43164254283279
 31
0
  0
LINE
  8
1
 62
7
 10
-296.5471593566538
 20
-101.1316425428328
 30
0
 11
-280.4131847604382
 21
-101.1316425428328
 31
0
  0
LINE
  8
1
 62
7
 10
-296.5471593566538
 20
-51.73164254283283
 30
0
 11
-280.4131847604382
 21
-51.7316425428328
 31
0
  0
LINE
  8
1
 62
7
 10
-296.5471593566538
 20
-51.73164254283283
 30
0
 11
-297.4131847604382
 21
-53.2316425428328
 31
0
  0
LINE
  8
1
 62
2
 10
-297.4131847604382
 20
-99.63164254283278
 30
0
 11
-280.4131847604382
 21
-99.63164254283278
 31
0
  0
LINE
  8
1
 62
2
 10
-297.4131847604382
 20
-53.2316425428328
 30
0
 11
-280.4131847604382
 21
-53.2316425428328
 31
0
  0
LINE
  8
1
 62
7
 10
-280.4131847604382
 20
-101.1316425428328
 30
0
 11
-280.4131847604382
 21
-51.7316425428328
 31
0
  0
LINE
  8
1
 62
7
 10
-127.4131847604382
 20
-95.36842808084585
 30
0
 11
-127.4131847604382
 21
-100.2887424999289
 31
0
  0
LINE
  8
1
 62
7
 10
-89.30959655412224
 20
-57.92835688593068
 30
0
 11
-125.4501073895306
 21
-49.61778645354547
 31
0
  0
LINE
  8
1
 62
7
 10
-129.9131847604382
 20
-33.88164254283278
 30
0
 11
-129.9131847604382
 21
-35.93164254283276
 31
0
  0
LINE
  8
1
 62
7
 10
-214.9131847604382
 20
-33.88164254283278
 30
0
 11
-214.9131847604382
 21
-35.93164254283276
 31
0
  0
LINE
  8
1
 62
7
 10
-214.9131847604382
 20
-43.66101541941374
 30
0
 11
-233.1478463166077
 21
-53.4316425428328
 31
0
  0
LINE
  8
1
 62
2
  6
CENTER
 10
-220.6923931867542
 20
-48.51501305547528
 30
0
 11
-220.6923931867542
 21
-51.2456320202975
 31
0
  0
LINE
  8
1
 62
2
  6
CENTER
 10
-222.1714784593671
 20
-49.82343464278588
 30
0
 11
-219.3270837043432
 21
-49.82343464278588
 31
0
  0
LINE
  8
1
 62
7
 10
-87.77160048293263
 20
-94.41275127562032
 30
0
 11
-125.0923926216854
 21
-88.34812255307288
 31
0
  0
LINE
  8
1
 62
7
 10
-127.4131847604382
 20
-90.32222802232077
 30
0
 11
-127.4131847604382
 21
-95.36842808084585
 31
0
  0
LINE
  8
1
 62
7
 10
-207.4131847604382
 20
-116.4316425428328
 30
0
 11
-210.5264934624356
 21
-113.3639128940286
 31
0
  0
LINE
  8
1
 62
7
 10
-170.9131847604382
 20
-115.9733244786921
 30
0
 11
-170.9131847604382
 21
-116.4316425428328
 31
0
  0
LINE
  8
1
 62
7
 10
-207.4131847604382
 20
-116.4316425428328
 30
0
 11
-137.4131847604382
 21
-116.4316425428328
 31
0
  0
LINE
  8
1
 62
7
 10
-173.9131847604382
 20
-115.9733244786921
 30
0
 11
-173.9131847604382
 21
-116.4316425428328
 31
0
  0
LINE
  8
1
 62
2
 10
-130.9131847604382
 20
-33.88164254283278
 30
0
 11
-130.9131847604382
 21
-37.14097881011266
 31
0
  0
LINE
  8
1
 62
2
 10
-213.9131847604382
 20
-33.88164254283278
 30
0
 11
-213.9131847604382
 21
-37.14153553621118
 31
0
  0
LINE
  8
1
 62
2
 10
-136.4948684358893
 20
-40.63689992213769
 30
0
 11
-208.3315010849871
 21
-40.63689992213769
 31
0
  0
LINE
  8
1
 62
2
 10
-237.457372284067
 20
-73.0565000669352
 30
0
 11
-237.457372284067
 21
-80.12920479283321
 31
0
  0
LINE
  8
1
 62
2
 10
-237.457372284067
 20
-80.12920479283321
 30
0
 11
-227.274158673481
 21
-80.12920479283321
 31
0
  0
LINE
  8
1
 62
2
 10
-227.274158673481
 20
-80.12920479283321
 30
0
 11
-227.274158673481
 21
-73.0565000669352
 31
0
  0
LINE
  8
1
 62
2
 10
-227.274158673481
 20
-73.0565000669352
 30
0
 11
-237.457372284067
 21
-73.0565000669352
 31
0
  0
LINE
  8
1
 62
2
 10
-297.1523743038396
 20
-31.30359833050707
 30
0
 11
-293.8190409705063
 21
-31.30359833050707
 31
0
  0
LINE
  8
1
 62
2
 10
-295.4190409705063
 20
-31.30359833050707
 30
0
 11
-295.4190409705063
 21
-28.45359833050707
 31
0
  0
LINE
  8
1
 62
2
 10
-296.3523743038396
 20
-28.45359833050707
 30
0
 11
-294.4857076371729
 21
-28.45359833050707
 31
0
  0
LINE
  8
1
 62
2
 10
-294.085707637173
 20
-29.35359833050707
 30
0
 11
-296.7523743038396
 21
-29.35359833050707
 31
0
  0
LINE
  8
1
 62
2
 10
-296.3523743038396
 20
-29.95359833050707
 30
0
 11
-296.085707637173
 21
-30.70359833050707
 31
0
  0
LINE
  8
1
 62
2
 10
-294.7523743038396
 20
-30.70359833050707
 30
0
 11
-294.4857076371729
 21
-29.95359833050707
 31
0
  0
LINE
  8
1
 62
2
 10
-297.5523743038396
 20
-29.05359833050707
 30
0
 11
-297.0190409705062
 21
-28.60359833050707
 31
0
  0
LINE
  8
1
 62
2
 10
-297.0190409705062
 20
-28.60359833050707
 30
0
 11
-296.085707637173
 21
-27.55359833050707
 31
0
  0
LINE
  8
1
 62
2
 10
-296.085707637173
 20
-27.55359833050707
 30
0
 11
-295.4190409705063
 21
-26.65359833050707
 31
0
  0
LINE
  8
1
 62
2
 10
-295.4190409705063
 20
-26.65359833050707
 30
0
 11
-294.7523743038396
 21
-27.55359833050707
 31
0
  0
LINE
  8
1
 62
2
 10
-294.7523743038396
 20
-27.55359833050707
 30
0
 11
-293.8190409705063
 21
-28.60359833050707
 31
0
  0
LINE
  8
1
 62
2
 10
-293.8190409705063
 20
-28.60359833050707
 30
0
 11
-293.285707637173
 21
-29.05359833050707
 31
0
  0
LINE
  8
1
 62
2
 10
-292.3523743038396
 20
-31.30359833050707
 30
0
 11
-292.3523743038396
 21
-26.95359833050707
 31
0
  0
LINE
  8
1
 62
2
 10
-292.3523743038396
 20
-26.95359833050707
 30
0
 11
-291.0190409705062
 21
-26.95359833050707
 31
0
  0
LINE
  8
1
 62
2
 10
-291.0190409705062
 20
-26.95359833050707
 30
0
 11
-291.0190409705062
 21
-28.45359833050707
 31
0
  0
LINE
  8
1
 62
2
 10
-291.0190409705062
 20
-28.45359833050707
 30
0
 11
-292.3523743038396
 21
-28.45359833050707
 31
0
  0
LINE
  8
1
 62
2
 10
-291.0190409705062
 20
-27.70359833050707
 30
0
 11
-292.3523743038396
 21
-27.70359833050707
 31
0
  0
LINE
  8
1
 62
2
 10
-289.4190409705063
 20
-31.30359833050707
 30
0
 11
-289.0190409705062
 21
-31.30359833050707
 31
0
  0
LINE
  8
1
 62
2
 10
-289.0190409705062
 20
-31.30359833050707
 30
0
 11
-288.8857076371729
 21
-31.15359833050707
 31
0
  0
LINE
  8
1
 62
2
 10
-288.8857076371729
 20
-31.15359833050707
 30
0
 11
-288.8857076371729
 21
-26.95359833050707
 31
0
  0
LINE
  8
1
 62
2
 10
-288.8857076371729
 20
-26.95359833050707
 30
0
 11
-290.2190409705062
 21
-26.95359833050707
 31
0
  0
LINE
  8
1
 62
2
 10
-290.2190409705062
 20
-26.95359833050707
 30
0
 11
-290.2190409705062
 21
-28.45359833050707
 31
0
  0
LINE
  8
1
 62
2
 10
-290.2190409705062
 20
-28.45359833050707
 30
0
 11
-288.8857076371729
 21
-28.45359833050707
 31
0
  0
LINE
  8
1
 62
2
 10
-290.2190409705062
 20
-27.70359833050707
 30
0
 11
-288.8857076371729
 21
-27.70359833050707
 31
0
  0
LINE
  8
1
 62
2
 10
-285.7923743038396
 20
-26.65359833050707
 30
0
 11
-287.9523743038396
 21
-30.49359833050707
 31
0
  0
LINE
  8
1
 62
2
 10
-287.9523743038396
 20
-30.49359833050707
 30
0
 11
-285.0723743038396
 21
-30.49359833050707
 31
0
  0
LINE
  8
1
 62
2
 10
-285.7923743038396
 20
-29.53359833050707
 30
0
 11
-285.7923743038396
 21
-31.45359833050707
 31
0
  0
LINE
  8
1
 62
2
 10
-280.7523743038396
 20
-28.57359833050707
 30
0
 11
-280.8723743038396
 21
-29.05359833050707
 31
0
  0
LINE
  8
1
 62
2
 10
-280.8723743038396
 20
-29.05359833050707
 30
0
 11
-281.1123743038396
 21
-29.41359833050707
 31
0
  0
LINE
  8
1
 62
2
 10
-281.1123743038396
 20
-29.41359833050707
 30
0
 11
-281.4723743038396
 21
-29.65359833050707
 31
0
  0
LINE
  8
1
 62
2
 10
-281.4723743038396
 20
-29.65359833050707
 30
0
 11
-281.8323743038396
 21
-29.77359833050707
 31
0
  0
LINE
  8
1
 62
2
 10
-281.8323743038396
 20
-29.77359833050707
 30
0
 11
-282.5523743038396
 21
-29.77359833050707
 31
0
  0
LINE
  8
1
 62
2
 10
-282.5523743038396
 20
-29.77359833050707
 30
0
 11
-282.9123743038396
 21
-29.65359833050707
 31
0
  0
LINE
  8
1
 62
2
 10
-282.9123743038396
 20
-29.65359833050707
 30
0
 11
-283.2723743038396
 21
-29.41359833050707
 31
0
  0
LINE
  8
1
 62
2
 10
-283.2723743038396
 20
-29.41359833050707
 30
0
 11
-283.5123743038396
 21
-29.05359833050707
 31
0
  0
LINE
  8
1
 62
2
 10
-283.5123743038396
 20
-29.05359833050707
 30
0
 11
-283.6323743038396
 21
-28.57359833050707
 31
0
  0
LINE
  8
1
 62
2
 10
-283.6323743038396
 20
-28.57359833050707
 30
0
 11
-283.6323743038396
 21
-27.85359833050707
 31
0
  0
LINE
  8
1
 62
2
 10
-283.6323743038396
 20
-27.85359833050707
 30
0
 11
-283.5123743038396
 21
-27.37359833050707
 31
0
  0
LINE
  8
1
 62
2
 10
-283.5123743038396
 20
-27.37359833050707
 30
0
 11
-283.2723743038396
 21
-27.01359833050707
 31
0
  0
LINE
  8
1
 62
2
 10
-283.2723743038396
 20
-27.01359833050707
 30
0
 11
-282.9123743038396
 21
-26.77359833050707
 31
0
  0
LINE
  8
1
 62
2
 10
-282.9123743038396
 20
-26.77359833050707
 30
0
 11
-282.5523743038396
 21
-26.65359833050707
 31
0
  0
LINE
  8
1
 62
2
 10
-282.5523743038396
 20
-26.65359833050707
 30
0
 11
-281.8323743038396
 21
-26.65359833050707
 31
0
  0
LINE
  8
1
 62
2
 10
-281.8323743038396
 20
-26.65359833050707
 30
0
 11
-281.4723743038396
 21
-26.77359833050707
 31
0
  0
LINE
  8
1
 62
2
 10
-281.4723743038396
 20
-26.77359833050707
 30
0
 11
-281.1123743038396
 21
-27.01359833050707
 31
0
  0
LINE
  8
1
 62
2
 10
-281.1123743038396
 20
-27.01359833050707
 30
0
 11
-280.8723743038396
 21
-27.37359833050707
 31
0
  0
LINE
  8
1
 62
2
 10
-280.8723743038396
 20
-27.37359833050707
 30
0
 11
-280.7523743038396
 21
-27.85359833050707
 31
0
  0
LINE
  8
1
 62
2
 10
-280.7523743038396
 20
-27.85359833050707
 30
0
 11
-280.7523743038396
 21
-30.25359833050707
 31
0
  0
LINE
  8
1
 62
2
 10
-280.7523743038396
 20
-30.25359833050707
 30
0
 11
-280.8723743038396
 21
-30.73359833050707
 31
0
  0
LINE
  8
1
 62
2
 10
-280.8723743038396
 20
-30.73359833050707
 30
0
 11
-281.1123743038396
 21
-31.09359833050707
 31
0
  0
LINE
  8
1
 62
2
 10
-281.1123743038396
 20
-31.09359833050707
 30
0
 11
-281.4723743038396
 21
-31.33359833050707
 31
0
  0
LINE
  8
1
 62
2
 10
-281.4723743038396
 20
-31.33359833050707
 30
0
 11
-281.8323743038396
 21
-31.45359833050707
 31
0
  0
LINE
  8
1
 62
2
 10
-281.8323743038396
 20
-31.45359833050707
 30
0
 11
-282.5523743038396
 21
-31.45359833050707
 31
0
  0
LINE
  8
1
 62
2
 10
-282.5523743038396
 20
-31.45359833050707
 30
0
 11
-282.9123743038396
 21
-31.33359833050707
 31
0
  0
LINE
  8
1
 62
2
 10
-282.9123743038396
 20
-31.33359833050707
 30
0
 11
-283.2723743038396
 21
-31.09359833050707
 31
0
  0
LINE
  8
1
 62
2
 10
-283.2723743038396
 20
-31.09359833050707
 30
0
 11
-283.5123743038396
 21
-30.73359833050707
 31
0
  0
LINE
  8
1
 62
2
 10
-279.3123743038396
 20
-31.45359833050707
 30
0
 11
-279.3123743038396
 21
-31.33359833050707
 31
0
  0
LINE
  8
1
 62
2
 10
-279.3123743038396
 20
-31.33359833050707
 30
0
 11
-279.1923743038396
 21
-31.33359833050707
 31
0
  0
LINE
  8
1
 62
2
 10
-279.1923743038396
 20
-31.33359833050707
 30
0
 11
-279.1923743038396
 21
-31.45359833050707
 31
0
  0
LINE
  8
1
 62
2
 10
-279.1923743038396
 20
-31.45359833050707
 30
0
 11
-279.3123743038396
 21
-31.45359833050707
 31
0
  0
LINE
  8
1
 62
2
 10
-277.6323743038396
 20
-27.85359833050707
 30
0
 11
-277.5123743038396
 21
-27.37359833050707
 31
0
  0
LINE
  8
1
 62
2
 10
-277.5123743038396
 20
-27.37359833050707
 30
0
 11
-277.2723743038396
 21
-27.01359833050707
 31
0
  0
LINE
  8
1
 62
2
 10
-277.2723743038396
 20
-27.01359833050707
 30
0
 11
-276.9123743038396
 21
-26.77359833050707
 31
0
  0
LINE
  8
1
 62
2
 10
-276.9123743038396
 20
-26.77359833050707
 30
0
 11
-276.5523743038396
 21
-26.65359833050707
 31
0
  0
LINE
  8
1
 62
2
 10
-276.5523743038396
 20
-26.65359833050707
 30
0
 11
-275.8323743038396
 21
-26.65359833050707
 31
0
  0
LINE
  8
1
 62
2
 10
-275.8323743038396
 20
-26.65359833050707
 30
0
 11
-275.4723743038396
 21
-26.77359833050707
 31
0
  0
LINE
  8
1
 62
2
 10
-275.4723743038396
 20
-26.77359833050707
 30
0
 11
-275.1123743038396
 21
-27.01359833050707
 31
0
  0
LINE
  8
1
 62
2
 10
-275.1123743038396
 20
-27.01359833050707
 30
0
 11
-274.8723743038396
 21
-27.37359833050707
 31
0
  0
LINE
  8
1
 62
2
 10
-274.8723743038396
 20
-27.37359833050707
 30
0
 11
-274.7523743038396
 21
-27.85359833050707
 31
0
  0
LINE
  8
1
 62
2
 10
-274.7523743038396
 20
-27.85359833050707
 30
0
 11
-274.7523743038396
 21
-30.25359833050707
 31
0
  0
LINE
  8
1
 62
2
 10
-274.7523743038396
 20
-30.25359833050707
 30
0
 11
-274.8723743038396
 21
-30.73359833050707
 31
0
  0
LINE
  8
1
 62
2
 10
-274.8723743038396
 20
-30.73359833050707
 30
0
 11
-275.1123743038396
 21
-31.09359833050707
 31
0
  0
LINE
  8
1
 62
2
 10
-275.1123743038396
 20
-31.09359833050707
 30
0
 11
-275.4723743038396
 21
-31.33359833050707
 31
0
  0
LINE
  8
1
 62
2
 10
-275.4723743038396
 20
-31.33359833050707
 30
0
 11
-275.8323743038396
 21
-31.45359833050707
 31
0
  0
LINE
  8
1
 62
2
 10
-275.8323743038396
 20
-31.45359833050707
 30
0
 11
-276.5523743038396
 21
-31.45359833050707
 31
0
  0
LINE
  8
1
 62
2
 10
-276.5523743038396
 20
-31.45359833050707
 30
0
 11
-276.9123743038396
 21
-31.33359833050707
 31
0
  0
LINE
  8
1
 62
2
 10
-276.9123743038396
 20
-31.33359833050707
 30
0
 11
-277.2723743038396
 21
-31.09359833050707
 31
0
  0
LINE
  8
1
 62
2
 10
-277.2723743038396
 20
-31.09359833050707
 30
0
 11
-277.5123743038396
 21
-30.73359833050707
 31
0
  0
LINE
  8
1
 62
2
 10
-277.5123743038396
 20
-30.73359833050707
 30
0
 11
-277.6323743038396
 21
-30.25359833050707
 31
0
  0
LINE
  8
1
 62
2
 10
-277.6323743038396
 20
-30.25359833050707
 30
0
 11
-277.6323743038396
 21
-27.85359833050707
 31
0
  0
LINE
  8
1
 62
2
 10
-269.0723743038396
 20
-28.00359833050707
 30
0
 11
-269.0723743038396
 21
-31.15359833050707
 31
0
  0
LINE
  8
1
 62
2
 10
-269.0723743038396
 20
-31.15359833050707
 30
0
 11
-265.6057076371729
 21
-31.15359833050707
 31
0
  0
LINE
  8
1
 62
2
 10
-265.6057076371729
 20
-31.15359833050707
 30
0
 11
-265.6057076371729
 21
-28.00359833050707
 31
0
  0
LINE
  8
1
 62
2
 10
-267.3390409705063
 20
-26.95359833050707
 30
0
 11
-267.3390409705063
 21
-31.15359833050707
 31
0
  0
LINE
  8
1
 62
2
 10
-264.6723743038396
 20
-28.09359833050707
 30
0
 11
-263.2323743038396
 21
-26.65359833050707
 31
0
  0
LINE
  8
1
 62
2
 10
-263.2323743038396
 20
-26.65359833050707
 30
0
 11
-263.2323743038396
 21
-31.45359833050707
 31
0
  0
LINE
  8
1
 62
2
 10
-261.7923743038396
 20
-28.09359833050707
 30
0
 11
-260.3523743038396
 21
-26.65359833050707
 31
0
  0
LINE
  8
1
 62
2
 10
-260.3523743038396
 20
-26.65359833050707
 30
0
 11
-260.3523743038396
 21
-31.45359833050707
 31
0
  0
LINE
  8
1
 62
2
 10
-297.5741574610651
 20
-22.60270710593778
 30
0
 11
-293.3074907943985
 21
-22.60270710593778
 31
0
  0
LINE
  8
1
 62
2
 10
-293.9741574610651
 20
-19.75270710593778
 30
0
 11
-295.5741574610651
 21
-19.75270710593778
 31
0
  0
LINE
  8
1
 62
2
 10
-295.5741574610651
 20
-17.95270710593778
 30
0
 11
-295.5741574610651
 21
-22.60270710593778
 31
0
  0
LINE
  8
1
 62
2
 10
-292.5074907943985
 20
-22.00270710593778
 30
0
 11
-291.9741574610651
 21
-21.40270710593778
 31
0
  0
LINE
  8
1
 62
2
 10
-291.9741574610651
 20
-21.40270710593778
 30
0
 11
-291.4408241277318
 21
-20.50270710593778
 31
0
  0
LINE
  8
1
 62
2
 10
-291.4408241277318
 20
-20.50270710593778
 30
0
 11
-291.1741574610651
 21
-19.60270710593778
 31
0
  0
LINE
  8
1
 62
2
 10
-291.1741574610651
 20
-19.60270710593778
 30
0
 11
-292.5074907943985
 21
-19.60270710593778
 31
0
  0
LINE
  8
1
 62
2
 10
-290.5074907943985
 20
-18.10270710593778
 30
0
 11
-290.5074907943985
 21
-22.75270710593778
 31
0
  0
LINE
  8
1
 62
2
 10
-290.5074907943985
 20
-22.75270710593778
 30
0
 11
-290.9074907943984
 21
-22.60270710593778
 31
0
  0
LINE
  8
1
 62
2
 10
-288.9074907943984
 20
-19.15270710593778
 30
0
 11
-289.8408241277318
 21
-19.90270710593778
 31
0
  0
LINE
  8
1
 62
2
 10
-290.1074907943984
 20
-19.30270710593778
 30
0
 11
-289.7074907943984
 21
-20.35270710593778
 31
0
  0
LINE
  8
1
 62
2
 10
-289.7074907943984
 20
-20.35270710593778
 30
0
 11
-289.1741574610651
 21
-21.25270710593778
 31
0
  0
LINE
  8
1
 62
2
 10
-289.1741574610651
 20
-21.25270710593778
 30
0
 11
-288.5074907943985
 21
-22.00270710593778
 31
0
  0
LINE
  8
1
 62
2
 10
-285.8141574610651
 20
-17.95270710593778
 30
0
 11
-287.9741574610651
 21
-21.79270710593778
 31
0
  0
LINE
  8
1
 62
2
 10
-287.9741574610651
 20
-21.79270710593778
 30
0
 11
-285.0941574610651
 21
-21.79270710593778
 31
0
  0
LINE
  8
1
 62
2
 10
-285.8141574610651
 20
-20.83270710593778
 30
0
 11
-285.8141574610651
 21
-22.75270710593778
 31
0
  0
LINE
  8
1
 62
2
 10
-283.6541574610651
 20
-18.43270710593778
 30
0
 11
-283.6541574610651
 21
-17.95270710593778
 31
0
  0
LINE
  8
1
 62
2
 10
-283.6541574610651
 20
-17.95270710593778
 30
0
 11
-280.7741574610651
 21
-17.95270710593778
 31
0
  0
LINE
  8
1
 62
2
 10
-280.7741574610651
 20
-17.95270710593778
 30
0
 11
-283.1741574610651
 21
-22.75270710593778
 31
0
  0
LINE
  8
1
 62
2
 10
-279.3341574610651
 20
-22.75270710593778
 30
0
 11
-279.3341574610651
 21
-22.63270710593778
 31
0
  0
LINE
  8
1
 62
2
 10
-279.3341574610651
 20
-22.63270710593778
 30
0
 11
-279.2141574610651
 21
-22.63270710593778
 31
0
  0
LINE
  8
1
 62
2
 10
-279.2141574610651
 20
-22.63270710593778
 30
0
 11
-279.2141574610651
 21
-22.75270710593778
 31
0
  0
LINE
  8
1
 62
2
 10
-279.2141574610651
 20
-22.75270710593778
 30
0
 11
-279.3341574610651
 21
-22.75270710593778
 31
0
  0
LINE
  8
1
 62
2
 10
-276.4541574610651
 20
-17.95270710593778
 30
0
 11
-275.9741574610651
 21
-17.95270710593778
 31
0
  0
LINE
  8
1
 62
2
 10
-275.9741574610651
 20
-17.95270710593778
 30
0
 11
-275.6141574610651
 21
-18.07270710593778
 31
0
  0
LINE
  8
1
 62
2
 10
-275.6141574610651
 20
-18.07270710593778
 30
0
 11
-275.3741574610651
 21
-18.31270710593778
 31
0
  0
LINE
  8
1
 62
2
 10
-275.3741574610651
 20
-18.31270710593778
 30
0
 11
-275.1341574610651
 21
-18.67270710593778
 31
0
  0
LINE
  8
1
 62
2
 10
-275.1341574610651
 20
-18.67270710593778
 30
0
 11
-275.1341574610651
 21
-19.15270710593778
 31
0
  0
LINE
  8
1
 62
2
 10
-275.1341574610651
 20
-19.15270710593778
 30
0
 11
-275.2541574610651
 21
-19.39270710593778
 31
0
  0
LINE
  8
1
 62
2
 10
-275.2541574610651
 20
-19.39270710593778
 30
0
 11
-275.6141574610651
 21
-19.75270710593778
 31
0
  0
LINE
  8
1
 62
2
 10
-275.6141574610651
 20
-19.75270710593778
 30
0
 11
-275.9741574610651
 21
-19.87270710593778
 31
0
  0
LINE
  8
1
 62
2
 10
-275.9741574610651
 20
-19.87270710593778
 30
0
 11
-276.4541574610651
 21
-19.87270710593778
 31
0
  0
LINE
  8
1
 62
2
 10
-276.4541574610651
 20
-19.87270710593778
 30
0
 11
-276.8141574610651
 21
-19.75270710593778
 31
0
  0
LINE
  8
1
 62
2
 10
-276.8141574610651
 20
-19.75270710593778
 30
0
 11
-277.1741574610651
 21
-19.39270710593778
 31
0
  0
LINE
  8
1
 62
2
 10
-277.1741574610651
 20
-19.39270710593778
 30
0
 11
-277.2941574610651
 21
-19.15270710593778
 31
0
  0
LINE
  8
1
 62
2
 10
-277.2941574610651
 20
-19.15270710593778
 30
0
 11
-277.2941574610651
 21
-18.67270710593778
 31
0
  0
LINE
  8
1
 62
2
 10
-277.2941574610651
 20
-18.67270710593778
 30
0
 11
-277.0541574610651
 21
-18.31270710593778
 31
0
  0
LINE
  8
1
 62
2
 10
-277.0541574610651
 20
-18.31270710593778
 30
0
 11
-276.8141574610651
 21
-18.07270710593778
 31
0
  0
LINE
  8
1
 62
2
 10
-276.8141574610651
 20
-18.07270710593778
 30
0
 11
-276.4541574610651
 21
-17.95270710593778
 31
0
  0
LINE
  8
1
 62
2
 10
-276.4541574610651
 20
-19.87270710593778
 30
0
 11
-277.0541574610651
 21
-20.11270710593778
 31
0
  0
LINE
  8
1
 62
2
 10
-277.0541574610651
 20
-20.11270710593778
 30
0
 11
-277.4141574610651
 21
-20.47270710593778
 31
0
  0
LINE
  8
1
 62
2
 10
-277.4141574610651
 20
-20.47270710593778
 30
0
 11
-277.6541574610651
 21
-20.95270710593778
 31
0
  0
LINE
  8
1
 62
2
 10
-277.6541574610651
 20
-20.95270710593778
 30
0
 11
-277.6541574610651
 21
-21.67270710593778
 31
0
  0
LINE
  8
1
 62
2
 10
-277.6541574610651
 20
-21.67270710593778
 30
0
 11
-277.4141574610651
 21
-22.15270710593778
 31
0
  0
LINE
  8
1
 62
2
 10
-277.4141574610651
 20
-22.15270710593778
 30
0
 11
-277.0541574610651
 21
-22.51270710593778
 31
0
  0
LINE
  8
1
 62
2
 10
-277.0541574610651
 20
-22.51270710593778
 30
0
 11
-276.5741574610651
 21
-22.75270710593778
 31
0
  0
LINE
  8
1
 62
2
 10
-276.5741574610651
 20
-22.75270710593778
 30
0
 11
-275.8541574610651
 21
-22.75270710593778
 31
0
  0
LINE
  8
1
 62
2
 10
-275.8541574610651
 20
-22.75270710593778
 30
0
 11
-275.3741574610651
 21
-22.51270710593778
 31
0
  0
LINE
  8
1
 62
2
 10
-275.3741574610651
 20
-22.51270710593778
 30
0
 11
-275.0141574610651
 21
-22.15270710593778
 31
0
  0
LINE
  8
1
 62
2
 10
-275.0141574610651
 20
-22.15270710593778
 30
0
 11
-274.7741574610651
 21
-21.67270710593778
 31
0
  0
LINE
  8
1
 62
2
 10
-274.7741574610651
 20
-21.67270710593778
 30
0
 11
-274.7741574610651
 21
-20.95270710593778
 31
0
  0
LINE
  8
1
 62
2
 10
-274.7741574610651
 20
-20.95270710593778
 30
0
 11
-275.0141574610651
 21
-20.47270710593778
 31
0
  0
LINE
  8
1
 62
2
 10
-275.0141574610651
 20
-20.47270710593778
 30
0
 11
-275.3741574610651
 21
-20.11270710593778
 31
0
  0
LINE
  8
1
 62
2
 10
-275.3741574610651
 20
-20.11270710593778
 30
0
 11
-275.9741574610651
 21
-19.87270710593778
 31
0
  0
LINE
  8
1
 62
2
 10
-272.8541574610651
 20
-19.15270710593778
 30
0
 11
-272.7341574610651
 21
-18.67270710593778
 31
0
  0
LINE
  8
1
 62
2
 10
-272.7341574610651
 20
-18.67270710593778
 30
0
 11
-272.4941574610651
 21
-18.31270710593778
 31
0
  0
LINE
  8
1
 62
2
 10
-272.4941574610651
 20
-18.31270710593778
 30
0
 11
-272.1341574610651
 21
-18.07270710593778
 31
0
  0
LINE
  8
1
 62
2
 10
-272.1341574610651
 20
-18.07270710593778
 30
0
 11
-271.7741574610652
 21
-17.95270710593778
 31
0
  0
LINE
  8
1
 62
2
 10
-271.7741574610652
 20
-17.95270710593778
 30
0
 11
-271.0541574610651
 21
-17.95270710593778
 31
0
  0
LINE
  8
1
 62
2
 10
-271.0541574610651
 20
-17.95270710593778
 30
0
 11
-270.6941574610651
 21
-18.07270710593778
 31
0
  0
LINE
  8
1
 62
2
 10
-270.6941574610651
 20
-18.07270710593778
 30
0
 11
-270.3341574610652
 21
-18.31270710593778
 31
0
  0
LINE
  8
1
 62
2
 10
-270.3341574610652
 20
-18.31270710593778
 30
0
 11
-270.0941574610652
 21
-18.67270710593778
 31
0
  0
LINE
  8
1
 62
2
 10
-270.0941574610652
 20
-18.67270710593778
 30
0
 11
-269.9741574610652
 21
-19.15270710593778
 31
0
  0
LINE
  8
1
 62
2
 10
-269.9741574610652
 20
-19.15270710593778
 30
0
 11
-269.9741574610652
 21
-21.55270710593778
 31
0
  0
LINE
  8
1
 62
2
 10
-269.9741574610652
 20
-21.55270710593778
 30
0
 11
-270.0941574610652
 21
-22.03270710593778
 31
0
  0
LINE
  8
1
 62
2
 10
-270.0941574610652
 20
-22.03270710593778
 30
0
 11
-270.3341574610652
 21
-22.39270710593778
 31
0
  0
LINE
  8
1
 62
2
 10
-270.3341574610652
 20
-22.39270710593778
 30
0
 11
-270.6941574610651
 21
-22.63270710593778
 31
0
  0
LINE
  8
1
 62
2
 10
-270.6941574610651
 20
-22.63270710593778
 30
0
 11
-271.0541574610651
 21
-22.75270710593778
 31
0
  0
LINE
  8
1
 62
2
 10
-271.0541574610651
 20
-22.75270710593778
 30
0
 11
-271.7741574610652
 21
-22.75270710593778
 31
0
  0
LINE
  8
1
 62
2
 10
-271.7741574610652
 20
-22.75270710593778
 30
0
 11
-272.1341574610651
 21
-22.63270710593778
 31
0
  0
LINE
  8
1
 62
2
 10
-272.1341574610651
 20
-22.63270710593778
 30
0
 11
-272.4941574610651
 21
-22.39270710593778
 31
0
  0
LINE
  8
1
 62
2
 10
-272.4941574610651
 20
-22.39270710593778
 30
0
 11
-272.7341574610651
 21
-22.03270710593778
 31
0
  0
LINE
  8
1
 62
2
 10
-272.7341574610651
 20
-22.03270710593778
 30
0
 11
-272.8541574610651
 21
-21.55270710593778
 31
0
  0
LINE
  8
1
 62
2
 10
-272.8541574610651
 20
-21.55270710593778
 30
0
 11
-272.8541574610651
 21
-19.15270710593778
 31
0
  0
LINE
  8
1
 62
2
 10
-268.5341574610651
 20
-18.67270710593778
 30
0
 11
-268.2941574610651
 21
-18.31270710593778
 31
0
  0
LINE
  8
1
 62
2
 10
-268.2941574610651
 20
-18.31270710593778
 30
0
 11
-267.9341574610651
 21
-18.07270710593778
 31
0
  0
LINE
  8
1
 62
2
 10
-267.9341574610651
 20
-18.07270710593778
 30
0
 11
-267.4541574610651
 21
-17.95270710593778
 31
0
  0
LINE
  8
1
 62
2
 10
-267.4541574610651
 20
-17.95270710593778
 30
0
 11
-266.7341574610651
 21
-17.95270710593778
 31
0
  0
LINE
  8
1
 62
2
 10
-266.7341574610651
 20
-17.95270710593778
 30
0
 11
-266.3741574610651
 21
-18.07270710593778
 31
0
  0
LINE
  8
1
 62
2
 10
-266.3741574610651
 20
-18.07270710593778
 30
0
 11
-266.0141574610651
 21
-18.31270710593778
 31
0
  0
LINE
  8
1
 62
2
 10
-266.0141574610651
 20
-18.31270710593778
 30
0
 11
-265.7741574610651
 21
-18.67270710593778
 31
0
  0
LINE
  8
1
 62
2
 10
-265.7741574610651
 20
-18.67270710593778
 30
0
 11
-265.6541574610651
 21
-19.15270710593778
 31
0
  0
LINE
  8
1
 62
2
 10
-265.6541574610651
 20
-19.15270710593778
 30
0
 11
-265.6541574610651
 21
-19.51270710593778
 31
0
  0
LINE
  8
1
 62
2
 10
-265.6541574610651
 20
-19.51270710593778
 30
0
 11
-265.7741574610651
 21
-19.87270710593778
 31
0
  0
LINE
  8
1
 62
2
 10
-265.7741574610651
 20
-19.87270710593778
 30
0
 11
-266.0141574610651
 21
-20.11270710593778
 31
0
  0
LINE
  8
1
 62
2
 10
-266.0141574610651
 20
-20.11270710593778
 30
0
 11
-266.6141574610651
 21
-20.35270710593778
 31
0
  0
LINE
  8
1
 62
2
 10
-267.4541574610651
 20
-20.35270710593778
 30
0
 11
-266.6141574610651
 21
-20.35270710593778
 31
0
  0
LINE
  8
1
 62
2
 10
-266.6141574610651
 20
-20.35270710593778
 30
0
 11
-266.0141574610651
 21
-20.59270710593778
 31
0
  0
LINE
  8
1
 62
2
 10
-266.0141574610651
 20
-20.59270710593778
 30
0
 11
-265.7741574610651
 21
-20.83270710593778
 31
0
  0
LINE
  8
1
 62
2
 10
-265.7741574610651
 20
-20.83270710593778
 30
0
 11
-265.6541574610651
 21
-21.19270710593778
 31
0
  0
LINE
  8
1
 62
2
 10
-265.6541574610651
 20
-21.19270710593778
 30
0
 11
-265.6541574610651
 21
-21.55270710593778
 31
0
  0
LINE
  8
1
 62
2
 10
-265.6541574610651
 20
-21.55270710593778
 30
0
 11
-265.7741574610651
 21
-22.03270710593778
 31
0
  0
LINE
  8
1
 62
2
 10
-265.7741574610651
 20
-22.03270710593778
 30
0
 11
-266.0141574610651
 21
-22.39270710593778
 31
0
  0
LINE
  8
1
 62
2
 10
-266.0141574610651
 20
-22.39270710593778
 30
0
 11
-266.3741574610651
 21
-22.63270710593778
 31
0
  0
LINE
  8
1
 62
2
 10
-266.3741574610651
 20
-22.63270710593778
 30
0
 11
-266.7341574610651
 21
-22.75270710593778
 31
0
  0
LINE
  8
1
 62
2
 10
-266.7341574610651
 20
-22.75270710593778
 30
0
 11
-267.4541574610651
 21
-22.75270710593778
 31
0
  0
LINE
  8
1
 62
2
 10
-267.4541574610651
 20
-22.75270710593778
 30
0
 11
-267.9341574610651
 21
-22.63270710593778
 31
0
  0
LINE
  8
1
 62
2
 10
-267.9341574610651
 20
-22.63270710593778
 30
0
 11
-268.2941574610651
 21
-22.39270710593778
 31
0
  0
LINE
  8
1
 62
2
 10
-268.2941574610651
 20
-22.39270710593778
 30
0
 11
-268.5341574610651
 21
-22.03270710593778
 31
0
  0
LINE
  8
1
 62
2
 10
-259.9741574610652
 20
-19.30270710593778
 30
0
 11
-259.9741574610652
 21
-22.45270710593778
 31
0
  0
LINE
  8
1
 62
2
 10
-259.9741574610652
 20
-22.45270710593778
 30
0
 11
-256.5074907943985
 21
-22.45270710593778
 31
0
  0
LINE
  8
1
 62
2
 10
-256.5074907943985
 20
-22.45270710593778
 30
0
 11
-256.5074907943985
 21
-19.30270710593778
 31
0
  0
LINE
  8
1
 62
2
 10
-258.2408241277318
 20
-18.25270710593778
 30
0
 11
-258.2408241277318
 21
-22.45270710593778
 31
0
  0
LINE
  8
1
 62
2
 10
-255.5741574610651
 20
-19.39270710593778
 30
0
 11
-254.1341574610651
 21
-17.95270710593778
 31
0
  0
LINE
  8
1
 62
2
 10
-254.1341574610651
 20
-17.95270710593778
 30
0
 11
-254.1341574610651
 21
-22.75270710593778
 31
0
  0
LINE
  8
1
 62
2
 10
-252.6941574610651
 20
-19.39270710593778
 30
0
 11
-251.2541574610651
 21
-17.95270710593778
 31
0
  0
LINE
  8
1
 62
2
 10
-251.2541574610651
 20
-17.95270710593778
 30
0
 11
-251.2541574610651
 21
-22.75270710593778
 31
0
  0
LINE
  8
1
 62
2
 10
-283.9192769710933
 20
-122.037682601711
 30
0
 11
-282.4526103044266
 21
-121.437682601711
 31
0
  0
LINE
  8
1
 62
2
 10
-282.7192769710933
 20
-121.287682601711
 30
0
 11
-282.5859436377599
 21
-120.537682601711
 31
0
  0
LINE
  8
1
 62
2
 10
-282.4526103044266
 20
-120.087682601711
 30
0
 11
-283.7859436377599
 21
-120.087682601711
 31
0
  0
LINE
  8
1
 62
2
 10
-283.6526103044266
 20
-119.337682601711
 30
0
 11
-282.4526103044266
 21
-119.337682601711
 31
0
  0
LINE
  8
1
 62
2
 10
-282.3192769710933
 20
-118.587682601711
 30
0
 11
-283.1192769710933
 21
-117.687682601711
 31
0
  0
LINE
  8
1
 62
2
 10
-283.1192769710933
 20
-117.687682601711
 30
0
 11
-284.1859436377599
 21
-119.787682601711
 31
0
  0
LINE
  8
1
 62
2
 10
-283.7859436377599
 20
-120.537682601711
 30
0
 11
-283.5192769710932
 21
-121.287682601711
 31
0
  0
LINE
  8
1
 62
2
 10
-283.1192769710933
 20
-121.737682601711
 30
0
 11
-283.1192769710933
 21
-119.337682601711
 31
0
  0
LINE
  8
1
 62
2
 10
-282.3192769710933
 20
-119.487682601711
 30
0
 11
-279.9192769710933
 21
-119.487682601711
 31
0
  0
LINE
  8
1
 62
2
 10
-279.9192769710933
 20
-120.387682601711
 30
0
 11
-282.1859436377599
 21
-120.387682601711
 31
0
  0
LINE
  8
1
 62
2
 10
-282.3192769710933
 20
-121.887682601711
 30
0
 11
-281.7859436377599
 21
-120.987682601711
 31
0
  0
LINE
  8
1
 62
2
 10
-281.7859436377599
 20
-120.987682601711
 30
0
 11
-281.3859436377599
 21
-119.487682601711
 31
0
  0
LINE
  8
1
 62
2
 10
-281.3859436377599
 20
-119.487682601711
 30
0
 11
-281.2526103044266
 21
-117.687682601711
 31
0
  0
LINE
  8
1
 62
2
 10
-282.1859436377599
 20
-118.137682601711
 30
0
 11
-280.1859436377599
 21
-118.137682601711
 31
0
  0
LINE
  8
1
 62
2
 10
-280.1859436377599
 20
-118.887682601711
 30
0
 11
-282.0526103044266
 21
-118.887682601711
 31
0
  0
LINE
  8
1
 62
2
 10
-280.4526103044266
 20
-119.787682601711
 30
0
 11
-280.4526103044266
 21
-122.187682601711
 31
0
  0
LINE
  8
1
 62
2
 10
-280.4526103044266
 20
-122.187682601711
 30
0
 11
-280.9859436377599
 21
-122.187682601711
 31
0
  0
LINE
  8
1
 62
2
 10
-280.9859436377599
 20
-121.587682601711
 30
0
 11
-281.2526103044266
 21
-120.837682601711
 31
0
  0
LINE
  8
1
 62
2
 10
-279.1192769710933
 20
-121.737682601711
 30
0
 11
-278.4526103044266
 21
-121.137682601711
 31
0
  0
LINE
  8
1
 62
2
 10
-278.4526103044266
 20
-121.137682601711
 30
0
 11
-278.4526103044266
 21
-119.487682601711
 31
0
  0
LINE
  8
1
 62
2
 10
-278.4526103044266
 20
-119.487682601711
 30
0
 11
-279.2526103044266
 21
-119.487682601711
 31
0
  0
LINE
  8
1
 62
2
 10
-278.4526103044266
 20
-121.137682601711
 30
0
 11
-278.1859436377599
 21
-121.737682601711
 31
0
  0
LINE
  8
1
 62
2
 10
-278.1859436377599
 20
-121.737682601711
 30
0
 11
-277.9192769710933
 21
-121.887682601711
 31
0
  0
LINE
  8
1
 62
2
 10
-277.9192769710933
 20
-121.887682601711
 30
0
 11
-275.2526103044266
 21
-121.887682601711
 31
0
  0
LINE
  8
1
 62
2
 10
-275.9192769710933
 20
-121.137682601711
 30
0
 11
-275.9192769710933
 21
-119.937682601711
 31
0
  0
LINE
  8
1
 62
2
 10
-275.9192769710933
 20
-119.937682601711
 30
0
 11
-277.3859436377599
 21
-119.937682601711
 31
0
  0
LINE
  8
1
 62
2
 10
-277.3859436377599
 20
-119.937682601711
 30
0
 11
-277.3859436377599
 21
-121.137682601711
 31
0
  0
LINE
  8
1
 62
2
 10
-277.3859436377599
 20
-121.137682601711
 30
0
 11
-275.9192769710933
 21
-121.137682601711
 31
0
  0
LINE
  8
1
 62
2
 10
-275.3859436377599
 20
-119.337682601711
 30
0
 11
-277.9192769710933
 21
-119.337682601711
 31
0
  0
LINE
  8
1
 62
2
 10
-276.7192769710932
 20
-119.337682601711
 30
0
 11
-276.7192769710932
 21
-117.387682601711
 31
0
  0
LINE
  8
1
 62
2
 10
-275.6526103044266
 20
-118.287682601711
 30
0
 11
-277.6526103044266
 21
-118.287682601711
 31
0
  0
LINE
  8
1
 62
2
 10
-277.3859436377599
 20
-117.537682601711
 30
0
 11
-277.6526103044266
 21
-118.287682601711
 31
0
  0
LINE
  8
1
 62
2
 10
-277.6526103044266
 20
-118.287682601711
 30
0
 11
-277.9192769710933
 21
-118.737682601711
 31
0
  0
LINE
  8
1
 62
2
 10
-278.4526103044266
 20
-118.137682601711
 30
0
 11
-278.8526103044266
 21
-117.537682601711
 31
0
  0
LINE
  8
1
 62
2
 10
-279.1192769710933
 20
-121.737682601711
 30
0
 11
-279.2526103044266
 21
-121.887682601711
 31
0
  0
LINE
  8
1
 62
2
 10
-273.2526103044266
 20
-117.387682601711
 30
0
 11
-273.5192769710932
 21
-117.837682601711
 31
0
  0
LINE
  8
1
 62
2
 10
-273.5192769710932
 20
-117.837682601711
 30
0
 11
-273.9192769710932
 21
-118.437682601711
 31
0
  0
LINE
  8
1
 62
2
 10
-273.9192769710932
 20
-118.437682601711
 30
0
 11
-274.3192769710933
 21
-118.887682601711
 31
0
  0
LINE
  8
1
 62
2
 10
-273.6526103044266
 20
-118.137682601711
 30
0
 11
-270.9859436377599
 21
-118.137682601711
 31
0
  0
LINE
  8
1
 62
2
 10
-272.4526103044266
 20
-118.137682601711
 30
0
 11
-272.4526103044266
 21
-122.187682601711
 31
0
  0
LINE
  8
1
 62
2
 10
-273.7859436377599
 20
-119.337682601711
 30
0
 11
-271.1192769710933
 21
-119.337682601711
 31
0
  0
LINE
  8
1
 62
2
 10
-273.7859436377599
 20
-119.487682601711
 30
0
 11
-273.7859436377599
 21
-120.537682601711
 31
0
  0
LINE
  8
1
 62
2
 10
-274.5859436377599
 20
-120.537682601711
 30
0
 11
-270.3192769710933
 21
-120.537682601711
 31
0
  0
LINE
  8
1
 62
2
 10
-241.3379009216273
 20
-127.86664534378
 30
0
 11
-244.2179009216273
 21
-127.86664534378
 31
0
  0
LINE
  8
1
 62
2
 10
-240.8579009216273
 20
-125.70664534378
 30
0
 11
-244.2179009216273
 21
-125.70664534378
 31
0
  0
LINE
  8
1
 62
2
 10
-244.2179009216273
 20
-125.70664534378
 30
0
 11
-244.2179009216273
 21
-130.50664534378
 31
0
  0
LINE
  8
1
 62
2
 10
-244.2179009216273
 20
-130.50664534378
 30
0
 11
-240.8579009216273
 21
-130.50664534378
 31
0
  0
LINE
  8
1
 62
2
 10
-248.7573143936256
 20
-122.5934789998129
 30
0
 11
-248.7573143936256
 21
-117.7934789998129
 31
0
  0
LINE
  8
1
 62
2
 10
-248.090647726959
 20
-119.1434789998129
 30
0
 11
-249.5573143936256
 21
-119.1434789998129
 31
0
  0
LINE
  8
1
 62
2
 10
-249.690647726959
 20
-121.0934789998129
 30
0
 11
-249.1573143936256
 21
-120.1934789998129
 31
0
  0
LINE
  8
1
 62
2
 10
-249.1573143936256
 20
-120.1934789998129
 30
0
 11
-248.7573143936256
 21
-119.2934789998129
 31
0
  0
LINE
  8
1
 62
2
 10
-248.7573143936256
 20
-119.2934789998129
 30
0
 11
-248.090647726959
 21
-120.3434789998129
 31
0
  0
LINE
  8
1
 62
2
 10
-247.9573143936256
 20
-121.6934789998129
 30
0
 11
-247.1573143936256
 21
-120.7934789998129
 31
0
  0
LINE
  8
1
 62
2
 10
-247.1573143936256
 20
-120.7934789998129
 30
0
 11
-246.4906477269589
 21
-119.4434789998129
 31
0
  0
LINE
  8
1
 62
2
 10
-245.690647726959
 20
-119.2934789998129
 30
0
 11
-247.690647726959
 21
-119.2934789998129
 31
0
  0
LINE
  8
1
 62
2
 10
-246.4906477269589
 20
-117.9434789998129
 30
0
 11
-246.3573143936256
 21
-122.2934789998129
 31
0
  0
LINE
  8
1
 62
2
 10
-246.3573143936256
 20
-122.2934789998129
 30
0
 11
-246.7573143936256
 21
-122.2934789998129
 31
0
  0
LINE
  8
1
 62
2
 10
-244.890647726959
 20
-121.6934789998129
 30
0
 11
-244.490647726959
 21
-120.9434789998129
 31
0
  0
LINE
  8
1
 62
2
 10
-244.490647726959
 20
-120.9434789998129
 30
0
 11
-243.9573143936256
 21
-119.5934789998129
 31
0
  0
LINE
  8
1
 62
2
 10
-243.0239810602923
 20
-119.5934789998129
 30
0
 11
-244.890647726959
 21
-119.5934789998129
 31
0
  0
LINE
  8
1
 62
2
 10
-244.7573143936256
 20
-118.3934789998129
 30
0
 11
-244.3573143936256
 21
-118.9934789998129
 31
0
  0
LINE
  8
1
 62
2
 10
-243.5573143936256
 20
-118.8434789998129
 30
0
 11
-243.290647726959
 21
-118.2434789998129
 31
0
  0
LINE
  8
1
 62
2
 10
-243.9573143936256
 20
-117.9434789998129
 30
0
 11
-243.9573143936256
 21
-122.4434789998129
 31
0
  0
LINE
  8
1
 62
2
 10
-243.5573143936256
 20
-120.1934789998129
 30
0
 11
-243.290647726959
 21
-120.7934789998129
 31
0
  0
LINE
  8
1
 62
2
 10
-243.0239810602923
 20
-120.9434789998129
 30
0
 11
-240.7573143936256
 21
-120.4934789998129
 31
0
  0
LINE
  8
1
 62
2
 10
-242.2239810602923
 20
-119.8934789998129
 30
0
 11
-242.6239810602923
 21
-119.2934789998129
 31
0
  0
LINE
  8
1
 62
2
 10
-242.2239810602923
 20
-118.6934789998129
 30
0
 11
-242.6239810602923
 21
-118.0934789998129
 31
0
  0
LINE
  8
1
 62
2
 10
-241.5573143936256
 20
-117.7934789998129
 30
0
 11
-241.5573143936256
 21
-122.5934789998129
 31
0
  0
LINE
  8
1
 62
2
 10
-239.9573143936256
 20
-122.2934789998129
 30
0
 11
-239.9573143936256
 21
-121.0934789998129
 31
0
  0
LINE
  8
1
 62
2
 10
-239.9573143936256
 20
-121.0934789998129
 30
0
 11
-238.890647726959
 21
-121.0934789998129
 31
0
  0
LINE
  8
1
 62
2
 10
-238.890647726959
 20
-121.0934789998129
 30
0
 11
-238.890647726959
 21
-122.2934789998129
 31
0
  0
LINE
  8
1
 62
2
 10
-238.890647726959
 20
-122.2934789998129
 30
0
 11
-239.9573143936256
 21
-122.2934789998129
 31
0
  0
LINE
  8
1
 62
2
 10
-239.9573143936256
 20
-120.4934789998129
 30
0
 11
-238.890647726959
 21
-120.4934789998129
 31
0
  0
LINE
  8
1
 62
2
 10
-238.890647726959
 20
-119.7434789998129
 30
0
 11
-239.9573143936256
 21
-119.7434789998129
 31
0
  0
LINE
  8
1
 62
2
 10
-240.2239810602923
 20
-119.1434789998129
 30
0
 11
-238.490647726959
 21
-119.1434789998129
 31
0
  0
LINE
  8
1
 62
2
 10
-240.090647726959
 20
-118.3934789998129
 30
0
 11
-238.890647726959
 21
-118.3934789998129
 31
0
  0
LINE
  8
1
 62
2
 10
-238.090647726959
 20
-118.5434789998129
 30
0
 11
-236.6239810602923
 21
-118.5434789998129
 31
0
  0
LINE
  8
1
 62
2
 10
-236.6239810602923
 20
-118.5434789998129
 30
0
 11
-236.6239810602923
 21
-120.0434789998129
 31
0
  0
LINE
  8
1
 62
2
 10
-236.6239810602923
 20
-120.0434789998129
 30
0
 11
-238.090647726959
 21
-120.0434789998129
 31
0
  0
LINE
  8
1
 62
2
 10
-238.090647726959
 20
-120.0434789998129
 30
0
 11
-238.090647726959
 21
-122.2934789998129
 31
0
  0
LINE
  8
1
 62
2
 10
-238.090647726959
 20
-122.2934789998129
 30
0
 11
-236.2239810602923
 21
-122.2934789998129
 31
0
  0
LINE
  8
1
 62
2
 10
-236.2239810602923
 20
-122.2934789998129
 30
0
 11
-236.2239810602923
 21
-121.8434789998129
 31
0
  0
LINE
  8
1
 62
2
 10
-234.3573143936256
 20
-118.0934789998129
 30
0
 11
-234.3573143936256
 21
-119.1434789998129
 31
0
  0
LINE
  8
1
 62
2
 10
-234.3573143936256
 20
-119.1434789998129
 30
0
 11
-232.2239810602923
 21
-119.1434789998129
 31
0
  0
LINE
  8
1
 62
2
 10
-232.2239810602923
 20
-119.1434789998129
 30
0
 11
-232.2239810602923
 21
-118.0934789998129
 31
0
  0
LINE
  8
1
 62
2
 10
-232.2239810602923
 20
-118.0934789998129
 30
0
 11
-234.3573143936256
 21
-118.0934789998129
 31
0
  0
LINE
  8
1
 62
2
 10
-235.290647726959
 20
-119.8934789998129
 30
0
 11
-231.4239810602923
 21
-119.8934789998129
 31
0
  0
LINE
  8
1
 62
2
 10
-233.8239810602923
 20
-119.8934789998129
 30
0
 11
-234.2239810602923
 21
-121.3934789998129
 31
0
  0
LINE
  8
1
 62
2
 10
-234.090647726959
 20
-120.7934789998129
 30
0
 11
-232.2239810602923
 21
-120.7934789998129
 31
0
  0
LINE
  8
1
 62
2
 10
-232.2239810602923
 20
-120.7934789998129
 30
0
 11
-232.490647726959
 21
-121.6934789998129
 31
0
  0
LINE
  8
1
 62
2
 10
-232.490647726959
 20
-121.6934789998129
 30
0
 11
-232.890647726959
 21
-122.4434789998129
 31
0
  0
LINE
  8
1
 62
2
 10
-232.890647726959
 20
-122.4434789998129
 30
0
 11
-233.1573143936256
 21
-122.5934789998129
 31
0
  0
LINE
  8
1
 62
2
 10
-233.1573143936256
 20
-122.5934789998129
 30
0
 11
-233.690647726959
 21
-122.2934789998129
 31
0
  0
LINE
  8
1
 62
7
 10
-221.3633455165823
 20
-80.13164254283277
 30
0
 11
-226.0079855165823
 21
-80.13164254283277
 31
0
  0
LINE
  8
1
 62
7
 10
-226.0079855165823
 20
-80.13164254283277
 30
0
 11
-226.0079855165823
 21
-73.09164254283276
 31
0
  0
LINE
  8
1
 62
7
 10
-226.0079855165823
 20
-73.09164254283276
 30
0
 11
-221.4434255165823
 21
-73.09164254283276
 31
0
  0
LINE
  8
1
 62
7
 10
-221.4434255165823
 20
-73.09164254283276
 30
0
 11
-221.4434255165823
 21
-73.97164254283277
 31
0
  0
LINE
  8
1
 62
7
 10
-221.4434255165823
 20
-73.97164254283277
 30
0
 11
-225.1271055165823
 21
-73.97164254283277
 31
0
  0
LINE
  8
1
 62
7
 10
-225.1271055165823
 20
-73.97164254283277
 30
0
 11
-225.1271055165823
 21
-76.08364254283276
 31
0
  0
LINE
  8
1
 62
7
 10
-225.1271055165823
 20
-76.08364254283276
 30
0
 11
-221.7637455165823
 21
-76.08364254283276
 31
0
  0
LINE
  8
1
 62
7
 10
-221.7637455165823
 20
-76.08364254283276
 30
0
 11
-221.7637455165823
 21
-76.96364254283276
 31
0
  0
LINE
  8
1
 62
7
 10
-221.7637455165823
 20
-76.96364254283276
 30
0
 11
-225.1271055165823
 21
-76.96364254283276
 31
0
  0
LINE
  8
1
 62
7
 10
-225.1271055165823
 20
-76.96364254283276
 30
0
 11
-225.1271055165823
 21
-79.25164254283277
 31
0
  0
LINE
  8
1
 62
7
 10
-225.1271055165823
 20
-79.25164254283277
 30
0
 11
-221.3633455165823
 21
-79.25164254283277
 31
0
  0
LINE
  8
1
 62
7
 10
-221.3633455165823
 20
-79.25164254283277
 30
0
 11
-221.3633455165823
 21
-80.13164254283277
 31
0
  0
LINE
  8
1
 62
7
 10
-164.1011847604383
 20
-74.93164254283278
 30
0
 11
-164.3951847604383
 21
-75.63164254283278
 31
0
  0
LINE
  8
1
 62
7
 10
-164.3951847604383
 20
-75.63164254283278
 30
0
 11
-164.7871847604383
 21
-75.07164254283278
 31
0
  0
LINE
  8
1
 62
7
 10
-164.7871847604383
 20
-75.07164254283278
 30
0
 11
-165.3751847604383
 21
-74.51164254283277
 31
0
  0
LINE
  8
1
 62
7
 10
-165.3751847604383
 20
-74.51164254283277
 30
0
 11
-166.0611847604383
 21
-74.23164254283279
 31
0
  0
LINE
  8
1
 62
7
 10
-166.0611847604383
 20
-74.23164254283279
 30
0
 11
-166.4531847604383
 21
-74.23164254283279
 31
0
  0
LINE
  8
1
 62
7
 10
-166.4531847604383
 20
-74.23164254283279
 30
0
 11
-167.0411847604383
 21
-74.51164254283277
 31
0
  0
LINE
  8
1
 62
7
 10
-167.0411847604383
 20
-74.51164254283277
 30
0
 11
-167.3351847604383
 21
-75.07164254283278
 31
0
  0
LINE
  8
1
 62
7
 10
-167.3351847604383
 20
-75.07164254283278
 30
0
 11
-167.3351847604383
 21
-74.37164254283277
 31
0
  0
LINE
  8
1
 62
7
 10
-167.3351847604383
 20
-74.37164254283277
 30
0
 11
-168.4131847604383
 21
-74.37164254283277
 31
0
  0
LINE
  8
1
 62
7
 10
-168.4131847604383
 20
-74.37164254283277
 30
0
 11
-168.4131847604383
 21
-82.63164254283278
 31
0
  0
LINE
  8
1
 62
7
 10
-168.4131847604383
 20
-82.63164254283278
 30
0
 11
-167.3351847604383
 21
-82.63164254283278
 31
0
  0
LINE
  8
1
 62
7
 10
-167.3351847604383
 20
-82.63164254283278
 30
0
 11
-167.3351847604383
 21
-76.89164254283278
 31
0
  0
LINE
  8
1
 62
7
 10
-167.3351847604383
 20
-76.89164254283278
 30
0
 11
-167.1391847604383
 21
-76.19164254283278
 31
0
  0
LINE
  8
1
 62
7
 10
-167.1391847604383
 20
-76.19164254283278
 30
0
 11
-166.7471847604383
 21
-75.77164254283278
 31
0
  0
LINE
  8
1
 62
7
 10
-166.7471847604383
 20
-75.77164254283278
 30
0
 11
-166.3551847604383
 21
-75.63164254283278
 31
0
  0
LINE
  8
1
 62
7
 10
-166.3551847604383
 20
-75.63164254283278
 30
0
 11
-165.8651847604383
 21
-75.77164254283278
 31
0
  0
LINE
  8
1
 62
7
 10
-165.8651847604383
 20
-75.77164254283278
 30
0
 11
-165.5711847604383
 21
-76.19164254283278
 31
0
  0
LINE
  8
1
 62
7
 10
-165.5711847604383
 20
-76.19164254283278
 30
0
 11
-165.2771847604383
 21
-76.89164254283278
 31
0
  0
LINE
  8
1
 62
7
 10
-165.2771847604383
 20
-76.89164254283278
 30
0
 11
-165.1791847604383
 21
-77.45164254283279
 31
0
  0
LINE
  8
1
 62
7
 10
-165.1791847604383
 20
-77.45164254283279
 30
0
 11
-165.1791847604383
 21
-82.63164254283278
 31
0
  0
LINE
  8
1
 62
7
 10
-165.1791847604383
 20
-82.63164254283278
 30
0
 11
-164.1011847604383
 21
-82.63164254283278
 31
0
  0
LINE
  8
1
 62
7
 10
-164.1011847604383
 20
-82.63164254283278
 30
0
 11
-164.1011847604383
 21
-76.89164254283278
 31
0
  0
LINE
  8
1
 62
7
 10
-164.1011847604383
 20
-76.89164254283278
 30
0
 11
-163.9051847604383
 21
-76.19164254283278
 31
0
  0
LINE
  8
1
 62
7
 10
-163.9051847604383
 20
-76.19164254283278
 30
0
 11
-163.5131847604383
 21
-75.77164254283278
 31
0
  0
LINE
  8
1
 62
7
 10
-163.5131847604383
 20
-75.77164254283278
 30
0
 11
-163.1211847604383
 21
-75.63164254283278
 31
0
  0
LINE
  8
1
 62
7
 10
-163.1211847604383
 20
-75.63164254283278
 30
0
 11
-162.6311847604383
 21
-75.77164254283278
 31
0
  0
LINE
  8
1
 62
7
 10
-162.6311847604383
 20
-75.77164254283278
 30
0
 11
-162.3371847604383
 21
-76.19164254283278
 31
0
  0
LINE
  8
1
 62
7
 10
-162.3371847604383
 20
-76.19164254283278
 30
0
 11
-162.0431847604383
 21
-76.89164254283278
 31
0
  0
LINE
  8
1
 62
7
 10
-162.0431847604383
 20
-76.89164254283278
 30
0
 11
-161.9451847604383
 21
-77.45164254283279
 31
0
  0
LINE
  8
1
 62
7
 10
-161.9451847604383
 20
-77.45164254283279
 30
0
 11
-161.9451847604383
 21
-82.63164254283278
 31
0
  0
LINE
  8
1
 62
7
 10
-161.9451847604383
 20
-82.63164254283278
 30
0
 11
-160.8671847604383
 21
-82.63164254283278
 31
0
  0
LINE
  8
1
 62
7
 10
-160.8671847604383
 20
-82.63164254283278
 30
0
 11
-160.8671847604383
 21
-77.59164254283277
 31
0
  0
LINE
  8
1
 62
7
 10
-160.8671847604383
 20
-77.59164254283277
 30
0
 11
-160.9651847604383
 21
-76.47164254283278
 31
0
  0
LINE
  8
1
 62
7
 10
-160.9651847604383
 20
-76.47164254283278
 30
0
 11
-161.2591847604383
 21
-75.63164254283278
 31
0
  0
LINE
  8
1
 62
7
 10
-161.2591847604383
 20
-75.63164254283278
 30
0
 11
-161.5531847604383
 21
-75.07164254283278
 31
0
  0
LINE
  8
1
 62
7
 10
-161.5531847604383
 20
-75.07164254283278
 30
0
 11
-162.1411847604383
 21
-74.51164254283277
 31
0
  0
LINE
  8
1
 62
7
 10
-162.1411847604383
 20
-74.51164254283277
 30
0
 11
-162.8271847604383
 21
-74.23164254283279
 31
0
  0
LINE
  8
1
 62
7
 10
-162.8271847604383
 20
-74.23164254283279
 30
0
 11
-163.2191847604383
 21
-74.23164254283279
 31
0
  0
LINE
  8
1
 62
7
 10
-163.2191847604383
 20
-74.23164254283279
 30
0
 11
-163.7091847604383
 21
-74.51164254283277
 31
0
  0
LINE
  8
1
 62
7
 10
-163.7091847604383
 20
-74.51164254283277
 30
0
 11
-164.1011847604383
 21
-74.93164254283278
 31
0
  0
LINE
  8
1
 62
7
 10
-155.1011847604383
 20
-74.93164254283278
 30
0
 11
-155.3951847604383
 21
-75.63164254283278
 31
0
  0
LINE
  8
1
 62
7
 10
-155.3951847604383
 20
-75.63164254283278
 30
0
 11
-155.7871847604383
 21
-75.07164254283278
 31
0
  0
LINE
  8
1
 62
7
 10
-155.7871847604383
 20
-75.07164254283278
 30
0
 11
-156.3751847604383
 21
-74.51164254283277
 31
0
  0
LINE
  8
1
 62
7
 10
-156.3751847604383
 20
-74.51164254283277
 30
0
 11
-157.0611847604383
 21
-74.23164254283279
 31
0
  0
LINE
  8
1
 62
7
 10
-157.0611847604383
 20
-74.23164254283279
 30
0
 11
-157.4531847604383
 21
-74.23164254283279
 31
0
  0
LINE
  8
1
 62
7
 10
-157.4531847604383
 20
-74.23164254283279
 30
0
 11
-158.0411847604383
 21
-74.51164254283277
 31
0
  0
LINE
  8
1
 62
7
 10
-158.0411847604383
 20
-74.51164254283277
 30
0
 11
-158.3351847604383
 21
-75.07164254283278
 31
0
  0
LINE
  8
1
 62
7
 10
-158.3351847604383
 20
-75.07164254283278
 30
0
 11
-158.3351847604383
 21
-74.37164254283277
 31
0
  0
LINE
  8
1
 62
7
 10
-158.3351847604383
 20
-74.37164254283277
 30
0
 11
-159.4131847604383
 21
-74.37164254283277
 31
0
  0
LINE
  8
1
 62
7
 10
-159.4131847604383
 20
-74.37164254283277
 30
0
 11
-159.4131847604383
 21
-82.63164254283278
 31
0
  0
LINE
  8
1
 62
7
 10
-159.4131847604383
 20
-82.63164254283278
 30
0
 11
-158.3351847604383
 21
-82.63164254283278
 31
0
  0
LINE
  8
1
 62
7
 10
-158.3351847604383
 20
-82.63164254283278
 30
0
 11
-158.3351847604383
 21
-76.89164254283278
 31
0
  0
LINE
  8
1
 62
7
 10
-158.3351847604383
 20
-76.89164254283278
 30
0
 11
-158.1391847604383
 21
-76.19164254283278
 31
0
  0
LINE
  8
1
 62
7
 10
-158.1391847604383
 20
-76.19164254283278
 30
0
 11
-157.7471847604383
 21
-75.77164254283278
 31
0
  0
LINE
  8
1
 62
7
 10
-157.7471847604383
 20
-75.77164254283278
 30
0
 11
-157.3551847604383
 21
-75.63164254283278
 31
0
  0
LINE
  8
1
 62
7
 10
-157.3551847604383
 20
-75.63164254283278
 30
0
 11
-156.8651847604383
 21
-75.77164254283278
 31
0
  0
LINE
  8
1
 62
7
 10
-156.8651847604383
 20
-75.77164254283278
 30
0
 11
-156.5711847604383
 21
-76.19164254283278
 31
0
  0
LINE
  8
1
 62
7
 10
-156.5711847604383
 20
-76.19164254283278
 30
0
 11
-156.2771847604383
 21
-76.89164254283278
 31
0
  0
LINE
  8
1
 62
7
 10
-156.2771847604383
 20
-76.89164254283278
 30
0
 11
-156.1791847604383
 21
-77.45164254283279
 31
0
  0
LINE
  8
1
 62
7
 10
-156.1791847604383
 20
-77.45164254283279
 30
0
 11
-156.1791847604383
 21
-82.63164254283278
 31
0
  0
LINE
  8
1
 62
7
 10
-156.1791847604383
 20
-82.63164254283278
 30
0
 11
-155.1011847604383
 21
-82.63164254283278
 31
0
  0
LINE
  8
1
 62
7
 10
-155.1011847604383
 20
-82.63164254283278
 30
0
 11
-155.1011847604383
 21
-76.89164254283278
 31
0
  0
LINE
  8
1
 62
7
 10
-155.1011847604383
 20
-76.89164254283278
 30
0
 11
-154.9051847604383
 21
-76.19164254283278
 31
0
  0
LINE
  8
1
 62
7
 10
-154.9051847604383
 20
-76.19164254283278
 30
0
 11
-154.5131847604383
 21
-75.77164254283278
 31
0
  0
LINE
  8
1
 62
7
 10
-154.5131847604383
 20
-75.77164254283278
 30
0
 11
-154.1211847604383
 21
-75.63164254283278
 31
0
  0
LINE
  8
1
 62
7
 10
-154.1211847604383
 20
-75.63164254283278
 30
0
 11
-153.6311847604383
 21
-75.77164254283278
 31
0
  0
LINE
  8
1
 62
7
 10
-153.6311847604383
 20
-75.77164254283278
 30
0
 11
-153.3371847604383
 21
-76.19164254283278
 31
0
  0
LINE
  8
1
 62
7
 10
-153.3371847604383
 20
-76.19164254283278
 30
0
 11
-153.0431847604383
 21
-76.89164254283278
 31
0
  0
LINE
  8
1
 62
7
 10
-153.0431847604383
 20
-76.89164254283278
 30
0
 11
-152.9451847604383
 21
-77.45164254283279
 31
0
  0
LINE
  8
1
 62
7
 10
-152.9451847604383
 20
-77.45164254283279
 30
0
 11
-152.9451847604383
 21
-82.63164254283278
 31
0
  0
LINE
  8
1
 62
7
 10
-152.9451847604383
 20
-82.63164254283278
 30
0
 11
-151.8671847604383
 21
-82.63164254283278
 31
0
  0
LINE
  8
1
 62
7
 10
-151.8671847604383
 20
-82.63164254283278
 30
0
 11
-151.8671847604383
 21
-77.59164254283277
 31
0
  0
LINE
  8
1
 62
7
 10
-151.8671847604383
 20
-77.59164254283277
 30
0
 11
-151.9651847604383
 21
-76.47164254283278
 31
0
  0
LINE
  8
1
 62
7
 10
-151.9651847604383
 20
-76.47164254283278
 30
0
 11
-152.2591847604383
 21
-75.63164254283278
 31
0
  0
LINE
  8
1
 62
7
 10
-152.2591847604383
 20
-75.63164254283278
 30
0
 11
-152.5531847604383
 21
-75.07164254283278
 31
0
  0
LINE
  8
1
 62
7
 10
-152.5531847604383
 20
-75.07164254283278
 30
0
 11
-153.1411847604383
 21
-74.51164254283277
 31
0
  0
LINE
  8
1
 62
7
 10
-153.1411847604383
 20
-74.51164254283277
 30
0
 11
-153.8271847604383
 21
-74.23164254283279
 31
0
  0
LINE
  8
1
 62
7
 10
-153.8271847604383
 20
-74.23164254283279
 30
0
 11
-154.2191847604383
 21
-74.23164254283279
 31
0
  0
LINE
  8
1
 62
7
 10
-154.2191847604383
 20
-74.23164254283279
 30
0
 11
-154.7091847604383
 21
-74.51164254283277
 31
0
  0
LINE
  8
1
 62
7
 10
-154.7091847604383
 20
-74.51164254283277
 30
0
 11
-155.1011847604383
 21
-74.93164254283278
 31
0
  0
LINE
  8
1
 62
2
 10
-288.9944406546206
 20
-125.47981334101
 30
0
 11
-289.4744406546206
 21
-126.43981334101
 31
0
  0
LINE
  8
1
 62
2
 10
-289.4744406546206
 20
-126.43981334101
 30
0
 11
-289.7144406546206
 21
-127.39981334101
 31
0
  0
LINE
  8
1
 62
2
 10
-289.7144406546206
 20
-127.39981334101
 30
0
 11
-289.7144406546206
 21
-128.35981334101
 31
0
  0
LINE
  8
1
 62
2
 10
-289.7144406546206
 20
-128.35981334101
 30
0
 11
-289.4744406546206
 21
-129.31981334101
 31
0
  0
LINE
  8
1
 62
2
 10
-289.4744406546206
 20
-129.31981334101
 30
0
 11
-288.9944406546206
 21
-130.27981334101
 31
0
  0
LINE
  8
1
 62
2
 10
-287.0211073212873
 20
-129.97981334101
 30
0
 11
-287.0211073212873
 21
-127.12981334101
 31
0
  0
LINE
  8
1
 62
2
 10
-287.0211073212873
 20
-127.12981334101
 30
0
 11
-283.8211073212873
 21
-127.12981334101
 31
0
  0
LINE
  8
1
 62
2
 10
-283.8211073212873
 20
-127.12981334101
 30
0
 11
-283.8211073212873
 21
-129.97981334101
 31
0
  0
LINE
  8
1
 62
2
 10
-283.8211073212873
 20
-129.97981334101
 30
0
 11
-287.0211073212873
 21
-129.97981334101
 31
0
  0
LINE
  8
1
 62
2
 10
-286.7544406546206
 20
-128.92981334101
 30
0
 11
-286.3544406546207
 21
-128.47981334101
 31
0
  0
LINE
  8
1
 62
2
 10
-286.3544406546207
 20
-128.47981334101
 30
0
 11
-285.9544406546206
 21
-127.57981334101
 31
0
  0
LINE
  8
1
 62
2
 10
-285.9544406546206
 20
-127.57981334101
 30
0
 11
-285.9544406546206
 21
-125.92981334101
 31
0
  0
LINE
  8
1
 62
2
 10
-287.4211073212873
 20
-125.92981334101
 30
0
 11
-283.4211073212873
 21
-125.92981334101
 31
0
  0
LINE
  8
1
 62
2
 10
-285.0211073212873
 20
-125.92981334101
 30
0
 11
-285.0211073212873
 21
-128.32981334101
 31
0
  0
LINE
  8
1
 62
2
 10
-285.0211073212873
 20
-128.32981334101
 30
0
 11
-284.887773987954
 21
-128.62981334101
 31
0
  0
LINE
  8
1
 62
2
 10
-284.887773987954
 20
-128.62981334101
 30
0
 11
-284.2211073212873
 21
-128.62981334101
 31
0
  0
LINE
  8
1
 62
2
 10
-284.2211073212873
 20
-128.62981334101
 30
0
 11
-284.087773987954
 21
-128.32981334101
 31
0
  0
LINE
  8
1
 62
2
 10
-282.7544406546206
 20
-129.97981334101
 30
0
 11
-282.6211073212873
 21
-129.52981334101
 31
0
  0
LINE
  8
1
 62
2
 10
-282.6211073212873
 20
-129.52981334101
 30
0
 11
-282.487773987954
 21
-128.17981334101
 31
0
  0
LINE
  8
1
 62
2
 10
-282.487773987954
 20
-128.17981334101
 30
0
 11
-282.487773987954
 21
-125.62981334101
 31
0
  0
LINE
  8
1
 62
2
 10
-282.487773987954
 20
-125.62981334101
 30
0
 11
-278.7544406546206
 21
-125.62981334101
 31
0
  0
LINE
  8
1
 62
2
 10
-278.7544406546206
 20
-126.67981334101
 30
0
 11
-280.3544406546207
 21
-126.67981334101
 31
0
  0
LINE
  8
1
 62
2
 10
-280.6211073212873
 20
-126.67981334101
 30
0
 11
-281.9544406546206
 21
-126.67981334101
 31
0
  0
LINE
  8
1
 62
2
 10
-281.287773987954
 20
-125.92981334101
 30
0
 11
-281.287773987954
 21
-128.17981334101
 31
0
  0
LINE
  8
1
 62
2
 10
-282.0877739879539
 20
-127.87981334101
 30
0
 11
-281.687773987954
 21
-127.42981334101
 31
0
  0
LINE
  8
1
 62
2
 10
-281.687773987954
 20
-127.42981334101
 30
0
 11
-281.287773987954
 21
-126.67981334101
 31
0
  0
LINE
  8
1
 62
2
 10
-281.0211073212873
 20
-127.12981334101
 30
0
 11
-280.6211073212873
 21
-127.57981334101
 31
0
  0
LINE
  8
1
 62
2
 10
-280.6211073212873
 20
-128.02981334101
 30
0
 11
-280.2211073212873
 21
-127.72981334101
 31
0
  0
LINE
  8
1
 62
2
 10
-280.2211073212873
 20
-127.72981334101
 30
0
 11
-279.5544406546206
 21
-126.67981334101
 31
0
  0
LINE
  8
1
 62
2
 10
-279.5544406546206
 20
-125.92981334101
 30
0
 11
-279.5544406546206
 21
-128.17981334101
 31
0
  0
LINE
  8
1
 62
2
 10
-279.5544406546206
 20
-126.67981334101
 30
0
 11
-279.1544406546206
 21
-127.27981334101
 31
0
  0
LINE
  8
1
 62
2
 10
-279.1544406546206
 20
-127.27981334101
 30
0
 11
-278.487773987954
 21
-128.02981334101
 31
0
  0
LINE
  8
1
 62
2
 10
-279.287773987954
 20
-128.62981334101
 30
0
 11
-281.4211073212873
 21
-128.62981334101
 31
0
  0
LINE
  8
1
 62
2
 10
-281.4211073212873
 20
-128.62981334101
 30
0
 11
-281.4211073212873
 21
-130.12981334101
 31
0
  0
LINE
  8
1
 62
2
 10
-281.4211073212873
 20
-130.12981334101
 30
0
 11
-279.287773987954
 21
-130.12981334101
 31
0
  0
LINE
  8
1
 62
2
 10
-279.287773987954
 20
-130.12981334101
 30
0
 11
-279.287773987954
 21
-128.62981334101
 31
0
  0
LINE
  8
1
 62
2
 10
-281.4211073212873
 20
-129.37981334101
 30
0
 11
-279.287773987954
 21
-129.37981334101
 31
0
  0
LINE
  8
1
 62
2
 10
-275.8211073212873
 20
-130.27981334101
 30
0
 11
-275.8211073212873
 21
-126.07981334101
 31
0
  0
LINE
  8
1
 62
2
 10
-273.8211073212873
 20
-126.07981334101
 30
0
 11
-277.8211073212873
 21
-126.07981334101
 31
0
  0
LINE
  8
1
 62
2
 10
-275.1544406546206
 20
-127.12981334101
 30
0
 11
-274.3544406546206
 21
-128.02981334101
 31
0
  0
LINE
  8
1
 62
2
 10
-272.6211073212872
 20
-127.12981334101
 30
0
 11
-272.4877739879539
 21
-126.82981334101
 31
0
  0
LINE
  8
1
 62
2
 10
-272.4877739879539
 20
-126.82981334101
 30
0
 11
-271.9544406546206
 21
-126.52981334101
 31
0
  0
LINE
  8
1
 62
2
 10
-271.9544406546206
 20
-126.52981334101
 30
0
 11
-271.4211073212873
 21
-126.37981334101
 31
0
  0
LINE
  8
1
 62
2
 10
-271.4211073212873
 20
-126.37981334101
 30
0
 11
-270.4877739879539
 21
-126.37981334101
 31
0
  0
LINE
  8
1
 62
2
 10
-270.4877739879539
 20
-126.37981334101
 30
0
 11
-269.9544406546206
 21
-126.52981334101
 31
0
  0
LINE
  8
1
 62
2
 10
-269.9544406546206
 20
-126.52981334101
 30
0
 11
-269.4211073212873
 21
-126.82981334101
 31
0
  0
LINE
  8
1
 62
2
 10
-269.4211073212873
 20
-126.82981334101
 30
0
 11
-269.2877739879539
 21
-127.12981334101
 31
0
  0
LINE
  8
1
 62
2
 10
-269.2877739879539
 20
-127.12981334101
 30
0
 11
-269.2877739879539
 21
-127.87981334101
 31
0
  0
LINE
  8
1
 62
2
 10
-269.2877739879539
 20
-127.87981334101
 30
0
 11
-269.4211073212873
 21
-128.17981334101
 31
0
  0
LINE
  8
1
 62
2
 10
-269.4211073212873
 20
-128.17981334101
 30
0
 11
-269.9544406546206
 21
-128.47981334101
 31
0
  0
LINE
  8
1
 62
2
 10
-269.9544406546206
 20
-128.47981334101
 30
0
 11
-272.0877739879539
 21
-128.77981334101
 31
0
  0
LINE
  8
1
 62
2
 10
-272.0877739879539
 20
-128.77981334101
 30
0
 11
-272.4877739879539
 21
-129.07981334101
 31
0
  0
LINE
  8
1
 62
2
 10
-272.4877739879539
 20
-129.07981334101
 30
0
 11
-272.6211073212872
 21
-129.37981334101
 31
0
  0
LINE
  8
1
 62
2
 10
-272.6211073212872
 20
-129.37981334101
 30
0
 11
-272.7544406546206
 21
-130.27981334101
 31
0
  0
LINE
  8
1
 62
2
 10
-272.7544406546206
 20
-130.27981334101
 30
0
 11
-269.2877739879539
 21
-130.27981334101
 31
0
  0
LINE
  8
1
 62
2
 10
-268.0877739879539
 20
-126.82981334101
 30
0
 11
-266.7544406546206
 21
-126.82981334101
 31
0
  0
LINE
  8
1
 62
2
 10
-267.4211073212873
 20
-125.62981334101
 30
0
 11
-267.4211073212873
 21
-130.12981334101
 31
0
  0
LINE
  8
1
 62
2
 10
-267.4211073212873
 20
-126.82981334101
 30
0
 11
-267.8211073212872
 21
-128.02981334101
 31
0
  0
LINE
  8
1
 62
2
 10
-267.8211073212872
 20
-128.02981334101
 30
0
 11
-268.0877739879539
 21
-128.47981334101
 31
0
  0
LINE
  8
1
 62
2
 10
-268.0877739879539
 20
-128.47981334101
 30
0
 11
-268.2211073212873
 21
-128.77981334101
 31
0
  0
LINE
  8
1
 62
2
 10
-267.4211073212873
 20
-126.82981334101
 30
0
 11
-266.887773987954
 21
-128.02981334101
 31
0
  0
LINE
  8
1
 62
2
 10
-265.9544406546206
 20
-125.77981334101
 30
0
 11
-266.6211073212872
 21
-126.82981334101
 31
0
  0
LINE
  8
1
 62
2
 10
-265.6877739879539
 20
-126.67981334101
 30
0
 11
-266.4877739879539
 21
-128.17981334101
 31
0
  0
LINE
  8
1
 62
2
 10
-266.4877739879539
 20
-128.17981334101
 30
0
 11
-266.887773987954
 21
-128.62981334101
 31
0
  0
LINE
  8
1
 62
2
 10
-266.2211073212873
 20
-127.72981334101
 30
0
 11
-266.2211073212873
 21
-130.12981334101
 31
0
  0
LINE
  8
1
 62
2
 10
-265.5544406546206
 20
-126.07981334101
 30
0
 11
-264.3544406546206
 21
-126.07981334101
 31
0
  0
LINE
  8
1
 62
2
 10
-265.6877739879539
 20
-127.27981334101
 30
0
 11
-264.0877739879539
 21
-127.27981334101
 31
0
  0
LINE
  8
1
 62
2
 10
-264.7544406546206
 20
-127.27981334101
 30
0
 11
-264.7544406546206
 21
-129.82981334101
 31
0
  0
LINE
  8
1
 62
2
 10
-264.7544406546206
 20
-129.82981334101
 30
0
 11
-264.887773987954
 21
-130.12981334101
 31
0
  0
LINE
  8
1
 62
2
 10
-264.887773987954
 20
-130.12981334101
 30
0
 11
-265.2877739879539
 21
-130.12981334101
 31
0
  0
LINE
  8
1
 62
2
 10
-263.5544406546206
 20
-125.47981334101
 30
0
 11
-263.0744406546206
 21
-126.43981334101
 31
0
  0
LINE
  8
1
 62
2
 10
-263.0744406546206
 20
-126.43981334101
 30
0
 11
-262.8344406546206
 21
-127.39981334101
 31
0
  0
LINE
  8
1
 62
2
 10
-262.8344406546206
 20
-127.39981334101
 30
0
 11
-262.8344406546206
 21
-128.35981334101
 31
0
  0
LINE
  8
1
 62
2
 10
-262.8344406546206
 20
-128.35981334101
 30
0
 11
-263.0744406546206
 21
-129.31981334101
 31
0
  0
LINE
  8
1
 62
2
 10
-263.0744406546206
 20
-129.31981334101
 30
0
 11
-263.5544406546206
 21
-130.27981334101
 31
0
  0
LINE
  8
1
 62
7
 10
-137.4131847604382
 20
-116.4316425428328
 30
0
 11
-135.5373695429757
 21
-113.182635280577
 31
0
  0
ARC
  8
0
 62
7
 10
-196.8131850457384
 20
-5.881642542833006
 30
0
 40
1
 50
180
 51
270
  0
ARC
  8
0
 62
7
 10
-187.3131850457384
 20
-5.881642542833006
 30
0
 40
1
 50
270
 51
0
  0
ARC
  8
0
 62
7
 10
-172.4131847604382
 20
104.3374567731544
 30
0
 40
33.49999999999996
 50
237.4990624001807
 51
226.6410191881302
  0
ARC
  8
0
 62
7
 10
-198.3131847604382
 20
103.5374567731545
 30
0
 40
0.5
 50
180
 51
270
  0
ARC
  8
0
 62
7
 10
-198.3131847604382
 20
109.5374567731545
 30
0
 40
0.5
 50
90
 51
180
  0
ARC
  8
0
 62
7
 10
-196.8131847604382
 20
109.5374567731545
 30
0
 40
0.5
 50
0
 51
90
  0
ARC
  8
0
 62
7
 10
-196.8131847604382
 20
103.5374567731545
 30
0
 40
0.5
 50
270
 51
0
  0
ARC
  8
0
 62
7
 10
-185.4131847604382
 20
127.4296632506543
 30
0
 40
1.000000000000119
 50
119.3777923833969
 51
180
  0
ARC
  8
0
 62
7
 10
-172.4131847604382
 20
104.3374567731544
 30
0
 40
27.50000000000003
 50
240.6222076165999
 51
119.3777923834002
  0
ARC
  8
0
 62
7
 10
-185.4131847604382
 20
81.24525029565437
 30
0
 40
1
 50
180
 51
240.6222076165999
  0
ARC
  8
1
 62
7
 10
-172.4131847604382
 20
104.3374567731544
 30
0
 40
36.00000000000001
 50
240.0000014240824
 51
230.2909833546617
  0
ARC
  8
1
 62
7
 10
-172.4131847604382
 20
104.3374567731544
 30
0
 40
42.4999999999998
 50
0
 51
237.2362376691331
  0
ARC
  8
1
 62
7
 10
-172.4131847604382
 20
104.3374567731544
 30
0
 40
44.99999999999981
 50
246.4218225983032
 51
239.2621312618039
  0
ARC
  8
1
 62
7
 10
-172.4131847604382
 20
104.3374567731544
 30
0
 40
46.49999999999997
 50
184.9347679805115
 51
240.3550630912724
  0
ARC
  8
1
 62
7
 10
-172.4131847604382
 20
104.3374567731544
 30
0
 40
34.00000000000001
 50
238.0342827884439
 51
227.431545694654
  0
ARC
  8
1
 62
7
 10
-172.4131847604382
 20
104.3374567731544
 30
0
 40
42.49999999999986
 50
244.9423857349046
 51
0
  0
ARC
  8
1
 62
7
 10
-172.4131847604382
 20
104.3374567731544
 30
0
 40
46.49999999999995
 50
247.2260286348779
 51
263.4204070550224
  0
ARC
  8
1
 62
7
 10
-172.4131847604382
 20
104.3374567731544
 30
0
 40
46.49999999999989
 50
96.57959294497765
 51
175.0652320194886
  0
ARC
  8
1
 62
7
 10
-172.4131847604382
 20
104.3374567731544
 30
0
 40
46.4999999999999
 50
6.579592944977645
 51
83.42040705502235
  0
ARC
  8
1
 62
7
 10
-172.4131847604382
 20
104.3374567731544
 30
0
 40
46.49999999999997
 50
276.5795929449776
 51
353.4204070550223
  0
ARC
  8
1
 62
7
 10
-276.8032694121314
 20
80.8790847532273
 30
0
 40
3.637011304445986
 50
61.72308794602466
 51
173.0017808099917
  0
ARC
  8
1
 62
7
 10
-264.1844282051154
 20
104.3374567731544
 30
0
 40
22.99999999999999
 50
241.7230879460254
 51
261.1100561315369
  0
ARC
  8
1
 62
7
 10
-264.1844282051154
 20
104.3374567731544
 30
0
 40
22.99999999999991
 50
98.88994386846316
 51
118.2769120539746
  0
ARC
  8
1
 62
7
 10
-276.8032694121314
 20
127.795828793081
 30
0
 40
3.637011304445744
 50
186.9982191900021
 51
298.2769120539791
  0
ARC
  8
1
 62
7
 10
-191.6631841904133
 20
45.95329147752878
 30
0
 40
1.440457371210343
 50
209.7983142989893
 51
330.2016857010102
  0
ARC
  8
1
 62
7
 10
-191.6631841904133
 20
44.52162541857982
 30
0
 40
1.440457371210314
 50
29.79831429898961
 51
150.201685701011
  0
ARC
  8
1
 62
7
 10
-194.1631846001633
 20
45.95329147752878
 30
0
 40
1.440457371210244
 50
209.7983142989915
 51
330.2016857010102
  0
ARC
  8
0
 62
7
 10
-187.4131847603383
 20
124.5374567612543
 30
0
 40
1
 50
0
 51
90
  0
ARC
  8
0
 62
7
 10
-190.4755766285383
 20
124.5374567612543
 30
0
 40
1
 50
90
 51
135.0991278439967
  0
ARC
  8
0
 62
7
 10
-187.4131847603383
 20
86.53745676125431
 30
0
 40
1
 50
270
 51
0
  0
ARC
  8
0
 62
7
 10
-172.4131847603383
 20
106.5374567612543
 30
0
 40
26.49999999999993
 50
135.0991278439999
 51
143.5062334001999
  0
ARC
  8
0
 62
7
 10
-192.9131847603383
 20
121.7032076493543
 30
0
 40
0.9999999999999346
 50
143.5062334001948
 51
180
  0
ARC
  8
0
 62
7
 10
-196.9131847603383
 20
86.53745676125431
 30
0
 40
1
 50
180
 51
270
  0
ARC
  8
0
 62
2
 10
-191.0834230244383
 20
113.1349150979543
 30
0
 40
0.5973220339834582
 50
84.76172254259333
 51
135.0967903160914
  0
ARC
  8
0
 62
2
 10
-191.0677290031383
 20
111.7185416567543
 30
0
 40
0.5908259575681049
 50
105.9403289209853
 51
183.6867956839985
  0
ARC
  8
0
 62
2
 10
-190.5624138428383
 20
111.6199523566543
 30
0
 40
0.6925394413759197
 50
224.7756334802984
 51
275.0879152808975
  0
ARC
  8
0
 62
2
 10
-190.5624133448383
 20
113.0053219338543
 30
0
 40
0.6925396354065773
 50
224.7755911531027
 51
275.0878724808974
  0
ARC
  8
0
 62
2
 10
-190.9381181055383
 20
114.3527060084543
 30
0
 40
0.4480224476422375
 50
265.7820526560994
 51
320.9560264777861
  0
ARC
  8
0
 62
2
 10
-191.6642850531382
 20
114.5021142997543
 30
0
 40
0.2383846634593186
 50
38.97350153453
 51
94.28802074319702
  0
ARC
  8
0
 62
2
 10
-190.9702606497383
 20
114.4944875003543
 30
0
 40
0.2782638796938211
 50
90.16673599479999
 51
145.512232515194
  0
ARC
  8
0
 62
2
 10
-190.9402793382383
 20
114.4760496286543
 30
0
 40
0.2982940176546611
 50
41.57426088840673
 51
95.9248497803932
  0
ARC
  8
1
 62
7
 10
-176.9131847604383
 20
-75.12695874380383
 30
0
 40
2.879999999999996
 50
0
 51
180
  0
ARC
  8
1
 62
7
 10
-176.9131847604383
 20
-75.12695874380383
 30
0
 40
4.499999999999922
 50
1.340988589831791
 51
180
  0
ARC
  8
1
 62
7
 10
-176.9131847604383
 20
-78.12695874380383
 30
0
 40
4.5
 50
180
 51
0
  0
ARC
  8
1
 62
7
 10
-176.9131847604383
 20
-78.12695874380383
 30
0
 40
2.880000000000109
 50
180
 51
0
  0
ARC
  8
1
 62
7
 10
-187.2316061869118
 20
-78.72695874380374
 30
0
 40
2.099999999999909
 50
270
 51
90
  0
ARC
  8
1
 62
7
 10
-188.4316061869117
 20
-78.72695874380374
 30
0
 40
2.099999999999913
 50
191.9689272668002
 51
270
  0
ARC
  8
1
 62
7
 10
-188.4316061869117
 20
-78.72695874380374
 30
0
 40
3.900000000000104
 50
201.2900331220163
 51
270
  0
ARC
  8
1
 62
7
 10
-187.2316061869118
 20
-78.72695874380374
 30
0
 40
3.899999999999864
 50
270
 51
84.02303072492708
  0
ARC
  8
1
 62
7
 10
-255.5300858041087
 20
-55.36870378261858
 30
0
 40
45.73187746299948
 50
245.1708579711555
 51
251.170332626092
  0
ARC
  8
1
 62
7
 10
-140.4131847604382
 20
-101.1316425428328
 30
0
 40
12.99999999999998
 50
277.7413584794509
 51
300.9216009524902
  0
ARC
  8
1
 62
7
 10
-140.4131847604382
 20
-101.1316425428328
 30
0
 40
13.00000000000004
 50
300.9216009524902
 51
321.1541360226468
  0
ARC
  8
1
 62
7
 10
-166.1295808227444
 20
137.4903218504078
 30
0
 40
252.9999999999999
 50
268.5757393657277
 51
276.2492324798988
  0
ARC
  8
1
 62
7
 10
-140.4131847604382
 20
-101.1316425428328
 30
0
 40
13.00000000000002
 50
321.1541360226468
 51
3.519707971116735
  0
ARC
  8
1
 62
7
 10
-178.7265983346956
 20
137.4898201569228
 30
0
 40
252.9999999999999
 50
263.8048613424429
 51
271.4288244001414
  0
ARC
  8
1
 62
7
 10
-156.3575107385631
 20
235.4551251624697
 30
0
 40
353.0000000000001
 50
251.170332626092
 51
261.9109106565355
  0
ARC
  8
1
 62
7
 10
-264.1844282051152
 20
-76.43164254283281
 30
0
 40
23.00000000000001
 50
90
 51
120.9796934188507
  0
ARC
  8
1
 62
7
 10
-276.4131847604382
 20
-100.5035662945949
 30
0
 40
4.000000000000608
 50
65.17085797115459
 51
180
  0
ARC
  8
1
 62
7
 10
-172.4131847604382
 20
-58.43164254283279
 30
0
 40
44.9935709365136
 50
15.88866034837856
 51
23.29686377449362
  0
ARC
  8
1
 62
7
 10
-172.4131847604382
 20
-58.43164254283279
 30
0
 40
44.99357093651361
 50
156.7031362255064
 51
168.461536953697
  0
ARC
  8
1
 62
7
 10
-217.4122133962194
 20
-39.05491900794836
 30
0
 40
4.000000000000095
 50
336.7031362255042
 51
51.33563421492431
  0
ARC
  8
1
 62
7
 10
-127.414156124657
 20
-39.05491900794836
 30
0
 40
3.999999999999936
 50
128.6643657850759
 51
203.2968637744959
  0
ARC
  8
1
 62
2
 10
-95.27480866425944
 20
-67.3199880366427
 30
0
 40
37.89373851055664
 50
154.0126827103338
 51
209.658866770758
  0
ARC
  8
1
 62
2
 10
-259.2428959553706
 20
-91.07235374980333
 30
0
 40
55.99999999999993
 50
2.06605614432196
 51
39.47845321976945
  0
CIRCLE
  8
0
 62
7
 10
-192.8131850457384
 20
-1.881642542833006
 30
0
 40
2.5
  0
CIRCLE
  8
0
 62
7
 10
-192.8131850457384
 20
-1.881642542833006
 30
0
 40
3.100000000000108
  0
CIRCLE
  8
0
 62
7
 10
-192.8131850457384
 20
-1.881642542833006
 30
0
 40
2.600000000000108
  0
CIRCLE
  8
1
 62
2
 10
-220.6923931867542
 20
-49.82343464278588
 30
0
 40
1
  0
ARC
  8
1
 62
7
 10
-218.9131847604384
 20
-15.38164251673281
 30
0
 40
1.500000000000028
 50
270
 51
0
  0
ARC
  8
1
 62
7
 10
-224.9131847604384
 20
-11.88164251673281
 30
0
 40
1.5
 50
90
 51
180
  0
ARC
  8
1
 62
7
 10
-225.4131847604384
 20
-31.88164251673284
 30
0
 40
1
 50
180
 51
270
  0
ARC
  8
1
 62
7
 10
-119.4131847604384
 20
-17.88164251673284
 30
0
 40
1
 50
0
 51
90
  0
ARC
  8
1
 62
7
 10
-119.4131847604384
 20
-31.88164251673284
 30
0
 40
1
 50
270
 51
0
  0
ARC
  8
1
 62
7
 10
-126.4131847604384
 20
-15.88164251673284
 30
0
 40
1
 50
180
 51
270
  0
ARC
  8
1
 62
7
 10
-175.4131847604382
 20
-31.88164251673281
 30
0
 40
1
 50
180
 51
270
  0
ARC
  8
1
 62
7
 10
-175.4131847604382
 20
-17.88164251673281
 30
0
 40
1
 50
90
 51
180
  0
ARC
  8
1
 62
7
 10
-169.4131847604382
 20
-17.88164251673281
 30
0
 40
1
 50
0
 51
90
  0
ARC
  8
1
 62
7
 10
-169.4131847604382
 20
-31.88164251673281
 30
0
 40
1
 50
270
 51
0
  0
ARC
  8
1
 62
7
 10
-218.5867702828989
 20
98.8374567731544
 30
0
 40
1.500000000000052
 50
6.792822055927185
 51
90
  0
ARC
  8
1
 62
7
 10
-218.5867702828989
 20
109.8374567731544
 30
0
 40
1.5
 50
270
 51
353.2071779440734
  0
ARC
  8
1
 62
7
 10
-224.9131847604382
 20
106.8374567731544
 30
0
 40
1.5
 50
90
 51
180
  0
ARC
  8
1
 62
7
 10
-224.9131847604382
 20
101.8374567731544
 30
0
 40
1.5
 50
180
 51
270
  0
ARC
  8
1
 62
7
 10
-174.9131847604382
 20
156.8374567731544
 30
0
 40
1.5
 50
90
 51
180
  0
ARC
  8
1
 62
7
 10
-169.9131847604382
 20
156.8374567731544
 30
0
 40
1.5
 50
0
 51
90
  0
ARC
  8
1
 62
7
 10
-166.9131847604382
 20
152.0213114831083
 30
0
 40
1.5
 50
180
 51
263.4204070550226
  0
ARC
  8
1
 62
7
 10
-177.9131847604382
 20
152.0213114831083
 30
0
 40
1.500000000000034
 50
276.5795929449775
 51
0
  0
ARC
  8
1
 62
7
 10
-124.7293300504844
 20
109.8374567731544
 30
0
 40
1.499999999999936
 50
186.5795929449779
 51
270
  0
ARC
  8
1
 62
7
 10
-119.9131847604382
 20
106.8374567731544
 30
0
 40
1.5
 50
0
 51
90
  0
ARC
  8
1
 62
7
 10
-174.9131847604382
 20
51.8374567731544
 30
0
 40
1.5
 50
180
 51
270
  0
ARC
  8
1
 62
7
 10
-169.9131847604382
 20
51.8374567731544
 30
0
 40
1.5
 50
270
 51
0
  0
ARC
  8
1
 62
7
 10
-166.9131847604382
 20
56.6536020632004
 30
0
 40
1.500000000000056
 50
96.57959294497738
 51
180
  0
ARC
  8
1
 62
7
 10
-177.9131847604382
 20
56.6536020632004
 30
0
 40
1.5
 50
0
 51
83.42040705502261
  0
ARC
  8
1
 62
7
 10
-124.7293300504844
 20
98.8374567731544
 30
0
 40
1.5
 50
90
 51
173.4204070550221
  0
ARC
  8
1
 62
7
 10
-119.9131847604382
 20
101.8374567731544
 30
0
 40
1.5
 50
270
 51
0
  0
ARC
  8
1
 62
7
 10
-207.6290274143368
 20
146.5848759390142
 30
0
 40
9.999999999999924
 50
278.8899438684637
 51
280.885186584817
  0
ARC
  8
1
 62
7
 10
-88.41318476043841
 20
126.8574254494588
 30
0
 40
4.000000000000132
 50
254.9035379094048
 51
0
  0
ARC
  8
1
 62
7
 10
-88.41318476043841
 20
81.8174880968499
 30
0
 40
4
 50
0
 51
105.0964620905948
  0
ARC
  8
1
 62
7
 10
-207.6290274143368
 20
146.5848759390142
 30
0
 40
9.999999999999924
 50
278.8899438684637
 51
280.885186584817
  0
ARC
  8
1
 62
7
 10
-207.629027414337
 20
62.09003760729451
 30
0
 40
9.999999999999931
 50
79.11481341518311
 51
81.11005613153648
  0
ARC
  8
1
 62
7
 10
-276.4131847604382
 20
-52.7316425428328
 30
0
 40
4
 50
180
 51
275.5933398251892
  0
ARC
  8
1
 62
7
 10
-221.3964179630783
 20
-48.4316425428328
 30
0
 40
4.999999999999993
 50
270
 51
348.4615369536961
  0
ARC
  8
1
 62
7
 10
-124.3295926474257
 20
-44.74495906970289
 30
0
 40
4.999999999999889
 50
195.8886603483812
 51
257.0498660790551
  0
ARC
  8
1
 62
7
 10
-88.41318476043824
 20
-54.03009497885678
 30
0
 40
3.999999999999901
 50
257.0498660790535
 51
0
  0
ARC
  8
1
 62
7
 10
-125.4131847604382
 20
-90.32222802232077
 30
0
 40
2.000000000000004
 50
80.77011375627197
 51
180
  0
ARC
  8
1
 62
7
 10
-88.41318476043824
 20
-98.36096221411616
 30
0
 40
4
 50
0
 51
80.7701137562717
  0
ARC
  8
1
 62
7
 10
-170.4131847604382
 20
-115.9733244786921
 30
0
 40
0.5000000000000687
 50
90.45204239782385
 51
180
  0
ARC
  8
1
 62
7
 10
-174.4131847604382
 20
-115.9733244786921
 30
0
 40
0.5
 50
0
 51
89.5479576021729
  0
LINE
  8
1
 62
2
 10
-247.0493106442529
 20
-24.7158175942646
 30
0
 11
-304.485060280811
 21
-24.7158175942646
 31
0
  0
LINE
  8
1
 62
2
 10
-304.485060280811
 20
-24.7158175942646
 30
0
 11
-289.870123032043
 21
-51.73164254283281
 31
0
  0
LINE
  8
1
 62
2
 10
-292.0045859529094
 20
-49.47548674879576
 30
0
 11
-289.870123032043
 21
-51.73164254283281
 31
0
  0
LINE
  8
1
 62
2
 10
-290.5905442479307
 20
-48.71052284986808
 30
0
 11
-289.870123032043
 21
-51.73164254283281
 31
0
  0
LINE
  8
1
 62
2
 10
-251.5821912995573
 20
-124.044940098565
 30
0
 11
-230.1338067835593
 21
-124.044940098565
 31
0
  0
LINE
  8
1
 62
2
 10
-230.1338067835593
 20
-124.044940098565
 30
0
 11
-223.5061102355128
 21
-81.03452875147127
 31
0
  0
LINE
  8
1
 62
2
 10
-223.1685325918052
 20
-84.12195684974162
 30
0
 11
-223.5061102355128
 21
-81.03452875147127
 31
0
  0
LINE
  8
1
 62
2
 10
-224.7574734694475
 20
-83.87710873878507
 30
0
 11
-223.5061102355128
 21
-81.03452875147127
 31
0
  0
LINE
  8
1
 62
2
 10
-285.5306109927551
 20
-124.044940098565
 30
0
 11
-268.265066699956
 21
-124.044940098565
 31
0
  0
LINE
  8
1
 62
2
 10
-268.265066699956
 20
-124.044940098565
 30
0
 11
-232.5864461820054
 21
-80.55790368614879
 31
0
  0
LINE
  8
1
 62
2
 10
-233.8678442553652
 20
-83.38707139151912
 30
0
 11
-232.5864461820054
 21
-80.55790368614879
 31
0
  0
LINE
  8
1
 62
2
 10
-235.1107533185806
 20
-82.36733575388614
 30
0
 11
-232.5864461820054
 21
-80.55790368614879
 31
0
  0
DIMENSION
  8
1
  6
CONTINUOUS
 62
2
  2
*D0
  3
DMST_1
 10
-42.53145798773107
 20
50.3374567731544
 30
0
 11
-44.83145798773106
 21
104.3374567731544
 31
0
 12
0
 22
0
 32
0
 70
0
 13
-169.9131847604382
 23
158.3374567731544
 33
0
 14
-169.9131847604382
 24
50.3374567731544
 34
0
 50
90
 53
0
  0
DIMENSION
  8
1
  6
CONTINUOUS
 62
2
  2
*D1
  3
DMST_1
 10
-67.41318476043819
 20
-135.803196133769
 30
0
 11
-172.6864810311621
 21
-133.503196133769
 31
0
 12
0
 22
0
 32
0
 70
0
 13
-297.4131847604382
 23
-99.63164254283278
 33
0
 14
-67.41318476043824
 24
-99.63164254283278
 34
0
 53
0
  0
DIMENSION
  8
1
  6
CONTINUOUS
 62
2
  2
*D2
  3
DMST_1
 10
-107.005028963789
 20
-116.4316425428328
 30
0
 11
-109.886848475781
 21
-100.123839326616
 31
0
 12
0
 22
0
 32
0
 70
0
 13
-106.023638432966
 23
-76.43164254283282
 33
0
 14
-137.4131847604382
 24
-116.4316425428328
 34
0
 50
90
 53
0
  0
DIMENSION
  8
1
  6
CONTINUOUS
 62
2
  2
*D3
  3
DMST_2
 10
-297.4131847604382
 20
-110.953652075691
 30
0
 11
-288.9131847604382
 21
-108.353652075691
 31
0
 12
0
 22
0
 32
0
 70
0
 13
-280.4131847604382
 23
-101.1316425428328
 33
0
 14
-297.4131847604382
 24
-99.63164254283278
 34
0
 53
0
  0
DIMENSION
  8
1
  6
CONTINUOUS
 62
2
  2
*D4
  3
DMST_3
 10
-42.53145798773107
 20
-116.4316425428328
 30
0
 11
-45.13145798773107
 21
-56.40664267843291
 31
0
 12
0
 22
0
 32
0
 70
0
  1
120
 13
-188.1153226004384
 23
3.618357185966983
 33
0
 14
-137.4131847604382
 24
-116.4316425428328
 34
0
 50
90
 53
0
  0
ENDSEC
  0
EOF
