  0
SECTION
  2
HEADER
  9
$ACADVER
  1
AC1009
  9
$INSBASE
 10
0
 20
0
  9
$EXTMIN
 10
1234.73581926614
 20
269.4361641735479
  9
$EXTMAX
 10
1405.839844051618
 20
558.4899230702421
  9
$LIMMIN
 10
1234.73581926614
 20
269.4361641735479
  9
$LIMMAX
 10
1405.839844051618
 20
558.4899230702421
  9
$VIEWCTR
 10
10
 20
10
  9
$VIEWSIZE
 40
10
  9
$SNAPMODE
 70
0
  9
$SNAPUNIT
 10
1
 20
1
  9
$SNAPBASE
 10
0
 20
0
  9
$SNAPANG
 50
0
  9
$SNAPSTYLE
 70
0
  9
$SNAPISOPAIR
 70
0
  9
$GRIDMODE
 70
0
  9
$GRIDUNIT
 10
0
 20
0
  9
$ORTHOMODE
 70
0
  9
$REGENMODE
 70
1
  9
$FILLMODE
 70
1
  9
$QTEXTMODE
 70
0
  9
$DRAGMODE
 70
2
  9
$LTSCALE
 40
1
  9
$OSMODE
 70
0
  9
$ATTMODE
 70
1
  9
$TEXTSIZE
 40
3.5
  9
$TRACEWID
 40
0.5
  9
$TEXTSTYLE
  7
STANDARD
  9
$CLAYER
  8
0
  9
$CELTYPE
  6
BYLAYER
  9
$CECOLOR
 62
256
  9
$DIMSCALE
 40
1
  9
$DIMASZ
 40
0.18
  9
$DIMEXO
 40
0.0625
  9
$DIMDLI
 40
0.38
  9
$DIMRND
 40
0
  9
$DIMDLE
 40
0
  9
$DIMEXE
 40
0.18
  9
$DIMTP
 40
0
  9
$DIMTM
 40
0
  9
$DIMTXT
 40
0.18
  9
$DIMCEN
 40
0.09
  9
$DIMTSZ
 40
0
  9
$DIMTOL
 70
0
  9
$DIMLIM
 70
0
  9
$DIMTIH
 70
1
  9
$DIMTOH
 70
1
  9
$DIMSE1
 70
0
  9
$DIMSE2
 70
0
  9
$DIMTAD
 70
0
  9
$DIMZIN
 70
0
  9
$DIMBLK
  1

  9
$DIMASO
 70
1
  9
$DIMSHO
 70
1
  9
$DIMPOST
  1

  9
$DIMAPOST
  1

  9
$DIMALT
 70
0
  9
$DIMALTD
 70
2
  9
$DIMALTF
 40
25.4
  9
$DIMLFAC
 40
1
  9
$DIMTOFL
 70
0
  9
$DIMTVP
 40
0
  9
$DIMTIX
 70
0
  9
$DIMSOXD
 70
0
  9
$DIMSAH
 70
0
  9
$DIMBLK1
  1

  9
$DIMBLK2
  1

  9
$DIMSTYLE
  2
*UNNAMED
  9
$DIMCLRD
 70
0
  9
$DIMCLRE
 70
0
  9
$DIMCLRT
 70
0
  9
$DIMTFAC
 40
1
  9
$DIMGAP
 40
0.09
  9
$LUNITS
 70
2
  9
$LUPREC
 70
4
  9
$AXISMODE
 70
0
  9
$AXISUNIT
 10
0
 20
0
  9
$SKETCHINC
 40
0.1
  9
$FILLETRAD
 40
2
  9
$AUNITS
 70
0
  9
$AUPREC
 70
0
  9
$MENU
  1
ACAD
  9
$ELEVATION
 40
0
  9
$THICKNESS
 40
0
  9
$VIEWDIR
 10
0
 20
0
 30
1
  9
$LIMCHECK
 70
0
  9
$BLIPMODE
 70
1
  9
$CHAMFERA
 40
0
  9
$CHAMFERB
 40
0
  9
$FASTZOOM
 70
1
  9
$SKPOLY
 70
0
  9
$ANGBASE
 50
0
  9
$ANGDIR
 70
0
  9
$PDMODE
 70
0
  9
$PDSIZE
 40
0
  9
$PLINEWID
 40
0
  9
$COORDS
 70
2
  0
ENDSEC
  0
SECTION
  2
TABLES
  0
TABLE
  2
DIMSTYLE
 70
2
  0
DIMSTYLE
  2
DMST_1
 70
0
  3

  4

  5

  6

  7

 40
1
 41
3
 42
0.5
 43
7
 44
1
 45
0
 46
0
 47
0
 48
0
140
3
141
0
142
0
143
25.4
144
1
145
0
146
1
147
0.09
 71
0
 72
0
 73
0
 74
0
 75
0
 76
0
 77
1
 78
9
170
0
171
2
172
0
173
0
174
0
175
0
176
2
177
2
178
2
  0
DIMSTYLE
  2
DMST_2
 70
0
  3

  4

  5

  6

  7

 40
1
 41
3.2
 42
0.5
 43
7
 44
1.5
 45
0
 46
0
 47
0
 48
0
140
3.2
141
0
142
0
143
25.4
144
1
145
0
146
1
147
0.09
 71
0
 72
0
 73
0
 74
0
 75
0
 76
0
 77
1
 78
9
170
0
171
2
172
0
173
0
174
0
175
0
176
2
177
2
178
2
  0
ENDTAB
  0
TABLE
  2
LTYPE
 70
9
  0
LTYPE
  2
CONTINUOUS
 70
64
  3
Solid line
 72
65
 73
0
 40
0
  0
LTYPE
  2
BORDER
 70
64
  3
__ __ . __ __ .
 72
65
 73
6
 40
13.31168626497933
 49
3.803338932851239
 49
-1.901669466425619
 49
3.803338932851239
 49
-1.901669466425619
 49
0
 49
-1.901669466425619
  0
LTYPE
  2
CENTER
 70
64
  3
____ _ ____ _
 72
65
 73
4
 40
15.21335573140495
 49
9.508347332128096
 49
-1.901669466425619
 49
1.901669466425619
 49
-1.901669466425619
  0
LTYPE
  2
DASHDOT
 70
64
  3
__ . __ . __ .
 72
65
 73
4
 40
7.606677865702477
 49
3.803338932851239
 49
-1.901669466425619
 49
0
 49
-1.901669466425619
  0
LTYPE
  2
DASHED
 70
64
  3
__ __ __ __ __
 72
65
 73
2
 40
5.705008399276858
 49
3.803338932851239
 49
-1.901669466425619
  0
LTYPE
  2
DIVIDE
 70
64
  3
__ . . __ . . 
 72
65
 73
6
 40
9.508347332128096
 49
3.803338932851239
 49
-1.901669466425619
 49
0
 49
-1.901669466425619
 49
0
 49
-1.901669466425619
  0
LTYPE
  2
DOT
 70
64
  3
..............
 72
65
 73
4
 40
3.803338932851239
 49
0
 49
-1.901669466425619
 49
0
 49
-1.901669466425619
  0
LTYPE
  2
HIDDEN
 70
64
  3
_ _ _ _ _ _ _
 72
65
 73
2
 40
2.852504199638429
 49
1.901669466425619
 49
-0.9508347332128097
  0
LTYPE
  2
PHANTOM
 70
64
  3
_____ _ _ _____ _ _ 
 72
65
 73
6
 40
19.01669466425619
 49
9.508347332128096
 49
-1.901669466425619
 49
1.901669466425619
 49
-1.901669466425619
 49
1.901669466425619
 49
-1.901669466425619
  0
ENDTAB
  0
TABLE
  2
LAYER
 70
3
  0
LAYER
  2
0
 70
0
 62
7
  6
CONTINUOUS
  0
LAYER
  2
1
 70
0
 62
7
  6
CONTINUOUS
  0
ENDTAB
  0
TABLE
  2
STYLE
 70
4
  0
STYLE
  2
STANDARD
 70
0
 40
0
 41
1
 50
0
 71
0
 42
3.5
  3
txt
  4

  0
STYLE
  2
SIMPLEX
 70
0
 40
0
 41
1
 50
0
 71
0
 42
3.5
  3
simplex
  4

  0
STYLE
  2
COMPLEX
 70
0
 40
0
 41
1
 50
0
 71
0
 42
3.5
  3
complex
  4

  0
STYLE
  2
ITALIC
 70
0
 40
0
 41
1
 50
0
 71
0
 42
3.5
  3
italic
  4

  0
ENDTAB
  0
TABLE
  2
VIEW
 70
0
  0
ENDTAB
  0
ENDSEC
  0
SECTION
  2
BLOCKS
  0
BLOCK
  8
1
  2
*D0
 70
1
 10
0
 20
0
 30
0
  0
LINE
  8
1
 62
2
 10
1385.347806489844
 20
348.8583804669722
 30
0
 11
1385.347806489844
 21
445.3583804520723
 31
0
  0
LINE
  8
1
 62
2
 10
1304.430975997117
 20
445.3583804520723
 30
0
 11
1386.347806489844
 21
445.3583804520723
 31
0
  0
LINE
  8
1
 62
2
 10
1345.233113550817
 20
348.8583804669722
 30
0
 11
1386.347806489844
 21
348.8583804669722
 31
0
  0
LINE
  8
1
 62
2
 10
1385.347806489844
 20
445.3583804520723
 30
0
 11
1386.157806489844
 21
442.3583804520723
 31
0
  0
LINE
  8
1
 62
2
 10
1385.347806489844
 20
445.3583804520723
 30
0
 11
1384.537806489844
 21
442.3583804520723
 31
0
  0
LINE
  8
1
 62
2
 10
1385.347806489844
 20
348.8583804669722
 30
0
 11
1384.537806489844
 21
351.8583804669722
 31
0
  0
LINE
  8
1
 62
2
 10
1385.347806489844
 20
348.8583804669722
 30
0
 11
1386.157806489844
 21
351.8583804669722
 31
0
  0
TEXT
  8
1
 62
2
 10
1384.547806489844
 20
393.1064566708755
 30
0
 40
3
  1
(97)
 50
90
 41
0.9
 51
15
  0
ENDBLK
  8
0
  0
BLOCK
  8
1
  2
*D1
 70
1
 10
0
 20
0
 30
0
  0
LINE
  8
1
 62
2
 10
1385.347806489844
 20
465.6675021241722
 30
0
 11
1385.347806489844
 21
554.6675072827721
 31
0
  0
LINE
  8
1
 62
2
 10
1323.233113576917
 20
554.6675072827721
 30
0
 11
1386.347806489844
 21
554.6675072827721
 31
0
  0
LINE
  8
1
 62
2
 10
1323.233113576917
 20
465.6675021241722
 30
0
 11
1386.347806489844
 21
465.6675021241722
 31
0
  0
LINE
  8
1
 62
2
 10
1385.347806489844
 20
554.6675072827721
 30
0
 11
1386.157806489844
 21
551.6675072827721
 31
0
  0
LINE
  8
1
 62
2
 10
1385.347806489844
 20
554.6675072827721
 30
0
 11
1384.537806489844
 21
551.6675072827721
 31
0
  0
LINE
  8
1
 62
2
 10
1385.347806489844
 20
465.6675021241722
 30
0
 11
1384.537806489844
 21
468.6675021241722
 31
0
  0
LINE
  8
1
 62
2
 10
1385.347806489844
 20
465.6675021241722
 30
0
 11
1386.157806489844
 21
468.6675021241722
 31
0
  0
TEXT
  8
1
 62
2
 10
1384.52950588174
 20
529.4051204610983
 30
0
 40
3
  1
89
 50
90
 41
0.9
 51
15
  0
ENDBLK
  8
0
  0
BLOCK
  8
1
  2
*D2
 70
1
 10
0
 20
0
 30
0
  0
LINE
  8
1
 62
2
 10
1370.7045806478
 20
348.8583804669722
 30
0
 11
1370.7045806478
 21
371.8583804669722
 31
0
  0
LINE
  8
1
 62
2
 10
1345.233113550817
 20
348.8583804669722
 30
0
 11
1371.7045806478
 21
348.8583804669722
 31
0
  0
LINE
  8
1
 62
2
 10
1375.00974264923
 20
371.8583804669722
 30
0
 11
1369.7045806478
 21
371.8583804669722
 31
0
  0
LINE
  8
1
 62
2
 10
1370.7045806478
 20
371.8583804669722
 30
0
 11
1371.5145806478
 21
368.8583804669722
 31
0
  0
LINE
  8
1
 62
2
 10
1370.7045806478
 20
371.8583804669722
 30
0
 11
1369.8945806478
 21
368.8583804669722
 31
0
  0
LINE
  8
1
 62
2
 10
1370.7045806478
 20
348.8583804669722
 30
0
 11
1369.8945806478
 21
351.8583804669722
 31
0
  0
LINE
  8
1
 62
2
 10
1370.7045806478
 20
348.8583804669722
 30
0
 11
1371.5145806478
 21
351.8583804669722
 31
0
  0
TEXT
  8
1
 62
2
 10
1369.9045806478
 20
352.6218079497383
 30
0
 40
3
  1
23
 50
90
 41
0.9
 51
15
  0
ENDBLK
  8
0
  0
BLOCK
  8
1
  2
*D3
 70
1
 10
0
 20
0
 30
0
  0
LINE
  8
1
 62
2
 10
1237.233113550817
 20
334.9611321926297
 30
0
 11
1402.233113550817
 21
334.9611321926297
 31
0
  0
LINE
  8
1
 62
2
 10
1237.233113550817
 20
359.9583804669724
 30
0
 11
1237.233113550817
 21
333.9611321926297
 31
0
  0
LINE
  8
1
 62
2
 10
1402.233113550817
 20
359.9583804669724
 30
0
 11
1402.233113550817
 21
333.9611321926297
 31
0
  0
LINE
  8
1
 62
2
 10
1237.233113550817
 20
334.9611321926297
 30
0
 11
1240.233113550817
 21
335.7711321926297
 31
0
  0
LINE
  8
1
 62
2
 10
1237.233113550817
 20
334.9611321926297
 30
0
 11
1240.233113550817
 21
334.1511321926297
 31
0
  0
LINE
  8
1
 62
2
 10
1402.233113550817
 20
334.9611321926297
 30
0
 11
1399.233113550817
 21
334.1511321926297
 31
0
  0
LINE
  8
1
 62
2
 10
1402.233113550817
 20
334.9611321926297
 30
0
 11
1399.233113550817
 21
335.7711321926297
 31
0
  0
TEXT
  8
1
 62
2
 10
1316.18118976217
 20
335.7611321926297
 30
0
 40
3
  1
165
 41
0.9
 51
15
  0
ENDBLK
  8
0
  0
BLOCK
  8
1
  2
*D4
 70
1
 10
0
 20
0
 30
0
  0
LINE
  8
1
 62
2
 10
1237.233113550817
 20
348.8583804669722
 30
0
 11
1248.233113550817
 21
348.8583804669722
 31
0
  0
LINE
  8
1
 62
2
 10
1237.233113550817
 20
359.9583804669724
 30
0
 11
1237.233113550817
 21
347.3583804669722
 31
0
  0
LINE
  8
1
 62
2
 10
1248.233113550817
 20
358.1378804669722
 30
0
 11
1248.233113550817
 21
347.3583804669722
 31
0
  0
LINE
  8
1
 62
2
 10
1237.233113550817
 20
348.8583804669722
 30
0
 11
1240.433113550817
 21
349.7223804669721
 31
0
  0
LINE
  8
1
 62
2
 10
1237.233113550817
 20
348.8583804669722
 30
0
 11
1240.433113550817
 21
347.9943804669722
 31
0
  0
LINE
  8
1
 62
2
 10
1248.233113550817
 20
348.8583804669722
 30
0
 11
1245.033113550817
 21
347.9943804669722
 31
0
  0
LINE
  8
1
 62
2
 10
1248.233113550817
 20
348.8583804669722
 30
0
 11
1245.033113550817
 21
349.7223804669721
 31
0
  0
TEXT
  8
1
 62
2
 10
1240.864394842927
 20
349.8583804669722
 30
0
 40
3.2
  1
11
 41
0.9
 51
15
  0
ENDBLK
  8
0
  0
ENDSEC
  0
SECTION
  2
ENTITIES
  0
POLYLINE
  8
0
 62
7
 66
1
  0
VERTEX
  8
0
 10
1296.733113506117
 20
456.7066281878722
 30
0
  0
VERTEX
  8
0
 10
1296.766343095617
 20
456.7336151220723
 30
0
  0
VERTEX
  8
0
 10
1296.799557783917
 20
456.7609689974722
 30
0
  0
VERTEX
  8
0
 10
1296.832757571017
 20
456.7886683934722
 30
0
  0
VERTEX
  8
0
 10
1296.865940594417
 20
456.8166890957722
 30
0
  0
VERTEX
  8
0
 10
1296.899108716517
 20
456.8450087526722
 30
0
  0
VERTEX
  8
0
 10
1296.932256349617
 20
456.8736050122723
 30
0
  0
VERTEX
  8
0
 10
1296.965387218917
 20
456.9024545916723
 30
0
  0
VERTEX
  8
0
 10
1297.001805656817
 20
456.9344539039723
 30
0
  0
VERTEX
  8
0
 10
1297.038199880417
 20
456.9667028107722
 30
0
  0
VERTEX
  8
0
 10
1297.074568026917
 20
456.9991696470722
 30
0
  0
VERTEX
  8
0
 10
1297.110906371217
 20
457.0318236791723
 30
0
  0
VERTEX
  8
0
 10
1297.147216775717
 20
457.0646360361723
 30
0
  0
VERTEX
  8
0
 10
1297.201190644217
 20
457.1136887961723
 30
0
  0
VERTEX
  8
0
 10
1297.255093732217
 20
457.1629231640723
 30
0
  0
VERTEX
  8
0
 10
1297.308920451717
 20
457.2122376256722
 30
0
  0
VERTEX
  8
0
 10
1297.362665214817
 20
457.2615325295723
 30
0
  0
VERTEX
  8
0
 10
1297.416326158917
 20
457.3107082241722
 30
0
  0
VERTEX
  8
0
 10
1297.469895833417
 20
457.3596641265722
 30
0
  0
VERTEX
  8
0
 10
1297.505843022217
 20
457.3923889392722
 30
0
  0
VERTEX
  8
0
 10
1297.541745507417
 20
457.4249386632723
 30
0
  0
VERTEX
  8
0
 10
1297.577603289217
 20
457.4572834962722
 30
0
  0
VERTEX
  8
0
 10
1297.613416367517
 20
457.4893917733722
 30
0
  0
VERTEX
  8
0
 10
1297.649179154317
 20
457.5212346234723
 30
0
  0
VERTEX
  8
0
 10
1297.677245491417
 20
457.5460469194723
 30
0
  0
VERTEX
  8
0
 10
1297.705282026217
 20
457.5706617751723
 30
0
  0
VERTEX
  8
0
 10
1297.733285033417
 20
457.5950633579723
 30
0
  0
VERTEX
  8
0
 10
1297.761258238217
 20
457.6192386293723
 30
0
  0
VERTEX
  8
0
 10
1297.789196052817
 20
457.6431717568722
 30
0
  0
VERTEX
  8
0
 10
1297.817102202517
 20
457.6668469079722
 30
0
  0
VERTEX
  8
0
 10
1297.844974824517
 20
457.6902519756723
 30
0
  0
VERTEX
  8
0
 10
1297.872812056217
 20
457.7133701958722
 30
0
  0
VERTEX
  8
0
 10
1297.900613897717
 20
457.7361866676723
 30
0
  0
VERTEX
  8
0
 10
1297.928378486317
 20
457.7586883523723
 30
0
  0
VERTEX
  8
0
 10
1297.955614083717
 20
457.7804654681722
 30
0
  0
VERTEX
  8
0
 10
1297.982812428217
 20
457.8019110330723
 30
0
  0
VERTEX
  8
0
 10
1298.009975382417
 20
457.8230082833723
 30
0
  0
VERTEX
  8
0
 10
1298.037101083717
 20
457.8437460431723
 30
0
  0
VERTEX
  8
0
 10
1298.062120133317
 20
457.8625662096723
 30
0
  0
VERTEX
  8
0
 10
1298.087107518017
 20
457.8810557567722
 30
0
  0
VERTEX
  8
0
 10
1298.112061375117
 20
457.8992044397722
 30
0
  0
VERTEX
  8
0
 10
1298.136981704517
 20
457.9169992202723
 30
0
  0
VERTEX
  8
0
 10
1298.161868506417
 20
457.9344307848722
 30
0
  0
VERTEX
  8
0
 10
1298.181396478117
 20
457.9478651129722
 30
0
  0
VERTEX
  8
0
 10
1298.200905823417
 20
457.9610619538722
 30
0
  0
VERTEX
  8
0
 10
1298.220390954317
 20
457.9740175821722
 30
0
  0
VERTEX
  8
0
 10
1298.239855596117
 20
457.9867254787723
 30
0
  0
VERTEX
  8
0
 10
1298.259297886217
 20
457.9991809868723
 30
0
  0
VERTEX
  8
0
 10
1298.278717824517
 20
458.0113775872723
 30
0
  0
VERTEX
  8
0
 10
1298.298113548417
 20
458.0233115547723
 30
0
  0
VERTEX
  8
0
 10
1298.317488783317
 20
458.0349763699722
 30
0
  0
VERTEX
  8
0
 10
1298.336839803717
 20
458.0463673764722
 30
0
  0
VERTEX
  8
0
 10
1298.356166609817
 20
458.0574789860722
 30
0
  0
VERTEX
  8
0
 10
1298.375126474817
 20
458.0681156211722
 30
0
  0
VERTEX
  8
0
 10
1298.394062125417
 20
458.0784719281722
 30
0
  0
VERTEX
  8
0
 10
1298.412975424217
 20
458.0885432505722
 30
0
  0
VERTEX
  8
0
 10
1298.431866371317
 20
458.0983249315722
 30
0
  0
VERTEX
  8
0
 10
1298.451075830717
 20
458.1079818152722
 30
0
  0
VERTEX
  8
0
 10
1298.470261075817
 20
458.1173276373722
 30
0
  0
VERTEX
  8
0
 10
1298.489420243817
 20
458.1263568096723
 30
0
  0
VERTEX
  8
0
 10
1298.508553334817
 20
458.1350637444722
 30
0
  0
VERTEX
  8
0
 10
1298.527664074017
 20
458.1434447162723
 30
0
  0
VERTEX
  8
0
 10
1298.546406009517
 20
458.1513516449722
 30
0
  0
VERTEX
  8
0
 10
1298.565123730617
 20
458.1589335420723
 30
0
  0
VERTEX
  8
0
 10
1298.583817237317
 20
458.1661838882723
 30
0
  0
VERTEX
  8
0
 10
1298.602484667017
 20
458.1730989583722
 30
0
  0
VERTEX
  8
0
 10
1298.621505999317
 20
458.1798035496722
 30
0
  0
VERTEX
  8
0
 10
1298.640501254517
 20
458.1861477189722
 30
0
  0
VERTEX
  8
0
 10
1298.659470432717
 20
458.1921268099723
 30
0
  0
VERTEX
  8
0
 10
1298.678409808617
 20
458.1977343031722
 30
0
  0
VERTEX
  8
0
 10
1298.697323107417
 20
458.2029655420723
 30
0
  0
VERTEX
  8
0
 10
1298.716208466617
 20
458.2078149386722
 30
0
  0
VERTEX
  8
0
 10
1298.735065886117
 20
458.2122769051723
 30
0
  0
VERTEX
  8
0
 10
1298.750725143817
 20
458.2156892710722
 30
0
  0
VERTEX
  8
0
 10
1298.766363912517
 20
458.2188259654723
 30
0
  0
VERTEX
  8
0
 10
1298.781984054717
 20
458.2216860571722
 30
0
  0
VERTEX
  8
0
 10
1298.797581845217
 20
458.2242648893723
 30
0
  0
VERTEX
  8
0
 10
1298.813162871917
 20
458.2265596681722
 30
0
  0
VERTEX
  8
0
 10
1298.828721546817
 20
458.2285675996723
 30
0
  0
VERTEX
  8
0
 10
1298.843373113617
 20
458.2301955514723
 30
0
  0
VERTEX
  8
0
 10
1298.858006053817
 20
458.2315636643722
 30
0
  0
VERTEX
  8
0
 10
1298.872620367717
 20
458.2326682129723
 30
0
  0
VERTEX
  8
0
 10
1298.887216055117
 20
458.2335073345723
 30
0
  0
VERTEX
  8
0
 10
1298.901794978717
 20
458.2340782352723
 30
0
  0
VERTEX
  8
0
 10
1298.916353413117
 20
458.2343790524723
 30
0
  0
VERTEX
  8
0
 10
1298.930895083817
 20
458.2344051295722
 30
0
  0
VERTEX
  8
0
 10
1298.945416265417
 20
458.2341564663723
 30
0
  0
VERTEX
  8
0
 10
1298.959918820517
 20
458.2336293378722
 30
0
  0
VERTEX
  8
0
 10
1298.974402749217
 20
458.2328209498722
 30
0
  0
VERTEX
  8
0
 10
1298.988609143817
 20
458.2317508601723
 30
0
  0
VERTEX
  8
0
 10
1299.002796911917
 20
458.2304041677722
 30
0
  0
VERTEX
  8
0
 10
1299.016966053517
 20
458.2287790098723
 30
0
  0
VERTEX
  8
0
 10
1299.031116568717
 20
458.2268735238723
 30
0
  0
VERTEX
  8
0
 10
1299.045503639917
 20
458.2246420749722
 30
0
  0
VERTEX
  8
0
 10
1299.059872084517
 20
458.2221135341723
 30
0
  0
VERTEX
  8
0
 10
1299.074221902817
 20
458.2192869701722
 30
0
  0
VERTEX
  8
0
 10
1299.088549369317
 20
458.2161577263722
 30
0
  0
VERTEX
  8
0
 10
1299.102858209317
 20
458.2127248712723
 30
0
  0
VERTEX
  8
0
 10
1299.116891377817
 20
458.2090545290723
 30
0
  0
VERTEX
  8
0
 10
1299.130905920017
 20
458.2050861635722
 30
0
  0
VERTEX
  8
0
 10
1299.144899973017
 20
458.2008169808722
 30
0
  0
VERTEX
  8
0
 10
1299.158873536917
 20
458.1962441870722
 30
0
  0
VERTEX
  8
0
 10
1299.173111596417
 20
458.1912625425723
 30
0
  0
VERTEX
  8
0
 10
1299.187331029517
 20
458.1859605231722
 30
0
  0
VERTEX
  8
0
 10
1299.201528110817
 20
458.1803344034722
 30
0
  0
VERTEX
  8
0
 10
1299.215704703017
 20
458.1743823209723
 30
0
  0
VERTEX
  8
0
 10
1299.229858943517
 20
458.1681014814723
 30
0
  0
VERTEX
  8
0
 10
1299.243992694917
 20
458.1614900225723
 30
0
  0
VERTEX
  8
0
 10
1299.258105957217
 20
458.1545526006722
 30
0
  0
VERTEX
  8
0
 10
1299.272342154117
 20
458.1472221606722
 30
0
  0
VERTEX
  8
0
 10
1299.286559724517
 20
458.1395750709722
 30
0
  0
VERTEX
  8
0
 10
1299.300758668517
 20
458.1316206448723
 30
0
  0
VERTEX
  8
0
 10
1299.314940848617
 20
458.1233654015722
 30
0
  0
VERTEX
  8
0
 10
1299.329104402317
 20
458.1148195856723
 30
0
  0
VERTEX
  8
0
 10
1299.343253054917
 20
458.1059897163722
 30
0
  0
VERTEX
  8
0
 10
1299.357386806317
 20
458.0968841754723
 30
0
  0
VERTEX
  8
0
 10
1299.371507519217
 20
458.0875122764722
 30
0
  0
VERTEX
  8
0
 10
1299.386283883117
 20
458.0774167397722
 30
0
  0
VERTEX
  8
0
 10
1299.401047208617
 20
458.0670455315723
 30
0
  0
VERTEX
  8
0
 10
1299.415799358217
 20
458.0564098277723
 30
0
  0
VERTEX
  8
0
 10
1299.430538469217
 20
458.0455189415723
 30
0
  0
VERTEX
  8
0
 10
1299.445266404417
 20
458.0343803235722
 30
0
  0
VERTEX
  8
0
 10
1299.459985026417
 20
458.0230060809723
 30
0
  0
VERTEX
  8
0
 10
1299.477637314517
 20
458.0090567314722
 30
0
  0
VERTEX
  8
0
 10
1299.495276564017
 20
457.9947963201723
 30
0
  0
VERTEX
  8
0
 10
1299.512908363017
 20
457.9802406796723
 30
0
  0
VERTEX
  8
0
 10
1299.530532711417
 20
457.9654065736722
 30
0
  0
VERTEX
  8
0
 10
1299.548149609317
 20
457.9503098347723
 30
0
  0
VERTEX
  8
0
 10
1299.565449857417
 20
457.9352428981723
 30
0
  0
VERTEX
  8
0
 10
1299.582746380317
 20
457.9199533754722
 30
0
  0
VERTEX
  8
0
 10
1299.600042903117
 20
457.9044580304723
 30
0
  0
VERTEX
  8
0
 10
1299.617339426017
 20
457.8887717642722
 30
0
  0
VERTEX
  8
0
 10
1299.639808514417
 20
457.8681392439722
 30
0
  0
VERTEX
  8
0
 10
1299.662283190817
 20
457.8472450220722
 30
0
  0
VERTEX
  8
0
 10
1299.684770905717
 20
457.8261216947723
 30
0
  0
VERTEX
  8
0
 10
1299.707273521717
 20
457.8048027896722
 30
0
  0
VERTEX
  8
0
 10
1299.729792901617
 20
457.7833236971723
 30
0
  0
VERTEX
  8
0
 10
1299.752336495817
 20
457.7617160820723
 30
0
  0
VERTEX
  8
0
 10
1299.774904304417
 20
457.7400162660723
 30
0
  0
VERTEX
  8
0
 10
1299.805984401417
 20
457.7100872838723
 30
0
  0
VERTEX
  8
0
 10
1299.837127828317
 20
457.6801340871722
 30
0
  0
VERTEX
  8
0
 10
1299.868343898317
 20
457.6502432891722
 30
0
  0
VERTEX
  8
0
 10
1299.899643787417
 20
457.6205033653723
 30
0
  0
VERTEX
  8
0
 10
1299.922463053217
 20
457.5990186848723
 30
0
  0
VERTEX
  8
0
 10
1299.945336335617
 20
457.5776951232722
 30
0
  0
VERTEX
  8
0
 10
1299.968263634717
 20
457.5565643453722
 30
0
  0
VERTEX
  8
0
 10
1299.991250538517
 20
457.5356617414723
 30
0
  0
VERTEX
  8
0
 10
1300.014300772217
 20
457.5150208392723
 30
0
  0
VERTEX
  8
0
 10
1300.037416198517
 20
457.4946742349723
 30
0
  0
VERTEX
  8
0
 10
1300.060602405417
 20
457.4746573188722
 30
0
  0
VERTEX
  8
0
 10
1300.078869366317
 20
457.4591824629723
 30
0
  0
VERTEX
  8
0
 10
1300.097186618717
 20
457.4439488195723
 30
0
  0
VERTEX
  8
0
 10
1300.115550437317
 20
457.4289712899723
 30
0
  0
VERTEX
  8
0
 10
1300.133964547217
 20
457.4142666378722
 30
0
  0
VERTEX
  8
0
 10
1300.152430811217
 20
457.3998516270722
 30
0
  0
VERTEX
  8
0
 10
1300.170951091917
 20
457.3857430213723
 30
0
  0
VERTEX
  8
0
 10
1300.189527252017
 20
457.3719566532723
 30
0
  0
VERTEX
  8
0
 10
1300.205829122317
 20
457.3601716973723
 30
0
  0
VERTEX
  8
0
 10
1300.222173833517
 20
457.3486558937722
 30
0
  0
VERTEX
  8
0
 10
1300.238566973517
 20
457.3374222808723
 30
0
  0
VERTEX
  8
0
 10
1300.255006679617
 20
457.3264801719723
 30
0
  0
VERTEX
  8
0
 10
1300.271492951817
 20
457.3158426054723
 30
0
  0
VERTEX
  8
0
 10
1300.288031378117
 20
457.3055179634723
 30
0
  0
VERTEX
  8
0
 10
1300.304618233117
 20
457.2955192842723
 30
0
  0
VERTEX
  8
0
 10
1300.321259104917
 20
457.2858577438723
 30
0
  0
VERTEX
  8
0
 10
1300.336245947817
 20
457.2774767720723
 30
0
  0
VERTEX
  8
0
 10
1300.351277494117
 20
457.2693835788722
 30
0
  0
VERTEX
  8
0
 10
1300.366351881317
 20
457.2615865462723
 30
0
  0
VERTEX
  8
0
 10
1300.381472834617
 20
457.2540940561722
 30
0
  0
VERTEX
  8
0
 10
1300.396638491417
 20
457.2469126277723
 30
0
  0
VERTEX
  8
0
 10
1300.411852577017
 20
457.2400515743722
 30
0
  0
VERTEX
  8
0
 10
1300.427113228717
 20
457.2335174151722
 30
0
  0
VERTEX
  8
0
 10
1300.440181547117
 20
457.2282051512722
 30
0
  0
VERTEX
  8
0
 10
1300.453285255717
 20
457.2231424817722
 30
0
  0
VERTEX
  8
0
 10
1300.466424354617
 20
457.2183340632723
 30
0
  0
VERTEX
  8
0
 10
1300.479600706417
 20
457.2137845524723
 30
0
  0
VERTEX
  8
0
 10
1300.492816173717
 20
457.2095004686722
 30
0
  0
VERTEX
  8
0
 10
1300.505830475417
 20
457.2055544548722
 30
0
  0
VERTEX
  8
0
 10
1300.518883892617
 20
457.2018738680723
 30
0
  0
VERTEX
  8
0
 10
1300.531972700017
 20
457.1984615021722
 30
0
  0
VERTEX
  8
0
 10
1300.545100623117
 20
457.1953238764722
 30
0
  0
VERTEX
  8
0
 10
1300.558537745217
 20
457.1924088367722
 30
0
  0
VERTEX
  8
0
 10
1300.572013982817
 20
457.1897853010722
 30
0
  0
VERTEX
  8
0
 10
1300.585529336017
 20
457.1874504753723
 30
0
  0
VERTEX
  8
0
 10
1300.599085667417
 20
457.1853997030722
 30
0
  0
VERTEX
  8
0
 10
1300.612679251717
 20
457.1836292588723
 30
0
  0
VERTEX
  8
0
 10
1300.626313814217
 20
457.1821335547722
 30
0
  0
VERTEX
  8
0
 10
1300.639983767017
 20
457.1809097969722
 30
0
  0
VERTEX
  8
0
 10
1300.655980163517
 20
457.1798201495723
 30
0
  0
VERTEX
  8
0
 10
1300.672028714117
 20
457.1790871986722
 30
0
  0
VERTEX
  8
0
 10
1300.688125693517
 20
457.1787053563722
 30
0
  0
VERTEX
  8
0
 10
1300.704271101617
 20
457.1786681034723
 30
0
  0
VERTEX
  8
0
 10
1300.720463075917
 20
457.1789689206722
 30
0
  0
VERTEX
  8
0
 10
1300.736703479017
 20
457.1796003573722
 30
0
  0
VERTEX
  8
0
 10
1300.752059125617
 20
457.1804934957722
 30
0
  0
VERTEX
  8
0
 10
1300.767453887717
 20
457.1816688248723
 30
0
  0
VERTEX
  8
0
 10
1300.782889628117
 20
457.1831226193722
 30
0
  0
VERTEX
  8
0
 10
1300.798364484017
 20
457.1848483600722
 30
0
  0
VERTEX
  8
0
 10
1300.813878455417
 20
457.1868404590722
 30
0
  0
VERTEX
  8
0
 10
1300.830374040917
 20
457.1892386146723
 30
0
  0
VERTEX
  8
0
 10
1300.846910604517
 20
457.1919245490723
 30
0
  0
VERTEX
  8
0
 10
1300.863490009017
 20
457.1948898800723
 30
0
  0
VERTEX
  8
0
 10
1300.880108529017
 20
457.1981299513723
 30
0
  0
VERTEX
  8
0
 10
1300.896766164617
 20
457.2016363808722
 30
0
  0
VERTEX
  8
0
 10
1300.913464778317
 20
457.2054045119722
 30
0
  0
VERTEX
  8
0
 10
1300.933192053117
 20
457.2101710208722
 30
0
  0
VERTEX
  8
0
 10
1300.952971482017
 20
457.2152802565723
 30
0
  0
VERTEX
  8
0
 10
1300.972801202217
 20
457.2207210430722
 30
0
  0
VERTEX
  8
0
 10
1300.992681213917
 20
457.2264831357722
 30
0
  0
VERTEX
  8
0
 10
1301.013015711017
 20
457.2326820188723
 30
0
  0
VERTEX
  8
0
 10
1301.033398636917
 20
457.2391928949722
 30
0
  0
VERTEX
  8
0
 10
1301.053828128917
 20
457.2460027256723
 30
0
  0
VERTEX
  8
0
 10
1301.074304187017
 20
457.2531021976723
 30
0
  0
VERTEX
  8
0
 10
1301.094823085917
 20
457.2604792037723
 30
0
  0
VERTEX
  8
0
 10
1301.115386688417
 20
457.2681216367723
 30
0
  0
VERTEX
  8
0
 10
1301.135991269017
 20
457.2760183208723
 30
0
  0
VERTEX
  8
0
 10
1301.162275054717
 20
457.2864193313723
 30
0
  0
VERTEX
  8
0
 10
1301.188620307717
 20
457.2971900769722
 30
0
  0
VERTEX
  8
0
 10
1301.215025165417
 20
457.3083072745723
 30
0
  0
VERTEX
  8
0
 10
1301.241489627617
 20
457.3197467097722
 30
0
  0
VERTEX
  8
0
 10
1301.268006244017
 20
457.3314869620722
 30
0
  0
VERTEX
  8
0
 10
1301.294575014417
 20
457.3435019546723
 30
0
  0
VERTEX
  8
0
 10
1301.321192213617
 20
457.3557702669722
 30
0
  0
VERTEX
  8
0
 10
1301.350525149417
 20
457.3695277639723
 30
0
  0
VERTEX
  8
0
 10
1301.379908376617
 20
457.3835320615722
 30
0
  0
VERTEX
  8
0
 10
1301.409341895317
 20
457.3977496319723
 30
0
  0
VERTEX
  8
0
 10
1301.438818254817
 20
457.4121497416722
 30
0
  0
VERTEX
  8
0
 10
1301.468337455117
 20
457.4267016568722
 30
0
  0
VERTEX
  8
0
 10
1301.512331270917
 20
457.4485700422723
 30
0
  0
VERTEX
  8
0
 10
1301.556395867217
 20
457.4706004777722
 30
0
  0
VERTEX
  8
0
 10
1301.600518205417
 20
457.4926905178722
 30
0
  0
VERTEX
  8
0
 10
1301.644687109917
 20
457.5147367858722
 30
0
  0
VERTEX
  8
0
 10
1301.688889541917
 20
457.5366359048722
 30
0
  0
VERTEX
  8
0
 10
1301.733114325717
 20
457.5582844981723
 30
0
  0
SEQEND
  8
0
  0
POLYLINE
  8
0
 62
2
 66
1
  0
VERTEX
  8
0
 10
1301.343650126117
 20
516.7453111925723
 30
0
  0
VERTEX
  8
0
 10
1301.167659961917
 20
516.7257534184722
 30
0
  0
VERTEX
  8
0
 10
1301.041996606917
 20
516.6671024480721
 30
0
  0
SEQEND
  8
0
  0
POLYLINE
  8
0
 62
2
 66
1
  0
VERTEX
  8
0
 10
1301.041996606917
 20
516.6671024480721
 30
0
  0
VERTEX
  8
0
 10
1300.978998222617
 20
516.5444174626722
 30
0
  0
VERTEX
  8
0
 10
1300.966583692717
 20
516.4362089553723
 30
0
  0
SEQEND
  8
0
  0
POLYLINE
  8
0
 62
2
 66
1
  0
VERTEX
  8
0
 10
1300.966583692717
 20
516.4362089553723
 30
0
  0
VERTEX
  8
0
 10
1301.011745387017
 20
516.2634858706723
 30
0
  0
VERTEX
  8
0
 10
1301.092271262117
 20
516.1475920894721
 30
0
  0
SEQEND
  8
0
  0
POLYLINE
  8
0
 62
2
 66
1
  0
VERTEX
  8
0
 10
1301.318511867217
 20
515.3310792365722
 30
0
  0
VERTEX
  8
0
 10
1301.160010078217
 20
515.3208160617722
 30
0
  0
VERTEX
  8
0
 10
1301.041996606917
 20
515.2817340412722
 30
0
  0
SEQEND
  8
0
  0
POLYLINE
  8
0
 62
2
 66
1
  0
VERTEX
  8
0
 10
1301.041996606917
 20
515.2817340412722
 30
0
  0
VERTEX
  8
0
 10
1300.980870181017
 20
515.1752950468723
 30
0
  0
VERTEX
  8
0
 10
1300.966583692717
 20
515.0797003724723
 30
0
  0
SEQEND
  8
0
  0
POLYLINE
  8
0
 62
2
 66
1
  0
VERTEX
  8
0
 10
1300.966583692717
 20
515.0797003724723
 30
0
  0
VERTEX
  8
0
 10
1301.008342334317
 20
514.8901799538722
 30
0
  0
VERTEX
  8
0
 10
1301.092271262117
 20
514.7622199573722
 30
0
  0
SEQEND
  8
0
  0
POLYLINE
  8
0
 62
2
 66
1
  0
VERTEX
  8
0
 10
1300.916307174817
 20
514.5601862886723
 30
0
  0
VERTEX
  8
0
 10
1300.577065476517
 20
514.9271534600722
 30
0
  0
VERTEX
  8
0
 10
1300.488966086217
 20
515.3105975904722
 30
0
  0
SEQEND
  8
0
  0
POLYLINE
  8
0
 62
2
 66
1
  0
VERTEX
  8
0
 10
1300.916307174817
 20
515.9166948714723
 30
0
  0
VERTEX
  8
0
 10
1300.577065476517
 20
516.2836620428722
 30
0
  0
VERTEX
  8
0
 10
1300.488966086217
 20
516.6671024480721
 30
0
  0
SEQEND
  8
0
  0
POLYLINE
  8
0
 62
2
 66
1
  0
VERTEX
  8
0
 10
1300.488966086217
 20
516.6671024480721
 30
0
  0
VERTEX
  8
0
 10
1300.528063007917
 20
516.9729227044721
 30
0
  0
VERTEX
  8
0
 10
1300.639791914517
 20
517.1866165318721
 30
0
  0
SEQEND
  8
0
  0
POLYLINE
  8
0
 62
2
 66
1
  0
VERTEX
  8
0
 10
1301.505353802117
 20
518.0955575623722
 30
0
  0
VERTEX
  8
0
 10
1301.479869091217
 20
518.2187342860722
 30
0
  0
VERTEX
  8
0
 10
1301.429171615517
 20
518.3040397086721
 30
0
  0
SEQEND
  8
0
  0
POLYLINE
  8
0
 62
2
 66
1
  0
VERTEX
  8
0
 10
1301.175227889117
 20
517.7883179702723
 30
0
  0
VERTEX
  8
0
 10
1301.341023796517
 20
517.8093286075722
 30
0
  0
VERTEX
  8
0
 10
1301.446101197317
 20
517.8870754161723
 30
0
  0
SEQEND
  8
0
  0
POLYLINE
  8
0
 62
2
 66
1
  0
VERTEX
  8
0
 10
1301.446101197317
 20
517.8870754161723
 30
0
  0
VERTEX
  8
0
 10
1301.495776080817
 20
517.9991060712722
 30
0
  0
VERTEX
  8
0
 10
1301.505353802117
 20
518.0955575623722
 30
0
  0
SEQEND
  8
0
  0
POLYLINE
  8
0
 62
2
 66
1
  0
VERTEX
  8
0
 10
1300.472653040017
 20
517.5798358240721
 30
0
  0
VERTEX
  8
0
 10
1300.251717248217
 20
517.6443615772722
 30
0
  0
VERTEX
  8
0
 10
1300.117133685617
 20
517.7663722851722
 30
0
  0
SEQEND
  8
0
  0
POLYLINE
  8
0
 62
2
 66
1
  0
VERTEX
  8
0
 10
1300.167922430917
 20
518.1065322675723
 30
0
  0
VERTEX
  8
0
 10
1300.182724871917
 20
518.0098386326723
 30
0
  0
VERTEX
  8
0
 10
1300.218711176217
 20
517.9419377663722
 30
0
  0
SEQEND
  8
0
  0
POLYLINE
  8
0
 62
2
 66
1
  0
VERTEX
  8
0
 10
1300.218711176217
 20
517.9419377663722
 30
0
  0
VERTEX
  8
0
 10
1300.348079332417
 20
517.8470099189723
 30
0
  0
VERTEX
  8
0
 10
1300.472653040017
 20
517.8212383606723
 30
0
  0
SEQEND
  8
0
  0
POLYLINE
  8
0
 62
2
 66
1
  0
VERTEX
  8
0
 10
1301.192157470917
 20
518.6551706710721
 30
0
  0
VERTEX
  8
0
 10
1301.413272076517
 20
518.5994552293722
 30
0
  0
VERTEX
  8
0
 10
1301.547676825217
 20
518.4796051898721
 30
0
  0
SEQEND
  8
0
  0
POLYLINE
  8
0
 62
2
 66
1
  0
VERTEX
  8
0
 10
1301.547676825217
 20
518.4796051898721
 30
0
  0
VERTEX
  8
0
 10
1301.645130419417
 20
518.2740064182723
 30
0
  0
VERTEX
  8
0
 10
1301.665556186117
 20
518.0955575623722
 30
0
  0
SEQEND
  8
0
  0
POLYLINE
  8
0
 62
2
 66
1
  0
VERTEX
  8
0
 10
1300.117133685617
 20
517.7663722851722
 30
0
  0
VERTEX
  8
0
 10
1300.032701843717
 20
517.9487140693722
 30
0
  0
VERTEX
  8
0
 10
1300.015556195117
 20
518.1065322675723
 30
0
  0
SEQEND
  8
0
  0
POLYLINE
  8
0
 62
2
 66
1
  0
VERTEX
  8
0
 10
1300.946679466617
 20
518.2820940234723
 30
0
  0
VERTEX
  8
0
 10
1300.892025732717
 20
518.1396538236721
 30
0
  0
VERTEX
  8
0
 10
1300.887426861817
 20
518.0187495269723
 30
0
  0
SEQEND
  8
0
  0
POLYLINE
  8
0
 62
2
 66
1
  0
VERTEX
  8
0
 10
1300.743526348217
 20
518.0187495269723
 30
0
  0
VERTEX
  8
0
 10
1300.720297300517
 20
518.1724661805723
 30
0
  0
VERTEX
  8
0
 10
1300.667342298917
 20
518.2820940234723
 30
0
  0
SEQEND
  8
0
  0
POLYLINE
  8
0
 62
2
 66
1
  0
VERTEX
  8
0
 10
1300.464189180417
 20
518.3698767640723
 30
0
  0
VERTEX
  8
0
 10
1300.313814112217
 20
518.3433415212722
 30
0
  0
VERTEX
  8
0
 10
1300.218711176217
 20
518.2711230435722
 30
0
  0
SEQEND
  8
0
  0
POLYLINE
  8
0
 62
2
 66
1
  0
VERTEX
  8
0
 10
1300.218711176217
 20
518.2711230435722
 30
0
  0
VERTEX
  8
0
 10
1300.176779308617
 20
518.1829826750721
 30
0
  0
VERTEX
  8
0
 10
1300.167922430917
 20
518.1065322675723
 30
0
  0
SEQEND
  8
0
  0
POLYLINE
  8
0
 62
2
 66
1
  0
VERTEX
  8
0
 10
1300.117133685617
 20
518.4576595046723
 30
0
  0
VERTEX
  8
0
 10
1300.274687388217
 20
518.5818346061723
 30
0
  0
VERTEX
  8
0
 10
1300.430330016917
 20
518.6112793007723
 30
0
  0
SEQEND
  8
0
  0
POLYLINE
  8
0
 62
2
 66
1
  0
VERTEX
  8
0
 10
1301.665556186117
 20
518.0955575623722
 30
0
  0
VERTEX
  8
0
 10
1301.636580878217
 20
517.8644219258723
 30
0
  0
VERTEX
  8
0
 10
1301.556142547417
 20
517.7005352297723
 30
0
  0
SEQEND
  8
0
  0
POLYLINE
  8
0
 62
2
 66
1
  0
VERTEX
  8
0
 10
1300.701201462417
 20
518.4905798950723
 30
0
  0
VERTEX
  8
0
 10
1300.773462781017
 20
518.3792272427721
 30
0
  0
VERTEX
  8
0
 10
1300.811244675217
 20
518.2820940234723
 30
0
  0
SEQEND
  8
0
  0
POLYLINE
  8
0
 62
2
 66
1
  0
VERTEX
  8
0
 10
1300.811244675217
 20
518.2820940234723
 30
0
  0
VERTEX
  8
0
 10
1300.852161401217
 20
518.4099795141723
 30
0
  0
VERTEX
  8
0
 10
1300.904356443617
 20
518.5015508749722
 30
0
  0
SEQEND
  8
0
  0
POLYLINE
  8
0
 62
2
 66
1
  0
VERTEX
  8
0
 10
1300.904356443617
 20
518.5015508749722
 30
0
  0
VERTEX
  8
0
 10
1301.047945895517
 20
518.6228239753722
 30
0
  0
VERTEX
  8
0
 10
1301.192157470917
 20
518.6551706710721
 30
0
  0
SEQEND
  8
0
  0
POLYLINE
  8
0
 62
2
 66
1
  0
VERTEX
  8
0
 10
1300.015556195117
 20
518.1065322675723
 30
0
  0
VERTEX
  8
0
 10
1300.043430679717
 20
518.3123545565721
 30
0
  0
VERTEX
  8
0
 10
1300.117133685617
 20
518.4576595046723
 30
0
  0
SEQEND
  8
0
  0
POLYLINE
  8
0
 62
2
 66
1
  0
VERTEX
  8
0
 10
1300.430330016917
 20
518.6112793007723
 30
0
  0
VERTEX
  8
0
 10
1300.597664469217
 20
518.5762168684722
 30
0
  0
VERTEX
  8
0
 10
1300.701201462417
 20
518.4905798950723
 30
0
  0
SEQEND
  8
0
  0
LINE
  8
1
 62
2
 10
1358.233113550817
 20
274.7799141735479
 30
0
 11
1358.483113550817
 21
275.0611641735479
 31
0
  0
LINE
  8
1
 62
2
 10
1358.233113550817
 20
276.4674141735479
 30
0
 11
1356.733113550817
 21
276.4674141735479
 31
0
  0
LINE
  8
1
 62
2
 10
1361.983113550817
 20
269.9986641735479
 30
0
 11
1364.233113550817
 21
269.9986641735479
 31
0
  0
LINE
  8
1
 62
2
 10
1359.483113550817
 20
269.9986641735479
 30
0
 11
1361.983113550817
 21
269.9986641735479
 31
0
  0
LINE
  8
1
 62
2
 10
1361.983113550817
 20
278.1549141735479
 30
0
 11
1361.983113550817
 21
269.9986641735479
 31
0
  0
LINE
  8
1
 62
2
 10
1360.233113550817
 20
274.7799141735479
 30
0
 11
1363.733113550817
 21
274.7799141735479
 31
0
  0
LINE
  8
1
 62
2
 10
1358.733113550817
 20
274.4986641735479
 30
0
 11
1359.983113550817
 21
273.0924141735479
 31
0
  0
LINE
  8
1
 62
2
 10
1358.233113550817
 20
276.4674141735479
 30
0
 11
1358.233113550817
 21
278.1549141735479
 31
0
  0
LINE
  8
1
 62
2
 10
1359.483113550817
 20
276.4674141735479
 30
0
 11
1358.233113550817
 21
276.4674141735479
 31
0
  0
LINE
  8
1
 62
2
 10
1358.483113550817
 20
275.0611641735479
 30
0
 11
1359.483113550817
 21
276.4674141735479
 31
0
  0
LINE
  8
1
 62
2
 10
1357.233113550817
 20
273.6549141735479
 30
0
 11
1358.233113550817
 21
274.7799141735479
 31
0
  0
LINE
  8
1
 62
2
 10
1356.233113550817
 20
272.8111641735479
 30
0
 11
1357.233113550817
 21
273.6549141735479
 31
0
  0
LINE
  8
1
 62
2
 10
1358.233113550817
 20
269.7174141735479
 30
0
 11
1358.233113550817
 21
274.7799141735479
 31
0
  0
LINE
  8
1
 62
2
 10
1351.233113550817
 20
272.8111641735479
 30
0
 11
1348.733113550817
 21
269.7174141735479
 31
0
  0
LINE
  8
1
 62
2
 10
1353.483113550817
 20
270.2799141735479
 30
0
 11
1352.483113550817
 21
271.4049141735479
 31
0
  0
LINE
  8
1
 62
2
 10
1354.233113550817
 20
269.4361641735479
 30
0
 11
1353.483113550817
 21
270.2799141735479
 31
0
  0
LINE
  8
1
 62
2
 10
1347.983113550817
 20
269.7174141735479
 30
0
 11
1353.483113550817
 21
270.2799141735479
 31
0
  0
LINE
  8
1
 62
2
 10
1348.483113550817
 20
273.0924141735479
 30
0
 11
1354.233113550817
 21
273.0924141735479
 31
0
  0
LINE
  8
1
 62
2
 10
1349.483113550817
 20
274.4986641735479
 30
0
 11
1352.983113550817
 21
274.4986641735479
 31
0
  0
LINE
  8
1
 62
2
 10
1351.233113550817
 20
278.1549141735479
 30
0
 11
1355.233113550817
 21
273.9361641735479
 31
0
  0
LINE
  8
1
 62
2
 10
1351.233113550817
 20
278.1549141735479
 30
0
 11
1347.233113550817
 21
273.9361641735479
 31
0
  0
LINE
  8
1
 62
2
 10
1340.483113550817
 20
274.2174141735479
 30
0
 11
1338.733113550817
 21
274.2174141735479
 31
0
  0
LINE
  8
1
 62
2
 10
1340.483113550817
 20
271.1236641735479
 30
0
 11
1342.233113550817
 21
271.6861641735479
 31
0
  0
LINE
  8
1
 62
2
 10
1345.483113550817
 20
269.7174141735479
 30
0
 11
1346.233113550817
 21
270.5611641735479
 31
0
  0
LINE
  8
1
 62
2
 10
1344.483113550817
 20
270.8424141735479
 30
0
 11
1345.483113550817
 21
269.7174141735479
 31
0
  0
LINE
  8
1
 62
2
 10
1343.483113550817
 20
272.8111641735479
 30
0
 11
1344.483113550817
 21
270.8424141735479
 31
0
  0
LINE
  8
1
 62
2
 10
1342.983113550817
 20
275.0611641735479
 30
0
 11
1343.483113550817
 21
272.8111641735479
 31
0
  0
LINE
  8
1
 62
2
 10
1342.733113550817
 20
278.4361641735479
 30
0
 11
1342.983113550817
 21
275.0611641735479
 31
0
  0
LINE
  8
1
 62
2
 10
1344.233113550817
 20
277.3111641735479
 30
0
 11
1343.483113550817
 21
278.1549141735479
 31
0
  0
LINE
  8
1
 62
2
 10
1338.233113550817
 20
276.4674141735479
 30
0
 11
1345.483113550817
 21
276.4674141735479
 31
0
  0
LINE
  8
1
 62
2
 10
1340.483113550817
 20
274.2174141735479
 30
0
 11
1340.483113550817
 21
271.1236641735479
 31
0
  0
LINE
  8
1
 62
2
 10
1342.233113550817
 20
274.2174141735479
 30
0
 11
1340.483113550817
 21
274.2174141735479
 31
0
  0
LINE
  8
1
 62
2
 10
1338.733113550817
 20
270.5611641735479
 30
0
 11
1340.483113550817
 21
271.1236641735479
 31
0
  0
LINE
  8
1
 62
2
 10
1330.983113550817
 20
275.9049141735479
 30
0
 11
1330.983113550817
 21
278.4361641735479
 31
0
  0
LINE
  8
1
 62
2
 10
1330.983113550817
 20
275.9049141735479
 30
0
 11
1329.733113550817
 21
275.9049141735479
 31
0
  0
LINE
  8
1
 62
2
 10
1335.983113550817
 20
271.6861641735479
 30
0
 11
1336.983113550817
 21
269.7174141735479
 31
0
  0
LINE
  8
1
 62
2
 10
1334.733113550817
 20
274.2174141735479
 30
0
 11
1335.983113550817
 21
271.6861641735479
 31
0
  0
LINE
  8
1
 62
2
 10
1333.983113550817
 20
272.2486641735479
 30
0
 11
1334.733113550817
 21
274.2174141735479
 31
0
  0
LINE
  8
1
 62
2
 10
1332.983113550817
 20
270.8424141735479
 30
0
 11
1333.983113550817
 21
272.2486641735479
 31
0
  0
LINE
  8
1
 62
2
 10
1332.233113550817
 20
269.7174141735479
 30
0
 11
1332.983113550817
 21
270.8424141735479
 31
0
  0
LINE
  8
1
 62
2
 10
1334.733113550817
 20
278.4361641735479
 30
0
 11
1334.733113550817
 21
269.4361641735479
 31
0
  0
LINE
  8
1
 62
2
 10
1336.983113550817
 20
274.2174141735479
 30
0
 11
1332.733113550817
 21
274.2174141735479
 31
0
  0
LINE
  8
1
 62
2
 10
1333.483113550817
 20
276.1861641735479
 30
0
 11
1336.733113550817
 21
276.1861641735479
 31
0
  0
LINE
  8
1
 62
2
 10
1333.483113550817
 20
276.1861641735479
 30
0
 11
1333.733113550817
 21
277.5924141735479
 31
0
  0
LINE
  8
1
 62
2
 10
1332.733113550817
 20
274.7799141735479
 30
0
 11
1333.483113550817
 21
276.1861641735479
 31
0
  0
LINE
  8
1
 62
2
 10
1330.983113550817
 20
275.9049141735479
 30
0
 11
1332.233113550817
 21
273.6549141735479
 31
0
  0
LINE
  8
1
 62
2
 10
1329.483113550817
 20
271.9674141735479
 30
0
 11
1330.983113550817
 21
275.9049141735479
 31
0
  0
LINE
  8
1
 62
2
 10
1332.233113550817
 20
275.9049141735479
 30
0
 11
1330.983113550817
 21
275.9049141735479
 31
0
  0
LINE
  8
1
 62
2
 10
1330.983113550817
 20
269.7174141735479
 30
0
 11
1330.983113550817
 21
275.9049141735479
 31
0
  0
LINE
  8
1
 62
2
 10
1320.983113550817
 20
275.0611641735479
 30
0
 11
1320.983113550817
 21
276.4674141735479
 31
0
  0
LINE
  8
1
 62
2
 10
1323.483113550817
 20
276.4674141735479
 30
0
 11
1323.483113550817
 21
275.0611641735479
 31
0
  0
LINE
  8
1
 62
2
 10
1320.983113550817
 20
276.4674141735479
 30
0
 11
1320.983113550817
 21
277.8736641735479
 31
0
  0
LINE
  8
1
 62
2
 10
1327.483113550817
 20
275.0611641735479
 30
0
 11
1327.483113550817
 21
276.4674141735479
 31
0
  0
LINE
  8
1
 62
2
 10
1324.983113550817
 20
276.4674141735479
 30
0
 11
1324.983113550817
 21
275.0611641735479
 31
0
  0
LINE
  8
1
 62
2
 10
1327.483113550817
 20
276.4674141735479
 30
0
 11
1327.483113550817
 21
277.8736641735479
 31
0
  0
LINE
  8
1
 62
2
 10
1320.983113550817
 20
269.9986641735479
 30
0
 11
1320.983113550817
 21
269.7174141735479
 31
0
  0
LINE
  8
1
 62
2
 10
1324.983113550817
 20
276.4674141735479
 30
0
 11
1327.483113550817
 21
276.4674141735479
 31
0
  0
LINE
  8
1
 62
2
 10
1324.983113550817
 20
275.0611641735479
 30
0
 11
1327.483113550817
 21
275.0611641735479
 31
0
  0
LINE
  8
1
 62
2
 10
1324.983113550817
 20
277.8736641735479
 30
0
 11
1324.983113550817
 21
276.4674141735479
 31
0
  0
LINE
  8
1
 62
2
 10
1327.483113550817
 20
277.8736641735479
 30
0
 11
1324.983113550817
 21
277.8736641735479
 31
0
  0
LINE
  8
1
 62
2
 10
1327.483113550817
 20
269.9986641735479
 30
0
 11
1327.483113550817
 21
275.0611641735479
 31
0
  0
LINE
  8
1
 62
2
 10
1327.233113550817
 20
269.7174141735479
 30
0
 11
1327.483113550817
 21
269.9986641735479
 31
0
  0
LINE
  8
1
 62
2
 10
1326.483113550817
 20
269.7174141735479
 30
0
 11
1327.233113550817
 21
269.7174141735479
 31
0
  0
LINE
  8
1
 62
2
 10
1323.483113550817
 20
276.4674141735479
 30
0
 11
1320.983113550817
 21
276.4674141735479
 31
0
  0
LINE
  8
1
 62
2
 10
1323.483113550817
 20
275.0611641735479
 30
0
 11
1320.983113550817
 21
275.0611641735479
 31
0
  0
LINE
  8
1
 62
2
 10
1323.483113550817
 20
277.8736641735479
 30
0
 11
1323.483113550817
 21
276.4674141735479
 31
0
  0
LINE
  8
1
 62
2
 10
1320.983113550817
 20
277.8736641735479
 30
0
 11
1323.483113550817
 21
277.8736641735479
 31
0
  0
LINE
  8
1
 62
2
 10
1320.983113550817
 20
269.9986641735479
 30
0
 11
1320.983113550817
 21
275.0611641735479
 31
0
  0
LINE
  8
1
 62
2
 10
1315.233113550817
 20
269.7174141735479
 30
0
 11
1318.233113550817
 21
269.7174141735479
 31
0
  0
LINE
  8
1
 62
2
 10
1315.233113550817
 20
275.0611641735479
 30
0
 11
1316.983113550817
 21
275.0611641735479
 31
0
  0
LINE
  8
1
 62
2
 10
1318.233113550817
 20
274.7799141735479
 30
0
 11
1319.233113550817
 21
273.9361641735479
 31
0
  0
LINE
  8
1
 62
2
 10
1316.483113550817
 20
276.7486641735479
 30
0
 11
1318.233113550817
 21
274.7799141735479
 31
0
  0
LINE
  8
1
 62
2
 10
1315.233113550817
 20
278.4361641735479
 30
0
 11
1316.483113550817
 21
276.7486641735479
 31
0
  0
LINE
  8
1
 62
2
 10
1313.983113550817
 20
276.7486641735479
 30
0
 11
1315.233113550817
 21
278.4361641735479
 31
0
  0
LINE
  8
1
 62
2
 10
1312.233113550817
 20
274.7799141735479
 30
0
 11
1313.983113550817
 21
276.7486641735479
 31
0
  0
LINE
  8
1
 62
2
 10
1311.233113550817
 20
273.9361641735479
 30
0
 11
1312.233113550817
 21
274.7799141735479
 31
0
  0
LINE
  8
1
 62
2
 10
1316.483113550817
 20
270.8424141735479
 30
0
 11
1316.983113550817
 21
272.2486641735479
 31
0
  0
LINE
  8
1
 62
2
 10
1313.483113550817
 20
272.2486641735479
 30
0
 11
1313.983113550817
 21
270.8424141735479
 31
0
  0
LINE
  8
1
 62
2
 10
1317.733113550817
 20
273.3736641735479
 30
0
 11
1312.733113550817
 21
273.3736641735479
 31
0
  0
LINE
  8
1
 62
2
 10
1313.483113550817
 20
275.0611641735479
 30
0
 11
1315.233113550817
 21
275.0611641735479
 31
0
  0
LINE
  8
1
 62
2
 10
1315.233113550817
 20
269.7174141735479
 30
0
 11
1315.233113550817
 21
275.0611641735479
 31
0
  0
LINE
  8
1
 62
2
 10
1311.983113550817
 20
269.7174141735479
 30
0
 11
1315.233113550817
 21
269.7174141735479
 31
0
  0
LINE
  8
1
 62
2
 10
1308.483113550817
 20
272.2486641735479
 30
0
 11
1309.733113550817
 21
273.9361641735479
 31
0
  0
LINE
  8
1
 62
2
 10
1306.483113550817
 20
271.1236641735479
 30
0
 11
1308.483113550817
 21
272.2486641735479
 31
0
  0
LINE
  8
1
 62
2
 10
1306.483113550817
 20
276.1861641735479
 30
0
 11
1306.483113550817
 21
271.1236641735479
 31
0
  0
LINE
  8
1
 62
2
 10
1304.483113550817
 20
273.9361641735479
 30
0
 11
1304.733113550817
 21
276.1861641735479
 31
0
  0
LINE
  8
1
 62
2
 10
1303.983113550817
 20
272.2486641735479
 30
0
 11
1304.483113550817
 21
273.9361641735479
 31
0
  0
LINE
  8
1
 62
2
 10
1303.233113550817
 20
270.8424141735479
 30
0
 11
1303.983113550817
 21
272.2486641735479
 31
0
  0
LINE
  8
1
 62
2
 10
1294.733113550817
 20
273.0924141735479
 30
0
 11
1294.733113550817
 21
271.4049141735479
 31
0
  0
LINE
  8
1
 62
2
 10
1297.483113550817
 20
270.2799141735479
 30
0
 11
1298.983113550817
 21
270.5611641735479
 31
0
  0
LINE
  8
1
 62
2
 10
1294.983113550817
 20
270.5611641735479
 30
0
 11
1297.483113550817
 21
270.2799141735479
 31
0
  0
LINE
  8
1
 62
2
 10
1294.733113550817
 20
271.4049141735479
 30
0
 11
1294.983113550817
 21
270.5611641735479
 31
0
  0
LINE
  8
1
 62
2
 10
1294.733113550817
 20
276.1861641735479
 30
0
 11
1294.733113550817
 21
273.0924141735479
 31
0
  0
LINE
  8
1
 62
2
 10
1299.483113550817
 20
276.7486641735479
 30
0
 11
1300.233113550817
 21
275.9049141735479
 31
0
  0
LINE
  8
1
 62
2
 10
1299.733113550817
 20
275.3424141735479
 30
0
 11
1298.983113550817
 21
276.1861641735479
 31
0
  0
LINE
  8
1
 62
2
 10
1296.983113550817
 20
273.9361641735479
 30
0
 11
1298.483113550817
 21
274.7799141735479
 31
0
  0
LINE
  8
1
 62
2
 10
1294.733113550817
 20
273.0924141735479
 30
0
 11
1296.983113550817
 21
273.9361641735479
 31
0
  0
LINE
  8
1
 62
2
 10
1289.233113550817
 20
272.2486641735479
 30
0
 11
1290.733113550817
 21
270.5611641735479
 31
0
  0
LINE
  8
1
 62
2
 10
1287.983113550817
 20
273.3736641735479
 30
0
 11
1289.233113550817
 21
272.2486641735479
 31
0
  0
LINE
  8
1
 62
2
 10
1290.983113550817
 20
277.3111641735479
 30
0
 11
1291.733113550817
 21
276.4674141735479
 31
0
  0
LINE
  8
1
 62
2
 10
1290.483113550817
 20
276.7486641735479
 30
0
 11
1291.233113550817
 21
275.9049141735479
 31
0
  0
LINE
  8
1
 62
2
 10
1289.483113550817
 20
276.1861641735479
 30
0
 11
1286.233113550817
 21
276.1861641735479
 31
0
  0
LINE
  8
1
 62
2
 10
1288.733113550817
 20
274.4986641735479
 30
0
 11
1289.483113550817
 21
276.1861641735479
 31
0
  0
LINE
  8
1
 62
2
 10
1286.983113550817
 20
271.9674141735479
 30
0
 11
1288.733113550817
 21
274.4986641735479
 31
0
  0
LINE
  8
1
 62
2
 10
1285.233113550817
 20
270.5611641735479
 30
0
 11
1286.983113550817
 21
271.9674141735479
 31
0
  0
LINE
  8
1
 62
2
 10
1282.233113550817
 20
275.9049141735479
 30
0
 11
1279.983113550817
 21
273.3736641735479
 31
0
  0
LINE
  8
1
 62
2
 10
1276.483113550817
 20
275.9049141735479
 30
0
 11
1282.233113550817
 21
275.9049141735479
 31
0
  0
LINE
  8
1
 62
2
 10
1279.233113550817
 20
273.3736641735479
 30
0
 11
1279.483113550817
 21
274.7799141735479
 31
0
  0
LINE
  8
1
 62
2
 10
1278.733113550817
 20
271.6861641735479
 30
0
 11
1279.233113550817
 21
273.3736641735479
 31
0
  0
LINE
  8
1
 62
2
 10
1277.733113550817
 20
269.9986641735479
 30
0
 11
1278.733113550817
 21
271.6861641735479
 31
0
  0
LINE
  8
1
 62
2
 10
1381.408113550817
 20
297.2486641735479
 30
0
 11
1381.908113550817
 21
296.4049141735479
 31
0
  0
LINE
  8
1
 62
2
 10
1380.658113550817
 20
298.0924141735479
 30
0
 11
1381.408113550817
 21
297.2486641735479
 31
0
  0
LINE
  8
1
 62
2
 10
1379.658113550817
 20
298.9361641735479
 30
0
 11
1380.658113550817
 21
298.0924141735479
 31
0
  0
LINE
  8
1
 62
2
 10
1379.158113550817
 20
300.0611641735479
 30
0
 11
1378.408113550817
 21
301.4674141735479
 31
0
  0
LINE
  8
1
 62
2
 10
1380.408113550817
 20
300.3424141735479
 30
0
 11
1379.908113550817
 21
301.7486641735479
 31
0
  0
LINE
  8
1
 62
2
 10
1381.908113550817
 20
299.7799141735479
 30
0
 11
1382.658113550817
 21
301.4674141735479
 31
0
  0
LINE
  8
1
 62
2
 10
1380.408113550817
 20
297.5299141735479
 30
0
 11
1381.908113550817
 21
299.7799141735479
 31
0
  0
LINE
  8
1
 62
2
 10
1379.658113550817
 20
296.6861641735479
 30
0
 11
1380.408113550817
 21
297.5299141735479
 31
0
  0
LINE
  8
1
 62
2
 10
1378.408113550817
 20
295.8424141735479
 30
0
 11
1379.658113550817
 21
296.6861641735479
 31
0
  0
LINE
  8
1
 62
2
 10
1377.158113550817
 20
302.8736641735479
 30
0
 11
1377.158113550817
 21
294.7174141735479
 31
0
  0
LINE
  8
1
 62
2
 10
1383.658113550817
 20
302.8736641735479
 30
0
 11
1377.158113550817
 21
302.8736641735479
 31
0
  0
LINE
  8
1
 62
2
 10
1383.658113550817
 20
294.7174141735479
 30
0
 11
1383.658113550817
 21
302.8736641735479
 31
0
  0
LINE
  8
1
 62
2
 10
1377.158113550817
 20
294.7174141735479
 30
0
 11
1383.658113550817
 21
294.7174141735479
 31
0
  0
LINE
  8
1
 62
2
 10
1372.158113550817
 20
298.6549141735479
 30
0
 11
1375.158113550817
 21
298.6549141735479
 31
0
  0
LINE
  8
1
 62
2
 10
1373.408113550817
 20
296.9674141735479
 30
0
 11
1374.908113550817
 21
294.4361641735479
 31
0
  0
LINE
  8
1
 62
2
 10
1369.908113550817
 20
294.7174141735479
 30
0
 11
1374.158113550817
 21
295.5611641735479
 31
0
  0
LINE
  8
1
 62
2
 10
1372.158113550817
 20
298.6549141735479
 30
0
 11
1370.908113550817
 21
294.9986641735479
 31
0
  0
LINE
  8
1
 62
2
 10
1369.408113550817
 20
298.6549141735479
 30
0
 11
1372.158113550817
 21
298.6549141735479
 31
0
  0
LINE
  8
1
 62
2
 10
1372.408113550817
 20
303.1549141735479
 30
0
 11
1372.408113550817
 21
298.6549141735479
 31
0
  0
LINE
  8
1
 62
2
 10
1370.158113550817
 20
300.9049141735479
 30
0
 11
1374.908113550817
 21
300.9049141735479
 31
0
  0
LINE
  8
1
 62
2
 10
1368.158113550817
 20
302.8736641735479
 30
0
 11
1368.908113550817
 21
301.7486641735479
 31
0
  0
LINE
  8
1
 62
2
 10
1368.158113550817
 20
299.4986641735479
 30
0
 11
1367.408113550817
 21
300.3424141735479
 31
0
  0
LINE
  8
1
 62
2
 10
1367.658113550817
 20
294.4361641735479
 30
0
 11
1368.908113550817
 21
298.0924141735479
 31
0
  0
LINE
  8
1
 62
2
 10
1361.908113550817
 20
297.8111641735479
 30
0
 11
1360.908113550817
 21
299.2174141735479
 31
0
  0
LINE
  8
1
 62
2
 10
1363.908113550817
 20
294.7174141735479
 30
0
 11
1362.658113550817
 21
294.7174141735479
 31
0
  0
LINE
  8
1
 62
2
 10
1363.908113550817
 20
302.8736641735479
 30
0
 11
1363.908113550817
 21
294.7174141735479
 31
0
  0
LINE
  8
1
 62
2
 10
1359.158113550817
 20
300.6236641735479
 30
0
 11
1365.908113550817
 21
300.6236641735479
 31
0
  0
LINE
  8
1
 62
2
 10
1350.408113550817
 20
296.4049141735479
 30
0
 11
1350.408113550817
 21
299.2174141735479
 31
0
  0
LINE
  8
1
 62
2
 10
1351.908113550817
 20
294.9986641735479
 30
0
 11
1350.408113550817
 21
294.9986641735479
 31
0
  0
LINE
  8
1
 62
2
 10
1351.908113550817
 20
299.2174141735479
 30
0
 11
1353.158113550817
 21
299.2174141735479
 31
0
  0
LINE
  8
1
 62
2
 10
1351.658113550817
 20
302.0299141735479
 30
0
 11
1350.658113550817
 21
302.0299141735479
 31
0
  0
LINE
  8
1
 62
2
 10
1353.908113550817
 20
300.9049141735479
 30
0
 11
1353.908113550817
 21
299.2174141735479
 31
0
  0
LINE
  8
1
 62
2
 10
1356.408113550817
 20
299.2174141735479
 30
0
 11
1356.408113550817
 21
302.5924141735479
 31
0
  0
LINE
  8
1
 62
2
 10
1353.908113550817
 20
299.2174141735479
 30
0
 11
1353.908113550817
 21
297.5299141735479
 31
0
  0
LINE
  8
1
 62
2
 10
1354.658113550817
 20
297.5299141735479
 30
0
 11
1355.408113550817
 21
297.5299141735479
 31
0
  0
LINE
  8
1
 62
2
 10
1355.408113550817
 20
297.5299141735479
 30
0
 11
1356.408113550817
 21
297.5299141735479
 31
0
  0
LINE
  8
1
 62
2
 10
1357.158113550817
 20
294.4361641735479
 30
0
 11
1357.408113550817
 21
294.9986641735479
 31
0
  0
LINE
  8
1
 62
2
 10
1356.158113550817
 20
294.4361641735479
 30
0
 11
1357.158113550817
 21
294.4361641735479
 31
0
  0
LINE
  8
1
 62
2
 10
1355.408113550817
 20
294.9986641735479
 30
0
 11
1356.158113550817
 21
294.4361641735479
 31
0
  0
LINE
  8
1
 62
2
 10
1355.408113550817
 20
297.5299141735479
 30
0
 11
1355.408113550817
 21
294.9986641735479
 31
0
  0
LINE
  8
1
 62
2
 10
1353.908113550817
 20
295.2799141735479
 30
0
 11
1353.158113550817
 21
294.4361641735479
 31
0
  0
LINE
  8
1
 62
2
 10
1354.408113550817
 20
296.6861641735479
 30
0
 11
1353.908113550817
 21
295.2799141735479
 31
0
  0
LINE
  8
1
 62
2
 10
1354.658113550817
 20
297.5299141735479
 30
0
 11
1354.408113550817
 21
296.6861641735479
 31
0
  0
LINE
  8
1
 62
2
 10
1356.408113550817
 20
299.2174141735479
 30
0
 11
1353.908113550817
 21
299.2174141735479
 31
0
  0
LINE
  8
1
 62
2
 10
1353.908113550817
 20
300.9049141735479
 30
0
 11
1356.408113550817
 21
300.9049141735479
 31
0
  0
LINE
  8
1
 62
2
 10
1356.408113550817
 20
302.5924141735479
 30
0
 11
1353.908113550817
 21
302.5924141735479
 31
0
  0
LINE
  8
1
 62
2
 10
1356.408113550817
 20
297.5299141735479
 30
0
 11
1356.408113550817
 21
299.2174141735479
 31
0
  0
LINE
  8
1
 62
2
 10
1353.908113550817
 20
297.5299141735479
 30
0
 11
1354.658113550817
 21
297.5299141735479
 31
0
  0
LINE
  8
1
 62
2
 10
1353.908113550817
 20
302.5924141735479
 30
0
 11
1353.908113550817
 21
300.9049141735479
 31
0
  0
LINE
  8
1
 62
2
 10
1350.408113550817
 20
302.0299141735479
 30
0
 11
1350.908113550817
 21
303.1549141735479
 31
0
  0
LINE
  8
1
 62
2
 10
1349.658113550817
 20
301.1861641735479
 30
0
 11
1350.408113550817
 21
302.0299141735479
 31
0
  0
LINE
  8
1
 62
2
 10
1353.158113550817
 20
302.0299141735479
 30
0
 11
1351.658113550817
 21
302.0299141735479
 31
0
  0
LINE
  8
1
 62
2
 10
1350.658113550817
 20
299.4986641735479
 30
0
 11
1351.658113550817
 21
302.0299141735479
 31
0
  0
LINE
  8
1
 62
2
 10
1349.408113550817
 20
297.8111641735479
 30
0
 11
1350.658113550817
 21
299.4986641735479
 31
0
  0
LINE
  8
1
 62
2
 10
1353.408113550817
 20
300.6236641735479
 30
0
 11
1349.658113550817
 21
300.6236641735479
 31
0
  0
LINE
  8
1
 62
2
 10
1351.908113550817
 20
299.2174141735479
 30
0
 11
1352.158113550817
 21
299.7799141735479
 31
0
  0
LINE
  8
1
 62
2
 10
1351.908113550817
 20
294.9986641735479
 30
0
 11
1351.908113550817
 21
299.2174141735479
 31
0
  0
LINE
  8
1
 62
2
 10
1353.158113550817
 20
294.9986641735479
 30
0
 11
1351.908113550817
 21
294.9986641735479
 31
0
  0
LINE
  8
1
 62
2
 10
1350.408113550817
 20
296.4049141735479
 30
0
 11
1353.158113550817
 21
296.4049141735479
 31
0
  0
LINE
  8
1
 62
2
 10
1353.158113550817
 20
297.8111641735479
 30
0
 11
1350.408113550817
 21
297.8111641735479
 31
0
  0
LINE
  8
1
 62
2
 10
1350.408113550817
 20
299.2174141735479
 30
0
 11
1351.908113550817
 21
299.2174141735479
 31
0
  0
LINE
  8
1
 62
2
 10
1350.408113550817
 20
294.4361641735479
 30
0
 11
1350.408113550817
 21
296.4049141735479
 31
0
  0
LINE
  8
1
 62
2
 10
1347.158113550817
 20
299.2174141735479
 30
0
 11
1348.408113550817
 21
297.8111641735479
 31
0
  0
LINE
  8
1
 62
2
 10
1345.158113550817
 20
301.1861641735479
 30
0
 11
1347.158113550817
 21
299.2174141735479
 31
0
  0
LINE
  8
1
 62
2
 10
1345.658113550817
 20
303.4361641735479
 30
0
 11
1345.658113550817
 21
294.4361641735479
 31
0
  0
LINE
  8
1
 62
2
 10
1341.408113550817
 20
299.7799141735479
 30
0
 11
1343.158113550817
 21
298.3736641735479
 31
0
  0
LINE
  8
1
 62
2
 10
1341.408113550817
 20
300.0611641735479
 30
0
 11
1340.408113550817
 21
298.6549141735479
 31
0
  0
LINE
  8
1
 62
2
 10
1342.158113550817
 20
301.7486641735479
 30
0
 11
1341.408113550817
 21
300.0611641735479
 31
0
  0
LINE
  8
1
 62
2
 10
1342.658113550817
 20
303.4361641735479
 30
0
 11
1342.158113550817
 21
301.7486641735479
 31
0
  0
LINE
  8
1
 62
2
 10
1344.408113550817
 20
301.4674141735479
 30
0
 11
1342.158113550817
 21
301.4674141735479
 31
0
  0
LINE
  8
1
 62
2
 10
1343.908113550817
 20
299.7799141735479
 30
0
 11
1344.408113550817
 21
301.4674141735479
 31
0
  0
LINE
  8
1
 62
2
 10
1343.408113550817
 20
298.6549141735479
 30
0
 11
1343.908113550817
 21
299.7799141735479
 31
0
  0
LINE
  8
1
 62
2
 10
1342.408113550817
 20
296.9674141735479
 30
0
 11
1343.408113550817
 21
298.6549141735479
 31
0
  0
LINE
  8
1
 62
2
 10
1340.908113550817
 20
294.9986641735479
 30
0
 11
1342.408113550817
 21
296.9674141735479
 31
0
  0
LINE
  8
1
 62
2
 10
1325.558113550817
 20
300.7361641735479
 30
0
 11
1327.358113550817
 21
300.7361641735479
 31
0
  0
LINE
  8
1
 62
2
 10
1325.558113550817
 20
300.7361641735479
 30
0
 11
1325.558113550817
 21
294.4361641735479
 31
0
  0
LINE
  8
1
 62
2
 10
1328.708113550817
 20
299.6111641735479
 30
0
 11
1328.708113550817
 21
294.4361641735479
 31
0
  0
LINE
  8
1
 62
2
 10
1328.483113550817
 20
300.0611641735479
 30
0
 11
1328.708113550817
 21
299.6111641735479
 31
0
  0
LINE
  8
1
 62
2
 10
1328.033113550817
 20
300.5111641735479
 30
0
 11
1328.483113550817
 21
300.0611641735479
 31
0
  0
LINE
  8
1
 62
2
 10
1327.358113550817
 20
300.7361641735479
 30
0
 11
1328.033113550817
 21
300.5111641735479
 31
0
  0
LINE
  8
1
 62
2
 10
1322.408113550817
 20
300.7361641735479
 30
0
 11
1325.558113550817
 21
300.7361641735479
 31
0
  0
LINE
  8
1
 62
2
 10
1322.408113550817
 20
294.4361641735479
 30
0
 11
1322.408113550817
 21
300.7361641735479
 31
0
  0
LINE
  8
1
 62
2
 10
1316.558113550817
 20
300.7361641735479
 30
0
 11
1318.358113550817
 21
300.7361641735479
 31
0
  0
LINE
  8
1
 62
2
 10
1316.558113550817
 20
300.7361641735479
 30
0
 11
1316.558113550817
 21
294.4361641735479
 31
0
  0
LINE
  8
1
 62
2
 10
1319.708113550817
 20
299.6111641735479
 30
0
 11
1319.708113550817
 21
294.4361641735479
 31
0
  0
LINE
  8
1
 62
2
 10
1319.483113550817
 20
300.0611641735479
 30
0
 11
1319.708113550817
 21
299.6111641735479
 31
0
  0
LINE
  8
1
 62
2
 10
1319.033113550817
 20
300.5111641735479
 30
0
 11
1319.483113550817
 21
300.0611641735479
 31
0
  0
LINE
  8
1
 62
2
 10
1318.358113550817
 20
300.7361641735479
 30
0
 11
1319.033113550817
 21
300.5111641735479
 31
0
  0
LINE
  8
1
 62
2
 10
1313.408113550817
 20
300.7361641735479
 30
0
 11
1316.558113550817
 21
300.7361641735479
 31
0
  0
LINE
  8
1
 62
2
 10
1313.408113550817
 20
294.4361641735479
 30
0
 11
1313.408113550817
 21
300.7361641735479
 31
0
  0
LINE
  8
1
 62
2
 10
1308.683113550817
 20
294.4361641735479
 30
0
 11
1305.308113550817
 21
294.4361641735479
 31
0
  0
LINE
  8
1
 62
2
 10
1309.358113550817
 20
294.661164173548
 30
0
 11
1308.683113550817
 21
294.4361641735479
 31
0
  0
LINE
  8
1
 62
2
 10
1310.033113550817
 20
295.1111641735479
 30
0
 11
1309.358113550817
 21
294.661164173548
 31
0
  0
LINE
  8
1
 62
2
 10
1310.483113550817
 20
295.786164173548
 30
0
 11
1310.033113550817
 21
295.1111641735479
 31
0
  0
LINE
  8
1
 62
2
 10
1310.708113550817
 20
296.6861641735479
 30
0
 11
1310.483113550817
 21
295.786164173548
 31
0
  0
LINE
  8
1
 62
2
 10
1310.708113550817
 20
297.8111641735479
 30
0
 11
1310.708113550817
 21
296.6861641735479
 31
0
  0
LINE
  8
1
 62
2
 10
1310.483113550817
 20
298.7111641735479
 30
0
 11
1310.708113550817
 21
297.8111641735479
 31
0
  0
LINE
  8
1
 62
2
 10
1310.258113550817
 20
299.161164173548
 30
0
 11
1310.483113550817
 21
298.7111641735479
 31
0
  0
LINE
  8
1
 62
2
 10
1309.808113550817
 20
299.6111641735479
 30
0
 11
1310.258113550817
 21
299.161164173548
 31
0
  0
LINE
  8
1
 62
2
 10
1308.908113550817
 20
299.8361641735479
 30
0
 11
1309.808113550817
 21
299.6111641735479
 31
0
  0
LINE
  8
1
 62
2
 10
1309.583113550817
 20
300.0611641735479
 30
0
 11
1308.908113550817
 21
299.8361641735479
 31
0
  0
LINE
  8
1
 62
2
 10
1310.033113550817
 20
300.286164173548
 30
0
 11
1309.583113550817
 21
300.0611641735479
 31
0
  0
LINE
  8
1
 62
2
 10
1310.483113550817
 20
300.7361641735479
 30
0
 11
1310.033113550817
 21
300.286164173548
 31
0
  0
LINE
  8
1
 62
2
 10
1310.708113550817
 20
301.411164173548
 30
0
 11
1310.483113550817
 21
300.7361641735479
 31
0
  0
LINE
  8
1
 62
2
 10
1310.708113550817
 20
302.0861641735479
 30
0
 11
1310.708113550817
 21
301.411164173548
 31
0
  0
LINE
  8
1
 62
2
 10
1310.483113550817
 20
302.7611641735479
 30
0
 11
1310.708113550817
 21
302.0861641735479
 31
0
  0
LINE
  8
1
 62
2
 10
1309.808113550817
 20
303.2111641735479
 30
0
 11
1310.483113550817
 21
302.7611641735479
 31
0
  0
LINE
  8
1
 62
2
 10
1308.683113550817
 20
303.4361641735479
 30
0
 11
1309.808113550817
 21
303.2111641735479
 31
0
  0
LINE
  8
1
 62
2
 10
1305.308113550817
 20
303.4361641735479
 30
0
 11
1308.683113550817
 21
303.4361641735479
 31
0
  0
LINE
  8
1
 62
2
 10
1306.658113550817
 20
299.8361641735479
 30
0
 11
1308.908113550817
 21
299.8361641735479
 31
0
  0
LINE
  8
1
 62
2
 10
1302.608113550817
 20
303.4361641735479
 30
0
 11
1302.608113550817
 21
294.4361641735479
 31
0
  0
LINE
  8
1
 62
2
 10
1299.908113550817
 20
300.7361641735479
 30
0
 11
1302.608113550817
 21
303.4361641735479
 31
0
  0
LINE
  8
1
 62
2
 10
1293.908113550817
 20
302.8736641735479
 30
0
 11
1291.408113550817
 21
302.8736641735479
 31
0
  0
LINE
  8
1
 62
2
 10
1295.158113550817
 20
294.7174141735479
 30
0
 11
1298.658113550817
 21
294.7174141735479
 31
0
  0
LINE
  8
1
 62
2
 10
1295.158113550817
 20
298.0924141735479
 30
0
 11
1295.158113550817
 21
294.7174141735479
 31
0
  0
LINE
  8
1
 62
2
 10
1298.158113550817
 20
298.0924141735479
 30
0
 11
1297.408113550817
 21
298.0924141735479
 31
0
  0
LINE
  8
1
 62
2
 10
1298.158113550817
 20
303.1549141735479
 30
0
 11
1298.158113550817
 21
298.0924141735479
 31
0
  0
LINE
  8
1
 62
2
 10
1296.408113550817
 20
299.2174141735479
 30
0
 11
1296.408113550817
 21
302.8736641735479
 31
0
  0
LINE
  8
1
 62
2
 10
1293.908113550817
 20
302.8736641735479
 30
0
 11
1293.908113550817
 21
298.0924141735479
 31
0
  0
LINE
  8
1
 62
2
 10
1291.158113550817
 20
300.9049141735479
 30
0
 11
1295.408113550817
 21
300.9049141735479
 31
0
  0
LINE
  8
1
 62
2
 10
1295.158113550817
 20
302.8736641735479
 30
0
 11
1293.908113550817
 21
302.8736641735479
 31
0
  0
LINE
  8
1
 62
2
 10
1292.658113550817
 20
300.9049141735479
 30
0
 11
1292.658113550817
 21
302.8736641735479
 31
0
  0
LINE
  8
1
 62
2
 10
1292.158113550817
 20
298.9361641735479
 30
0
 11
1292.658113550817
 21
300.9049141735479
 31
0
  0
LINE
  8
1
 62
2
 10
1291.408113550817
 20
297.8111641735479
 30
0
 11
1292.158113550817
 21
298.9361641735479
 31
0
  0
LINE
  8
1
 62
2
 10
1297.658113550817
 20
296.6861641735479
 30
0
 11
1292.158113550817
 21
296.6861641735479
 31
0
  0
LINE
  8
1
 62
2
 10
1291.408113550817
 20
294.7174141735479
 30
0
 11
1295.158113550817
 21
294.7174141735479
 31
0
  0
LINE
  8
1
 62
2
 10
1282.808113550817
 20
294.4361641735479
 30
0
 11
1282.808113550817
 21
303.4361641735479
 31
0
  0
LINE
  8
1
 62
2
 10
1288.208113550817
 20
294.4361641735479
 30
0
 11
1282.808113550817
 21
294.4361641735479
 31
0
  0
LINE
  8
1
 62
2
 10
1279.883113550817
 20
301.6361641735479
 30
0
 11
1280.108113550817
 21
300.7361641735479
 31
0
  0
LINE
  8
1
 62
2
 10
1279.433113550817
 20
302.3111641735479
 30
0
 11
1279.883113550817
 21
301.6361641735479
 31
0
  0
LINE
  8
1
 62
2
 10
1278.983113550817
 20
302.7611641735479
 30
0
 11
1279.433113550817
 21
302.3111641735479
 31
0
  0
LINE
  8
1
 62
2
 10
1278.308113550817
 20
303.2111641735479
 30
0
 11
1278.983113550817
 21
302.7611641735479
 31
0
  0
LINE
  8
1
 62
2
 10
1277.408113550817
 20
303.4361641735479
 30
0
 11
1278.308113550817
 21
303.2111641735479
 31
0
  0
LINE
  8
1
 62
2
 10
1273.808113550817
 20
303.4361641735479
 30
0
 11
1277.408113550817
 21
303.4361641735479
 31
0
  0
LINE
  8
1
 62
2
 10
1273.808113550817
 20
294.4361641735479
 30
0
 11
1273.808113550817
 21
303.4361641735479
 31
0
  0
LINE
  8
1
 62
2
 10
1277.408113550817
 20
294.4361641735479
 30
0
 11
1273.808113550817
 21
294.4361641735479
 31
0
  0
LINE
  8
1
 62
2
 10
1278.308113550817
 20
294.661164173548
 30
0
 11
1277.408113550817
 21
294.4361641735479
 31
0
  0
LINE
  8
1
 62
2
 10
1278.983113550817
 20
295.1111641735479
 30
0
 11
1278.308113550817
 21
294.661164173548
 31
0
  0
LINE
  8
1
 62
2
 10
1279.433113550817
 20
295.5611641735479
 30
0
 11
1278.983113550817
 21
295.1111641735479
 31
0
  0
LINE
  8
1
 62
2
 10
1279.883113550817
 20
296.2361641735479
 30
0
 11
1279.433113550817
 21
295.5611641735479
 31
0
  0
LINE
  8
1
 62
2
 10
1280.108113550817
 20
297.1361641735479
 30
0
 11
1279.883113550817
 21
296.2361641735479
 31
0
  0
LINE
  8
1
 62
2
 10
1280.108113550817
 20
300.7361641735479
 30
0
 11
1280.108113550817
 21
297.1361641735479
 31
0
  0
LINE
  8
1
 62
2
 10
1264.808113550817
 20
297.1361641735479
 30
0
 11
1264.808113550817
 21
303.4361641735479
 31
0
  0
LINE
  8
1
 62
2
 10
1264.808113550817
 20
294.4361641735479
 30
0
 11
1264.808113550817
 21
297.1361641735479
 31
0
  0
LINE
  8
1
 62
2
 10
1266.608113550817
 20
298.9361641735479
 30
0
 11
1271.108113550817
 21
294.4361641735479
 31
0
  0
LINE
  8
1
 62
2
 10
1271.108113550817
 20
303.4361641735479
 30
0
 11
1266.608113550817
 21
298.9361641735479
 31
0
  0
LINE
  8
1
 62
2
 10
1266.608113550817
 20
298.9361641735479
 30
0
 11
1264.808113550817
 21
297.1361641735479
 31
0
  0
LINE
  8
1
 62
2
 10
1262.108113550817
 20
299.3861641735479
 30
0
 11
1259.858113550817
 21
299.3861641735479
 31
0
  0
LINE
  8
1
 62
2
 10
1262.108113550817
 20
294.4361641735479
 30
0
 11
1262.108113550817
 21
299.3861641735479
 31
0
  0
LINE
  8
1
 62
2
 10
1258.283113550817
 20
294.4361641735479
 30
0
 11
1262.108113550817
 21
294.4361641735479
 31
0
  0
LINE
  8
1
 62
2
 10
1257.608113550817
 20
294.661164173548
 30
0
 11
1258.283113550817
 21
294.4361641735479
 31
0
  0
LINE
  8
1
 62
2
 10
1256.708113550817
 20
295.1111641735479
 30
0
 11
1257.608113550817
 21
294.661164173548
 31
0
  0
LINE
  8
1
 62
2
 10
1256.258113550817
 20
295.5611641735479
 30
0
 11
1256.708113550817
 21
295.1111641735479
 31
0
  0
LINE
  8
1
 62
2
 10
1256.033113550817
 20
296.2361641735479
 30
0
 11
1256.258113550817
 21
295.5611641735479
 31
0
  0
LINE
  8
1
 62
2
 10
1255.808113550817
 20
297.1361641735479
 30
0
 11
1256.033113550817
 21
296.2361641735479
 31
0
  0
LINE
  8
1
 62
2
 10
1255.808113550817
 20
300.7361641735479
 30
0
 11
1255.808113550817
 21
297.1361641735479
 31
0
  0
LINE
  8
1
 62
2
 10
1256.033113550817
 20
301.6361641735479
 30
0
 11
1255.808113550817
 21
300.7361641735479
 31
0
  0
LINE
  8
1
 62
2
 10
1256.258113550817
 20
302.3111641735479
 30
0
 11
1256.033113550817
 21
301.6361641735479
 31
0
  0
LINE
  8
1
 62
2
 10
1256.708113550817
 20
302.7611641735479
 30
0
 11
1256.258113550817
 21
302.3111641735479
 31
0
  0
LINE
  8
1
 62
2
 10
1257.383113550817
 20
303.2111641735479
 30
0
 11
1256.708113550817
 21
302.7611641735479
 31
0
  0
LINE
  8
1
 62
2
 10
1258.283113550817
 20
303.4361641735479
 30
0
 11
1257.383113550817
 21
303.2111641735479
 31
0
  0
LINE
  8
1
 62
2
 10
1262.108113550817
 20
303.4361641735479
 30
0
 11
1258.283113550817
 21
303.4361641735479
 31
0
  0
LINE
  8
1
 62
2
 10
1358.051088502657
 20
344.1633220739762
 30
0
 11
1358.051088502657
 21
341.1633220739762
 31
0
  0
LINE
  8
1
 62
2
 10
1358.051088502657
 20
341.1633220739762
 30
0
 11
1360.151088502657
 21
341.1633220739762
 31
0
  0
LINE
  8
1
 62
2
 10
1360.151088502657
 20
344.1633220739762
 30
0
 11
1358.051088502657
 21
344.1633220739762
 31
0
  0
LINE
  8
1
 62
2
 10
1359.851088502657
 20
342.8133220739762
 30
0
 11
1358.051088502657
 21
342.8133220739762
 31
0
  0
LINE
  8
1
 62
2
 10
1352.13442183599
 20
342.8508220739762
 30
0
 11
1354.551088502657
 21
342.8508220739762
 31
0
  0
LINE
  8
1
 62
2
 10
1353.467755169324
 20
341.1633220739762
 30
0
 11
1353.13442183599
 21
341.3508220739762
 31
0
  0
LINE
  8
1
 62
2
 10
1353.63442183599
 20
341.2570720739762
 30
0
 11
1353.467755169324
 21
341.1633220739762
 31
0
  0
LINE
  8
1
 62
2
 10
1353.88442183599
 20
341.7258220739762
 30
0
 11
1353.63442183599
 21
341.2570720739762
 31
0
  0
LINE
  8
1
 62
2
 10
1354.051088502657
 20
342.2883220739762
 30
0
 11
1353.88442183599
 21
341.7258220739762
 31
0
  0
LINE
  8
1
 62
2
 10
1352.88442183599
 20
342.2883220739762
 30
0
 11
1354.051088502657
 21
342.2883220739762
 31
0
  0
LINE
  8
1
 62
2
 10
1353.051088502657
 20
342.8508220739762
 30
0
 11
1352.801088502657
 21
341.9133220739762
 31
0
  0
LINE
  8
1
 62
2
 10
1354.051088502657
 20
343.9758220739762
 30
0
 11
1352.717755169324
 21
343.9758220739762
 31
0
  0
LINE
  8
1
 62
2
 10
1354.051088502657
 20
343.3195720739762
 30
0
 11
1354.051088502657
 21
343.9758220739762
 31
0
  0
LINE
  8
1
 62
2
 10
1352.717755169324
 20
343.3195720739762
 30
0
 11
1354.051088502657
 21
343.3195720739762
 31
0
  0
LINE
  8
1
 62
2
 10
1352.717755169324
 20
343.9758220739762
 30
0
 11
1352.717755169324
 21
343.3195720739762
 31
0
  0
LINE
  8
1
 62
2
 10
1351.551088502657
 20
341.3508220739762
 30
0
 11
1351.551088502657
 21
341.6320720739762
 31
0
  0
LINE
  8
1
 62
2
 10
1350.38442183599
 20
341.3508220739762
 30
0
 11
1351.551088502657
 21
341.3508220739762
 31
0
  0
LINE
  8
1
 62
2
 10
1350.38442183599
 20
342.7570720739762
 30
0
 11
1350.38442183599
 21
341.3508220739762
 31
0
  0
LINE
  8
1
 62
2
 10
1351.301088502657
 20
342.7570720739762
 30
0
 11
1350.38442183599
 21
342.7570720739762
 31
0
  0
LINE
  8
1
 62
2
 10
1351.301088502657
 20
343.6945720739762
 30
0
 11
1351.301088502657
 21
342.7570720739762
 31
0
  0
LINE
  8
1
 62
2
 10
1350.38442183599
 20
343.6945720739762
 30
0
 11
1351.301088502657
 21
343.6945720739762
 31
0
  0
LINE
  8
1
 62
2
 10
1349.13442183599
 20
343.7883220739762
 30
0
 11
1349.88442183599
 21
343.7883220739762
 31
0
  0
LINE
  8
1
 62
2
 10
1349.051088502657
 20
343.3195720739762
 30
0
 11
1350.13442183599
 21
343.3195720739762
 31
0
  0
LINE
  8
1
 62
2
 10
1349.88442183599
 20
342.9445720739762
 30
0
 11
1349.217755169324
 21
342.9445720739762
 31
0
  0
LINE
  8
1
 62
2
 10
1349.217755169324
 20
342.4758220739762
 30
0
 11
1349.88442183599
 21
342.4758220739762
 31
0
  0
LINE
  8
1
 62
2
 10
1349.88442183599
 20
341.3508220739762
 30
0
 11
1349.217755169324
 21
341.3508220739762
 31
0
  0
LINE
  8
1
 62
2
 10
1349.88442183599
 20
342.1008220739762
 30
0
 11
1349.88442183599
 21
341.3508220739762
 31
0
  0
LINE
  8
1
 62
2
 10
1349.217755169324
 20
342.1008220739762
 30
0
 11
1349.88442183599
 21
342.1008220739762
 31
0
  0
LINE
  8
1
 62
2
 10
1349.217755169324
 20
341.3508220739762
 30
0
 11
1349.217755169324
 21
342.1008220739762
 31
0
  0
LINE
  8
1
 62
2
 10
1346.717755169324
 20
344.0695720739762
 30
0
 11
1346.717755169324
 21
341.2570720739762
 31
0
  0
LINE
  8
1
 62
2
 10
1348.217755169324
 20
344.1633220739762
 30
0
 11
1348.217755169324
 21
341.1633220739762
 31
0
  0
LINE
  8
1
 62
2
 10
1347.801088502657
 20
343.6008220739762
 30
0
 11
1347.551088502657
 21
343.9758220739762
 31
0
  0
LINE
  8
1
 62
2
 10
1347.801088502657
 20
342.8508220739762
 30
0
 11
1347.551088502657
 21
343.2258220739762
 31
0
  0
LINE
  8
1
 62
2
 10
1347.301088502657
 20
342.1945720739762
 30
0
 11
1348.717755169324
 21
342.4758220739762
 31
0
  0
LINE
  8
1
 62
2
 10
1346.967755169324
 20
342.6633220739762
 30
0
 11
1347.13442183599
 21
342.2883220739762
 31
0
  0
LINE
  8
1
 62
2
 10
1346.967755169324
 20
343.5070720739762
 30
0
 11
1347.13442183599
 21
343.8820720739762
 31
0
  0
LINE
  8
1
 62
2
 10
1346.217755169324
 20
343.7883220739762
 30
0
 11
1346.467755169324
 21
343.4133220739762
 31
0
  0
LINE
  8
1
 62
2
 10
1347.301088502657
 20
343.0383220739762
 30
0
 11
1346.13442183599
 21
343.0383220739762
 31
0
  0
LINE
  8
1
 62
2
 10
1346.38442183599
 20
342.1945720739762
 30
0
 11
1346.717755169324
 21
343.0383220739762
 31
0
  0
LINE
  8
1
 62
2
 10
1346.13442183599
 20
341.7258220739762
 30
0
 11
1346.38442183599
 21
342.1945720739762
 31
0
  0
LINE
  8
1
 62
2
 10
1345.217755169324
 20
341.3508220739762
 30
0
 11
1344.967755169324
 21
341.3508220739762
 31
0
  0
LINE
  8
1
 62
2
 10
1345.13442183599
 20
344.0695720739762
 30
0
 11
1345.217755169324
 21
341.3508220739762
 31
0
  0
LINE
  8
1
 62
2
 10
1345.63442183599
 20
343.2258220739762
 30
0
 11
1344.38442183599
 21
343.2258220739762
 31
0
  0
LINE
  8
1
 62
2
 10
1344.717755169324
 20
342.2883220739762
 30
0
 11
1345.13442183599
 21
343.1320720739762
 31
0
  0
LINE
  8
1
 62
2
 10
1344.217755169324
 20
341.7258220739762
 30
0
 11
1344.717755169324
 21
342.2883220739762
 31
0
  0
LINE
  8
1
 62
2
 10
1343.717755169324
 20
343.2258220739762
 30
0
 11
1344.13442183599
 21
342.5695720739762
 31
0
  0
LINE
  8
1
 62
2
 10
1343.467755169324
 20
342.6633220739762
 30
0
 11
1343.717755169324
 21
343.2258220739762
 31
0
  0
LINE
  8
1
 62
2
 10
1343.13442183599
 20
342.1008220739762
 30
0
 11
1343.467755169324
 21
342.6633220739762
 31
0
  0
LINE
  8
1
 62
2
 10
1344.13442183599
 20
343.3195720739762
 30
0
 11
1343.217755169324
 21
343.3195720739762
 31
0
  0
LINE
  8
1
 62
2
 10
1343.717755169324
 20
341.1633220739762
 30
0
 11
1343.717755169324
 21
344.1633220739762
 31
0
  0
LINE
  8
1
 62
2
 10
1288.499267909487
 20
344.8265658587389
 30
0
 11
1290.165934576154
 21
344.8265658587389
 31
0
  0
LINE
  8
1
 62
2
 10
1287.915934576154
 20
343.3265658587389
 30
0
 11
1290.58260124282
 21
343.3265658587389
 31
0
  0
LINE
  8
1
 62
2
 10
1288.415934576154
 20
343.9828158587389
 30
0
 11
1288.415934576154
 21
343.3265658587389
 31
0
  0
LINE
  8
1
 62
2
 10
1288.415934576154
 20
344.0765658587389
 30
0
 11
1290.08260124282
 21
344.0765658587389
 31
0
  0
LINE
  8
1
 62
2
 10
1289.249267909487
 20
344.8265658587389
 30
0
 11
1289.249267909487
 21
342.2953158587389
 31
0
  0
LINE
  8
1
 62
2
 10
1288.33260124282
 20
344.6390658587389
 30
0
 11
1288.08260124282
 21
344.3578158587389
 31
0
  0
LINE
  8
1
 62
2
 10
1288.58260124282
 20
345.0140658587389
 30
0
 11
1288.33260124282
 21
344.6390658587389
 31
0
  0
LINE
  8
1
 62
2
 10
1288.749267909487
 20
345.2953158587389
 30
0
 11
1288.58260124282
 21
345.0140658587389
 31
0
  0
LINE
  8
1
 62
2
 10
1287.415934576154
 20
344.0765658587389
 30
0
 11
1285.83260124282
 21
344.0765658587389
 31
0
  0
LINE
  8
1
 62
2
 10
1285.499267909487
 20
343.9828158587389
 30
0
 11
1284.999267909487
 21
343.9828158587389
 31
0
  0
LINE
  8
1
 62
2
 10
1285.08260124282
 20
342.5765658587389
 30
0
 11
1284.999267909487
 21
342.4828158587389
 31
0
  0
LINE
  8
1
 62
2
 10
1285.499267909487
 20
344.8265658587389
 30
0
 11
1285.249267909487
 21
345.2015658587389
 31
0
  0
LINE
  8
1
 62
2
 10
1285.999267909487
 20
344.7328158587389
 30
0
 11
1285.83260124282
 21
344.4515658587389
 31
0
  0
LINE
  8
1
 62
2
 10
1286.165934576154
 20
345.2015658587389
 30
0
 11
1285.999267909487
 21
344.7328158587389
 31
0
  0
LINE
  8
1
 62
2
 10
1287.249267909487
 20
344.7328158587389
 30
0
 11
1285.999267909487
 21
344.7328158587389
 31
0
  0
LINE
  8
1
 62
2
 10
1286.58260124282
 20
344.0765658587389
 30
0
 11
1286.58260124282
 21
345.2953158587389
 31
0
  0
LINE
  8
1
 62
2
 10
1286.165934576154
 20
342.9515658587389
 30
0
 11
1287.08260124282
 21
342.9515658587389
 31
0
  0
LINE
  8
1
 62
2
 10
1286.165934576154
 20
343.7015658587389
 30
0
 11
1286.165934576154
 21
342.9515658587389
 31
0
  0
LINE
  8
1
 62
2
 10
1287.08260124282
 20
343.7015658587389
 30
0
 11
1286.165934576154
 21
343.7015658587389
 31
0
  0
LINE
  8
1
 62
2
 10
1287.08260124282
 20
342.9515658587389
 30
0
 11
1287.08260124282
 21
343.7015658587389
 31
0
  0
LINE
  8
1
 62
2
 10
1285.83260124282
 20
342.4828158587389
 30
0
 11
1287.499267909487
 21
342.4828158587389
 31
0
  0
LINE
  8
1
 62
2
 10
1285.665934576154
 20
342.5765658587389
 30
0
 11
1285.83260124282
 21
342.4828158587389
 31
0
  0
LINE
  8
1
 62
2
 10
1285.499267909487
 20
342.9515658587389
 30
0
 11
1285.665934576154
 21
342.5765658587389
 31
0
  0
LINE
  8
1
 62
2
 10
1285.499267909487
 20
342.9515658587389
 30
0
 11
1285.499267909487
 21
343.9828158587389
 31
0
  0
LINE
  8
1
 62
2
 10
1285.08260124282
 20
342.5765658587389
 30
0
 11
1285.499267909487
 21
342.9515658587389
 31
0
  0
LINE
  8
1
 62
2
 10
1282.249267909487
 20
344.0765658587389
 30
0
 11
1282.999267909487
 21
344.0765658587389
 31
0
  0
LINE
  8
1
 62
2
 10
1283.915934576154
 20
342.6703158587389
 30
0
 11
1283.749267909487
 21
343.1390658587389
 31
0
  0
LINE
  8
1
 62
2
 10
1284.249267909487
 20
342.2953158587389
 30
0
 11
1283.915934576154
 21
342.2953158587389
 31
0
  0
LINE
  8
1
 62
2
 10
1284.249267909487
 20
343.7953158587389
 30
0
 11
1284.249267909487
 21
342.2953158587389
 31
0
  0
LINE
  8
1
 62
2
 10
1284.415934576154
 20
344.3578158587389
 30
0
 11
1283.249267909487
 21
344.3578158587389
 31
0
  0
LINE
  8
1
 62
2
 10
1283.165934576154
 20
344.8265658587389
 30
0
 11
1284.415934576154
 21
344.8265658587389
 31
0
  0
LINE
  8
1
 62
2
 10
1283.665934576154
 20
343.9828158587389
 30
0
 11
1283.749267909487
 21
345.1078158587389
 31
0
  0
LINE
  8
1
 62
2
 10
1283.415934576154
 20
343.0453158587389
 30
0
 11
1283.665934576154
 21
343.9828158587389
 31
0
  0
LINE
  8
1
 62
2
 10
1283.08260124282
 20
342.4828158587389
 30
0
 11
1283.415934576154
 21
343.0453158587389
 31
0
  0
LINE
  8
1
 62
2
 10
1284.58260124282
 20
343.4203158587389
 30
0
 11
1283.165934576154
 21
343.4203158587389
 31
0
  0
LINE
  8
1
 62
2
 10
1283.08260124282
 20
343.9828158587389
 30
0
 11
1284.58260124282
 21
343.9828158587389
 31
0
  0
LINE
  8
1
 62
2
 10
1282.58260124282
 20
342.5765658587389
 30
0
 11
1282.58260124282
 21
344.0765658587389
 31
0
  0
LINE
  8
1
 62
2
 10
1282.165934576154
 20
343.3265658587389
 30
0
 11
1282.33260124282
 21
342.8578158587389
 31
0
  0
LINE
  8
1
 62
2
 10
1282.58260124282
 20
345.1078158587389
 30
0
 11
1281.915934576154
 21
343.7953158587389
 31
0
  0
LINE
  8
1
 62
2
 10
1283.08260124282
 20
344.5453158587389
 30
0
 11
1282.58260124282
 21
345.1078158587389
 31
0
  0
LINE
  8
1
 62
2
 10
1282.999267909487
 20
343.6078158587389
 30
0
 11
1282.165934576154
 21
343.6078158587389
 31
0
  0
LINE
  8
1
 62
2
 10
1282.83260124282
 20
342.8578158587389
 30
0
 11
1282.915934576154
 21
343.3265658587389
 31
0
  0
LINE
  8
1
 62
2
 10
1282.08260124282
 20
342.3890658587389
 30
0
 11
1282.999267909487
 21
342.7640658587389
 31
0
  0
LINE
  8
1
 62
7
 10
1337.793113550817
 20
352.4221545162089
 30
0
 11
1337.793113550817
 21
351.5471545162089
 31
0
  0
LINE
  8
1
 62
7
 10
1334.503113550817
 20
352.4221545162089
 30
0
 11
1337.793113550817
 21
352.4221545162089
 31
0
  0
LINE
  8
1
 62
7
 10
1334.503113550817
 20
354.6971545162089
 30
0
 11
1334.503113550817
 21
352.4221545162089
 31
0
  0
LINE
  8
1
 62
7
 10
1337.443113550817
 20
354.6971545162089
 30
0
 11
1334.503113550817
 21
354.6971545162089
 31
0
  0
LINE
  8
1
 62
7
 10
1337.443113550817
 20
355.5721545162089
 30
0
 11
1337.443113550817
 21
354.6971545162089
 31
0
  0
LINE
  8
1
 62
7
 10
1334.503113550817
 20
355.5721545162089
 30
0
 11
1337.443113550817
 21
355.5721545162089
 31
0
  0
LINE
  8
1
 62
7
 10
1334.503113550817
 20
357.6721545162089
 30
0
 11
1334.503113550817
 21
355.5721545162089
 31
0
  0
LINE
  8
1
 62
7
 10
1337.723113550817
 20
357.6721545162089
 30
0
 11
1334.503113550817
 21
357.6721545162089
 31
0
  0
LINE
  8
1
 62
7
 10
1337.723113550817
 20
358.5471545162089
 30
0
 11
1337.723113550817
 21
357.6721545162089
 31
0
  0
LINE
  8
1
 62
7
 10
1333.733113550817
 20
358.5471545162089
 30
0
 11
1337.723113550817
 21
358.5471545162089
 31
0
  0
LINE
  8
1
 62
7
 10
1333.733113550817
 20
351.5471545162089
 30
0
 11
1333.733113550817
 21
358.5471545162089
 31
0
  0
LINE
  8
1
 62
7
 10
1337.793113550817
 20
351.5471545162089
 30
0
 11
1333.733113550817
 21
351.5471545162089
 31
0
  0
LINE
  8
1
 62
2
 10
1272.855741963362
 20
398.4361641735479
 30
0
 11
1272.855741963362
 21
397.2361641735479
 31
0
  0
LINE
  8
1
 62
2
 10
1271.505741963362
 20
397.8361641735479
 30
0
 11
1273.305741963362
 21
397.8361641735479
 31
0
  0
LINE
  8
1
 62
2
 10
1272.855741963362
 20
400.2361641735479
 30
0
 11
1271.505741963362
 21
397.8361641735479
 31
0
  0
LINE
  8
1
 62
2
 10
1270.605741963362
 20
400.2361641735479
 30
0
 11
1270.605741963362
 21
397.2361641735479
 31
0
  0
LINE
  8
1
 62
2
 10
1269.705741963362
 20
399.3361641735479
 30
0
 11
1270.605741963362
 21
400.2361641735479
 31
0
  0
LINE
  8
1
 62
2
 10
1266.955741963362
 20
397.4236641735479
 30
0
 11
1269.122408630029
 21
397.4236641735479
 31
0
  0
LINE
  8
1
 62
2
 10
1268.039075296695
 20
400.0486641735479
 30
0
 11
1268.039075296695
 21
397.4236641735479
 31
0
  0
LINE
  8
1
 62
2
 10
1269.122408630029
 20
397.4236641735479
 30
0
 11
1269.122408630029
 21
399.3924141735479
 31
0
  0
LINE
  8
1
 62
2
 10
1266.955741963362
 20
399.3924141735479
 30
0
 11
1266.955741963362
 21
397.4236641735479
 31
0
  0
LINE
  8
1
 62
2
 10
1257.105741963362
 20
400.0111641735479
 30
0
 11
1257.330741963362
 21
400.1611641735479
 31
0
  0
LINE
  8
1
 62
2
 10
1256.955741963362
 20
399.7861641735479
 30
0
 11
1257.105741963362
 21
400.0111641735479
 31
0
  0
LINE
  8
1
 62
2
 10
1256.955741963362
 20
399.4861641735479
 30
0
 11
1256.955741963362
 21
399.7861641735479
 31
0
  0
LINE
  8
1
 62
2
 10
1257.105741963362
 20
399.2611641735479
 30
0
 11
1256.955741963362
 21
399.4861641735479
 31
0
  0
LINE
  8
1
 62
2
 10
1257.330741963362
 20
399.1111641735479
 30
0
 11
1257.105741963362
 21
399.2611641735479
 31
0
  0
LINE
  8
1
 62
2
 10
1257.555741963362
 20
399.0361641735479
 30
0
 11
1257.330741963362
 21
399.1111641735479
 31
0
  0
LINE
  8
1
 62
2
 10
1257.855741963362
 20
399.0361641735479
 30
0
 11
1257.555741963362
 21
399.0361641735479
 31
0
  0
LINE
  8
1
 62
2
 10
1258.080741963362
 20
399.1111641735479
 30
0
 11
1257.855741963362
 21
399.0361641735479
 31
0
  0
LINE
  8
1
 62
2
 10
1258.305741963362
 20
399.2611641735479
 30
0
 11
1258.080741963362
 21
399.1111641735479
 31
0
  0
LINE
  8
1
 62
2
 10
1258.455741963362
 20
399.4861641735479
 30
0
 11
1258.305741963362
 21
399.2611641735479
 31
0
  0
LINE
  8
1
 62
2
 10
1258.455741963362
 20
399.7861641735479
 30
0
 11
1258.455741963362
 21
399.4861641735479
 31
0
  0
LINE
  8
1
 62
2
 10
1258.305741963362
 20
400.0111641735479
 30
0
 11
1258.455741963362
 21
399.7861641735479
 31
0
  0
LINE
  8
1
 62
2
 10
1258.080741963362
 20
400.1611641735479
 30
0
 11
1258.305741963362
 21
400.0111641735479
 31
0
  0
LINE
  8
1
 62
2
 10
1257.855741963362
 20
400.2361641735479
 30
0
 11
1258.080741963362
 21
400.1611641735479
 31
0
  0
LINE
  8
1
 62
2
 10
1257.555741963362
 20
400.2361641735479
 30
0
 11
1257.855741963362
 21
400.2361641735479
 31
0
  0
LINE
  8
1
 62
2
 10
1257.330741963362
 20
400.1611641735479
 30
0
 11
1257.555741963362
 21
400.2361641735479
 31
0
  0
LINE
  8
1
 62
2
 10
1258.230741963362
 20
398.8861641735479
 30
0
 11
1257.855741963362
 21
399.0361641735479
 31
0
  0
LINE
  8
1
 62
2
 10
1258.455741963362
 20
398.6611641735479
 30
0
 11
1258.230741963362
 21
398.8861641735479
 31
0
  0
LINE
  8
1
 62
2
 10
1258.605741963362
 20
398.3611641735479
 30
0
 11
1258.455741963362
 21
398.6611641735479
 31
0
  0
LINE
  8
1
 62
2
 10
1258.605741963362
 20
397.9111641735479
 30
0
 11
1258.605741963362
 21
398.3611641735479
 31
0
  0
LINE
  8
1
 62
2
 10
1258.455741963362
 20
397.6111641735479
 30
0
 11
1258.605741963362
 21
397.9111641735479
 31
0
  0
LINE
  8
1
 62
2
 10
1258.230741963362
 20
397.3861641735479
 30
0
 11
1258.455741963362
 21
397.6111641735479
 31
0
  0
LINE
  8
1
 62
2
 10
1257.930741963362
 20
397.2361641735479
 30
0
 11
1258.230741963362
 21
397.3861641735479
 31
0
  0
LINE
  8
1
 62
2
 10
1257.480741963362
 20
397.2361641735479
 30
0
 11
1257.930741963362
 21
397.2361641735479
 31
0
  0
LINE
  8
1
 62
2
 10
1257.180741963362
 20
397.3861641735479
 30
0
 11
1257.480741963362
 21
397.2361641735479
 31
0
  0
LINE
  8
1
 62
2
 10
1256.955741963362
 20
397.6111641735479
 30
0
 11
1257.180741963362
 21
397.3861641735479
 31
0
  0
LINE
  8
1
 62
2
 10
1256.805741963362
 20
397.9111641735479
 30
0
 11
1256.955741963362
 21
397.6111641735479
 31
0
  0
LINE
  8
1
 62
2
 10
1256.805741963362
 20
398.3611641735479
 30
0
 11
1256.805741963362
 21
397.9111641735479
 31
0
  0
LINE
  8
1
 62
2
 10
1256.955741963362
 20
398.6611641735479
 30
0
 11
1256.805741963362
 21
398.3611641735479
 31
0
  0
LINE
  8
1
 62
2
 10
1257.180741963362
 20
398.8861641735479
 30
0
 11
1256.955741963362
 21
398.6611641735479
 31
0
  0
LINE
  8
1
 62
2
 10
1257.555741963362
 20
399.0361641735479
 30
0
 11
1257.180741963362
 21
398.8861641735479
 31
0
  0
LINE
  8
1
 62
2
 10
1255.905741963362
 20
397.2361641735479
 30
0
 11
1255.830741963362
 21
397.2361641735479
 31
0
  0
LINE
  8
1
 62
2
 10
1255.905741963362
 20
397.3111641735479
 30
0
 11
1255.905741963362
 21
397.2361641735479
 31
0
  0
LINE
  8
1
 62
2
 10
1255.830741963362
 20
397.3111641735479
 30
0
 11
1255.905741963362
 21
397.3111641735479
 31
0
  0
LINE
  8
1
 62
2
 10
1255.830741963362
 20
397.2361641735479
 30
0
 11
1255.830741963362
 21
397.3111641735479
 31
0
  0
LINE
  8
1
 62
2
 10
1254.255741963362
 20
397.2361641735479
 30
0
 11
1253.130741963362
 21
397.2361641735479
 31
0
  0
LINE
  8
1
 62
2
 10
1254.480741963362
 20
397.3111641735479
 30
0
 11
1254.255741963362
 21
397.2361641735479
 31
0
  0
LINE
  8
1
 62
2
 10
1254.705741963362
 20
397.4611641735479
 30
0
 11
1254.480741963362
 21
397.3111641735479
 31
0
  0
LINE
  8
1
 62
2
 10
1254.855741963362
 20
397.6861641735479
 30
0
 11
1254.705741963362
 21
397.4611641735479
 31
0
  0
LINE
  8
1
 62
2
 10
1254.930741963362
 20
397.9861641735479
 30
0
 11
1254.855741963362
 21
397.6861641735479
 31
0
  0
LINE
  8
1
 62
2
 10
1254.930741963362
 20
398.4361641735479
 30
0
 11
1254.930741963362
 21
397.9861641735479
 31
0
  0
LINE
  8
1
 62
2
 10
1254.855741963362
 20
398.7361641735479
 30
0
 11
1254.930741963362
 21
398.4361641735479
 31
0
  0
LINE
  8
1
 62
2
 10
1254.630741963362
 20
398.9611641735479
 30
0
 11
1254.855741963362
 21
398.7361641735479
 31
0
  0
LINE
  8
1
 62
2
 10
1254.255741963362
 20
399.0361641735479
 30
0
 11
1254.630741963362
 21
398.9611641735479
 31
0
  0
LINE
  8
1
 62
2
 10
1253.130741963362
 20
399.0361641735479
 30
0
 11
1254.255741963362
 21
399.0361641735479
 31
0
  0
LINE
  8
1
 62
2
 10
1253.130741963362
 20
400.2361641735479
 30
0
 11
1253.130741963362
 21
399.0361641735479
 31
0
  0
LINE
  8
1
 62
2
 10
1254.780741963362
 20
400.2361641735479
 30
0
 11
1253.130741963362
 21
400.2361641735479
 31
0
  0
LINE
  8
1
 62
2
 10
1250.430741963362
 20
397.2361641735479
 30
0
 11
1252.230741963362
 21
397.2361641735479
 31
0
  0
LINE
  8
1
 62
2
 10
1252.080741963362
 20
399.1861641735479
 30
0
 11
1250.430741963362
 21
397.2361641735479
 31
0
  0
LINE
  8
1
 62
2
 10
1252.230741963362
 20
399.4861641735479
 30
0
 11
1252.080741963362
 21
399.1861641735479
 31
0
  0
LINE
  8
1
 62
2
 10
1252.230741963362
 20
399.7861641735479
 30
0
 11
1252.230741963362
 21
399.4861641735479
 31
0
  0
LINE
  8
1
 62
2
 10
1252.080741963362
 20
400.0111641735479
 30
0
 11
1252.230741963362
 21
399.7861641735479
 31
0
  0
LINE
  8
1
 62
2
 10
1251.855741963362
 20
400.1611641735479
 30
0
 11
1252.080741963362
 21
400.0111641735479
 31
0
  0
LINE
  8
1
 62
2
 10
1251.555741963362
 20
400.2361641735479
 30
0
 11
1251.855741963362
 21
400.1611641735479
 31
0
  0
LINE
  8
1
 62
2
 10
1251.105741963362
 20
400.2361641735479
 30
0
 11
1251.555741963362
 21
400.2361641735479
 31
0
  0
LINE
  8
1
 62
2
 10
1250.805741963362
 20
400.1611641735479
 30
0
 11
1251.105741963362
 21
400.2361641735479
 31
0
  0
LINE
  8
1
 62
2
 10
1250.580741963362
 20
400.0111641735479
 30
0
 11
1250.805741963362
 21
400.1611641735479
 31
0
  0
LINE
  8
1
 62
2
 10
1250.430741963362
 20
399.7861641735479
 30
0
 11
1250.580741963362
 21
400.0111641735479
 31
0
  0
LINE
  8
1
 62
2
 10
1245.280741963362
 20
397.3299141735479
 30
0
 11
1245.280741963362
 21
400.0486641735479
 31
0
  0
LINE
  8
1
 62
2
 10
1246.114075296695
 20
400.0486641735479
 30
0
 11
1246.114075296695
 21
399.1111641735479
 31
0
  0
LINE
  8
1
 62
2
 10
1247.447408630029
 20
397.4236641735479
 30
0
 11
1247.447408630029
 21
400.0486641735479
 31
0
  0
LINE
  8
1
 62
2
 10
1246.614075296695
 20
400.0486641735479
 30
0
 11
1246.614075296695
 21
399.1111641735479
 31
0
  0
LINE
  8
1
 62
2
 10
1246.614075296695
 20
399.5799141735479
 30
0
 11
1247.447408630029
 21
399.5799141735479
 31
0
  0
LINE
  8
1
 62
2
 10
1246.614075296695
 20
399.1111641735479
 30
0
 11
1247.447408630029
 21
399.1111641735479
 31
0
  0
LINE
  8
1
 62
2
 10
1247.447408630029
 20
400.0486641735479
 30
0
 11
1246.614075296695
 21
400.0486641735479
 31
0
  0
LINE
  8
1
 62
2
 10
1247.364075296695
 20
397.3299141735479
 30
0
 11
1247.447408630029
 21
397.4236641735479
 31
0
  0
LINE
  8
1
 62
2
 10
1247.114075296695
 20
397.3299141735479
 30
0
 11
1247.364075296695
 21
397.3299141735479
 31
0
  0
LINE
  8
1
 62
2
 10
1246.114075296695
 20
399.5799141735479
 30
0
 11
1245.280741963362
 21
399.5799141735479
 31
0
  0
LINE
  8
1
 62
2
 10
1246.114075296695
 20
399.1111641735479
 30
0
 11
1245.280741963362
 21
399.1111641735479
 31
0
  0
LINE
  8
1
 62
2
 10
1245.280741963362
 20
400.0486641735479
 30
0
 11
1246.114075296695
 21
400.0486641735479
 31
0
  0
LINE
  8
1
 62
2
 10
1242.280741963362
 20
397.3299141735479
 30
0
 11
1244.364075296695
 21
397.3299141735479
 31
0
  0
LINE
  8
1
 62
2
 10
1242.780741963362
 20
399.1111641735479
 30
0
 11
1243.947408630029
 21
399.1111641735479
 31
0
  0
LINE
  8
1
 62
2
 10
1244.364075296695
 20
399.0174141735479
 30
0
 11
1244.697408630029
 21
398.7361641735479
 31
0
  0
LINE
  8
1
 62
2
 10
1243.780741963362
 20
399.6736641735479
 30
0
 11
1244.364075296695
 21
399.0174141735479
 31
0
  0
LINE
  8
1
 62
2
 10
1243.364075296695
 20
400.2361641735479
 30
0
 11
1243.780741963362
 21
399.6736641735479
 31
0
  0
LINE
  8
1
 62
2
 10
1242.947408630029
 20
399.6736641735479
 30
0
 11
1243.364075296695
 21
400.2361641735479
 31
0
  0
LINE
  8
1
 62
2
 10
1242.364075296695
 20
399.0174141735479
 30
0
 11
1242.947408630029
 21
399.6736641735479
 31
0
  0
LINE
  8
1
 62
2
 10
1242.030741963362
 20
398.7361641735479
 30
0
 11
1242.364075296695
 21
399.0174141735479
 31
0
  0
LINE
  8
1
 62
2
 10
1243.780741963362
 20
397.7049141735479
 30
0
 11
1243.947408630029
 21
398.1736641735479
 31
0
  0
LINE
  8
1
 62
2
 10
1242.780741963362
 20
398.1736641735479
 30
0
 11
1242.947408630029
 21
397.7049141735479
 31
0
  0
LINE
  8
1
 62
2
 10
1244.197408630029
 20
398.5486641735479
 30
0
 11
1242.530741963362
 21
398.5486641735479
 31
0
  0
LINE
  8
1
 62
2
 10
1243.364075296695
 20
397.3299141735479
 30
0
 11
1243.364075296695
 21
399.1111641735479
 31
0
  0
LINE
  8
1
 62
2
 10
1272.705741963362
 20
403.4361641735479
 30
0
 11
1272.705741963362
 21
402.2361641735479
 31
0
  0
LINE
  8
1
 62
2
 10
1271.355741963362
 20
402.8361641735479
 30
0
 11
1273.155741963362
 21
402.8361641735479
 31
0
  0
LINE
  8
1
 62
2
 10
1272.705741963362
 20
405.2361641735479
 30
0
 11
1271.355741963362
 21
402.8361641735479
 31
0
  0
LINE
  8
1
 62
2
 10
1270.455741963362
 20
405.2361641735479
 30
0
 11
1270.455741963362
 21
402.2361641735479
 31
0
  0
LINE
  8
1
 62
2
 10
1269.555741963362
 20
404.3361641735479
 30
0
 11
1270.455741963362
 21
405.2361641735479
 31
0
  0
LINE
  8
1
 62
2
 10
1266.805741963362
 20
402.4236641735479
 30
0
 11
1268.972408630029
 21
402.4236641735479
 31
0
  0
LINE
  8
1
 62
2
 10
1267.889075296695
 20
405.0486641735479
 30
0
 11
1267.889075296695
 21
402.4236641735479
 31
0
  0
LINE
  8
1
 62
2
 10
1268.972408630029
 20
402.4236641735479
 30
0
 11
1268.972408630029
 21
404.3924141735479
 31
0
  0
LINE
  8
1
 62
2
 10
1266.805741963362
 20
404.3924141735479
 30
0
 11
1266.805741963362
 21
402.4236641735479
 31
0
  0
LINE
  8
1
 62
2
 10
1263.255741963362
 20
405.2361641735479
 30
0
 11
1263.255741963362
 21
402.2361641735479
 31
0
  0
LINE
  8
1
 62
2
 10
1262.355741963362
 20
404.3361641735479
 30
0
 11
1263.255741963362
 21
405.2361641735479
 31
0
  0
LINE
  8
1
 62
2
 10
1261.005741963362
 20
403.4361641735479
 30
0
 11
1261.005741963362
 21
402.2361641735479
 31
0
  0
LINE
  8
1
 62
2
 10
1259.655741963362
 20
402.8361641735479
 30
0
 11
1261.455741963362
 21
402.8361641735479
 31
0
  0
LINE
  8
1
 62
2
 10
1261.005741963362
 20
405.2361641735479
 30
0
 11
1259.655741963362
 21
402.8361641735479
 31
0
  0
LINE
  8
1
 62
2
 10
1258.305741963362
 20
403.4361641735479
 30
0
 11
1258.305741963362
 21
402.2361641735479
 31
0
  0
LINE
  8
1
 62
2
 10
1256.955741963362
 20
402.8361641735479
 30
0
 11
1258.755741963362
 21
402.8361641735479
 31
0
  0
LINE
  8
1
 62
2
 10
1258.305741963362
 20
405.2361641735479
 30
0
 11
1256.955741963362
 21
402.8361641735479
 31
0
  0
LINE
  8
1
 62
2
 10
1256.055741963362
 20
402.2361641735479
 30
0
 11
1255.980741963362
 21
402.2361641735479
 31
0
  0
LINE
  8
1
 62
2
 10
1256.055741963362
 20
402.3111641735479
 30
0
 11
1256.055741963362
 21
402.2361641735479
 31
0
  0
LINE
  8
1
 62
2
 10
1255.980741963362
 20
402.3111641735479
 30
0
 11
1256.055741963362
 21
402.3111641735479
 31
0
  0
LINE
  8
1
 62
2
 10
1255.980741963362
 20
402.2361641735479
 30
0
 11
1255.980741963362
 21
402.3111641735479
 31
0
  0
LINE
  8
1
 62
2
 10
1253.805741963362
 20
404.5611641735479
 30
0
 11
1254.630741963362
 21
405.2361641735479
 31
0
  0
LINE
  8
1
 62
2
 10
1253.505741963362
 20
404.1861641735479
 30
0
 11
1253.805741963362
 21
404.5611641735479
 31
0
  0
LINE
  8
1
 62
2
 10
1253.355741963362
 20
403.8861641735479
 30
0
 11
1253.505741963362
 21
404.1861641735479
 31
0
  0
LINE
  8
1
 62
2
 10
1253.280741963362
 20
403.2861641735479
 30
0
 11
1253.355741963362
 21
403.8861641735479
 31
0
  0
LINE
  8
1
 62
2
 10
1253.280741963362
 20
402.9861641735479
 30
0
 11
1253.280741963362
 21
403.2861641735479
 31
0
  0
LINE
  8
1
 62
2
 10
1253.355741963362
 20
402.6861641735479
 30
0
 11
1253.280741963362
 21
402.9861641735479
 31
0
  0
LINE
  8
1
 62
2
 10
1253.505741963362
 20
402.4611641735479
 30
0
 11
1253.355741963362
 21
402.6861641735479
 31
0
  0
LINE
  8
1
 62
2
 10
1253.730741963362
 20
402.3111641735479
 30
0
 11
1253.505741963362
 21
402.4611641735479
 31
0
  0
LINE
  8
1
 62
2
 10
1253.955741963362
 20
402.2361641735479
 30
0
 11
1253.730741963362
 21
402.3111641735479
 31
0
  0
LINE
  8
1
 62
2
 10
1254.405741963362
 20
402.2361641735479
 30
0
 11
1253.955741963362
 21
402.2361641735479
 31
0
  0
LINE
  8
1
 62
2
 10
1254.630741963362
 20
402.3111641735479
 30
0
 11
1254.405741963362
 21
402.2361641735479
 31
0
  0
LINE
  8
1
 62
2
 10
1254.855741963362
 20
402.4611641735479
 30
0
 11
1254.630741963362
 21
402.3111641735479
 31
0
  0
LINE
  8
1
 62
2
 10
1255.005741963362
 20
402.6861641735479
 30
0
 11
1254.855741963362
 21
402.4611641735479
 31
0
  0
LINE
  8
1
 62
2
 10
1255.080741963362
 20
402.9861641735479
 30
0
 11
1255.005741963362
 21
402.6861641735479
 31
0
  0
LINE
  8
1
 62
2
 10
1255.080741963362
 20
403.2861641735479
 30
0
 11
1255.080741963362
 21
402.9861641735479
 31
0
  0
LINE
  8
1
 62
2
 10
1255.005741963362
 20
403.5861641735479
 30
0
 11
1255.080741963362
 21
403.2861641735479
 31
0
  0
LINE
  8
1
 62
2
 10
1254.855741963362
 20
403.8111641735479
 30
0
 11
1255.005741963362
 21
403.5861641735479
 31
0
  0
LINE
  8
1
 62
2
 10
1254.630741963362
 20
403.9611641735479
 30
0
 11
1254.855741963362
 21
403.8111641735479
 31
0
  0
LINE
  8
1
 62
2
 10
1254.405741963362
 20
404.0361641735479
 30
0
 11
1254.630741963362
 21
403.9611641735479
 31
0
  0
LINE
  8
1
 62
2
 10
1253.955741963362
 20
404.0361641735479
 30
0
 11
1254.405741963362
 21
404.0361641735479
 31
0
  0
LINE
  8
1
 62
2
 10
1253.730741963362
 20
403.9611641735479
 30
0
 11
1253.955741963362
 21
404.0361641735479
 31
0
  0
LINE
  8
1
 62
2
 10
1253.505741963362
 20
403.8111641735479
 30
0
 11
1253.730741963362
 21
403.9611641735479
 31
0
  0
LINE
  8
1
 62
2
 10
1253.355741963362
 20
403.5861641735479
 30
0
 11
1253.505741963362
 21
403.8111641735479
 31
0
  0
LINE
  8
1
 62
2
 10
1253.280741963362
 20
403.2861641735479
 30
0
 11
1253.355741963362
 21
403.5861641735479
 31
0
  0
LINE
  8
1
 62
2
 10
1250.580741963362
 20
402.2361641735479
 30
0
 11
1252.380741963362
 21
402.2361641735479
 31
0
  0
LINE
  8
1
 62
2
 10
1252.230741963362
 20
404.1861641735479
 30
0
 11
1250.580741963362
 21
402.2361641735479
 31
0
  0
LINE
  8
1
 62
2
 10
1252.380741963362
 20
404.4861641735479
 30
0
 11
1252.230741963362
 21
404.1861641735479
 31
0
  0
LINE
  8
1
 62
2
 10
1252.380741963362
 20
404.7861641735479
 30
0
 11
1252.380741963362
 21
404.4861641735479
 31
0
  0
LINE
  8
1
 62
2
 10
1252.230741963362
 20
405.0111641735479
 30
0
 11
1252.380741963362
 21
404.7861641735479
 31
0
  0
LINE
  8
1
 62
2
 10
1252.005741963362
 20
405.1611641735479
 30
0
 11
1252.230741963362
 21
405.0111641735479
 31
0
  0
LINE
  8
1
 62
2
 10
1251.705741963362
 20
405.2361641735479
 30
0
 11
1252.005741963362
 21
405.1611641735479
 31
0
  0
LINE
  8
1
 62
2
 10
1251.255741963362
 20
405.2361641735479
 30
0
 11
1251.705741963362
 21
405.2361641735479
 31
0
  0
LINE
  8
1
 62
2
 10
1250.955741963362
 20
405.1611641735479
 30
0
 11
1251.255741963362
 21
405.2361641735479
 31
0
  0
LINE
  8
1
 62
2
 10
1250.730741963362
 20
405.0111641735479
 30
0
 11
1250.955741963362
 21
405.1611641735479
 31
0
  0
LINE
  8
1
 62
2
 10
1250.580741963362
 20
404.7861641735479
 30
0
 11
1250.730741963362
 21
405.0111641735479
 31
0
  0
LINE
  8
1
 62
2
 10
1247.430741963362
 20
403.1736641735479
 30
0
 11
1247.847408630029
 21
402.7049141735479
 31
0
  0
LINE
  8
1
 62
2
 10
1247.097408630029
 20
403.7361641735479
 30
0
 11
1247.430741963362
 21
403.1736641735479
 31
0
  0
LINE
  8
1
 62
2
 10
1246.847408630029
 20
404.3924141735479
 30
0
 11
1247.097408630029
 21
403.7361641735479
 31
0
  0
LINE
  8
1
 62
2
 10
1247.597408630029
 20
404.4861641735479
 30
0
 11
1247.014075296695
 21
404.0174141735479
 31
0
  0
LINE
  8
1
 62
2
 10
1246.597408630029
 20
402.2361641735479
 30
0
 11
1246.347408630029
 21
402.3299141735479
 31
0
  0
LINE
  8
1
 62
2
 10
1246.597408630029
 20
405.1424141735479
 30
0
 11
1246.597408630029
 21
402.2361641735479
 31
0
  0
LINE
  8
1
 62
2
 10
1246.180741963362
 20
404.2049141735479
 30
0
 11
1245.347408630029
 21
404.2049141735479
 31
0
  0
LINE
  8
1
 62
2
 10
1246.014075296695
 20
403.6424141735479
 30
0
 11
1246.180741963362
 21
404.2049141735479
 31
0
  0
LINE
  8
1
 62
2
 10
1245.680741963362
 20
403.0799141735479
 30
0
 11
1246.014075296695
 21
403.6424141735479
 31
0
  0
LINE
  8
1
 62
2
 10
1245.347408630029
 20
402.7049141735479
 30
0
 11
1245.680741963362
 21
403.0799141735479
 31
0
  0
LINE
  8
1
 62
2
 10
1243.430741963362
 20
405.2361641735479
 30
0
 11
1243.430741963362
 21
402.3299141735479
 31
0
  0
LINE
  8
1
 62
2
 10
1242.180741963362
 20
402.3299141735479
 30
0
 11
1244.847408630029
 21
402.3299141735479
 31
0
  0
LINE
  8
1
 62
2
 10
1244.430741963362
 20
404.1111641735479
 30
0
 11
1243.430741963362
 21
404.1111641735479
 31
0
  0
LINE
  8
1
 62
2
 10
1295.83260124282
 20
336.9334634249568
 30
0
 11
1295.665934576154
 21
336.6522134249568
 31
0
  0
LINE
  8
1
 62
2
 10
1295.999267909487
 20
337.4022134249568
 30
0
 11
1295.83260124282
 21
336.9334634249568
 31
0
  0
LINE
  8
1
 62
2
 10
1295.999267909487
 20
338.9022134249568
 30
0
 11
1295.999267909487
 21
337.4022134249568
 31
0
  0
LINE
  8
1
 62
2
 10
1295.83260124282
 20
339.3709634249568
 30
0
 11
1295.999267909487
 21
338.9022134249568
 31
0
  0
LINE
  8
1
 62
2
 10
1295.665934576154
 20
339.6522134249568
 30
0
 11
1295.83260124282
 21
339.3709634249568
 31
0
  0
LINE
  8
1
 62
2
 10
1291.665934576154
 20
338.8084634249568
 30
0
 11
1292.499267909487
 21
338.8084634249568
 31
0
  0
LINE
  8
1
 62
2
 10
1292.08260124282
 20
339.5584634249568
 30
0
 11
1292.08260124282
 21
336.7459634249568
 31
0
  0
LINE
  8
1
 62
2
 10
1293.165934576154
 20
338.5272134249568
 30
0
 11
1294.165934576154
 21
338.5272134249568
 31
0
  0
LINE
  8
1
 62
2
 10
1293.665934576154
 20
336.7459634249568
 30
0
 11
1293.415934576154
 21
336.7459634249568
 31
0
  0
LINE
  8
1
 62
2
 10
1293.749267909487
 20
336.9334634249568
 30
0
 11
1293.665934576154
 21
336.7459634249568
 31
0
  0
LINE
  8
1
 62
2
 10
1293.749267909487
 20
338.5272134249568
 30
0
 11
1293.749267909487
 21
336.9334634249568
 31
0
  0
LINE
  8
1
 62
2
 10
1293.249267909487
 20
339.2772134249568
 30
0
 11
1293.999267909487
 21
339.2772134249568
 31
0
  0
LINE
  8
1
 62
2
 10
1292.83260124282
 20
338.2459634249568
 30
0
 11
1292.83260124282
 21
336.7459634249568
 31
0
  0
LINE
  8
1
 62
2
 10
1292.665934576154
 20
337.9647134249568
 30
0
 11
1292.415934576154
 21
337.6834634249568
 31
0
  0
LINE
  8
1
 62
2
 10
1293.165934576154
 20
338.9022134249568
 30
0
 11
1292.665934576154
 21
337.9647134249568
 31
0
  0
LINE
  8
1
 62
2
 10
1292.999267909487
 20
339.4647134249568
 30
0
 11
1292.58260124282
 21
338.8084634249568
 31
0
  0
LINE
  8
1
 62
2
 10
1292.08260124282
 20
338.8084634249568
 30
0
 11
1292.415934576154
 21
338.0584634249568
 31
0
  0
LINE
  8
1
 62
2
 10
1291.665934576154
 20
337.7772134249568
 30
0
 11
1291.58260124282
 21
337.5897134249568
 31
0
  0
LINE
  8
1
 62
2
 10
1291.83260124282
 20
338.0584634249568
 30
0
 11
1291.665934576154
 21
337.7772134249568
 31
0
  0
LINE
  8
1
 62
2
 10
1292.08260124282
 20
338.8084634249568
 30
0
 11
1291.83260124282
 21
338.0584634249568
 31
0
  0
LINE
  8
1
 62
2
 10
1288.749267909487
 20
336.6522134249568
 30
0
 11
1290.915934576154
 21
336.6522134249568
 31
0
  0
LINE
  8
1
 62
2
 10
1288.83260124282
 20
337.2147134249568
 30
0
 11
1288.749267909487
 21
336.6522134249568
 31
0
  0
LINE
  8
1
 62
2
 10
1288.915934576154
 20
337.4022134249568
 30
0
 11
1288.83260124282
 21
337.2147134249568
 31
0
  0
LINE
  8
1
 62
2
 10
1289.165934576154
 20
337.5897134249568
 30
0
 11
1288.915934576154
 21
337.4022134249568
 31
0
  0
LINE
  8
1
 62
2
 10
1290.499267909487
 20
337.7772134249568
 30
0
 11
1289.165934576154
 21
337.5897134249568
 31
0
  0
LINE
  8
1
 62
2
 10
1290.83260124282
 20
337.9647134249568
 30
0
 11
1290.499267909487
 21
337.7772134249568
 31
0
  0
LINE
  8
1
 62
2
 10
1290.915934576154
 20
338.1522134249568
 30
0
 11
1290.83260124282
 21
337.9647134249568
 31
0
  0
LINE
  8
1
 62
2
 10
1290.915934576154
 20
338.6209634249568
 30
0
 11
1290.915934576154
 21
338.1522134249568
 31
0
  0
LINE
  8
1
 62
2
 10
1290.83260124282
 20
338.8084634249568
 30
0
 11
1290.915934576154
 21
338.6209634249568
 31
0
  0
LINE
  8
1
 62
2
 10
1290.499267909487
 20
338.9959634249568
 30
0
 11
1290.83260124282
 21
338.8084634249568
 31
0
  0
LINE
  8
1
 62
2
 10
1290.165934576154
 20
339.0897134249568
 30
0
 11
1290.499267909487
 21
338.9959634249568
 31
0
  0
LINE
  8
1
 62
2
 10
1289.58260124282
 20
339.0897134249568
 30
0
 11
1290.165934576154
 21
339.0897134249568
 31
0
  0
LINE
  8
1
 62
2
 10
1289.249267909487
 20
338.9959634249568
 30
0
 11
1289.58260124282
 21
339.0897134249568
 31
0
  0
LINE
  8
1
 62
2
 10
1288.915934576154
 20
338.8084634249568
 30
0
 11
1289.249267909487
 21
338.9959634249568
 31
0
  0
LINE
  8
1
 62
2
 10
1288.83260124282
 20
338.6209634249568
 30
0
 11
1288.915934576154
 21
338.8084634249568
 31
0
  0
LINE
  8
1
 62
2
 10
1288.08260124282
 20
339.2772134249568
 30
0
 11
1285.58260124282
 21
339.2772134249568
 31
0
  0
LINE
  8
1
 62
2
 10
1287.249267909487
 20
338.6209634249568
 30
0
 11
1287.749267909487
 21
338.0584634249568
 31
0
  0
LINE
  8
1
 62
2
 10
1286.83260124282
 20
336.6522134249568
 30
0
 11
1286.83260124282
 21
339.2772134249568
 31
0
  0
LINE
  8
1
 62
2
 10
1283.415934576154
 20
339.3709634249568
 30
0
 11
1283.415934576154
 21
337.9647134249568
 31
0
  0
LINE
  8
1
 62
2
 10
1284.999267909487
 20
338.9022134249568
 30
0
 11
1283.999267909487
 21
338.9022134249568
 31
0
  0
LINE
  8
1
 62
2
 10
1284.499267909487
 20
339.3709634249568
 30
0
 11
1284.499267909487
 21
337.9647134249568
 31
0
  0
LINE
  8
1
 62
2
 10
1283.33260124282
 20
337.6834634249568
 30
0
 11
1283.33260124282
 21
336.7459634249568
 31
0
  0
LINE
  8
1
 62
2
 10
1284.665934576154
 20
336.7459634249568
 30
0
 11
1284.665934576154
 21
337.6834634249568
 31
0
  0
LINE
  8
1
 62
2
 10
1283.33260124282
 20
337.2147134249568
 30
0
 11
1284.665934576154
 21
337.2147134249568
 31
0
  0
LINE
  8
1
 62
2
 10
1283.33260124282
 20
336.7459634249568
 30
0
 11
1284.665934576154
 21
336.7459634249568
 31
0
  0
LINE
  8
1
 62
2
 10
1284.665934576154
 20
337.6834634249568
 30
0
 11
1283.33260124282
 21
337.6834634249568
 31
0
  0
LINE
  8
1
 62
2
 10
1284.749267909487
 20
338.5272134249568
 30
0
 11
1285.165934576154
 21
338.0584634249568
 31
0
  0
LINE
  8
1
 62
2
 10
1284.499267909487
 20
338.9022134249568
 30
0
 11
1284.749267909487
 21
338.5272134249568
 31
0
  0
LINE
  8
1
 62
2
 10
1284.08260124282
 20
338.2459634249568
 30
0
 11
1284.499267909487
 21
338.9022134249568
 31
0
  0
LINE
  8
1
 62
2
 10
1283.83260124282
 20
338.0584634249568
 30
0
 11
1284.08260124282
 21
338.2459634249568
 31
0
  0
LINE
  8
1
 62
2
 10
1283.58260124282
 20
338.6209634249568
 30
0
 11
1283.83260124282
 21
338.3397134249568
 31
0
  0
LINE
  8
1
 62
2
 10
1283.165934576154
 20
338.4334634249568
 30
0
 11
1283.415934576154
 21
338.9022134249568
 31
0
  0
LINE
  8
1
 62
2
 10
1282.915934576154
 20
338.1522134249568
 30
0
 11
1283.165934576154
 21
338.4334634249568
 31
0
  0
LINE
  8
1
 62
2
 10
1283.83260124282
 20
338.9022134249568
 30
0
 11
1282.999267909487
 21
338.9022134249568
 31
0
  0
LINE
  8
1
 62
2
 10
1282.665934576154
 20
339.5584634249568
 30
0
 11
1284.999267909487
 21
339.5584634249568
 31
0
  0
LINE
  8
1
 62
2
 10
1282.665934576154
 20
337.9647134249568
 30
0
 11
1282.665934576154
 21
339.5584634249568
 31
0
  0
LINE
  8
1
 62
2
 10
1282.58260124282
 20
337.1209634249568
 30
0
 11
1282.665934576154
 21
337.9647134249568
 31
0
  0
LINE
  8
1
 62
2
 10
1282.499267909487
 20
336.8397134249568
 30
0
 11
1282.58260124282
 21
337.1209634249568
 31
0
  0
LINE
  8
1
 62
2
 10
1279.58260124282
 20
339.3709634249568
 30
0
 11
1282.08260124282
 21
339.3709634249568
 31
0
  0
LINE
  8
1
 62
2
 10
1281.58260124282
 20
337.6834634249568
 30
0
 11
1281.665934576154
 21
337.8709634249568
 31
0
  0
LINE
  8
1
 62
2
 10
1281.165934576154
 20
337.6834634249568
 30
0
 11
1281.58260124282
 21
337.6834634249568
 31
0
  0
LINE
  8
1
 62
2
 10
1281.08260124282
 20
337.8709634249568
 30
0
 11
1281.165934576154
 21
337.6834634249568
 31
0
  0
LINE
  8
1
 62
2
 10
1281.08260124282
 20
339.3709634249568
 30
0
 11
1281.08260124282
 21
337.8709634249568
 31
0
  0
LINE
  8
1
 62
2
 10
1280.499267909487
 20
338.3397134249568
 30
0
 11
1280.499267909487
 21
339.3709634249568
 31
0
  0
LINE
  8
1
 62
2
 10
1280.249267909487
 20
337.7772134249568
 30
0
 11
1280.499267909487
 21
338.3397134249568
 31
0
  0
LINE
  8
1
 62
2
 10
1279.999267909487
 20
337.4959634249568
 30
0
 11
1280.249267909487
 21
337.7772134249568
 31
0
  0
LINE
  8
1
 62
2
 10
1281.83260124282
 20
336.8397134249568
 30
0
 11
1279.83260124282
 21
336.8397134249568
 31
0
  0
LINE
  8
1
 62
2
 10
1281.83260124282
 20
338.6209634249568
 30
0
 11
1281.83260124282
 21
336.8397134249568
 31
0
  0
LINE
  8
1
 62
2
 10
1279.83260124282
 20
338.6209634249568
 30
0
 11
1281.83260124282
 21
338.6209634249568
 31
0
  0
LINE
  8
1
 62
2
 10
1279.83260124282
 20
336.8397134249568
 30
0
 11
1279.83260124282
 21
338.6209634249568
 31
0
  0
LINE
  8
1
 62
2
 10
1277.83260124282
 20
336.9334634249568
 30
0
 11
1277.999267909487
 21
336.6522134249568
 31
0
  0
LINE
  8
1
 62
2
 10
1277.665934576154
 20
337.4022134249568
 30
0
 11
1277.83260124282
 21
336.9334634249568
 31
0
  0
LINE
  8
1
 62
2
 10
1277.665934576154
 20
338.9022134249568
 30
0
 11
1277.665934576154
 21
337.4022134249568
 31
0
  0
LINE
  8
1
 62
2
 10
1277.83260124282
 20
339.3709634249568
 30
0
 11
1277.665934576154
 21
338.9022134249568
 31
0
  0
LINE
  8
1
 62
2
 10
1277.999267909487
 20
339.6522134249568
 30
0
 11
1277.83260124282
 21
339.3709634249568
 31
0
  0
LINE
  8
1
 62
2
 10
1328.018442856981
 20
496.512467813941
 30
0
 11
1330.048738961122
 21
498.542763918082
 31
0
  0
LINE
  8
1
 62
2
 10
1329.930422676238
 20
494.5630016633414
 30
0
 11
1331.960718780379
 21
496.5932977674823
 31
0
  0
LINE
  8
1
 62
2
 10
1328.409176647931
 20
494.2791584112496
 30
0
 11
1332.201122792799
 21
498.0711045561175
 31
0
  0
LINE
  8
1
 62
2
 10
1327.790652180855
 20
494.8976828783174
 30
0
 11
1331.582598325723
 21
498.6896290231853
 31
0
  0
LINE
  8
1
 62
2
 10
1311.651769137081
 20
524.7403826004971
 30
0
 11
1313.682065241222
 21
526.770678704638
 31
0
  0
LINE
  8
1
 62
2
 10
1313.563748956338
 20
522.7909164498973
 30
0
 11
1315.594045060479
 21
524.8212125540384
 31
0
  0
LINE
  8
1
 62
2
 10
1312.042502928032
 20
522.5070731978057
 30
0
 11
1315.8344490729
 21
526.2990193426737
 31
0
  0
LINE
  8
1
 62
2
 10
1311.423978460955
 20
523.1255976648735
 30
0
 11
1315.215924605823
 21
526.9175438097415
 31
0
  0
LINE
  8
1
 62
2
  6
DASHDOT
 10
1265.614521215824
 20
510.1675010130722
 30
0
 11
1372.507561484654
 21
510.1675010130722
 31
0
  0
LINE
  8
1
 62
2
  6
DASHDOT
 10
1319.733113550817
 20
556.7187677079879
 30
0
 11
1319.733113550817
 21
460.8060768727169
 31
0
  0
LINE
  8
0
 62
7
 10
1322.733113576917
 20
471.7845627882722
 30
0
 11
1322.733113576917
 21
465.6675021241722
 31
0
  0
LINE
  8
0
 62
7
 10
1316.733113524717
 20
471.7845627882722
 30
0
 11
1316.733113524717
 21
465.6675021241722
 31
0
  0
LINE
  8
0
 62
7
 10
1322.733113576917
 20
465.6675021241722
 30
0
 11
1316.733113524717
 21
465.6675021241722
 31
0
  0
LINE
  8
0
 62
7
 10
1316.733113524717
 20
554.6675072827721
 30
0
 11
1322.733113576917
 21
554.6675072827721
 31
0
  0
LINE
  8
0
 62
7
 10
1316.733113524717
 20
548.5504465022722
 30
0
 11
1316.733113524717
 21
554.6675072827721
 31
0
  0
LINE
  8
0
 62
7
 10
1322.733113576917
 20
548.5504465022722
 30
0
 11
1322.733113576917
 21
554.6675072827721
 31
0
  0
LINE
  8
0
 62
7
 10
1275.233112776017
 20
507.1675041535722
 30
0
 11
1282.854937517317
 21
507.1675041535722
 31
0
  0
LINE
  8
0
 62
7
 10
1275.233112776017
 20
513.1675014116723
 30
0
 11
1282.854937517317
 21
513.1675014116723
 31
0
  0
LINE
  8
0
 62
7
 10
1364.233114325717
 20
513.1675014116723
 30
0
 11
1364.233114325717
 21
507.1675041535722
 31
0
  0
LINE
  8
0
 62
7
 10
1275.233112776017
 20
507.1675041535722
 30
0
 11
1275.233112776017
 21
513.1675014116723
 31
0
  0
LINE
  8
0
 62
7
 10
1282.854937517317
 20
513.1675014116723
 30
0
 11
1282.854937517317
 21
512.9175046303723
 31
0
  0
LINE
  8
0
 62
7
 10
1282.854937517317
 20
512.9175046303723
 30
0
 11
1275.233112776017
 21
512.9175046303723
 31
0
  0
LINE
  8
0
 62
7
 10
1278.733112418317
 20
512.9175046303723
 30
0
 11
1278.733112418317
 21
507.4175046601723
 31
0
  0
LINE
  8
0
 62
7
 10
1275.233112776017
 20
507.4175046601723
 30
0
 11
1282.854937517317
 21
507.4175046601723
 31
0
  0
LINE
  8
0
 62
7
 10
1282.854937517317
 20
507.1675041535722
 30
0
 11
1282.854937517317
 21
507.4175046601723
 31
0
  0
LINE
  8
0
 62
7
 10
1356.611289584317
 20
507.1675041535722
 30
0
 11
1364.233114325717
 21
507.1675041535722
 31
0
  0
LINE
  8
0
 62
7
 10
1360.733114683317
 20
507.1675041535722
 30
0
 11
1360.733114683317
 21
513.1675014116723
 31
0
  0
LINE
  8
0
 62
7
 10
1356.611289584317
 20
513.1675014116723
 30
0
 11
1364.233114325717
 21
513.1675014116723
 31
0
  0
LINE
  8
0
 62
7
 10
1305.733113118717
 20
528.1675020077722
 30
0
 11
1305.733113118717
 21
530.1675089201723
 31
0
  0
LINE
  8
0
 62
7
 10
1297.886811697217
 20
515.1675017395722
 30
0
 11
1298.183113836917
 21
515.1675017395722
 31
0
  0
LINE
  8
0
 62
7
 10
1295.733113342217
 20
513.1675014116723
 30
0
 11
1295.733113342217
 21
507.1675041535722
 31
0
  0
LINE
  8
0
 62
7
 10
1293.733113014417
 20
513.1675014116723
 30
0
 11
1295.833113172317
 21
513.1675014116723
 31
0
  0
LINE
  8
0
 62
7
 10
1293.733113014417
 20
507.1675041535722
 30
0
 11
1295.833113172317
 21
507.1675041535722
 31
0
  0
LINE
  8
0
 62
7
 10
1295.233114191617
 20
513.1675014116723
 30
0
 11
1295.233114191617
 21
507.1675041535722
 31
0
  0
LINE
  8
0
 62
7
 10
1293.733113014417
 20
513.1675014116723
 30
0
 11
1293.733113014417
 21
507.1675041535722
 31
0
  0
LINE
  8
0
 62
7
 10
1295.233114984717
 20
489.1675030657722
 30
0
 11
1304.733113751517
 21
489.1675030657722
 31
0
  0
LINE
  8
0
 62
7
 10
1305.733113118717
 20
490.1675024329722
 30
0
 11
1305.733113118717
 21
528.1675020077722
 31
0
  0
LINE
  8
0
 62
7
 10
1304.733113751517
 20
529.1675040343722
 30
0
 11
1301.670714886417
 21
529.1675040343722
 31
0
  0
LINE
  8
0
 62
7
 10
1298.233112820717
 20
525.3332527198721
 30
0
 11
1298.233112820717
 21
507.0957066335723
 31
0
  0
LINE
  8
0
 62
7
 10
1298.233112820717
 20
507.0957066335723
 30
0
 11
1294.233114027717
 21
500.1675048687723
 31
0
  0
LINE
  8
0
 62
7
 10
1294.233114027717
 20
500.1675048687723
 30
0
 11
1294.233114027717
 21
490.1675040228723
 31
0
  0
LINE
  8
0
 62
2
 10
1300.887426861817
 20
518.0187495269723
 30
0
 11
1300.743526348217
 21
518.0187495269723
 31
0
  0
LINE
  8
0
 62
2
 10
1301.175227889117
 20
517.5359444537722
 30
0
 11
1301.175227889117
 21
517.7883179702723
 31
0
  0
LINE
  8
0
 62
2
 10
1300.472653040017
 20
517.8212383606723
 30
0
 11
1300.472653040017
 21
517.5798358240721
 31
0
  0
LINE
  8
0
 62
2
 10
1301.117409521017
 20
517.3597903766723
 30
0
 11
1303.930975997117
 21
517.3597903766723
 31
0
  0
LINE
  8
0
 62
2
 10
1300.488966086217
 20
514.5601862886723
 30
0
 11
1300.916307174817
 21
514.5601862886723
 31
0
  0
LINE
  8
0
 62
2
 10
1300.488966086217
 20
513.9457108297721
 30
0
 11
1300.488966086217
 21
514.5601862886723
 31
0
  0
LINE
  8
0
 62
2
 10
1303.930975997117
 20
513.9457108297721
 30
0
 11
1300.488966086217
 21
513.9457108297721
 31
0
  0
LINE
  8
0
 62
2
 10
1303.930975997117
 20
514.5601862886723
 30
0
 11
1303.930975997117
 21
513.9457108297721
 31
0
  0
LINE
  8
0
 62
2
 10
1301.645301782817
 20
514.5601862886723
 30
0
 11
1303.930975997117
 21
514.5601862886723
 31
0
  0
LINE
  8
0
 62
2
 10
1303.930975997117
 20
515.3310792365722
 30
0
 11
1301.318511867217
 21
515.3310792365722
 31
0
  0
LINE
  8
0
 62
2
 10
1303.930975997117
 20
515.9455584206722
 30
0
 11
1303.930975997117
 21
515.3310792365722
 31
0
  0
LINE
  8
0
 62
2
 10
1301.645301782817
 20
515.9455584206722
 30
0
 11
1303.930975997117
 21
515.9455584206722
 31
0
  0
LINE
  8
0
 62
2
 10
1303.930975997117
 20
516.7453111925723
 30
0
 11
1301.343650126117
 21
516.7453111925723
 31
0
  0
LINE
  8
0
 62
2
 10
1303.930975997117
 20
517.3597903766723
 30
0
 11
1303.930975997117
 21
516.7453111925723
 31
0
  0
LINE
  8
0
 62
7
 10
1298.183113836917
 20
521.5948717513721
 30
0
 11
1298.183113836917
 21
523.0948710658723
 31
0
  0
LINE
  8
0
 62
7
 10
1298.183113836917
 20
523.0948710658723
 30
0
 11
1298.233112820717
 21
523.0948710658723
 31
0
  0
LINE
  8
0
 62
7
 10
1298.183113836917
 20
508.5948714831723
 30
0
 11
1298.183113836917
 21
510.0948707976722
 31
0
  0
LINE
  8
0
 62
7
 10
1298.183113836917
 20
508.5948714831723
 30
0
 11
1298.233112820717
 21
508.5948714831723
 31
0
  0
LINE
  8
0
 62
7
 10
1298.183113836917
 20
510.0948707976722
 30
0
 11
1298.183113836917
 21
521.5948717513721
 31
0
  0
LINE
  8
0
 62
7
 10
1298.183113836917
 20
521.5948717513721
 30
0
 11
1298.233112820717
 21
521.5948717513721
 31
0
  0
LINE
  8
0
 62
7
 10
1298.183113836917
 20
510.0948707976722
 30
0
 11
1298.233112820717
 21
510.0948707976722
 31
0
  0
LINE
  8
0
 62
7
 10
1306.033113540417
 20
531.1675040982722
 30
0
 11
1306.033113540417
 21
531.3986064460722
 31
0
  0
LINE
  8
0
 62
7
 10
1305.267637164617
 20
531.1675043621723
 30
0
 11
1305.274855845917
 21
531.1675043621723
 31
0
  0
LINE
  8
0
 62
7
 10
1295.333115873517
 20
513.6675024249722
 30
0
 11
1293.833110992717
 21
513.6675024249722
 31
0
  0
LINE
  8
0
 62
7
 10
1295.833113172317
 20
507.1675004390722
 30
0
 11
1295.833113172317
 21
513.1675051261722
 31
0
  0
LINE
  8
0
 62
7
 10
1293.833110992717
 20
506.6675031402722
 30
0
 11
1295.333115873517
 21
506.6675031402722
 31
0
  0
LINE
  8
0
 62
7
 10
1293.333113693917
 20
513.1675051261722
 30
0
 11
1293.333113693917
 21
507.1675004390722
 31
0
  0
LINE
  8
0
 62
7
 10
1309.649423263869
 20
488.2755723555061
 30
0
 11
1306.482692146144
 21
487.5444756847656
 31
0
  0
LINE
  8
0
 62
7
 10
1298.183113836917
 20
513.8840759017722
 30
0
 11
1296.219600864921
 21
522.388988158957
 31
0
  0
LINE
  8
0
 62
7
 10
1328.739304499436
 20
487.3793800605503
 30
0
 11
1329.108855531527
 21
487.5324534840356
 31
0
  0
LINE
  8
0
 62
7
 10
1328.934511670232
 20
486.3854879358361
 30
0
 11
1328.631066052345
 21
487.118068700287
 31
0
  0
LINE
  8
0
 62
7
 10
1316.324082592136
 20
485.9109876040446
 30
0
 11
1316.18419944992
 21
484.9156671979908
 31
0
  0
LINE
  8
0
 62
7
 10
1309.209318801974
 20
484.7608164129809
 30
0
 11
1310.548711137217
 21
487.9943942495722
 31
0
  0
LINE
  8
0
 62
7
 10
1311.355368845661
 20
533.1851706522051
 30
0
 11
1310.327561237543
 21
536.0090488091779
 31
0
  0
LINE
  8
0
 62
7
 10
1317.51064214602
 20
535.5704696693397
 30
0
 11
1317.598242367966
 21
534.5691960196048
 31
0
  0
LINE
  8
0
 62
7
 10
1344.093828557344
 20
512.7279174075454
 30
0
 11
1345.093422138372
 21
512.8329777934674
 31
0
  0
LINE
  8
0
 62
7
 10
1344.919166096754
 20
506.1784246781664
 30
0
 11
1343.926436254441
 21
506.3356582346507
 31
0
  0
LINE
  8
0
 62
7
 10
1331.869583146017
 20
487.4002868154723
 30
0
 11
1331.754229531917
 21
487.6787764796723
 31
0
  0
LINE
  8
0
 62
7
 10
1327.134831377517
 20
485.7653593489723
 30
0
 11
1327.250185923017
 21
485.4868696847722
 31
0
  0
LINE
  8
0
 62
7
 10
1296.733113506117
 20
489.1675030657722
 30
0
 11
1296.733113506117
 21
456.7066281878722
 31
0
  0
LINE
  8
0
 62
7
 10
1301.733114325717
 20
457.5582844981723
 30
0
 11
1301.733114325717
 21
489.1675030657722
 31
0
  0
LINE
  8
1
 62
2
  6
DASHDOT
 10
1357.661441861084
 20
502.0032741455866
 30
0
 11
1394.233113550817
 21
512.4900322521035
 31
0
  0
LINE
  8
1
 62
7
 10
1356.929259293944
 20
500.232875019134
 30
0
 11
1368.499534866644
 21
503.5505981515634
 31
0
  0
LINE
  8
1
 62
7
 10
1357.662580878148
 20
503.5640499072671
 30
0
 11
1368.268308400148
 21
506.605193336815
 31
0
  0
LINE
  8
1
 62
7
 10
1270.966692234989
 20
503.5505981515634
 30
0
 11
1282.536968561507
 21
500.23287480298
 31
0
  0
LINE
  8
1
 62
2
  6
DASHDOT
 10
1281.714670240544
 20
502.0291142060258
 30
0
 11
1245.233113550817
 21
512.4900322521035
 31
0
  0
LINE
  8
1
 62
7
 10
1281.803647217192
 20
503.5640496223261
 30
0
 11
1271.197918701485
 21
506.605193336815
 31
0
  0
LINE
  8
1
 62
2
 10
1271.733113550817
 20
504.0877239913578
 30
0
 11
1271.733113550817
 21
505.7962513818107
 31
0
  0
LINE
  8
1
 62
7
 10
1400.412613550816
 20
500.2670010130722
 30
0
 11
1402.233113550817
 21
502.0875010130724
 31
0
  0
LINE
  8
1
 62
7
 10
1400.412613550816
 20
526.7080010130723
 30
0
 11
1402.233113550817
 21
524.8875010130722
 31
0
  0
LINE
  8
1
 62
7
 10
1239.053613550817
 20
500.2670010130722
 30
0
 11
1237.233113550817
 21
502.0875010130724
 31
0
  0
LINE
  8
1
 62
7
 10
1239.053613550817
 20
526.7080010130723
 30
0
 11
1237.233113550817
 21
524.8875010130722
 31
0
  0
LINE
  8
1
 62
2
 10
1238.053613550817
 20
501.2670010130722
 30
0
 11
1248.555296432211
 21
501.2670010130722
 31
0
  0
LINE
  8
1
 62
7
 10
1389.784388262451
 20
520.0569260079797
 30
0
 11
1364.229301767517
 21
512.7291228728902
 31
0
  0
LINE
  8
1
 62
7
 10
1376.233113550817
 20
519.7316096670609
 30
0
 11
1382.233113550817
 21
517.8916328278212
 31
0
  0
LINE
  8
1
 62
7
 10
1376.233113550817
 20
517.7316096670609
 30
0
 11
1376.233113550817
 21
519.7316096670609
 31
0
  0
LINE
  8
1
 62
7
 10
1367.233113550817
 20
515.1509011952317
 30
0
 11
1376.233113550817
 21
517.7316096670609
 31
0
  0
LINE
  8
1
 62
7
 10
1367.233113550817
 20
513.5904520414392
 30
0
 11
1367.233113550817
 21
515.1509011952317
 31
0
  0
LINE
  8
1
 62
2
 10
1367.733113550817
 20
505.7962513818107
 30
0
 11
1367.733113550817
 21
504.0877239913578
 31
0
  0
LINE
  8
1
 62
7
 10
1249.681838839182
 20
520.3170008669449
 30
0
 11
1287.566281620423
 21
531.3227585998237
 31
0
  0
LINE
  8
1
 62
2
  6
DASHDOT
 10
1388.740998897974
 20
513.4875010130722
 30
0
 11
1405.680824967318
 21
513.4875010130722
 31
0
  0
LINE
  8
1
 62
2
  6
DASHDOT
 10
1234.73581926614
 20
513.4875010130722
 30
0
 11
1250.02032489194
 21
513.4875010130722
 31
0
  0
LINE
  8
1
 62
7
 10
1391.233113550817
 20
526.7080010130723
 30
0
 11
1400.412613550816
 21
526.7080010130723
 31
0
  0
LINE
  8
1
 62
7
 10
1400.412613550816
 20
500.2670010130722
 30
0
 11
1391.233113550817
 21
500.2670010130722
 31
0
  0
LINE
  8
1
 62
7
 10
1248.233113550817
 20
526.7080010130723
 30
0
 11
1239.053613550817
 21
526.7080010130723
 31
0
  0
LINE
  8
1
 62
7
 10
1239.053613550817
 20
500.2670010130722
 30
0
 11
1248.233113550817
 21
500.2670010130722
 31
0
  0
LINE
  8
1
 62
7
 10
1248.233113550817
 20
500.2670010130722
 30
0
 11
1248.233113550817
 21
500.2711998342833
 31
0
  0
LINE
  8
1
 62
7
 10
1250.401697055705
 20
501.9053447173784
 30
0
 11
1285.943912227878
 21
491.7137785171111
 31
0
  0
LINE
  8
1
 62
7
 10
1237.233113550817
 20
524.8875010130722
 30
0
 11
1237.233113550817
 21
502.0875010130724
 31
0
  0
LINE
  8
1
 62
2
 10
1391.233113550817
 20
525.7080010130723
 30
0
 11
1401.412613550816
 21
525.7080010130723
 31
0
  0
LINE
  8
1
 62
7
 10
1391.233113550817
 20
500.2670010130722
 30
0
 11
1391.233113550817
 21
526.7080010130723
 31
0
  0
LINE
  8
1
 62
7
 10
1402.233113550817
 20
524.8875010130722
 30
0
 11
1402.233113550817
 21
502.0875010130724
 31
0
  0
LINE
  8
1
 62
2
 10
1401.412613550816
 20
501.2670010130722
 30
0
 11
1390.954393497297
 21
501.2670010130722
 31
0
  0
LINE
  8
1
 62
2
 10
1238.053613550817
 20
525.7080010130723
 30
0
 11
1248.233113550817
 21
525.7080010130723
 31
0
  0
LINE
  8
1
 62
7
 10
1248.233113550817
 20
500.2711998342833
 30
0
 11
1248.233113550817
 21
526.7080010130723
 31
0
  0
LINE
  8
1
 62
7
 10
1389.784388262451
 20
520.0569260079797
 30
0
 11
1351.996729464105
 21
531.1748589668899
 31
0
  0
LINE
  8
1
 62
7
 10
1353.688580048283
 20
492.021529147685
 30
0
 11
1388.822158948322
 21
502.0959207824642
 31
0
  0
LINE
  8
1
 62
7
 10
1275.233113550817
 20
512.9902907431282
 30
0
 11
1249.681838839182
 21
520.3170008669449
 31
0
  0
LINE
  8
1
 62
7
 10
1400.412613550816
 20
526.7080010130723
 30
0
 11
1400.412613550816
 21
500.2670010130722
 31
0
  0
LINE
  8
1
 62
7
 10
1239.053613550817
 20
526.7080010130723
 30
0
 11
1239.053613550817
 21
500.2670010130722
 31
0
  0
LINE
  8
1
 62
7
 10
1322.161684979388
 20
372.8583804669722
 30
0
 11
1320.733113550817
 21
375.3583804669722
 31
0
  0
LINE
  8
1
 62
7
 10
1322.161684979388
 20
370.8583804669722
 30
0
 11
1320.733113550817
 21
368.3583804669722
 31
0
  0
LINE
  8
1
 62
7
 10
1304.161684979388
 20
372.8583804669722
 30
0
 11
1302.733113550817
 21
375.3583804669722
 31
0
  0
LINE
  8
1
 62
7
 10
1304.161684979388
 20
370.8583804669722
 30
0
 11
1302.733113550817
 21
368.3583804669722
 31
0
  0
LINE
  8
1
 62
7
 10
1302.733113550817
 20
368.3583804669722
 30
0
 11
1320.733113550817
 21
368.3583804669722
 31
0
  0
LINE
  8
1
 62
7
 10
1302.733113550817
 20
375.3583804669722
 30
0
 11
1320.733113550817
 21
375.3583804669722
 31
0
  0
LINE
  8
1
 62
7
 10
1329.733113550817
 20
368.3583804669722
 30
0
 11
1329.733113550817
 21
370.8583804669722
 31
0
  0
LINE
  8
1
 62
7
 10
1329.733113550817
 20
375.3583804669722
 30
0
 11
1329.733113550817
 21
372.8583804669722
 31
0
  0
LINE
  8
1
 62
7
 10
1336.733113550817
 20
371.8583804669722
 30
0
 11
1329.733113550817
 21
368.3583804669722
 31
0
  0
LINE
  8
1
 62
7
 10
1336.733113550817
 20
371.8583804669722
 30
0
 11
1329.733113550817
 21
375.3583804669722
 31
0
  0
LINE
  8
1
 62
7
 10
1302.733113550817
 20
370.8583804669722
 30
0
 11
1329.733113550817
 21
370.8583804669722
 31
0
  0
LINE
  8
1
 62
7
 10
1302.733113550817
 20
372.8583804669722
 30
0
 11
1329.733113550817
 21
372.8583804669722
 31
0
  0
LINE
  8
1
 62
7
 10
1302.733113550817
 20
372.8583804669722
 30
0
 11
1302.733113550817
 21
370.8583804669722
 31
0
  0
LINE
  8
1
 62
7
 10
1308.733113550817
 20
386.6083804669722
 30
0
 11
1309.733113550817
 21
386.6083804669722
 31
0
  0
LINE
  8
1
 62
7
 10
1308.733113550817
 20
391.1083804669722
 30
0
 11
1309.733113550817
 21
391.1083804669722
 31
0
  0
LINE
  8
1
 62
7
 10
1313.983113550817
 20
392.8583804669722
 30
0
 11
1311.483113550817
 21
392.8583804669722
 31
0
  0
LINE
  8
1
 62
7
 10
1312.733113550817
 20
389.3583804669722
 30
0
 11
1313.983113550817
 21
389.3583804669722
 31
0
  0
LINE
  8
1
 62
7
 10
1312.733113550817
 20
388.3583804669722
 30
0
 11
1312.733113550817
 21
389.3583804669722
 31
0
  0
LINE
  8
1
 62
7
 10
1313.983113550817
 20
388.3583804669722
 30
0
 11
1312.733113550817
 21
388.3583804669722
 31
0
  0
LINE
  8
1
 62
7
 10
1311.483113550817
 20
384.8583804669722
 30
0
 11
1313.983113550817
 21
384.8583804669722
 31
0
  0
LINE
  8
1
 62
7
 10
1313.983113550817
 20
383.8583804669722
 30
0
 11
1311.483113550817
 21
383.8583804669722
 31
0
  0
LINE
  8
1
 62
7
 10
1311.483113550817
 20
393.8583804669722
 30
0
 11
1313.983113550817
 21
393.8583804669722
 31
0
  0
LINE
  8
1
 62
7
 10
1327.733113550817
 20
388.9833804669722
 30
0
 11
1327.733113550817
 21
383.8583804669722
 31
0
  0
LINE
  8
1
 62
7
 10
1320.733113550817
 20
389.7739498820143
 30
0
 11
1320.733113550817
 21
390.8204977740596
 31
0
  0
LINE
  8
1
 62
7
 10
1321.233113550817
 20
383.8583804669722
 30
0
 11
1321.233113550817
 21
388.9833804669722
 31
0
  0
LINE
  8
1
 62
7
 10
1322.233113550817
 20
383.8583804669722
 30
0
 11
1321.233113550817
 21
383.8583804669722
 31
0
  0
LINE
  8
1
 62
7
 10
1322.233113550817
 20
388.9833804669722
 30
0
 11
1322.233113550817
 21
383.8583804669722
 31
0
  0
LINE
  8
1
 62
7
 10
1323.983113550817
 20
383.8583804669722
 30
0
 11
1323.983113550817
 21
388.9833804669722
 31
0
  0
LINE
  8
1
 62
7
 10
1324.983113550817
 20
383.8583804669722
 30
0
 11
1323.983113550817
 21
383.8583804669722
 31
0
  0
LINE
  8
1
 62
7
 10
1324.983113550817
 20
388.9833804669722
 30
0
 11
1324.983113550817
 21
383.8583804669722
 31
0
  0
LINE
  8
1
 62
7
 10
1326.733113550817
 20
383.8583804669722
 30
0
 11
1326.733113550817
 21
388.9833804669722
 31
0
  0
LINE
  8
1
 62
7
 10
1327.733113550817
 20
383.8583804669722
 30
0
 11
1326.733113550817
 21
383.8583804669722
 31
0
  0
LINE
  8
1
 62
7
 10
1336.733113550817
 20
388.9833804669722
 30
0
 11
1336.733113550817
 21
383.8583804669722
 31
0
  0
LINE
  8
1
 62
7
 10
1329.733113550817
 20
389.7739498820143
 30
0
 11
1329.733113550817
 21
390.8204977740596
 31
0
  0
LINE
  8
1
 62
7
 10
1330.233113550817
 20
383.8583804669722
 30
0
 11
1330.233113550817
 21
388.9833804669722
 31
0
  0
LINE
  8
1
 62
7
 10
1331.233113550817
 20
383.8583804669722
 30
0
 11
1330.233113550817
 21
383.8583804669722
 31
0
  0
LINE
  8
1
 62
7
 10
1331.233113550817
 20
388.9833804669722
 30
0
 11
1331.233113550817
 21
383.8583804669722
 31
0
  0
LINE
  8
1
 62
7
 10
1332.983113550817
 20
383.8583804669722
 30
0
 11
1332.983113550817
 21
388.9833804669722
 31
0
  0
LINE
  8
1
 62
7
 10
1333.983113550817
 20
383.8583804669722
 30
0
 11
1332.983113550817
 21
383.8583804669722
 31
0
  0
LINE
  8
1
 62
7
 10
1333.983113550817
 20
388.9833804669722
 30
0
 11
1333.983113550817
 21
383.8583804669722
 31
0
  0
LINE
  8
1
 62
7
 10
1335.733113550817
 20
383.8583804669722
 30
0
 11
1335.733113550817
 21
388.9833804669722
 31
0
  0
LINE
  8
1
 62
7
 10
1336.733113550817
 20
383.8583804669722
 30
0
 11
1335.733113550817
 21
383.8583804669722
 31
0
  0
LINE
  8
1
 62
7
 10
1302.733113550817
 20
391.5785652940498
 30
0
 11
1303.733113550817
 21
391.5785652940498
 31
0
  0
LINE
  8
1
 62
7
 10
1303.733113550817
 20
393.8583804669722
 30
0
 11
1302.733113550817
 21
391.5785652940498
 31
0
  0
LINE
  8
1
 62
7
  6
DASHDOT
 10
1303.733113550817
 20
383.8583804669722
 30
0
 11
1304.733113550817
 21
383.8583804669722
 31
0
  0
LINE
  8
1
 62
7
 10
1303.733113550817
 20
383.8583804669722
 30
0
 11
1303.733113550817
 21
391.5785652940498
 31
0
  0
LINE
  8
1
 62
7
 10
1303.733113550817
 20
393.8583804669722
 30
0
 11
1304.733113550817
 21
393.8583804669722
 31
0
  0
LINE
  8
1
 62
7
 10
1303.733113550817
 20
383.8583804669722
 30
0
 11
1304.733113550817
 21
383.8583804669722
 31
0
  0
LINE
  8
1
 62
7
 10
1304.733113550817
 20
383.8583804669722
 30
0
 11
1304.733113550817
 21
393.8583804669722
 31
0
  0
LINE
  8
1
 62
7
 10
1304.733113550817
 20
393.8583804669722
 30
0
 11
1303.733113550817
 21
393.8583804669722
 31
0
  0
LINE
  8
1
 62
7
 10
1303.733113550817
 20
391.5785652940498
 30
0
 11
1303.733113550817
 21
383.8583804669722
 31
0
  0
LINE
  8
0
 62
7
 10
1278.733112418317
 20
431.8583791705722
 30
0
 11
1282.854937517317
 21
431.8583791705722
 31
0
  0
LINE
  8
0
 62
7
 10
1275.233112776017
 20
414.5736207815722
 30
0
 11
1275.233112776017
 21
428.3583795282722
 31
0
  0
LINE
  8
0
 62
7
 10
1364.233114325717
 20
428.3583795282722
 30
0
 11
1364.233114325717
 21
410.3583803030722
 31
0
  0
LINE
  8
0
 62
7
 10
1358.116053545217
 20
410.3583803030722
 30
0
 11
1364.233114325717
 21
410.3583803030722
 31
0
  0
LINE
  8
0
 62
7
 10
1275.233112776017
 20
410.3583803030722
 30
0
 11
1275.233112776017
 21
414.5736207815722
 31
0
  0
LINE
  8
0
 62
7
 10
1281.350173556517
 20
410.3583803030722
 30
0
 11
1275.233112776017
 21
410.3583803030722
 31
0
  0
LINE
  8
0
 62
7
 10
1284.233112388517
 20
433.3583822104723
 30
0
 11
1355.233114713117
 21
433.3583822104723
 31
0
  0
LINE
  8
0
 62
7
 10
1282.854937517317
 20
431.8583791705722
 30
0
 11
1360.733114683317
 21
431.8583791705722
 31
0
  0
LINE
  8
0
 62
7
 10
1282.854937517317
 20
424.3583788725723
 30
0
 11
1282.854937517317
 21
431.8583791705722
 31
0
  0
LINE
  8
0
 62
7
 10
1356.611289584317
 20
431.8583791705722
 30
0
 11
1356.611289584317
 21
424.3583788725723
 31
0
  0
LINE
  8
0
 62
7
 10
1281.233113759417
 20
408.3583799752723
 30
0
 11
1358.233113342217
 21
408.3583799752723
 31
0
  0
LINE
  8
0
 62
7
 10
1281.350173556517
 20
424.3583788725723
 30
0
 11
1358.116053545217
 21
424.3583788725723
 31
0
  0
LINE
  8
0
 62
7
 10
1281.350173556517
 20
410.3583803030722
 30
0
 11
1281.350173556517
 21
424.3583788725723
 31
0
  0
LINE
  8
0
 62
7
 10
1358.116053545217
 20
424.3583788725723
 30
0
 11
1358.116053545217
 21
410.3583803030722
 31
0
  0
LINE
  8
0
 62
7
 10
1316.733113524717
 20
410.3583803030722
 30
0
 11
1322.733113576917
 21
410.3583803030722
 31
0
  0
LINE
  8
0
 62
7
 10
1316.733113524717
 20
422.3583822700722
 30
0
 11
1316.733113524717
 21
410.3583803030722
 31
0
  0
LINE
  8
0
 62
7
 10
1322.733113576917
 20
422.3583822700722
 30
0
 11
1316.733113524717
 21
422.3583822700722
 31
0
  0
LINE
  8
0
 62
7
 10
1322.733113576917
 20
410.3583803030722
 30
0
 11
1322.733113576917
 21
422.3583822700722
 31
0
  0
LINE
  8
0
 62
7
 10
1298.233112820717
 20
433.3583822104723
 30
0
 11
1298.233112820717
 21
434.8583815249722
 31
0
  0
LINE
  8
0
 62
7
 10
1304.733113886117
 20
434.8583815249722
 30
0
 11
1295.233114191617
 21
434.8583815249722
 31
0
  0
LINE
  8
0
 62
7
 10
1294.233114027717
 20
435.8583835515722
 30
0
 11
1305.733113118717
 21
435.8583835515722
 31
0
  0
LINE
  8
0
 62
7
 10
1300.015556195117
 20
445.3583804520723
 30
0
 11
1300.015556195117
 21
444.8583794388723
 31
0
  0
LINE
  8
0
 62
7
 10
1300.472653040017
 20
445.3583804520723
 30
0
 11
1300.015556195117
 21
445.3583804520723
 31
0
  0
LINE
  8
0
 62
7
 10
1300.472653040017
 20
445.3583804520723
 30
0
 11
1300.472653040017
 21
444.8583794388723
 31
0
  0
LINE
  8
0
 62
7
 10
1300.117133685617
 20
445.3583804520723
 30
0
 11
1300.117133685617
 21
444.8583794388723
 31
0
  0
LINE
  8
0
 62
7
 10
1303.930975997117
 20
445.3583804520723
 30
0
 11
1300.488966086217
 21
445.3583804520723
 31
0
  0
LINE
  8
0
 62
7
 10
1303.930975997117
 20
445.3583804520723
 30
0
 11
1303.930975997117
 21
444.8583794388723
 31
0
  0
LINE
  8
0
 62
7
 10
1300.488966086217
 20
445.3583804520723
 30
0
 11
1300.488966086217
 21
444.8583794388723
 31
0
  0
LINE
  8
0
 62
7
 10
1294.233114027717
 20
435.8583835515722
 30
0
 11
1294.233114027717
 21
444.8583794388723
 31
0
  0
LINE
  8
0
 62
7
 10
1295.233114191617
 20
444.8583794388723
 30
0
 11
1295.233114191617
 21
434.8583815249722
 31
0
  0
LINE
  8
0
 62
7
 10
1305.733113118717
 20
443.8583774122723
 30
0
 11
1294.233114027717
 21
443.8583774122723
 31
0
  0
LINE
  8
0
 62
7
 10
1294.233114027717
 20
444.8583794388723
 30
0
 11
1305.733113118717
 21
444.8583794388723
 31
0
  0
LINE
  8
0
 62
7
 10
1305.733113118717
 20
444.8583794388723
 30
0
 11
1305.733113118717
 21
433.3583822104723
 31
0
  0
LINE
  8
0
 62
7
 10
1304.733113886117
 20
434.8583815249722
 30
0
 11
1304.733113886117
 21
444.8583794388723
 31
0
  0
LINE
  8
0
 62
7
 10
1284.233112388517
 20
433.3583822104723
 30
0
 11
1284.233112388517
 21
431.8583791705722
 31
0
  0
LINE
  8
0
 62
7
 10
1355.233114713117
 20
431.8583791705722
 30
0
 11
1355.233114713117
 21
433.3583822104723
 31
0
  0
LINE
  8
0
 62
7
 10
1281.233113759417
 20
410.3583803030722
 30
0
 11
1281.233113759417
 21
408.3583799752723
 31
0
  0
LINE
  8
0
 62
7
 10
1358.233113342217
 20
408.3583799752723
 30
0
 11
1358.233113342217
 21
410.3583803030722
 31
0
  0
LINE
  8
1
 62
2
 10
1284.733113550817
 20
403.8583804669722
 30
0
 11
1284.733113550817
 21
408.3583799752723
 31
0
  0
LINE
  8
1
 62
2
  6
DASHDOT
 10
1234.73581926614
 20
510.1675010130722
 30
0
 11
1405.680824967318
 21
510.1675010130722
 31
0
  0
LINE
  8
1
 62
7
 10
1283.733113550817
 20
403.8583804669722
 30
0
 11
1355.733113550817
 21
403.8583804669722
 31
0
  0
LINE
  8
1
 62
2
  6
DASHDOT
 10
1375.50974264923
 20
371.8583804669722
 30
0
 11
1405.839844051618
 21
371.8583804669722
 31
0
  0
LINE
  8
1
 62
7
 10
1239.053613550817
 20
385.0788804669722
 30
0
 11
1239.053613550817
 21
358.6378804669722
 31
0
  0
LINE
  8
1
 62
7
 10
1400.412613550816
 20
385.0788804669722
 30
0
 11
1400.412613550816
 21
358.6378804669722
 31
0
  0
LINE
  8
1
 62
2
  6
DASHDOT
 10
1319.733113550817
 20
441.8441886058643
 30
0
 11
1319.733113550817
 21
344.1007670557693
 31
0
  0
LINE
  8
1
 62
7
 10
1288.6826032936
 20
361.3583804669722
 30
0
 11
1350.783623808033
 21
361.3583804669722
 31
0
  0
LINE
  8
1
 62
7
 10
1321.233113550817
 20
360.3583804669722
 30
0
 11
1321.233113550817
 21
349.2590444509834
 31
0
  0
LINE
  8
1
 62
7
 10
1318.304264105194
 20
349.2205045673619
 30
0
 11
1312.542405679465
 21
352.3415112146321
 31
0
  0
LINE
  8
1
 62
7
 10
1318.233113550817
 20
349.2590444509832
 30
0
 11
1318.233113550817
 21
360.3583804669722
 31
0
  0
LINE
  8
1
 62
7
 10
1248.233113550817
 20
385.0788804669722
 30
0
 11
1248.233113550817
 21
358.6378804669722
 31
0
  0
LINE
  8
1
 62
7
 10
1391.233113550817
 20
385.0788804669722
 30
0
 11
1391.233113550817
 21
358.6378804669722
 31
0
  0
LINE
  8
1
 62
7
 10
1239.053613550817
 20
385.0788804669722
 30
0
 11
1237.233113550817
 21
383.2583804669722
 31
0
  0
LINE
  8
1
 62
7
 10
1239.053613550817
 20
358.6378804669722
 30
0
 11
1237.233113550817
 21
360.4583804669724
 31
0
  0
LINE
  8
1
 62
7
 10
1400.412613550816
 20
358.6378804669722
 30
0
 11
1402.233113550817
 21
360.4583804669724
 31
0
  0
LINE
  8
1
 62
7
 10
1400.412613550816
 20
385.0788804669722
 30
0
 11
1402.233113550817
 21
383.2583804669722
 31
0
  0
LINE
  8
1
 62
7
 10
1402.233113550817
 20
383.2583804669722
 30
0
 11
1402.233113550817
 21
360.4583804669724
 31
0
  0
LINE
  8
1
 62
2
  6
DASHDOT
 10
1280.116176075073
 20
383.8583804669722
 30
0
 11
1285.395659401606
 21
383.8583804669722
 31
0
  0
LINE
  8
1
 62
2
  6
DASHDOT
 10
1282.733113550817
 20
385.8358012792003
 30
0
 11
1282.733113550817
 21
381.0436548751163
 31
0
  0
LINE
  8
1
 62
7
 10
1250.233113550817
 20
363.3583804669722
 30
0
 11
1286.233113550817
 21
363.3583804669722
 31
0
  0
LINE
  8
1
 62
7
 10
1250.233113550817
 20
380.3583804669722
 30
0
 11
1285.733113550817
 21
380.3583804669722
 31
0
  0
LINE
  8
1
 62
7
 10
1287.733113550817
 20
382.3583804669722
 30
0
 11
1287.733113550817
 21
401.8583804669722
 31
0
  0
LINE
  8
1
 62
7
 10
1351.733113550817
 20
401.8583804669722
 30
0
 11
1351.733113550817
 21
382.3583804669722
 31
0
  0
LINE
  8
1
 62
7
 10
1237.233113550817
 20
360.4583804669724
 30
0
 11
1237.233113550817
 21
383.2583804669722
 31
0
  0
LINE
  8
1
 62
2
 10
1248.233113550817
 20
359.6378804669722
 30
0
 11
1238.053613550817
 21
359.6378804669722
 31
0
  0
LINE
  8
1
 62
2
 10
1248.233113550817
 20
384.0788804669722
 30
0
 11
1238.053613550817
 21
384.0788804669722
 31
0
  0
LINE
  8
1
 62
7
 10
1248.233113550817
 20
358.6378804669722
 30
0
 11
1239.053613550817
 21
358.6378804669722
 31
0
  0
LINE
  8
1
 62
2
 10
1401.412613550816
 20
359.6378804669722
 30
0
 11
1391.233113550817
 21
359.6378804669722
 31
0
  0
LINE
  8
1
 62
2
 10
1401.412613550816
 20
384.0788804669722
 30
0
 11
1391.233113550817
 21
384.0788804669722
 31
0
  0
LINE
  8
1
 62
7
 10
1389.233113550817
 20
363.3583804669722
 30
0
 11
1353.233113550817
 21
363.3583804669722
 31
0
  0
LINE
  8
1
 62
7
 10
1400.412613550816
 20
358.6378804669722
 30
0
 11
1391.233113550817
 21
358.6378804669722
 31
0
  0
LINE
  8
1
 62
7
 10
1389.233113550817
 20
380.3583804669722
 30
0
 11
1353.733113550817
 21
380.3583804669722
 31
0
  0
LINE
  8
1
 62
7
 10
1400.412613550816
 20
385.0788804669722
 30
0
 11
1391.233113550817
 21
385.0788804669722
 31
0
  0
LINE
  8
1
 62
7
 10
1239.053613550817
 20
385.0788804669722
 30
0
 11
1248.233113550817
 21
385.0788804669722
 31
0
  0
LINE
  8
1
 62
7
 10
1344.733113550817
 20
348.8583804669722
 30
0
 11
1351.565913636542
 21
361.7354658466494
 31
0
  0
LINE
  8
1
 62
7
 10
1287.900313465091
 20
361.7354658466494
 30
0
 11
1294.733113550817
 21
348.8583804669722
 31
0
  0
LINE
  8
1
 62
7
 10
1328.233113550817
 20
356.3583804669722
 30
0
 11
1328.233113550817
 21
354.539741130974
 31
0
  0
LINE
  8
1
 62
7
 10
1311.233113550817
 20
356.3583804669722
 30
0
 11
1311.233113550817
 21
354.539741130974
 31
0
  0
LINE
  8
1
 62
7
 10
1326.923821422168
 20
352.3415112146321
 30
0
 11
1321.161962996439
 21
349.2205045673619
 31
0
  0
LINE
  8
1
 62
7
 10
1294.733113550817
 20
348.8583804669722
 30
0
 11
1344.733113550817
 21
348.8583804669722
 31
0
  0
LINE
  8
1
 62
7
 10
1286.484021695274
 20
390.9605956958012
 30
0
 11
1272.517745044343
 21
380.922334352944
 31
0
  0
LINE
  8
1
 62
7
 10
1352.982205406359
 20
390.9605956958012
 30
0
 11
1366.94848205729
 21
380.922334352944
 31
0
  0
LINE
  8
1
 62
2
  6
DASHDOT
 10
1234.73581926614
 20
371.8583804669722
 30
0
 11
1375.50974264923
 21
371.8583804669722
 31
0
  0
LINE
  8
1
 62
2
  6
DASHDOT
 10
1319.733113550817
 20
558.4899230702421
 30
0
 11
1319.733113550817
 21
460.4691684537191
 31
0
  0
LINE
  8
1
 62
7
 10
1355.733113550817
 20
408.3583799752723
 30
0
 11
1355.733113550817
 21
403.8583804669722
 31
0
  0
LINE
  8
1
 62
2
 10
1354.733113550817
 20
408.3583799752723
 30
0
 11
1354.733113550817
 21
403.8583804669722
 31
0
  0
LINE
  8
1
 62
7
 10
1283.733113550817
 20
408.3583799752723
 30
0
 11
1283.733113550817
 21
403.8583804669722
 31
0
  0
LINE
  8
1
 62
7
  6
PHANTOM
 10
1296.641491266407
 20
358.5471545162089
 30
0
 11
1306.641491266407
 21
358.5471545162089
 31
0
  0
LINE
  8
1
 62
7
  6
PHANTOM
 10
1306.641491266407
 20
358.5471545162089
 30
0
 11
1306.641491266407
 21
351.5471545162089
 31
0
  0
LINE
  8
1
 62
7
  6
PHANTOM
 10
1306.641491266407
 20
351.5471545162089
 30
0
 11
1296.641491266407
 21
351.5471545162089
 31
0
  0
LINE
  8
1
 62
7
  6
PHANTOM
 10
1296.641491266407
 20
351.5471545162089
 30
0
 11
1296.641491266407
 21
358.5471545162089
 31
0
  0
ARC
  8
0
 62
7
 10
1319.733098286117
 20
510.1674737899722
 30
0
 40
26.99996705014668
 50
231.0575464142994
 51
247.5000052016991
  0
ARC
  8
0
 62
7
 10
1319.733114770917
 20
510.1675050429723
 30
0
 40
27.00000157899933
 50
110.0000015807998
 51
200.7483515070001
  0
ARC
  8
0
 62
7
 10
1319.733115702617
 20
510.1675015087723
 30
0
 40
38.49999872149678
 50
242.1257541629998
 51
355.5308671435997
  0
ARC
  8
0
 62
7
 10
1319.733133609917
 20
510.1675142410722
 30
0
 40
38.50002185696738
 50
184.4691491711999
 51
233.3158889190993
  0
ARC
  8
0
 62
7
 10
1319.733113550817
 20
510.1675010130722
 30
0
 40
38.50000110390096
 50
4.469137122100013
 51
175.5308628778999
  0
ARC
  8
0
 62
7
 10
1319.733113550817
 20
510.1675094241722
 30
0
 40
36.99999756057963
 50
4.650696863600246
 51
175.3493031363997
  0
ARC
  8
0
 62
7
 10
1319.733114180717
 20
510.1674995333723
 30
0
 40
36.99999720785504
 50
240.8900889096008
 51
355.3492978214999
  0
ARC
  8
0
 62
7
 10
1319.733082433417
 20
510.1674840380723
 30
0
 40
36.99996556427761
 50
184.6506820904
 51
231.5653682924007
  0
ARC
  8
0
 62
7
 10
1319.775669323017
 20
510.1618278271723
 30
0
 40
27.99435825448544
 50
269.9129014833998
 51
204.1583358232003
  0
ARC
  8
0
 62
7
 10
1319.358944106217
 20
508.9212658350722
 30
0
 40
26.75638029487889
 50
228.7952068732995
 51
270.8012679059993
  0
ARC
  8
0
 62
7
 10
1319.733117524817
 20
510.1675145519722
 30
0
 40
29.50001194811642
 50
232.3982507149997
 51
269.999992281599
  0
ARC
  8
0
 62
7
 10
1319.733115633817
 20
510.1675042911722
 30
0
 40
29.50000168731783
 50
269.9999959543006
 51
210.1849633045
  0
ARC
  8
0
 62
7
 10
1319.733111354317
 20
510.1674844442722
 30
0
 40
35.49998282396229
 50
239.5329734694995
 51
270.0000035450995
  0
ARC
  8
0
 62
7
 10
1319.733115487417
 20
510.1675032239722
 30
0
 40
35.50000160367812
 50
269.999996874399
 51
229.6174941112
  0
ARC
  8
0
 62
7
 10
1304.733118881917
 20
530.1675089201723
 30
0
 40
0.9999942367999211
 50
0
 51
65.88253962632369
  0
ARC
  8
0
 62
7
 10
1304.733113751517
 20
490.1675024329722
 30
0
 40
0.9999993671999619
 50
270
 51
0
  0
ARC
  8
0
 62
7
 10
1304.733113751517
 20
528.1675046670722
 30
0
 40
0.9999993672194141
 50
359.9998476310105
 51
90
  0
ARC
  8
0
 62
7
 10
1301.670714886417
 20
528.1675243004721
 30
0
 40
0.9999797339000907
 50
90
 51
135.0997291172795
  0
ARC
  8
0
 62
7
 10
1319.733079055017
 20
510.1675135474723
 30
0
 40
26.49996770376643
 50
135.0990917902999
 51
143.5062037248997
  0
ARC
  8
0
 62
7
 10
1299.233120000117
 20
525.3332534070722
 30
0
 40
1.000007179475103
 50
143.5063342558861
 51
180.0000393706991
  0
ARC
  8
0
 62
7
 10
1295.233114984717
 20
490.1675040228723
 30
0
 40
1.000000957000111
 50
180
 51
270
  0
ARC
  8
0
 62
2
 10
1300.482018050117
 20
518.1321704799722
 30
0
 40
0.2383739626954519
 50
38.97215361861814
 51
94.28936865902119
  0
ARC
  8
0
 62
2
 10
1301.176042827117
 20
518.1245271034721
 30
0
 40
0.2782712443248255
 50
90.16779518504549
 51
145.5119035596234
  0
ARC
  8
0
 62
2
 10
1301.208181372317
 20
517.9827531220723
 30
0
 40
0.4480222295249669
 50
265.7819009890058
 51
320.9558240064599
  0
ARC
  8
0
 62
2
 10
1301.206014244817
 20
518.1060881569723
 30
0
 40
0.2983019089974153
 50
41.57460110272334
 51
95.92377946899113
  0
ARC
  8
0
 62
2
 10
1301.062883820817
 20
516.7649462478722
 30
0
 40
0.597337919051084
 50
84.76268423389388
 51
135.0964210780681
  0
ARC
  8
0
 62
2
 10
1301.078567803617
 20
515.3485883899722
 30
0
 40
0.5908244121687378
 50
105.9402199952563
 51
183.6867387602999
  0
ARC
  8
0
 62
2
 10
1301.583888768417
 20
515.2500065031721
 30
0
 40
0.6925485446719527
 50
224.7758874410826
 51
275.0874910658021
  0
ARC
  8
0
 62
2
 10
1301.583875119117
 20
516.6353412727723
 30
0
 40
0.6925125399839919
 50
224.7744884808766
 51
275.0888900260158
  0
ARC
  8
0
 62
7
 10
1306.533129411217
 20
531.3986064460722
 30
0
 40
0.500015870867257
 50
121.8714418362662
 51
180
  0
ARC
  8
0
 62
7
 10
1305.274848554117
 20
530.9674927723721
 30
0
 40
0.2000115898405451
 50
23.57902173779101
 51
89.99791119451278
  0
ARC
  8
0
 62
7
 10
1305.733113677017
 20
531.1675040982722
 30
0
 40
0.2999998633831286
 50
203.5790217378649
 51
0
  0
ARC
  8
0
 62
7
 10
1319.733109559617
 20
510.1675039078722
 30
0
 40
27.49999603867657
 50
109.9999948879998
 51
201.9864074205999
  0
ARC
  8
0
 62
7
 10
1319.733076963717
 20
510.1674461114723
 30
0
 40
27.49993306324229
 50
229.7858101407009
 51
247.5000251284993
  0
ARC
  8
0
 62
7
 10
1319.733191250917
 20
510.1673906642723
 30
0
 40
25.50013600742057
 50
110.0000746055993
 51
131.8324390233006
  0
ARC
  8
0
 62
7
 10
1295.333115873517
 20
513.1675051261722
 30
0
 40
0.4999972988000536
 50
0
 51
90
  0
ARC
  8
0
 62
7
 10
1295.333115873517
 20
507.1675004390722
 30
0
 40
0.4999972988000536
 50
270
 51
0
  0
ARC
  8
0
 62
7
 10
1293.833110992717
 20
507.1675004390722
 30
0
 40
0.4999972987998262
 50
180
 51
270
  0
ARC
  8
0
 62
7
 10
1293.833110992717
 20
513.1675051261722
 30
0
 40
0.4999972988000536
 50
90
 51
180
  0
ARC
  8
0
 62
7
 10
1309.761897969217
 20
487.7883903402723
 30
0
 40
0.499996875300615
 50
65.91814096148374
 51
102.9999860142851
  0
ARC
  8
0
 62
7
 10
1306.257741657517
 20
488.5188443842723
 30
0
 40
0.9999985424143599
 50
238.0995041483239
 51
282.9999860142652
  0
ARC
  8
0
 62
7
 10
1319.733041345117
 20
510.1674010525723
 30
0
 40
26.49987515959389
 50
232.4153158190008
 51
238.0995041483492
  0
ARC
  8
0
 62
7
 10
1319.733264094517
 20
510.1674248645722
 30
0
 40
26.50016920386549
 50
143.5062875178997
 51
152.5361984833877
  0
ARC
  8
0
 62
7
 10
1319.732416432316
 20
510.1689078408716
 30
0
 40
25.50156855653733
 50
294.747136997524
 51
298.126163985602
  0
ARC
  8
0
 62
7
 10
1319.732870311317
 20
510.1681494917722
 30
0
 40
25.5006900765902
 50
286.8738295060003
 51
291.1517256487456
  0
ARC
  8
0
 62
7
 10
1329.491540086317
 20
486.6085734990722
 30
0
 40
1.000000847545111
 50
23.62351790435713
 51
112.5000494943067
  0
ARC
  8
0
 62
7
 10
1328.815840957817
 20
487.1946051561723
 30
0
 40
0.1999989868709666
 50
112.5000494943051
 51
202.5000487138133
  0
ARC
  8
0
 62
7
 10
1319.733113867617
 20
510.1675022601722
 30
0
 40
27.49999906039177
 50
247.4999988606992
 51
110.0000021482998
  0
ARC
  8
0
 62
7
 10
1315.828948226017
 20
485.9805741919723
 30
0
 40
0.5000003337312976
 50
352.0000010413091
 51
80.83061974382791
  0
ARC
  8
0
 62
7
 10
1319.733108172317
 20
510.1674787672722
 30
0
 40
23.99997554015435
 50
245.9855706728899
 51
260.8306197438077
  0
ARC
  8
0
 62
7
 10
1319.733112391417
 20
510.1675047441722
 30
0
 40
27.00000104598454
 50
247.5000026848993
 51
109.9999966189997
  0
ARC
  8
0
 62
7
 10
1311.825208475317
 20
533.3561782945723
 30
0
 40
0.4999928912927346
 50
200.0000002469927
 51
288.8306500179863
  0
ARC
  8
0
 62
7
 10
1319.733067231617
 20
510.1676642072722
 30
0
 40
23.99983191790919
 50
96.16933564213528
 51
108.830650018011
  0
ARC
  8
0
 62
7
 10
1317.100136049417
 20
534.5256172995722
 30
0
 40
0.5000090092660305
 50
276.1693356421494
 51
5.000007297701727
  0
ARC
  8
0
 62
7
 10
1319.733111634017
 20
510.1675025926722
 30
0
 40
25.50000209653633
 50
5.999998121015953
 51
94.99999518502476
  0
ARC
  8
0
 62
7
 10
1344.146092462417
 20
512.2306542043722
 30
0
 40
0.5000022089987186
 50
95.99993576773883
 51
184.8306398158787
  0
ARC
  8
0
 62
7
 10
1319.733264757017
 20
510.1675039950723
 30
0
 40
23.99984973673336
 50
352.1693321824561
 51
4.830639815870164
  0
ARC
  8
0
 62
7
 10
1344.004653589517
 20
506.8295011804722
 30
0
 40
0.4999988066491358
 50
172.1693321824505
 51
260.9999664425225
  0
ARC
  8
0
 62
7
 10
1319.733112797617
 20
510.1675018809723
 30
0
 40
25.50000034739057
 50
298.1262733134999
 51
351.0000038902261
  0
ARC
  8
0
 62
7
 10
1319.733027025017
 20
510.1677090533723
 30
0
 40
25.80022305790906
 50
286.9394085052993
 51
298.0605946909998
  0
ARC
  8
0
 62
7
 10
1319.733113202917
 20
510.1675303658723
 30
0
 40
25.50002710342918
 50
262.0000092881589
 51
286.8737110420008
  0
ARC
  8
1
 62
7
 10
1311.483113550817
 20
391.1083804669722
 30
0
 40
1.75
 50
90
 51
180
  0
ARC
  8
1
 62
7
 10
1313.983113550817
 20
391.1083804669722
 30
0
 40
1.75
 50
270
 51
90
  0
ARC
  8
1
 62
7
 10
1313.983113550817
 20
386.6083804669722
 30
0
 40
1.75
 50
270
 51
90
  0
ARC
  8
1
 62
7
 10
1311.483113550817
 20
386.6083804669722
 30
0
 40
1.75
 50
180
 51
270
  0
ARC
  8
1
 62
7
 10
1311.483113550817
 20
386.6083804669722
 30
0
 40
2.75
 50
180
 51
270
  0
ARC
  8
1
 62
7
 10
1313.983113550817
 20
386.6083804669722
 30
0
 40
2.75
 50
270
 51
54.90319877241863
  0
ARC
  8
1
 62
7
 10
1313.983113550817
 20
391.1083804669722
 30
0
 40
2.749999999999891
 50
305.0968012275814
 51
90
  0
ARC
  8
1
 62
7
 10
1311.483113550817
 20
391.1083804669722
 30
0
 40
2.75
 50
90
 51
180
  0
ARC
  8
1
 62
7
 10
1325.858113550817
 20
388.9833804669722
 30
0
 40
1.875
 50
0
 51
137.1665719339327
  0
ARC
  8
1
 62
7
 10
1323.108113550817
 20
388.9833804669722
 30
0
 40
1.875000000000001
 50
42.83342806606731
 51
137.1665719339327
  0
ARC
  8
1
 62
7
 10
1320.358113550817
 20
388.9833804669722
 30
0
 40
1.875000000000001
 50
42.83342806606731
 51
78.4630409671846
  0
ARC
  8
1
 62
7
 10
1320.358113550817
 20
388.9833804669722
 30
0
 40
0.875
 50
0
 51
64.62306647484665
  0
ARC
  8
1
 62
7
 10
1323.108113550817
 20
388.9833804669722
 30
0
 40
0.875
 50
0
 51
180
  0
ARC
  8
1
 62
7
 10
1325.858113550817
 20
388.9833804669722
 30
0
 40
0.875
 50
0
 51
180
  0
ARC
  8
1
 62
7
 10
1334.858113550817
 20
388.9833804669722
 30
0
 40
1.875
 50
0
 51
137.1665719339327
  0
ARC
  8
1
 62
7
 10
1332.108113550817
 20
388.9833804669722
 30
0
 40
1.875000000000001
 50
42.83342806606731
 51
137.1665719339327
  0
ARC
  8
1
 62
7
 10
1329.358113550817
 20
388.9833804669722
 30
0
 40
1.875000000000001
 50
42.83342806606731
 51
78.4630409671846
  0
ARC
  8
1
 62
7
 10
1329.358113550817
 20
388.9833804669722
 30
0
 40
0.875
 50
0
 51
64.62306647484665
  0
ARC
  8
1
 62
7
 10
1332.108113550817
 20
388.9833804669722
 30
0
 40
0.875
 50
0
 51
180
  0
ARC
  8
1
 62
7
 10
1334.858113550817
 20
388.9833804669722
 30
0
 40
0.875
 50
0
 51
180
  0
ARC
  8
0
 62
7
 10
1278.733113550817
 20
428.3583805116722
 30
0
 40
3.5
 50
90
 51
180
  0
ARC
  8
0
 62
7
 10
1360.733113550817
 20
428.3583805116722
 30
0
 40
3.5
 50
0
 51
90
  0
ARC
  8
0
 62
7
 10
1245.838047683917
 20
437.8583805116722
 30
0
 40
37.50000000000019
 50
321.6161420260004
 51
350.7931037787003
  0
ARC
  8
0
 62
7
 10
1295.233113550817
 20
435.8583805116722
 30
0
 40
1
 50
180
 51
270
  0
ARC
  8
0
 62
7
 10
1304.733113550817
 20
435.8583805116722
 30
0
 40
1
 50
270
 51
0
  0
ARC
  8
1
 62
7
 10
1350.783623808033
 20
362.3583804669722
 30
0
 40
1.000000000000261
 50
321.4707107086306
 51
348.4630409671897
  0
ARC
  8
1
 62
7
 10
1350.783623808033
 20
362.3583804669722
 30
0
 40
1
 50
270
 51
321.4707107086306
  0
ARC
  8
1
 62
7
 10
1288.6826032936
 20
362.3583804669722
 30
0
 40
1.000000000000439
 50
218.5292892913613
 51
270
  0
ARC
  8
1
 62
7
 10
1288.6826032936
 20
362.3583804669722
 30
0
 40
0.9999999999997783
 50
191.5369590328207
 51
218.5292892913613
  0
CIRCLE
  8
0
 62
7
 10
1278.733113550817
 20
428.3583805116722
 30
0
 40
1.349999999999909
  0
CIRCLE
  8
0
 62
7
 10
1299.233113550817
 20
439.8583805116722
 30
0
 40
2.599999999999909
  0
CIRCLE
  8
0
 62
7
 10
1299.233113550817
 20
439.8583805116722
 30
0
 40
3.099999999999909
  0
CIRCLE
  8
0
 62
7
 10
1299.233113550817
 20
439.8583805116722
 30
0
 40
2.5
  0
CIRCLE
  8
1
 62
7
 10
1282.733113550817
 20
383.8583804669722
 30
0
 40
1.25
  0
POLYLINE
  8
1
 62
2
 66
1
  0
VERTEX
  8
1
 10
1288.527857482636
 20
363.5904576372183
 30
0
 42
0.01171879117011294
  0
VERTEX
  8
1
 10
1289.260360303993
 20
363.7362159803276
 30
0
 42
0.03330413129933225
  0
VERTEX
  8
1
 10
1291.167332336814
 20
364.2978095824283
 30
0
 42
0.0357065459024662
  0
VERTEX
  8
1
 10
1292.917685547335
 20
365.0885829263714
 30
0
 42
0.0391879592907592
  0
VERTEX
  8
1
 10
1294.458510587907
 20
366.084934463506
 30
0
 42
0.04375488491261839
  0
VERTEX
  8
1
 10
1295.743075649168
 20
367.2572225358086
 30
0
 42
0.04918407769417291
  0
VERTEX
  8
1
 10
1296.732042893316
 20
368.5705858074196
 30
0
 42
0.05477517097738555
  0
VERTEX
  8
1
 10
1297.39450241806
 20
369.985682024079
 30
0
 42
0.05920069045134355
  0
VERTEX
  8
1
 10
1297.709105195494
 20
371.4593789557454
 30
0
 42
0.06090972971140278
  0
VERTEX
  8
1
 10
1297.66538515569
 20
372.9458603090681
 30
0
  0
SEQEND
  8
1
  0
POLYLINE
  8
1
 62
2
 66
1
  0
VERTEX
  8
1
 10
1351.196624915822
 20
363.5475229986255
 30
0
 42
-0.01583873992235158
  0
VERTEX
  8
1
 10
1350.20586679764
 20
363.7362159803278
 30
0
 42
-0.03330413129936498
  0
VERTEX
  8
1
 10
1348.298894764819
 20
364.2978095824283
 30
0
 42
-0.03570654590259656
  0
VERTEX
  8
1
 10
1346.548541554298
 20
365.0885829263714
 30
0
 42
-0.03918795929051566
  0
VERTEX
  8
1
 10
1345.007716513726
 20
366.084934463506
 30
0
 42
-0.04375488491257872
  0
VERTEX
  8
1
 10
1343.723151452465
 20
367.2572225358088
 30
0
 42
-0.04918407769434297
  0
VERTEX
  8
1
 10
1342.734184208317
 20
368.5705858074196
 30
0
 42
-0.05477517097757556
  0
VERTEX
  8
1
 10
1342.071724683573
 20
369.9856820240789
 30
0
 42
-0.059200690451205
  0
VERTEX
  8
1
 10
1341.75712190614
 20
371.4593789557455
 30
0
 42
-0.06090972971156009
  0
VERTEX
  8
1
 10
1341.800841945943
 20
372.9458603090681
 30
0
  0
SEQEND
  8
1
  0
POLYLINE
  8
1
 62
2
 66
1
  0
VERTEX
  8
1
 10
1341.800841945943
 20
372.9458603090681
 30
0
 42
-0.05917881186480124
  0
VERTEX
  8
1
 10
1342.201514028301
 20
374.3985197448584
 30
0
 42
-0.05474465814763886
  0
VERTEX
  8
1
 10
1342.945997428313
 20
375.7722352872602
 30
0
 42
-0.04915712623146139
  0
VERTEX
  8
1
 10
1344.010445025081
 20
377.0252040047266
 30
0
 42
-0.04373563796531263
  0
VERTEX
  8
1
 10
1345.3616880974
 20
378.1199683083945
 30
0
 42
-0.03917557860688217
  0
VERTEX
  8
1
 10
1346.958407912772
 20
379.024039114472
 30
0
 42
-0.03569905059315422
  0
VERTEX
  8
1
 10
1348.752211322918
 20
379.7105725578072
 30
0
 42
-0.0332999257805663
  0
VERTEX
  8
1
 10
1350.688893313282
 20
380.1591175121669
 30
0
 42
-0.003422261233646704
  0
VERTEX
  8
1
 10
1350.90507118972
 20
380.1927129857265
 30
0
  0
SEQEND
  8
1
  0
POLYLINE
  8
1
 62
2
 66
1
  0
VERTEX
  8
1
 10
1297.66538515569
 20
372.9458603090681
 30
0
 42
0.05917881186480124
  0
VERTEX
  8
1
 10
1297.264713073332
 20
374.3985197448584
 30
0
 42
0.05474465814736689
  0
VERTEX
  8
1
 10
1296.520229673321
 20
375.7722352872603
 30
0
 42
0.04915712623187825
  0
VERTEX
  8
1
 10
1295.455782076553
 20
377.0252040047266
 30
0
 42
0.04373563796500909
  0
VERTEX
  8
1
 10
1294.104539004234
 20
378.1199683083945
 30
0
 42
0.03917557860694283
  0
VERTEX
  8
1
 10
1292.507819188862
 20
379.024039114472
 30
0
 42
0.03569905059323093
  0
VERTEX
  8
1
 10
1290.714015778715
 20
379.7105725578072
 30
0
 42
0.03329992578053849
  0
VERTEX
  8
1
 10
1288.777333788351
 20
380.159117512167
 30
0
 42
0.003949355998928066
  0
VERTEX
  8
1
 10
1288.527857482636
 20
380.1976185911948
 30
0
  0
SEQEND
  8
1
  0
ARC
  8
1
 62
7
 10
1389.233113550817
 20
521.9794493998562
 30
0
 40
1.999999999999933
 50
286.0000000000021
 51
0
  0
ARC
  8
1
 62
7
 10
1389.343113550816
 20
500.2791361771408
 30
0
 40
1.890000000000312
 50
31.51217995134132
 51
105.9999999999945
  0
ARC
  8
1
 62
7
 10
1250.233113550817
 20
522.2395242588216
 30
0
 40
2
 50
180
 51
253.9999999999737
  0
ARC
  8
1
 62
7
 10
1249.933113550817
 20
500.2711998342833
 30
0
 40
1.699999999999654
 50
74.00000000003257
 51
180
  0
ARC
  8
1
 62
7
 10
1389.343113550816
 20
500.2791361771408
 30
0
 40
1.89000000000101
 50
0
 51
31.51217995134132
  0
ARC
  8
1
 62
7
 10
1317.233113550817
 20
360.3583804669722
 30
0
 40
1
 50
0
 51
90
  0
ARC
  8
1
 62
7
 10
1322.233113550817
 20
360.3583804669722
 30
0
 40
1
 50
90
 51
180
  0
ARC
  8
1
 62
7
 10
1285.733113550817
 20
401.8583804669722
 30
0
 40
2
 50
0
 51
90
  0
ARC
  8
1
 62
7
 10
1353.733113550817
 20
401.8583804669722
 30
0
 40
2
 50
90
 51
180
  0
ARC
  8
1
 62
7
 10
1389.233113550817
 20
361.3583804669722
 30
0
 40
2
 50
0
 51
90
  0
ARC
  8
1
 62
7
 10
1389.233113550817
 20
382.3583804669722
 30
0
 40
2
 50
270
 51
0
  0
ARC
  8
1
 62
7
 10
1250.233113550817
 20
382.3583804669722
 30
0
 40
2
 50
180
 51
270
  0
ARC
  8
1
 62
7
 10
1250.233113550817
 20
361.3583804669722
 30
0
 40
2
 50
90
 51
180
  0
ARC
  8
1
 62
7
 10
1285.733113550817
 20
382.3583804669722
 30
0
 40
2
 50
270
 51
0
  0
ARC
  8
1
 62
7
 10
1353.733113550817
 20
382.3583804669722
 30
0
 40
2
 50
180
 51
270
  0
ARC
  8
1
 62
7
 10
1353.233113550817
 20
361.8583804669722
 30
0
 40
1.5
 50
90
 51
168.463040967187
  0
ARC
  8
1
 62
7
 10
1286.233113550817
 20
361.8583804669722
 30
0
 40
1.50000000000009
 50
11.53695903281301
 51
90
  0
ARC
  8
1
 62
7
 10
1333.233113550817
 20
356.3583804669722
 30
0
 40
5
 50
90
 51
180
  0
ARC
  8
1
 62
7
 10
1325.733113550817
 20
354.539741130974
 30
0
 40
2.499999999999527
 50
298.4429286243442
 51
0
  0
ARC
  8
1
 62
7
 10
1313.733113550817
 20
354.539741130974
 30
0
 40
2.5
 50
180
 51
241.5570713756329
  0
ARC
  8
1
 62
7
 10
1319.733113550817
 20
351.8583804669722
 30
0
 40
3.00000000000034
 50
241.5570713756246
 51
298.4429286243563
  0
ARC
  8
1
 62
7
 10
1306.233113550817
 20
356.3583804669722
 30
0
 40
5
 50
0
 51
90
  0
ARC
  8
1
 62
7
 10
1284.733113550817
 20
393.3966418098293
 30
0
 40
2.999999999999454
 50
305.7066914005897
 51
0
  0
ARC
  8
1
 62
7
 10
1270.766836899885
 20
383.3583804669722
 30
0
 40
3
 50
270
 51
305.706691400606
  0
ARC
  8
1
 62
7
 10
1354.733113550817
 20
393.3966418098293
 30
0
 40
3
 50
180
 51
234.2933085993927
  0
ARC
  8
1
 62
7
 10
1368.699390201748
 20
383.3583804669722
 30
0
 40
3.00000000000021
 50
234.293308599394
 51
270
  0
LINE
  8
1
 62
2
 10
1362.001829005218
 20
340.1785505524589
 30
0
 11
1341.925578289807
 21
340.1785505524589
 31
0
  0
LINE
  8
1
 62
2
 10
1341.925578289807
 20
340.1785505524589
 30
0
 11
1336.590567346738
 21
350.7471545162089
 31
0
  0
LINE
  8
1
 62
2
 10
1338.6600787662
 20
348.4312759761648
 30
0
 11
1336.590567346738
 21
350.7471545162089
 31
0
  0
LINE
  8
1
 62
2
 10
1337.224877539392
 20
347.7067891587205
 30
0
 11
1336.590567346738
 21
350.7471545162089
 31
0
  0
LINE
  8
1
 62
2
 10
1279.581816985308
 20
340.9737646418478
 30
0
 11
1293.812209054347
 21
340.9737646418478
 31
0
  0
LINE
  8
1
 62
2
 10
1293.812209054347
 20
340.9737646418478
 30
0
 11
1300.920993335748
 21
350.7471545162089
 31
0
  0
LINE
  8
1
 62
2
 10
1299.806411099106
 20
347.8482103350834
 30
0
 11
1300.920993335748
 21
350.7471545162089
 31
0
  0
LINE
  8
1
 62
2
 10
1298.506264713646
 20
348.7938863295223
 30
0
 11
1300.920993335748
 21
350.7471545162089
 31
0
  0
LINE
  8
1
 62
2
 10
1274.55695376265
 20
401.246285096839
 30
0
 11
1237.809691162212
 21
401.246285096839
 31
0
  0
LINE
  8
1
 62
2
 10
1237.809691162212
 20
401.246285096839
 30
0
 11
1243.643363550817
 21
385.0788804669722
 31
0
  0
LINE
  8
1
 62
2
 10
1241.869003805242
 20
387.627962344983
 30
0
 11
1243.643363550817
 21
385.0788804669722
 31
0
  0
LINE
  8
1
 62
2
 10
1243.381263874702
 20
388.1736300024436
 30
0
 11
1243.643363550817
 21
385.0788804669722
 31
0
  0
DIMENSION
  8
1
  6
CONTINUOUS
 62
2
  2
*D0
  3
DMST_1
 10
1385.347806489844
 20
348.8583804669722
 30
0
 11
1383.047806489844
 21
397.1083804595222
 31
0
 12
0
 22
0
 32
0
 70
0
  1
(97)
 13
1303.930975997117
 23
445.3583804520723
 33
0
 14
1344.733113550817
 24
348.8583804669722
 34
0
 50
90
 53
0
  0
DIMENSION
  8
1
  6
CONTINUOUS
 62
2
  2
*D1
  3
DMST_1
 10
1385.347806489844
 20
554.6675072827721
 30
0
 11
1383.02950588174
 21
532.057044249745
 31
0
 12
0
 22
0
 32
0
 70
0
 13
1322.733113576917
 23
465.6675021241722
 33
0
 14
1322.733113576917
 24
554.6675072827721
 34
0
 50
90
 53
0
  0
DIMENSION
  8
1
  6
CONTINUOUS
 62
2
  2
*D2
  3
DMST_1
 10
1370.7045806478
 20
348.8583804669722
 30
0
 11
1368.4045806478
 21
355.273731738385
 31
0
 12
0
 22
0
 32
0
 70
0
 13
1375.50974264923
 23
371.8583804669722
 33
0
 14
1344.733113550817
 24
348.8583804669722
 34
0
 50
90
 53
0
  0
DIMENSION
  8
1
  6
CONTINUOUS
 62
2
  2
*D3
  3
DMST_1
 10
1237.233113550817
 20
334.9611321926297
 30
0
 11
1319.733113550817
 21
337.2611321926297
 31
0
 12
0
 22
0
 32
0
 70
0
 13
1402.233113550817
 23
360.4583804669724
 33
0
 14
1237.233113550817
 24
360.4583804669724
 34
0
 53
0
  0
DIMENSION
  8
1
  6
CONTINUOUS
 62
2
  2
*D4
  3
DMST_2
 10
1237.233113550817
 20
348.8583804669722
 30
0
 11
1242.733113550817
 21
351.4583804669722
 31
0
 12
0
 22
0
 32
0
 70
0
 13
1248.233113550817
 23
358.6378804669722
 33
0
 14
1237.233113550817
 24
360.4583804669724
 34
0
 53
0
  0
ENDSEC
  0
EOF
