  0
SECTION
  2
HEADER
  9
$ACADVER
  1
AC1009
  9
$INSBASE
 10
0
 20
0
  9
$EXTMIN
 10
33.9205049821
 20
-13.66563321943529
  9
$EXTMAX
 10
930.9437670304455
 20
609.1576643612
  9
$LIMMIN
 10
33.9205049821
 20
-13.66563321943529
  9
$LIMMAX
 10
930.9437670304455
 20
609.1576643612
  9
$VIEWCTR
 10
10
 20
10
  9
$VIEWSIZE
 40
10
  9
$SNAPMODE
 70
0
  9
$SNAPUNIT
 10
1
 20
1
  9
$SNAPBASE
 10
0
 20
0
  9
$SNAPANG
 50
0
  9
$SNAPSTYLE
 70
0
  9
$SNAPISOPAIR
 70
0
  9
$GRIDMODE
 70
0
  9
$GRIDUNIT
 10
0
 20
0
  9
$ORTHOMODE
 70
0
  9
$REGENMODE
 70
1
  9
$FILLMODE
 70
1
  9
$QTEXTMODE
 70
0
  9
$DRAGMODE
 70
2
  9
$LTSCALE
 40
1
  9
$OSMODE
 70
0
  9
$ATTMODE
 70
1
  9
$TEXTSIZE
 40
3.5
  9
$TRACEWID
 40
0.5
  9
$TEXTSTYLE
  7
STANDARD
  9
$CLAYER
  8
0
  9
$CELTYPE
  6
BYLAYER
  9
$CECOLOR
 62
256
  9
$DIMSCALE
 40
1
  9
$DIMASZ
 40
0.18
  9
$DIMEXO
 40
0.0625
  9
$DIMDLI
 40
0.38
  9
$DIMRND
 40
0
  9
$DIMDLE
 40
0
  9
$DIMEXE
 40
0.18
  9
$DIMTP
 40
0
  9
$DIMTM
 40
0
  9
$DIMTXT
 40
0.18
  9
$DIMCEN
 40
0.09
  9
$DIMTSZ
 40
0
  9
$DIMTOL
 70
0
  9
$DIMLIM
 70
0
  9
$DIMTIH
 70
1
  9
$DIMTOH
 70
1
  9
$DIMSE1
 70
0
  9
$DIMSE2
 70
0
  9
$DIMTAD
 70
0
  9
$DIMZIN
 70
0
  9
$DIMBLK
  1

  9
$DIMASO
 70
1
  9
$DIMSHO
 70
1
  9
$DIMPOST
  1

  9
$DIMAPOST
  1

  9
$DIMALT
 70
0
  9
$DIMALTD
 70
2
  9
$DIMALTF
 40
25.4
  9
$DIMLFAC
 40
1
  9
$DIMTOFL
 70
0
  9
$DIMTVP
 40
0
  9
$DIMTIX
 70
0
  9
$DIMSOXD
 70
0
  9
$DIMSAH
 70
0
  9
$DIMBLK1
  1

  9
$DIMBLK2
  1

  9
$DIMSTYLE
  2
*UNNAMED
  9
$DIMCLRD
 70
0
  9
$DIMCLRE
 70
0
  9
$DIMCLRT
 70
0
  9
$DIMTFAC
 40
1
  9
$DIMGAP
 40
0.09
  9
$LUNITS
 70
2
  9
$LUPREC
 70
4
  9
$AXISMODE
 70
0
  9
$AXISUNIT
 10
0
 20
0
  9
$SKETCHINC
 40
0.1
  9
$FILLETRAD
 40
2
  9
$AUNITS
 70
0
  9
$AUPREC
 70
0
  9
$MENU
  1
ACAD
  9
$ELEVATION
 40
0
  9
$THICKNESS
 40
0
  9
$VIEWDIR
 10
0
 20
0
 30
1
  9
$LIMCHECK
 70
0
  9
$BLIPMODE
 70
1
  9
$CHAMFERA
 40
0
  9
$CHAMFERB
 40
0
  9
$FASTZOOM
 70
1
  9
$SKPOLY
 70
0
  9
$ANGBASE
 50
0
  9
$ANGDIR
 70
0
  9
$PDMODE
 70
0
  9
$PDSIZE
 40
0
  9
$PLINEWID
 40
0
  9
$COORDS
 70
2
  0
ENDSEC
  0
SECTION
  2
TABLES
  0
TABLE
  2
DIMSTYLE
 70
3
  0
DIMSTYLE
  2
DMST_1
 70
0
  3

  4

  5

  6

  7

 40
1
 41
3.2
 42
0.5
 43
7
 44
1.5
 45
0
 46
0
 47
0
 48
0
140
3.2
141
0
142
0
143
25.4
144
1
145
0
146
1
147
0.09
 71
0
 72
0
 73
0
 74
0
 75
0
 76
0
 77
1
 78
9
170
0
171
2
172
0
173
0
174
0
175
0
176
2
177
2
178
2
  0
DIMSTYLE
  2
DMST_2
 70
0
  3

  4

  5

  6

  7

 40
1
 41
3
 42
0.5
 43
7
 44
1
 45
0
 46
0
 47
0
 48
0
140
3
141
0
142
0
143
25.4
144
1
145
0
146
1
147
0.09
 71
0
 72
0
 73
0
 74
0
 75
0
 76
0
 77
1
 78
9
170
0
171
2
172
0
173
0
174
0
175
0
176
2
177
2
178
2
  0
DIMSTYLE
  2
DMST_3
 70
0
  3

  4

  5

  6

  7

 40
1
 41
3.2
 42
0.5
 43
7
 44
1.5
 45
0
 46
0
 47
0
 48
0
140
3.2
141
0
142
0
143
25.4
144
1
145
0
146
1
147
0.09
 71
0
 72
0
 73
0
 74
0
 75
0
 76
0
 77
1
 78
9
170
0
171
2
172
1
173
0
174
0
175
0
176
2
177
2
178
2
  0
ENDTAB
  0
TABLE
  2
LTYPE
 70
9
  0
LTYPE
  2
CONTINUOUS
 70
64
  3
Solid line
 72
65
 73
0
 40
0
  0
LTYPE
  2
BORDER
 70
64
  3
__ __ . __ __ .
 72
65
 73
6
 40
41.31028180485802
 49
11.80293765853086
 49
-5.901468829265431
 49
11.80293765853086
 49
-5.901468829265431
 49
0
 49
-5.901468829265431
  0
LTYPE
  2
CENTER
 70
64
  3
____ _ ____ _
 72
65
 73
4
 40
47.21175063412345
 49
29.50734414632716
 49
-5.901468829265431
 49
5.901468829265431
 49
-5.901468829265431
  0
LTYPE
  2
DASHDOT
 70
64
  3
__ . __ . __ .
 72
65
 73
4
 40
23.60587531706172
 49
11.80293765853086
 49
-5.901468829265431
 49
0
 49
-5.901468829265431
  0
LTYPE
  2
DASHED
 70
64
  3
__ __ __ __ __
 72
65
 73
2
 40
17.70440648779629
 49
11.80293765853086
 49
-5.901468829265431
  0
LTYPE
  2
DIVIDE
 70
64
  3
__ . . __ . . 
 72
65
 73
6
 40
29.50734414632716
 49
11.80293765853086
 49
-5.901468829265431
 49
0
 49
-5.901468829265431
 49
0
 49
-5.901468829265431
  0
LTYPE
  2
DOT
 70
64
  3
..............
 72
65
 73
4
 40
11.80293765853086
 49
0
 49
-5.901468829265431
 49
0
 49
-5.901468829265431
  0
LTYPE
  2
HIDDEN
 70
64
  3
_ _ _ _ _ _ _
 72
65
 73
2
 40
8.852203243898146
 49
5.901468829265431
 49
-2.950734414632716
  0
LTYPE
  2
PHANTOM
 70
64
  3
_____ _ _ _____ _ _ 
 72
65
 73
6
 40
59.01468829265431
 49
29.50734414632716
 49
-5.901468829265431
 49
5.901468829265431
 49
-5.901468829265431
 49
5.901468829265431
 49
-5.901468829265431
  0
ENDTAB
  0
TABLE
  2
LAYER
 70
3
  0
LAYER
  2
0
 70
0
 62
7
  6
CONTINUOUS
  0
LAYER
  2
1
 70
0
 62
7
  6
CONTINUOUS
  0
ENDTAB
  0
TABLE
  2
STYLE
 70
4
  0
STYLE
  2
STANDARD
 70
0
 40
0
 41
1
 50
0
 71
0
 42
3.5
  3
txt
  4

  0
STYLE
  2
SIMPLEX
 70
0
 40
0
 41
1
 50
0
 71
0
 42
3.5
  3
simplex
  4

  0
STYLE
  2
COMPLEX
 70
0
 40
0
 41
1
 50
0
 71
0
 42
3.5
  3
complex
  4

  0
STYLE
  2
ITALIC
 70
0
 40
0
 41
1
 50
0
 71
0
 42
3.5
  3
italic
  4

  0
ENDTAB
  0
TABLE
  2
VIEW
 70
0
  0
ENDTAB
  0
ENDSEC
  0
SECTION
  2
BLOCKS
  0
BLOCK
  8
1
  2
*D0
 70
1
 10
0
 20
0
 30
0
  0
LINE
  8
1
 62
2
 10
620.6230238527
 20
132.9206568948
 30
0
 11
620.6230238527
 21
349.9206496231
 31
0
  0
LINE
  8
1
 62
2
 10
526.8010408417
 20
132.9206568948
 30
0
 11
622.1230238527
 21
132.9206568948
 31
0
  0
LINE
  8
1
 62
2
 10
523.8010422126
 20
349.9206496231
 30
0
 11
622.1230238527
 21
349.9206496231
 31
0
  0
LINE
  8
1
 62
2
 10
620.6230238527
 20
349.9206496231
 30
0
 11
621.4870238527001
 21
346.7206496231
 31
0
  0
LINE
  8
1
 62
2
 10
620.6230238527
 20
349.9206496231
 30
0
 11
619.7590238527
 21
346.7206496231
 31
0
  0
LINE
  8
1
 62
2
 10
620.6230238527
 20
132.9206568948
 30
0
 11
619.7590238527
 21
136.1206568948
 31
0
  0
LINE
  8
1
 62
2
 10
620.6230238527
 20
132.9206568948
 30
0
 11
621.4870238527001
 21
136.1206568948
 31
0
  0
TEXT
  8
1
 62
2
 10
619.6230238527
 20
237.6319345510602
 30
0
 40
3.2
  1
217
 50
90
 41
0.9
 51
15
  0
ENDBLK
  8
0
  0
BLOCK
  8
1
  2
*D1
 70
1
 10
0
 20
0
 30
0
  0
LINE
  8
1
 62
2
 10
611.3010417358
 20
132.9206568948
 30
0
 11
611.3010417358
 21
212.9206551067
 31
0
  0
LINE
  8
1
 62
2
 10
526.8010408417
 20
132.9206568948
 30
0
 11
612.8010417358
 21
132.9206568948
 31
0
  0
LINE
  8
1
 62
2
 10
608.239096661
 20
212.9206551067
 30
0
 11
612.8010417358
 21
212.9206551067
 31
0
  0
LINE
  8
1
 62
2
 10
611.3010417358
 20
212.9206551067
 30
0
 11
612.1650417358001
 21
209.7206551067
 31
0
  0
LINE
  8
1
 62
2
 10
611.3010417358
 20
212.9206551067
 30
0
 11
610.4370417358
 21
209.7206551067
 31
0
  0
LINE
  8
1
 62
2
 10
611.3010417358
 20
132.9206568948
 30
0
 11
610.4370417358
 21
136.1206568948
 31
0
  0
LINE
  8
1
 62
2
 10
611.3010417358
 20
132.9206568948
 30
0
 11
612.1650417358001
 21
136.1206568948
 31
0
  0
TEXT
  8
1
 62
2
 10
610.3010417358
 20
170.0919372928602
 30
0
 40
3.2
  1
80
 50
90
 41
0.9
 51
15
  0
ENDBLK
  8
0
  0
BLOCK
  8
1
  2
*D2
 70
1
 10
0
 20
0
 30
0
  0
LINE
  8
1
 62
2
 10
41.30104888840003
 20
84.7239335771
 30
0
 11
601.301043822
 21
84.7239335771
 31
0
  0
LINE
  8
1
 62
2
 10
41.30104888840003
 20
162.4206543616
 30
0
 11
41.30104888840003
 21
83.2239335771
 31
0
  0
LINE
  8
1
 62
2
 10
601.301043822
 20
162.4206543616
 30
0
 11
601.301043822
 21
83.2239335771
 31
0
  0
LINE
  8
1
 62
2
 10
41.30104888840003
 20
84.7239335771
 30
0
 11
44.50104888840004
 21
85.5879335771
 31
0
  0
LINE
  8
1
 62
2
 10
41.30104888840003
 20
84.7239335771
 30
0
 11
44.50104888840004
 21
83.85993357709999
 31
0
  0
LINE
  8
1
 62
2
 10
601.301043822
 20
84.7239335771
 30
0
 11
598.101043822
 21
83.85993357709999
 31
0
  0
LINE
  8
1
 62
2
 10
601.301043822
 20
84.7239335771
 30
0
 11
598.101043822
 21
85.5879335771
 31
0
  0
TEXT
  8
1
 62
2
 10
317.0323276473102
 20
85.7239335771
 30
0
 40
3.2
  1
560
 41
0.9
 51
15
  0
ENDBLK
  8
0
  0
BLOCK
  8
1
  2
*D3
 70
1
 10
0
 20
0
 30
0
  0
LINE
  8
1
 62
2
 10
41.3010488884
 20
96.7239335771
 30
0
 11
353.3010417358
 21
96.7239335771
 31
0
  0
LINE
  8
1
 62
2
 10
41.3010488884
 20
162.4206543616
 30
0
 11
41.3010488884
 21
95.2239335771
 31
0
  0
LINE
  8
1
 62
2
 10
353.3010417358
 20
176.1706551067
 30
0
 11
353.3010417358
 21
95.2239335771
 31
0
  0
LINE
  8
1
 62
2
 10
353.3010417358
 20
96.7239335771
 30
0
 11
350.1010417358
 21
95.85993357709999
 31
0
  0
LINE
  8
1
 62
2
 10
353.3010417358
 20
96.7239335771
 30
0
 11
350.1010417358
 21
97.5879335771
 31
0
  0
LINE
  8
1
 62
2
 10
41.3010488884
 20
96.7239335771
 30
0
 11
44.50104888840001
 21
97.5879335771
 31
0
  0
LINE
  8
1
 62
2
 10
41.3010488884
 20
96.7239335771
 30
0
 11
44.50104888840001
 21
95.85993357709999
 31
0
  0
TEXT
  8
1
 62
2
 10
193.5123266042102
 20
97.7239335771
 30
0
 40
3.2
  1
312
 41
0.9
 51
15
  0
ENDBLK
  8
0
  0
BLOCK
  8
1
  2
*D4
 70
1
 10
0
 20
0
 30
0
  0
LINE
  8
1
 62
2
 10
356.3010417358
 20
96.7239335771
 30
0
 11
601.301043822
 21
96.7239335771
 31
0
  0
LINE
  8
1
 62
2
 10
356.3010417358
 20
175.9206551067
 30
0
 11
356.3010417358
 21
95.2239335771
 31
0
  0
LINE
  8
1
 62
2
 10
601.301043822
 20
162.4206543616
 30
0
 11
601.301043822
 21
95.2239335771
 31
0
  0
LINE
  8
1
 62
2
 10
356.3010417358
 20
96.7239335771
 30
0
 11
359.5010417358
 21
97.5879335771
 31
0
  0
LINE
  8
1
 62
2
 10
356.3010417358
 20
96.7239335771
 30
0
 11
359.5010417358
 21
95.85993357709999
 31
0
  0
LINE
  8
1
 62
2
 10
601.301043822
 20
96.7239335771
 30
0
 11
598.101043822
 21
95.85993357709999
 31
0
  0
LINE
  8
1
 62
2
 10
601.301043822
 20
96.7239335771
 30
0
 11
598.101043822
 21
97.5879335771
 31
0
  0
TEXT
  8
1
 62
2
 10
482.0323230279103
 20
97.7239335771
 30
0
 40
3.2
  1
245
 41
0.9
 51
15
  0
ENDBLK
  8
0
  0
BLOCK
  8
1
  2
*D5
 70
1
 10
0
 20
0
 30
0
  0
LINE
  8
1
 62
2
 10
486.3010417358
 20
104.678875982
 30
0
 11
601.301043822
 21
104.678875982
 31
0
  0
LINE
  8
1
 62
2
 10
486.3010417358
 20
123.7028196608
 30
0
 11
486.3010417358
 21
103.178875982
 31
0
  0
LINE
  8
1
 62
2
 10
601.301043822
 20
162.4206543616
 30
0
 11
601.301043822
 21
103.178875982
 31
0
  0
LINE
  8
1
 62
2
 10
486.3010417358
 20
104.678875982
 30
0
 11
489.5010417358
 21
105.542875982
 31
0
  0
LINE
  8
1
 62
2
 10
486.3010417358
 20
104.678875982
 30
0
 11
489.5010417358
 21
103.814875982
 31
0
  0
LINE
  8
1
 62
2
 10
601.301043822
 20
104.678875982
 30
0
 11
598.101043822
 21
103.814875982
 31
0
  0
LINE
  8
1
 62
2
 10
601.301043822
 20
104.678875982
 30
0
 11
598.101043822
 21
105.542875982
 31
0
  0
TEXT
  8
1
 62
2
 10
540.4923240710101
 20
105.678875982
 30
0
 40
3.2
  1
115
 41
0.9
 51
15
  0
ENDBLK
  8
0
  0
BLOCK
  8
1
  2
*D6
 70
1
 10
0
 20
0
 30
0
  0
LINE
  8
1
 62
2
 10
356.3010417358
 20
104.678875982
 30
0
 11
486.3010417358
 21
104.678875982
 31
0
  0
LINE
  8
1
 62
2
 10
356.3010417358
 20
175.9206551067
 30
0
 11
356.3010417358
 21
103.178875982
 31
0
  0
LINE
  8
1
 62
2
 10
486.3010417358
 20
123.7028196608
 30
0
 11
486.3010417358
 21
103.178875982
 31
0
  0
LINE
  8
1
 62
2
 10
486.3010417358
 20
104.678875982
 30
0
 11
483.1010417358
 21
103.814875982
 31
0
  0
LINE
  8
1
 62
2
 10
486.3010417358
 20
104.678875982
 30
0
 11
483.1010417358
 21
105.542875982
 31
0
  0
LINE
  8
1
 62
2
 10
356.3010417358
 20
104.678875982
 30
0
 11
359.5010417358
 21
105.542875982
 31
0
  0
LINE
  8
1
 62
2
 10
356.3010417358
 20
104.678875982
 30
0
 11
359.5010417358
 21
103.814875982
 31
0
  0
TEXT
  8
1
 62
2
 10
417.5123230279102
 20
105.678875982
 30
0
 40
3.2
  1
130
 41
0.9
 51
15
  0
ENDBLK
  8
0
  0
BLOCK
  8
1
  2
*D7
 70
1
 10
0
 20
0
 30
0
  0
LINE
  8
1
 62
2
 10
620.6230238527
 20
423.1576599504
 30
0
 11
620.6230238527
 21
609.1576643612
 31
0
  0
LINE
  8
1
 62
2
 10
599.8010397689
 20
423.1576599504
 30
0
 11
621.6230238527
 21
423.1576599504
 31
0
  0
LINE
  8
1
 62
2
 10
599.8010397689
 20
609.1576643612
 30
0
 11
621.6230238527
 21
609.1576643612
 31
0
  0
LINE
  8
1
 62
2
 10
620.6230238527
 20
609.1576643612
 30
0
 11
621.4330238527
 21
606.1576643612
 31
0
  0
LINE
  8
1
 62
2
 10
620.6230238527
 20
609.1576643612
 30
0
 11
619.8130238527001
 21
606.1576643612
 31
0
  0
LINE
  8
1
 62
2
 10
620.6230238527
 20
423.1576599504
 30
0
 11
619.8130238527001
 21
426.1576599504
 31
0
  0
LINE
  8
1
 62
2
 10
620.6230238527
 20
423.1576599504
 30
0
 11
621.4330238527
 21
426.1576599504
 31
0
  0
TEXT
  8
1
 62
2
 10
619.8230238527001
 20
512.6057383671532
 30
0
 40
3
  1
186
 50
90
 41
0.9
 51
15
  0
ENDBLK
  8
0
  0
BLOCK
  8
1
  2
*D8
 70
1
 10
0
 20
0
 30
0
  0
LINE
  8
1
 62
2
 10
718.9893226556644
 20
171.2694209953805
 30
0
 11
923.7344188088058
 21
273.8278142936427
 31
0
  0
LINE
  8
1
 62
2
 10
885.2923556647356
 20
254.5718892180194
 30
0
 11
882.8181816158933
 21
252.3662240630071
 31
0
  0
LINE
  8
1
 62
2
 10
885.2923556647356
 20
254.5718892180194
 30
0
 11
882.0442748143411
 21
253.9112328858011
 31
0
  0
LINE
  8
1
 62
2
 10
718.9893226556644
 20
171.2694209953805
 30
0
 11
721.4634967045067
 21
173.4750861503927
 31
0
  0
LINE
  8
1
 62
2
 10
718.9893226556644
 20
171.2694209953805
 30
0
 11
722.237403506059
 21
171.9300773275988
 31
0
  0
TEXT
  8
1
 62
2
 10
918.8004536023543
 20
272.4747933910729
 30
0
 40
3.2
  1
D1
 50
26.60664154672152
 41
0.9
 51
15
  0
ENDBLK
  8
0
  0
BLOCK
  8
1
  2
*D9
 70
1
 10
0
 20
0
 30
0
  0
LINE
  8
1
 62
2
 10
731.6283174507214
 20
201.0785994492375
 30
0
 11
930.9437670304455
 21
234.5521526578445
 31
0
  0
LINE
  8
1
 62
2
 10
872.6533608694988
 20
224.7627107641327
 30
0
 11
869.6406541089145
 21
223.3806492695783
 31
0
  0
LINE
  8
1
 62
2
 10
872.6533608694988
 20
224.7627107641327
 30
0
 11
869.3544572952635
 21
225.0847840599796
 31
0
  0
LINE
  8
1
 62
2
 10
731.6283174507214
 20
201.0785994492375
 30
0
 11
734.6410242113057
 21
202.4606609437919
 31
0
  0
LINE
  8
1
 62
2
 10
731.6283174507214
 20
201.0785994492375
 30
0
 11
734.9272210249567
 21
200.7565261533906
 31
0
  0
TEXT
  8
1
 62
2
 10
924.8832601604644
 20
234.548339722779
 30
0
 40
3.2
  1
D2
 50
9.533436774042706
 41
0.9
 51
15
  0
ENDBLK
  8
0
  0
BLOCK
  8
1
  2
*D10
 70
1
 10
0
 20
0
 30
0
  0
LINE
  8
1
 62
2
 10
753.8563198982706
 20
225.9054615990734
 30
0
 11
927.0560564458069
 21
179.3281093135543
 31
0
  0
LINE
  8
1
 62
2
 10
850.4253584221294
 20
199.9358486143265
 30
0
 11
847.1107717331778
 21
199.9325197369923
 31
0
  0
LINE
  8
1
 62
2
 10
850.4253584221294
 20
199.9358486143265
 30
0
 11
847.5595266455541
 21
201.6012327226846
 31
0
  0
LINE
  8
1
 62
2
 10
753.8563198982706
 20
225.9054615990734
 30
0
 11
757.1709065872223
 21
225.9087904764077
 31
0
  0
LINE
  8
1
 62
2
 10
753.8563198982706
 20
225.9054615990734
 30
0
 11
756.7221516748459
 21
224.2400774907154
 31
0
  0
TEXT
  8
1
 62
2
 10
921.5433987348706
 20
181.8461170620763
 30
0
 40
3.2
  1
D3
 50
344.9479676652047
 41
0.9
 51
15
  0
ENDBLK
  8
0
  0
ENDSEC
  0
SECTION
  2
ENTITIES
  0
POLYLINE
  8
0
 62
7
 66
1
  0
VERTEX
  8
0
 10
434.4867985384
 20
340.4206527225
 30
0
  0
VERTEX
  8
0
 10
435.0016858117
 20
340.0055510751
 30
0
  0
VERTEX
  8
0
 10
435.5354342298
 20
338.813219761
 30
0
  0
VERTEX
  8
0
 10
435.9903517799
 20
336.957339739
 30
0
  0
VERTEX
  8
0
 10
436.2507980005
 20
334.7132844678
 30
0
  0
VERTEX
  8
0
 10
436.2892541722
 20
333.4206534378
 30
0
  0
SEQEND
  8
0
  0
POLYLINE
  8
0
 62
7
 66
1
  0
VERTEX
  8
0
 10
349.3162166015
 20
180.7691609315
 30
0
  0
VERTEX
  8
0
 10
352.0033877031
 20
180.1535455338
 30
0
  0
VERTEX
  8
0
 10
354.8010360138
 20
179.9206552855
 30
0
  0
SEQEND
  8
0
  0
POLYLINE
  8
0
 62
7
 66
1
  0
VERTEX
  8
0
 10
360.2858703272
 20
180.7691609315
 30
0
  0
VERTEX
  8
0
 10
362.2819628255
 20
179.9879452042
 30
0
  0
VERTEX
  8
0
 10
363.0282800333
 20
179.9206552855
 30
0
  0
SEQEND
  8
0
  0
POLYLINE
  8
0
 62
7
 66
1
  0
VERTEX
  8
0
 10
363.0282800333
 20
179.9206552855
 30
0
  0
VERTEX
  8
0
 10
365.0776963369
 20
180.4093910209
 30
0
  0
VERTEX
  8
0
 10
365.77069719
 20
180.7691609315
 30
0
  0
SEQEND
  8
0
  0
POLYLINE
  8
0
 62
7
 66
1
  0
VERTEX
  8
0
 10
343.8313822881
 20
180.7691609315
 30
0
  0
VERTEX
  8
0
 10
345.1749752895
 20
180.1535455338
 30
0
  0
VERTEX
  8
0
 10
346.5738068954
 20
179.9206552855
 30
0
  0
SEQEND
  8
0
  0
POLYLINE
  8
0
 62
7
 66
1
  0
VERTEX
  8
0
 10
428.4903142289
 20
276.7691580407
 30
0
  0
VERTEX
  8
0
 10
431.1774853305
 20
276.1535463683
 30
0
  0
VERTEX
  8
0
 10
433.9751410917
 20
275.92065612
 30
0
  0
SEQEND
  8
0
  0
POLYLINE
  8
0
 62
7
 66
1
  0
VERTEX
  8
0
 10
439.4599679546
 20
276.7691580407
 30
0
  0
VERTEX
  8
0
 10
441.4560604529
 20
275.9879423133
 30
0
  0
VERTEX
  8
0
 10
442.202381386
 20
275.92065612
 30
0
  0
SEQEND
  8
0
  0
POLYLINE
  8
0
 62
7
 66
1
  0
VERTEX
  8
0
 10
423.0054836408
 20
276.7691580407
 30
0
  0
VERTEX
  8
0
 10
424.3490691916
 20
276.1535463683
 30
0
  0
VERTEX
  8
0
 10
425.7478970722
 20
275.92065612
 30
0
  0
SEQEND
  8
0
  0
POLYLINE
  8
0
 62
7
 66
1
  0
VERTEX
  8
0
 10
442.202381386
 20
275.92065612
 30
0
  0
VERTEX
  8
0
 10
444.2517939643
 20
276.4093918554
 30
0
  0
VERTEX
  8
0
 10
444.9447948174
 20
276.7691580407
 30
0
  0
SEQEND
  8
0
  0
POLYLINE
  8
0
 62
7
 66
1
  0
VERTEX
  8
0
 10
533.1421155171
 20
276.7691580407
 30
0
  0
VERTEX
  8
0
 10
535.8292866186
 20
276.1535463683
 30
0
  0
VERTEX
  8
0
 10
538.6269423799
 20
275.92065612
 30
0
  0
SEQEND
  8
0
  0
POLYLINE
  8
0
 62
7
 66
1
  0
VERTEX
  8
0
 10
530.3997020857
 20
275.92065612
 30
0
  0
VERTEX
  8
0
 10
531.1460230188
 20
275.9879423133
 30
0
  0
VERTEX
  8
0
 10
533.1421155171
 20
276.7691580407
 30
0
  0
SEQEND
  8
0
  0
POLYLINE
  8
0
 62
7
 66
1
  0
VERTEX
  8
0
 10
544.1117692427
 20
276.7691580407
 30
0
  0
VERTEX
  8
0
 10
545.4553585188
 20
276.1535463683
 30
0
  0
VERTEX
  8
0
 10
546.8541863994
 20
275.92065612
 30
0
  0
SEQEND
  8
0
  0
POLYLINE
  8
0
 62
7
 66
1
  0
VERTEX
  8
0
 10
527.6572886543
 20
276.7691580407
 30
0
  0
VERTEX
  8
0
 10
528.3502895073
 20
276.4093918554
 30
0
  0
VERTEX
  8
0
 10
530.3997020857
 20
275.92065612
 30
0
  0
SEQEND
  8
0
  0
POLYLINE
  8
0
 62
7
 66
1
  0
VERTEX
  8
0
 10
365.77069719
 20
247.0721496097
 30
0
  0
VERTEX
  8
0
 10
364.4271116392
 20
247.6877650074
 30
0
  0
VERTEX
  8
0
 10
363.0282800333
 20
247.9206552557
 30
0
  0
SEQEND
  8
0
  0
POLYLINE
  8
0
 62
7
 66
1
  0
VERTEX
  8
0
 10
354.8010360138
 20
247.9206552557
 30
0
  0
VERTEX
  8
0
 10
350.7022183077
 20
247.4319195203
 30
0
  0
VERTEX
  8
0
 10
349.3162166015
 20
247.0721496097
 30
0
  0
SEQEND
  8
0
  0
POLYLINE
  8
0
 62
7
 66
1
  0
VERTEX
  8
0
 10
360.2858703272
 20
247.0721496097
 30
0
  0
VERTEX
  8
0
 10
356.2936853306
 20
247.853365337
 30
0
  0
VERTEX
  8
0
 10
354.8010360138
 20
247.9206552557
 30
0
  0
SEQEND
  8
0
  0
POLYLINE
  8
0
 62
7
 66
1
  0
VERTEX
  8
0
 10
349.3162166015
 20
247.0721496097
 30
0
  0
VERTEX
  8
0
 10
347.9726236002
 20
247.6877650074
 30
0
  0
VERTEX
  8
0
 10
346.5737919943
 20
247.9206552557
 30
0
  0
SEQEND
  8
0
  0
POLYLINE
  8
0
 62
7
 66
1
  0
VERTEX
  8
0
 10
428.4903142289
 20
322.5721461526
 30
0
  0
VERTEX
  8
0
 10
427.1467249529
 20
323.1877652756
 30
0
  0
VERTEX
  8
0
 10
425.7478970722
 20
323.4206555239
 30
0
  0
SEQEND
  8
0
  0
POLYLINE
  8
0
 62
7
 66
1
  0
VERTEX
  8
0
 10
444.9447948174
 20
322.5721461526
 30
0
  0
VERTEX
  8
0
 10
443.6012092666
 20
323.1877652756
 30
0
  0
VERTEX
  8
0
 10
442.202381386
 20
323.4206555239
 30
0
  0
SEQEND
  8
0
  0
POLYLINE
  8
0
 62
7
 66
1
  0
VERTEX
  8
0
 10
433.9751410917
 20
323.4206555239
 30
0
  0
VERTEX
  8
0
 10
429.8763122098
 20
322.9319197885
 30
0
  0
VERTEX
  8
0
 10
428.4903142289
 20
322.5721461526
 30
0
  0
SEQEND
  8
0
  0
POLYLINE
  8
0
 62
7
 66
1
  0
VERTEX
  8
0
 10
439.4599679546
 20
322.5721461526
 30
0
  0
VERTEX
  8
0
 10
435.4677792327
 20
323.3533693306
 30
0
  0
VERTEX
  8
0
 10
433.9751410917
 20
323.4206555239
 30
0
  0
SEQEND
  8
0
  0
POLYLINE
  8
0
 62
7
 66
1
  0
VERTEX
  8
0
 10
544.1117692427
 20
322.5721461526
 30
0
  0
VERTEX
  8
0
 10
540.1195842461
 20
323.3533693306
 30
0
  0
VERTEX
  8
0
 10
538.6269423799
 20
323.4206555239
 30
0
  0
SEQEND
  8
0
  0
POLYLINE
  8
0
 62
7
 66
1
  0
VERTEX
  8
0
 10
533.1421155171
 20
322.5721461526
 30
0
  0
VERTEX
  8
0
 10
531.7985299663
 20
323.1877652756
 30
0
  0
VERTEX
  8
0
 10
530.3997020857
 20
323.4206555239
 30
0
  0
SEQEND
  8
0
  0
POLYLINE
  8
0
 62
7
 66
1
  0
VERTEX
  8
0
 10
538.6269423799
 20
323.4206555239
 30
0
  0
VERTEX
  8
0
 10
534.5281172232
 20
322.9319197885
 30
0
  0
VERTEX
  8
0
 10
533.1421155171
 20
322.5721461526
 30
0
  0
SEQEND
  8
0
  0
POLYLINE
  8
0
 62
7
 66
1
  0
VERTEX
  8
0
 10
549.5965998308
 20
322.5721461526
 30
0
  0
VERTEX
  8
0
 10
548.25301428
 20
323.1877652756
 30
0
  0
VERTEX
  8
0
 10
546.8541863994
 20
323.4206555239
 30
0
  0
SEQEND
  8
0
  0
POLYLINE
  8
0
 62
7
 66
1
  0
VERTEX
  8
0
 10
367.9424594776
 20
227.9206547714
 30
0
  0
VERTEX
  8
0
 10
368.4597160355
 20
227.7375493027
 30
0
  0
VERTEX
  8
0
 10
368.8241462843
 20
227.23622488
 30
0
  0
SEQEND
  8
0
  0
POLYLINE
  8
0
 62
7
 66
1
  0
VERTEX
  8
0
 10
340.7779406444
 20
227.23622488
 30
0
  0
VERTEX
  8
0
 10
341.1500375406
 20
227.7436746112
 30
0
  0
VERTEX
  8
0
 10
341.6596274511
 20
227.9206547714
 30
0
  0
SEQEND
  8
0
  0
POLYLINE
  8
0
 62
7
 66
1
  0
VERTEX
  8
0
 10
348.7604181902
 20
227.9206547714
 30
0
  0
VERTEX
  8
0
 10
347.8704314367
 20
227.6641284875
 30
0
  0
VERTEX
  8
0
 10
347.4008809463
 20
227.1191613577
 30
0
  0
VERTEX
  8
0
 10
347.0744561092
 20
226.2816117904
 30
0
  0
VERTEX
  8
0
 10
346.9608049528
 20
225.7826985619
 30
0
  0
SEQEND
  8
0
  0
POLYLINE
  8
0
 62
7
 66
1
  0
VERTEX
  8
0
 10
362.6412745253
 20
225.7826985619
 30
0
  0
VERTEX
  8
0
 10
362.4041970507
 20
226.6724655233
 30
0
  0
VERTEX
  8
0
 10
362.0509799258
 20
227.3492762647
 30
0
  0
VERTEX
  8
0
 10
361.5536238686
 20
227.7705991469
 30
0
  0
VERTEX
  8
0
 10
360.8416538374
 20
227.9206547714
 30
0
  0
SEQEND
  8
0
  0
POLYLINE
  8
0
 62
7
 66
1
  0
VERTEX
  8
0
 10
368.8241462843
 20
198.6050853334
 30
0
  0
VERTEX
  8
0
 10
368.4520419375
 20
198.0976356021
 30
0
  0
VERTEX
  8
0
 10
367.9424594776
 20
197.920655442
 30
0
  0
SEQEND
  8
0
  0
POLYLINE
  8
0
 62
7
 66
1
  0
VERTEX
  8
0
 10
341.6596274511
 20
197.920655442
 30
0
  0
VERTEX
  8
0
 10
341.1423634426
 20
198.1037609107
 30
0
  0
VERTEX
  8
0
 10
340.7779406444
 20
198.6050853334
 30
0
  0
SEQEND
  8
0
  0
POLYLINE
  8
0
 62
7
 66
1
  0
VERTEX
  8
0
 10
360.8416538374
 20
197.920655442
 30
0
  0
VERTEX
  8
0
 10
361.7316480414
 20
198.1771817259
 30
0
  0
VERTEX
  8
0
 10
362.2012059824
 20
198.7221488557
 30
0
  0
VERTEX
  8
0
 10
362.5276233689
 20
199.5596984229
 30
0
  0
VERTEX
  8
0
 10
362.6412745253
 20
200.0586116514
 30
0
  0
SEQEND
  8
0
  0
POLYLINE
  8
0
 62
7
 66
1
  0
VERTEX
  8
0
 10
346.9608049528
 20
200.0586116514
 30
0
  0
VERTEX
  8
0
 10
347.1978824274
 20
199.1688446901
 30
0
  0
VERTEX
  8
0
 10
347.5510995523
 20
198.4920339487
 30
0
  0
VERTEX
  8
0
 10
348.0484556095
 20
198.0707110665
 30
0
  0
VERTEX
  8
0
 10
348.7604181902
 20
197.920655442
 30
0
  0
SEQEND
  8
0
  0
POLYLINE
  8
0
 62
7
 66
1
  0
VERTEX
  8
0
 10
473.3495689617
 20
237.1549313716
 30
0
  0
VERTEX
  8
0
 10
473.464637591
 20
239.2598824404
 30
0
  0
VERTEX
  8
0
 10
473.7613485814
 20
240.8988760612
 30
0
  0
VERTEX
  8
0
 10
474.3084968687
 20
242.4640232525
 30
0
  0
VERTEX
  8
0
 10
475.6161072911
 20
244.3816294722
 30
0
  0
VERTEX
  8
0
 10
476.0993314595
 20
244.8193808846
 30
0
  0
SEQEND
  8
0
  0
POLYLINE
  8
0
 62
7
 66
1
  0
VERTEX
  8
0
 10
415.8043037788
 20
258.4821140222
 30
0
  0
VERTEX
  8
0
 10
415.5562068955
 20
257.9443311147
 30
0
  0
VERTEX
  8
0
 10
415.0938089625
 20
256.5578972749
 30
0
  0
SEQEND
  8
0
  0
POLYLINE
  8
0
 62
7
 66
1
  0
VERTEX
  8
0
 10
545.5463375584
 20
275.92065612
 30
0
  0
VERTEX
  8
0
 10
545.9775585369
 20
275.5147633902
 30
0
  0
VERTEX
  8
0
 10
546.7066239254
 20
273.8412475041
 30
0
  0
VERTEX
  8
0
 10
546.801041408
 20
271.6866476289
 30
0
  0
VERTEX
  8
0
 10
546.801041408
 20
265.1454848997
 30
0
  0
VERTEX
  8
0
 10
546.9106021957
 20
260.8022434465
 30
0
  0
VERTEX
  8
0
 10
547.1202093796001
 20
259.3157296828
 30
0
  0
SEQEND
  8
0
  0
POLYLINE
  8
0
 62
7
 66
1
  0
VERTEX
  8
0
 10
486.3044611305
 20
204.9223692916
 30
0
  0
VERTEX
  8
0
 10
477.6703692661
 20
205.2416560068
 30
0
  0
VERTEX
  8
0
 10
469.0236501084
 20
206.7052652887
 30
0
  0
VERTEX
  8
0
 10
463.3057616339
 20
208.1862507216
 30
0
  0
VERTEX
  8
0
 10
457.773908569
 20
209.6016503233
 30
0
  0
VERTEX
  8
0
 10
452.5851230756
 20
211.2595680696
 30
0
  0
VERTEX
  8
0
 10
445.0180601017
 20
214.0161318998
 30
0
  0
VERTEX
  8
0
 10
437.8485116796
 20
216.994815582
 30
0
  0
VERTEX
  8
0
 10
434.4199184016
 20
218.5242614537
 30
0
  0
VERTEX
  8
0
 10
431.0686248974
 20
220.0450846753
 30
0
  0
VERTEX
  8
0
 10
427.7930516438
 20
221.5045425869
 30
0
  0
VERTEX
  8
0
 10
424.6758479313
 20
222.7909467942
 30
0
  0
SEQEND
  8
0
  0
POLYLINE
  8
0
 62
7
 66
1
  0
VERTEX
  8
0
 10
519.2197967009
 20
205.5813913062
 30
0
  0
VERTEX
  8
0
 10
516.409871696
 20
205.8378412216
 30
0
  0
VERTEX
  8
0
 10
513.3669055686
 20
206.0004678383
 30
0
  0
VERTEX
  8
0
 10
510.2684829072
 20
206.0680790632
 30
0
  0
VERTEX
  8
0
 10
507.086336209
 20
206.0565138995
 30
0
  0
VERTEX
  8
0
 10
503.6312151388
 20
205.9722455046
 30
0
  0
VERTEX
  8
0
 10
501.6868268759
 20
205.8976558796
 30
0
  0
VERTEX
  8
0
 10
499.6119081662
 20
205.8001305736
 30
0
  0
VERTEX
  8
0
 10
497.406202896
 20
205.6796700522
 30
0
  0
VERTEX
  8
0
 10
495.0703899996
 20
205.536273384
 30
0
  0
VERTEX
  8
0
 10
492.9878065051
 20
205.3971449673
 30
0
  0
VERTEX
  8
0
 10
490.7111460962
 20
205.2359428085
 30
0
  0
VERTEX
  8
0
 10
488.0171804144
 20
205.0373410634
 30
0
  0
VERTEX
  8
0
 10
486.3010419761
 20
204.9029735676
 30
0
  0
SEQEND
  8
0
  0
POLYLINE
  8
0
 62
7
 66
1
  0
VERTEX
  8
0
 10
540.5711974637
 20
189.3045069478
 30
0
  0
VERTEX
  8
0
 10
539.9295869903
 20
189.6926617078
 30
0
  0
VERTEX
  8
0
 10
538.8900410072
 20
190.4232228003
 30
0
  0
VERTEX
  8
0
 10
537.8753352598
 20
191.2113973699
 30
0
  0
VERTEX
  8
0
 10
536.6201210455
 20
192.2353921286
 30
0
  0
VERTEX
  8
0
 10
535.3026646809
 20
193.3351555667
 30
0
  0
VERTEX
  8
0
 10
533.727038248
 20
194.6528112344
 30
0
  0
VERTEX
  8
0
 10
532.4374396042
 20
195.7193674348
 30
0
  0
VERTEX
  8
0
 10
531.3258800344
 20
196.5712481938
 30
0
  0
VERTEX
  8
0
 10
530.4097566442
 20
197.2642360083
 30
0
  0
VERTEX
  8
0
 10
529.3758768276
 20
198.1420745901
 30
0
  0
VERTEX
  8
0
 10
528.2270010249
 20
199.1946358062
 30
0
  0
VERTEX
  8
0
 10
527.0494926409
 20
200.377782417
 30
0
  0
VERTEX
  8
0
 10
525.8212309019
 20
201.619550196
 30
0
  0
VERTEX
  8
0
 10
524.5749722854
 20
202.612390352
 30
0
  0
VERTEX
  8
0
 10
523.2497226135
 20
203.3596025608
 30
0
  0
VERTEX
  8
0
 10
521.9240743355
 20
204.0813440285
 30
0
  0
VERTEX
  8
0
 10
520.8291519121
 20
204.6911973334
 30
0
  0
VERTEX
  8
0
 10
519.2197967009
 20
205.5813913062
 30
0
  0
SEQEND
  8
0
  0
POLYLINE
  8
0
 62
7
 66
1
  0
VERTEX
  8
0
 10
424.3862475888
 20
222.3702283404
 30
0
  0
VERTEX
  8
0
 10
421.0233609811
 20
225.244611112
 30
0
  0
VERTEX
  8
0
 10
418.2506348626
 20
227.8469815678
 30
0
  0
VERTEX
  8
0
 10
417.0125569836
 20
229.0810854934
 30
0
  0
VERTEX
  8
0
 10
415.9049983756
 20
230.3195191375
 30
0
  0
VERTEX
  8
0
 10
414.7538166181
 20
231.7064149133
 30
0
  0
VERTEX
  8
0
 10
413.6401783363
 20
233.1508235834
 30
0
  0
VERTEX
  8
0
 10
411.9470860497
 20
235.6109009884
 30
0
  0
VERTEX
  8
0
 10
410.7788424627
 20
237.5063212416
 30
0
  0
VERTEX
  8
0
 10
410.1094226972
 20
238.6044530026
 30
0
  0
VERTEX
  8
0
 10
409.6600111262
 20
239.1973776571
 30
0
  0
SEQEND
  8
0
  0
POLYLINE
  8
0
 62
7
 66
1
  0
VERTEX
  8
0
 10
424.1464432017
 20
154.9139177255
 30
0
  0
VERTEX
  8
0
 10
419.4687973396
 20
158.5851689629
 30
0
  0
VERTEX
  8
0
 10
414.9906258718
 20
162.5326169483
 30
0
  0
VERTEX
  8
0
 10
410.7251386778
 20
166.7504278771
 30
0
  0
VERTEX
  8
0
 10
406.5548401014
 20
171.0815956644
 30
0
  0
VERTEX
  8
0
 10
401.9591729776
 20
174.8649744145
 30
0
  0
VERTEX
  8
0
 10
395.3160863058
 20
178.8301734082
 30
0
  0
VERTEX
  8
0
 10
388.108454241
 20
181.6098732702
 30
0
  0
VERTEX
  8
0
 10
380.4927836792
 20
183.1349288873
 30
0
  0
SEQEND
  8
0
  0
POLYLINE
  8
0
 62
7
 66
1
  0
VERTEX
  8
0
 10
381.0662250654
 20
242.4206552855
 30
0
  0
VERTEX
  8
0
 10
380.8800425069
 20
242.014945095
 30
0
  0
VERTEX
  8
0
 10
380.5514346496
 20
240.7659223131
 30
0
  0
VERTEX
  8
0
 10
380.2432786361
 20
238.5820044033
 30
0
  0
VERTEX
  8
0
 10
380.0086076991
 20
235.7014013282
 30
0
  0
VERTEX
  8
0
 10
379.8939805166
 20
231.8984163753
 30
0
  0
VERTEX
  8
0
 10
379.96357639
 20
228.1685365192
 30
0
  0
VERTEX
  8
0
 10
380.2085365788
 20
223.9028854124
 30
0
  0
VERTEX
  8
0
 10
380.5744196908
 20
218.249021174
 30
0
  0
VERTEX
  8
0
 10
380.7033966915
 20
212.2748861616
 30
0
  0
VERTEX
  8
0
 10
380.4591294066
 20
206.5243619322
 30
0
  0
VERTEX
  8
0
 10
380.1028798954
 20
200.789831189
 30
0
  0
VERTEX
  8
0
 10
379.9459185139
 20
196.8217516146
 30
0
  0
VERTEX
  8
0
 10
379.8765536086
 20
193.1231623343
 30
0
  0
VERTEX
  8
0
 10
379.8883925811
 20
190.0084955446
 30
0
  0
VERTEX
  8
0
 10
379.9825157658
 20
187.3879363588
 30
0
  0
VERTEX
  8
0
 10
380.1388140456
 20
185.4572301559
 30
0
  0
VERTEX
  8
0
 10
380.3110044138
 20
184.0840471736
 30
0
  0
VERTEX
  8
0
 10
380.4384838478
 20
183.3734405986
 30
0
  0
VERTEX
  8
0
 10
380.4927836792
 20
183.1349288873
 30
0
  0
SEQEND
  8
0
  0
POLYLINE
  8
0
 62
7
 66
1
  0
VERTEX
  8
0
 10
556.8002607362
 20
245.2246216885
 30
0
  0
VERTEX
  8
0
 10
559.9984373585
 20
244.0612451933
 30
0
  0
VERTEX
  8
0
 10
563.4012069241001
 20
244.0215615384
 30
0
  0
VERTEX
  8
0
 10
566.980711712
 20
244.9600925497
 30
0
  0
VERTEX
  8
0
 10
570.4944278733
 20
246.1748687378
 30
0
  0
VERTEX
  8
0
 10
577.3332040445
 20
248.3656970612
 30
0
  0
SEQEND
  8
0
  0
POLYLINE
  8
0
 62
7
 66
1
  0
VERTEX
  8
0
 10
577.8683792488
 20
177.7172243051
 30
0
  0
VERTEX
  8
0
 10
569.6799006001
 20
180.8652622453
 30
0
  0
VERTEX
  8
0
 10
560.8915310041
 20
184.2538719825
 30
0
  0
SEQEND
  8
0
  0
POLYLINE
  8
0
 62
7
 66
1
  0
VERTEX
  8
0
 10
413.934669985
 20
514.6571071909
 30
0
  0
VERTEX
  8
0
 10
414.4567545191
 20
508.7945392679
 30
0
  0
VERTEX
  8
0
 10
414.4773851768
 20
508.6865426365
 30
0
  0
SEQEND
  8
0
  0
POLYLINE
  8
0
 62
7
 66
1
  0
VERTEX
  8
0
 10
419.1413368718
 20
559.3409590747
 30
0
  0
VERTEX
  8
0
 10
414.096310331
 20
557.2389006938
 30
0
  0
VERTEX
  8
0
 10
407.1151386635
 20
554.3301120724
 30
0
  0
VERTEX
  8
0
 10
401.2683923976
 20
551.8939920093
 30
0
  0
VERTEX
  8
0
 10
394.8980565802
 20
549.2397040452
 30
0
  0
VERTEX
  8
0
 10
391.4445485608
 20
547.9429602946
 30
0
  0
VERTEX
  8
0
 10
387.6896422044
 20
546.8956657078001
 30
0
  0
VERTEX
  8
0
 10
383.6529399888
 20
546.141411769
 30
0
  0
VERTEX
  8
0
 10
380.6883018152
 20
545.8537895556
 30
0
  0
SEQEND
  8
0
  0
POLYLINE
  8
0
 62
7
 66
1
  0
VERTEX
  8
0
 10
380.6875716583
 20
486.455702814
 30
0
  0
VERTEX
  8
0
 10
384.0747024552
 20
486.1119944926
 30
0
  0
VERTEX
  8
0
 10
388.5632451312
 20
485.2071717705
 30
0
  0
VERTEX
  8
0
 10
392.7793796794
 20
483.9113369908
 30
0
  0
VERTEX
  8
0
 10
398.6504446403
 20
481.5121159281
 30
0
  0
VERTEX
  8
0
 10
404.3226610557
 20
479.1487098064
 30
0
  0
VERTEX
  8
0
 10
415.1434894339
 20
474.6400840904
 30
0
  0
VERTEX
  8
0
 10
419.2102919952
 20
472.9456320729
 30
0
  0
SEQEND
  8
0
  0
POLYLINE
  8
0
 62
7
 66
1
  0
VERTEX
  8
0
 10
518.0221121446
 20
539.9132777329
 30
0
  0
VERTEX
  8
0
 10
517.6701355414
 20
539.8741603221
 30
0
  0
VERTEX
  8
0
 10
517.4188069687
 20
539.7568639691
 30
0
  0
SEQEND
  8
0
  0
POLYLINE
  8
0
 62
7
 66
1
  0
VERTEX
  8
0
 10
517.4188069687
 20
539.7568639691
 30
0
  0
VERTEX
  8
0
 10
517.2928120629
 20
539.5114884104
 30
0
  0
VERTEX
  8
0
 10
517.2679811404
 20
539.2950751211
 30
0
  0
SEQEND
  8
0
  0
POLYLINE
  8
0
 62
7
 66
1
  0
VERTEX
  8
0
 10
517.2679811404
 20
539.2950751211
 30
0
  0
VERTEX
  8
0
 10
517.358304529
 20
538.9496270891
 30
0
  0
VERTEX
  8
0
 10
517.5193581418
 20
538.7178376641
 30
0
  0
SEQEND
  8
0
  0
POLYLINE
  8
0
 62
7
 66
1
  0
VERTEX
  8
0
 10
517.9718393521
 20
537.0848138209
 30
0
  0
VERTEX
  8
0
 10
517.6548357741
 20
537.0642911966
 30
0
  0
VERTEX
  8
0
 10
517.4188069687
 20
536.9861252929001
 30
0
  0
SEQEND
  8
0
  0
POLYLINE
  8
0
 62
7
 66
1
  0
VERTEX
  8
0
 10
517.4188069687
 20
536.9861252929001
 30
0
  0
VERTEX
  8
0
 10
517.296554117
 20
536.7732491668
 30
0
  0
VERTEX
  8
0
 10
517.2679811404
 20
536.5820598181
 30
0
  0
SEQEND
  8
0
  0
POLYLINE
  8
0
 62
7
 66
1
  0
VERTEX
  8
0
 10
517.2679811404
 20
536.5820598181
 30
0
  0
VERTEX
  8
0
 10
517.3515002863001
 20
536.2030133929
 30
0
  0
VERTEX
  8
0
 10
517.5193581418
 20
535.9470971252
 30
0
  0
SEQEND
  8
0
  0
POLYLINE
  8
0
 62
7
 66
1
  0
VERTEX
  8
0
 10
517.1674299673
 20
535.5430316503
 30
0
  0
VERTEX
  8
0
 10
516.4889465706
 20
536.2769659932
 30
0
  0
VERTEX
  8
0
 10
516.3127459274
 20
537.0438486661
 30
0
  0
SEQEND
  8
0
  0
POLYLINE
  8
0
 62
7
 66
1
  0
VERTEX
  8
0
 10
517.1674299673
 20
538.2560469534
 30
0
  0
VERTEX
  8
0
 10
516.4889465706
 20
538.9899812962
 30
0
  0
VERTEX
  8
0
 10
516.3127459274
 20
539.7568639691
 30
0
  0
SEQEND
  8
0
  0
POLYLINE
  8
0
 62
7
 66
1
  0
VERTEX
  8
0
 10
516.3127459274
 20
539.7568639691
 30
0
  0
VERTEX
  8
0
 10
516.3909379081
 20
540.3685007568
 30
0
  0
VERTEX
  8
0
 10
516.6143994466
 20
540.7958921369
 30
0
  0
SEQEND
  8
0
  0
POLYLINE
  8
0
 62
7
 66
1
  0
VERTEX
  8
0
 10
518.0221121446
 20
530.913277189
 30
0
  0
VERTEX
  8
0
 10
517.6701355414
 20
530.8741607095
 30
0
  0
VERTEX
  8
0
 10
517.4188069687
 20
530.7568643566
 30
0
  0
SEQEND
  8
0
  0
POLYLINE
  8
0
 62
7
 66
1
  0
VERTEX
  8
0
 10
517.4188069687
 20
530.7568643566
 30
0
  0
VERTEX
  8
0
 10
517.2928120629
 20
530.5114887978
 30
0
  0
VERTEX
  8
0
 10
517.2679811404
 20
530.2950745772
 30
0
  0
SEQEND
  8
0
  0
POLYLINE
  8
0
 62
7
 66
1
  0
VERTEX
  8
0
 10
517.2679811404
 20
530.2950745772
 30
0
  0
VERTEX
  8
0
 10
517.358304529
 20
529.9496284078
 30
0
  0
VERTEX
  8
0
 10
517.5193581418
 20
529.7178371202
 30
0
  0
SEQEND
  8
0
  0
POLYLINE
  8
0
 62
7
 66
1
  0
VERTEX
  8
0
 10
517.4188069687
 20
527.9861247490001
 30
0
  0
VERTEX
  8
0
 10
517.296554117
 20
527.7732495542
 30
0
  0
VERTEX
  8
0
 10
517.2679811404
 20
527.5820592742
 30
0
  0
SEQEND
  8
0
  0
POLYLINE
  8
0
 62
7
 66
1
  0
VERTEX
  8
0
 10
517.2679811404
 20
527.5820592742
 30
0
  0
VERTEX
  8
0
 10
517.3515002863001
 20
527.2030137803
 30
0
  0
VERTEX
  8
0
 10
517.5193581418
 20
526.9470975126
 30
0
  0
SEQEND
  8
0
  0
POLYLINE
  8
0
 62
7
 66
1
  0
VERTEX
  8
0
 10
517.1674299673
 20
526.5430320378
 30
0
  0
VERTEX
  8
0
 10
516.4889465706
 20
527.2769654493
 30
0
  0
VERTEX
  8
0
 10
516.3127459274
 20
528.0438490535
 30
0
  0
SEQEND
  8
0
  0
POLYLINE
  8
0
 62
7
 66
1
  0
VERTEX
  8
0
 10
517.1674299673
 20
529.2560473408
 30
0
  0
VERTEX
  8
0
 10
516.4889465706
 20
529.9899807523
 30
0
  0
VERTEX
  8
0
 10
516.3127459274
 20
530.7568643566
 30
0
  0
SEQEND
  8
0
  0
POLYLINE
  8
0
 62
7
 66
1
  0
VERTEX
  8
0
 10
516.3127459274
 20
530.7568643566
 30
0
  0
VERTEX
  8
0
 10
516.3909379081
 20
531.3685011442
 30
0
  0
VERTEX
  8
0
 10
516.6143994466
 20
531.7958906616
 30
0
  0
SEQEND
  8
0
  0
POLYLINE
  8
0
 62
7
 66
1
  0
VERTEX
  8
0
 10
517.9718393521
 20
528.0848142083
 30
0
  0
VERTEX
  8
0
 10
517.6548357741
 20
528.0642915841
 30
0
  0
VERTEX
  8
0
 10
517.4188069687
 20
527.9861247490001
 30
0
  0
SEQEND
  8
0
  0
POLYLINE
  8
0
 62
7
 66
1
  0
VERTEX
  8
0
 10
360.2858703272
 20
468.6576627518
 30
0
  0
VERTEX
  8
0
 10
361.6294558779
 20
466.3305037047
 30
0
  0
VERTEX
  8
0
 10
363.0282800333
 20
463.9076605763
 30
0
  0
SEQEND
  8
0
  0
POLYLINE
  8
0
 62
7
 66
1
  0
VERTEX
  8
0
 10
346.5737919943
 20
463.9076605763
 30
0
  0
VERTEX
  8
0
 10
346.768818392
 20
464.2454549994
 30
0
  0
VERTEX
  8
0
 10
348.0445217029
 20
466.4550364341
 30
0
  0
VERTEX
  8
0
 10
349.3162166015
 20
468.6576627518
 30
0
  0
SEQEND
  8
0
  0
POLYLINE
  8
0
 62
7
 66
1
  0
VERTEX
  8
0
 10
365.77069719
 20
459.157662126
 30
0
  0
VERTEX
  8
0
 10
364.4271116392
 20
456.8305030789
 30
0
  0
VERTEX
  8
0
 10
363.0282800333
 20
454.4076636757
 30
0
  0
SEQEND
  8
0
  0
POLYLINE
  8
0
 62
7
 66
1
  0
VERTEX
  8
0
 10
363.0282800333
 20
463.9076605763
 30
0
  0
VERTEX
  8
0
 10
363.223306431
 20
463.5698698785
 30
0
  0
VERTEX
  8
0
 10
364.4990097419
 20
461.3602847184
 30
0
  0
VERTEX
  8
0
 10
365.77069719
 20
459.157662126
 30
0
  0
SEQEND
  8
0
  0
POLYLINE
  8
0
 62
7
 66
1
  0
VERTEX
  8
0
 10
346.5737919943
 20
454.4076636757
 30
0
  0
VERTEX
  8
0
 10
346.3787804977
 20
454.7454543735
 30
0
  0
VERTEX
  8
0
 10
345.1030771867
 20
456.9550395335
 30
0
  0
VERTEX
  8
0
 10
343.8313822881
 20
459.157662126
 30
0
  0
SEQEND
  8
0
  0
POLYLINE
  8
0
 62
7
 66
1
  0
VERTEX
  8
0
 10
343.8313822881
 20
459.157662126
 30
0
  0
VERTEX
  8
0
 10
345.1749752895
 20
461.4848211731
 30
0
  0
VERTEX
  8
0
 10
346.5737919943
 20
463.9076605763
 30
0
  0
SEQEND
  8
0
  0
POLYLINE
  8
0
 62
7
 66
1
  0
VERTEX
  8
0
 10
363.0282800333
 20
454.4076636757
 30
0
  0
VERTEX
  8
0
 10
362.8332610861
 20
454.0698729779
 30
0
  0
VERTEX
  8
0
 10
361.5575503246
 20
451.8602840926
 30
0
  0
VERTEX
  8
0
 10
360.2858703272
 20
449.6576615001
 30
0
  0
SEQEND
  8
0
  0
POLYLINE
  8
0
 62
7
 66
1
  0
VERTEX
  8
0
 10
349.3162166015
 20
449.6576615001
 30
0
  0
VERTEX
  8
0
 10
347.9726236002
 20
451.9848205473
 30
0
  0
VERTEX
  8
0
 10
346.5737919943
 20
454.4076636757
 30
0
  0
SEQEND
  8
0
  0
POLYLINE
  8
0
 62
7
 66
1
  0
VERTEX
  8
0
 10
346.5738068954
 20
577.9076606359
 30
0
  0
VERTEX
  8
0
 10
346.768818392
 20
578.2454513337
 30
0
  0
VERTEX
  8
0
 10
348.0445217029
 20
580.455040219
 30
0
  0
VERTEX
  8
0
 10
349.3162166015
 20
582.6576628114
 30
0
  0
SEQEND
  8
0
  0
POLYLINE
  8
0
 62
7
 66
1
  0
VERTEX
  8
0
 10
360.2858703272
 20
582.6576628114
 30
0
  0
VERTEX
  8
0
 10
361.6294558779
 20
580.3305037643
 30
0
  0
VERTEX
  8
0
 10
363.0282800333
 20
577.9076606359
 30
0
  0
SEQEND
  8
0
  0
POLYLINE
  8
0
 62
7
 66
1
  0
VERTEX
  8
0
 10
346.5738068954
 20
568.4076637353001
 30
0
  0
VERTEX
  8
0
 10
346.3787804977
 20
568.7454544331
 30
0
  0
VERTEX
  8
0
 10
345.1030771867
 20
570.9550395931
 30
0
  0
VERTEX
  8
0
 10
343.8313822881
 20
573.1576621856
 30
0
  0
SEQEND
  8
0
  0
POLYLINE
  8
0
 62
7
 66
1
  0
VERTEX
  8
0
 10
343.8313822881
 20
573.1576621856
 30
0
  0
VERTEX
  8
0
 10
345.1749752895
 20
575.4848212327
 30
0
  0
VERTEX
  8
0
 10
346.5738068954
 20
577.9076606359
 30
0
  0
SEQEND
  8
0
  0
POLYLINE
  8
0
 62
7
 66
1
  0
VERTEX
  8
0
 10
365.77069719
 20
573.1576621856
 30
0
  0
VERTEX
  8
0
 10
364.4271116392
 20
570.8305031385
 30
0
  0
VERTEX
  8
0
 10
363.0282800333
 20
568.4076637353001
 30
0
  0
SEQEND
  8
0
  0
POLYLINE
  8
0
 62
7
 66
1
  0
VERTEX
  8
0
 10
363.0282800333
 20
577.9076606359
 30
0
  0
VERTEX
  8
0
 10
363.223306431
 20
577.5698699381001
 30
0
  0
VERTEX
  8
0
 10
364.4990097419
 20
575.3602847780001
 30
0
  0
VERTEX
  8
0
 10
365.77069719
 20
573.1576621856
 30
0
  0
SEQEND
  8
0
  0
POLYLINE
  8
0
 62
7
 66
1
  0
VERTEX
  8
0
 10
363.0282800333
 20
568.4076637353001
 30
0
  0
VERTEX
  8
0
 10
362.8332610861
 20
568.0698693122
 30
0
  0
VERTEX
  8
0
 10
361.5575577752
 20
565.8602878775
 30
0
  0
VERTEX
  8
0
 10
360.2858703272
 20
563.6576615597001
 30
0
  0
SEQEND
  8
0
  0
POLYLINE
  8
0
 62
7
 66
1
  0
VERTEX
  8
0
 10
349.3162166015
 20
563.6576615597001
 30
0
  0
VERTEX
  8
0
 10
347.9726236002
 20
565.9848206069
 30
0
  0
VERTEX
  8
0
 10
346.5738068954
 20
568.4076637353001
 30
0
  0
SEQEND
  8
0
  0
POLYLINE
  8
0
 62
7
 66
1
  0
VERTEX
  8
0
 10
372.5052099363
 20
473.4347179856
 30
0
  0
VERTEX
  8
0
 10
377.0838375823
 20
486.2267539229
 30
0
  0
VERTEX
  8
0
 10
377.3010443584
 20
486.8788305994
 30
0
  0
SEQEND
  8
0
  0
POLYLINE
  8
0
 62
7
 66
1
  0
VERTEX
  8
0
 10
337.0968769924
 20
558.880606326
 30
0
  0
VERTEX
  8
0
 10
332.5182418958
 20
546.0885703887
 30
0
  0
VERTEX
  8
0
 10
332.3010425703
 20
545.4364937122
 30
0
  0
SEQEND
  8
0
  0
POLYLINE
  8
0
 62
7
 66
1
  0
VERTEX
  8
0
 10
381.0662250654
 20
516.1576621558
 30
0
  0
VERTEX
  8
0
 10
380.8800425069
 20
521.4635535467
 30
0
  0
VERTEX
  8
0
 10
380.5514346496
 20
526.6262727182
 30
0
  0
VERTEX
  8
0
 10
380.2432786361
 20
531.6442201238
 30
0
  0
VERTEX
  8
0
 10
380.0086076991
 20
535.9780915405
 30
0
  0
VERTEX
  8
0
 10
379.8939805166
 20
539.8146264579
 30
0
  0
VERTEX
  8
0
 10
379.96357639
 20
542.2790084358001
 30
0
  0
VERTEX
  8
0
 10
380.2085365788
 20
544.0775115366
 30
0
  0
VERTEX
  8
0
 10
380.5744196908
 20
545.4103049214
 30
0
  0
VERTEX
  8
0
 10
380.6895609633
 20
545.7679737683
 30
0
  0
SEQEND
  8
0
  0
POLYLINE
  8
0
 62
7
 66
1
  0
VERTEX
  8
0
 10
381.0662250654
 20
516.1576621558
 30
0
  0
VERTEX
  8
0
 10
380.8800425069
 20
510.8517707649
 30
0
  0
VERTEX
  8
0
 10
380.5514346496
 20
505.6890515934
 30
0
  0
VERTEX
  8
0
 10
380.2432786361
 20
500.6711041878
 30
0
  0
VERTEX
  8
0
 10
380.0086076991
 20
496.3372327711
 30
0
  0
VERTEX
  8
0
 10
379.8939805166
 20
492.5006978537
 30
0
  0
VERTEX
  8
0
 10
379.96357639
 20
490.0363158758
 30
0
  0
VERTEX
  8
0
 10
380.2085365788
 20
488.2378127749
 30
0
  0
VERTEX
  8
0
 10
380.5744196908
 20
486.9050193902
 30
0
  0
VERTEX
  8
0
 10
380.6895907656
 20
486.5472555484
 30
0
  0
SEQEND
  8
0
  0
POLYLINE
  8
0
 62
7
 66
1
  0
VERTEX
  8
0
 10
863.9667404301
 20
322.5721461526
 30
0
  0
VERTEX
  8
0
 10
861.639581383
 20
323.1877652756
 30
0
  0
VERTEX
  8
0
 10
859.2167419799
 20
323.4206555239
 30
0
  0
SEQEND
  8
0
  0
POLYLINE
  8
0
 62
7
 66
1
  0
VERTEX
  8
0
 10
854.4667398043
 20
322.5721461526
 30
0
  0
VERTEX
  8
0
 10
852.1395807572
 20
323.1877652756
 30
0
  0
VERTEX
  8
0
 10
849.716741354
 20
323.4206555239
 30
0
  0
SEQEND
  8
0
  0
POLYLINE
  8
0
 62
7
 66
1
  0
VERTEX
  8
0
 10
759.314939142
 20
322.5721461526
 30
0
  0
VERTEX
  8
0
 10
756.9877763696001
 20
323.1877652756
 30
0
  0
VERTEX
  8
0
 10
754.5649369664
 20
323.4206555239
 30
0
  0
SEQEND
  8
0
  0
POLYLINE
  8
0
 62
7
 66
1
  0
VERTEX
  8
0
 10
749.8149385162
 20
322.5721461526
 30
0
  0
VERTEX
  8
0
 10
747.487779469
 20
323.1877652756
 30
0
  0
VERTEX
  8
0
 10
745.0649363406
 20
323.4206555239
 30
0
  0
SEQEND
  8
0
  0
POLYLINE
  8
0
 62
2
 66
1
  0
VERTEX
  8
0
 10
408.5956880989
 20
69.0577177501
 30
0
  0
VERTEX
  8
0
 10
442.2637771811
 20
69.0577177501
 30
0
  0
VERTEX
  8
0
 10
482.3306182899
 20
182.813477476
 30
0
  0
SEQEND
  8
0
  0
POLYLINE
  8
0
 62
2
 66
1
  0
VERTEX
  8
0
 10
583.0638644269001
 20
63.64380978269999
 30
0
  0
VERTEX
  8
0
 10
554.3445968227001
 20
63.64380978269999
 30
0
  0
VERTEX
  8
0
 10
492.139927605
 20
181.0249757511
 30
0
  0
SEQEND
  8
0
  0
POLYLINE
  8
0
 62
2
 66
1
  0
VERTEX
  8
0
 10
923.0849364596
 20
290.0310285643
 30
0
  0
VERTEX
  8
0
 10
904.1238013611001
 20
290.0310285643
 30
0
  0
VERTEX
  8
0
 10
861.9454315875
 20
266.3572734246
 30
0
  0
SEQEND
  8
0
  0
POLYLINE
  8
0
 62
2
 40
0.5
 41
0.5
 66
1
  0
VERTEX
  8
0
 10
482.2475648869114
 20
182.5776764322109
 30
0
 42
0.9999999999998929
  0
VERTEX
  8
0
 10
482.4136716928886
 20
183.0492785197891
 30
0
 42
1.000000000000107
  0
VERTEX
  8
0
 10
482.2475648869114
 20
182.5776764322109
 30
0
  0
SEQEND
  8
0
  0
POLYLINE
  8
0
 62
7
 66
1
  0
VERTEX
  8
0
 10
153.5733136074001
 20
245.6084606996999
 30
0
  0
VERTEX
  8
0
 10
154.2802544968
 20
245.6428265027
 30
0
  0
VERTEX
  8
0
 10
154.8832150833001
 20
245.7305012098
 30
0
  0
SEQEND
  8
0
  0
POLYLINE
  8
0
 62
7
 66
1
  0
VERTEX
  8
0
 10
152.2600146667
 20
245.7305012098
 30
0
  0
VERTEX
  8
0
 10
152.8650316135
 20
245.642945712
 30
0
  0
VERTEX
  8
0
 10
153.5733136074001
 20
245.6084606996999
 30
0
  0
SEQEND
  8
0
  0
POLYLINE
  8
0
 62
7
 66
1
  0
VERTEX
  8
0
 10
145.2595683472001
 20
246.4173516086
 30
0
  0
VERTEX
  8
0
 10
145.3653665916
 20
246.4197767726
 30
0
  0
VERTEX
  8
0
 10
145.7036527531
 20
246.3077163150999
 30
0
  0
SEQEND
  8
0
  0
POLYLINE
  8
0
 62
7
 66
1
  0
VERTEX
  8
0
 10
140.9599872963
 20
246.3950967244
 30
0
  0
VERTEX
  8
0
 10
140.0497647659
 20
246.4002711526
 30
0
  0
VERTEX
  8
0
 10
139.2289194004
 20
246.4126093141001
 30
0
  0
VERTEX
  8
0
 10
138.5581287281
 20
246.4205739847
 30
0
  0
VERTEX
  8
0
 10
138.0357834236
 20
246.4128849855999
 30
0
  0
SEQEND
  8
0
  0
POLYLINE
  8
0
 62
7
 66
1
  0
VERTEX
  8
0
 10
142.3724981682
 20
246.4127322487
 30
0
  0
VERTEX
  8
0
 10
141.7204531567
 20
246.4004499665
 30
0
  0
VERTEX
  8
0
 10
140.9599872963
 20
246.3950967244
 30
0
  0
SEQEND
  8
0
  0
POLYLINE
  8
0
 62
7
 66
1
  0
VERTEX
  8
0
 10
140.4572221176
 20
245.6084606996999
 30
0
  0
VERTEX
  8
0
 10
141.3833590881
 20
245.6545723429999
 30
0
  0
VERTEX
  8
0
 10
142.1707066433
 20
245.7689983598
 30
0
  0
SEQEND
  8
0
  0
POLYLINE
  8
0
 62
7
 66
1
  0
VERTEX
  8
0
 10
143.7849792377
 20
245.4992724410001
 30
0
  0
VERTEX
  8
0
 10
142.195084943
 20
245.2465822748
 30
0
  0
VERTEX
  8
0
 10
140.3546127216001
 20
245.1594887128999
 30
0
  0
SEQEND
  8
0
  0
POLYLINE
  8
0
 62
7
 66
1
  0
VERTEX
  8
0
 10
153.5733136074001
 20
245.1594887128999
 30
0
  0
VERTEX
  8
0
 10
151.886204137
 20
245.2545394949
 30
0
  0
VERTEX
  8
0
 10
150.4439207451
 20
245.4992724410001
 30
0
  0
SEQEND
  8
0
  0
POLYLINE
  8
0
 62
7
 66
1
  0
VERTEX
  8
0
 10
156.699309005
 20
245.4992724410001
 30
0
  0
VERTEX
  8
0
 10
155.2585455315
 20
245.2547145834999
 30
0
  0
VERTEX
  8
0
 10
153.5733136074001
 20
245.1594887128999
 30
0
  0
SEQEND
  8
0
  0
POLYLINE
  8
0
 62
7
 66
1
  0
VERTEX
  8
0
 10
166.7924019234
 20
246.3928131214
 30
0
  0
VERTEX
  8
0
 10
166.3085016148
 20
246.3891548864001
 30
0
  0
VERTEX
  8
0
 10
165.8780070679
 20
246.3774500242
 30
0
  0
SEQEND
  8
0
  0
POLYLINE
  8
0
 62
7
 66
1
  0
VERTEX
  8
0
 10
167.5168069736999
 20
246.3413333348001
 30
0
  0
VERTEX
  8
0
 10
167.4929651157
 20
246.3653614571999
 30
0
  0
VERTEX
  8
0
 10
167.374292268
 20
246.3839990846
 30
0
  0
SEQEND
  8
0
  0
POLYLINE
  8
0
 62
7
 66
1
  0
VERTEX
  8
0
 10
171.3644060032
 20
246.3839990846
 30
0
  0
VERTEX
  8
0
 10
171.0486801998
 20
246.3910696856001
 30
0
  0
VERTEX
  8
0
 10
170.6993969814001
 20
246.3928131214
 30
0
  0
SEQEND
  8
0
  0
POLYLINE
  8
0
 62
7
 66
1
  0
VERTEX
  8
0
 10
171.590039386
 20
246.3366506448999
 30
0
  0
VERTEX
  8
0
 10
171.544561042
 20
246.3640427045
 30
0
  0
VERTEX
  8
0
 10
171.3644060032
 20
246.3839990846
 30
0
  0
SEQEND
  8
0
  0
POLYLINE
  8
0
 62
7
 66
1
  0
VERTEX
  8
0
 10
177.4327250855
 20
246.3928131214
 30
0
  0
VERTEX
  8
0
 10
176.9487949745
 20
246.3891548864001
 30
0
  0
VERTEX
  8
0
 10
176.51833023
 20
246.3774500242
 30
0
  0
SEQEND
  8
0
  0
POLYLINE
  8
0
 62
7
 66
1
  0
VERTEX
  8
0
 10
178.1571003334
 20
246.3413333348001
 30
0
  0
VERTEX
  8
0
 10
178.1332882778
 20
246.3653614571999
 30
0
  0
VERTEX
  8
0
 10
178.0146154301
 20
246.3839990846
 30
0
  0
SEQEND
  8
0
  0
POLYLINE
  8
0
 62
7
 66
1
  0
VERTEX
  8
0
 10
182.0047291653
 20
246.3839990846
 30
0
  0
VERTEX
  8
0
 10
181.6890033619
 20
246.3910696856001
 30
0
  0
VERTEX
  8
0
 10
181.3397201435001
 20
246.3928131214
 30
0
  0
SEQEND
  8
0
  0
POLYLINE
  8
0
 62
7
 66
1
  0
VERTEX
  8
0
 10
182.2303625481
 20
246.3366506448999
 30
0
  0
VERTEX
  8
0
 10
182.1848842041
 20
246.3640427045
 30
0
  0
VERTEX
  8
0
 10
182.0047291653
 20
246.3839990846
 30
0
  0
SEQEND
  8
0
  0
POLYLINE
  8
0
 62
7
 66
1
  0
VERTEX
  8
0
 10
182.0047291653
 20
244.8856388977999
 30
0
  0
VERTEX
  8
0
 10
181.6890033619
 20
244.8923928490999
 30
0
  0
VERTEX
  8
0
 10
181.3397201435001
 20
244.8940580537999
 30
0
  0
SEQEND
  8
0
  0
POLYLINE
  8
0
 62
7
 66
1
  0
VERTEX
  8
0
 10
177.4327250855
 20
244.8940580537999
 30
0
  0
VERTEX
  8
0
 10
176.9487949745
 20
244.8905637314999
 30
0
  0
VERTEX
  8
0
 10
176.51833023
 20
244.8793841354
 30
0
  0
SEQEND
  8
0
  0
POLYLINE
  8
0
 62
7
 66
1
  0
VERTEX
  8
0
 10
171.3644060032
 20
244.8856388977999
 30
0
  0
VERTEX
  8
0
 10
171.0486801998
 20
244.8923928490999
 30
0
  0
VERTEX
  8
0
 10
170.6993969814001
 20
244.8940580537999
 30
0
  0
SEQEND
  8
0
  0
POLYLINE
  8
0
 62
7
 66
1
  0
VERTEX
  8
0
 10
166.7924019234
 20
244.8940580537999
 30
0
  0
VERTEX
  8
0
 10
166.3085016148
 20
244.8905637314999
 30
0
  0
VERTEX
  8
0
 10
165.8780070679
 20
244.8793841354
 30
0
  0
SEQEND
  8
0
  0
POLYLINE
  8
0
 62
7
 66
1
  0
VERTEX
  8
0
 10
156.699309005
 20
244.0405288539
 30
0
  0
VERTEX
  8
0
 10
155.2585455315
 20
243.8069196245999
 30
0
  0
VERTEX
  8
0
 10
153.5733136074001
 20
243.7159592113001
 30
0
  0
SEQEND
  8
0
  0
POLYLINE
  8
0
 62
7
 66
1
  0
VERTEX
  8
0
 10
153.5733136074001
 20
243.7159592113001
 30
0
  0
VERTEX
  8
0
 10
151.886204137
 20
243.8067519865001
 30
0
  0
VERTEX
  8
0
 10
150.4439207451
 20
244.0405288539
 30
0
  0
SEQEND
  8
0
  0
POLYLINE
  8
0
 62
7
 66
1
  0
VERTEX
  8
0
 10
143.7849792377
 20
244.0405288539
 30
0
  0
VERTEX
  8
0
 10
142.195084943
 20
243.7991523942999
 30
0
  0
VERTEX
  8
0
 10
140.3546127216001
 20
243.7159592113001
 30
0
  0
SEQEND
  8
0
  0
POLYLINE
  8
0
 62
7
 66
1
  0
VERTEX
  8
0
 10
182.8073951141001
 20
180.2328495136001
 30
0
  0
VERTEX
  8
0
 10
184.8335954086001
 20
180.1614915780001
 30
0
  0
VERTEX
  8
0
 10
186.637917413
 20
179.9633918157999
 30
0
  0
SEQEND
  8
0
  0
POLYLINE
  8
0
 62
7
 66
1
  0
VERTEX
  8
0
 10
186.5182312862
 20
180.0548588684999
 30
0
  0
VERTEX
  8
0
 10
184.7674342529001
 20
180.2550261668
 30
0
  0
VERTEX
  8
0
 10
182.8073951141001
 20
180.3229568354
 30
0
  0
SEQEND
  8
0
  0
POLYLINE
  8
0
 62
7
 66
1
  0
VERTEX
  8
0
 10
182.8073951141001
 20
182.2316689244001
 30
0
  0
VERTEX
  8
0
 10
185.8832630054
 20
182.1342302313999
 30
0
  0
VERTEX
  8
0
 10
188.6728795902
 20
181.8023757837
 30
0
  0
SEQEND
  8
0
  0
POLYLINE
  8
0
 62
7
 66
1
  0
VERTEX
  8
0
 10
143.7849813835
 20
508.3548609491
 30
0
  0
VERTEX
  8
0
 10
142.1950870888
 20
507.3665023174
 30
0
  0
VERTEX
  8
0
 10
140.3546148674
 20
507.0523020203999
 30
0
  0
SEQEND
  8
0
  0
POLYLINE
  8
0
 62
7
 66
1
  0
VERTEX
  8
0
 10
141.4661520855
 20
519.1058997388999
 30
0
  0
VERTEX
  8
0
 10
142.8769940273
 20
518.8425589677
 30
0
  0
VERTEX
  8
0
 10
144.0893823044
 20
518.0453375306
 30
0
  0
SEQEND
  8
0
  0
POLYLINE
  8
0
 62
7
 66
1
  0
VERTEX
  8
0
 10
135.8879619972
 20
515.4362634148
 30
0
  0
VERTEX
  8
0
 10
136.1906641857
 20
520.5950435574999
 30
0
  0
VERTEX
  8
0
 10
136.4933365719
 20
525.6482713248
 30
0
  0
SEQEND
  8
0
  0
POLYLINE
  8
0
 62
7
 66
1
  0
VERTEX
  8
0
 10
142.372500314
 20
516.8862209048001
 30
0
  0
VERTEX
  8
0
 10
141.7204553024
 20
517.3209566946999
 30
0
  0
VERTEX
  8
0
 10
140.9599894421
 20
517.4659729327999
 30
0
  0
SEQEND
  8
0
  0
POLYLINE
  8
0
 62
7
 66
1
  0
VERTEX
  8
0
 10
140.4572242634
 20
508.8257190164001
 30
0
  0
VERTEX
  8
0
 10
141.3833612339
 20
509.0344125728999
 30
0
  0
VERTEX
  8
0
 10
142.1707087891001
 20
509.5822239619
 30
0
  0
SEQEND
  8
0
  0
POLYLINE
  8
0
 62
7
 66
1
  0
VERTEX
  8
0
 10
153.5733157532
 20
523.8733865645
 30
0
  0
VERTEX
  8
0
 10
152.8638118641
 20
523.721275511
 30
0
  0
VERTEX
  8
0
 10
152.2600168125001
 20
523.3078241672
 30
0
  0
SEQEND
  8
0
  0
POLYLINE
  8
0
 62
7
 66
1
  0
VERTEX
  8
0
 10
154.8832172291
 20
523.3078241672
 30
0
  0
VERTEX
  8
0
 10
154.2814785378001
 20
523.7218119528001
 30
0
  0
VERTEX
  8
0
 10
153.5733157532
 20
523.8733865645
 30
0
  0
SEQEND
  8
0
  0
POLYLINE
  8
0
 62
7
 66
1
  0
VERTEX
  8
0
 10
153.5733157532
 20
508.8257190164001
 30
0
  0
VERTEX
  8
0
 10
154.2802566425
 20
508.9806445266999
 30
0
  0
VERTEX
  8
0
 10
154.8832172291
 20
509.3927547659999
 30
0
  0
SEQEND
  8
0
  0
POLYLINE
  8
0
 62
7
 66
1
  0
VERTEX
  8
0
 10
152.2600168125001
 20
509.3927547659999
 30
0
  0
VERTEX
  8
0
 10
152.8650337593001
 20
508.9811856251
 30
0
  0
VERTEX
  8
0
 10
153.5733157532
 20
508.8257190164001
 30
0
  0
SEQEND
  8
0
  0
POLYLINE
  8
0
 62
7
 66
1
  0
VERTEX
  8
0
 10
150.4439228909001
 20
508.3548637431001
 30
0
  0
VERTEX
  8
0
 10
149.7436577217
 20
509.1443682413
 30
0
  0
VERTEX
  8
0
 10
149.1939538853
 20
510.0553991597
 30
0
  0
VERTEX
  8
0
 10
148.7735027209999
 20
511.0413344901
 30
0
  0
VERTEX
  8
0
 10
148.4699958698
 20
512.0769838195
 30
0
  0
VERTEX
  8
0
 10
148.2553297417
 20
513.1404880757999
 30
0
  0
VERTEX
  8
0
 10
148.1197887795
 20
514.2211156289999
 30
0
  0
VERTEX
  8
0
 10
148.0453127758
 20
515.3102917921
 30
0
  0
VERTEX
  8
0
 10
148.0224841969001
 20
516.4029185052999
 30
0
  0
SEQEND
  8
0
  0
POLYLINE
  8
0
 62
7
 66
1
  0
VERTEX
  8
0
 10
153.5733157532
 20
507.0523020203999
 30
0
  0
VERTEX
  8
0
 10
151.8862062828001
 20
507.3958119701
 30
0
  0
VERTEX
  8
0
 10
150.4439228909001
 20
508.3548609491
 30
0
  0
SEQEND
  8
0
  0
POLYLINE
  8
0
 62
7
 66
1
  0
VERTEX
  8
0
 10
156.6993111507
 20
508.3548609491
 30
0
  0
VERTEX
  8
0
 10
155.2585476771999
 20
507.3964573766999
 30
0
  0
VERTEX
  8
0
 10
153.5733157532
 20
507.0523020203999
 30
0
  0
SEQEND
  8
0
  0
POLYLINE
  8
0
 62
7
 66
1
  0
VERTEX
  8
0
 10
156.6993111507
 20
524.3429296042999
 30
0
  0
VERTEX
  8
0
 10
157.3935264484
 20
523.565141144
 30
0
  0
VERTEX
  8
0
 10
157.942872657
 20
522.6697117414
 30
0
  0
VERTEX
  8
0
 10
158.6694532768
 20
520.6776909854001
 30
0
  0
VERTEX
  8
0
 10
158.885043277
 20
519.6278278108001
 30
0
  0
VERTEX
  8
0
 10
159.0224617855
 20
518.5603626395999
 30
0
  0
VERTEX
  8
0
 10
159.0975338356
 20
517.4836308088001
 30
0
  0
VERTEX
  8
0
 10
159.1207200424
 20
516.4029185052999
 30
0
  0
SEQEND
  8
0
  0
POLYLINE
  8
0
 62
7
 66
1
  0
VERTEX
  8
0
 10
153.5733157532
 20
525.6482713248
 30
0
  0
VERTEX
  8
0
 10
155.2601272003
 20
525.3043003704
 30
0
  0
VERTEX
  8
0
 10
156.6992813484
 20
524.3429333294999
 30
0
  0
SEQEND
  8
0
  0
POLYLINE
  8
0
 62
7
 66
1
  0
VERTEX
  8
0
 10
150.4439228909001
 20
524.3429296042999
 30
0
  0
VERTEX
  8
0
 10
151.8846267597
 20
525.3049541588999
 30
0
  0
VERTEX
  8
0
 10
153.5733157532
 20
525.6482713248
 30
0
  0
SEQEND
  8
0
  0
POLYLINE
  8
0
 62
7
 66
1
  0
VERTEX
  8
0
 10
166.7924040691
 20
514.7921104308001
 30
0
  0
VERTEX
  8
0
 10
166.3085037605
 20
514.7052022020999
 30
0
  0
VERTEX
  8
0
 10
165.8780092136
 20
514.4568017076
 30
0
  0
SEQEND
  8
0
  0
POLYLINE
  8
0
 62
7
 66
1
  0
VERTEX
  8
0
 10
167.5168091194
 20
513.8536921095
 30
0
  0
VERTEX
  8
0
 10
167.4929672615
 20
514.2337220113999
 30
0
  0
VERTEX
  8
0
 10
167.3742944138
 20
514.5909047078
 30
0
  0
SEQEND
  8
0
  0
POLYLINE
  8
0
 62
7
 66
1
  0
VERTEX
  8
0
 10
171.364408149
 20
514.5909047078
 30
0
  0
VERTEX
  8
0
 10
171.0486823456
 20
514.7500146504
 30
0
  0
VERTEX
  8
0
 10
170.6993991272
 20
514.7921104308001
 30
0
  0
SEQEND
  8
0
  0
POLYLINE
  8
0
 62
7
 66
1
  0
VERTEX
  8
0
 10
171.5900415318
 20
513.7867225658
 30
0
  0
VERTEX
  8
0
 10
171.5445631878
 20
514.210929754
 30
0
  0
VERTEX
  8
0
 10
171.364408149
 20
514.5909047078
 30
0
  0
SEQEND
  8
0
  0
POLYLINE
  8
0
 62
7
 66
1
  0
VERTEX
  8
0
 10
177.4327272312
 20
514.7921104308001
 30
0
  0
VERTEX
  8
0
 10
176.9487971203001
 20
514.7052022020999
 30
0
  0
VERTEX
  8
0
 10
176.5183323757
 20
514.4568017076
 30
0
  0
SEQEND
  8
0
  0
POLYLINE
  8
0
 62
7
 66
1
  0
VERTEX
  8
0
 10
178.1571024792
 20
513.8536921095
 30
0
  0
VERTEX
  8
0
 10
178.1332904236
 20
514.2337220113999
 30
0
  0
VERTEX
  8
0
 10
178.0146175758001
 20
514.5909047078
 30
0
  0
SEQEND
  8
0
  0
POLYLINE
  8
0
 62
7
 66
1
  0
VERTEX
  8
0
 10
182.0047313109999
 20
514.5909047078
 30
0
  0
VERTEX
  8
0
 10
181.6890055077
 20
514.7500146504
 30
0
  0
VERTEX
  8
0
 10
181.3397222893
 20
514.7921104308001
 30
0
  0
SEQEND
  8
0
  0
POLYLINE
  8
0
 62
7
 66
1
  0
VERTEX
  8
0
 10
182.2303646938
 20
513.7867225658
 30
0
  0
VERTEX
  8
0
 10
182.1848863499
 20
514.210929754
 30
0
  0
VERTEX
  8
0
 10
182.0047313109999
 20
514.5909047078
 30
0
  0
SEQEND
  8
0
  0
POLYLINE
  8
0
 62
7
 66
1
  0
VERTEX
  8
0
 10
148.0339282887
 20
515.6687289800001
 30
0
  0
VERTEX
  8
0
 10
148.0341369049
 20
515.6501025285
 30
0
  0
VERTEX
  8
0
 10
148.0343157188
 20
515.6311594274001
 30
0
  0
SEQEND
  8
0
  0
POINT
  8
0
 62
7
  6
DASHED
 10
353.3010417358
 20
176.6706551067
 30
0
  0
POINT
  8
0
 62
7
  6
DASHED
 10
356.3010417358
 20
176.4206551067
 30
0
  0
LINE
  8
1
 62
2
 10
539.3010417358
 20
-12.91563321943529
 30
0
 11
545.6343750691333
 21
-12.91563321943529
 31
0
  0
LINE
  8
1
 62
2
 10
542.6343750691333
 20
-2.040633219435289
 30
0
 11
542.6343750691333
 21
-12.91563321943529
 31
0
  0
LINE
  8
1
 62
2
 10
540.3010417358
 20
-6.540633219435289
 30
0
 11
544.9677084024667
 21
-6.540633219435289
 31
0
  0
LINE
  8
1
 62
2
 10
538.3010417358
 20
-6.915633219435289
 30
0
 11
539.9677084024667
 21
-8.790633219435289
 31
0
  0
LINE
  8
1
 62
2
 10
537.6343750691333
 20
-4.290633219435289
 30
0
 11
537.6343750691333
 21
-2.040633219435289
 31
0
  0
LINE
  8
1
 62
2
 10
539.3010417358
 20
-4.290633219435289
 30
0
 11
535.6343750691333
 21
-4.290633219435289
 31
0
  0
LINE
  8
1
 62
2
 10
537.9677084024667
 20
-6.165633219435289
 30
0
 11
539.3010417358
 21
-4.290633219435289
 31
0
  0
LINE
  8
1
 62
2
 10
536.3010417358
 20
-8.040633219435289
 30
0
 11
537.9677084024667
 21
-6.165633219435289
 31
0
  0
LINE
  8
1
 62
2
 10
534.9677084024667
 20
-9.165633219435289
 30
0
 11
536.3010417358
 21
-8.040633219435289
 31
0
  0
LINE
  8
1
 62
2
 10
537.6343750691333
 20
-13.29063321943529
 30
0
 11
537.6343750691333
 21
-6.540633219435289
 31
0
  0
LINE
  8
1
 62
2
 10
528.3010417358
 20
-9.165633219435289
 30
0
 11
524.9677084024667
 21
-13.29063321943529
 31
0
  0
LINE
  8
1
 62
2
 10
532.3010417358
 20
-13.66563321943529
 30
0
 11
529.9677084024667
 21
-11.04063321943529
 31
0
  0
LINE
  8
1
 62
2
 10
523.9677084024667
 20
-13.29063321943529
 30
0
 11
531.3010417358
 21
-12.54063321943529
 31
0
  0
LINE
  8
1
 62
2
 10
524.6343750691333
 20
-8.790633219435289
 30
0
 11
532.3010417358
 21
-8.790633219435289
 31
0
  0
LINE
  8
1
 62
2
 10
525.9677084024667
 20
-6.915633219435289
 30
0
 11
530.6343750691333
 21
-6.915633219435289
 31
0
  0
LINE
  8
1
 62
2
 10
528.3010417358
 20
-2.040633219435289
 30
0
 11
533.6343750691333
 21
-7.665633219435289
 31
0
  0
LINE
  8
1
 62
2
 10
528.3010417358
 20
-2.040633219435289
 30
0
 11
522.9677084024667
 21
-7.665633219435289
 31
0
  0
LINE
  8
1
 62
2
 10
520.6343750691334
 20
-13.29063321943529
 30
0
 11
521.6343750691334
 21
-12.16563321943529
 31
0
  0
LINE
  8
1
 62
2
 10
519.3010417358
 20
-11.79063321943529
 30
0
 11
520.6343750691334
 21
-13.29063321943529
 31
0
  0
LINE
  8
1
 62
2
 10
517.9677084024668
 20
-9.165633219435289
 30
0
 11
519.3010417358
 21
-11.79063321943529
 31
0
  0
LINE
  8
1
 62
2
 10
517.3010417358
 20
-6.165633219435289
 30
0
 11
517.9677084024668
 21
-9.165633219435289
 31
0
  0
LINE
  8
1
 62
2
 10
516.9677084024668
 20
-1.665633219435289
 30
0
 11
517.3010417358
 21
-6.165633219435289
 31
0
  0
LINE
  8
1
 62
2
 10
518.9677084024668
 20
-3.165633219435289
 30
0
 11
517.9677084024668
 21
-2.040633219435289
 31
0
  0
LINE
  8
1
 62
2
 10
510.9677084024667
 20
-4.290633219435289
 30
0
 11
520.6343750691334
 21
-4.290633219435289
 31
0
  0
LINE
  8
1
 62
2
 10
513.9677084024668
 20
-7.290633219435289
 30
0
 11
513.9677084024668
 21
-11.41563321943529
 31
0
  0
LINE
  8
1
 62
2
 10
516.3010417358
 20
-7.290633219435289
 30
0
 11
511.6343750691334
 21
-7.290633219435289
 31
0
  0
LINE
  8
1
 62
2
 10
511.6343750691334
 20
-12.16563321943529
 30
0
 11
516.3010417358
 21
-10.66563321943529
 31
0
  0
LINE
  8
1
 62
2
 10
507.9677084024667
 20
-10.66563321943529
 30
0
 11
509.3010417358
 21
-13.29063321943529
 31
0
  0
LINE
  8
1
 62
2
 10
506.3010417358
 20
-7.290633219435289
 30
0
 11
507.9677084024667
 21
-10.66563321943529
 31
0
  0
LINE
  8
1
 62
2
 10
505.3010417358
 20
-9.915633219435289
 30
0
 11
506.3010417358
 21
-7.290633219435289
 31
0
  0
LINE
  8
1
 62
2
 10
503.9677084024667
 20
-11.79063321943529
 30
0
 11
505.3010417358
 21
-9.915633219435289
 31
0
  0
LINE
  8
1
 62
2
 10
502.9677084024667
 20
-13.29063321943529
 30
0
 11
503.9677084024667
 21
-11.79063321943529
 31
0
  0
LINE
  8
1
 62
2
 10
506.3010417358
 20
-1.665633219435289
 30
0
 11
506.3010417358
 21
-13.66563321943529
 31
0
  0
LINE
  8
1
 62
2
 10
509.3010417358
 20
-7.290633219435289
 30
0
 11
503.6343750691334
 21
-7.290633219435289
 31
0
  0
LINE
  8
1
 62
2
 10
504.6343750691334
 20
-4.665633219435289
 30
0
 11
508.9677084024667
 21
-4.665633219435289
 31
0
  0
LINE
  8
1
 62
2
 10
504.6343750691334
 20
-4.665633219435289
 30
0
 11
504.9677084024667
 21
-2.790633219435289
 31
0
  0
LINE
  8
1
 62
2
 10
503.6343750691334
 20
-6.540633219435289
 30
0
 11
504.6343750691334
 21
-4.665633219435289
 31
0
  0
LINE
  8
1
 62
2
 10
501.3010417358
 20
-5.040633219435289
 30
0
 11
502.9677084024667
 21
-8.040633219435289
 31
0
  0
LINE
  8
1
 62
2
 10
499.3010417358
 20
-10.29063321943529
 30
0
 11
501.3010417358
 21
-5.040633219435289
 31
0
  0
LINE
  8
1
 62
2
 10
502.9677084024667
 20
-5.040633219435289
 30
0
 11
499.6343750691334
 21
-5.040633219435289
 31
0
  0
LINE
  8
1
 62
2
 10
501.3010417358
 20
-13.29063321943529
 30
0
 11
501.3010417358
 21
-1.665633219435289
 31
0
  0
LINE
  8
1
 62
2
 10
493.3010417358
 20
-4.290633219435289
 30
0
 11
496.6343750691334
 21
-4.290633219435289
 31
0
  0
LINE
  8
1
 62
2
 10
493.3010417358
 20
-6.165633219435289
 30
0
 11
496.6343750691334
 21
-6.165633219435289
 31
0
  0
LINE
  8
1
 62
2
 10
493.3010417358
 20
-2.415633219435289
 30
0
 11
493.3010417358
 21
-6.165633219435289
 31
0
  0
LINE
  8
1
 62
2
 10
496.6343750691334
 20
-2.415633219435289
 30
0
 11
493.3010417358
 21
-2.415633219435289
 31
0
  0
LINE
  8
1
 62
2
 10
496.6343750691334
 20
-12.91563321943529
 30
0
 11
496.6343750691334
 21
-2.415633219435289
 31
0
  0
LINE
  8
1
 62
2
 10
496.3010417358
 20
-13.29063321943529
 30
0
 11
496.6343750691334
 21
-12.91563321943529
 31
0
  0
LINE
  8
1
 62
2
 10
495.3010417358
 20
-13.29063321943529
 30
0
 11
496.3010417358
 21
-13.29063321943529
 31
0
  0
LINE
  8
1
 62
2
 10
491.3010417358
 20
-4.290633219435289
 30
0
 11
487.9677084024667
 21
-4.290633219435289
 31
0
  0
LINE
  8
1
 62
2
 10
491.3010417358
 20
-6.165633219435289
 30
0
 11
487.9677084024667
 21
-6.165633219435289
 31
0
  0
LINE
  8
1
 62
2
 10
491.3010417358
 20
-2.415633219435289
 30
0
 11
491.3010417358
 21
-6.165633219435289
 31
0
  0
LINE
  8
1
 62
2
 10
487.9677084024667
 20
-2.415633219435289
 30
0
 11
491.3010417358
 21
-2.415633219435289
 31
0
  0
LINE
  8
1
 62
2
 10
487.9677084024667
 20
-13.29063321943529
 30
0
 11
487.9677084024667
 21
-2.415633219435289
 31
0
  0
LINE
  8
1
 62
2
 10
484.3010417358
 20
-6.540633219435289
 30
0
 11
485.6343750691334
 21
-7.665633219435289
 31
0
  0
LINE
  8
1
 62
2
 10
481.9677084024667
 20
-3.915633219435289
 30
0
 11
484.3010417358
 21
-6.540633219435289
 31
0
  0
LINE
  8
1
 62
2
 10
480.3010417358
 20
-1.665633219435289
 30
0
 11
481.9677084024667
 21
-3.915633219435289
 31
0
  0
LINE
  8
1
 62
2
 10
478.6343750691334
 20
-3.915633219435289
 30
0
 11
480.3010417358
 21
-1.665633219435289
 31
0
  0
LINE
  8
1
 62
2
 10
476.3010417358
 20
-6.540633219435289
 30
0
 11
478.6343750691334
 21
-3.915633219435289
 31
0
  0
LINE
  8
1
 62
2
 10
474.9677084024667
 20
-7.665633219435289
 30
0
 11
476.3010417358
 21
-6.540633219435289
 31
0
  0
LINE
  8
1
 62
2
 10
481.9677084024667
 20
-11.79063321943529
 30
0
 11
482.6343750691334
 21
-9.915633219435289
 31
0
  0
LINE
  8
1
 62
2
 10
477.9677084024667
 20
-9.915633219435289
 30
0
 11
478.6343750691334
 21
-11.79063321943529
 31
0
  0
LINE
  8
1
 62
2
 10
483.6343750691334
 20
-8.415633219435289
 30
0
 11
476.9677084024667
 21
-8.415633219435289
 31
0
  0
LINE
  8
1
 62
2
 10
477.9677084024667
 20
-6.165633219435289
 30
0
 11
482.6343750691334
 21
-6.165633219435289
 31
0
  0
LINE
  8
1
 62
2
 10
480.3010417358
 20
-13.29063321943529
 30
0
 11
480.3010417358
 21
-6.165633219435289
 31
0
  0
LINE
  8
1
 62
2
 10
475.9677084024667
 20
-13.29063321943529
 30
0
 11
484.3010417358
 21
-13.29063321943529
 31
0
  0
LINE
  8
1
 62
2
 10
471.3010417358
 20
-9.915633219435289
 30
0
 11
472.9677084024667
 21
-7.665633219435289
 31
0
  0
LINE
  8
1
 62
2
 10
468.6343750691334
 20
-11.41563321943529
 30
0
 11
471.3010417358
 21
-9.915633219435289
 31
0
  0
LINE
  8
1
 62
2
 10
468.6343750691334
 20
-4.665633219435289
 30
0
 11
468.6343750691334
 21
-11.41563321943529
 31
0
  0
LINE
  8
1
 62
2
 10
465.9677084024667
 20
-7.665633219435289
 30
0
 11
466.3010417358
 21
-4.665633219435289
 31
0
  0
LINE
  8
1
 62
2
 10
465.3010417358
 20
-9.915633219435289
 30
0
 11
465.9677084024667
 21
-7.665633219435289
 31
0
  0
LINE
  8
1
 62
2
 10
464.3010417358
 20
-11.79063321943529
 30
0
 11
465.3010417358
 21
-9.915633219435289
 31
0
  0
LINE
  8
1
 62
2
 10
456.6343750691334
 20
-12.54063321943529
 30
0
 11
458.6343750691334
 21
-12.16563321943529
 31
0
  0
LINE
  8
1
 62
2
 10
453.3010417358
 20
-12.16563321943529
 30
0
 11
456.6343750691334
 21
-12.54063321943529
 31
0
  0
LINE
  8
1
 62
2
 10
452.9677084024667
 20
-11.04063321943529
 30
0
 11
453.3010417358
 21
-12.16563321943529
 31
0
  0
LINE
  8
1
 62
2
 10
452.9677084024667
 20
-4.665633219435289
 30
0
 11
452.9677084024667
 21
-11.04063321943529
 31
0
  0
LINE
  8
1
 62
2
 10
459.3010417358
 20
-3.915633219435289
 30
0
 11
460.3010417358
 21
-5.040633219435289
 31
0
  0
LINE
  8
1
 62
2
 10
459.6343750691334
 20
-5.790633219435289
 30
0
 11
458.6343750691334
 21
-4.665633219435289
 31
0
  0
LINE
  8
1
 62
2
 10
455.9677084024667
 20
-7.665633219435289
 30
0
 11
457.9677084024667
 21
-6.540633219435289
 31
0
  0
LINE
  8
1
 62
2
 10
452.9677084024667
 20
-8.790633219435289
 30
0
 11
455.9677084024667
 21
-7.665633219435289
 31
0
  0
LINE
  8
1
 62
2
 10
445.6343750691334
 20
-9.915633219435289
 30
0
 11
447.6343750691334
 21
-12.16563321943529
 31
0
  0
LINE
  8
1
 62
2
 10
443.9677084024667
 20
-8.415633219435289
 30
0
 11
445.6343750691334
 21
-9.915633219435289
 31
0
  0
LINE
  8
1
 62
2
 10
447.9677084024667
 20
-3.165633219435289
 30
0
 11
448.9677084024667
 21
-4.290633219435289
 31
0
  0
LINE
  8
1
 62
2
 10
447.3010417358
 20
-3.915633219435289
 30
0
 11
448.3010417358
 21
-5.040633219435289
 31
0
  0
LINE
  8
1
 62
2
 10
445.9677084024667
 20
-4.665633219435289
 30
0
 11
441.6343750691334
 21
-4.665633219435289
 31
0
  0
LINE
  8
1
 62
2
 10
444.9677084024667
 20
-6.915633219435289
 30
0
 11
445.9677084024667
 21
-4.665633219435289
 31
0
  0
LINE
  8
1
 62
2
 10
442.6343750691334
 20
-10.29063321943529
 30
0
 11
444.9677084024667
 21
-6.915633219435289
 31
0
  0
LINE
  8
1
 62
2
 10
440.3010417358
 20
-12.16563321943529
 30
0
 11
442.6343750691334
 21
-10.29063321943529
 31
0
  0
LINE
  8
1
 62
2
 10
436.3010417358
 20
-5.040633219435289
 30
0
 11
433.3010417358
 21
-8.415633219435289
 31
0
  0
LINE
  8
1
 62
2
 10
428.6343750691334
 20
-5.040633219435289
 30
0
 11
436.3010417358
 21
-5.040633219435289
 31
0
  0
LINE
  8
1
 62
2
 10
432.3010417358
 20
-8.415633219435289
 30
0
 11
432.6343750691334
 21
-6.540633219435289
 31
0
  0
LINE
  8
1
 62
2
 10
431.6343750691334
 20
-10.66563321943529
 30
0
 11
432.3010417358
 21
-8.415633219435289
 31
0
  0
LINE
  8
1
 62
2
 10
430.3010417358
 20
-12.91563321943529
 30
0
 11
431.6343750691334
 21
-10.66563321943529
 31
0
  0
LINE
  8
1
 62
2
 10
574.1343750691334
 20
17.52110517239571
 30
0
 11
574.8010417358
 21
17.14610517239571
 31
0
  0
LINE
  8
1
 62
2
 10
568.1343750691334
 20
17.52110517239571
 30
0
 11
574.1343750691334
 21
17.52110517239571
 31
0
  0
LINE
  8
1
 62
2
 10
567.4677084024667
 20
17.89610517239571
 30
0
 11
568.1343750691334
 21
17.52110517239571
 31
0
  0
LINE
  8
1
 62
2
 10
558.8010417358
 20
18.64610517239571
 30
0
 11
561.4677084024667
 21
15.64610517239571
 31
0
  0
LINE
  8
1
 62
2
 10
557.8010417358
 20
20.14610517239571
 30
0
 11
556.1343750691334
 21
18.27110517239571
 31
0
  0
LINE
  8
1
 62
2
 10
559.4677084024667
 20
22.39610517239571
 30
0
 11
557.8010417358
 21
20.14610517239571
 31
0
  0
LINE
  8
1
 62
2
 10
562.8010417358
 20
20.89610517239571
 30
0
 11
558.4677084024667
 21
20.89610517239571
 31
0
  0
LINE
  8
1
 62
2
 10
561.4677084024667
 20
18.27110517239571
 30
0
 11
562.8010417358
 21
20.89610517239571
 31
0
  0
LINE
  8
1
 62
2
 10
558.8010417358
 20
15.27110517239571
 30
0
 11
561.4677084024667
 21
18.27110517239571
 31
0
  0
LINE
  8
1
 62
2
 10
555.8010417358
 20
13.02110517239571
 30
0
 11
558.8010417358
 21
15.27110517239571
 31
0
  0
LINE
  8
1
 62
2
 10
550.1343750691334
 20
17.52110517239571
 30
0
 11
550.8010417358
 21
17.14610517239571
 31
0
  0
LINE
  8
1
 62
2
 10
544.1343750691334
 20
17.52110517239571
 30
0
 11
550.1343750691334
 21
17.52110517239571
 31
0
  0
LINE
  8
1
 62
2
 10
543.4677084024667
 20
17.89610517239571
 30
0
 11
544.1343750691334
 21
17.52110517239571
 31
0
  0
LINE
  8
1
 62
2
 10
536.1343750691334
 20
17.52110517239571
 30
0
 11
537.8010417358
 21
14.89610517239571
 31
0
  0
LINE
  8
1
 62
2
 10
534.4677084024667
 20
19.39610517239571
 30
0
 11
536.1343750691334
 21
17.52110517239571
 31
0
  0
LINE
  8
1
 62
2
 10
536.8010417358
 20
18.27110517239571
 30
0
 11
538.4677084024667
 21
21.64610517239571
 31
0
  0
LINE
  8
1
 62
2
 10
534.1343750691334
 20
14.89610517239571
 30
0
 11
536.8010417358
 21
18.27110517239571
 31
0
  0
LINE
  8
1
 62
2
 10
531.8010417358
 20
13.02110517239571
 30
0
 11
534.1343750691334
 21
14.89610517239571
 31
0
  0
LINE
  8
1
 62
2
 10
521.8010417358
 20
12.64610517239571
 30
0
 11
528.1343750691334
 21
12.64610517239571
 31
0
  0
LINE
  8
1
 62
2
 10
520.4677084024667
 20
13.02110517239571
 30
0
 11
521.8010417358
 21
12.64610517239571
 31
0
  0
LINE
  8
1
 62
2
 10
519.4677084024667
 20
13.77110517239571
 30
0
 11
520.4677084024667
 21
13.02110517239571
 31
0
  0
LINE
  8
1
 62
2
 10
526.4677084024667
 20
15.64610517239571
 30
0
 11
522.4677084024667
 21
15.64610517239571
 31
0
  0
LINE
  8
1
 62
2
 10
522.4677084024667
 20
17.52110517239571
 30
0
 11
526.4677084024667
 21
17.52110517239571
 31
0
  0
LINE
  8
1
 62
2
 10
526.4677084024667
 20
19.02110517239571
 30
0
 11
522.4677084024667
 21
19.02110517239571
 31
0
  0
LINE
  8
1
 62
2
 10
526.4677084024667
 20
14.14610517239571
 30
0
 11
526.4677084024667
 21
19.02110517239571
 31
0
  0
LINE
  8
1
 62
2
 10
522.4677084024667
 20
14.14610517239571
 30
0
 11
526.4677084024667
 21
14.14610517239571
 31
0
  0
LINE
  8
1
 62
2
 10
522.4677084024667
 20
19.02110517239571
 30
0
 11
522.4677084024667
 21
14.14610517239571
 31
0
  0
LINE
  8
1
 62
2
 10
524.1343750691334
 20
20.89610517239571
 30
0
 11
523.1343750691334
 21
19.02110517239571
 31
0
  0
LINE
  8
1
 62
2
 10
520.8010417358
 20
20.89610517239571
 30
0
 11
527.8010417358
 21
20.89610517239571
 31
0
  0
LINE
  8
1
 62
2
 10
526.1343750691334
 20
23.14610517239571
 30
0
 11
524.8010417358
 21
20.89610517239571
 31
0
  0
LINE
  8
1
 62
2
 10
522.4677084024667
 20
23.14610517239571
 30
0
 11
523.4677084024667
 21
21.64610517239571
 31
0
  0
LINE
  8
1
 62
2
 10
518.8010417358
 20
23.14610517239571
 30
0
 11
520.1343750691334
 21
21.64610517239571
 31
0
  0
LINE
  8
1
 62
2
 10
519.4677084024667
 20
18.27110517239571
 30
0
 11
518.1343750691334
 21
18.27110517239571
 31
0
  0
LINE
  8
1
 62
2
 10
519.4677084024667
 20
13.77110517239571
 30
0
 11
519.4677084024667
 21
18.27110517239571
 31
0
  0
LINE
  8
1
 62
2
 10
518.4677084024667
 20
12.64610517239571
 30
0
 11
519.4677084024667
 21
13.77110517239571
 31
0
  0
LINE
  8
1
 62
2
 10
514.8010417358
 20
15.27110517239571
 30
0
 11
516.4677084024667
 21
13.39610517239571
 31
0
  0
LINE
  8
1
 62
2
 10
513.4677084024667
 20
17.52110517239571
 30
0
 11
514.8010417358
 21
15.27110517239571
 31
0
  0
LINE
  8
1
 62
2
 10
512.4677084024667
 20
20.14610517239571
 30
0
 11
513.4677084024667
 21
17.52110517239571
 31
0
  0
LINE
  8
1
 62
2
 10
515.4677084024667
 20
20.52110517239571
 30
0
 11
513.1343750691334
 21
18.64610517239571
 31
0
  0
LINE
  8
1
 62
2
 10
511.4677084024667
 20
11.52110517239571
 30
0
 11
510.4677084024667
 21
11.89610517239571
 31
0
  0
LINE
  8
1
 62
2
 10
511.4677084024667
 20
23.14610517239571
 30
0
 11
511.4677084024667
 21
11.52110517239571
 31
0
  0
LINE
  8
1
 62
2
 10
509.8010417358
 20
19.39610517239571
 30
0
 11
506.4677084024667
 21
19.39610517239571
 31
0
  0
LINE
  8
1
 62
2
 10
509.1343750691333
 20
17.14610517239571
 30
0
 11
509.8010417358
 21
19.39610517239571
 31
0
  0
LINE
  8
1
 62
2
 10
507.8010417358
 20
14.89610517239571
 30
0
 11
509.1343750691333
 21
17.14610517239571
 31
0
  0
LINE
  8
1
 62
2
 10
506.4677084024667
 20
13.39610517239571
 30
0
 11
507.8010417358
 21
14.89610517239571
 31
0
  0
LINE
  8
1
 62
2
 10
498.0010417358
 20
19.92110517239571
 30
0
 11
498.0010417358
 21
11.52110517239571
 31
0
  0
LINE
  8
1
 62
2
 10
502.2010417358
 20
18.42110517239571
 30
0
 11
502.2010417358
 21
11.52110517239571
 31
0
  0
LINE
  8
1
 62
2
 10
501.9010417358001
 20
19.02110517239571
 30
0
 11
502.2010417358
 21
18.42110517239571
 31
0
  0
LINE
  8
1
 62
2
 10
501.3010417358
 20
19.62110517239571
 30
0
 11
501.9010417358001
 21
19.02110517239571
 31
0
  0
LINE
  8
1
 62
2
 10
500.4010417358001
 20
19.92110517239571
 30
0
 11
501.3010417358
 21
19.62110517239571
 31
0
  0
LINE
  8
1
 62
2
 10
493.8010417358
 20
19.92110517239571
 30
0
 11
500.4010417358001
 21
19.92110517239571
 31
0
  0
LINE
  8
1
 62
2
 10
493.8010417358
 20
11.52110517239571
 30
0
 11
493.8010417358
 21
19.92110517239571
 31
0
  0
LINE
  8
1
 62
2
 10
486.0010417358
 20
19.92110517239571
 30
0
 11
486.0010417358
 21
11.52110517239571
 31
0
  0
LINE
  8
1
 62
2
 10
490.2010417358
 20
18.42110517239571
 30
0
 11
490.2010417358
 21
11.52110517239571
 31
0
  0
LINE
  8
1
 62
2
 10
489.9010417358001
 20
19.02110517239571
 30
0
 11
490.2010417358
 21
18.42110517239571
 31
0
  0
LINE
  8
1
 62
2
 10
489.3010417358
 20
19.62110517239571
 30
0
 11
489.9010417358001
 21
19.02110517239571
 31
0
  0
LINE
  8
1
 62
2
 10
488.4010417358001
 20
19.92110517239571
 30
0
 11
489.3010417358
 21
19.62110517239571
 31
0
  0
LINE
  8
1
 62
2
 10
481.8010417358
 20
19.92110517239571
 30
0
 11
488.4010417358001
 21
19.92110517239571
 31
0
  0
LINE
  8
1
 62
2
 10
481.8010417358
 20
11.52110517239571
 30
0
 11
481.8010417358
 21
19.92110517239571
 31
0
  0
LINE
  8
1
 62
2
 10
478.2010417358
 20
19.02110517239571
 30
0
 11
478.2010417358
 21
16.02110517239571
 31
0
  0
LINE
  8
1
 62
2
 10
477.9010417358
 20
20.82110517239571
 30
0
 11
478.2010417358
 21
19.02110517239571
 31
0
  0
LINE
  8
1
 62
2
 10
477.3010417358
 20
22.02110517239571
 30
0
 11
477.9010417358
 21
20.82110517239571
 31
0
  0
LINE
  8
1
 62
2
 10
476.7010417358
 20
22.62110517239571
 30
0
 11
477.3010417358
 21
22.02110517239571
 31
0
  0
LINE
  8
1
 62
2
 10
475.8010417358
 20
23.22110517239571
 30
0
 11
476.7010417358
 21
22.62110517239571
 31
0
  0
LINE
  8
1
 62
2
 10
474.9010417358
 20
23.52110517239571
 30
0
 11
475.8010417358
 21
23.22110517239571
 31
0
  0
LINE
  8
1
 62
2
 10
474.3010417358
 20
23.52110517239571
 30
0
 11
474.9010417358
 21
23.52110517239571
 31
0
  0
LINE
  8
1
 62
2
 10
473.4010417358
 20
23.22110517239571
 30
0
 11
474.3010417358
 21
23.52110517239571
 31
0
  0
LINE
  8
1
 62
2
 10
472.5010417358
 20
22.62110517239571
 30
0
 11
473.4010417358
 21
23.22110517239571
 31
0
  0
LINE
  8
1
 62
2
 10
471.9010417358
 20
22.02110517239571
 30
0
 11
472.5010417358
 21
22.62110517239571
 31
0
  0
LINE
  8
1
 62
2
 10
471.3010417358
 20
20.82110517239571
 30
0
 11
471.9010417358
 21
22.02110517239571
 31
0
  0
LINE
  8
1
 62
2
 10
471.0010417358
 20
19.02110517239571
 30
0
 11
471.3010417358
 21
20.82110517239571
 31
0
  0
LINE
  8
1
 62
2
 10
471.0010417358
 20
16.02110517239571
 30
0
 11
471.0010417358
 21
19.02110517239571
 31
0
  0
LINE
  8
1
 62
2
 10
471.3010417358
 20
14.22110517239571
 30
0
 11
471.0010417358
 21
16.02110517239571
 31
0
  0
LINE
  8
1
 62
2
 10
471.9010417358
 20
13.02110517239571
 30
0
 11
471.3010417358
 21
14.22110517239571
 31
0
  0
LINE
  8
1
 62
2
 10
472.5010417358
 20
12.42110517239571
 30
0
 11
471.9010417358
 21
13.02110517239571
 31
0
  0
LINE
  8
1
 62
2
 10
473.4010417358
 20
11.82110517239571
 30
0
 11
472.5010417358
 21
12.42110517239571
 31
0
  0
LINE
  8
1
 62
2
 10
474.3010417358
 20
11.52110517239571
 30
0
 11
473.4010417358
 21
11.82110517239571
 31
0
  0
LINE
  8
1
 62
2
 10
474.9010417358
 20
11.52110517239571
 30
0
 11
474.3010417358
 21
11.52110517239571
 31
0
  0
LINE
  8
1
 62
2
 10
475.8010417358
 20
11.82110517239571
 30
0
 11
474.9010417358
 21
11.52110517239571
 31
0
  0
LINE
  8
1
 62
2
 10
476.7010417358
 20
12.42110517239571
 30
0
 11
475.8010417358
 21
11.82110517239571
 31
0
  0
LINE
  8
1
 62
2
 10
477.3010417358
 20
13.02110517239571
 30
0
 11
476.7010417358
 21
12.42110517239571
 31
0
  0
LINE
  8
1
 62
2
 10
477.9010417358
 20
14.22110517239571
 30
0
 11
477.3010417358
 21
13.02110517239571
 31
0
  0
LINE
  8
1
 62
2
 10
478.2010417358
 20
16.02110517239571
 30
0
 11
477.9010417358
 21
14.22110517239571
 31
0
  0
LINE
  8
1
 62
2
 10
464.7010417358
 20
11.52110517239571
 30
0
 11
460.2010417358
 21
11.52110517239571
 31
0
  0
LINE
  8
1
 62
2
 10
465.6010417358
 20
11.82110517239571
 30
0
 11
464.7010417358
 21
11.52110517239571
 31
0
  0
LINE
  8
1
 62
2
 10
466.5010417358
 20
12.42110517239571
 30
0
 11
465.6010417358
 21
11.82110517239571
 31
0
  0
LINE
  8
1
 62
2
 10
467.1010417358
 20
13.32110517239571
 30
0
 11
466.5010417358
 21
12.42110517239571
 31
0
  0
LINE
  8
1
 62
2
 10
467.4010417358
 20
14.52110517239571
 30
0
 11
467.1010417358
 21
13.32110517239571
 31
0
  0
LINE
  8
1
 62
2
 10
467.4010417358
 20
16.32110517239571
 30
0
 11
467.4010417358
 21
14.52110517239571
 31
0
  0
LINE
  8
1
 62
2
 10
467.1010417358
 20
17.52110517239571
 30
0
 11
467.4010417358
 21
16.32110517239571
 31
0
  0
LINE
  8
1
 62
2
 10
466.2010417358
 20
18.42110517239571
 30
0
 11
467.1010417358
 21
17.52110517239571
 31
0
  0
LINE
  8
1
 62
2
 10
464.7010417358
 20
18.72110517239571
 30
0
 11
466.2010417358
 21
18.42110517239571
 31
0
  0
LINE
  8
1
 62
2
 10
460.2010417358
 20
18.72110517239571
 30
0
 11
464.7010417358
 21
18.72110517239571
 31
0
  0
LINE
  8
1
 62
2
 10
460.2010417358
 20
23.52110517239571
 30
0
 11
460.2010417358
 21
18.72110517239571
 31
0
  0
LINE
  8
1
 62
2
 10
466.8010417358
 20
23.52110517239571
 30
0
 11
460.2010417358
 21
23.52110517239571
 31
0
  0
LINE
  8
1
 62
2
 10
453.8677084024667
 20
16.39610517239571
 30
0
 11
453.8677084024667
 21
11.89610517239571
 31
0
  0
LINE
  8
1
 62
2
 10
457.8677084024667
 20
16.39610517239571
 30
0
 11
456.8677084024667
 21
16.39610517239571
 31
0
  0
LINE
  8
1
 62
2
 10
457.8677084024667
 20
23.14610517239571
 30
0
 11
457.8677084024667
 21
16.39610517239571
 31
0
  0
LINE
  8
1
 62
2
 10
455.5343750691333
 20
17.89610517239571
 30
0
 11
455.5343750691333
 21
22.77110517239571
 31
0
  0
LINE
  8
1
 62
2
 10
452.2010417358
 20
22.77110517239571
 30
0
 11
452.2010417358
 21
16.39610517239571
 31
0
  0
LINE
  8
1
 62
2
 10
448.5343750691333
 20
20.14610517239571
 30
0
 11
454.2010417358
 21
20.14610517239571
 31
0
  0
LINE
  8
1
 62
2
 10
453.8677084024667
 20
22.77110517239571
 30
0
 11
448.8677084024667
 21
22.77110517239571
 31
0
  0
LINE
  8
1
 62
2
 10
450.5343750691333
 20
20.14610517239571
 30
0
 11
450.5343750691333
 21
22.77110517239571
 31
0
  0
LINE
  8
1
 62
2
 10
449.8677084024667
 20
17.52110517239571
 30
0
 11
450.5343750691333
 21
20.14610517239571
 31
0
  0
LINE
  8
1
 62
2
 10
448.8677084024667
 20
16.02110517239571
 30
0
 11
449.8677084024667
 21
17.52110517239571
 31
0
  0
LINE
  8
1
 62
2
 10
457.2010417358
 20
14.52110517239571
 30
0
 11
449.8677084024667
 21
14.52110517239571
 31
0
  0
LINE
  8
1
 62
2
 10
448.8677084024667
 20
11.89610517239571
 30
0
 11
458.5343750691333
 21
11.89610517239571
 31
0
  0
LINE
  8
1
 62
2
 10
442.2010417358
 20
11.52110517239571
 30
0
 11
444.6010417358
 21
23.52110517239571
 31
0
  0
LINE
  8
1
 62
2
 10
439.2010417358
 20
19.92110517239571
 30
0
 11
442.2010417358
 21
11.52110517239571
 31
0
  0
LINE
  8
1
 62
2
 10
436.2010417358
 20
11.52110517239571
 30
0
 11
439.2010417358
 21
19.92110517239571
 31
0
  0
LINE
  8
1
 62
2
 10
433.8010417358
 20
23.52110517239571
 30
0
 11
436.2010417358
 21
11.52110517239571
 31
0
  0
LINE
  8
1
 62
2
 10
429.9010417358001
 20
21.12110517239571
 30
0
 11
430.2010417358
 21
19.92110517239571
 31
0
  0
LINE
  8
1
 62
2
 10
429.3010417358
 20
22.02110517239571
 30
0
 11
429.9010417358001
 21
21.12110517239571
 31
0
  0
LINE
  8
1
 62
2
 10
428.7010417358
 20
22.62110517239571
 30
0
 11
429.3010417358
 21
22.02110517239571
 31
0
  0
LINE
  8
1
 62
2
 10
427.8010417358
 20
23.22110517239571
 30
0
 11
428.7010417358
 21
22.62110517239571
 31
0
  0
LINE
  8
1
 62
2
 10
426.6010417358
 20
23.52110517239571
 30
0
 11
427.8010417358
 21
23.22110517239571
 31
0
  0
LINE
  8
1
 62
2
 10
421.8010417358
 20
23.52110517239571
 30
0
 11
426.6010417358
 21
23.52110517239571
 31
0
  0
LINE
  8
1
 62
2
 10
421.8010417358
 20
11.52110517239571
 30
0
 11
421.8010417358
 21
23.52110517239571
 31
0
  0
LINE
  8
1
 62
2
 10
426.6010417358
 20
11.52110517239571
 30
0
 11
421.8010417358
 21
11.52110517239571
 31
0
  0
LINE
  8
1
 62
2
 10
427.8010417358
 20
11.82110517239571
 30
0
 11
426.6010417358
 21
11.52110517239571
 31
0
  0
LINE
  8
1
 62
2
 10
428.7010417358
 20
12.42110517239571
 30
0
 11
427.8010417358
 21
11.82110517239571
 31
0
  0
LINE
  8
1
 62
2
 10
429.3010417358
 20
13.02110517239571
 30
0
 11
428.7010417358
 21
12.42110517239571
 31
0
  0
LINE
  8
1
 62
2
 10
429.9010417358001
 20
13.92110517239571
 30
0
 11
429.3010417358
 21
13.02110517239571
 31
0
  0
LINE
  8
1
 62
2
 10
430.2010417358
 20
15.12110517239571
 30
0
 11
429.9010417358001
 21
13.92110517239571
 31
0
  0
LINE
  8
1
 62
2
 10
430.2010417358
 20
19.92110517239571
 30
0
 11
430.2010417358
 21
15.12110517239571
 31
0
  0
LINE
  8
1
 62
2
 10
409.8010417358
 20
23.52110517239571
 30
0
 11
409.8010417358
 21
11.52110517239571
 31
0
  0
LINE
  8
1
 62
2
 10
418.2010417358
 20
23.52110517239571
 30
0
 11
409.8010417358
 21
23.52110517239571
 31
0
  0
LINE
  8
1
 62
2
 10
409.8010417358
 20
18.12110517239571
 30
0
 11
418.2010417358
 21
18.12110517239571
 31
0
  0
LINE
  8
1
 62
2
 10
397.8010417358
 20
11.52110517239571
 30
0
 11
406.2010417358
 21
11.52110517239571
 31
0
  0
LINE
  8
1
 62
2
 10
397.8010417358
 20
23.52110517239571
 30
0
 11
397.8010417358
 21
11.52110517239571
 31
0
  0
LINE
  8
1
 62
2
 10
406.2010417358
 20
23.52110517239571
 30
0
 11
397.8010417358
 21
23.52110517239571
 31
0
  0
LINE
  8
1
 62
2
 10
405.0010417358
 20
18.12110517239571
 30
0
 11
397.8010417358
 21
18.12110517239571
 31
0
  0
LINE
  8
1
 62
7
 10
492.0575903956174
 20
187.09729366466
 30
0
 11
492.1594549789513
 21
186.56812699799
 31
0
  0
LINE
  8
1
 62
7
 10
491.8538612289494
 20
187.4941686646625
 30
0
 11
492.0575903956174
 21
187.09729366466
 31
0
  0
LINE
  8
1
 62
7
 10
491.6501320622814
 20
187.7587519979975
 30
0
 11
491.8538612289494
 21
187.4941686646625
 31
0
  0
LINE
  8
1
 62
7
 10
491.3445383122795
 20
188.0233353313325
 30
0
 11
491.6501320622814
 21
187.7587519979975
 31
0
  0
LINE
  8
1
 62
7
 10
490.9370799789436
 20
188.155626998
 30
0
 11
491.3445383122795
 21
188.0233353313325
 31
0
  0
LINE
  8
1
 62
7
 10
489.3072466456
 20
188.155626998
 30
0
 11
490.9370799789436
 21
188.155626998
 31
0
  0
LINE
  8
1
 62
7
 10
489.3072466456
 20
182.8639603313
 30
0
 11
489.3072466456
 21
188.155626998
 31
0
  0
LINE
  8
1
 62
7
 10
490.9370799789436
 20
182.8639603313
 30
0
 11
489.3072466456
 21
182.8639603313
 31
0
  0
LINE
  8
1
 62
7
 10
491.3445383122795
 20
182.9962519979675
 30
0
 11
490.9370799789436
 21
182.8639603313
 31
0
  0
LINE
  8
1
 62
7
 10
491.6501320622814
 20
183.2608353313025
 30
0
 11
491.3445383122795
 21
182.9962519979675
 31
0
  0
LINE
  8
1
 62
7
 10
491.8538612289494
 20
183.5254186646375
 30
0
 11
491.6501320622814
 21
183.2608353313025
 31
0
  0
LINE
  8
1
 62
7
 10
492.0575903956174
 20
183.92229366464
 30
0
 11
491.8538612289494
 21
183.5254186646375
 31
0
  0
LINE
  8
1
 62
7
 10
492.1594549789513
 20
184.45146033131
 30
0
 11
492.0575903956174
 21
183.92229366464
 31
0
  0
LINE
  8
1
 62
7
 10
492.1594549789513
 20
186.56812699799
 30
0
 11
492.1594549789513
 21
184.45146033131
 31
0
  0
LINE
  8
1
 62
2
 10
883.4085184295501
 20
446.0208800617
 30
0
 11
882.3690184295501
 21
445.4208800617
 31
0
  0
LINE
  8
1
 62
2
 10
884.2170184295501
 20
446.9208800617
 30
0
 11
883.4085184295501
 21
446.0208800617
 31
0
  0
LINE
  8
1
 62
2
 10
884.5635184295502
 20
447.5208800617
 30
0
 11
884.2170184295501
 21
446.9208800617
 31
0
  0
LINE
  8
1
 62
2
 10
884.6790184295502
 20
448.1208800617
 30
0
 11
884.5635184295502
 21
447.5208800617
 31
0
  0
LINE
  8
1
 62
2
 10
884.7945184295502
 20
448.8708800617
 30
0
 11
884.6790184295502
 21
448.1208800617
 31
0
  0
LINE
  8
1
 62
2
 10
884.7945184295502
 20
449.9208800617
 30
0
 11
884.7945184295502
 21
448.8708800617
 31
0
  0
LINE
  8
1
 62
2
 10
884.6790184295502
 20
450.5208800617
 30
0
 11
884.7945184295502
 21
449.9208800617
 31
0
  0
LINE
  8
1
 62
2
 10
884.4480184295502
 20
450.9708800617
 30
0
 11
884.6790184295502
 21
450.5208800617
 31
0
  0
LINE
  8
1
 62
2
 10
884.1015184295501
 20
451.2708800617
 30
0
 11
884.4480184295502
 21
450.9708800617
 31
0
  0
LINE
  8
1
 62
2
 10
883.7550184295501
 20
451.4208800617
 30
0
 11
884.1015184295501
 21
451.2708800617
 31
0
  0
LINE
  8
1
 62
2
 10
883.0620184295501
 20
451.4208800617
 30
0
 11
883.7550184295501
 21
451.4208800617
 31
0
  0
LINE
  8
1
 62
2
 10
882.7155184295501
 20
451.2708800617
 30
0
 11
883.0620184295501
 21
451.4208800617
 31
0
  0
LINE
  8
1
 62
2
 10
882.3690184295501
 20
450.9708800617
 30
0
 11
882.7155184295501
 21
451.2708800617
 31
0
  0
LINE
  8
1
 62
2
 10
882.1380184295501
 20
450.5208800617
 30
0
 11
882.3690184295501
 21
450.9708800617
 31
0
  0
LINE
  8
1
 62
2
 10
882.0225184295501
 20
449.9208800617
 30
0
 11
882.1380184295501
 21
450.5208800617
 31
0
  0
LINE
  8
1
 62
2
 10
882.0225184295501
 20
449.6208800617
 30
0
 11
882.0225184295501
 21
449.9208800617
 31
0
  0
LINE
  8
1
 62
2
 10
882.1380184295501
 20
449.0208800617
 30
0
 11
882.0225184295501
 21
449.6208800617
 31
0
  0
LINE
  8
1
 62
2
 10
882.3690184295501
 20
448.5708800617
 30
0
 11
882.1380184295501
 21
449.0208800617
 31
0
  0
LINE
  8
1
 62
2
 10
882.7155184295501
 20
448.2708800617
 30
0
 11
882.3690184295501
 21
448.5708800617
 31
0
  0
LINE
  8
1
 62
2
 10
883.0620184295501
 20
448.1208800617
 30
0
 11
882.7155184295501
 21
448.2708800617
 31
0
  0
LINE
  8
1
 62
2
 10
884.6790184295502
 20
448.1208800617
 30
0
 11
883.0620184295501
 21
448.1208800617
 31
0
  0
LINE
  8
1
 62
2
 10
880.6365184295501
 20
451.4208800617
 30
0
 11
880.6365184295501
 21
445.4208800617
 31
0
  0
LINE
  8
1
 62
2
 10
879.2505184295501
 20
449.6208800617
 30
0
 11
880.6365184295501
 21
451.4208800617
 31
0
  0
LINE
  8
1
 62
2
 10
848.0386863413498
 20
447.8208800617
 30
0
 11
848.0386863413498
 21
445.4208800617
 31
0
  0
LINE
  8
1
 62
2
 10
845.9596863413499
 20
446.6208800617
 30
0
 11
848.7316863413499
 21
446.6208800617
 31
0
  0
LINE
  8
1
 62
2
 10
848.0386863413498
 20
451.4208800617
 30
0
 11
845.9596863413499
 21
446.6208800617
 31
0
  0
LINE
  8
1
 62
2
 10
814.1436876195501
 20
450.0708800617
 30
0
 11
815.41418761955
 21
451.4208800617
 31
0
  0
LINE
  8
1
 62
2
 10
813.6816876195501
 20
449.3208800617
 30
0
 11
814.1436876195501
 21
450.0708800617
 31
0
  0
LINE
  8
1
 62
2
 10
813.4506876195501
 20
448.7208800617
 30
0
 11
813.6816876195501
 21
449.3208800617
 31
0
  0
LINE
  8
1
 62
2
 10
813.3351876195501
 20
447.5208800617
 30
0
 11
813.4506876195501
 21
448.7208800617
 31
0
  0
LINE
  8
1
 62
2
 10
813.3351876195501
 20
446.9208800617
 30
0
 11
813.3351876195501
 21
447.5208800617
 31
0
  0
LINE
  8
1
 62
2
 10
813.4506876195501
 20
446.3208800617
 30
0
 11
813.3351876195501
 21
446.9208800617
 31
0
  0
LINE
  8
1
 62
2
 10
813.6816876195501
 20
445.8708800617
 30
0
 11
813.4506876195501
 21
446.3208800617
 31
0
  0
LINE
  8
1
 62
2
 10
814.0281876195501
 20
445.5708800617
 30
0
 11
813.6816876195501
 21
445.8708800617
 31
0
  0
LINE
  8
1
 62
2
 10
814.3746876195501
 20
445.4208800617
 30
0
 11
814.0281876195501
 21
445.5708800617
 31
0
  0
LINE
  8
1
 62
2
 10
815.06768761955
 20
445.4208800617
 30
0
 11
814.3746876195501
 21
445.4208800617
 31
0
  0
LINE
  8
1
 62
2
 10
815.41418761955
 20
445.5708800617
 30
0
 11
815.06768761955
 21
445.4208800617
 31
0
  0
LINE
  8
1
 62
2
 10
815.7606876195501
 20
445.8708800617
 30
0
 11
815.41418761955
 21
445.5708800617
 31
0
  0
LINE
  8
1
 62
2
 10
815.9916876195501
 20
446.3208800617
 30
0
 11
815.7606876195501
 21
445.8708800617
 31
0
  0
LINE
  8
1
 62
2
 10
816.1071876195501
 20
446.9208800617
 30
0
 11
815.9916876195501
 21
446.3208800617
 31
0
  0
LINE
  8
1
 62
2
 10
816.1071876195501
 20
447.5208800617
 30
0
 11
816.1071876195501
 21
446.9208800617
 31
0
  0
LINE
  8
1
 62
2
 10
815.9916876195501
 20
448.1208800617
 30
0
 11
816.1071876195501
 21
447.5208800617
 31
0
  0
LINE
  8
1
 62
2
 10
815.7606876195501
 20
448.5708800617
 30
0
 11
815.9916876195501
 21
448.1208800617
 31
0
  0
LINE
  8
1
 62
2
 10
815.41418761955
 20
448.8708800617
 30
0
 11
815.7606876195501
 21
448.5708800617
 31
0
  0
LINE
  8
1
 62
2
 10
815.06768761955
 20
449.0208800617
 30
0
 11
815.41418761955
 21
448.8708800617
 31
0
  0
LINE
  8
1
 62
2
 10
814.3746876195501
 20
449.0208800617
 30
0
 11
815.06768761955
 21
449.0208800617
 31
0
  0
LINE
  8
1
 62
2
 10
814.0281876195501
 20
448.8708800617
 30
0
 11
814.3746876195501
 21
449.0208800617
 31
0
  0
LINE
  8
1
 62
2
 10
813.6816876195501
 20
448.5708800617
 30
0
 11
814.0281876195501
 21
448.8708800617
 31
0
  0
LINE
  8
1
 62
2
 10
813.4506876195501
 20
448.1208800617
 30
0
 11
813.6816876195501
 21
448.5708800617
 31
0
  0
LINE
  8
1
 62
2
 10
813.3351876195501
 20
447.5208800617
 30
0
 11
813.4506876195501
 21
448.1208800617
 31
0
  0
LINE
  8
1
 62
2
 10
810.56318761955
 20
446.0208800617
 30
0
 11
809.5236876195501
 21
445.4208800617
 31
0
  0
LINE
  8
1
 62
2
 10
811.37168761955
 20
446.9208800617
 30
0
 11
810.56318761955
 21
446.0208800617
 31
0
  0
LINE
  8
1
 62
2
 10
811.7181876195501
 20
447.5208800617
 30
0
 11
811.37168761955
 21
446.9208800617
 31
0
  0
LINE
  8
1
 62
2
 10
811.8336876195501
 20
448.1208800617
 30
0
 11
811.7181876195501
 21
447.5208800617
 31
0
  0
LINE
  8
1
 62
2
 10
811.9491876195501
 20
448.8708800617
 30
0
 11
811.8336876195501
 21
448.1208800617
 31
0
  0
LINE
  8
1
 62
2
 10
811.9491876195501
 20
449.9208800617
 30
0
 11
811.9491876195501
 21
448.8708800617
 31
0
  0
LINE
  8
1
 62
2
 10
811.8336876195501
 20
450.5208800617
 30
0
 11
811.9491876195501
 21
449.9208800617
 31
0
  0
LINE
  8
1
 62
2
 10
811.6026876195501
 20
450.9708800617
 30
0
 11
811.8336876195501
 21
450.5208800617
 31
0
  0
LINE
  8
1
 62
2
 10
811.25618761955
 20
451.2708800617
 30
0
 11
811.6026876195501
 21
450.9708800617
 31
0
  0
LINE
  8
1
 62
2
 10
810.90968761955
 20
451.4208800617
 30
0
 11
811.25618761955
 21
451.2708800617
 31
0
  0
LINE
  8
1
 62
2
 10
810.21668761955
 20
451.4208800617
 30
0
 11
810.90968761955
 21
451.4208800617
 31
0
  0
LINE
  8
1
 62
2
 10
809.8701876195501
 20
451.2708800617
 30
0
 11
810.21668761955
 21
451.4208800617
 31
0
  0
LINE
  8
1
 62
2
 10
809.5236876195501
 20
450.9708800617
 30
0
 11
809.8701876195501
 21
451.2708800617
 31
0
  0
LINE
  8
1
 62
2
 10
809.2926876195501
 20
450.5208800617
 30
0
 11
809.5236876195501
 21
450.9708800617
 31
0
  0
LINE
  8
1
 62
2
 10
809.1771876195501
 20
449.9208800617
 30
0
 11
809.2926876195501
 21
450.5208800617
 31
0
  0
LINE
  8
1
 62
2
 10
809.1771876195501
 20
449.6208800617
 30
0
 11
809.1771876195501
 21
449.9208800617
 31
0
  0
LINE
  8
1
 62
2
 10
809.2926876195501
 20
449.0208800617
 30
0
 11
809.1771876195501
 21
449.6208800617
 31
0
  0
LINE
  8
1
 62
2
 10
809.5236876195501
 20
448.5708800617
 30
0
 11
809.2926876195501
 21
449.0208800617
 31
0
  0
LINE
  8
1
 62
2
 10
809.8701876195501
 20
448.2708800617
 30
0
 11
809.5236876195501
 21
448.5708800617
 31
0
  0
LINE
  8
1
 62
2
 10
810.21668761955
 20
448.1208800617
 30
0
 11
809.8701876195501
 21
448.2708800617
 31
0
  0
LINE
  8
1
 62
2
 10
811.8336876195501
 20
448.1208800617
 30
0
 11
810.21668761955
 21
448.1208800617
 31
0
  0
LINE
  8
1
 62
2
 10
782.0966886649501
 20
449.1708800617
 30
0
 11
782.0966886649501
 21
447.6708800617
 31
0
  0
LINE
  8
1
 62
2
 10
781.9811886649501
 20
450.0708800617
 30
0
 11
782.0966886649501
 21
449.1708800617
 31
0
  0
LINE
  8
1
 62
2
 10
781.7501886649501
 20
450.6708800617
 30
0
 11
781.9811886649501
 21
450.0708800617
 31
0
  0
LINE
  8
1
 62
2
 10
781.51918866495
 20
450.9708800617
 30
0
 11
781.7501886649501
 21
450.6708800617
 31
0
  0
LINE
  8
1
 62
2
 10
781.17268866495
 20
451.2708800617
 30
0
 11
781.51918866495
 21
450.9708800617
 31
0
  0
LINE
  8
1
 62
2
 10
780.82618866495
 20
451.4208800617
 30
0
 11
781.17268866495
 21
451.2708800617
 31
0
  0
LINE
  8
1
 62
2
 10
780.59518866495
 20
451.4208800617
 30
0
 11
780.82618866495
 21
451.4208800617
 31
0
  0
LINE
  8
1
 62
2
 10
780.24868866495
 20
451.2708800617
 30
0
 11
780.59518866495
 21
451.4208800617
 31
0
  0
LINE
  8
1
 62
2
 10
779.90218866495
 20
450.9708800617
 30
0
 11
780.24868866495
 21
451.2708800617
 31
0
  0
LINE
  8
1
 62
2
 10
779.67118866495
 20
450.6708800617
 30
0
 11
779.90218866495
 21
450.9708800617
 31
0
  0
LINE
  8
1
 62
2
 10
779.44018866495
 20
450.0708800617
 30
0
 11
779.67118866495
 21
450.6708800617
 31
0
  0
LINE
  8
1
 62
2
 10
779.32468866495
 20
449.1708800617
 30
0
 11
779.44018866495
 21
450.0708800617
 31
0
  0
LINE
  8
1
 62
2
 10
779.32468866495
 20
447.6708800617
 30
0
 11
779.32468866495
 21
449.1708800617
 31
0
  0
LINE
  8
1
 62
2
 10
779.44018866495
 20
446.7708800617
 30
0
 11
779.32468866495
 21
447.6708800617
 31
0
  0
LINE
  8
1
 62
2
 10
779.67118866495
 20
446.1708800617
 30
0
 11
779.44018866495
 21
446.7708800617
 31
0
  0
LINE
  8
1
 62
2
 10
779.90218866495
 20
445.8708800617
 30
0
 11
779.67118866495
 21
446.1708800617
 31
0
  0
LINE
  8
1
 62
2
 10
780.24868866495
 20
445.5708800617
 30
0
 11
779.90218866495
 21
445.8708800617
 31
0
  0
LINE
  8
1
 62
2
 10
780.59518866495
 20
445.4208800617
 30
0
 11
780.24868866495
 21
445.5708800617
 31
0
  0
LINE
  8
1
 62
2
 10
780.82618866495
 20
445.4208800617
 30
0
 11
780.59518866495
 21
445.4208800617
 31
0
  0
LINE
  8
1
 62
2
 10
781.17268866495
 20
445.5708800617
 30
0
 11
780.82618866495
 21
445.4208800617
 31
0
  0
LINE
  8
1
 62
2
 10
781.51918866495
 20
445.8708800617
 30
0
 11
781.17268866495
 21
445.5708800617
 31
0
  0
LINE
  8
1
 62
2
 10
781.7501886649501
 20
446.1708800617
 30
0
 11
781.51918866495
 21
445.8708800617
 31
0
  0
LINE
  8
1
 62
2
 10
781.9811886649501
 20
446.7708800617
 30
0
 11
781.7501886649501
 21
446.1708800617
 31
0
  0
LINE
  8
1
 62
2
 10
782.0966886649501
 20
447.6708800617
 30
0
 11
781.9811886649501
 21
446.7708800617
 31
0
  0
LINE
  8
1
 62
2
 10
775.1666886649501
 20
445.4208800617
 30
0
 11
777.9386886649502
 21
445.4208800617
 31
0
  0
LINE
  8
1
 62
2
 10
777.7076886649502
 20
449.3208800617
 30
0
 11
775.1666886649501
 21
445.4208800617
 31
0
  0
LINE
  8
1
 62
2
 10
777.9386886649502
 20
449.9208800617
 30
0
 11
777.7076886649502
 21
449.3208800617
 31
0
  0
LINE
  8
1
 62
2
 10
777.9386886649502
 20
450.5208800617
 30
0
 11
777.9386886649502
 21
449.9208800617
 31
0
  0
LINE
  8
1
 62
2
 10
777.7076886649502
 20
450.9708800617
 30
0
 11
777.9386886649502
 21
450.5208800617
 31
0
  0
LINE
  8
1
 62
2
 10
777.3611886649501
 20
451.2708800617
 30
0
 11
777.7076886649502
 21
450.9708800617
 31
0
  0
LINE
  8
1
 62
2
 10
776.8991886649501
 20
451.4208800617
 30
0
 11
777.3611886649501
 21
451.2708800617
 31
0
  0
LINE
  8
1
 62
2
 10
776.2061886649501
 20
451.4208800617
 30
0
 11
776.8991886649501
 21
451.4208800617
 31
0
  0
LINE
  8
1
 62
2
 10
775.7441886649501
 20
451.2708800617
 30
0
 11
776.2061886649501
 21
451.4208800617
 31
0
  0
LINE
  8
1
 62
2
 10
775.3976886649501
 20
450.9708800617
 30
0
 11
775.7441886649501
 21
451.2708800617
 31
0
  0
LINE
  8
1
 62
2
 10
775.1666886649501
 20
450.5208800617
 30
0
 11
775.3976886649501
 21
450.9708800617
 31
0
  0
LINE
  8
1
 62
2
 10
773.7806886649501
 20
451.4208800617
 30
0
 11
773.7806886649501
 21
445.4208800617
 31
0
  0
LINE
  8
1
 62
2
 10
772.3946886649501
 20
449.6208800617
 30
0
 11
773.7806886649501
 21
451.4208800617
 31
0
  0
LINE
  8
1
 62
2
 10
745.09652325975
 20
450.0708800617
 30
0
 11
746.36702325975
 21
451.4208800617
 31
0
  0
LINE
  8
1
 62
2
 10
744.63452325975
 20
449.3208800617
 30
0
 11
745.09652325975
 21
450.0708800617
 31
0
  0
LINE
  8
1
 62
2
 10
744.4035232597501
 20
448.7208800617
 30
0
 11
744.63452325975
 21
449.3208800617
 31
0
  0
LINE
  8
1
 62
2
 10
744.2880232597501
 20
447.5208800617
 30
0
 11
744.4035232597501
 21
448.7208800617
 31
0
  0
LINE
  8
1
 62
2
 10
744.2880232597501
 20
446.9208800617
 30
0
 11
744.2880232597501
 21
447.5208800617
 31
0
  0
LINE
  8
1
 62
2
 10
744.4035232597501
 20
446.3208800617
 30
0
 11
744.2880232597501
 21
446.9208800617
 31
0
  0
LINE
  8
1
 62
2
 10
744.63452325975
 20
445.8708800617
 30
0
 11
744.4035232597501
 21
446.3208800617
 31
0
  0
LINE
  8
1
 62
2
 10
744.98102325975
 20
445.5708800617
 30
0
 11
744.63452325975
 21
445.8708800617
 31
0
  0
LINE
  8
1
 62
2
 10
745.32752325975
 20
445.4208800617
 30
0
 11
744.98102325975
 21
445.5708800617
 31
0
  0
LINE
  8
1
 62
2
 10
746.02052325975
 20
445.4208800617
 30
0
 11
745.32752325975
 21
445.4208800617
 31
0
  0
LINE
  8
1
 62
2
 10
746.36702325975
 20
445.5708800617
 30
0
 11
746.02052325975
 21
445.4208800617
 31
0
  0
LINE
  8
1
 62
2
 10
746.7135232597501
 20
445.8708800617
 30
0
 11
746.36702325975
 21
445.5708800617
 31
0
  0
LINE
  8
1
 62
2
 10
746.9445232597501
 20
446.3208800617
 30
0
 11
746.7135232597501
 21
445.8708800617
 31
0
  0
LINE
  8
1
 62
2
 10
747.0600232597501
 20
446.9208800617
 30
0
 11
746.9445232597501
 21
446.3208800617
 31
0
  0
LINE
  8
1
 62
2
 10
747.0600232597501
 20
447.5208800617
 30
0
 11
747.0600232597501
 21
446.9208800617
 31
0
  0
LINE
  8
1
 62
2
 10
746.9445232597501
 20
448.1208800617
 30
0
 11
747.0600232597501
 21
447.5208800617
 31
0
  0
LINE
  8
1
 62
2
 10
746.7135232597501
 20
448.5708800617
 30
0
 11
746.9445232597501
 21
448.1208800617
 31
0
  0
LINE
  8
1
 62
2
 10
746.36702325975
 20
448.8708800617
 30
0
 11
746.7135232597501
 21
448.5708800617
 31
0
  0
LINE
  8
1
 62
2
 10
746.02052325975
 20
449.0208800617
 30
0
 11
746.36702325975
 21
448.8708800617
 31
0
  0
LINE
  8
1
 62
2
 10
745.32752325975
 20
449.0208800617
 30
0
 11
746.02052325975
 21
449.0208800617
 31
0
  0
LINE
  8
1
 62
2
 10
744.98102325975
 20
448.8708800617
 30
0
 11
745.32752325975
 21
449.0208800617
 31
0
  0
LINE
  8
1
 62
2
 10
744.63452325975
 20
448.5708800617
 30
0
 11
744.98102325975
 21
448.8708800617
 31
0
  0
LINE
  8
1
 62
2
 10
744.4035232597501
 20
448.1208800617
 30
0
 11
744.63452325975
 21
448.5708800617
 31
0
  0
LINE
  8
1
 62
2
 10
744.2880232597501
 20
447.5208800617
 30
0
 11
744.4035232597501
 21
448.1208800617
 31
0
  0
LINE
  8
1
 62
2
 10
740.5920232597501
 20
450.9708800617
 30
0
 11
740.9385232597501
 21
451.2708800617
 31
0
  0
LINE
  8
1
 62
2
 10
740.3610232597501
 20
450.5208800617
 30
0
 11
740.5920232597501
 21
450.9708800617
 31
0
  0
LINE
  8
1
 62
2
 10
740.3610232597501
 20
449.9208800617
 30
0
 11
740.3610232597501
 21
450.5208800617
 31
0
  0
LINE
  8
1
 62
2
 10
740.5920232597501
 20
449.4708800617
 30
0
 11
740.3610232597501
 21
449.9208800617
 31
0
  0
LINE
  8
1
 62
2
 10
740.9385232597501
 20
449.1708800617
 30
0
 11
740.5920232597501
 21
449.4708800617
 31
0
  0
LINE
  8
1
 62
2
 10
741.2850232597501
 20
449.0208800617
 30
0
 11
740.9385232597501
 21
449.1708800617
 31
0
  0
LINE
  8
1
 62
2
 10
741.7470232597501
 20
449.0208800617
 30
0
 11
741.2850232597501
 21
449.0208800617
 31
0
  0
LINE
  8
1
 62
2
 10
742.0935232597501
 20
449.1708800617
 30
0
 11
741.7470232597501
 21
449.0208800617
 31
0
  0
LINE
  8
1
 62
2
 10
742.4400232597501
 20
449.4708800617
 30
0
 11
742.0935232597501
 21
449.1708800617
 31
0
  0
LINE
  8
1
 62
2
 10
742.6710232597502
 20
449.9208800617
 30
0
 11
742.4400232597501
 21
449.4708800617
 31
0
  0
LINE
  8
1
 62
2
 10
742.6710232597502
 20
450.5208800617
 30
0
 11
742.6710232597502
 21
449.9208800617
 31
0
  0
LINE
  8
1
 62
2
 10
742.4400232597501
 20
450.9708800617
 30
0
 11
742.6710232597502
 21
450.5208800617
 31
0
  0
LINE
  8
1
 62
2
 10
742.0935232597501
 20
451.2708800617
 30
0
 11
742.4400232597501
 21
450.9708800617
 31
0
  0
LINE
  8
1
 62
2
 10
741.7470232597501
 20
451.4208800617
 30
0
 11
742.0935232597501
 21
451.2708800617
 31
0
  0
LINE
  8
1
 62
2
 10
741.2850232597501
 20
451.4208800617
 30
0
 11
741.7470232597501
 21
451.4208800617
 31
0
  0
LINE
  8
1
 62
2
 10
740.9385232597501
 20
451.2708800617
 30
0
 11
741.2850232597501
 21
451.4208800617
 31
0
  0
LINE
  8
1
 62
2
 10
742.3245232597501
 20
448.7208800617
 30
0
 11
741.7470232597501
 21
449.0208800617
 31
0
  0
LINE
  8
1
 62
2
 10
742.6710232597502
 20
448.2708800617
 30
0
 11
742.3245232597501
 21
448.7208800617
 31
0
  0
LINE
  8
1
 62
2
 10
742.9020232597502
 20
447.6708800617
 30
0
 11
742.6710232597502
 21
448.2708800617
 31
0
  0
LINE
  8
1
 62
2
 10
742.9020232597502
 20
446.7708800617
 30
0
 11
742.9020232597502
 21
447.6708800617
 31
0
  0
LINE
  8
1
 62
2
 10
742.6710232597502
 20
446.1708800617
 30
0
 11
742.9020232597502
 21
446.7708800617
 31
0
  0
LINE
  8
1
 62
2
 10
742.3245232597501
 20
445.7208800617
 30
0
 11
742.6710232597502
 21
446.1708800617
 31
0
  0
LINE
  8
1
 62
2
 10
741.8625232597501
 20
445.4208800617
 30
0
 11
742.3245232597501
 21
445.7208800617
 31
0
  0
LINE
  8
1
 62
2
 10
741.1695232597501
 20
445.4208800617
 30
0
 11
741.8625232597501
 21
445.4208800617
 31
0
  0
LINE
  8
1
 62
2
 10
740.7075232597501
 20
445.7208800617
 30
0
 11
741.1695232597501
 21
445.4208800617
 31
0
  0
LINE
  8
1
 62
2
 10
740.3610232597501
 20
446.1708800617
 30
0
 11
740.7075232597501
 21
445.7208800617
 31
0
  0
LINE
  8
1
 62
2
 10
740.1300232597502
 20
446.7708800617
 30
0
 11
740.3610232597501
 21
446.1708800617
 31
0
  0
LINE
  8
1
 62
2
 10
740.1300232597502
 20
447.6708800617
 30
0
 11
740.1300232597502
 21
446.7708800617
 31
0
  0
LINE
  8
1
 62
2
 10
740.3610232597501
 20
448.2708800617
 30
0
 11
740.1300232597502
 21
447.6708800617
 31
0
  0
LINE
  8
1
 62
2
 10
740.7075232597501
 20
448.7208800617
 30
0
 11
740.3610232597501
 21
448.2708800617
 31
0
  0
LINE
  8
1
 62
2
 10
741.2850232597501
 20
449.0208800617
 30
0
 11
740.7075232597501
 21
448.7208800617
 31
0
  0
LINE
  8
1
 62
2
 10
738.7440232597501
 20
451.4208800617
 30
0
 11
738.7440232597501
 21
445.4208800617
 31
0
  0
LINE
  8
1
 62
2
 10
737.3580232597501
 20
449.6208800617
 30
0
 11
738.7440232597501
 21
451.4208800617
 31
0
  0
LINE
  8
1
 62
2
 10
713.25385860275
 20
445.4208800617
 30
0
 11
713.25385860275
 21
451.4208800617
 31
0
  0
LINE
  8
1
 62
2
 10
714.17785860275
 20
448.4208800617
 30
0
 11
716.4878586027501
 21
445.4208800617
 31
0
  0
LINE
  8
1
 62
2
 10
716.4878586027501
 20
451.4208800617
 30
0
 11
713.25385860275
 21
447.2208800617
 31
0
  0
LINE
  8
1
 62
2
 10
711.8678586027501
 20
449.1708800617
 30
0
 11
711.8678586027501
 21
447.6708800617
 31
0
  0
LINE
  8
1
 62
2
 10
711.7523586027501
 20
450.0708800617
 30
0
 11
711.8678586027501
 21
449.1708800617
 31
0
  0
LINE
  8
1
 62
2
 10
711.5213586027501
 20
450.6708800617
 30
0
 11
711.7523586027501
 21
450.0708800617
 31
0
  0
LINE
  8
1
 62
2
 10
711.29035860275
 20
450.9708800617
 30
0
 11
711.5213586027501
 21
450.6708800617
 31
0
  0
LINE
  8
1
 62
2
 10
710.94385860275
 20
451.2708800617
 30
0
 11
711.29035860275
 21
450.9708800617
 31
0
  0
LINE
  8
1
 62
2
 10
710.59735860275
 20
451.4208800617
 30
0
 11
710.94385860275
 21
451.2708800617
 31
0
  0
LINE
  8
1
 62
2
 10
710.36635860275
 20
451.4208800617
 30
0
 11
710.59735860275
 21
451.4208800617
 31
0
  0
LINE
  8
1
 62
2
 10
710.01985860275
 20
451.2708800617
 30
0
 11
710.36635860275
 21
451.4208800617
 31
0
  0
LINE
  8
1
 62
2
 10
709.67335860275
 20
450.9708800617
 30
0
 11
710.01985860275
 21
451.2708800617
 31
0
  0
LINE
  8
1
 62
2
 10
709.44235860275
 20
450.6708800617
 30
0
 11
709.67335860275
 21
450.9708800617
 31
0
  0
LINE
  8
1
 62
2
 10
709.21135860275
 20
450.0708800617
 30
0
 11
709.44235860275
 21
450.6708800617
 31
0
  0
LINE
  8
1
 62
2
 10
709.09585860275
 20
449.1708800617
 30
0
 11
709.21135860275
 21
450.0708800617
 31
0
  0
LINE
  8
1
 62
2
 10
709.09585860275
 20
447.6708800617
 30
0
 11
709.09585860275
 21
449.1708800617
 31
0
  0
LINE
  8
1
 62
2
 10
709.21135860275
 20
446.7708800617
 30
0
 11
709.09585860275
 21
447.6708800617
 31
0
  0
LINE
  8
1
 62
2
 10
709.44235860275
 20
446.1708800617
 30
0
 11
709.21135860275
 21
446.7708800617
 31
0
  0
LINE
  8
1
 62
2
 10
709.67335860275
 20
445.8708800617
 30
0
 11
709.44235860275
 21
446.1708800617
 31
0
  0
LINE
  8
1
 62
2
 10
710.01985860275
 20
445.5708800617
 30
0
 11
709.67335860275
 21
445.8708800617
 31
0
  0
LINE
  8
1
 62
2
 10
710.36635860275
 20
445.4208800617
 30
0
 11
710.01985860275
 21
445.5708800617
 31
0
  0
LINE
  8
1
 62
2
 10
710.59735860275
 20
445.4208800617
 30
0
 11
710.36635860275
 21
445.4208800617
 31
0
  0
LINE
  8
1
 62
2
 10
710.94385860275
 20
445.5708800617
 30
0
 11
710.59735860275
 21
445.4208800617
 31
0
  0
LINE
  8
1
 62
2
 10
711.29035860275
 20
445.8708800617
 30
0
 11
710.94385860275
 21
445.5708800617
 31
0
  0
LINE
  8
1
 62
2
 10
711.5213586027501
 20
446.1708800617
 30
0
 11
711.29035860275
 21
445.8708800617
 31
0
  0
LINE
  8
1
 62
2
 10
711.7523586027501
 20
446.7708800617
 30
0
 11
711.5213586027501
 21
446.1708800617
 31
0
  0
LINE
  8
1
 62
2
 10
711.8678586027501
 20
447.6708800617
 30
0
 11
711.7523586027501
 21
446.7708800617
 31
0
  0
LINE
  8
1
 62
2
 10
707.7098586027501
 20
451.4208800617
 30
0
 11
707.7098586027501
 21
445.4208800617
 31
0
  0
LINE
  8
1
 62
2
 10
706.3238586027501
 20
449.6208800617
 30
0
 11
707.7098586027501
 21
451.4208800617
 31
0
  0
LINE
  8
1
 62
2
 10
701.9348586027501
 20
445.8708800617
 30
0
 11
701.7038586027501
 21
446.1708800617
 31
0
  0
LINE
  8
1
 62
2
 10
702.3968586027501
 20
445.5708800617
 30
0
 11
701.9348586027501
 21
445.8708800617
 31
0
  0
LINE
  8
1
 62
2
 10
702.97435860275
 20
445.4208800617
 30
0
 11
702.3968586027501
 21
445.5708800617
 31
0
  0
LINE
  8
1
 62
2
 10
703.66735860275
 20
445.4208800617
 30
0
 11
702.97435860275
 21
445.4208800617
 31
0
  0
LINE
  8
1
 62
2
 10
704.2448586027501
 20
445.5708800617
 30
0
 11
703.66735860275
 21
445.4208800617
 31
0
  0
LINE
  8
1
 62
2
 10
704.5913586027501
 20
445.8708800617
 30
0
 11
704.2448586027501
 21
445.5708800617
 31
0
  0
LINE
  8
1
 62
2
 10
704.8223586027501
 20
446.3208800617
 30
0
 11
704.5913586027501
 21
445.8708800617
 31
0
  0
LINE
  8
1
 62
2
 10
704.9378586027501
 20
446.7708800617
 30
0
 11
704.8223586027501
 21
446.3208800617
 31
0
  0
LINE
  8
1
 62
2
 10
704.9378586027501
 20
447.0708800617
 30
0
 11
704.9378586027501
 21
446.7708800617
 31
0
  0
LINE
  8
1
 62
2
 10
704.8223586027501
 20
447.5208800617
 30
0
 11
704.9378586027501
 21
447.0708800617
 31
0
  0
LINE
  8
1
 62
2
 10
704.5913586027501
 20
447.9708800617
 30
0
 11
704.8223586027501
 21
447.5208800617
 31
0
  0
LINE
  8
1
 62
2
 10
704.2448586027501
 20
448.2708800617
 30
0
 11
704.5913586027501
 21
447.9708800617
 31
0
  0
LINE
  8
1
 62
2
 10
702.2813586027501
 20
449.3208800617
 30
0
 11
704.2448586027501
 21
448.2708800617
 31
0
  0
LINE
  8
1
 62
2
 10
701.9348586027501
 20
449.6208800617
 30
0
 11
702.2813586027501
 21
449.3208800617
 31
0
  0
LINE
  8
1
 62
2
 10
701.8193586027501
 20
450.0708800617
 30
0
 11
701.9348586027501
 21
449.6208800617
 31
0
  0
LINE
  8
1
 62
2
 10
701.8193586027501
 20
450.3708800617
 30
0
 11
701.8193586027501
 21
450.0708800617
 31
0
  0
LINE
  8
1
 62
2
 10
701.9348586027501
 20
450.8208800617
 30
0
 11
701.8193586027501
 21
450.3708800617
 31
0
  0
LINE
  8
1
 62
2
 10
702.2813586027501
 20
451.1208800617
 30
0
 11
701.9348586027501
 21
450.8208800617
 31
0
  0
LINE
  8
1
 62
2
 10
702.6278586027501
 20
451.2708800617
 30
0
 11
702.2813586027501
 21
451.1208800617
 31
0
  0
LINE
  8
1
 62
2
 10
703.08985860275
 20
451.4208800617
 30
0
 11
702.6278586027501
 21
451.2708800617
 31
0
  0
LINE
  8
1
 62
2
 10
703.55185860275
 20
451.4208800617
 30
0
 11
703.08985860275
 21
451.4208800617
 31
0
  0
LINE
  8
1
 62
2
 10
704.1293586027501
 20
451.2708800617
 30
0
 11
703.55185860275
 21
451.4208800617
 31
0
  0
LINE
  8
1
 62
2
 10
704.4758586027501
 20
451.1208800617
 30
0
 11
704.1293586027501
 21
451.2708800617
 31
0
  0
LINE
  8
1
 62
2
 10
704.8223586027501
 20
450.8208800617
 30
0
 11
704.4758586027501
 21
451.1208800617
 31
0
  0
LINE
  8
1
 62
2
 10
700.3178586027501
 20
445.4208800617
 30
0
 11
700.3178586027501
 21
451.4208800617
 31
0
  0
LINE
  8
1
 62
2
 10
698.0078586027501
 20
445.4208800617
 30
0
 11
697.0838586027501
 21
445.4208800617
 31
0
  0
LINE
  8
1
 62
2
 10
698.35435860275
 20
445.5708800617
 30
0
 11
698.0078586027501
 21
445.4208800617
 31
0
  0
LINE
  8
1
 62
2
 10
698.70085860275
 20
445.8708800617
 30
0
 11
698.35435860275
 21
445.5708800617
 31
0
  0
LINE
  8
1
 62
2
 10
698.93185860275
 20
446.4708800617
 30
0
 11
698.70085860275
 21
445.8708800617
 31
0
  0
LINE
  8
1
 62
2
 10
698.93185860275
 20
451.4208800617
 30
0
 11
698.93185860275
 21
446.4708800617
 31
0
  0
LINE
  8
1
 62
2
 10
883.4085184295501
 20
456.0208804417
 30
0
 11
882.3690184295501
 21
455.4208804417
 31
0
  0
LINE
  8
1
 62
2
 10
884.2170184295501
 20
456.9208804417
 30
0
 11
883.4085184295501
 21
456.0208804417
 31
0
  0
LINE
  8
1
 62
2
 10
884.5635184295502
 20
457.5208804417
 30
0
 11
884.2170184295501
 21
456.9208804417
 31
0
  0
LINE
  8
1
 62
2
 10
884.6790184295502
 20
458.1208804417
 30
0
 11
884.5635184295502
 21
457.5208804417
 31
0
  0
LINE
  8
1
 62
2
 10
884.7945184295502
 20
458.8708804417
 30
0
 11
884.6790184295502
 21
458.1208804417
 31
0
  0
LINE
  8
1
 62
2
 10
884.7945184295502
 20
459.9208804417
 30
0
 11
884.7945184295502
 21
458.8708804417
 31
0
  0
LINE
  8
1
 62
2
 10
884.6790184295502
 20
460.5208804417
 30
0
 11
884.7945184295502
 21
459.9208804417
 31
0
  0
LINE
  8
1
 62
2
 10
884.4480184295502
 20
460.9708804417
 30
0
 11
884.6790184295502
 21
460.5208804417
 31
0
  0
LINE
  8
1
 62
2
 10
884.1015184295501
 20
461.2708804417
 30
0
 11
884.4480184295502
 21
460.9708804417
 31
0
  0
LINE
  8
1
 62
2
 10
883.7550184295501
 20
461.4208804417
 30
0
 11
884.1015184295501
 21
461.2708804417
 31
0
  0
LINE
  8
1
 62
2
 10
883.0620184295501
 20
461.4208804417
 30
0
 11
883.7550184295501
 21
461.4208804417
 31
0
  0
LINE
  8
1
 62
2
 10
882.7155184295501
 20
461.2708804417
 30
0
 11
883.0620184295501
 21
461.4208804417
 31
0
  0
LINE
  8
1
 62
2
 10
882.3690184295501
 20
460.9708804417
 30
0
 11
882.7155184295501
 21
461.2708804417
 31
0
  0
LINE
  8
1
 62
2
 10
882.1380184295501
 20
460.5208804417
 30
0
 11
882.3690184295501
 21
460.9708804417
 31
0
  0
LINE
  8
1
 62
2
 10
882.0225184295501
 20
459.9208804417
 30
0
 11
882.1380184295501
 21
460.5208804417
 31
0
  0
LINE
  8
1
 62
2
 10
882.0225184295501
 20
459.6208804417
 30
0
 11
882.0225184295501
 21
459.9208804417
 31
0
  0
LINE
  8
1
 62
2
 10
882.1380184295501
 20
459.0208804417
 30
0
 11
882.0225184295501
 21
459.6208804417
 31
0
  0
LINE
  8
1
 62
2
 10
882.3690184295501
 20
458.5708804417
 30
0
 11
882.1380184295501
 21
459.0208804417
 31
0
  0
LINE
  8
1
 62
2
 10
882.7155184295501
 20
458.2708804417
 30
0
 11
882.3690184295501
 21
458.5708804417
 31
0
  0
LINE
  8
1
 62
2
 10
883.0620184295501
 20
458.1208804417
 30
0
 11
882.7155184295501
 21
458.2708804417
 31
0
  0
LINE
  8
1
 62
2
 10
884.6790184295502
 20
458.1208804417
 30
0
 11
883.0620184295501
 21
458.1208804417
 31
0
  0
LINE
  8
1
 62
2
 10
880.6365184295501
 20
461.4208804417
 30
0
 11
880.6365184295501
 21
455.4208804417
 31
0
  0
LINE
  8
1
 62
2
 10
879.2505184295501
 20
459.6208804417
 30
0
 11
880.6365184295501
 21
461.4208804417
 31
0
  0
LINE
  8
1
 62
2
 10
848.0386863413498
 20
457.8208804417
 30
0
 11
848.0386863413498
 21
455.4208804417
 31
0
  0
LINE
  8
1
 62
2
 10
845.9596863413499
 20
456.6208804417
 30
0
 11
848.7316863413499
 21
456.6208804417
 31
0
  0
LINE
  8
1
 62
2
 10
848.0386863413498
 20
461.4208804417
 30
0
 11
845.9596863413499
 21
456.6208804417
 31
0
  0
LINE
  8
1
 62
2
 10
817.13335406995
 20
459.1708804417
 30
0
 11
817.13335406995
 21
457.6708804417
 31
0
  0
LINE
  8
1
 62
2
 10
817.01785406995
 20
460.0708804417
 30
0
 11
817.13335406995
 21
459.1708804417
 31
0
  0
LINE
  8
1
 62
2
 10
816.78685406995
 20
460.6708804417
 30
0
 11
817.01785406995
 21
460.0708804417
 31
0
  0
LINE
  8
1
 62
2
 10
816.5558540699499
 20
460.9708804417
 30
0
 11
816.78685406995
 21
460.6708804417
 31
0
  0
LINE
  8
1
 62
2
 10
816.2093540699499
 20
461.2708804417
 30
0
 11
816.5558540699499
 21
460.9708804417
 31
0
  0
LINE
  8
1
 62
2
 10
815.8628540699499
 20
461.4208804417
 30
0
 11
816.2093540699499
 21
461.2708804417
 31
0
  0
LINE
  8
1
 62
2
 10
815.6318540699499
 20
461.4208804417
 30
0
 11
815.8628540699499
 21
461.4208804417
 31
0
  0
LINE
  8
1
 62
2
 10
815.2853540699499
 20
461.2708804417
 30
0
 11
815.6318540699499
 21
461.4208804417
 31
0
  0
LINE
  8
1
 62
2
 10
814.9388540699499
 20
460.9708804417
 30
0
 11
815.2853540699499
 21
461.2708804417
 31
0
  0
LINE
  8
1
 62
2
 10
814.7078540699499
 20
460.6708804417
 30
0
 11
814.9388540699499
 21
460.9708804417
 31
0
  0
LINE
  8
1
 62
2
 10
814.4768540699499
 20
460.0708804417
 30
0
 11
814.7078540699499
 21
460.6708804417
 31
0
  0
LINE
  8
1
 62
2
 10
814.3613540699499
 20
459.1708804417
 30
0
 11
814.4768540699499
 21
460.0708804417
 31
0
  0
LINE
  8
1
 62
2
 10
814.3613540699499
 20
457.6708804417
 30
0
 11
814.3613540699499
 21
459.1708804417
 31
0
  0
LINE
  8
1
 62
2
 10
814.4768540699499
 20
456.7708804417
 30
0
 11
814.3613540699499
 21
457.6708804417
 31
0
  0
LINE
  8
1
 62
2
 10
814.7078540699499
 20
456.1708804417
 30
0
 11
814.4768540699499
 21
456.7708804417
 31
0
  0
LINE
  8
1
 62
2
 10
814.9388540699499
 20
455.8708804417
 30
0
 11
814.7078540699499
 21
456.1708804417
 31
0
  0
LINE
  8
1
 62
2
 10
815.2853540699499
 20
455.5708804417
 30
0
 11
814.9388540699499
 21
455.8708804417
 31
0
  0
LINE
  8
1
 62
2
 10
815.6318540699499
 20
455.4208804417
 30
0
 11
815.2853540699499
 21
455.5708804417
 31
0
  0
LINE
  8
1
 62
2
 10
815.8628540699499
 20
455.4208804417
 30
0
 11
815.6318540699499
 21
455.4208804417
 31
0
  0
LINE
  8
1
 62
2
 10
816.2093540699499
 20
455.5708804417
 30
0
 11
815.8628540699499
 21
455.4208804417
 31
0
  0
LINE
  8
1
 62
2
 10
816.5558540699499
 20
455.8708804417
 30
0
 11
816.2093540699499
 21
455.5708804417
 31
0
  0
LINE
  8
1
 62
2
 10
816.78685406995
 20
456.1708804417
 30
0
 11
816.5558540699499
 21
455.8708804417
 31
0
  0
LINE
  8
1
 62
2
 10
817.01785406995
 20
456.7708804417
 30
0
 11
816.78685406995
 21
456.1708804417
 31
0
  0
LINE
  8
1
 62
2
 10
817.13335406995
 20
457.6708804417
 30
0
 11
817.01785406995
 21
456.7708804417
 31
0
  0
LINE
  8
1
 62
2
 10
812.9753540699501
 20
459.1708804417
 30
0
 11
812.9753540699501
 21
457.6708804417
 31
0
  0
LINE
  8
1
 62
2
 10
812.8598540699501
 20
460.0708804417
 30
0
 11
812.9753540699501
 21
459.1708804417
 31
0
  0
LINE
  8
1
 62
2
 10
812.6288540699501
 20
460.6708804417
 30
0
 11
812.8598540699501
 21
460.0708804417
 31
0
  0
LINE
  8
1
 62
2
 10
812.39785406995
 20
460.9708804417
 30
0
 11
812.6288540699501
 21
460.6708804417
 31
0
  0
LINE
  8
1
 62
2
 10
812.05135406995
 20
461.2708804417
 30
0
 11
812.39785406995
 21
460.9708804417
 31
0
  0
LINE
  8
1
 62
2
 10
811.70485406995
 20
461.4208804417
 30
0
 11
812.05135406995
 21
461.2708804417
 31
0
  0
LINE
  8
1
 62
2
 10
811.47385406995
 20
461.4208804417
 30
0
 11
811.70485406995
 21
461.4208804417
 31
0
  0
LINE
  8
1
 62
2
 10
811.12735406995
 20
461.2708804417
 30
0
 11
811.47385406995
 21
461.4208804417
 31
0
  0
LINE
  8
1
 62
2
 10
810.78085406995
 20
460.9708804417
 30
0
 11
811.12735406995
 21
461.2708804417
 31
0
  0
LINE
  8
1
 62
2
 10
810.54985406995
 20
460.6708804417
 30
0
 11
810.78085406995
 21
460.9708804417
 31
0
  0
LINE
  8
1
 62
2
 10
810.31885406995
 20
460.0708804417
 30
0
 11
810.54985406995
 21
460.6708804417
 31
0
  0
LINE
  8
1
 62
2
 10
810.20335406995
 20
459.1708804417
 30
0
 11
810.31885406995
 21
460.0708804417
 31
0
  0
LINE
  8
1
 62
2
 10
810.20335406995
 20
457.6708804417
 30
0
 11
810.20335406995
 21
459.1708804417
 31
0
  0
LINE
  8
1
 62
2
 10
810.31885406995
 20
456.7708804417
 30
0
 11
810.20335406995
 21
457.6708804417
 31
0
  0
LINE
  8
1
 62
2
 10
810.54985406995
 20
456.1708804417
 30
0
 11
810.31885406995
 21
456.7708804417
 31
0
  0
LINE
  8
1
 62
2
 10
810.78085406995
 20
455.8708804417
 30
0
 11
810.54985406995
 21
456.1708804417
 31
0
  0
LINE
  8
1
 62
2
 10
811.12735406995
 20
455.5708804417
 30
0
 11
810.78085406995
 21
455.8708804417
 31
0
  0
LINE
  8
1
 62
2
 10
811.47385406995
 20
455.4208804417
 30
0
 11
811.12735406995
 21
455.5708804417
 31
0
  0
LINE
  8
1
 62
2
 10
811.70485406995
 20
455.4208804417
 30
0
 11
811.47385406995
 21
455.4208804417
 31
0
  0
LINE
  8
1
 62
2
 10
812.05135406995
 20
455.5708804417
 30
0
 11
811.70485406995
 21
455.4208804417
 31
0
  0
LINE
  8
1
 62
2
 10
812.39785406995
 20
455.8708804417
 30
0
 11
812.05135406995
 21
455.5708804417
 31
0
  0
LINE
  8
1
 62
2
 10
812.6288540699501
 20
456.1708804417
 30
0
 11
812.39785406995
 21
455.8708804417
 31
0
  0
LINE
  8
1
 62
2
 10
812.8598540699501
 20
456.7708804417
 30
0
 11
812.6288540699501
 21
456.1708804417
 31
0
  0
LINE
  8
1
 62
2
 10
812.9753540699501
 20
457.6708804417
 30
0
 11
812.8598540699501
 21
456.7708804417
 31
0
  0
LINE
  8
1
 62
2
 10
808.8173540699499
 20
461.4208804417
 30
0
 11
808.8173540699499
 21
455.4208804417
 31
0
  0
LINE
  8
1
 62
2
 10
807.43135406995
 20
459.6208804417
 30
0
 11
808.8173540699499
 21
461.4208804417
 31
0
  0
LINE
  8
1
 62
2
 10
781.05718866495
 20
455.4208804417
 30
0
 11
779.32468866495
 21
455.4208804417
 31
0
  0
LINE
  8
1
 62
2
 10
781.40368866495
 20
455.5708804417
 30
0
 11
781.05718866495
 21
455.4208804417
 31
0
  0
LINE
  8
1
 62
2
 10
781.7501886649501
 20
455.8708804417
 30
0
 11
781.40368866495
 21
455.5708804417
 31
0
  0
LINE
  8
1
 62
2
 10
781.9811886649501
 20
456.3208804417
 30
0
 11
781.7501886649501
 21
455.8708804417
 31
0
  0
LINE
  8
1
 62
2
 10
782.0966886649501
 20
456.9208804417
 30
0
 11
781.9811886649501
 21
456.3208804417
 31
0
  0
LINE
  8
1
 62
2
 10
782.0966886649501
 20
457.6708804417
 30
0
 11
782.0966886649501
 21
456.9208804417
 31
0
  0
LINE
  8
1
 62
2
 10
781.9811886649501
 20
458.2708804417
 30
0
 11
782.0966886649501
 21
457.6708804417
 31
0
  0
LINE
  8
1
 62
2
 10
781.8656886649501
 20
458.5708804417
 30
0
 11
781.9811886649501
 21
458.2708804417
 31
0
  0
LINE
  8
1
 62
2
 10
781.63468866495
 20
458.8708804417
 30
0
 11
781.8656886649501
 21
458.5708804417
 31
0
  0
LINE
  8
1
 62
2
 10
781.17268866495
 20
459.0208804417
 30
0
 11
781.63468866495
 21
458.8708804417
 31
0
  0
LINE
  8
1
 62
2
 10
781.51918866495
 20
459.1708804417
 30
0
 11
781.17268866495
 21
459.0208804417
 31
0
  0
LINE
  8
1
 62
2
 10
781.7501886649501
 20
459.3208804417
 30
0
 11
781.51918866495
 21
459.1708804417
 31
0
  0
LINE
  8
1
 62
2
 10
781.9811886649501
 20
459.6208804417
 30
0
 11
781.7501886649501
 21
459.3208804417
 31
0
  0
LINE
  8
1
 62
2
 10
782.0966886649501
 20
460.0708804417
 30
0
 11
781.9811886649501
 21
459.6208804417
 31
0
  0
LINE
  8
1
 62
2
 10
782.0966886649501
 20
460.5208804417
 30
0
 11
782.0966886649501
 21
460.0708804417
 31
0
  0
LINE
  8
1
 62
2
 10
781.9811886649501
 20
460.9708804417
 30
0
 11
782.0966886649501
 21
460.5208804417
 31
0
  0
LINE
  8
1
 62
2
 10
781.63468866495
 20
461.2708804417
 30
0
 11
781.9811886649501
 21
460.9708804417
 31
0
  0
LINE
  8
1
 62
2
 10
781.05718866495
 20
461.4208804417
 30
0
 11
781.63468866495
 21
461.2708804417
 31
0
  0
LINE
  8
1
 62
2
 10
779.32468866495
 20
461.4208804417
 30
0
 11
781.05718866495
 21
461.4208804417
 31
0
  0
LINE
  8
1
 62
2
 10
780.01768866495
 20
459.0208804417
 30
0
 11
781.17268866495
 21
459.0208804417
 31
0
  0
LINE
  8
1
 62
2
 10
777.2456886649501
 20
457.8208804417
 30
0
 11
777.2456886649501
 21
455.4208804417
 31
0
  0
LINE
  8
1
 62
2
 10
775.1666886649501
 20
456.6208804417
 30
0
 11
777.9386886649502
 21
456.6208804417
 31
0
  0
LINE
  8
1
 62
2
 10
777.2456886649501
 20
461.4208804417
 30
0
 11
775.1666886649501
 21
456.6208804417
 31
0
  0
LINE
  8
1
 62
2
 10
773.7806886649501
 20
461.4208804417
 30
0
 11
773.7806886649501
 21
455.4208804417
 31
0
  0
LINE
  8
1
 62
2
 10
772.3946886649501
 20
459.6208804417
 30
0
 11
773.7806886649501
 21
461.4208804417
 31
0
  0
LINE
  8
1
 62
2
 10
745.09652325975
 20
460.0708804417
 30
0
 11
746.36702325975
 21
461.4208804417
 31
0
  0
LINE
  8
1
 62
2
 10
744.63452325975
 20
459.3208804417
 30
0
 11
745.09652325975
 21
460.0708804417
 31
0
  0
LINE
  8
1
 62
2
 10
744.4035232597501
 20
458.7208804417
 30
0
 11
744.63452325975
 21
459.3208804417
 31
0
  0
LINE
  8
1
 62
2
 10
744.2880232597501
 20
457.5208804417
 30
0
 11
744.4035232597501
 21
458.7208804417
 31
0
  0
LINE
  8
1
 62
2
 10
744.2880232597501
 20
456.9208804417
 30
0
 11
744.2880232597501
 21
457.5208804417
 31
0
  0
LINE
  8
1
 62
2
 10
744.4035232597501
 20
456.3208804417
 30
0
 11
744.2880232597501
 21
456.9208804417
 31
0
  0
LINE
  8
1
 62
2
 10
744.63452325975
 20
455.8708804417
 30
0
 11
744.4035232597501
 21
456.3208804417
 31
0
  0
LINE
  8
1
 62
2
 10
744.98102325975
 20
455.5708804417
 30
0
 11
744.63452325975
 21
455.8708804417
 31
0
  0
LINE
  8
1
 62
2
 10
745.32752325975
 20
455.4208804417
 30
0
 11
744.98102325975
 21
455.5708804417
 31
0
  0
LINE
  8
1
 62
2
 10
746.02052325975
 20
455.4208804417
 30
0
 11
745.32752325975
 21
455.4208804417
 31
0
  0
LINE
  8
1
 62
2
 10
746.36702325975
 20
455.5708804417
 30
0
 11
746.02052325975
 21
455.4208804417
 31
0
  0
LINE
  8
1
 62
2
 10
746.7135232597501
 20
455.8708804417
 30
0
 11
746.36702325975
 21
455.5708804417
 31
0
  0
LINE
  8
1
 62
2
 10
746.9445232597501
 20
456.3208804417
 30
0
 11
746.7135232597501
 21
455.8708804417
 31
0
  0
LINE
  8
1
 62
2
 10
747.0600232597501
 20
456.9208804417
 30
0
 11
746.9445232597501
 21
456.3208804417
 31
0
  0
LINE
  8
1
 62
2
 10
747.0600232597501
 20
457.5208804417
 30
0
 11
747.0600232597501
 21
456.9208804417
 31
0
  0
LINE
  8
1
 62
2
 10
746.9445232597501
 20
458.1208804417
 30
0
 11
747.0600232597501
 21
457.5208804417
 31
0
  0
LINE
  8
1
 62
2
 10
746.7135232597501
 20
458.5708804417
 30
0
 11
746.9445232597501
 21
458.1208804417
 31
0
  0
LINE
  8
1
 62
2
 10
746.36702325975
 20
458.8708804417
 30
0
 11
746.7135232597501
 21
458.5708804417
 31
0
  0
LINE
  8
1
 62
2
 10
746.02052325975
 20
459.0208804417
 30
0
 11
746.36702325975
 21
458.8708804417
 31
0
  0
LINE
  8
1
 62
2
 10
745.32752325975
 20
459.0208804417
 30
0
 11
746.02052325975
 21
459.0208804417
 31
0
  0
LINE
  8
1
 62
2
 10
744.98102325975
 20
458.8708804417
 30
0
 11
745.32752325975
 21
459.0208804417
 31
0
  0
LINE
  8
1
 62
2
 10
744.63452325975
 20
458.5708804417
 30
0
 11
744.98102325975
 21
458.8708804417
 31
0
  0
LINE
  8
1
 62
2
 10
744.4035232597501
 20
458.1208804417
 30
0
 11
744.63452325975
 21
458.5708804417
 31
0
  0
LINE
  8
1
 62
2
 10
744.2880232597501
 20
457.5208804417
 30
0
 11
744.4035232597501
 21
458.1208804417
 31
0
  0
LINE
  8
1
 62
2
 10
740.5920232597501
 20
460.9708804417
 30
0
 11
740.9385232597501
 21
461.2708804417
 31
0
  0
LINE
  8
1
 62
2
 10
740.3610232597501
 20
460.5208804417
 30
0
 11
740.5920232597501
 21
460.9708804417
 31
0
  0
LINE
  8
1
 62
2
 10
740.3610232597501
 20
459.9208804417
 30
0
 11
740.3610232597501
 21
460.5208804417
 31
0
  0
LINE
  8
1
 62
2
 10
740.5920232597501
 20
459.4708804417
 30
0
 11
740.3610232597501
 21
459.9208804417
 31
0
  0
LINE
  8
1
 62
2
 10
740.9385232597501
 20
459.1708804417
 30
0
 11
740.5920232597501
 21
459.4708804417
 31
0
  0
LINE
  8
1
 62
2
 10
741.2850232597501
 20
459.0208804417
 30
0
 11
740.9385232597501
 21
459.1708804417
 31
0
  0
LINE
  8
1
 62
2
 10
741.7470232597501
 20
459.0208804417
 30
0
 11
741.2850232597501
 21
459.0208804417
 31
0
  0
LINE
  8
1
 62
2
 10
742.0935232597501
 20
459.1708804417
 30
0
 11
741.7470232597501
 21
459.0208804417
 31
0
  0
LINE
  8
1
 62
2
 10
742.4400232597501
 20
459.4708804417
 30
0
 11
742.0935232597501
 21
459.1708804417
 31
0
  0
LINE
  8
1
 62
2
 10
742.6710232597502
 20
459.9208804417
 30
0
 11
742.4400232597501
 21
459.4708804417
 31
0
  0
LINE
  8
1
 62
2
 10
742.6710232597502
 20
460.5208804417
 30
0
 11
742.6710232597502
 21
459.9208804417
 31
0
  0
LINE
  8
1
 62
2
 10
742.4400232597501
 20
460.9708804417
 30
0
 11
742.6710232597502
 21
460.5208804417
 31
0
  0
LINE
  8
1
 62
2
 10
742.0935232597501
 20
461.2708804417
 30
0
 11
742.4400232597501
 21
460.9708804417
 31
0
  0
LINE
  8
1
 62
2
 10
741.7470232597501
 20
461.4208804417
 30
0
 11
742.0935232597501
 21
461.2708804417
 31
0
  0
LINE
  8
1
 62
2
 10
741.2850232597501
 20
461.4208804417
 30
0
 11
741.7470232597501
 21
461.4208804417
 31
0
  0
LINE
  8
1
 62
2
 10
740.9385232597501
 20
461.2708804417
 30
0
 11
741.2850232597501
 21
461.4208804417
 31
0
  0
LINE
  8
1
 62
2
 10
742.3245232597501
 20
458.7208804417
 30
0
 11
741.7470232597501
 21
459.0208804417
 31
0
  0
LINE
  8
1
 62
2
 10
742.6710232597502
 20
458.2708804417
 30
0
 11
742.3245232597501
 21
458.7208804417
 31
0
  0
LINE
  8
1
 62
2
 10
742.9020232597502
 20
457.6708804417
 30
0
 11
742.6710232597502
 21
458.2708804417
 31
0
  0
LINE
  8
1
 62
2
 10
742.9020232597502
 20
456.7708804417
 30
0
 11
742.9020232597502
 21
457.6708804417
 31
0
  0
LINE
  8
1
 62
2
 10
742.6710232597502
 20
456.1708804417
 30
0
 11
742.9020232597502
 21
456.7708804417
 31
0
  0
LINE
  8
1
 62
2
 10
742.3245232597501
 20
455.7208804417
 30
0
 11
742.6710232597502
 21
456.1708804417
 31
0
  0
LINE
  8
1
 62
2
 10
741.8625232597501
 20
455.4208804417
 30
0
 11
742.3245232597501
 21
455.7208804417
 31
0
  0
LINE
  8
1
 62
2
 10
741.1695232597501
 20
455.4208804417
 30
0
 11
741.8625232597501
 21
455.4208804417
 31
0
  0
LINE
  8
1
 62
2
 10
740.7075232597501
 20
455.7208804417
 30
0
 11
741.1695232597501
 21
455.4208804417
 31
0
  0
LINE
  8
1
 62
2
 10
740.3610232597501
 20
456.1708804417
 30
0
 11
740.7075232597501
 21
455.7208804417
 31
0
  0
LINE
  8
1
 62
2
 10
740.1300232597502
 20
456.7708804417
 30
0
 11
740.3610232597501
 21
456.1708804417
 31
0
  0
LINE
  8
1
 62
2
 10
740.1300232597502
 20
457.6708804417
 30
0
 11
740.1300232597502
 21
456.7708804417
 31
0
  0
LINE
  8
1
 62
2
 10
740.3610232597501
 20
458.2708804417
 30
0
 11
740.1300232597502
 21
457.6708804417
 31
0
  0
LINE
  8
1
 62
2
 10
740.7075232597501
 20
458.7208804417
 30
0
 11
740.3610232597501
 21
458.2708804417
 31
0
  0
LINE
  8
1
 62
2
 10
741.2850232597501
 20
459.0208804417
 30
0
 11
740.7075232597501
 21
458.7208804417
 31
0
  0
LINE
  8
1
 62
2
 10
738.7440232597501
 20
461.4208804417
 30
0
 11
738.7440232597501
 21
455.4208804417
 31
0
  0
LINE
  8
1
 62
2
 10
737.3580232597501
 20
459.6208804417
 30
0
 11
738.7440232597501
 21
461.4208804417
 31
0
  0
LINE
  8
1
 62
2
 10
709.4078777119264
 20
457.0208804417
 30
0
 11
710.3590541825147
 21
455.6208804417
 31
0
  0
LINE
  8
1
 62
2
 10
708.7284659472206
 20
458.6208804417
 30
0
 11
709.4078777119264
 21
457.0208804417
 31
0
  0
LINE
  8
1
 62
2
 10
708.1849365354558
 20
460.8208804417
 30
0
 11
708.7284659472206
 21
458.6208804417
 31
0
  0
LINE
  8
1
 62
2
 10
710.0872894766324
 20
460.8208804417
 30
0
 11
709.0002306531029
 21
458.8208804417
 31
0
  0
LINE
  8
1
 62
2
 10
706.9619953589853
 20
457.2208804417
 30
0
 11
706.1467012413382
 21
455.8208804417
 31
0
  0
LINE
  8
1
 62
2
 10
707.3696424178088
 20
458.6208804417
 30
0
 11
706.9619953589853
 21
457.2208804417
 31
0
  0
LINE
  8
1
 62
2
 10
707.50552477075
 20
460.2208804417
 30
0
 11
707.3696424178088
 21
458.6208804417
 31
0
  0
LINE
  8
1
 62
2
 10
706.1467012413382
 20
460.2208804417
 30
0
 11
707.50552477075
 21
460.2208804417
 31
0
  0
LINE
  8
1
 62
2
 10
708.1849365354558
 20
455.2208804417
 30
0
 11
707.2337600648676
 21
456.0208804417
 31
0
  0
LINE
  8
1
 62
2
 10
708.1849365354558
 20
461.4208804417
 30
0
 11
708.1849365354558
 21
455.2208804417
 31
0
  0
LINE
  8
1
 62
2
 10
700.7114071236912
 20
455.4208804417
 30
0
 11
704.7878777119265
 21
455.4208804417
 31
0
  0
LINE
  8
1
 62
2
 10
702.3419953589853
 20
461.2208804417
 30
0
 11
702.3419953589853
 21
455.4208804417
 31
0
  0
LINE
  8
1
 62
2
 10
702.3419953589853
 20
459.4208804417
 30
0
 11
704.5161130060442
 21
459.4208804417
 31
0
  0
LINE
  8
1
 62
2
 10
890.0345677976911
 20
466.6208808217001
 30
0
 11
889.5725677976911
 21
465.4208808217001
 31
0
  0
LINE
  8
1
 62
2
 10
890.2655677976911
 20
467.8208808217001
 30
0
 11
890.0345677976911
 21
466.6208808217001
 31
0
  0
LINE
  8
1
 62
2
 10
890.2655677976911
 20
469.0208808217001
 30
0
 11
890.2655677976911
 21
467.8208808217001
 31
0
  0
LINE
  8
1
 62
2
 10
890.0345677976911
 20
470.2208808217001
 30
0
 11
890.2655677976911
 21
469.0208808217001
 31
0
  0
LINE
  8
1
 62
2
 10
889.5725677976911
 20
471.4208808217001
 30
0
 11
890.0345677976911
 21
470.2208808217001
 31
0
  0
LINE
  8
1
 62
2
 10
885.3602148565146
 20
465.4208808217001
 30
0
 11
888.3496266212205
 21
465.4208808217001
 31
0
  0
LINE
  8
1
 62
2
 10
886.8549207388676
 20
468.2208808217001
 30
0
 11
886.8549207388676
 21
465.4208808217001
 31
0
  0
LINE
  8
1
 62
2
 10
885.4960972094558
 20
467.2208808217001
 30
0
 11
888.2137442682794
 21
467.2208808217001
 31
0
  0
LINE
  8
1
 62
2
 10
887.3984501506322
 20
468.8208808217001
 30
0
 11
888.3496266212205
 21
468.4208808217001
 31
0
  0
LINE
  8
1
 62
2
 10
886.447273680044
 20
469.6208808217001
 30
0
 11
887.3984501506322
 21
468.8208808217001
 31
0
  0
LINE
  8
1
 62
2
 10
885.7678619153381
 20
470.8208808217001
 30
0
 11
886.447273680044
 21
469.6208808217001
 31
0
  0
LINE
  8
1
 62
2
 10
886.5831560329852
 20
469.0208808217001
 30
0
 11
885.3602148565146
 21
468.4208808217001
 31
0
  0
LINE
  8
1
 62
2
 10
887.5343325035734
 20
470.0208808217001
 30
0
 11
886.5831560329852
 21
469.0208808217001
 31
0
  0
LINE
  8
1
 62
2
 10
888.0778619153382
 20
471.2208808217001
 30
0
 11
887.5343325035734
 21
470.0208808217001
 31
0
  0
LINE
  8
1
 62
2
 10
885.631979562397
 20
471.2208808217001
 30
0
 11
888.0778619153382
 21
471.2208808217001
 31
0
  0
LINE
  8
1
 62
2
 10
884.8166854447499
 20
468.4208808217001
 30
0
 11
884.8166854447499
 21
465.4208808217001
 31
0
  0
LINE
  8
1
 62
2
 10
885.0884501506323
 20
469.6208808217001
 30
0
 11
884.5449207388675
 21
467.2208808217001
 31
0
  0
LINE
  8
1
 62
2
 10
885.0884501506323
 20
471.2208808217001
 30
0
 11
884.5449207388675
 21
469.6208808217001
 31
0
  0
LINE
  8
1
 62
2
 10
882.0990383859264
 20
467.0208808217001
 30
0
 11
882.9143325035735
 21
465.4208808217001
 31
0
  0
LINE
  8
1
 62
2
 10
881.6913913271029
 20
469.2208808217001
 30
0
 11
882.0990383859264
 21
467.0208808217001
 31
0
  0
LINE
  8
1
 62
2
 10
879.9249207388676
 20
469.2208808217001
 30
0
 11
881.6913913271029
 21
469.2208808217001
 31
0
  0
LINE
  8
1
 62
2
 10
879.9249207388676
 20
468.4208808217001
 30
0
 11
878.8378619153382
 21
465.4208808217001
 31
0
  0
LINE
  8
1
 62
2
 10
882.9143325035735
 20
470.6208808217001
 30
0
 11
882.6425677976912
 21
469.2208808217001
 31
0
  0
LINE
  8
1
 62
2
 10
878.8378619153382
 20
470.6208808217001
 30
0
 11
882.9143325035735
 21
470.6208808217001
 31
0
  0
LINE
  8
1
 62
2
 10
878.8378619153382
 20
469.2208808217001
 30
0
 11
878.8378619153382
 21
470.6208808217001
 31
0
  0
LINE
  8
1
 62
2
 10
880.8760972094558
 20
471.4208808217001
 30
0
 11
880.8760972094558
 21
470.6208808217001
 31
0
  0
LINE
  8
1
 62
2
 10
876.8539795623969
 20
466.6208808217001
 30
0
 11
877.3159795623969
 21
465.4208808217001
 31
0
  0
LINE
  8
1
 62
2
 10
876.622979562397
 20
467.8208808217001
 30
0
 11
876.8539795623969
 21
466.6208808217001
 31
0
  0
LINE
  8
1
 62
2
 10
876.622979562397
 20
469.0208808217001
 30
0
 11
876.622979562397
 21
467.8208808217001
 31
0
  0
LINE
  8
1
 62
2
 10
876.8539795623969
 20
470.2208808217001
 30
0
 11
876.622979562397
 21
469.0208808217001
 31
0
  0
LINE
  8
1
 62
2
 10
877.3159795623969
 20
471.4208808217001
 30
0
 11
876.8539795623969
 21
470.2208808217001
 31
0
  0
LINE
  8
1
 62
2
 10
875.236979562397
 20
465.4208808217001
 30
0
 11
875.236979562397
 21
471.4208808217001
 31
0
  0
LINE
  8
1
 62
2
 10
873.5044795623969
 20
465.4208808217001
 30
0
 11
875.236979562397
 21
465.4208808217001
 31
0
  0
LINE
  8
1
 62
2
 10
873.0424795623969
 20
465.5708808217001
 30
0
 11
873.5044795623969
 21
465.4208808217001
 31
0
  0
LINE
  8
1
 62
2
 10
872.8114795623969
 20
465.7208808217001
 30
0
 11
873.0424795623969
 21
465.5708808217001
 31
0
  0
LINE
  8
1
 62
2
 10
872.5804795623969
 20
466.0208808217001
 30
0
 11
872.8114795623969
 21
465.7208808217001
 31
0
  0
LINE
  8
1
 62
2
 10
872.4649795623969
 20
466.6208808217001
 30
0
 11
872.5804795623969
 21
466.0208808217001
 31
0
  0
LINE
  8
1
 62
2
 10
872.4649795623969
 20
468.4208808217001
 30
0
 11
872.4649795623969
 21
466.6208808217001
 31
0
  0
LINE
  8
1
 62
2
 10
872.5804795623969
 20
469.0208808217001
 30
0
 11
872.4649795623969
 21
468.4208808217001
 31
0
  0
LINE
  8
1
 62
2
 10
872.8114795623969
 20
469.3208808217001
 30
0
 11
872.5804795623969
 21
469.0208808217001
 31
0
  0
LINE
  8
1
 62
2
 10
873.0424795623969
 20
469.4708808217001
 30
0
 11
872.8114795623969
 21
469.3208808217001
 31
0
  0
LINE
  8
1
 62
2
 10
873.5044795623969
 20
469.6208808217001
 30
0
 11
873.0424795623969
 21
469.4708808217001
 31
0
  0
LINE
  8
1
 62
2
 10
875.236979562397
 20
469.6208808217001
 30
0
 11
873.5044795623969
 21
469.6208808217001
 31
0
  0
LINE
  8
1
 62
2
 10
869.8832148565147
 20
470.6208808217001
 30
0
 11
868.5243913271029
 21
463.8208808217001
 31
0
  0
LINE
  8
1
 62
2
 10
870.154979562397
 20
469.0208808217001
 30
0
 11
869.6114501506323
 21
469.2208808217001
 31
0
  0
LINE
  8
1
 62
2
 10
870.4267442682793
 20
468.6208808217001
 30
0
 11
870.154979562397
 21
469.0208808217001
 31
0
  0
LINE
  8
1
 62
2
 10
870.5626266212205
 20
468.0208808217001
 30
0
 11
870.4267442682793
 21
468.6208808217001
 31
0
  0
LINE
  8
1
 62
2
 10
870.5626266212205
 20
467.0208808217001
 30
0
 11
870.5626266212205
 21
468.0208808217001
 31
0
  0
LINE
  8
1
 62
2
 10
870.2908619153382
 20
466.2208808217001
 30
0
 11
870.5626266212205
 21
467.0208808217001
 31
0
  0
LINE
  8
1
 62
2
 10
870.0190972094558
 20
465.8208808217001
 30
0
 11
870.2908619153382
 21
466.2208808217001
 31
0
  0
LINE
  8
1
 62
2
 10
869.4755677976912
 20
465.4208808217001
 30
0
 11
870.0190972094558
 21
465.8208808217001
 31
0
  0
LINE
  8
1
 62
2
 10
868.9320383859264
 20
465.2208808217001
 30
0
 11
869.4755677976912
 21
465.4208808217001
 31
0
  0
LINE
  8
1
 62
2
 10
868.5243913271029
 20
465.4208808217001
 30
0
 11
868.9320383859264
 21
465.2208808217001
 31
0
  0
LINE
  8
1
 62
2
 10
868.1167442682794
 20
465.8208808217001
 30
0
 11
868.5243913271029
 21
465.4208808217001
 31
0
  0
LINE
  8
1
 62
2
 10
867.9808619153382
 20
466.4208808217001
 30
0
 11
868.1167442682794
 21
465.8208808217001
 31
0
  0
LINE
  8
1
 62
2
 10
867.9808619153382
 20
467.2208808217001
 30
0
 11
867.9808619153382
 21
466.4208808217001
 31
0
  0
LINE
  8
1
 62
2
 10
868.1167442682794
 20
467.8208808217001
 30
0
 11
867.9808619153382
 21
467.2208808217001
 31
0
  0
LINE
  8
1
 62
2
 10
868.5243913271029
 20
468.4208808217001
 30
0
 11
868.1167442682794
 21
467.8208808217001
 31
0
  0
LINE
  8
1
 62
2
 10
868.9320383859264
 20
468.8208808217001
 30
0
 11
868.5243913271029
 21
468.4208808217001
 31
0
  0
LINE
  8
1
 62
2
 10
869.6114501506323
 20
469.2208808217001
 30
0
 11
868.9320383859264
 21
468.8208808217001
 31
0
  0
LINE
  8
1
 62
2
 10
851.110647424597
 20
466.6208808217001
 30
0
 11
850.648647424597
 21
465.4208808217001
 31
0
  0
LINE
  8
1
 62
2
 10
851.341647424597
 20
467.8208808217001
 30
0
 11
851.110647424597
 21
466.6208808217001
 31
0
  0
LINE
  8
1
 62
2
 10
851.341647424597
 20
469.0208808217001
 30
0
 11
851.341647424597
 21
467.8208808217001
 31
0
  0
LINE
  8
1
 62
2
 10
851.110647424597
 20
470.2208808217001
 30
0
 11
851.341647424597
 21
469.0208808217001
 31
0
  0
LINE
  8
1
 62
2
 10
850.648647424597
 20
471.4208808217001
 30
0
 11
851.110647424597
 21
470.2208808217001
 31
0
  0
LINE
  8
1
 62
2
 10
848.7462944834205
 20
466.8208808217001
 30
0
 11
849.4257062481264
 21
465.6208808217001
 31
0
  0
LINE
  8
1
 62
2
 10
848.2027650716558
 20
468.2208808217001
 30
0
 11
848.7462944834205
 21
466.8208808217001
 31
0
  0
LINE
  8
1
 62
2
 10
847.9310003657735
 20
469.8208808217001
 30
0
 11
848.2027650716558
 21
468.2208808217001
 31
0
  0
LINE
  8
1
 62
2
 10
848.0668827187146
 20
466.8208808217001
 30
0
 11
847.2515886010675
 21
465.4208808217001
 31
0
  0
LINE
  8
1
 62
2
 10
848.7462944834205
 20
468.4208808217001
 30
0
 11
848.0668827187146
 21
466.8208808217001
 31
0
  0
LINE
  8
1
 62
2
 10
849.0180591893028
 20
470.4208808217001
 30
0
 11
848.7462944834205
 21
468.4208808217001
 31
0
  0
LINE
  8
1
 62
2
 10
848.0668827187146
 20
470.4208808217001
 30
0
 11
849.4257062481264
 21
470.4208808217001
 31
0
  0
LINE
  8
1
 62
2
 10
847.9310003657735
 20
469.8208808217001
 30
0
 11
847.5233533069498
 21
468.6208808217001
 31
0
  0
LINE
  8
1
 62
2
 10
848.0668827187146
 20
470.4208808217001
 30
0
 11
847.9310003657735
 21
469.8208808217001
 31
0
  0
LINE
  8
1
 62
2
 10
848.0668827187146
 20
471.4208808217001
 30
0
 11
848.0668827187146
 21
470.4208808217001
 31
0
  0
LINE
  8
1
 62
2
 10
845.3492356598911
 20
467.8208808217001
 30
0
 11
847.6592356598911
 21
467.8208808217001
 31
0
  0
LINE
  8
1
 62
2
 10
846.5721768363617
 20
466.4208808217001
 30
0
 11
845.4851180128322
 21
465.4208808217001
 31
0
  0
LINE
  8
1
 62
2
 10
847.2515886010675
 20
467.8208808217001
 30
0
 11
846.5721768363617
 21
466.4208808217001
 31
0
  0
LINE
  8
1
 62
2
 10
845.6210003657734
 20
466.8208808217001
 30
0
 11
847.2515886010675
 21
466.0208808217001
 31
0
  0
LINE
  8
1
 62
2
 10
846.3004121304793
 20
468.2208808217001
 30
0
 11
845.6210003657734
 21
466.8208808217001
 31
0
  0
LINE
  8
1
 62
2
 10
846.4362944834205
 20
470.2208808217001
 30
0
 11
847.3874709540087
 21
468.8208808217001
 31
0
  0
LINE
  8
1
 62
2
 10
846.4362944834205
 20
470.2208808217001
 30
0
 11
845.3492356598911
 21
468.4208808217001
 31
0
  0
LINE
  8
1
 62
2
 10
846.4362944834205
 20
471.4208808217001
 30
0
 11
846.4362944834205
 21
468.6208808217001
 31
0
  0
LINE
  8
1
 62
2
 10
845.3492356598911
 20
470.2208808217001
 30
0
 11
847.5233533069498
 21
470.2208808217001
 31
0
  0
LINE
  8
1
 62
2
 10
847.3874709540087
 20
471.0208808217001
 30
0
 11
846.843941542244
 21
470.4208808217001
 31
0
  0
LINE
  8
1
 62
2
 10
845.6210003657734
 20
471.0208808217001
 30
0
 11
846.028647424597
 21
470.4208808217001
 31
0
  0
LINE
  8
1
 62
2
 10
843.3653533069499
 20
466.6208808217001
 30
0
 11
843.8273533069499
 21
465.4208808217001
 31
0
  0
LINE
  8
1
 62
2
 10
843.13435330695
 20
467.8208808217001
 30
0
 11
843.3653533069499
 21
466.6208808217001
 31
0
  0
LINE
  8
1
 62
2
 10
843.13435330695
 20
469.0208808217001
 30
0
 11
843.13435330695
 21
467.8208808217001
 31
0
  0
LINE
  8
1
 62
2
 10
843.3653533069499
 20
470.2208808217001
 30
0
 11
843.13435330695
 21
469.0208808217001
 31
0
  0
LINE
  8
1
 62
2
 10
843.8273533069499
 20
471.4208808217001
 30
0
 11
843.3653533069499
 21
470.2208808217001
 31
0
  0
LINE
  8
1
 62
2
 10
841.74835330695
 20
468.8708808217001
 30
0
 11
841.74835330695
 21
465.4208808217001
 31
0
  0
LINE
  8
1
 62
2
 10
841.63285330695
 20
469.1708808217001
 30
0
 11
841.74835330695
 21
468.8708808217001
 31
0
  0
LINE
  8
1
 62
2
 10
841.40185330695
 20
469.4708808217001
 30
0
 11
841.63285330695
 21
469.1708808217001
 31
0
  0
LINE
  8
1
 62
2
 10
841.0553533069499
 20
469.6208808217001
 30
0
 11
841.40185330695
 21
469.4708808217001
 31
0
  0
LINE
  8
1
 62
2
 10
838.9763533069499
 20
469.6208808217001
 30
0
 11
841.0553533069499
 21
469.6208808217001
 31
0
  0
LINE
  8
1
 62
2
 10
838.9763533069499
 20
465.4208808217001
 30
0
 11
838.9763533069499
 21
469.6208808217001
 31
0
  0
LINE
  8
1
 62
2
 10
874.6676758901617
 20
476.3285124517
 30
0
 11
875.4829700078088
 21
474.7285124517
 31
0
  0
LINE
  8
1
 62
2
 10
874.2600288313382
 20
478.5285124517
 30
0
 11
874.6676758901617
 21
476.3285124517
 31
0
  0
LINE
  8
1
 62
2
 10
872.4935582431029
 20
478.5285124517
 30
0
 11
874.2600288313382
 21
478.5285124517
 31
0
  0
LINE
  8
1
 62
2
 10
872.4935582431029
 20
477.7285124517
 30
0
 11
871.4064994195735
 21
474.7285124517
 31
0
  0
LINE
  8
1
 62
2
 10
875.4829700078088
 20
479.9285124517
 30
0
 11
875.2112053019265
 21
478.5285124517
 31
0
  0
LINE
  8
1
 62
2
 10
871.4064994195735
 20
479.9285124517
 30
0
 11
875.4829700078088
 21
479.9285124517
 31
0
  0
LINE
  8
1
 62
2
 10
871.4064994195735
 20
478.5285124517
 30
0
 11
871.4064994195735
 21
479.9285124517
 31
0
  0
LINE
  8
1
 62
2
 10
873.4447347136911
 20
480.7285124517
 30
0
 11
873.4447347136911
 21
479.9285124517
 31
0
  0
LINE
  8
1
 62
2
 10
867.4659111842794
 20
478.3285124517
 30
0
 11
869.3682641254559
 21
477.1285124517
 31
0
  0
LINE
  8
1
 62
2
 10
867.4659111842794
 20
480.3285124517
 30
0
 11
867.4659111842794
 21
475.3285124517
 31
0
  0
LINE
  8
1
 62
2
 10
864.2047347136911
 20
476.9285124517
 30
0
 11
864.4764994195735
 21
477.7285124517
 31
0
  0
LINE
  8
1
 62
2
 10
863.7970876548676
 20
476.1285124517
 30
0
 11
864.2047347136911
 21
476.9285124517
 31
0
  0
LINE
  8
1
 62
2
 10
862.9817935372206
 20
475.7285124517
 30
0
 11
863.7970876548676
 21
476.1285124517
 31
0
  0
LINE
  8
1
 62
2
 10
862.9817935372206
 20
479.7285124517
 30
0
 11
862.9817935372206
 21
475.7285124517
 31
0
  0
LINE
  8
1
 62
2
 10
861.4870876548677
 20
476.5285124517
 30
0
 11
860.8076758901617
 21
475.5285124517
 31
0
  0
LINE
  8
1
 62
2
 10
861.75885236075
 20
477.5285124517
 30
0
 11
861.4870876548677
 21
476.5285124517
 31
0
  0
LINE
  8
1
 62
2
 10
861.75885236075
 20
479.5285124517
 30
0
 11
861.75885236075
 21
477.5285124517
 31
0
  0
LINE
  8
1
 62
2
 10
858.9053229489854
 20
480.7285124517
 30
0
 11
859.1770876548677
 21
479.9285124517
 31
0
  0
LINE
  8
1
 62
2
 10
858.3617935372206
 20
480.7285124517
 30
0
 11
858.6335582431029
 21
479.9285124517
 31
0
  0
LINE
  8
1
 62
2
 10
858.2259111842794
 20
477.5285124517
 30
0
 11
858.9053229489854
 21
475.7285124517
 31
0
  0
LINE
  8
1
 62
2
 10
856.1876758901618
 20
477.5285124517
 30
0
 11
855.5082641254559
 21
475.7285124517
 31
0
  0
LINE
  8
1
 62
2
 10
857.2747347136912
 20
480.3285124517
 30
0
 11
857.2747347136912
 21
475.1285124517
 31
0
  0
LINE
  8
1
 62
2
 10
855.644146478397
 20
478.9285124517
 30
0
 11
858.9053229489854
 21
478.9285124517
 31
0
  0
LINE
  8
1
 62
2
 10
815.52968761955
 20
470.4208810117001
 30
0
 11
813.7971876195501
 21
470.4208810117001
 31
0
  0
LINE
  8
1
 62
2
 10
815.87618761955
 20
470.5708810117001
 30
0
 11
815.52968761955
 21
470.4208810117001
 31
0
  0
LINE
  8
1
 62
2
 10
816.2226876195501
 20
470.8708810117001
 30
0
 11
815.87618761955
 21
470.5708810117001
 31
0
  0
LINE
  8
1
 62
2
 10
816.4536876195501
 20
471.3208810117001
 30
0
 11
816.2226876195501
 21
470.8708810117001
 31
0
  0
LINE
  8
1
 62
2
 10
816.5691876195501
 20
471.9208810117001
 30
0
 11
816.4536876195501
 21
471.3208810117001
 31
0
  0
LINE
  8
1
 62
2
 10
816.5691876195501
 20
472.6708810117001
 30
0
 11
816.5691876195501
 21
471.9208810117001
 31
0
  0
LINE
  8
1
 62
2
 10
816.4536876195501
 20
473.2708810117001
 30
0
 11
816.5691876195501
 21
472.6708810117001
 31
0
  0
LINE
  8
1
 62
2
 10
816.3381876195501
 20
473.5708810117001
 30
0
 11
816.4536876195501
 21
473.2708810117001
 31
0
  0
LINE
  8
1
 62
2
 10
816.10718761955
 20
473.8708810117001
 30
0
 11
816.3381876195501
 21
473.5708810117001
 31
0
  0
LINE
  8
1
 62
2
 10
815.64518761955
 20
474.0208810117001
 30
0
 11
816.10718761955
 21
473.8708810117001
 31
0
  0
LINE
  8
1
 62
2
 10
815.99168761955
 20
474.1708810117001
 30
0
 11
815.64518761955
 21
474.0208810117001
 31
0
  0
LINE
  8
1
 62
2
 10
816.2226876195501
 20
474.3208810117001
 30
0
 11
815.99168761955
 21
474.1708810117001
 31
0
  0
LINE
  8
1
 62
2
 10
816.4536876195501
 20
474.6208810117001
 30
0
 11
816.2226876195501
 21
474.3208810117001
 31
0
  0
LINE
  8
1
 62
2
 10
816.5691876195501
 20
475.0708810117001
 30
0
 11
816.4536876195501
 21
474.6208810117001
 31
0
  0
LINE
  8
1
 62
2
 10
816.5691876195501
 20
475.5208810117001
 30
0
 11
816.5691876195501
 21
475.0708810117001
 31
0
  0
LINE
  8
1
 62
2
 10
816.4536876195501
 20
475.9708810117001
 30
0
 11
816.5691876195501
 21
475.5208810117001
 31
0
  0
LINE
  8
1
 62
2
 10
816.10718761955
 20
476.2708810117001
 30
0
 11
816.4536876195501
 21
475.9708810117001
 31
0
  0
LINE
  8
1
 62
2
 10
815.52968761955
 20
476.4208810117001
 30
0
 11
816.10718761955
 21
476.2708810117001
 31
0
  0
LINE
  8
1
 62
2
 10
813.7971876195501
 20
476.4208810117001
 30
0
 11
815.52968761955
 21
476.4208810117001
 31
0
  0
LINE
  8
1
 62
2
 10
814.4901876195501
 20
474.0208810117001
 30
0
 11
815.64518761955
 21
474.0208810117001
 31
0
  0
LINE
  8
1
 62
2
 10
812.2956876195501
 20
475.2208810117001
 30
0
 11
812.4111876195501
 21
474.6208810117001
 31
0
  0
LINE
  8
1
 62
2
 10
812.0646876195501
 20
475.6708810117001
 30
0
 11
812.2956876195501
 21
475.2208810117001
 31
0
  0
LINE
  8
1
 62
2
 10
811.8336876195501
 20
475.9708810117001
 30
0
 11
812.0646876195501
 21
475.6708810117001
 31
0
  0
LINE
  8
1
 62
2
 10
811.48718761955
 20
476.2708810117001
 30
0
 11
811.8336876195501
 21
475.9708810117001
 31
0
  0
LINE
  8
1
 62
2
 10
811.02518761955
 20
476.4208810117001
 30
0
 11
811.48718761955
 21
476.2708810117001
 31
0
  0
LINE
  8
1
 62
2
 10
809.1771876195501
 20
476.4208810117001
 30
0
 11
811.02518761955
 21
476.4208810117001
 31
0
  0
LINE
  8
1
 62
2
 10
809.1771876195501
 20
470.4208810117001
 30
0
 11
809.1771876195501
 21
476.4208810117001
 31
0
  0
LINE
  8
1
 62
2
 10
811.02518761955
 20
470.4208810117001
 30
0
 11
809.1771876195501
 21
470.4208810117001
 31
0
  0
LINE
  8
1
 62
2
 10
811.48718761955
 20
470.5708810117001
 30
0
 11
811.02518761955
 21
470.4208810117001
 31
0
  0
LINE
  8
1
 62
2
 10
811.8336876195501
 20
470.8708810117001
 30
0
 11
811.48718761955
 21
470.5708810117001
 31
0
  0
LINE
  8
1
 62
2
 10
812.0646876195501
 20
471.1708810117001
 30
0
 11
811.8336876195501
 21
470.8708810117001
 31
0
  0
LINE
  8
1
 62
2
 10
812.2956876195501
 20
471.6208810117001
 30
0
 11
812.0646876195501
 21
471.1708810117001
 31
0
  0
LINE
  8
1
 62
2
 10
812.4111876195501
 20
472.2208810117001
 30
0
 11
812.2956876195501
 21
471.6208810117001
 31
0
  0
LINE
  8
1
 62
2
 10
812.4111876195501
 20
474.6208810117001
 30
0
 11
812.4111876195501
 21
472.2208810117001
 31
0
  0
LINE
  8
1
 62
2
 10
778.76052221455
 20
470.4208810117001
 30
0
 11
781.53252221455
 21
470.4208810117001
 31
0
  0
LINE
  8
1
 62
2
 10
781.30152221455
 20
474.3208810117001
 30
0
 11
778.76052221455
 21
470.4208810117001
 31
0
  0
LINE
  8
1
 62
2
 10
781.53252221455
 20
474.9208810117001
 30
0
 11
781.30152221455
 21
474.3208810117001
 31
0
  0
LINE
  8
1
 62
2
 10
781.53252221455
 20
475.5208810117001
 30
0
 11
781.53252221455
 21
474.9208810117001
 31
0
  0
LINE
  8
1
 62
2
 10
781.30152221455
 20
475.9708810117001
 30
0
 11
781.53252221455
 21
475.5208810117001
 31
0
  0
LINE
  8
1
 62
2
 10
780.9550222145499
 20
476.2708810117001
 30
0
 11
781.30152221455
 21
475.9708810117001
 31
0
  0
LINE
  8
1
 62
2
 10
780.4930222145499
 20
476.4208810117001
 30
0
 11
780.9550222145499
 21
476.2708810117001
 31
0
  0
LINE
  8
1
 62
2
 10
779.8000222145499
 20
476.4208810117001
 30
0
 11
780.4930222145499
 21
476.4208810117001
 31
0
  0
LINE
  8
1
 62
2
 10
779.3380222145499
 20
476.2708810117001
 30
0
 11
779.8000222145499
 21
476.4208810117001
 31
0
  0
LINE
  8
1
 62
2
 10
778.99152221455
 20
475.9708810117001
 30
0
 11
779.3380222145499
 21
476.2708810117001
 31
0
  0
LINE
  8
1
 62
2
 10
778.76052221455
 20
475.5208810117001
 30
0
 11
778.99152221455
 21
475.9708810117001
 31
0
  0
LINE
  8
1
 62
2
 10
777.25902221455
 20
475.2208810117001
 30
0
 11
777.37452221455
 21
474.6208810117001
 31
0
  0
LINE
  8
1
 62
2
 10
777.02802221455
 20
475.6708810117001
 30
0
 11
777.25902221455
 21
475.2208810117001
 31
0
  0
LINE
  8
1
 62
2
 10
776.79702221455
 20
475.9708810117001
 30
0
 11
777.02802221455
 21
475.6708810117001
 31
0
  0
LINE
  8
1
 62
2
 10
776.4505222145499
 20
476.2708810117001
 30
0
 11
776.79702221455
 21
475.9708810117001
 31
0
  0
LINE
  8
1
 62
2
 10
775.9885222145499
 20
476.4208810117001
 30
0
 11
776.4505222145499
 21
476.2708810117001
 31
0
  0
LINE
  8
1
 62
2
 10
774.14052221455
 20
476.4208810117001
 30
0
 11
775.9885222145499
 21
476.4208810117001
 31
0
  0
LINE
  8
1
 62
2
 10
774.14052221455
 20
470.4208810117001
 30
0
 11
774.14052221455
 21
476.4208810117001
 31
0
  0
LINE
  8
1
 62
2
 10
775.9885222145499
 20
470.4208810117001
 30
0
 11
774.14052221455
 21
470.4208810117001
 31
0
  0
LINE
  8
1
 62
2
 10
776.4505222145499
 20
470.5708810117001
 30
0
 11
775.9885222145499
 21
470.4208810117001
 31
0
  0
LINE
  8
1
 62
2
 10
776.79702221455
 20
470.8708810117001
 30
0
 11
776.4505222145499
 21
470.5708810117001
 31
0
  0
LINE
  8
1
 62
2
 10
777.02802221455
 20
471.1708810117001
 30
0
 11
776.79702221455
 21
470.8708810117001
 31
0
  0
LINE
  8
1
 62
2
 10
777.25902221455
 20
471.6208810117001
 30
0
 11
777.02802221455
 21
471.1708810117001
 31
0
  0
LINE
  8
1
 62
2
 10
777.37452221455
 20
472.2208810117001
 30
0
 11
777.25902221455
 21
471.6208810117001
 31
0
  0
LINE
  8
1
 62
2
 10
777.37452221455
 20
474.6208810117001
 30
0
 11
777.37452221455
 21
472.2208810117001
 31
0
  0
LINE
  8
1
 62
2
 10
745.10985680955
 20
476.4208810117001
 30
0
 11
745.10985680955
 21
470.4208810117001
 31
0
  0
LINE
  8
1
 62
2
 10
743.7238568095501
 20
474.6208810117001
 30
0
 11
745.10985680955
 21
476.4208810117001
 31
0
  0
LINE
  8
1
 62
2
 10
742.2223568095501
 20
475.2208810117001
 30
0
 11
742.3378568095501
 21
474.6208810117001
 31
0
  0
LINE
  8
1
 62
2
 10
741.9913568095501
 20
475.6708810117001
 30
0
 11
742.2223568095501
 21
475.2208810117001
 31
0
  0
LINE
  8
1
 62
2
 10
741.7603568095501
 20
475.9708810117001
 30
0
 11
741.9913568095501
 21
475.6708810117001
 31
0
  0
LINE
  8
1
 62
2
 10
741.41385680955
 20
476.2708810117001
 30
0
 11
741.7603568095501
 21
475.9708810117001
 31
0
  0
LINE
  8
1
 62
2
 10
740.95185680955
 20
476.4208810117001
 30
0
 11
741.41385680955
 21
476.2708810117001
 31
0
  0
LINE
  8
1
 62
2
 10
739.1038568095501
 20
476.4208810117001
 30
0
 11
740.95185680955
 21
476.4208810117001
 31
0
  0
LINE
  8
1
 62
2
 10
739.1038568095501
 20
470.4208810117001
 30
0
 11
739.1038568095501
 21
476.4208810117001
 31
0
  0
LINE
  8
1
 62
2
 10
740.95185680955
 20
470.4208810117001
 30
0
 11
739.1038568095501
 21
470.4208810117001
 31
0
  0
LINE
  8
1
 62
2
 10
741.41385680955
 20
470.5708810117001
 30
0
 11
740.95185680955
 21
470.4208810117001
 31
0
  0
LINE
  8
1
 62
2
 10
741.7603568095501
 20
470.8708810117001
 30
0
 11
741.41385680955
 21
470.5708810117001
 31
0
  0
LINE
  8
1
 62
2
 10
741.9913568095501
 20
471.1708810117001
 30
0
 11
741.7603568095501
 21
470.8708810117001
 31
0
  0
LINE
  8
1
 62
2
 10
742.2223568095501
 20
471.6208810117001
 30
0
 11
741.9913568095501
 21
471.1708810117001
 31
0
  0
LINE
  8
1
 62
2
 10
742.3378568095501
 20
472.2208810117001
 30
0
 11
742.2223568095501
 21
471.6208810117001
 31
0
  0
LINE
  8
1
 62
2
 10
742.3378568095501
 20
474.6208810117001
 30
0
 11
742.3378568095501
 21
472.2208810117001
 31
0
  0
LINE
  8
0
 62
7
 10
444.9447948174
 20
276.7691580407
 30
0
 11
444.9447948174
 21
285.9206540338
 31
0
  0
LINE
  8
1
 62
2
 10
437.6981895732004
 20
61.09046104454
 30
0
 11
437.2907312398645
 21
60.0321277112
 31
0
  0
LINE
  8
1
 62
2
 10
437.9019187398683
 20
62.14879437787999
 30
0
 11
437.6981895732004
 21
61.09046104454
 31
0
  0
LINE
  8
1
 62
2
 10
437.9019187398683
 20
63.20712771122
 30
0
 11
437.9019187398683
 21
62.14879437787999
 31
0
  0
LINE
  8
1
 62
2
 10
437.6981895732004
 20
64.26546104456
 30
0
 11
437.9019187398683
 21
63.20712771122
 31
0
  0
LINE
  8
1
 62
2
 10
437.2907312398645
 20
65.3237943779
 30
0
 11
437.6981895732004
 21
64.26546104456
 31
0
  0
LINE
  8
1
 62
2
 10
435.7328023182861
 20
60.0321277112
 30
0
 11
434.8939175143592
 21
60.56129437787
 31
0
  0
LINE
  8
1
 62
2
 10
435.7328023182861
 20
63.38351660011
 30
0
 11
435.7328023182861
 21
60.0321277112
 31
0
  0
LINE
  8
1
 62
2
 10
434.6542361418087
 20
63.38351660011
 30
0
 11
436.2121650633871
 21
63.38351660011
 31
0
  0
LINE
  8
1
 62
2
 10
434.6542361418087
 20
64.97101660012
 30
0
 11
436.0923243771118
 21
64.97101660012
 31
0
  0
LINE
  8
1
 62
2
 10
434.1748733967076
 20
62.85434993344
 30
0
 11
434.1748733967076
 21
60.0321277112
 31
0
  0
LINE
  8
1
 62
2
 10
434.5343954555334
 20
63.91268326678
 30
0
 11
433.8153513378818
 21
61.7960166001
 31
0
  0
LINE
  8
1
 62
2
 10
434.4145547692581
 20
65.3237943779
 30
0
 11
433.8153513378818
 21
63.559905489
 31
0
  0
LINE
  8
1
 62
2
 10
433.2161479065055
 20
64.08907215567
 30
0
 11
433.8153513378818
 21
62.14879437787999
 31
0
  0
LINE
  8
1
 62
2
 10
433.2161479065055
 20
64.08907215567
 30
0
 11
432.6169444751292
 21
61.61962771121
 31
0
  0
LINE
  8
1
 62
2
 10
433.2161479065055
 20
65.3237943779
 30
0
 11
433.2161479065055
 21
60.0321277112
 31
0
  0
LINE
  8
1
 62
2
 10
432.6169444751292
 20
64.08907215567
 30
0
 11
433.8153513378818
 21
64.08907215567
 31
0
  0
LINE
  8
1
 62
2
 10
428.422520455495
 20
60.0321277112
 30
0
 11
431.0590155535508
 21
60.0321277112
 31
0
  0
LINE
  8
1
 62
2
 10
428.6622018280455
 20
60.91407215565
 30
0
 11
428.422520455495
 21
60.0321277112
 31
0
  0
LINE
  8
1
 62
2
 10
428.901883200596
 20
61.44323882232
 30
0
 11
428.6622018280455
 21
60.91407215565
 31
0
  0
LINE
  8
1
 62
2
 10
429.3812459456971
 20
61.97240548899
 30
0
 11
428.901883200596
 21
61.44323882232
 31
0
  0
LINE
  8
1
 62
2
 10
429.8606086907981
 20
62.32518326677
 30
0
 11
429.3812459456971
 21
61.97240548899
 31
0
  0
LINE
  8
1
 62
2
 10
430.4598121221745
 20
62.85434993344
 30
0
 11
429.8606086907981
 21
62.32518326677
 31
0
  0
LINE
  8
1
 62
2
 10
430.8193341810003
 20
63.559905489
 30
0
 11
430.4598121221745
 21
62.85434993344
 31
0
  0
LINE
  8
1
 62
2
 10
430.9391748672755
 20
64.26546104456
 30
0
 11
430.8193341810003
 21
63.559905489
 31
0
  0
LINE
  8
1
 62
2
 10
430.4598121221745
 20
64.97101660012
 30
0
 11
430.9391748672755
 21
64.26546104456
 31
0
  0
LINE
  8
1
 62
2
 10
429.7407680045229
 20
65.3237943779
 30
0
 11
430.4598121221745
 21
64.97101660012
 31
0
  0
LINE
  8
1
 62
2
 10
429.0217238868713
 20
64.97101660012
 30
0
 11
429.7407680045229
 21
65.3237943779
 31
0
  0
LINE
  8
1
 62
2
 10
428.5423611417702
 20
64.26546104456
 30
0
 11
429.0217238868713
 21
64.97101660012
 31
0
  0
LINE
  8
1
 62
2
 10
424.827299867237
 20
64.08907215567
 30
0
 11
426.5050694750907
 21
62.32518326677
 31
0
  0
LINE
  8
1
 62
2
 10
424.827299867237
 20
65.3237943779
 30
0
 11
424.827299867237
 21
60.0321277112
 31
0
  0
LINE
  8
1
 62
2
 10
423.029689573108
 20
65.3237943779
 30
0
 11
426.624910161366
 21
65.3237943779
 31
0
  0
LINE
  8
1
 62
2
 10
419.0749469260243
 20
60.73768326675999
 30
0
 11
419.0749469260243
 21
60.91407215565
 31
0
  0
LINE
  8
1
 62
2
 10
419.0749469260243
 20
60.91407215565
 30
0
 11
421.5916013378049
 21
60.91407215565
 31
0
  0
LINE
  8
1
 62
2
 10
421.5916013378049
 20
60.0321277112
 30
0
 11
419.0749469260243
 21
60.0321277112
 31
0
  0
LINE
  8
1
 62
2
 10
421.5916013378049
 20
61.7960166001
 30
0
 11
421.5916013378049
 21
60.0321277112
 31
0
  0
LINE
  8
1
 62
2
 10
419.0749469260243
 20
61.7960166001
 30
0
 11
421.5916013378049
 21
61.7960166001
 31
0
  0
LINE
  8
1
 62
2
 10
419.0749469260243
 20
60.0321277112
 30
0
 11
419.0749469260243
 21
61.7960166001
 31
0
  0
LINE
  8
1
 62
2
 10
421.1122385927038
 20
64.26546104456
 30
0
 11
421.9511233966306
 21
62.50157215566
 31
0
  0
LINE
  8
1
 62
2
 10
421.1122385927038
 20
64.26546104456
 30
0
 11
420.3931944750522
 21
62.50157215566
 31
0
  0
LINE
  8
1
 62
2
 10
421.1122385927038
 20
64.97101660012
 30
0
 11
421.1122385927038
 21
62.32518326677
 31
0
  0
LINE
  8
1
 62
2
 10
420.3931944750522
 20
64.26546104456
 30
0
 11
421.8312827103554
 21
64.26546104456
 31
0
  0
LINE
  8
1
 62
2
 10
419.5543096711253
 20
64.26546104456
 30
0
 11
420.1535131025017
 21
63.03073882233
 31
0
  0
LINE
  8
1
 62
2
 10
419.5543096711253
 20
64.26546104456
 30
0
 11
418.8352655534738
 21
62.50157215566
 31
0
  0
LINE
  8
1
 62
2
 10
419.5543096711253
 20
64.97101660012
 30
0
 11
419.5543096711253
 21
62.32518326677
 31
0
  0
LINE
  8
1
 62
2
 10
418.8352655534738
 20
64.26546104456
 30
0
 11
420.1535131025017
 21
64.26546104456
 31
0
  0
LINE
  8
1
 62
2
 10
418.5955841809233
 20
65.14740548901
 30
0
 11
421.9511233966306
 21
65.14740548901
 31
0
  0
LINE
  8
1
 62
2
 10
418.5955841809233
 20
61.7960166001
 30
0
 11
418.5955841809233
 21
65.14740548901
 31
0
  0
LINE
  8
1
 62
2
 10
418.2360621220975
 20
60.38490548898
 30
0
 11
418.5955841809233
 21
61.7960166001
 31
0
  0
LINE
  8
1
 62
2
 10
415.7194077103169
 20
61.44323882232
 30
0
 11
416.9178145730695
 21
61.44323882232
 31
0
  0
LINE
  8
1
 62
2
 10
415.7194077103169
 20
65.14740548901
 30
0
 11
415.7194077103169
 21
61.44323882232
 31
0
  0
LINE
  8
1
 62
2
 10
414.7606822201148
 20
62.67796104455
 30
0
 11
413.9217974161879
 21
61.44323882232
 31
0
  0
LINE
  8
1
 62
2
 10
414.7606822201148
 20
65.14740548901
 30
0
 11
414.7606822201148
 21
62.67796104455
 31
0
  0
LINE
  8
1
 62
2
 10
413.5622753573621
 20
60.0321277112
 30
0
 11
413.5622753573621
 21
63.73629437789
 31
0
  0
LINE
  8
1
 62
2
 10
416.9178145730695
 20
60.0321277112
 30
0
 11
413.5622753573621
 21
60.0321277112
 31
0
  0
LINE
  8
1
 62
2
 10
416.9178145730695
 20
63.73629437789
 30
0
 11
416.9178145730695
 21
60.0321277112
 31
0
  0
LINE
  8
1
 62
2
 10
413.5622753573621
 20
63.73629437789
 30
0
 11
416.9178145730695
 21
63.73629437789
 31
0
  0
LINE
  8
1
 62
2
 10
413.4424346710869
 20
65.14740548901
 30
0
 11
417.0376552593448
 21
65.14740548901
 31
0
  0
LINE
  8
1
 62
2
 10
411.692760651468
 20
61.09046104454
 30
0
 11
412.1002189848039
 21
60.0321277112
 31
0
  0
LINE
  8
1
 62
2
 10
411.4890314848
 20
62.14879437787999
 30
0
 11
411.692760651468
 21
61.09046104454
 31
0
  0
LINE
  8
1
 62
2
 10
411.4890314848
 20
63.20712771122
 30
0
 11
411.4890314848
 21
62.14879437787999
 31
0
  0
LINE
  8
1
 62
2
 10
411.692760651468
 20
64.26546104456
 30
0
 11
411.4890314848
 21
63.20712771122
 31
0
  0
LINE
  8
1
 62
2
 10
412.1002189848039
 20
65.3237943779
 30
0
 11
411.692760651468
 21
64.26546104456
 31
0
  0
LINE
  8
1
 62
2
 10
569.9522069568174
 20
60.86098518866
 30
0
 11
570.0540715401513
 21
60.33181852199
 31
0
  0
LINE
  8
1
 62
2
 10
569.7484777901494
 20
61.25786018866251
 30
0
 11
569.9522069568174
 21
60.86098518866
 31
0
  0
LINE
  8
1
 62
2
 10
569.5447486234814
 20
61.5224435219975
 30
0
 11
569.7484777901494
 21
61.25786018866251
 31
0
  0
LINE
  8
1
 62
2
 10
569.2391548734795
 20
61.7870268553325
 30
0
 11
569.5447486234814
 21
61.5224435219975
 31
0
  0
LINE
  8
1
 62
2
 10
568.8316965401436
 20
61.91931852200001
 30
0
 11
569.2391548734795
 21
61.7870268553325
 31
0
  0
LINE
  8
1
 62
2
 10
567.2018632068
 20
61.91931852200001
 30
0
 11
568.8316965401436
 21
61.91931852200001
 31
0
  0
LINE
  8
1
 62
2
 10
567.2018632068
 20
56.6276518553
 30
0
 11
567.2018632068
 21
61.91931852200001
 31
0
  0
LINE
  8
1
 62
2
 10
568.8316965401436
 20
56.6276518553
 30
0
 11
567.2018632068
 21
56.6276518553
 31
0
  0
LINE
  8
1
 62
2
 10
569.2391548734795
 20
56.7599435219675
 30
0
 11
568.8316965401436
 21
56.6276518553
 31
0
  0
LINE
  8
1
 62
2
 10
569.5447486234814
 20
57.0245268553025
 30
0
 11
569.2391548734795
 21
56.7599435219675
 31
0
  0
LINE
  8
1
 62
2
 10
569.7484777901494
 20
57.2891101886375
 30
0
 11
569.5447486234814
 21
57.0245268553025
 31
0
  0
LINE
  8
1
 62
2
 10
569.9522069568174
 20
57.68598518864
 30
0
 11
569.7484777901494
 21
57.2891101886375
 31
0
  0
LINE
  8
1
 62
2
 10
570.0540715401513
 20
58.21515185531001
 30
0
 11
569.9522069568174
 21
57.68598518864
 31
0
  0
LINE
  8
1
 62
2
 10
570.0540715401513
 20
60.33181852199
 30
0
 11
570.0540715401513
 21
58.21515185531001
 31
0
  0
LINE
  8
1
 62
2
 10
429.4629616057512
 20
75.69385197783001
 30
0
 11
429.4629616057512
 21
70.75496308891
 31
0
  0
LINE
  8
1
 62
2
 10
427.1859885665212
 20
72.16607420003001
 30
0
 11
431.0208905273296
 21
72.16607420003001
 31
0
  0
LINE
  8
1
 62
2
 10
427.9050326841728
 20
74.28274086671
 30
0
 11
427.9050326841728
 21
72.16607420003001
 31
0
  0
LINE
  8
1
 62
2
 10
430.9010498410544
 20
74.28274086671
 30
0
 11
427.9050326841728
 21
74.28274086671
 31
0
  0
LINE
  8
1
 62
2
 10
428.0248733704481
 20
75.69385197783001
 30
0
 11
431.0208905273296
 21
75.69385197783001
 31
0
  0
LINE
  8
1
 62
2
 10
428.0248733704481
 20
75.69385197783001
 30
0
 11
427.4256699390717
 21
74.63551864449001
 31
0
  0
LINE
  8
1
 62
2
 10
428.2645547429986
 20
76.39940753339
 30
0
 11
428.0248733704481
 21
75.69385197783001
 31
0
  0
LINE
  8
1
 62
2
 10
423.8304493508138
 20
71.63690753336
 30
0
 11
423.8304493508138
 21
73.40079642226
 31
0
  0
LINE
  8
1
 62
2
 10
425.747900331218
 20
71.63690753336
 30
0
 11
423.8304493508138
 21
71.63690753336
 31
0
  0
LINE
  8
1
 62
2
 10
425.747900331218
 20
73.40079642226
 30
0
 11
425.747900331218
 21
71.63690753336
 31
0
  0
LINE
  8
1
 62
2
 10
423.8304493508138
 20
73.40079642226
 30
0
 11
425.747900331218
 21
73.40079642226
 31
0
  0
LINE
  8
1
 62
2
 10
424.7891748410159
 20
76.2230186445
 30
0
 11
424.7891748410159
 21
74.10635197782001
 31
0
  0
LINE
  8
1
 62
2
 10
423.3510866057127
 20
74.10635197782001
 30
0
 11
426.1074223900438
 21
74.10635197782001
 31
0
  0
LINE
  8
1
 62
2
 10
423.7106086645385
 20
75.34107420005
 30
0
 11
425.9875817037685
 21
75.34107420005
 31
0
  0
LINE
  8
1
 62
2
 10
423.7106086645385
 20
75.34107420005
 30
0
 11
423.3510866057127
 21
74.63551864449001
 31
0
  0
LINE
  8
1
 62
2
 10
423.8304493508138
 20
76.04662975561001
 30
0
 11
423.7106086645385
 21
75.34107420005
 31
0
  0
LINE
  8
1
 62
2
 10
424.1899714096396
 20
70.93135197780001
 30
0
 11
426.2272630763191
 21
70.93135197780001
 31
0
  0
LINE
  8
1
 62
2
 10
423.1114052331622
 20
72.16607420003001
 30
0
 11
424.1899714096396
 21
70.93135197780001
 31
0
  0
LINE
  8
1
 62
2
 10
423.1114052331622
 20
72.16607420003001
 30
0
 11
422.5122018017859
 21
70.93135197780001
 31
0
  0
LINE
  8
1
 62
2
 10
423.1114052331622
 20
73.92996308893001
 30
0
 11
423.1114052331622
 21
72.16607420003001
 31
0
  0
LINE
  8
1
 62
2
 10
422.5122018017859
 20
73.92996308893001
 30
0
 11
423.1114052331622
 21
73.92996308893001
 31
0
  0
LINE
  8
1
 62
2
 10
422.6320424880611
 20
76.04662975561001
 30
0
 11
423.2312459194375
 21
75.16468531116
 31
0
  0
LINE
  8
1
 62
2
 10
420.2352287625558
 20
72.6952408667
 30
0
 11
420.5947508213816
 21
71.46051864447
 31
0
  0
LINE
  8
1
 62
2
 10
421.0741135664827
 20
70.93135197780001
 30
0
 11
420.1153880762806
 21
71.28412975558001
 31
0
  0
LINE
  8
1
 62
2
 10
421.0741135664827
 20
74.28274086671
 30
0
 11
421.0741135664827
 21
70.93135197780001
 31
0
  0
LINE
  8
1
 62
2
 10
419.396343958629
 20
73.04801864448001
 30
0
 11
421.4336356253085
 21
73.04801864448001
 31
0
  0
LINE
  8
1
 62
2
 10
420.1153880762806
 20
73.75357420004001
 30
0
 11
419.396343958629
 21
71.46051864447
 31
0
  0
LINE
  8
1
 62
2
 10
420.2352287625558
 20
76.2230186445
 30
0
 11
420.1153880762806
 21
73.75357420004001
 31
0
  0
LINE
  8
1
 62
2
 10
419.2765032723537
 20
74.28274086671
 30
0
 11
421.4336356253085
 21
74.28274086671
 31
0
  0
LINE
  8
1
 62
2
 10
419.5161846449042
 20
74.98829642227001
 30
0
 11
421.1939542527579
 21
74.98829642227001
 31
0
  0
LINE
  8
1
 62
2
 10
419.396343958629
 20
75.69385197783001
 30
0
 11
421.3137949390332
 21
75.69385197783001
 31
0
  0
LINE
  8
1
 62
2
 10
417.7185743507753
 20
70.93135197780001
 30
0
 11
419.1566625860784
 21
71.28412975558001
 31
0
  0
LINE
  8
1
 62
2
 10
419.1566625860784
 20
72.87162975559001
 30
0
 11
418.9169812135279
 21
71.63690753336
 31
0
  0
LINE
  8
1
 62
2
 10
417.8384150370505
 20
72.87162975559001
 30
0
 11
418.0780964096011
 21
71.46051864447
 31
0
  0
LINE
  8
1
 62
2
 10
418.4376184684269
 20
74.4591297556
 30
0
 11
418.4376184684269
 21
71.10774086669001
 31
0
  0
LINE
  8
1
 62
2
 10
417.7185743507753
 20
73.40079642226
 30
0
 11
419.1566625860784
 21
73.40079642226
 31
0
  0
LINE
  8
1
 62
2
 10
417.8384150370505
 20
74.4591297556
 30
0
 11
419.0368218998032
 21
74.4591297556
 31
0
  0
LINE
  8
1
 62
2
 10
418.5574591547021
 20
76.04662975561001
 30
0
 11
419.1566625860784
 21
74.98829642227001
 31
0
  0
LINE
  8
1
 62
2
 10
417.7185743507753
 20
74.81190753338001
 30
0
 11
418.5574591547021
 21
76.04662975561001
 31
0
  0
LINE
  8
1
 62
2
 10
577.6224634642371
 20
65.34214924650999
 30
0
 11
575.8248531701081
 21
65.87131591318
 31
0
  0
LINE
  8
1
 62
2
 10
578.461348268164
 20
66.04770480206999
 30
0
 11
577.6224634642371
 21
65.34214924650999
 31
0
  0
LINE
  8
1
 62
2
 10
578.5811889544392
 20
67.28242702429999
 30
0
 11
578.461348268164
 21
66.04770480206999
 31
0
  0
LINE
  8
1
 62
2
 10
576.3042159152092
 20
67.28242702429999
 30
0
 11
578.5811889544392
 21
67.28242702429999
 31
0
  0
LINE
  8
1
 62
2
 10
576.5438972877597
 20
68.51714924653
 30
0
 11
576.3042159152092
 21
67.28242702429999
 31
0
  0
LINE
  8
1
 62
2
 10
575.345490425007
 20
68.51714924653
 30
0
 11
578.9407110132651
 21
68.51714924653
 31
0
  0
LINE
  8
1
 62
2
 10
575.8248531701081
 20
69.04631591319999
 30
0
 11
575.8248531701081
 21
70.63381591320999
 31
0
  0
LINE
  8
1
 62
2
 10
578.5811889544392
 20
69.04631591319999
 30
0
 11
575.8248531701081
 21
69.04631591319999
 31
0
  0
LINE
  8
1
 62
2
 10
578.5811889544392
 20
70.63381591320999
 30
0
 11
578.5811889544392
 21
69.04631591319999
 31
0
  0
LINE
  8
1
 62
2
 10
575.8248531701081
 20
70.63381591320999
 30
0
 11
578.5811889544392
 21
70.63381591320999
 31
0
  0
LINE
  8
1
 62
2
 10
574.1470835622545
 20
65.51853813539999
 30
0
 11
574.1470835622545
 21
66.75326035763
 31
0
  0
LINE
  8
1
 62
2
 10
572.3494732681255
 20
65.51853813539999
 30
0
 11
574.1470835622545
 21
65.51853813539999
 31
0
  0
LINE
  8
1
 62
2
 10
572.3494732681255
 20
68.51714924653
 30
0
 11
572.3494732681255
 21
65.51853813539999
 31
0
  0
LINE
  8
1
 62
2
 10
573.9074021897039
 20
68.51714924653
 30
0
 11
572.3494732681255
 21
68.51714924653
 31
0
  0
LINE
  8
1
 62
2
 10
573.9074021897039
 20
70.63381591320999
 30
0
 11
573.9074021897039
 21
68.51714924653
 31
0
  0
LINE
  8
1
 62
2
 10
572.2296325818502
 20
70.63381591320999
 30
0
 11
573.9074021897039
 21
70.63381591320999
 31
0
  0
LINE
  8
1
 62
2
 10
570.6717036602718
 20
65.51853813539999
 30
0
 11
570.6717036602718
 21
67.28242702429999
 31
0
  0
LINE
  8
1
 62
2
 10
571.9899512092997
 20
65.51853813539999
 30
0
 11
570.6717036602718
 21
65.51853813539999
 31
0
  0
LINE
  8
1
 62
2
 10
571.9899512092997
 20
67.28242702429999
 30
0
 11
571.9899512092997
 21
65.51853813539999
 31
0
  0
LINE
  8
1
 62
2
 10
570.6717036602718
 20
67.28242702429999
 30
0
 11
571.9899512092997
 21
67.28242702429999
 31
0
  0
LINE
  8
1
 62
2
 10
570.791544346547
 20
67.98798257985999
 30
0
 11
571.8701105230244
 21
67.98798257985999
 31
0
  0
LINE
  8
1
 62
2
 10
570.791544346547
 20
68.86992702430999
 30
0
 11
571.8701105230244
 21
68.86992702430999
 31
0
  0
LINE
  8
1
 62
2
 10
570.5518629739964
 20
69.75187146875999
 30
0
 11
572.109791895575
 21
69.75187146875999
 31
0
  0
LINE
  8
1
 62
2
 10
570.791544346547
 20
70.63381591320999
 30
0
 11
571.8701105230244
 21
70.63381591320999
 31
0
  0
LINE
  8
1
 62
2
 10
568.993934052418
 20
70.63381591320999
 30
0
 11
568.993934052418
 21
65.51853813539999
 31
0
  0
LINE
  8
1
 62
2
 10
567.4360051308396
 20
66.40048257984999
 30
0
 11
569.3534561112439
 21
66.92964924651999
 31
0
  0
LINE
  8
1
 62
2
 10
567.5558458171149
 20
68.86992702430999
 30
0
 11
568.6344119935923
 21
67.45881591318999
 31
0
  0
LINE
  8
1
 62
2
 10
567.6756865033901
 20
70.45742702432
 30
0
 11
568.6344119935923
 21
69.22270480208999
 31
0
  0
LINE
  8
1
 62
2
 10
566.4772796406375
 20
68.51714924653
 30
0
 11
567.3161644445644
 21
66.92964924651999
 31
0
  0
LINE
  8
1
 62
2
 10
566.4772796406375
 20
68.51714924653
 30
0
 11
565.7582355229858
 21
66.40048257984999
 31
0
  0
LINE
  8
1
 62
2
 10
566.4772796406375
 20
70.81020480209999
 30
0
 11
566.4772796406375
 21
65.51853813539999
 31
0
  0
LINE
  8
1
 62
2
 10
565.7582355229858
 20
68.51714924653
 30
0
 11
567.3161644445644
 21
68.51714924653
 31
0
  0
LINE
  8
1
 62
2
 10
567.3161644445644
 20
70.45742702432
 30
0
 11
566.8368016994633
 21
69.04631591319999
 31
0
  0
LINE
  8
1
 62
2
 10
565.8780762092612
 20
70.45742702432
 30
0
 11
566.1177575818117
 21
68.86992702430999
 31
0
  0
LINE
  8
1
 62
2
 10
564.0804659151322
 20
69.92826035764999
 30
0
 11
562.4026963072785
 21
66.75326035763
 31
0
  0
LINE
  8
1
 62
2
 10
564.0804659151322
 20
65.51853813539999
 30
0
 11
563.0018997386549
 21
66.22409369095999
 31
0
  0
LINE
  8
1
 62
2
 10
564.0804659151322
 20
70.81020480209999
 30
0
 11
564.0804659151322
 21
65.51853813539999
 31
0
  0
LINE
  8
1
 62
2
 10
562.642377679829
 20
69.92826035764999
 30
0
 11
564.5598286602333
 21
69.92826035764999
 31
0
  0
LINE
  8
1
 62
2
 10
561.6836521896269
 20
69.92826035764999
 30
0
 11
562.4026963072785
 21
67.81159369097
 31
0
  0
LINE
  8
1
 62
2
 10
561.6836521896269
 20
69.92826035764999
 30
0
 11
560.9646080719753
 21
67.28242702429999
 31
0
  0
LINE
  8
1
 62
2
 10
561.6836521896269
 20
70.81020480209999
 30
0
 11
561.6836521896269
 21
65.51853813539999
 31
0
  0
LINE
  8
1
 62
2
 10
560.9646080719753
 20
69.92826035764999
 30
0
 11
562.4026963072785
 21
69.92826035764999
 31
0
  0
LINE
  8
1
 62
2
 10
919.9166393023237
 20
291.9005784806
 30
0
 11
919.9166393023237
 21
297.1922451473
 31
0
  0
LINE
  8
1
 62
2
 10
918.3886705523141
 20
291.9005784806
 30
0
 11
919.9166393023237
 21
291.9005784806
 31
0
  0
LINE
  8
1
 62
2
 10
917.9812122189783
 20
292.0328701472675
 30
0
 11
918.3886705523141
 21
291.9005784806
 31
0
  0
LINE
  8
1
 62
2
 10
917.7774830523102
 20
292.165161813935
 30
0
 11
917.9812122189783
 21
292.0328701472675
 31
0
  0
LINE
  8
1
 62
2
 10
917.5737538856423
 20
292.42974514727
 30
0
 11
917.7774830523102
 21
292.165161813935
 31
0
  0
LINE
  8
1
 62
2
 10
917.4718893023083
 20
292.95891181394
 30
0
 11
917.5737538856423
 21
292.42974514727
 31
0
  0
LINE
  8
1
 62
2
 10
917.4718893023083
 20
294.54641181395
 30
0
 11
917.4718893023083
 21
292.95891181394
 31
0
  0
LINE
  8
1
 62
2
 10
917.5737538856423
 20
295.07557848062
 30
0
 11
917.4718893023083
 21
294.54641181395
 31
0
  0
LINE
  8
1
 62
2
 10
917.7774830523102
 20
295.340161813955
 30
0
 11
917.5737538856423
 21
295.07557848062
 31
0
  0
LINE
  8
1
 62
2
 10
917.9812122189783
 20
295.4724534806225
 30
0
 11
917.7774830523102
 21
295.340161813955
 31
0
  0
LINE
  8
1
 62
2
 10
918.3886705523141
 20
295.60474514729
 30
0
 11
917.9812122189783
 21
295.4724534806225
 31
0
  0
LINE
  8
1
 62
2
 10
919.9166393023237
 20
295.60474514729
 30
0
 11
918.3886705523141
 21
295.60474514729
 31
0
  0
LINE
  8
1
 62
2
 10
915.1949162630783
 20
296.48668959174
 30
0
 11
913.9965094003256
 21
290.48946736948
 31
0
  0
LINE
  8
1
 62
2
 10
915.4345976356289
 20
295.07557848062
 30
0
 11
914.9552348905278
 21
295.25196736951
 31
0
  0
LINE
  8
1
 62
2
 10
915.6742790081794
 20
294.72280070284
 30
0
 11
915.4345976356289
 21
295.07557848062
 31
0
  0
LINE
  8
1
 62
2
 10
915.7941196944546
 20
294.19363403617
 30
0
 11
915.6742790081794
 21
294.72280070284
 31
0
  0
LINE
  8
1
 62
2
 10
915.7941196944546
 20
293.31168959172
 30
0
 11
915.7941196944546
 21
294.19363403617
 31
0
  0
LINE
  8
1
 62
2
 10
915.5544383219041
 20
292.60613403616
 30
0
 11
915.7941196944546
 21
293.31168959172
 31
0
  0
LINE
  8
1
 62
2
 10
915.3147569493535
 20
292.25335625838
 30
0
 11
915.5544383219041
 21
292.60613403616
 31
0
  0
LINE
  8
1
 62
2
 10
914.8353942042526
 20
291.9005784806
 30
0
 11
915.3147569493535
 21
292.25335625838
 31
0
  0
LINE
  8
1
 62
2
 10
914.3560314591515
 20
291.72418959171
 30
0
 11
914.8353942042526
 21
291.9005784806
 31
0
  0
LINE
  8
1
 62
2
 10
913.9965094003256
 20
291.9005784806
 30
0
 11
914.3560314591515
 21
291.72418959171
 31
0
  0
LINE
  8
1
 62
2
 10
913.6369873414999
 20
292.25335625838
 30
0
 11
913.9965094003256
 21
291.9005784806
 31
0
  0
LINE
  8
1
 62
2
 10
913.5171466552246
 20
292.7825229250501
 30
0
 11
913.6369873414999
 21
292.25335625838
 31
0
  0
LINE
  8
1
 62
2
 10
913.5171466552246
 20
293.48807848061
 30
0
 11
913.5171466552246
 21
292.7825229250501
 31
0
  0
LINE
  8
1
 62
2
 10
913.6369873414999
 20
294.01724514728
 30
0
 11
913.5171466552246
 21
293.48807848061
 31
0
  0
LINE
  8
1
 62
2
 10
913.9965094003256
 20
294.54641181395
 30
0
 11
913.6369873414999
 21
294.01724514728
 31
0
  0
LINE
  8
1
 62
2
 10
914.3560314591515
 20
294.89918959173
 30
0
 11
913.9965094003256
 21
294.54641181395
 31
0
  0
LINE
  8
1
 62
2
 10
914.9552348905278
 20
295.25196736951
 30
0
 11
914.3560314591515
 21
294.89918959173
 31
0
  0
LINE
  8
1
 62
2
 10
909.4185951846106
 20
293.752661813945
 30
0
 11
911.4558868512901
 21
293.752661813945
 31
0
  0
LINE
  8
1
 62
2
 10
907.3813035179311
 20
294.89918959173
 30
0
 11
907.3813035179311
 21
291.72418959171
 31
0
  0
LINE
  8
1
 62
2
 10
907.2614628316558
 20
295.25196736951
 30
0
 11
907.3813035179311
 21
294.89918959173
 31
0
  0
LINE
  8
1
 62
2
 10
906.90194077283
 20
295.60474514729
 30
0
 11
907.2614628316558
 21
295.25196736951
 31
0
  0
LINE
  8
1
 62
2
 10
906.6622594002795
 20
295.60474514729
 30
0
 11
906.90194077283
 21
295.60474514729
 31
0
  0
LINE
  8
1
 62
2
 10
906.0630559689032
 20
295.25196736951
 30
0
 11
906.6622594002795
 21
295.60474514729
 31
0
  0
LINE
  8
1
 62
2
 10
905.7035339100773
 20
294.54641181395
 30
0
 11
906.0630559689032
 21
295.25196736951
 31
0
  0
LINE
  8
1
 62
2
 10
905.7035339100773
 20
295.60474514729
 30
0
 11
905.7035339100773
 21
291.72418959171
 31
0
  0
LINE
  8
0
 62
7
 10
539.30104111
 20
323.4206555239
 30
0
 11
539.30104111
 21
339.9206591598
 31
0
  0
LINE
  8
0
 62
7
 10
433.3010423617
 20
341.9206483118
 30
0
 11
433.3010423617
 21
340.4206527225
 31
0
  0
LINE
  8
0
 62
7
 10
544.3010400669
 20
339.9206591598
 30
0
 11
544.3010400669
 21
341.9206483118
 31
0
  0
LINE
  8
0
 62
7
 10
360.8010481731
 20
197.920655442
 30
0
 11
360.8010481731
 21
227.9206547714
 31
0
  0
LINE
  8
0
 62
7
 10
360.8010481731
 20
247.9206552557
 30
0
 11
360.8010481731
 21
252.9206542126
 31
0
  0
LINE
  8
0
 62
7
 10
348.8010387556
 20
252.9206542126
 30
0
 11
348.8010387556
 21
247.9206552557
 31
0
  0
LINE
  8
0
 62
7
 10
348.8010387556
 20
227.9206547714
 30
0
 11
348.8010387556
 21
197.920655442
 31
0
  0
LINE
  8
0
 62
7
 10
364.3010403649
 20
179.9206552855
 30
0
 11
365.77069719
 21
180.7691609315
 31
0
  0
LINE
  8
0
 62
7
 10
343.8313822881
 20
180.7691609315
 30
0
 11
345.3010391132
 21
179.9206552855
 31
0
  0
LINE
  8
0
 62
7
 10
423.0054836408
 20
276.7691580407
 30
0
 11
424.4751404659
 21
275.92065612
 31
0
  0
LINE
  8
0
 62
7
 10
443.4751417176
 20
275.92065612
 30
0
 11
444.9447948174
 21
276.7691580407
 31
0
  0
LINE
  8
0
 62
7
 10
527.6572886543
 20
276.7691580407
 30
0
 11
529.126941754
 21
275.92065612
 31
0
  0
LINE
  8
0
 62
7
 10
548.1269430057
 20
275.92065612
 30
0
 11
549.5965998308
 21
276.7691580407
 31
0
  0
LINE
  8
0
 62
7
 10
345.3010391132
 20
247.9206552557
 30
0
 11
343.8313822881
 21
247.0721496097
 31
0
  0
LINE
  8
0
 62
7
 10
365.77069719
 20
247.0721496097
 30
0
 11
364.3010403649
 21
247.9206552557
 31
0
  0
LINE
  8
0
 62
7
 10
427.9751401083
 20
275.92065612
 30
0
 11
427.9751401083
 21
270.4206561498
 31
0
  0
LINE
  8
0
 62
7
 10
439.9751383499
 20
270.4206561498
 30
0
 11
439.9751383499
 21
275.92065612
 31
0
  0
LINE
  8
0
 62
7
 10
444.9447948174
 20
322.5721461526
 30
0
 11
443.4751417176
 21
323.4206555239
 31
0
  0
LINE
  8
0
 62
7
 10
424.4751404659
 20
323.4206555239
 30
0
 11
423.0054836408
 21
322.5721461526
 31
0
  0
LINE
  8
0
 62
7
 10
532.6269451217
 20
275.92065612
 30
0
 11
532.6269451217
 21
270.4206561498
 31
0
  0
LINE
  8
0
 62
7
 10
544.6269433634
 20
270.4206561498
 30
0
 11
544.6269433634
 21
275.92065612
 31
0
  0
LINE
  8
0
 62
7
 10
529.126941754
 20
323.4206555239
 30
0
 11
527.6572886543
 21
322.5721461526
 31
0
  0
LINE
  8
0
 62
7
 10
549.5965998308
 20
322.5721461526
 30
0
 11
548.1269430057
 21
323.4206555239
 31
0
  0
LINE
  8
0
 62
7
 10
377.3010443584
 20
251.4206548981
 30
0
 11
372.5052099363
 21
262.4206548385
 31
0
  0
LINE
  8
0
 62
7
 10
372.5052099363
 20
262.4206548385
 30
0
 11
337.0968769924
 21
262.4206548385
 31
0
  0
LINE
  8
0
 62
7
 10
337.0968769924
 20
262.4206548385
 30
0
 11
332.3010425703
 21
251.4206548981
 31
0
  0
LINE
  8
0
 62
7
 10
337.0968769924
 20
163.4206553749
 30
0
 11
372.5052099363
 21
163.4206553749
 31
0
  0
LINE
  8
0
 62
7
 10
372.5052099363
 20
163.4206553749
 30
0
 11
377.3010443584
 21
174.4206553153
 31
0
  0
LINE
  8
0
 62
7
 10
332.3010425703
 20
174.4206553153
 30
0
 11
337.0968769924
 21
163.4206553749
 31
0
  0
LINE
  8
0
 62
7
 10
58.3010386364
 20
305.9206573121
 30
0
 11
43.3010529415
 21
305.9206573121
 31
0
  0
LINE
  8
0
 62
7
 10
43.3010529415
 20
264.9206561796
 30
0
 11
41.3010488884
 21
262.9206558517
 31
0
  0
LINE
  8
0
 62
7
 10
41.3010488884
 20
162.9206543616
 30
0
 11
43.3010529415
 21
160.9206540338
 31
0
  0
LINE
  8
0
 62
7
 10
550.8171315924
 20
312.4206555835
 30
0
 11
550.8171315924
 21
315.4206542126
 31
0
  0
LINE
  8
0
 62
7
 10
421.7849518792
 20
315.4206542126
 30
0
 11
421.7849518792
 21
312.4206555835
 31
0
  0
LINE
  8
0
 62
7
 10
558.3010386364
 20
285.9206540338
 30
0
 11
558.3010386364
 21
308.9206559412
 31
0
  0
LINE
  8
0
 62
7
 10
414.3010448353
 20
308.9206559412
 30
0
 11
414.3010448353
 21
285.9206540338
 31
0
  0
LINE
  8
0
 62
7
 10
553.3010434047
 20
312.4206555835
 30
0
 11
553.3010434047
 21
322.4206534974
 31
0
  0
LINE
  8
0
 62
7
 10
599.3010397689
 20
305.9206573121
 30
0
 11
584.3010391728
 21
305.9206573121
 31
0
  0
LINE
  8
0
 62
7
 10
540.8010404245
 20
171.8386156312
 30
0
 11
540.8010404245
 21
173.3986144713
 31
0
  0
LINE
  8
0
 62
7
 10
599.3010397689
 20
160.9206540338
 30
0
 11
601.301043822
 21
162.9206543616
 31
0
  0
LINE
  8
0
 62
7
 10
601.301043822
 20
262.9206558517
 30
0
 11
599.3010397689
 21
264.9206561796
 31
0
  0
LINE
  8
0
 62
7
 10
377.3010443584
 20
180.9206535868
 30
0
 11
379.301040961
 21
180.9206535868
 31
0
  0
LINE
  8
0
 62
7
 10
379.301040961
 20
244.9206566266
 30
0
 11
377.3010443584
 21
244.9206566266
 31
0
  0
LINE
  8
0
 62
7
 10
461.3010413633
 20
322.4206534974
 30
0
 11
461.3010413633
 21
337.9206551067
 31
0
  0
LINE
  8
0
 62
7
 10
436.2892541722
 20
333.4206534378
 30
0
 11
436.2892541722
 21
323.4206555239
 31
0
  0
LINE
  8
0
 62
7
 10
538.0241717831
 20
339.9206591598
 30
0
 11
538.0241717831
 21
341.9206483118
 31
0
  0
LINE
  8
0
 62
7
 10
532.3010418252
 20
348.9206624977
 30
0
 11
440.3010416464
 21
348.9206624977
 31
0
  0
LINE
  8
0
 62
7
 10
496.3010415123
 20
349.9206496231
 30
0
 11
508.3010416166
 21
349.9206496231
 31
0
  0
LINE
  8
0
 62
7
 10
496.3010415123
 20
349.9206496231
 30
0
 11
496.3010415123
 21
348.9206624977
 31
0
  0
LINE
  8
0
 62
7
 10
508.3010416166
 20
349.9206496231
 30
0
 11
508.3010416166
 21
348.9206624977
 31
0
  0
LINE
  8
0
 62
7
 10
511.3010421083
 20
349.9206496231
 30
0
 11
523.3010422126
 21
349.9206496231
 31
0
  0
LINE
  8
0
 62
7
 10
523.3010422126
 20
349.9206496231
 30
0
 11
523.3010422126
 21
348.9206624977
 31
0
  0
LINE
  8
0
 62
7
 10
511.3010421083
 20
349.9206496231
 30
0
 11
511.3010421083
 21
348.9206624977
 31
0
  0
LINE
  8
0
 62
7
 10
450.3010432855
 20
349.9206496231
 30
0
 11
450.3010432855
 21
348.9206624977
 31
0
  0
LINE
  8
0
 62
7
 10
450.3010432855
 20
349.9206496231
 30
0
 11
460.3010411994
 21
349.9206496231
 31
0
  0
LINE
  8
0
 62
7
 10
460.3010411994
 20
349.9206496231
 30
0
 11
460.3010411994
 21
348.9206624977
 31
0
  0
LINE
  8
0
 62
7
 10
423.8010417358
 20
323.0314669959
 30
0
 11
423.8010417358
 21
333.4206534378
 31
0
  0
LINE
  8
0
 62
7
 10
425.8010420636
 20
335.4206574909
 30
0
 11
429.5986625985
 21
335.4206574909
 31
0
  0
LINE
  8
0
 62
7
 10
470.8010419891
 20
349.9206496231
 30
0
 11
470.8010419891
 21
348.9206624977
 31
0
  0
LINE
  8
0
 62
7
 10
478.3010413558
 20
349.9206496231
 30
0
 11
478.3010413558
 21
348.9206624977
 31
0
  0
LINE
  8
0
 62
7
 10
463.3010416911
 20
349.9206496231
 30
0
 11
493.3010419519
 21
349.9206496231
 31
0
  0
LINE
  8
0
 62
7
 10
485.8010417121
 20
349.9206496231
 30
0
 11
485.8010417121
 21
348.9206624977
 31
0
  0
LINE
  8
0
 62
7
 10
538.0241717831
 20
341.9206483118
 30
0
 11
544.3010400669
 21
341.9206483118
 31
0
  0
LINE
  8
0
 62
7
 10
539.9759892062
 20
341.9206483118
 30
0
 11
539.9759892062
 21
339.9206591598
 31
0
  0
LINE
  8
0
 62
7
 10
544.3010400669
 20
339.9206591598
 30
0
 11
538.0241717831
 21
339.9206591598
 31
0
  0
LINE
  8
0
 62
7
 10
541.7266670303
 20
339.9206591598
 30
0
 11
541.7266670303
 21
341.9206483118
 31
0
  0
LINE
  8
0
 62
7
 10
543.7061559097
 20
341.9206483118
 30
0
 11
543.7061559097
 21
339.9206591598
 31
0
  0
LINE
  8
0
 62
7
 10
493.3010419519
 20
349.9206496231
 30
0
 11
493.3010419519
 21
348.9206624977
 31
0
  0
LINE
  8
0
 62
7
 10
463.3010416911
 20
349.9206496231
 30
0
 11
463.3010416911
 21
348.9206624977
 31
0
  0
LINE
  8
0
 62
7
 10
461.3010413633
 20
333.920654451
 30
0
 11
468.4028938101
 21
333.920654451
 31
0
  0
LINE
  8
0
 62
7
 10
467.8010414974
 20
336.3088337533
 30
0
 11
467.8010414974
 21
333.920654451
 31
0
  0
LINE
  8
0
 62
7
 10
360.2858703272
 20
180.7691609315
 30
0
 11
360.2858703272
 21
187.9206547342
 31
0
  0
LINE
  8
0
 62
7
 10
349.3162166015
 20
180.7691609315
 30
0
 11
349.3162166015
 21
187.9206547342
 31
0
  0
LINE
  8
0
 62
7
 10
345.3010391132
 20
179.9206552855
 30
0
 11
364.3010403649
 21
179.9206552855
 31
0
  0
LINE
  8
0
 62
7
 10
365.77069719
 20
180.7691609315
 30
0
 11
365.77069719
 21
187.9206547342
 31
0
  0
LINE
  8
0
 62
7
 10
343.8313822881
 20
180.7691609315
 30
0
 11
343.8313822881
 21
187.9206547342
 31
0
  0
LINE
  8
0
 62
7
 10
348.8010387556
 20
252.9206542126
 30
0
 11
360.8010481731
 21
252.9206542126
 31
0
  0
LINE
  8
0
 62
7
 10
439.4599679546
 20
276.7691580407
 30
0
 11
439.4599679546
 21
285.9206540338
 31
0
  0
LINE
  8
0
 62
7
 10
428.4903142289
 20
276.7691580407
 30
0
 11
428.4903142289
 21
285.9206540338
 31
0
  0
LINE
  8
0
 62
7
 10
443.4751417176
 20
275.92065612
 30
0
 11
424.4751404659
 21
275.92065612
 31
0
  0
LINE
  8
0
 62
7
 10
423.0054836408
 20
276.7691580407
 30
0
 11
423.0054836408
 21
285.9206540338
 31
0
  0
LINE
  8
0
 62
7
 10
544.1117692427
 20
276.7691580407
 30
0
 11
544.1117692427
 21
285.9206540338
 31
0
  0
LINE
  8
0
 62
7
 10
533.1421155171
 20
276.7691580407
 30
0
 11
533.1421155171
 21
285.9206540338
 31
0
  0
LINE
  8
0
 62
7
 10
529.126941754
 20
275.92065612
 30
0
 11
548.1269430057
 21
275.92065612
 31
0
  0
LINE
  8
0
 62
7
 10
549.5965998308
 20
276.7691580407
 30
0
 11
549.5965998308
 21
285.9206540338
 31
0
  0
LINE
  8
0
 62
7
 10
527.6572886543
 20
276.7691580407
 30
0
 11
527.6572886543
 21
285.9206540338
 31
0
  0
LINE
  8
0
 62
7
 10
360.2858703272
 20
247.0721496097
 30
0
 11
360.2858703272
 21
237.9206554792
 31
0
  0
LINE
  8
0
 62
7
 10
365.77069719
 20
247.0721496097
 30
0
 11
365.77069719
 21
237.9206554792
 31
0
  0
LINE
  8
0
 62
7
 10
349.3162166015
 20
247.0721496097
 30
0
 11
349.3162166015
 21
237.9206554792
 31
0
  0
LINE
  8
0
 62
7
 10
345.3010391132
 20
247.9206552557
 30
0
 11
364.3010403649
 21
247.9206552557
 31
0
  0
LINE
  8
0
 62
7
 10
343.8313822881
 20
247.0721496097
 30
0
 11
343.8313822881
 21
237.9206554792
 31
0
  0
LINE
  8
0
 62
7
 10
423.0054836408
 20
322.5721461526
 30
0
 11
423.0054836408
 21
315.4206542126
 31
0
  0
LINE
  8
0
 62
7
 10
428.4903142289
 20
322.5721461526
 30
0
 11
428.4903142289
 21
315.4206542126
 31
0
  0
LINE
  8
0
 62
7
 10
439.4599679546
 20
322.5721461526
 30
0
 11
439.4599679546
 21
315.4206542126
 31
0
  0
LINE
  8
0
 62
7
 10
444.9447948174
 20
322.5721461526
 30
0
 11
444.9447948174
 21
315.4206542126
 31
0
  0
LINE
  8
0
 62
7
 10
443.4751417176
 20
323.4206555239
 30
0
 11
424.4751404659
 21
323.4206555239
 31
0
  0
LINE
  8
0
 62
7
 10
439.9751383499
 20
270.4206561498
 30
0
 11
427.9751401083
 21
270.4206561498
 31
0
  0
LINE
  8
0
 62
7
 10
548.1269430057
 20
323.4206555239
 30
0
 11
529.126941754
 21
323.4206555239
 31
0
  0
LINE
  8
0
 62
7
 10
527.6572886543
 20
322.5721461526
 30
0
 11
527.6572886543
 21
315.4206542126
 31
0
  0
LINE
  8
0
 62
7
 10
533.1421155171
 20
322.5721461526
 30
0
 11
533.1421155171
 21
315.4206542126
 31
0
  0
LINE
  8
0
 62
7
 10
544.1117692427
 20
322.5721461526
 30
0
 11
544.1117692427
 21
315.4206542126
 31
0
  0
LINE
  8
0
 62
7
 10
549.5965998308
 20
322.5721461526
 30
0
 11
549.5965998308
 21
315.4206542126
 31
0
  0
LINE
  8
0
 62
7
 10
544.6269433634
 20
270.4206561498
 30
0
 11
532.6269451217
 21
270.4206561498
 31
0
  0
LINE
  8
0
 62
7
 10
368.8241462843
 20
227.23622488
 30
0
 11
368.8241462843
 21
237.9206554792
 31
0
  0
LINE
  8
0
 62
7
 10
340.7779406444
 20
227.23622488
 30
0
 11
340.7779406444
 21
237.9206554792
 31
0
  0
LINE
  8
0
 62
7
 10
367.9424594776
 20
227.9206547714
 30
0
 11
341.6596274511
 21
227.9206547714
 31
0
  0
LINE
  8
0
 62
7
 10
332.3010425703
 20
237.9206554792
 30
0
 11
377.3010443584
 21
237.9206554792
 31
0
  0
LINE
  8
0
 62
7
 10
346.9608049528
 20
225.7826985619
 30
0
 11
340.4111038582
 21
225.7826985619
 31
0
  0
LINE
  8
0
 62
7
 10
369.1909830705
 20
225.7826985619
 30
0
 11
362.6412745253
 21
225.7826985619
 31
0
  0
LINE
  8
0
 62
7
 10
332.3010425703
 20
212.9206551067
 30
0
 11
348.8010387556
 21
212.9206551067
 31
0
  0
LINE
  8
0
 62
7
 10
334.2548232214
 20
237.9206554792
 30
0
 11
334.2548232214
 21
187.9206547342
 31
0
  0
LINE
  8
0
 62
7
 10
340.4111038582
 20
225.7826985619
 30
0
 11
338.9459471838
 21
212.9206551067
 31
0
  0
LINE
  8
0
 62
7
 10
375.3472562567
 20
187.9206547342
 30
0
 11
375.3472562567
 21
237.9206554792
 31
0
  0
LINE
  8
0
 62
7
 10
360.8010481731
 20
212.9206551067
 30
0
 11
377.3010443584
 21
212.9206551067
 31
0
  0
LINE
  8
0
 62
7
 10
370.6561322943
 20
212.9206551067
 30
0
 11
369.1909830705
 21
225.7826985619
 31
0
  0
LINE
  8
0
 62
7
 10
363.259918584
 20
222.3923211745
 30
0
 11
364.1497786776
 21
212.9206551067
 31
0
  0
LINE
  8
0
 62
7
 10
362.6412745253
 20
225.7826985619
 30
0
 11
363.259918584
 21
222.3923211745
 31
0
  0
LINE
  8
0
 62
7
 10
345.4523008005
 20
212.9206551067
 30
0
 11
346.3421683447
 21
222.3923211745
 31
0
  0
LINE
  8
0
 62
7
 10
346.3421683447
 20
222.3923211745
 30
0
 11
346.9608049528
 21
225.7826985619
 31
0
  0
LINE
  8
0
 62
7
 10
377.3010443584
 20
251.4206548981
 30
0
 11
377.3010443584
 21
174.4206553153
 31
0
  0
LINE
  8
0
 62
7
 10
332.3010425703
 20
174.4206553153
 30
0
 11
332.3010425703
 21
251.4206548981
 31
0
  0
LINE
  8
0
 62
7
 10
372.5052099363
 20
237.9206554792
 30
0
 11
372.5052099363
 21
262.4206548385
 31
0
  0
LINE
  8
0
 62
7
 10
337.0968769924
 20
237.9206554792
 30
0
 11
337.0968769924
 21
262.4206548385
 31
0
  0
LINE
  8
0
 62
7
 10
368.8241462843
 20
198.6050853334
 30
0
 11
368.8241462843
 21
187.9206547342
 31
0
  0
LINE
  8
0
 62
7
 10
377.3010443584
 20
187.9206547342
 30
0
 11
332.3010425703
 21
187.9206547342
 31
0
  0
LINE
  8
0
 62
7
 10
340.7779406444
 20
198.6050853334
 30
0
 11
340.7779406444
 21
187.9206547342
 31
0
  0
LINE
  8
0
 62
7
 10
341.6596274511
 20
197.920655442
 30
0
 11
367.9424594776
 21
197.920655442
 31
0
  0
LINE
  8
0
 62
7
 10
362.6412745253
 20
200.0586116514
 30
0
 11
369.1909830705
 21
200.0586116514
 31
0
  0
LINE
  8
0
 62
7
 10
340.4111038582
 20
200.0586116514
 30
0
 11
346.9608049528
 21
200.0586116514
 31
0
  0
LINE
  8
0
 62
7
 10
338.9459471838
 20
212.9206551067
 30
0
 11
340.4111038582
 21
200.0586116514
 31
0
  0
LINE
  8
0
 62
7
 10
369.1909830705
 20
200.0586116514
 30
0
 11
370.6561322943
 21
212.9206551067
 31
0
  0
LINE
  8
0
 62
7
 10
364.1497786776
 20
212.9206551067
 30
0
 11
363.259918584
 21
203.4489890389
 31
0
  0
LINE
  8
0
 62
7
 10
363.259918584
 20
203.4489890389
 30
0
 11
362.6412745253
 21
200.0586116514
 31
0
  0
LINE
  8
0
 62
7
 10
346.3421683447
 20
203.4489890389
 30
0
 11
345.4523008005
 21
212.9206551067
 31
0
  0
LINE
  8
0
 62
7
 10
346.9608049528
 20
200.0586116514
 30
0
 11
346.3421683447
 21
203.4489890389
 31
0
  0
LINE
  8
0
 62
7
 10
337.0968769924
 20
163.4206553749
 30
0
 11
337.0968769924
 21
187.9206547342
 31
0
  0
LINE
  8
0
 62
7
 10
372.5052099363
 20
163.4206553749
 30
0
 11
372.5052099363
 21
187.9206547342
 31
0
  0
LINE
  8
0
 62
7
 10
58.3010386364
 20
132.9206568948
 30
0
 11
43.3010529415
 21
132.9206568948
 31
0
  0
LINE
  8
0
 62
7
 10
43.3010529415
 20
132.9206568948
 30
0
 11
43.3010529415
 21
305.9206573121
 31
0
  0
LINE
  8
0
 62
7
 10
58.3010386364
 20
132.9206568948
 30
0
 11
58.3010386364
 21
305.9206573121
 31
0
  0
LINE
  8
0
 62
7
 10
41.3010488884
 20
162.9206543616
 30
0
 11
41.3010488884
 21
262.9206558517
 31
0
  0
LINE
  8
0
 62
7
 10
542.1692277924
 20
300.9206546299
 30
0
 11
542.1692277924
 21
312.4206555835
 31
0
  0
LINE
  8
0
 62
7
 10
414.3010448353
 20
300.9206546299
 30
0
 11
558.3010386364
 21
300.9206546299
 31
0
  0
LINE
  8
0
 62
7
 10
430.4328556792
 20
312.4206555835
 30
0
 11
430.4328556792
 21
300.9206546299
 31
0
  0
LINE
  8
0
 62
7
 10
430.4328556792
 20
312.4206555835
 30
0
 11
474.3294134424
 21
312.4206555835
 31
0
  0
LINE
  8
0
 62
7
 10
458.8010418848
 20
308.9206559412
 30
0
 11
458.8010418848
 21
312.4206555835
 31
0
  0
LINE
  8
0
 62
7
 10
513.8010415868
 20
308.9206559412
 30
0
 11
513.8010415868
 21
312.4206555835
 31
0
  0
LINE
  8
0
 62
7
 10
498.2726700292
 20
312.4206555835
 30
0
 11
542.1692277924
 21
312.4206555835
 31
0
  0
LINE
  8
0
 62
7
 10
458.8010418848
 20
308.9206559412
 30
0
 11
513.8010415868
 21
308.9206559412
 31
0
  0
LINE
  8
0
 62
7
 10
507.2746459083
 20
308.9206559412
 30
0
 11
507.2746459083
 21
312.4206555835
 31
0
  0
LINE
  8
0
 62
7
 10
465.3274375633
 20
308.9206559412
 30
0
 11
465.3274375633
 21
312.4206555835
 31
0
  0
LINE
  8
0
 62
7
 10
528.4820530252
 20
315.4206542126
 30
0
 11
528.4820530252
 21
312.4206555835
 31
0
  0
LINE
  8
0
 62
7
 10
421.7849518792
 20
315.4206542126
 30
0
 11
550.8171315924
 21
315.4206542126
 31
0
  0
LINE
  8
0
 62
7
 10
550.3394376175
 20
312.4206555835
 30
0
 11
550.3394376175
 21
300.9206546299
 31
0
  0
LINE
  8
0
 62
7
 10
422.2626458542
 20
300.9206546299
 30
0
 11
422.2626458542
 21
312.4206555835
 31
0
  0
LINE
  8
0
 62
7
 10
444.1200304465
 20
315.4206542126
 30
0
 11
444.1200304465
 21
312.4206555835
 31
0
  0
LINE
  8
0
 62
7
 10
474.3294134424
 20
308.9206559412
 30
0
 11
474.3294134424
 21
312.4206555835
 31
0
  0
LINE
  8
0
 62
7
 10
498.2726700292
 20
308.9206559412
 30
0
 11
498.2726700292
 21
312.4206555835
 31
0
  0
LINE
  8
0
 62
7
 10
457.3948807702
 20
315.4206542126
 30
0
 11
457.3948807702
 21
312.4206555835
 31
0
  0
LINE
  8
0
 62
7
 10
515.2072027014
 20
315.4206542126
 30
0
 11
515.2072027014
 21
312.4206555835
 31
0
  0
LINE
  8
0
 62
7
 10
556.4013939039
 20
308.9206559412
 30
0
 11
556.4013939039
 21
312.4206555835
 31
0
  0
LINE
  8
0
 62
7
 10
556.4013939039
 20
308.9206559412
 30
0
 11
558.3010386364
 21
308.9206559412
 31
0
  0
LINE
  8
0
 62
7
 10
550.3394376175
 20
312.4206555835
 30
0
 11
556.4013939039
 21
312.4206555835
 31
0
  0
LINE
  8
0
 62
7
 10
414.3010448353
 20
308.9206559412
 30
0
 11
415.8696900741
 21
308.9206559412
 31
0
  0
LINE
  8
0
 62
7
 10
415.8696900741
 20
308.9206559412
 30
0
 11
415.8696900741
 21
312.4206555835
 31
0
  0
LINE
  8
0
 62
7
 10
415.8696900741
 20
312.4206555835
 30
0
 11
422.2626458542
 21
312.4206555835
 31
0
  0
LINE
  8
0
 62
7
 10
461.3010413633
 20
323.9206565372
 30
0
 11
470.9230219633
 21
323.9206565372
 31
0
  0
LINE
  8
0
 62
7
 10
549.5965998308
 20
322.4206534974
 30
0
 11
553.3010434047
 21
322.4206534974
 31
0
  0
LINE
  8
0
 62
7
 10
584.3010391728
 20
305.9206573121
 30
0
 11
584.3010391728
 21
132.9206568948
 31
0
  0
LINE
  8
0
 62
7
 10
584.3010391728
 20
132.9206568948
 30
0
 11
599.3010397689
 21
132.9206568948
 31
0
  0
LINE
  8
0
 62
7
 10
599.3010397689
 20
305.9206573121
 30
0
 11
599.3010397689
 21
132.9206568948
 31
0
  0
LINE
  8
0
 62
7
 10
502.7352250801
 20
228.1015408985
 30
0
 11
500.6033606515
 21
228.1015408985
 31
0
  0
LINE
  8
0
 62
7
 10
500.6033606515
 20
228.1015408985
 30
0
 11
500.6033606515
 21
237.0779799125
 31
0
  0
LINE
  8
0
 62
7
 10
497.8287076266
 20
236.0314285211
 30
0
 11
497.8287076266
 21
228.1015408985
 31
0
  0
LINE
  8
0
 62
7
 10
497.8287076266
 20
228.1015408985
 30
0
 11
495.696843198
 21
228.1015408985
 31
0
  0
LINE
  8
0
 62
7
 10
495.696843198
 20
228.1015408985
 30
0
 11
495.696843198
 21
237.1651926837
 31
0
  0
LINE
  8
0
 62
7
 10
493.0223231823
 20
236.0314285211
 30
0
 11
493.0223231823
 21
228.1015408985
 31
0
  0
LINE
  8
0
 62
7
 10
493.0223231823
 20
228.1015408985
 30
0
 11
490.8904592195
 21
228.1015408985
 31
0
  0
LINE
  8
0
 62
7
 10
490.8904592195
 20
228.1015408985
 30
0
 11
490.8904592195
 21
240.0432085446
 31
0
  0
LINE
  8
0
 62
7
 10
490.8904592195
 20
240.0432085446
 30
0
 11
493.0223231823
 21
240.0432085446
 31
0
  0
LINE
  8
0
 62
7
 10
493.0223231823
 20
240.0432085446
 30
0
 11
493.0223231823
 21
238.5605951599247
 31
0
  0
LINE
  8
0
 62
7
 10
502.7352250801
 20
237.8628929905
 30
0
 11
502.7352250801
 21
228.1015408985
 31
0
  0
LINE
  8
0
 62
7
 10
542.0726608173
 20
285.9206540338
 30
0
 11
542.0726608173
 21
300.9206546299
 31
0
  0
LINE
  8
0
 62
7
 10
430.5294226543
 20
285.9206540338
 30
0
 11
430.5294226543
 21
300.9206546299
 31
0
  0
LINE
  8
0
 62
7
 10
414.3010448353
 20
285.9206540338
 30
0
 11
558.3010386364
 21
285.9206540338
 31
0
  0
LINE
  8
0
 62
7
 10
466.3010421828
 20
256.420653855
 30
0
 11
494.3010421158
 21
256.420653855
 31
0
  0
LINE
  8
0
 62
7
 10
466.3010421828
 20
259.4206562094
 30
0
 11
466.3010421828
 21
256.420653855
 31
0
  0
LINE
  8
0
 62
7
 10
494.3010421158
 20
259.4206562094
 30
0
 11
466.3010421828
 21
259.4206562094
 31
0
  0
LINE
  8
0
 62
7
 10
516.833951293
 20
228.1015408985
 30
0
 11
514.7020868645
 21
228.1015408985
 31
0
  0
LINE
  8
0
 62
7
 10
514.7020868645
 20
228.1015408985
 30
0
 11
514.7020868645
 21
237.0779799125
 31
0
  0
LINE
  8
0
 62
7
 10
511.9274347709
 20
236.0314285211
 30
0
 11
511.9274347709
 21
228.1015408985
 31
0
  0
LINE
  8
0
 62
7
 10
511.9274347709
 20
228.1015408985
 30
0
 11
509.7955703423
 21
228.1015408985
 31
0
  0
LINE
  8
0
 62
7
 10
509.7955703423
 20
228.1015408985
 30
0
 11
509.7955703423
 21
237.1651926837
 31
0
  0
LINE
  8
0
 62
7
 10
507.1210503266
 20
236.0314285211
 30
0
 11
507.1210503266
 21
228.1015408985
 31
0
  0
LINE
  8
0
 62
7
 10
507.1210503266
 20
228.1015408985
 30
0
 11
504.9891858981
 21
228.1015408985
 31
0
  0
LINE
  8
0
 62
7
 10
504.9891858981
 20
228.1015408985
 30
0
 11
504.9891858981
 21
240.0432085446
 31
0
  0
LINE
  8
0
 62
7
 10
504.9891858981
 20
240.0432085446
 30
0
 11
507.1210503266
 21
240.0432085446
 31
0
  0
LINE
  8
0
 62
7
 10
507.1210503266
 20
240.0432085446
 30
0
 11
507.1210503266
 21
238.5605951598917
 31
0
  0
LINE
  8
0
 62
7
 10
516.833951293
 20
237.8628929905
 30
0
 11
516.833951293
 21
228.1015408985
 31
0
  0
LINE
  8
0
 62
7
 10
494.3010421158
 20
256.420653855
 30
0
 11
494.3010421158
 21
253.9206562392
 31
0
  0
LINE
  8
0
 62
7
 10
494.3010421158
 20
261.9206538252
 30
0
 11
494.3010421158
 21
259.4206562094
 31
0
  0
LINE
  8
0
 62
7
 10
460.5419687615
 20
236.2315045498
 30
0
 11
458.103436573
 21
236.2315045498
 31
0
  0
LINE
  8
0
 62
7
 10
458.103436573
 20
236.2315045498
 30
0
 11
458.7908755676
 21
246.1121795527
 31
0
  0
LINE
  8
0
 62
7
 10
458.7908755676
 20
246.1121795527
 30
0
 11
468.7912571863
 21
246.1121795527
 31
0
  0
LINE
  8
0
 62
7
 10
468.7912571863
 20
246.1121795527
 30
0
 11
468.7912571863
 21
244.364508038
 31
0
  0
LINE
  8
0
 62
7
 10
468.7912571863
 20
244.364508038
 30
0
 11
461.1131265448
 21
244.364508038
 31
0
  0
LINE
  8
0
 62
7
 10
461.1131265448
 20
244.364508038
 30
0
 11
460.654832019
 21
238.3553875438
 31
0
  0
LINE
  8
0
 62
7
 10
457.5630590008
 20
233.1841928712
 30
0
 11
460.1965393559
 21
233.1841928712
 31
0
  0
LINE
  8
0
 62
7
 10
422.4804859297
 20
285.9206540338
 30
0
 11
422.4804859297
 21
300.9206546299
 31
0
  0
LINE
  8
0
 62
7
 10
550.121597542
 20
285.9206540338
 30
0
 11
550.121597542
 21
300.9206546299
 31
0
  0
LINE
  8
0
 62
7
 10
547.0871697799
 20
259.2857820741
 30
0
 11
547.1202093796001
 21
259.3157296828
 31
0
  0
LINE
  8
0
 62
7
 10
495.3010413484
 20
178.420655971
 30
0
 11
495.3010413484
 21
190.4206542126
 31
0
  0
LINE
  8
0
 62
7
 10
477.3010421232
 20
178.420655971
 30
0
 11
495.3010413484
 21
178.420655971
 31
0
  0
LINE
  8
0
 62
7
 10
477.3010421232
 20
190.4206542126
 30
0
 11
477.3010421232
 21
178.420655971
 31
0
  0
LINE
  8
0
 62
7
 10
495.3010413484
 20
190.4206542126
 30
0
 11
477.3010421232
 21
190.4206542126
 31
0
  0
LINE
  8
0
 62
7
 10
540.5711974637
 20
189.3045069478
 30
0
 11
540.5711974637
 21
173.5716691069
 31
0
  0
LINE
  8
0
 62
7
 10
486.3010417358
 20
144.1547987811
 30
0
 11
483.1886646026
 21
144.6055067531
 31
0
  0
LINE
  8
0
 62
7
 10
456.6082261191
 20
138.7820957057
 30
0
 11
445.7906741337
 21
142.659027671
 31
0
  0
LINE
  8
0
 62
7
 10
489.3946352569
 20
144.2470965735
 30
0
 11
486.3010417351
 21
144.1555587403
 31
0
  0
LINE
  8
0
 62
7
 10
601.301043822
 20
212.9206551067
 30
0
 11
601.301043822
 21
262.9206558517
 31
0
  0
LINE
  8
0
 62
7
 10
601.301043822
 20
162.9206543616
 30
0
 11
601.301043822
 21
212.9206551067
 31
0
  0
LINE
  8
0
 62
7
 10
395.9724005
 20
242.4206552855
 30
0
 11
381.0662250654
 21
242.4206552855
 31
0
  0
LINE
  8
0
 62
7
 10
483.8010417917
 20
132.9206568948
 30
0
 11
488.8010416799
 21
132.9206568948
 31
0
  0
LINE
  8
0
 62
7
 10
483.1886646026
 20
144.6055067531
 30
0
 11
483.8010417917
 21
132.9206568948
 31
0
  0
LINE
  8
0
 62
7
 10
489.3946352569
 20
144.2470965735
 30
0
 11
488.8010416799
 21
132.9206568948
 31
0
  0
LINE
  8
0
 62
7
 10
379.301040961
 20
180.9206535868
 30
0
 11
379.301040961
 21
244.9206566266
 31
0
  0
LINE
  8
0
 62
7
 10
579.9783687727
 20
155.9018088333
 30
0
 11
548.4292503134
 21
177.6598213069
 31
0
  0
LINE
  8
0
 62
7
 10
579.273618354
 20
270.0392385773
 30
0
 11
554.4942911402
 21
255.8372361414
 31
0
  0
LINE
  8
0
 62
7
 10
516.3010410653
 20
132.9206568948
 30
0
 11
526.3010408417
 21
132.9206568948
 31
0
  0
LINE
  8
0
 62
7
 10
515.9946247623
 20
138.7674478642
 30
0
 11
516.3010410653
 21
132.9206568948
 31
0
  0
LINE
  8
0
 62
7
 10
526.8946360485001
 20
144.2470965735
 30
0
 11
526.3010408417
 21
132.9206568948
 31
0
  0
LINE
  8
0
 62
7
 10
446.3010426299
 20
132.9206568948
 30
0
 11
456.3010424064
 21
132.9206568948
 31
0
  0
LINE
  8
0
 62
7
 10
445.7906741337
 20
142.659027671
 30
0
 11
446.3010426299
 21
132.9206568948
 31
0
  0
LINE
  8
0
 62
7
 10
456.6082261191
 20
138.7820957057
 30
0
 11
456.3010424064
 21
132.9206568948
 31
0
  0
LINE
  8
0
 62
7
 10
395.9724005
 20
242.4206552855
 30
0
 11
395.9786366359
 21
242.3921959303
 31
0
  0
LINE
  8
0
 62
7
 10
415.1015128628
 20
256.5620696
 30
0
 11
415.0950830118
 21
256.5620696
 31
0
  0
LINE
  8
0
 62
7
 10
433.3010423617
 20
340.4206527225
 30
0
 11
434.4867985384
 21
340.4206527225
 31
0
  0
LINE
  8
0
 62
7
 10
527.6572886543
 20
280.9206588022
 30
0
 11
444.9447948174
 21
280.9206588022
 31
0
  0
LINE
  8
0
 62
7
 10
478.5883303545
 20
187.9951373412
 30
0
 11
488.3345967425
 21
187.9951373412
 31
0
  0
LINE
  8
0
 62
7
 10
478.5883303545
 20
187.9951373412
 30
0
 11
478.5883303545
 21
180.9951373412
 31
0
  0
LINE
  8
0
 62
7
 10
478.5883303545
 20
180.9951373412
 30
0
 11
488.3345967425
 21
180.9951373412
 31
0
  0
LINE
  8
0
 62
7
 10
488.3345967425
 20
187.9951373412
 30
0
 11
488.3345967425
 21
180.9951373412
 31
0
  0
LINE
  8
0
 62
2
  6
DASHDOT
 10
354.8010417358
 20
167.1362243861
 30
0
 11
354.8010417358
 21
257.9206551067
 31
0
  0
LINE
  8
0
 62
7
 10
466.8010413335
 20
383.1676595237
 30
0
 11
466.8010413335
 21
466.8753125097
 31
0
  0
LINE
  8
0
 62
7
 10
461.8010423766
 20
469.1603236224
 30
0
 11
461.8010423766
 21
383.1676595237
 31
0
  0
LINE
  8
0
 62
7
 10
43.3010529415
 20
423.1576599504
 30
0
 11
58.3010386364
 21
423.1576599504
 31
0
  0
LINE
  8
0
 62
7
 10
58.3010386364
 20
609.1576643612
 30
0
 11
43.3010529415
 21
609.1576643612
 31
0
  0
LINE
  8
0
 62
7
 10
43.3010529415
 20
568.1576632287
 30
0
 11
41.3010488884
 21
566.1576629009001
 31
0
  0
LINE
  8
0
 62
7
 10
41.3010488884
 20
466.1576614107
 30
0
 11
43.3010529415
 21
464.1576610829
 31
0
  0
LINE
  8
0
 62
7
 10
599.3010397689
 20
609.1576643612
 30
0
 11
584.3010391728
 21
609.1576643612
 31
0
  0
LINE
  8
0
 62
7
 10
584.3010391728
 20
423.1576599504
 30
0
 11
599.3010397689
 21
423.1576599504
 31
0
  0
LINE
  8
0
 62
7
 10
414.43071474
 20
523.2283427704
 30
0
 11
413.934669985
 21
517.6582171207
 31
0
  0
LINE
  8
0
 62
7
 10
558.2748945491001
 20
554.1284323062
 30
0
 11
554.0414224998
 21
556.6434279408001
 31
0
  0
LINE
  8
0
 62
7
 10
553.9985444085
 20
475.6464228358
 30
0
 11
558.2748945491001
 21
478.1868920054
 31
0
  0
LINE
  8
0
 62
7
 10
599.3010397689
 20
464.1576610829
 30
0
 11
601.301043822
 21
466.1576614107
 31
0
  0
LINE
  8
0
 62
7
 10
601.301043822
 20
566.1576629009001
 30
0
 11
599.3010397689
 21
568.1576632287
 31
0
  0
LINE
  8
0
 62
7
 10
377.3010443584
 20
484.1576606359
 30
0
 11
379.301040961
 21
484.1576606359
 31
0
  0
LINE
  8
0
 62
7
 10
379.301040961
 20
548.1576636757
 30
0
 11
377.3010443584
 21
548.1576636757
 31
0
  0
LINE
  8
0
 62
7
 10
523.1967676119
 20
541.1422342386001
 30
0
 11
523.1967676119
 21
539.9132777329
 31
0
  0
LINE
  8
0
 62
7
 10
523.1967676119
 20
539.9132777329
 30
0
 11
518.0221121446
 21
539.9132777329
 31
0
  0
LINE
  8
0
 62
7
 10
518.6254191832001
 20
538.3137703265001
 30
0
 11
523.1967676119
 21
538.3137703265001
 31
0
  0
LINE
  8
0
 62
7
 10
523.1967676119
 20
538.3137703265001
 30
0
 11
523.1967676119
 21
537.0848138209
 31
0
  0
LINE
  8
0
 62
7
 10
523.1967676119
 20
537.0848138209
 30
0
 11
517.9718393521
 21
537.0848138209
 31
0
  0
LINE
  8
0
 62
7
 10
518.6254191832001
 20
535.5430316503
 30
0
 11
523.1967676119
 21
535.5430316503
 31
0
  0
LINE
  8
0
 62
7
 10
523.1967676119
 20
535.5430316503
 30
0
 11
523.1967676119
 21
534.3140751447
 31
0
  0
LINE
  8
0
 62
7
 10
523.1967676119
 20
534.3140751447
 30
0
 11
516.3127459274
 21
534.3140751447
 31
0
  0
LINE
  8
0
 62
7
 10
516.3127459274
 20
534.3140751447
 30
0
 11
516.3127459274
 21
535.5430316503
 31
0
  0
LINE
  8
0
 62
7
 10
516.3127459274
 20
535.5430316503
 30
0
 11
517.1674299673
 21
535.5430316503
 31
0
  0
LINE
  8
0
 62
7
 10
517.5696346597
 20
541.1422342386001
 30
0
 11
523.1967676119
 21
541.1422342386001
 31
0
  0
LINE
  8
0
 62
7
 10
523.1967676119
 20
532.1422327632999
 30
0
 11
523.1967676119
 21
530.913277189
 31
0
  0
LINE
  8
0
 62
7
 10
523.1967676119
 20
530.913277189
 30
0
 11
518.0221121446
 21
530.913277189
 31
0
  0
LINE
  8
0
 62
7
 10
518.6254191832001
 20
529.313770714
 30
0
 11
523.1967676119
 21
529.313770714
 31
0
  0
LINE
  8
0
 62
7
 10
523.1967676119
 20
529.313770714
 30
0
 11
523.1967676119
 21
528.0848142083
 31
0
  0
LINE
  8
0
 62
7
 10
523.1967676119
 20
528.0848142083
 30
0
 11
517.9718393521
 21
528.0848142083
 31
0
  0
LINE
  8
0
 62
7
 10
518.6254191832001
 20
526.5430320378
 30
0
 11
523.1967676119
 21
526.5430320378
 31
0
  0
LINE
  8
0
 62
7
 10
523.1967676119
 20
526.5430320378
 30
0
 11
523.1967676119
 21
525.3140746008
 31
0
  0
LINE
  8
0
 62
7
 10
523.1967676119
 20
525.3140746008
 30
0
 11
516.3127459274
 21
525.3140746008
 31
0
  0
LINE
  8
0
 62
7
 10
516.3127459274
 20
525.3140746008
 30
0
 11
516.3127459274
 21
526.5430320378
 31
0
  0
LINE
  8
0
 62
7
 10
516.3127459274
 20
526.5430320378
 30
0
 11
517.1674299673
 21
526.5430320378
 31
0
  0
LINE
  8
0
 62
7
 10
517.5696346597
 20
532.1422327632999
 30
0
 11
523.1967676119
 21
532.1422327632999
 31
0
  0
LINE
  8
0
 62
7
 10
496.3010415123
 20
489.1576614554
 30
0
 11
508.3010416166
 21
489.1576614554
 31
0
  0
LINE
  8
0
 62
7
 10
496.3010415123
 20
543.1576628561001
 30
0
 11
496.3010415123
 21
489.1576614554
 31
0
  0
LINE
  8
0
 62
7
 10
508.3010416166
 20
543.1576628561001
 30
0
 11
496.3010415123
 21
543.1576628561001
 31
0
  0
LINE
  8
0
 62
7
 10
508.3010416166
 20
489.1576614554
 30
0
 11
508.3010416166
 21
543.1576628561001
 31
0
  0
LINE
  8
0
 62
7
 10
460.3010411994
 20
498.1576629307
 30
0
 11
460.3010411994
 21
534.1576613809
 31
0
  0
LINE
  8
0
 62
7
 10
450.3010432855
 20
498.1576629307
 30
0
 11
460.3010411994
 21
498.1576629307
 31
0
  0
LINE
  8
0
 62
7
 10
460.3010411994
 20
534.1576613809
 30
0
 11
450.3010432855
 21
534.1576613809
 31
0
  0
LINE
  8
0
 62
7
 10
450.3010432855
 20
534.1576613809
 30
0
 11
450.3010432855
 21
498.1576629307
 31
0
  0
LINE
  8
0
 62
7
 10
493.3010419519
 20
516.1576621558
 30
0
 11
485.8010417121
 21
520.4877891901
 31
0
  0
LINE
  8
0
 62
7
 10
485.8010417121
 20
511.8275351215
 30
0
 11
493.3010419519
 21
516.1576621558
 31
0
  0
LINE
  8
0
 62
7
 10
485.8010417121
 20
503.1672815184
 30
0
 11
485.8010417121
 21
511.8275351215
 31
0
  0
LINE
  8
0
 62
7
 10
478.3010413558
 20
507.4974080871
 30
0
 11
485.8010417121
 21
503.1672815184
 31
0
  0
LINE
  8
0
 62
7
 10
470.8010419891
 20
503.1672815184
 30
0
 11
478.3010413558
 21
507.4974080871
 31
0
  0
LINE
  8
0
 62
7
 10
470.8010419891
 20
511.8275351215
 30
0
 11
470.8010419891
 21
503.1672815184
 31
0
  0
LINE
  8
0
 62
7
 10
463.3010416911
 20
516.1576621558
 30
0
 11
470.8010419891
 21
511.8275351215
 31
0
  0
LINE
  8
0
 62
7
 10
470.8010419891
 20
520.4877891901
 30
0
 11
463.3010416911
 21
516.1576621558
 31
0
  0
LINE
  8
0
 62
7
 10
472.8010413856
 20
519.3330886632
 30
0
 11
467.3010423468
 21
516.1576621558
 31
0
  0
LINE
  8
0
 62
7
 10
467.3010423468
 20
516.1576621558
 30
0
 11
472.8010413856
 21
512.9822356484
 31
0
  0
LINE
  8
0
 62
7
 10
472.8010413856
 20
512.9822356484
 30
0
 11
472.8010413856
 21
506.6313824009
 31
0
  0
LINE
  8
0
 62
7
 10
472.8010413856
 20
506.6313824009
 30
0
 11
478.3010413558
 21
509.8068091411
 31
0
  0
LINE
  8
0
 62
7
 10
478.3010413558
 20
509.8068091411
 30
0
 11
483.8010417917
 21
506.6313824009
 31
0
  0
LINE
  8
0
 62
7
 10
483.8010417917
 20
506.6313824009
 30
0
 11
483.8010417917
 21
512.9822356484
 31
0
  0
LINE
  8
0
 62
7
 10
483.8010417917
 20
512.9822356484
 30
0
 11
489.3010417619
 21
516.1576621558
 31
0
  0
LINE
  8
0
 62
7
 10
489.3010417619
 20
516.1576621558
 30
0
 11
483.8010417917
 21
519.3330886632
 31
0
  0
LINE
  8
0
 62
7
 10
483.8010417917
 20
519.3330886632
 30
0
 11
483.8010417917
 21
525.6839419107
 31
0
  0
LINE
  8
0
 62
7
 10
483.8010417917
 20
525.6839419107
 30
0
 11
478.3010413558
 21
522.5085151705
 31
0
  0
LINE
  8
0
 62
7
 10
478.3010413558
 20
522.5085151705
 30
0
 11
472.8010413856
 21
525.6839419107
 31
0
  0
LINE
  8
0
 62
7
 10
472.8010413856
 20
525.6839419107
 30
0
 11
472.8010413856
 21
519.3330886632
 31
0
  0
LINE
  8
0
 62
7
 10
485.8010417121
 20
520.4877891901
 30
0
 11
485.8010417121
 21
529.1480427931
 31
0
  0
LINE
  8
0
 62
7
 10
485.8010417121
 20
529.1480427931
 30
0
 11
478.3010413558
 21
524.8179162245
 31
0
  0
LINE
  8
0
 62
7
 10
478.3010413558
 20
524.8179162245
 30
0
 11
470.8010419891
 21
529.1480427931
 31
0
  0
LINE
  8
0
 62
7
 10
470.8010419891
 20
529.1480427931
 30
0
 11
470.8010419891
 21
520.4877891901
 31
0
  0
LINE
  8
0
 62
7
 10
511.3010421083
 20
521.157662044
 30
0
 11
511.3010421083
 21
491.1576617833
 31
0
  0
LINE
  8
0
 62
7
 10
523.3010422126
 20
521.157662044
 30
0
 11
511.3010421083
 21
521.157662044
 31
0
  0
LINE
  8
0
 62
7
 10
523.3010422126
 20
491.1576617833
 30
0
 11
523.3010422126
 21
521.157662044
 31
0
  0
LINE
  8
0
 62
7
 10
511.3010421083
 20
491.1576617833
 30
0
 11
523.3010422126
 21
491.1576617833
 31
0
  0
LINE
  8
0
 62
7
 10
483.8010417917
 20
515.0576621618
 30
0
 11
483.8010417917
 21
517.2576621498
 31
0
  0
LINE
  8
0
 62
7
 10
479.4010418155
 20
515.0576621618
 30
0
 11
483.8010417917
 21
515.0576621618
 31
0
  0
LINE
  8
0
 62
7
 10
479.4010418155
 20
510.6576621856
 30
0
 11
479.4010418155
 21
515.0576621618
 31
0
  0
LINE
  8
0
 62
7
 10
477.2010413618
 20
510.6576621856
 30
0
 11
479.4010418155
 21
510.6576621856
 31
0
  0
LINE
  8
0
 62
7
 10
477.2010413618
 20
510.6576621856
 30
0
 11
477.2010413618
 21
515.0576621618
 31
0
  0
LINE
  8
0
 62
7
 10
472.8010413856
 20
515.0576621618
 30
0
 11
477.2010413618
 21
515.0576621618
 31
0
  0
LINE
  8
0
 62
7
 10
472.8010413856
 20
515.0576621618
 30
0
 11
472.8010413856
 21
517.2576621498
 31
0
  0
LINE
  8
0
 62
7
 10
472.8010413856
 20
517.2576621498
 30
0
 11
477.2010413618
 21
517.2576621498
 31
0
  0
LINE
  8
0
 62
7
 10
477.2010413618
 20
517.2576621498
 30
0
 11
477.2010413618
 21
521.657662126
 31
0
  0
LINE
  8
0
 62
7
 10
477.2010413618
 20
521.657662126
 30
0
 11
479.4010418155
 21
521.657662126
 31
0
  0
LINE
  8
0
 62
7
 10
479.4010418155
 20
517.2576621498
 30
0
 11
479.4010418155
 21
521.657662126
 31
0
  0
LINE
  8
0
 62
7
 10
479.4010418155
 20
517.2576621498
 30
0
 11
483.8010417917
 21
517.2576621498
 31
0
  0
LINE
  8
0
 62
7
 10
539.9759892062
 20
506.1576623793
 30
0
 11
541.7266670303
 21
506.1576623793
 31
0
  0
LINE
  8
0
 62
7
 10
541.7266670303
 20
526.1576619323
 30
0
 11
539.9759892062
 21
526.1576619323
 31
0
  0
LINE
  8
0
 62
7
 10
425.8010420636
 20
530.3576622482
 30
0
 11
431.5711591081
 21
530.3576622482
 31
0
  0
LINE
  8
0
 62
7
 10
423.8010417358
 20
503.9576623912
 30
0
 11
423.8010417358
 21
528.3576619204
 31
0
  0
LINE
  8
0
 62
7
 10
431.5711591081
 20
501.9576620634
 30
0
 11
425.8010420636
 21
501.9576620634
 31
0
  0
LINE
  8
0
 62
7
 10
461.8010423766
 20
383.1676595237
 30
0
 11
466.8010413335
 21
383.1676595237
 31
0
  0
LINE
  8
0
 62
7
 10
354.8010360138
 20
468.6576627518
 30
0
 11
360.2858703272
 21
468.6576627518
 31
0
  0
LINE
  8
0
 62
7
 10
349.3162166015
 20
468.6576627518
 30
0
 11
354.8010360138
 21
468.6576627518
 31
0
  0
LINE
  8
0
 62
7
 10
360.2858703272
 20
449.6576615001
 30
0
 11
354.8010360138
 21
449.6576615001
 31
0
  0
LINE
  8
0
 62
7
 10
354.8010360138
 20
449.6576615001
 30
0
 11
349.3162166015
 21
449.6576615001
 31
0
  0
LINE
  8
0
 62
7
 10
349.3162166015
 20
582.6576628114
 30
0
 11
354.8010360138
 21
582.6576628114
 31
0
  0
LINE
  8
0
 62
7
 10
354.8010360138
 20
582.6576628114
 30
0
 11
360.2858703272
 21
582.6576628114
 31
0
  0
LINE
  8
0
 62
7
 10
360.2858703272
 20
563.6576615597001
 30
0
 11
354.8010360138
 21
563.6576615597001
 31
0
  0
LINE
  8
0
 62
7
 10
354.8010360138
 20
563.6576615597001
 30
0
 11
349.3162166015
 21
563.6576615597001
 31
0
  0
LINE
  8
0
 62
7
 10
377.3010443584
 20
545.4364937122
 30
0
 11
372.5052099363
 21
558.880606326
 31
0
  0
LINE
  8
0
 62
7
 10
377.3010443584
 20
486.8788305994
 30
0
 11
377.3010443584
 21
545.4364937122
 31
0
  0
LINE
  8
0
 62
7
 10
372.5052099363
 20
473.4347179856
 30
0
 11
372.5052099363
 21
558.880606326
 31
0
  0
LINE
  8
0
 62
7
 10
337.0968769924
 20
473.4347179856
 30
0
 11
372.5052099363
 21
473.4347179856
 31
0
  0
LINE
  8
0
 62
7
 10
337.0968769924
 20
473.4347179856
 30
0
 11
337.0968769924
 21
558.880606326
 31
0
  0
LINE
  8
0
 62
7
 10
372.5052099363
 20
558.880606326
 30
0
 11
337.0968769924
 21
558.880606326
 31
0
  0
LINE
  8
0
 62
7
 10
332.3010425703
 20
486.8788305994
 30
0
 11
337.0968769924
 21
473.4347179856
 31
0
  0
LINE
  8
0
 62
7
 10
332.3010425703
 20
486.8788305994
 30
0
 11
332.3010425703
 21
545.4364937122
 31
0
  0
LINE
  8
0
 62
7
 10
375.3472562567
 20
561.3031402554
 30
0
 11
368.8241462843
 21
578.4823648955
 31
0
  0
LINE
  8
0
 62
7
 10
340.7779406444
 20
578.4823648955
 30
0
 11
334.2548232214
 21
561.3031402554
 31
0
  0
LINE
  8
0
 62
7
 10
332.3010425703
 20
550.6537348356
 30
0
 11
332.3010425703
 21
545.4364937122
 31
0
  0
LINE
  8
0
 62
7
 10
377.3010443584
 20
545.4364937122
 30
0
 11
377.3010443584
 21
550.6537348356
 31
0
  0
LINE
  8
0
 62
7
 10
368.8241462843
 20
453.8329594161
 30
0
 11
375.3472562567
 21
471.0121840562
 31
0
  0
LINE
  8
0
 62
7
 10
334.2548232214
 20
471.0121840562
 30
0
 11
340.7779406444
 21
453.8329594161
 31
0
  0
LINE
  8
0
 62
7
 10
332.3010425703
 20
486.8788305994
 30
0
 11
332.3010425703
 21
481.661589476
 31
0
  0
LINE
  8
0
 62
7
 10
377.3010443584
 20
481.661589476
 30
0
 11
377.3010443584
 21
486.8788305994
 31
0
  0
LINE
  8
0
 62
7
 10
43.3010529415
 20
423.1576599504
 30
0
 11
43.3010529415
 21
609.1576643612
 31
0
  0
LINE
  8
0
 62
7
 10
58.3010386364
 20
423.1576599504
 30
0
 11
58.3010386364
 21
609.1576643612
 31
0
  0
LINE
  8
0
 62
7
 10
41.3010488884
 20
466.1576614107
 30
0
 11
41.3010488884
 21
566.1576629009001
 31
0
  0
LINE
  8
0
 62
7
 10
546.0510398881
 20
511.2142321977
 30
0
 11
546.0510398881
 21
521.1010921139
 31
0
  0
LINE
  8
0
 62
7
 10
544.5510405735
 20
521.1010921139
 30
0
 11
544.0976503925
 21
521.0106872346
 31
0
  0
LINE
  8
0
 62
7
 10
544.0976503925
 20
511.304637077
 30
0
 11
544.5510405735
 21
511.2142321977
 31
0
  0
LINE
  8
0
 62
7
 10
544.5510405735
 20
521.1010921139
 30
0
 11
544.5510405735
 21
511.2142321977
 31
0
  0
LINE
  8
0
 62
7
 10
539.8795079128
 20
526.15999117
 30
0
 11
539.8471910195
 21
526.3095029022001
 31
0
  0
LINE
  8
0
 62
7
 10
539.8471910195
 20
506.0058214094
 30
0
 11
539.8795079128
 21
506.1553331416
 31
0
  0
LINE
  8
0
 62
7
 10
545.3010420934
 20
521.407662085
 30
0
 11
544.0759356753
 21
521.2627198871001
 31
0
  0
LINE
  8
0
 62
7
 10
426.8407296077
 20
530.3576622482
 30
0
 11
426.8407296077
 21
533.7210126545
 31
0
  0
LINE
  8
0
 62
7
 10
425.9580108957
 20
530.2909162219
 30
0
 11
426.8407296077
 21
533.7210126545
 31
0
  0
LINE
  8
0
 62
7
 10
426.8407296077
 20
498.5943116571
 30
0
 11
426.8407296077
 21
501.9576620634
 31
0
  0
LINE
  8
0
 62
7
 10
426.8407296077
 20
498.5943116571
 30
0
 11
425.9740259186
 21
501.9576620634
 31
0
  0
LINE
  8
0
 62
7
 10
457.3948807702
 20
461.3084696557
 30
0
 11
461.8010423766
 21
459.2037327911
 31
0
  0
LINE
  8
0
 62
7
 10
458.8010418848
 20
586.2580143239001
 30
0
 11
465.3274375633
 21
579.7316186454
 31
0
  0
LINE
  8
0
 62
7
 10
507.2746459083
 20
579.7316186454
 30
0
 11
513.8010415868
 21
586.2580143239001
 31
0
  0
LINE
  8
0
 62
7
 10
426.5766735808
 20
541.1576625283
 30
0
 11
415.8696900741
 21
541.1576625283
 31
0
  0
LINE
  8
0
 62
7
 10
556.4013939039
 20
543.6576620068
 30
0
 11
549.8749982254
 21
537.1312663282999
 31
0
  0
LINE
  8
0
 62
7
 10
549.8749982254
 20
495.1840579833
 30
0
 11
556.4013939039
 21
488.6576623048
 31
0
  0
LINE
  8
0
 62
7
 10
415.8696900741
 20
491.1576617833
 30
0
 11
426.5766735808
 21
491.1576617833
 31
0
  0
LINE
  8
0
 62
7
 10
461.8010423766
 20
449.0573086168
 30
0
 11
458.8010418848
 21
446.0573099877
 31
0
  0
LINE
  8
0
 62
7
 10
513.8010415868
 20
446.0573099877
 30
0
 11
507.2746459083
 21
452.5837056662
 31
0
  0
LINE
  8
0
 62
7
 10
458.8010418848
 20
446.0573099877
 30
0
 11
461.8010423766
 21
445.6639565851
 31
0
  0
LINE
  8
0
 62
7
 10
584.3010391728
 20
609.1576643612
 30
0
 11
584.3010391728
 21
423.1576599504
 31
0
  0
LINE
  8
0
 62
7
 10
599.3010397689
 20
609.1576643612
 30
0
 11
599.3010397689
 21
423.1576599504
 31
0
  0
LINE
  8
0
 62
7
 10
584.3010391728
 20
511.1576622676
 30
0
 11
558.2385282652
 21
511.1576622676
 31
0
  0
LINE
  8
0
 62
7
 10
584.3010391728
 20
521.157662044
 30
0
 11
558.2385282652
 21
521.157662044
 31
0
  0
LINE
  8
0
 62
7
 10
601.301043822
 20
466.1576614107
 30
0
 11
601.301043822
 21
566.1576629009001
 31
0
  0
LINE
  8
0
 62
7
 10
414.3068339364
 20
514.6576621428
 30
0
 11
395.9724005
 21
514.6576621428
 31
0
  0
LINE
  8
0
 62
7
 10
395.9724005
 20
514.6576621428
 30
0
 11
395.9724005
 21
517.6576621688
 31
0
  0
LINE
  8
0
 62
7
 10
414.3068339364
 20
517.6576621688
 30
0
 11
395.9724005
 21
517.6576621688
 31
0
  0
LINE
  8
0
 62
7
 10
379.301040961
 20
484.1576606359
 30
0
 11
379.301040961
 21
548.1576636757
 31
0
  0
LINE
  8
0
 62
7
 10
855.1408385344
 20
323.4206555239
 30
0
 11
855.1408385344
 21
341.9206483118
 31
0
  0
LINE
  8
0
 62
7
 10
749.1408397861
 20
341.9206483118
 30
0
 11
749.1408397861
 21
323.4206555239
 31
0
  0
LINE
  8
0
 62
7
 10
669.1508365280999
 20
334.9206564776
 30
0
 11
749.1408397861
 21
334.9206564776
 31
0
  0
LINE
  8
0
 62
7
 10
749.1408397861
 20
339.9206591598
 30
0
 11
669.1508365280999
 21
339.9206591598
 31
0
  0
LINE
  8
0
 62
7
 10
794.1408387802001
 20
322.4206534974
 30
0
 11
794.1408387802001
 21
315.4206542126
 31
0
  0
LINE
  8
0
 62
7
 10
810.1408395402
 20
315.4206542126
 30
0
 11
810.1408395402
 21
322.4206534974
 31
0
  0
LINE
  8
0
 62
7
 10
866.6569290169
 20
312.4206555835
 30
0
 11
866.6569290169
 21
315.4206542126
 31
0
  0
LINE
  8
0
 62
7
 10
737.6247493036
 20
315.4206542126
 30
0
 11
737.6247493036
 21
312.4206555835
 31
0
  0
LINE
  8
0
 62
7
 10
874.1408360608
 20
285.9206540338
 30
0
 11
874.1408360608
 21
308.9206559412
 31
0
  0
LINE
  8
0
 62
7
 10
730.1408422597
 20
308.9206559412
 30
0
 11
730.1408422597
 21
285.9206540338
 31
0
  0
LINE
  8
0
 62
7
 10
810.4265534736001
 20
339.9206591598
 30
0
 11
810.4265534736001
 21
341.9206483118
 31
0
  0
LINE
  8
0
 62
7
 10
793.8551248468
 20
341.9206483118
 30
0
 11
793.8551248468
 21
339.9206591598
 31
0
  0
LINE
  8
0
 62
7
 10
790.5772027977
 20
341.9206483118
 30
0
 11
813.7044755228
 21
341.9206483118
 31
0
  0
LINE
  8
0
 62
7
 10
790.5772027977
 20
339.9206591598
 30
0
 11
813.7044755228
 21
339.9206591598
 31
0
  0
LINE
  8
0
 62
7
 10
812.1408389367
 20
341.9206483118
 30
0
 11
812.1408389367
 21
339.9206591598
 31
0
  0
LINE
  8
0
 62
7
 10
792.1408393837
 20
339.9206591598
 30
0
 11
792.1408393837
 21
341.9206483118
 31
0
  0
LINE
  8
0
 62
7
 10
813.7044755228
 20
341.9206483118
 30
0
 11
813.7044755228
 21
339.9206591598
 31
0
  0
LINE
  8
0
 62
7
 10
790.5772027977
 20
339.9206591598
 30
0
 11
790.5772027977
 21
341.9206483118
 31
0
  0
LINE
  8
0
 62
7
 10
756.1408390708
 20
348.9206624977
 30
0
 11
848.1408392496001
 21
348.9206624977
 31
0
  0
LINE
  8
0
 62
7
 10
777.1408387877
 20
349.9206496231
 30
0
 11
777.1408387877
 21
348.9206624977
 31
0
  0
LINE
  8
0
 62
7
 10
775.1408384599
 20
349.9206496231
 30
0
 11
829.1408398606
 21
349.9206496231
 31
0
  0
LINE
  8
0
 62
7
 10
807.1408390485
 20
349.9206496231
 30
0
 11
807.1408390485
 21
348.9206624977
 31
0
  0
LINE
  8
0
 62
7
 10
825.8964547373
 20
349.9206496231
 30
0
 11
825.8964547373
 21
348.9206624977
 31
0
  0
LINE
  8
0
 62
7
 10
827.125411243
 20
349.9206496231
 30
0
 11
827.125411243
 21
348.9206624977
 31
0
  0
LINE
  8
0
 62
7
 10
823.0679908252999
 20
349.9206496231
 30
0
 11
823.0679908252999
 21
348.9206624977
 31
0
  0
LINE
  8
0
 62
7
 10
824.296947331
 20
349.9206496231
 30
0
 11
824.296947331
 21
348.9206624977
 31
0
  0
LINE
  8
0
 62
7
 10
820.2972521491
 20
349.9206496231
 30
0
 11
820.2972521491
 21
348.9206624977
 31
0
  0
LINE
  8
0
 62
7
 10
821.5262086548
 20
349.9206496231
 30
0
 11
821.5262086548
 21
348.9206624977
 31
0
  0
LINE
  8
0
 62
7
 10
816.8964541934
 20
349.9206496231
 30
0
 11
816.8964541934
 21
348.9206624977
 31
0
  0
LINE
  8
0
 62
7
 10
818.1254097678
 20
349.9206496231
 30
0
 11
818.1254097678
 21
348.9206624977
 31
0
  0
LINE
  8
0
 62
7
 10
814.0679912127
 20
349.9206496231
 30
0
 11
814.0679912127
 21
348.9206624977
 31
0
  0
LINE
  8
0
 62
7
 10
815.2969477184
 20
349.9206496231
 30
0
 11
815.2969477184
 21
348.9206624977
 31
0
  0
LINE
  8
0
 62
7
 10
812.5262090422
 20
349.9206496231
 30
0
 11
812.5262090422
 21
348.9206624977
 31
0
  0
LINE
  8
0
 62
7
 10
811.2972516052
 20
349.9206496231
 30
0
 11
811.2972516052
 21
348.9206624977
 31
0
  0
LINE
  8
0
 62
7
 10
824.7010146685
 20
349.9206496231
 30
0
 11
824.7010146685
 21
348.9206624977
 31
0
  0
LINE
  8
0
 62
7
 10
821.9302741297
 20
349.9206496231
 30
0
 11
821.9302741297
 21
348.9206624977
 31
0
  0
LINE
  8
0
 62
7
 10
815.7010141246
 20
349.9206496231
 30
0
 11
815.7010141246
 21
348.9206624977
 31
0
  0
LINE
  8
0
 62
7
 10
812.9302745171
 20
349.9206496231
 30
0
 11
812.9302745171
 21
348.9206624977
 31
0
  0
LINE
  8
0
 62
7
 10
825.7400409736
 20
349.9206496231
 30
0
 11
825.7400409736
 21
348.9206624977
 31
0
  0
LINE
  8
0
 62
7
 10
816.740041361
 20
349.9206496231
 30
0
 11
816.740041361
 21
348.9206624977
 31
0
  0
LINE
  8
0
 62
7
 10
822.9693022974
 20
349.9206496231
 30
0
 11
822.9693022974
 21
348.9206624977
 31
0
  0
LINE
  8
0
 62
7
 10
813.9693017535
 20
349.9206496231
 30
0
 11
813.9693017535
 21
348.9206624977
 31
0
  0
LINE
  8
0
 62
7
 10
825.2782521255
 20
349.9206496231
 30
0
 11
825.2782521255
 21
348.9206624977
 31
0
  0
LINE
  8
0
 62
7
 10
822.5652368225
 20
349.9206496231
 30
0
 11
822.5652368225
 21
348.9206624977
 31
0
  0
LINE
  8
0
 62
7
 10
816.2782515816
 20
349.9206496231
 30
0
 11
816.2782515816
 21
348.9206624977
 31
0
  0
LINE
  8
0
 62
7
 10
813.5652362786
 20
349.9206496231
 30
0
 11
813.5652362786
 21
348.9206624977
 31
0
  0
LINE
  8
0
 62
7
 10
775.1408384599
 20
349.9206496231
 30
0
 11
775.1408384599
 21
348.9206624977
 31
0
  0
LINE
  8
0
 62
7
 10
829.1408398606
 20
349.9206496231
 30
0
 11
829.1408398606
 21
348.9206624977
 31
0
  0
LINE
  8
0
 62
7
 10
669.1508365280999
 20
339.9206591598
 30
0
 11
669.1508365280999
 21
334.9206564776
 31
0
  0
LINE
  8
0
 62
7
 10
863.9667404301
 20
282.394085621
 30
0
 11
863.9667404301
 21
285.9206540338
 31
0
  0
LINE
  8
0
 62
7
 10
740.3149378903
 20
282.394085621
 30
0
 11
740.3149378903
 21
285.9206540338
 31
0
  0
LINE
  8
0
 62
7
 10
854.4667398043
 20
322.5721461526
 30
0
 11
854.4667398043
 21
315.4206542126
 31
0
  0
LINE
  8
0
 62
7
 10
863.9667404301
 20
323.4206555239
 30
0
 11
863.9667404301
 21
315.4206542126
 31
0
  0
LINE
  8
0
 62
7
 10
863.9667404301
 20
323.4206555239
 30
0
 11
844.9667391784
 21
323.4206555239
 31
0
  0
LINE
  8
0
 62
7
 10
844.9667391784
 20
323.4206555239
 30
0
 11
844.9667391784
 21
315.4206542126
 31
0
  0
LINE
  8
0
 62
7
 10
749.8149385162
 20
322.5721461526
 30
0
 11
749.8149385162
 21
315.4206542126
 31
0
  0
LINE
  8
0
 62
7
 10
759.314939142
 20
323.4206555239
 30
0
 11
759.314939142
 21
315.4206542126
 31
0
  0
LINE
  8
0
 62
7
 10
759.314939142
 20
323.4206555239
 30
0
 11
740.3149378903
 21
323.4206555239
 31
0
  0
LINE
  8
0
 62
7
 10
740.3149378903
 20
323.4206555239
 30
0
 11
740.3149378903
 21
315.4206542126
 31
0
  0
LINE
  8
0
 62
7
 10
858.0090252168
 20
300.9206546299
 30
0
 11
858.0090252168
 21
312.4206555835
 31
0
  0
LINE
  8
0
 62
7
 10
746.2726531036
 20
312.4206555835
 30
0
 11
746.2726531036
 21
300.9206546299
 31
0
  0
LINE
  8
0
 62
7
 10
774.6408393092
 20
308.9206559412
 30
0
 11
774.6408393092
 21
312.4206555835
 31
0
  0
LINE
  8
0
 62
7
 10
774.6408393092
 20
308.9206559412
 30
0
 11
829.6408390112
 21
308.9206559412
 31
0
  0
LINE
  8
0
 62
7
 10
829.6408390112
 20
308.9206559412
 30
0
 11
829.6408390112
 21
312.4206555835
 31
0
  0
LINE
  8
0
 62
7
 10
730.1408422597
 20
300.9206546299
 30
0
 11
772.0576205708001
 21
300.9206546299
 31
0
  0
LINE
  8
0
 62
7
 10
832.2240577497
 20
300.9206546299
 30
0
 11
858.0090252168
 21
300.9206546299
 31
0
  0
LINE
  8
0
 62
7
 10
823.1144433327
 20
308.9206559412
 30
0
 11
823.1144433327
 21
312.4206555835
 31
0
  0
LINE
  8
0
 62
7
 10
781.1672349878
 20
308.9206559412
 30
0
 11
781.1672349878
 21
312.4206555835
 31
0
  0
LINE
  8
0
 62
7
 10
790.1692108668
 20
312.4206555835
 30
0
 11
746.2726531036
 21
312.4206555835
 31
0
  0
LINE
  8
0
 62
7
 10
809.7289458334
 20
315.4206542126
 30
0
 11
809.7289458334
 21
308.9206559412
 31
0
  0
LINE
  8
0
 62
7
 10
794.552732487
 20
308.9206559412
 30
0
 11
794.552732487
 21
315.4206542126
 31
0
  0
LINE
  8
0
 62
7
 10
759.314939142
 20
322.4206534974
 30
0
 11
844.9667391784
 21
322.4206534974
 31
0
  0
LINE
  8
0
 62
7
 10
844.3218504496
 20
315.4206542126
 30
0
 11
844.3218504496
 21
312.4206555835
 31
0
  0
LINE
  8
0
 62
7
 10
809.7289458334
 20
315.4206542126
 30
0
 11
866.6569290169
 21
315.4206542126
 31
0
  0
LINE
  8
0
 62
7
 10
866.1792350419
 20
312.4206555835
 30
0
 11
866.1792350419
 21
300.9206546299
 31
0
  0
LINE
  8
0
 62
7
 10
874.1408360608
 20
300.9206546299
 30
0
 11
858.0090252168
 21
300.9206546299
 31
0
  0
LINE
  8
0
 62
7
 10
738.1024432786001
 20
300.9206546299
 30
0
 11
738.1024432786001
 21
312.4206555835
 31
0
  0
LINE
  8
0
 62
7
 10
737.6247493036
 20
315.4206542126
 30
0
 11
794.552732487
 21
315.4206542126
 31
0
  0
LINE
  8
0
 62
7
 10
759.9598278709
 20
315.4206542126
 30
0
 11
759.9598278709
 21
312.4206555835
 31
0
  0
LINE
  8
0
 62
7
 10
814.1124674536
 20
308.9206559412
 30
0
 11
814.1124674536
 21
312.4206555835
 31
0
  0
LINE
  8
0
 62
7
 10
858.0090252168
 20
312.4206555835
 30
0
 11
814.1124674536
 21
312.4206555835
 31
0
  0
LINE
  8
0
 62
7
 10
790.1692108668
 20
308.9206559412
 30
0
 11
790.1692108668
 21
312.4206555835
 31
0
  0
LINE
  8
0
 62
7
 10
831.0470001258
 20
315.4206542126
 30
0
 11
831.0470001258
 21
312.4206555835
 31
0
  0
LINE
  8
0
 62
7
 10
773.2346781947
 20
315.4206542126
 30
0
 11
773.2346781947
 21
312.4206555835
 31
0
  0
LINE
  8
0
 62
7
 10
812.2926799066
 20
322.4206534974
 30
0
 11
812.2926799066
 21
315.4206542126
 31
0
  0
LINE
  8
0
 62
7
 10
791.9889984138
 20
315.4206542126
 30
0
 11
791.9889984138
 21
322.4206534974
 31
0
  0
LINE
  8
0
 62
7
 10
866.1792350419
 20
312.4206555835
 30
0
 11
872.2411913283
 21
312.4206555835
 31
0
  0
LINE
  8
0
 62
7
 10
872.2411913283
 20
308.9206559412
 30
0
 11
872.2411913283
 21
312.4206555835
 31
0
  0
LINE
  8
0
 62
7
 10
872.2411913283
 20
308.9206559412
 30
0
 11
874.1408360608
 21
308.9206559412
 31
0
  0
LINE
  8
0
 62
7
 10
730.1408422597
 20
308.9206559412
 30
0
 11
732.0404869921
 21
308.9206559412
 31
0
  0
LINE
  8
0
 62
7
 10
732.0404869921
 20
308.9206559412
 30
0
 11
732.0404869921
 21
312.4206555835
 31
0
  0
LINE
  8
0
 62
7
 10
732.0404869921
 20
312.4206555835
 30
0
 11
738.1024432786001
 21
312.4206555835
 31
0
  0
LINE
  8
0
 62
7
 10
754.7172133382956
 20
132.9206568948
 30
0
 11
849.5644649821045
 21
132.9206568948
 31
0
  0
LINE
  8
0
 62
7
 10
865.9613949664
 20
285.9206540338
 30
0
 11
865.9613949664
 21
300.9206546299
 31
0
  0
LINE
  8
0
 62
7
 10
874.1408360608
 20
285.9206540338
 30
0
 11
859.7602804609001
 21
285.9206540338
 31
0
  0
LINE
  8
0
 62
7
 10
738.3202833541
 20
285.9206540338
 30
0
 11
738.3202833541
 21
300.9206546299
 31
0
  0
LINE
  8
0
 62
7
 10
730.1408422597
 20
285.9206540338
 30
0
 11
744.5213978596
 21
285.9206540338
 31
0
  0
LINE
  8
0
 62
7
 10
801.8201257752
 20
187.9522433332
 30
0
 11
802.1408391602
 21
187.9206547342
 31
0
  0
LINE
  8
0
 62
7
 10
802.1408391602
 20
237.9206685177
 30
0
 11
802.1408391602
 21
237.9206554792
 31
0
  0
LINE
  8
0
 62
7
 10
746.3692200787
 20
287.3419342391
 30
0
 11
746.3692200787
 21
300.9206546299
 31
0
  0
LINE
  8
0
 62
7
 10
857.9124582417001
 20
287.3419342391
 30
0
 11
857.9124582417001
 21
300.9206546299
 31
0
  0
LINE
  8
0
 62
2
 10
690.04052533555
 20
452.7285115017
 30
0
 11
900.2605177657499
 21
452.7285115017
 31
0
  0
LINE
  8
0
 62
2
 10
690.04052533555
 20
462.7285118817
 30
0
 11
900.2605177657499
 21
462.7285118817
 31
0
  0
LINE
  8
0
 62
2
 10
830.1871869557499
 20
472.7285122617001
 30
0
 11
900.2605177657499
 21
472.7285122617001
 31
0
  0
LINE
  8
0
 62
2
 10
865.22385236075
 20
472.7285122617001
 30
0
 11
865.22385236075
 21
442.7285111217001
 31
0
  0
LINE
  8
0
 62
2
 10
830.1871869557499
 20
482.7285126417
 30
0
 11
830.1871869557499
 21
442.7285111217001
 31
0
  0
LINE
  8
0
 62
2
 10
795.15052155075
 20
482.7285126417
 30
0
 11
795.15052155075
 21
442.7285111217001
 31
0
  0
LINE
  8
0
 62
2
 10
760.11385614555
 20
482.7285126417
 30
0
 11
760.11385614555
 21
442.7285111217001
 31
0
  0
LINE
  8
0
 62
2
 10
725.0771907405499
 20
482.7285126417
 30
0
 11
725.0771907405499
 21
442.7285111217001
 31
0
  0
LINE
  8
0
 62
2
 10
900.2605177657499
 20
482.7285126417
 30
0
 11
690.04052533555
 21
482.7285126417
 31
0
  0
LINE
  8
0
 62
2
 10
900.2605177657499
 20
442.7285111217001
 30
0
 11
900.2605177657499
 21
482.7285126417
 31
0
  0
LINE
  8
0
 62
2
 10
690.04052533555
 20
442.7285111217001
 30
0
 11
900.2605177657499
 21
442.7285111217001
 31
0
  0
LINE
  8
0
 62
2
 10
690.04052533555
 20
482.7285126417
 30
0
 11
690.04052533555
 21
442.7285111217001
 31
0
  0
LINE
  8
0
 62
7
 10
802.1408391602
 20
212.9206551067
 30
0
 11
804.6408391602
 21
212.9206551067
 31
0
  0
LINE
  8
0
 62
7
 10
802.1408391602
 20
212.9206551067
 30
0
 11
804.6408391602
 21
212.9206551067
 31
0
  0
LINE
  8
0
 62
2
 10
885.2930609872
 20
254.5704810997
 30
0
 11
911.6328265233
 21
267.763714271
 31
0
  0
LINE
  8
0
 62
2
 10
482.1645114839228
 20
182.3418753884219
 30
0
 11
481.9984046779456
 21
181.8702733008437
 31
0
  0
LINE
  8
0
 62
2
 10
492.6029112882019
 20
179.0068496956979
 30
0
 11
492.139927605
 21
181.0249757511
 31
0
  0
LINE
  8
0
 62
2
 10
492.139927605
 20
181.0249757511
 30
0
 11
493.549945719432
 21
179.5087186543721
 31
0
  0
LINE
  8
0
 62
2
 10
492.139927605
 20
181.0249757511
 30
0
 11
493.0764285038169
 21
179.257784175035
 31
0
  0
LINE
  8
0
 62
2
 10
861.9454315875
 20
266.3572734246
 30
0
 11
863.6894932226375
 21
267.3361753670037
 31
0
  0
LINE
  8
0
 62
2
 10
861.9454315875
 20
266.3572734246
 30
0
 11
863.4271974260723
 21
267.8034949380772
 31
0
  0
LINE
  8
0
 62
2
 10
863.9517890192026
 20
266.8688557959303
 30
0
 11
861.9454315875
 21
266.3572734246
 31
0
  0
LINE
  8
1
 62
2
  6
DASHDOT
 10
802.1408391602
 20
117.4206551067
 30
0
 11
802.1408391602
 21
358.3556650603
 31
0
  0
LINE
  8
1
 62
2
  6
DASHDOT
 10
697.2049696118
 20
212.9206551067
 30
0
 11
873.6408391601877
 21
212.920655106675
 31
0
  0
LINE
  8
1
 62
2
  6
DASHDOT
 10
433.975139928
 20
265.4206551067
 30
0
 11
433.975139928
 21
328.8698952712
 31
0
  0
LINE
  8
1
 62
2
  6
DASHDOT
 10
538.6269435436
 20
328.8698952712
 30
0
 11
538.6269435436
 21
265.4206551067
 31
0
  0
LINE
  8
1
 62
2
  6
DASHDOT
 10
486.3010417358
 20
352.1760127877
 30
0
 11
486.3010417358
 21
124.2028196608
 31
0
  0
LINE
  8
1
 62
2
  6
DASHDOT
 10
33.9205049821
 20
212.9206551067
 30
0
 11
607.739096661
 21
212.9206551067
 31
0
  0
LINE
  8
1
 62
2
  6
DASHDOT
 10
607.739096661
 20
516.1576621558
 30
0
 11
243.4818346132209
 21
516.1576621558
 31
0
  0
LINE
  8
1
 62
2
  6
DASHDOT
 10
486.3010417358
 20
429.7369410509
 30
0
 11
486.3010417358
 21
597.9517915614
 31
0
  0
LINE
  8
1
 62
2
  6
DASHDOT
 10
873.6408391601877
 20
212.920655106675
 30
0
 11
910.0125934528001
 21
212.9206551067
 31
0
  0
LINE
  8
1
 62
2
  6
DASHDOT
 10
742.7569205336972
 20
154.2197163700539
 30
0
 11
759.8253522348249
 21
171.0918424739247
 31
0
  0
LINE
  8
1
 62
2
  6
DASHDOT
 10
742.7569205338
 20
271.6215938434
 30
0
 11
759.8253522349277
 21
254.7494677395293
 31
0
  0
LINE
  8
1
 62
2
  6
DASHDOT
 10
844.456326086146
 20
254.7494677388478
 30
0
 11
861.5247577872736
 21
271.6215938427187
 31
0
  0
LINE
  8
1
 62
2
  6
DASHDOT
 10
844.4563260862486
 20
171.0918424746061
 30
0
 11
861.5247577873764
 21
154.2197163707353
 31
0
  0
LINE
  8
1
 62
7
 10
494.3010421158
 20
253.9206562392
 30
0
 11
506.3010412888
 21
257.9206568948
 31
0
  0
LINE
  8
1
 62
7
 10
506.3010412888
 20
257.9206568948
 30
0
 11
494.3010421158
 21
261.9206538252
 31
0
  0
LINE
  8
1
 62
7
 10
428.4903142289
 20
473.3317621376
 30
0
 11
423.0054836408
 21
463.8317615117
 31
0
  0
LINE
  8
1
 62
7
 10
423.0054836408
 20
463.8317615117
 30
0
 11
428.4903142289
 21
454.3317608859
 31
0
  0
LINE
  8
1
 62
7
 10
428.4903142289
 20
454.3317608859
 30
0
 11
439.4599679546
 21
454.3317608859
 31
0
  0
LINE
  8
1
 62
7
 10
439.4599679546
 20
454.3317608859
 30
0
 11
444.9447948174
 21
463.8317615117
 31
0
  0
LINE
  8
1
 62
7
 10
444.9447948174
 20
463.8317615117
 30
0
 11
439.4599679546
 21
473.3317621376
 31
0
  0
LINE
  8
1
 62
7
 10
439.4599679546
 20
473.3317621376
 30
0
 11
428.4903142289
 21
473.3317621376
 31
0
  0
LINE
  8
1
 62
7
 10
428.4903142289
 20
577.9835634256999
 30
0
 11
423.0054836408
 21
568.4835627998
 31
0
  0
LINE
  8
1
 62
7
 10
423.0054836408
 20
568.4835627998
 30
0
 11
428.4903142289
 21
558.983562174
 31
0
  0
LINE
  8
1
 62
7
 10
428.4903142289
 20
558.983562174
 30
0
 11
439.4599679546
 21
558.983562174
 31
0
  0
LINE
  8
1
 62
7
 10
439.4599679546
 20
558.983562174
 30
0
 11
444.9447948174
 21
568.4835627998
 31
0
  0
LINE
  8
1
 62
7
 10
444.9447948174
 20
568.4835627998
 30
0
 11
439.4599679546
 21
577.9835634256999
 31
0
  0
LINE
  8
1
 62
7
 10
439.4599679546
 20
577.9835634256999
 30
0
 11
428.4903142289
 21
577.9835634256999
 31
0
  0
LINE
  8
1
 62
7
 10
533.1421192422999
 20
577.9835634256999
 30
0
 11
527.6572886541999
 21
568.4835627998
 31
0
  0
LINE
  8
1
 62
7
 10
527.6572886541999
 20
568.4835627998
 30
0
 11
533.1421192422999
 21
558.983562174
 31
0
  0
LINE
  8
1
 62
7
 10
533.1421192422999
 20
558.983562174
 30
0
 11
544.111772968
 21
558.983562174
 31
0
  0
LINE
  8
1
 62
7
 10
544.111772968
 20
558.983562174
 30
0
 11
549.5965998308
 21
568.4835627998
 31
0
  0
LINE
  8
1
 62
7
 10
549.5965998308
 20
568.4835627998
 30
0
 11
544.111772968
 21
577.9835634256999
 31
0
  0
LINE
  8
1
 62
7
 10
544.111772968
 20
577.9835634256999
 30
0
 11
533.1421192422999
 21
577.9835634256999
 31
0
  0
LINE
  8
1
 62
7
 10
533.1421192422999
 20
473.3317621376
 30
0
 11
527.6572886541999
 21
463.8317615117
 31
0
  0
LINE
  8
1
 62
7
 10
527.6572886541999
 20
463.8317615117
 30
0
 11
533.1421192422999
 21
454.3317608859
 31
0
  0
LINE
  8
1
 62
7
 10
533.1421192422999
 20
454.3317608859
 30
0
 11
544.111772968
 21
454.3317608859
 31
0
  0
LINE
  8
1
 62
7
 10
544.111772968
 20
454.3317608859
 30
0
 11
549.5965998308
 21
463.8317615117
 31
0
  0
LINE
  8
1
 62
7
 10
549.5965998308
 20
463.8317615117
 30
0
 11
544.111772968
 21
473.3317621376
 31
0
  0
LINE
  8
1
 62
7
 10
544.111772968
 20
473.3317621376
 30
0
 11
533.1421192422999
 21
473.3317621376
 31
0
  0
LINE
  8
1
 62
7
 10
467.2100856588273
 20
338.6537773363
 30
0
 11
471.3010420711
 21
322.4206534974
 31
0
  0
LINE
  8
0
 62
7
 10
444.9447948174
 20
322.4206534974
 30
0
 11
527.6572886543
 21
322.4206534974
 31
0
  0
LINE
  8
1
 62
7
 10
558.2748945491001
 20
478.1868920054
 30
0
 11
574.2970402972155
 21
478.1606398846205
 31
0
  0
LINE
  8
1
 62
7
 10
558.2748945491001
 20
554.1284323062
 30
0
 11
574.2780860201502
 21
554.1547067787169
 31
0
  0
LINE
  8
0
 62
7
 10
78.30105151100003
 20
244.9206566266
 30
0
 11
62.55934561650003
 21
247.2819095305001
 31
0
  0
LINE
  8
0
 62
7
 10
62.55934561650003
 20
178.5594006828001
 30
0
 11
78.30105151100003
 21
180.9206535866999
 31
0
  0
LINE
  8
0
 62
7
 10
78.30105151100003
 20
180.9206535866999
 30
0
 11
78.30105151100003
 21
244.9206566266
 31
0
  0
LINE
  8
0
 62
7
 10
135.4125830071
 20
244.9206566266
 30
0
 11
78.30105151100003
 21
244.9206566266
 31
0
  0
LINE
  8
0
 62
7
 10
148.0477842228
 20
244.9206566266
 30
0
 11
145.7036527531
 21
244.9206566266
 31
0
  0
LINE
  8
0
 62
7
 10
194.3010481731
 20
244.9206566266
 30
0
 11
183.9997860329
 21
244.9206566266
 31
0
  0
LINE
  8
0
 62
7
 10
174.1669865982
 20
244.9206566266
 30
0
 11
173.3594628708
 21
244.9206566266
 31
0
  0
LINE
  8
0
 62
7
 10
163.5266634361
 20
244.9206566266
 30
0
 11
159.0954455273
 21
244.9206566266
 31
0
  0
LINE
  8
0
 62
7
 10
138.5095211403
 20
246.4206559411
 30
0
 11
135.9301301376
 21
246.4206559411
 31
0
  0
LINE
  8
0
 62
7
 10
145.2595683472001
 20
246.4206559411
 30
0
 11
142.8879591362
 21
246.4206559411
 31
0
  0
LINE
  8
0
 62
7
 10
150.3662558929
 20
246.4206559411
 30
0
 11
148.0150016682
 21
246.4206559411
 31
0
  0
LINE
  8
0
 62
7
 10
159.1282280819
 20
246.4206559411
 30
0
 11
156.7804309265001
 21
246.4206559411
 31
0
  0
LINE
  8
0
 62
7
 10
234.3085500137
 20
246.4206559411
 30
0
 11
194.3010481731
 21
246.4206559411
 31
0
  0
LINE
  8
0
 62
7
 10
165.2961167233
 20
243.7000019303
 30
0
 11
163.5266634361
 21
243.7000019303
 31
0
  0
LINE
  8
0
 62
7
 10
169.2862304585
 20
243.7000019303
 30
0
 11
167.5168069736999
 21
243.7000019303
 31
0
  0
LINE
  8
0
 62
7
 10
173.3594628708
 20
243.7000019303
 30
0
 11
171.590039386
 21
243.7000019303
 31
0
  0
LINE
  8
0
 62
7
 10
175.936410083
 20
243.7000019303
 30
0
 11
174.1669865982
 21
243.7000019303
 31
0
  0
LINE
  8
0
 62
7
 10
179.9265536205
 20
243.7000019303
 30
0
 11
178.1571003334
 21
243.7000019303
 31
0
  0
LINE
  8
0
 62
7
 10
183.9997860329
 20
243.7000019303
 30
0
 11
182.2303625481
 21
243.7000019303
 31
0
  0
LINE
  8
0
 62
7
 10
194.3010481731
 20
244.8855047873001
 30
0
 11
222.3010453121
 21
244.8855047873001
 31
0
  0
LINE
  8
0
 62
7
 10
222.3010453121
 20
244.6709802201999
 30
0
 11
234.3010398285
 21
244.9206566266
 31
0
  0
LINE
  8
0
 62
7
 10
183.9997860329
 20
245.1427845112
 30
0
 11
182.2303625481
 21
245.1427845112
 31
0
  0
LINE
  8
0
 62
7
 10
179.9265536205
 20
245.1427845112
 30
0
 11
179.9265536205
 21
246.2699791243999
 31
0
  0
LINE
  8
0
 62
7
 10
179.9265536205
 20
245.1427845112
 30
0
 11
178.1571003334
 21
245.1427845112
 31
0
  0
LINE
  8
0
 62
7
 10
178.1571003334
 20
245.1427845112
 30
0
 11
178.1571003334
 21
246.3413333348001
 31
0
  0
LINE
  8
0
 62
7
 10
175.936410083
 20
245.1427845112
 30
0
 11
175.936410083
 21
246.2699791243999
 31
0
  0
LINE
  8
0
 62
7
 10
175.936410083
 20
245.1427845112
 30
0
 11
174.1669865982
 21
245.1427845112
 31
0
  0
LINE
  8
0
 62
7
 10
174.1669865982
 20
245.1427845112
 30
0
 11
174.1669865982
 21
246.4205330064999
 31
0
  0
LINE
  8
0
 62
7
 10
174.1669865982
 20
246.4205330064999
 30
0
 11
175.936410083
 21
246.4205330064999
 31
0
  0
LINE
  8
0
 62
7
 10
175.936410083
 20
246.3980173520001
 30
0
 11
175.936410083
 21
246.4205330064999
 31
0
  0
LINE
  8
0
 62
7
 10
183.9997860329
 20
245.1427845112
 30
0
 11
183.9997860329
 21
246.3739743284
 31
0
  0
LINE
  8
0
 62
7
 10
182.2303625481
 20
245.1427845112
 30
0
 11
182.2303625481
 21
246.3366506448999
 31
0
  0
LINE
  8
0
 62
7
 10
173.3594628708
 20
245.1427845112
 30
0
 11
171.590039386
 21
245.1427845112
 31
0
  0
LINE
  8
0
 62
7
 10
169.2862304585
 20
245.1427845112
 30
0
 11
169.2862304585
 21
246.2699791243999
 31
0
  0
LINE
  8
0
 62
7
 10
169.2862304585
 20
245.1427845112
 30
0
 11
167.5168069736999
 21
245.1427845112
 31
0
  0
LINE
  8
0
 62
7
 10
165.2961167233
 20
245.1427845112
 30
0
 11
165.2961167233
 21
246.2699791243999
 31
0
  0
LINE
  8
0
 62
7
 10
165.2961167233
 20
245.1427845112
 30
0
 11
163.5266634361
 21
245.1427845112
 31
0
  0
LINE
  8
0
 62
7
 10
163.5266634361
 20
245.1427845112
 30
0
 11
163.5266634361
 21
246.4205330064999
 31
0
  0
LINE
  8
0
 62
7
 10
163.5266634361
 20
246.4205330064999
 30
0
 11
165.2961167233
 21
246.4205330064999
 31
0
  0
LINE
  8
0
 62
7
 10
165.2961167233
 20
246.3980173520001
 30
0
 11
165.2961167233
 21
246.4205330064999
 31
0
  0
LINE
  8
0
 62
7
 10
173.3594628708
 20
245.1427845112
 30
0
 11
173.3594628708
 21
246.3739743284
 31
0
  0
LINE
  8
0
 62
7
 10
171.590039386
 20
245.1427845112
 30
0
 11
171.590039386
 21
246.3366506448999
 31
0
  0
LINE
  8
0
 62
7
 10
167.5168069736999
 20
245.1427845112
 30
0
 11
167.5168069736999
 21
246.3413333348001
 31
0
  0
LINE
  8
0
 62
7
 10
173.3594628708
 20
243.7000019303
 30
0
 11
173.3594628708
 21
245.1427845112
 31
0
  0
LINE
  8
0
 62
7
 10
171.590039386
 20
243.7000019303
 30
0
 11
171.590039386
 21
245.1427845112
 31
0
  0
LINE
  8
0
 62
7
 10
183.9997860329
 20
243.7000019303
 30
0
 11
183.9997860329
 21
245.1427845112
 31
0
  0
LINE
  8
0
 62
7
 10
182.2303625481
 20
243.7000019303
 30
0
 11
182.2303625481
 21
245.1427845112
 31
0
  0
LINE
  8
0
 62
7
 10
174.1669865982
 20
243.7000019303
 30
0
 11
174.1669865982
 21
245.1427845112
 31
0
  0
LINE
  8
0
 62
7
 10
175.936410083
 20
243.7000019303
 30
0
 11
175.936410083
 21
245.1427845112
 31
0
  0
LINE
  8
0
 62
7
 10
163.5266634361
 20
243.7000019303
 30
0
 11
163.5266634361
 21
245.1427845112
 31
0
  0
LINE
  8
0
 62
7
 10
165.2961167233
 20
243.7000019303
 30
0
 11
165.2961167233
 21
245.1427845112
 31
0
  0
LINE
  8
0
 62
7
 10
179.9265536205
 20
243.7000019303
 30
0
 11
179.9265536205
 21
245.1427845112
 31
0
  0
LINE
  8
0
 62
7
 10
178.1571003334
 20
243.7000019303
 30
0
 11
178.1571003334
 21
245.1427845112
 31
0
  0
LINE
  8
0
 62
7
 10
169.2862304585
 20
243.7000019303
 30
0
 11
169.2862304585
 21
245.1427845112
 31
0
  0
LINE
  8
0
 62
7
 10
167.5168069736999
 20
243.7000019303
 30
0
 11
167.5168069736999
 21
245.1427845112
 31
0
  0
LINE
  8
0
 62
7
 10
137.0268556015
 20
245.4536972395001
 30
0
 11
137.0268556015
 21
243.9969932488
 31
0
  0
LINE
  8
0
 62
7
 10
140.3546127216001
 20
245.1594887128999
 30
0
 11
140.3546127216001
 21
243.7159592113001
 31
0
  0
LINE
  8
0
 62
7
 10
153.5733136074001
 20
245.1594887128999
 30
0
 11
153.5733136074001
 21
243.7159592113001
 31
0
  0
LINE
  8
0
 62
7
 10
156.699309005
 20
245.4992724410001
 30
0
 11
156.699309005
 21
244.0405288539
 31
0
  0
LINE
  8
0
 62
7
 10
150.4439207451
 20
245.4992724410001
 30
0
 11
150.4439207451
 21
244.0405288539
 31
0
  0
LINE
  8
0
 62
7
 10
143.7849792377
 20
245.4992724410001
 30
0
 11
143.7849792377
 21
244.0405288539
 31
0
  0
LINE
  8
0
 62
7
 10
138.0357834236
 20
246.4128849855999
 30
0
 11
135.8879598515
 21
246.4128849855999
 31
0
  0
LINE
  8
0
 62
7
 10
135.4125830071
 20
246.1925452403
 30
0
 11
137.7314123051
 21
246.1925452403
 31
0
  0
LINE
  8
0
 62
7
 10
135.4125830071
 20
246.1925452403
 30
0
 11
135.4125830071
 21
244.7027606716999
 31
0
  0
LINE
  8
0
 62
7
 10
148.0224820511
 20
246.4197581461999
 30
0
 11
148.0224820511
 21
244.9197960844999
 31
0
  0
LINE
  8
0
 62
7
 10
145.7036527531
 20
246.3077163150999
 30
0
 11
145.7036527531
 21
244.8127759448
 31
0
  0
LINE
  8
0
 62
7
 10
159.1207178967
 20
246.4197581461999
 30
0
 11
159.1207178967
 21
244.9197960844999
 31
0
  0
LINE
  8
0
 62
7
 10
194.3010481731
 20
246.3838575236
 30
0
 11
194.3010481731
 21
246.4206559411
 31
0
  0
LINE
  8
0
 62
7
 10
222.3010453121
 20
246.1592783978999
 30
0
 11
234.3010398285
 21
246.4206559411
 31
0
  0
LINE
  8
0
 62
7
 10
222.3010453121
 20
246.1592783978999
 30
0
 11
222.3010453121
 21
246.3838575236
 31
0
  0
LINE
  8
0
 62
7
 10
194.3010481731
 20
246.3838575236
 30
0
 11
222.3010453121
 21
246.3838575236
 31
0
  0
LINE
  8
0
 62
7
 10
234.3010398285
 20
244.9206566266
 30
0
 11
234.3010398285
 21
246.4206559411
 31
0
  0
LINE
  8
0
 62
7
 10
222.3010453121
 20
244.6709802201999
 30
0
 11
222.3010453121
 21
246.1592783978999
 31
0
  0
LINE
  8
0
 62
7
 10
180.5084439652
 20
244.8793841354
 30
0
 11
180.5084439652
 21
246.3774500242
 31
0
  0
LINE
  8
0
 62
7
 10
176.51833023
 20
244.8793841354
 30
0
 11
176.51833023
 21
246.3774500242
 31
0
  0
LINE
  8
0
 62
7
 10
169.8681208031
 20
244.8793841354
 30
0
 11
169.8681208031
 21
246.3774500242
 31
0
  0
LINE
  8
0
 62
7
 10
165.8780070679
 20
244.8793841354
 30
0
 11
165.8780070679
 21
246.3774500242
 31
0
  0
LINE
  8
0
 62
7
 10
142.3724981682
 20
246.4127322487
 30
0
 11
142.3724981682
 21
245.8036621859999
 31
0
  0
LINE
  8
0
 62
7
 10
166.7924019234
 20
244.8940580537999
 30
0
 11
166.7924019234
 21
246.3928131214
 31
0
  0
LINE
  8
0
 62
7
 10
170.6993969814001
 20
244.8940580537999
 30
0
 11
170.6993969814001
 21
246.3928131214
 31
0
  0
LINE
  8
0
 62
7
 10
181.3397201435001
 20
244.8940580537999
 30
0
 11
181.3397201435001
 21
246.3928131214
 31
0
  0
LINE
  8
0
 62
7
 10
177.4327250855
 20
244.8940580537999
 30
0
 11
177.4327250855
 21
246.3928131214
 31
0
  0
LINE
  8
0
 62
7
 10
194.3010481731
 20
244.8855047873001
 30
0
 11
194.3010481731
 21
246.3838575236
 31
0
  0
LINE
  8
0
 62
7
 10
138.0357834236
 20
246.4128849855999
 30
0
 11
138.0357834236
 21
245.9369307212
 31
0
  0
LINE
  8
0
 62
7
 10
140.9599872963
 20
246.3950967244
 30
0
 11
140.9599872963
 21
245.6334909252
 31
0
  0
LINE
  8
0
 62
7
 10
135.8879598515
 20
246.4128849855999
 30
0
 11
135.8879598515
 21
246.1925452403
 31
0
  0
LINE
  8
0
 62
7
 10
332.3010447161001
 20
244.9206566266
 30
0
 11
234.3010398285
 21
244.9206566266
 31
0
  0
LINE
  8
0
 62
7
 10
191.4214583771
 20
180.9206535866999
 30
0
 11
332.3010447161001
 21
180.9206535866999
 31
0
  0
LINE
  8
0
 62
7
 10
188.4201856987
 20
179.4206542722
 30
0
 11
191.43355812
 21
179.4206542722
 31
0
  0
LINE
  8
0
 62
7
 10
178.6588224308001
 20
179.4206542722
 30
0
 11
181.4906689064
 21
179.4206542722
 31
0
  0
LINE
  8
0
 62
7
 10
178.6588224308001
 20
182.2316689244001
 30
0
 11
182.8073951141001
 21
182.2316689244001
 31
0
  0
LINE
  8
0
 62
7
 10
178.6588224308001
 20
179.4206542722
 30
0
 11
178.6588224308001
 21
180.7931219986999
 31
0
  0
LINE
  8
0
 62
7
 10
178.6588224308001
 20
180.7931219986999
 30
0
 11
182.8073951141001
 21
180.7931219986999
 31
0
  0
LINE
  8
0
 62
7
 10
182.8073951141001
 20
180.3229568354
 30
0
 11
181.4906689064
 21
180.3229568354
 31
0
  0
LINE
  8
0
 62
7
 10
181.4906689064
 20
179.4206542722
 30
0
 11
181.4906689064
 21
180.3229568354
 31
0
  0
LINE
  8
0
 62
7
 10
181.4906689064
 20
180.2328495136001
 30
0
 11
182.8073951141001
 21
180.2328495136001
 31
0
  0
LINE
  8
0
 62
7
 10
182.8073951141001
 20
180.7931219986999
 30
0
 11
182.8073951141001
 21
182.2316689244001
 31
0
  0
LINE
  8
0
 62
7
 10
188.6728795902
 20
180.3437067023001
 30
0
 11
188.6728795902
 21
181.8023757837
 31
0
  0
LINE
  8
0
 62
7
 10
178.6588224308001
 20
180.7931219986999
 30
0
 11
178.6588224308001
 21
182.2316689244001
 31
0
  0
LINE
  8
0
 62
7
 10
191.4260777370001
 20
179.4209858229999
 30
0
 11
191.4260777370001
 21
180.9209702364001
 31
0
  0
LINE
  8
0
 62
7
 10
78.30105151100003
 20
180.9206535866999
 30
0
 11
178.6588224308001
 21
180.9206535866999
 31
0
  0
LINE
  8
0
 62
7
 10
78.30105365679998
 20
548.1576618130999
 30
0
 11
62.55934776230004
 21
550.518914717
 31
0
  0
LINE
  8
0
 62
7
 10
62.55934776230004
 20
550.518914717
 30
0
 11
62.55934776230004
 21
481.7964077319999
 31
0
  0
LINE
  8
0
 62
7
 10
78.30105365679998
 20
484.1576606359
 30
0
 11
78.30105365679998
 21
548.1576618130999
 31
0
  0
LINE
  8
0
 62
7
 10
62.55934776230004
 20
481.7964077319999
 30
0
 11
78.30105365679998
 21
484.1576606359
 31
0
  0
LINE
  8
0
 62
7
 10
78.30105365679998
 20
484.1576606359
 30
0
 11
332.3010449992001
 21
484.1576606359
 31
0
  0
LINE
  8
0
 62
7
 10
332.3010449992001
 20
548.1576618130999
 30
0
 11
78.30105365679998
 21
548.1576618130999
 31
0
  0
LINE
  8
0
 62
7
 10
135.9813624756
 20
517.0318946566
 30
0
 11
135.9813624756
 21
516.9927511688001
 31
0
  0
LINE
  8
0
 62
7
 10
194.3010503189
 20
514.5879244756001
 30
0
 11
194.3010503189
 21
517.7273989048
 31
0
  0
LINE
  8
0
 62
7
 10
222.3010474579
 20
517.7273989048
 30
0
 11
194.3010503189
 21
517.7273989048
 31
0
  0
LINE
  8
0
 62
7
 10
222.3010474579
 20
517.7273989048
 30
0
 11
222.3010474579
 21
520.334265786
 31
0
  0
LINE
  8
0
 62
7
 10
234.3010419743001
 20
516.1576621558
 30
0
 11
222.3010474579
 21
520.334265786
 31
0
  0
LINE
  8
0
 62
7
 10
222.3010474579
 20
511.9810585255999
 30
0
 11
234.3010419743001
 21
516.1576621558
 31
0
  0
LINE
  8
0
 62
7
 10
222.3010474579
 20
511.9810585255999
 30
0
 11
222.3010474579
 21
514.5879244756001
 31
0
  0
LINE
  8
0
 62
7
 10
194.3010503189
 20
514.5879244756001
 30
0
 11
222.3010474579
 21
514.5879244756001
 31
0
  0
LINE
  8
0
 62
7
 10
182.0047313109999
 20
516.0713043387999
 30
0
 11
182.0047313109999
 21
516.0672568109
 31
0
  0
LINE
  8
0
 62
7
 10
167.4574130909001
 20
516.0713043387999
 30
0
 11
167.4574130909001
 21
516.0672568109
 31
0
  0
LINE
  8
0
 62
7
 10
171.364408149
 20
516.0713043387999
 30
0
 11
171.364408149
 21
516.0672568109
 31
0
  0
LINE
  8
0
 62
7
 10
178.0977362530001
 20
516.0713043387999
 30
0
 11
178.0977362530001
 21
516.0672568109
 31
0
  0
LINE
  8
0
 62
7
 10
183.9997881786
 20
506.9933586146
 30
0
 11
182.2303646938
 21
506.9933586146
 31
0
  0
LINE
  8
0
 62
7
 10
182.2303646938
 20
506.9933586146
 30
0
 11
182.2303646938
 21
513.7867225658
 31
0
  0
LINE
  8
0
 62
7
 10
179.9265557663001
 20
506.9933586146
 30
0
 11
179.9265557663001
 21
512.9839113306001
 31
0
  0
LINE
  8
0
 62
7
 10
179.9265557663001
 20
506.9933586146
 30
0
 11
178.1571024792
 21
506.9933586146
 31
0
  0
LINE
  8
0
 62
7
 10
178.1571024792
 20
506.9933586146
 30
0
 11
178.1571024792
 21
513.8536921095
 31
0
  0
LINE
  8
0
 62
7
 10
175.9364122288001
 20
506.9933586146
 30
0
 11
175.9364122288001
 21
512.9839113306001
 31
0
  0
LINE
  8
0
 62
7
 10
175.9364122288001
 20
506.9933586146
 30
0
 11
174.166988744
 21
506.9933586146
 31
0
  0
LINE
  8
0
 62
7
 10
174.166988744
 20
506.9933586146
 30
0
 11
174.166988744
 21
516.0672568109
 31
0
  0
LINE
  8
0
 62
7
 10
174.166988744
 20
516.0672568109
 30
0
 11
175.9364122288001
 21
516.0672568109
 31
0
  0
LINE
  8
0
 62
7
 10
175.9364122288001
 20
514.9262748983
 30
0
 11
175.9364122288001
 21
516.0672568109
 31
0
  0
LINE
  8
0
 62
7
 10
183.9997881786
 20
506.9933586146
 30
0
 11
183.9997881786
 21
514.3897567267999
 31
0
  0
LINE
  8
0
 62
7
 10
173.3594650166
 20
506.9933586146
 30
0
 11
171.5900415318
 21
506.9933586146
 31
0
  0
LINE
  8
0
 62
7
 10
171.5900415318
 20
506.9933586146
 30
0
 11
171.5900415318
 21
513.7867225658
 31
0
  0
LINE
  8
0
 62
7
 10
169.2862326042001
 20
506.9933586146
 30
0
 11
169.2862326042001
 21
512.9839113306001
 31
0
  0
LINE
  8
0
 62
7
 10
169.2862326042001
 20
506.9933586146
 30
0
 11
167.5168091194
 21
506.9933586146
 31
0
  0
LINE
  8
0
 62
7
 10
167.5168091194
 20
506.9933586146
 30
0
 11
167.5168091194
 21
513.8536921095
 31
0
  0
LINE
  8
0
 62
7
 10
165.2961188689999
 20
506.9933586146
 30
0
 11
165.2961188689999
 21
512.9839113306001
 31
0
  0
LINE
  8
0
 62
7
 10
165.2961188689999
 20
506.9933586146
 30
0
 11
163.5266655819
 21
506.9933586146
 31
0
  0
LINE
  8
0
 62
7
 10
163.5266655819
 20
506.9933586146
 30
0
 11
163.5266655819
 21
516.0672568109
 31
0
  0
LINE
  8
0
 62
7
 10
163.5266655819
 20
516.0672568109
 30
0
 11
165.2961188689999
 21
516.0672568109
 31
0
  0
LINE
  8
0
 62
7
 10
165.2961188689999
 20
514.9262748983
 30
0
 11
165.2961188689999
 21
516.0672568109
 31
0
  0
LINE
  8
0
 62
7
 10
173.3594650166
 20
506.9933586146
 30
0
 11
173.3594650166
 21
514.3897567267999
 31
0
  0
LINE
  8
0
 62
7
 10
159.1207200424
 20
516.4029185052999
 30
0
 11
159.1207200424
 21
516.3919363495
 31
0
  0
LINE
  8
0
 62
7
 10
148.0224841969001
 20
516.4029185052999
 30
0
 11
148.0224841969001
 21
516.3919363495
 31
0
  0
LINE
  8
0
 62
7
 10
173.3594650166
 20
514.4689163516999
 30
0
 11
173.3594650166
 21
514.3897567267999
 31
0
  0
LINE
  8
0
 62
7
 10
138.0357855694001
 20
515.4362634148
 30
0
 11
135.8879619972
 21
515.4362634148
 31
0
  0
LINE
  8
0
 62
7
 10
136.4933365719
 20
525.6482713248
 30
0
 11
145.3001016514
 21
525.6482713248
 31
0
  0
LINE
  8
0
 62
7
 10
145.3001016514
 20
523.8803547199999
 30
0
 11
145.3001016514
 21
525.6482713248
 31
0
  0
LINE
  8
0
 62
7
 10
145.3001016514
 20
523.8803547199999
 30
0
 11
138.5385507481
 21
523.8803547199999
 31
0
  0
LINE
  8
0
 62
7
 10
138.5385507481
 20
523.8803547199999
 30
0
 11
138.1349676983
 21
517.6591459985999
 31
0
  0
LINE
  8
0
 62
7
 10
135.4125851528
 20
512.2549353491
 30
0
 11
137.7314144508001
 21
512.2549353491
 31
0
  0
LINE
  8
0
 62
7
 10
135.8879619972
 20
515.4362634148
 30
0
 11
135.8879619972
 21
515.468565407
 31
0
  0
LINE
  8
0
 62
7
 10
145.7036548988
 20
513.4092016469
 30
0
 11
145.7036548988
 21
513.5322675433
 31
0
  0
LINE
  8
0
 62
7
 10
142.372500314
 20
516.8862209048001
 30
0
 11
142.372500314
 21
516.8535985376001
 31
0
  0
LINE
  8
0
 62
7
 10
163.5266655821533
 20
516.0713043388386
 30
0
 11
163.5266655819
 21
516.0672568109
 31
0
  0
LINE
  8
0
 62
7
 10
163.5266655821533
 20
516.0713043388386
 30
0
 11
165.2961188689999
 21
516.0713043387999
 31
0
  0
LINE
  8
0
 62
7
 10
165.2961188689999
 20
516.0713043387999
 30
0
 11
165.2961188689999
 21
516.0672568109
 31
0
  0
LINE
  8
0
 62
7
 10
174.166988744
 20
516.0713043387999
 30
0
 11
174.166988744
 21
516.0672568109
 31
0
  0
LINE
  8
0
 62
7
 10
174.166988744
 20
516.0713043387999
 30
0
 11
175.9364122288001
 21
516.0713043387999
 31
0
  0
LINE
  8
0
 62
7
 10
175.9364122288001
 20
516.0713043387999
 30
0
 11
175.9364122288001
 21
516.0672568109
 31
0
  0
LINE
  8
1
 62
2
  6
DASHDOT
 10
125.8287029212906
 20
516.1576621558
 30
0
 11
33.9205049821
 21
516.1576621558
 31
0
  0
ARC
  8
0
 62
7
 10
440.3010417358
 20
341.9206551067
 30
0
 40
7
 50
90
 51
180
  0
ARC
  8
0
 62
7
 10
532.3010417358
 20
341.9206551067
 30
0
 40
7
 50
0
 51
90
  0
ARC
  8
0
 62
7
 10
428.3010417358
 20
340.4206551067
 30
0
 40
5
 50
270
 51
0
  0
ARC
  8
0
 62
7
 10
444.6184071794
 20
248.0878522878
 30
0
 40
30.66257477018089
 50
122.8736090225
 51
164.2361263224
  0
ARC
  8
0
 62
7
 10
506.3340190099374
 20
171.9101006160882
 30
0
 40
34.467096855794
 50
306.6216959892761
 51
359.8811683425762
  0
ARC
  8
0
 62
7
 10
381.9539874441
 20
180.9206551067
 30
0
 40
2.652945708332285
 50
123.4276453523992
 51
180
  0
ARC
  8
0
 62
7
 10
381.9539874441
 20
244.9206551067
 30
0
 40
2.652945708332311
 50
180
 51
250.4213820008996
  0
ARC
  8
0
 62
7
 10
486.1539333925717
 20
238.9323562953922
 30
0
 40
104.5154330348035
 50
271.4953357495124
 51
286.5896164767124
  0
ARC
  8
0
 62
7
 10
545.8010417358001
 20
173.3986154674
 30
0
 40
5.000000000000059
 50
55.40771131250074
 51
178.8293725758
  0
ARC
  8
0
 62
7
 10
464.3010416947
 20
337.9206571529
 30
0
 40
3.000000331422306
 50
14.1448047283989
 51
180.0000390790995
  0
ARC
  8
0
 62
7
 10
425.8010417358
 20
333.4206551067
 30
0
 40
2
 50
90
 51
180
  0
ARC
  8
0
 62
7
 10
427.8010417358
 20
322.4206551067
 30
0
 40
1.599999999999963
 50
38.68218745350093
 51
141.3178125465003
  0
ARC
  8
0
 62
7
 10
354.6715953491
 20
198.9089146021
 30
0
 40
18.98870050218592
 50
270.3905723419
 51
287.1973574529999
  0
ARC
  8
0
 62
7
 10
346.46050893
 20
185.1428902519
 30
0
 40
5.223463838615203
 50
271.2428542736001
 51
303.1414362864998
  0
ARC
  8
0
 62
7
 10
433.8456881112
 20
294.909025391
 30
0
 40
18.98881053800939
 50
270.3906072404998
 51
287.1972700609
  0
ARC
  8
0
 62
7
 10
425.6346176279
 20
281.1428755031
 30
0
 40
5.223447857330078
 50
271.2426548718996
 51
303.1414057187005
  0
ARC
  8
0
 62
7
 10
538.4974915279
 20
294.9090116314
 30
0
 40
18.98879676419449
 50
270.390601101
 51
287.1972762003998
  0
ARC
  8
0
 62
7
 10
546.7409026143
 20
281.1428769952
 30
0
 40
5.223449443231819
 50
271.2427021201001
 51
303.1414024243001
  0
ARC
  8
0
 62
7
 10
363.1415540473
 20
242.6984977014
 30
0
 40
5.223385925307196
 50
91.24261002829927
 51
123.1416805318007
  0
ARC
  8
0
 62
7
 10
346.6870899596
 20
242.6984202893
 30
0
 40
5.223463838615174
 50
91.24285427359952
 51
123.1414362864992
  0
ARC
  8
0
 62
7
 10
425.8611721593
 20
318.1985011658
 30
0
 40
5.223382753119103
 50
91.24262255659971
 51
123.1417661109994
  0
ARC
  8
0
 62
7
 10
442.3156515916
 20
318.1985169427
 30
0
 40
5.223366874051363
 50
91.24257277730003
 51
123.1418158903001
  0
ARC
  8
0
 62
7
 10
546.9674571457
 20
318.1985026578
 30
0
 40
5.223381167348392
 50
91.24257530829965
 51
123.1417694052001
  0
ARC
  8
0
 62
7
 10
530.5129722913
 20
318.1985169427
 30
0
 40
5.223366874051362
 50
91.2425727772994
 51
123.1418158902996
  0
ARC
  8
0
 62
7
 10
345.2804767534
 20
225.3268340184
 30
0
 40
4.890665074918978
 50
157.0196520024
 51
174.6516303028001
  0
ARC
  8
0
 62
7
 10
364.3212528043
 20
225.3267438261
 30
0
 40
4.891029297266066
 50
5.349031431100213
 51
22.97968626360028
  0
ARC
  8
0
 62
7
 10
364.3212528043
 20
200.5145663872
 30
0
 40
4.891029297266112
 50
337.0203137363997
 51
354.6509685689008
  0
ARC
  8
0
 62
7
 10
345.2804767534
 20
200.514476195
 30
0
 40
4.890665074918955
 50
185.3483696971999
 51
202.9803479975997
  0
ARC
  8
0
 62
7
 10
498.8673409464
 20
237.1863490743
 30
0
 40
1.73939883059078
 50
356.428007530498
 51
32.64086724100116
  0
ARC
  8
0
 62
7
 10
499.5929636868
 20
237.2188434899
 30
0
 40
1.168971195717318
 50
50.78449479699962
 51
93.04003510150027
  0
ARC
  8
0
 62
7
 10
499.6376981146
 20
236.7733826337
 30
0
 40
1.616314636844536
 50
93.78613963470249
 51
133.278629736702
  0
ARC
  8
0
 62
7
 10
500.3006351395
 20
236.2157547664
 30
0
 40
2.478790389318167
 50
135.5989572627005
 51
184.2645289436988
  0
ARC
  8
0
 62
7
 10
493.5114313934
 20
237.2701483444
 30
0
 40
2.187930631077265
 50
357.2504497942995
 51
22.98550202410031
  0
ARC
  8
0
 62
7
 10
494.8358856256
 20
237.3463704895
 30
0
 40
1.039859104498934
 50
48.44617710629821
 51
90.61537896559744
  0
ARC
  8
0
 62
7
 10
494.8327113347
 20
236.7568408017
 30
0
 40
1.629348426198866
 50
90.28110837399764
 51
132.915632551999
  0
ARC
  8
0
 62
7
 10
495.4953178213
 20
236.215364924
 30
0
 40
2.479825615788493
 50
135.6097729719007
 51
184.2537132346003
  0
ARC
  8
0
 62
7
 10
495.6516186339
 20
236.9707051015
 30
0
 40
3.07261207601648
 50
90.48179872780047
 51
148.8393629773618
  0
ARC
  8
0
 62
7
 10
495.7571659213
 20
237.99704706
 30
0
 40
2.050375260180255
 50
15.95314682990152
 51
93.67393153689928
  0
ARC
  8
0
 62
7
 10
500.3579627849
 20
236.970542293
 30
0
 40
3.072775659780529
 50
90.48350194510138
 51
148.8376597617113
  0
ARC
  8
0
 62
7
 10
500.5547296471
 20
237.4445103
 30
0
 40
2.608222848336852
 50
52.72361893899929
 51
94.89802491680035
  0
ARC
  8
0
 62
7
 10
500.5940884972
 20
238.0240118641
 30
0
 40
2.147190061005106
 50
355.6966471318994
 51
44.16189572649905
  0
ARC
  8
0
 62
7
 10
474.8797288876
 20
238.0708163944
 30
0
 40
8.488991844100777
 50
353.8062502200999
 51
42.47908916909994
  0
ARC
  8
0
 62
7
 10
479.6281044027
 20
242.0168446761
 30
0
 40
2.340954187737366
 50
49.75282763639816
 51
89.39510502449821
  0
ARC
  8
0
 62
7
 10
479.6691238401
 20
242.0301263863
 30
0
 40
2.327599131643219
 50
90.40137631350056
 51
130.364692932
  0
ARC
  8
0
 62
7
 10
484.3800004144
 20
238.0890572653
 30
0
 40
8.445352223894247
 50
137.4175244689006
 51
186.3503814927998
  0
ARC
  8
0
 62
7
 10
484.5729355199
 20
236.2041493312
 30
0
 40
8.638947128607395
 50
173.6813623462001
 51
222.0862241126999
  0
ARC
  8
0
 62
7
 10
479.6773360654
 20
232.2094977613
 30
0
 40
2.349771969714932
 50
229.8317704083006
 51
269.4021603461998
  0
ARC
  8
0
 62
7
 10
479.6324403274
 20
232.1890346786
 30
0
 40
2.329270115756617
 50
270.5012685404994
 51
310.3507987986021
  0
ARC
  8
0
 62
7
 10
475.1908208702
 20
236.0593435944
 30
0
 40
8.201850040765459
 50
316.5033508702004
 51
7.676407975599747
  0
ARC
  8
0
 62
7
 10
479.6655265122
 20
240.5471544612
 30
0
 40
5.565039601468902
 50
90.13083904089982
 51
129.8530775437001
  0
ARC
  8
0
 62
7
 10
479.6284664269
 20
240.5246112903
 30
0
 40
5.587621327817355
 50
50.23032106309955
 51
89.75029319239918
  0
ARC
  8
0
 62
7
 10
476.5832213805
 20
238.1189658629
 30
0
 40
9.418890825197273
 50
354.1254225719002
 51
45.34734578549994
  0
ARC
  8
0
 62
7
 10
476.0866471283
 20
236.2866148871
 30
0
 40
9.904137151359246
 50
315.9317331629998
 51
5.029698670599985
  0
ARC
  8
0
 62
7
 10
479.6525850899
 20
233.656030515
 30
0
 40
5.543849260984543
 50
270.0024107921998
 51
309.8219029477002
  0
ARC
  8
0
 62
7
 10
479.6743811775
 20
233.7244184432
 30
0
 40
5.612278607487092
 50
230.4311468682001
 51
269.7798644920998
  0
ARC
  8
0
 62
7
 10
482.8228175497
 20
236.147385427
 30
0
 40
9.526677681186325
 50
173.9290175370001
 51
225.1095498655997
  0
ARC
  8
0
 62
7
 10
512.9731595258
 20
237.1881878337
 30
0
 40
1.732436298527509
 50
356.3526997171996
 51
32.71617505419849
  0
ARC
  8
0
 62
7
 10
513.6782766731
 20
237.1777759036
 30
0
 40
1.209369896798652
 50
51.52227795879796
 51
92.30225193969837
  0
ARC
  8
0
 62
7
 10
513.7302614453
 20
236.787534413
 30
0
 40
1.601795282776593
 50
93.59960182970124
 51
133.4651675417998
  0
ARC
  8
0
 62
7
 10
514.393999381
 20
236.2177147989
 30
0
 40
2.473589204583426
 50
135.5444945247006
 51
184.3190407549993
  0
ARC
  8
0
 62
7
 10
507.610106143
 20
237.2701370391
 30
0
 40
2.187982423224296
 50
357.2508113186001
 51
22.98524831170153
  0
ARC
  8
0
 62
7
 10
508.9369268507
 20
237.3525723769
 30
0
 40
1.033685169598011
 50
48.31417604520218
 51
90.74733014360267
  0
ARC
  8
0
 62
7
 10
508.9475262127
 20
236.7162020443
 30
0
 40
1.670141199085775
 50
90.82617487980035
 51
132.3705328849976
  0
ARC
  8
0
 62
7
 10
509.5897929591
 20
236.2169191249
 30
0
 40
2.475701304563181
 50
135.5666528347981
 51
184.2968824449992
  0
ARC
  8
0
 62
7
 10
509.7299899148
 20
237.0064498485
 30
0
 40
3.036763643057817
 50
90.10341873400016
 51
149.2177429716886
  0
ARC
  8
0
 62
7
 10
509.8552665027
 20
237.9961596434
 30
0
 40
2.051220817354545
 50
15.97217680510017
 51
93.65487766000013
  0
ARC
  8
0
 62
7
 10
514.4358427641
 20
237.0071481267
 30
0
 40
3.036064674134572
 50
90.09593810759911
 51
149.2252235973994
  0
ARC
  8
0
 62
7
 10
514.6476102468
 20
237.4243753729
 30
0
 40
2.627795961203209
 50
52.88809433420031
 51
94.73354952160044
  0
ARC
  8
0
 62
7
 10
514.6996684603
 20
238.026496848
 30
0
 40
2.140544190703321
 50
355.6165534207011
 51
44.24198943779998
  0
ARC
  8
0
 62
7
 10
456.5862785476
 20
246.1702865901
 30
0
 40
42.76651655262269
 50
165.9369929551
 51
185.4809873684
  0
ARC
  8
0
 62
7
 10
463.548312223
 20
232.9483518505
 30
0
 40
3.360059871472286
 50
175.9751267777995
 51
228.9628960792004
  0
ARC
  8
0
 62
7
 10
463.1570797091
 20
233.0927093281
 30
0
 40
3.235658630152036
 50
235.8835231434998
 51
272.3850623173005
  0
ARC
  8
0
 62
7
 10
463.21836988
 20
232.9856639789
 30
0
 40
3.126671056813502
 50
271.3444767526002
 51
310.2303822472996
  0
ARC
  8
0
 62
7
 10
462.0041171523
 20
233.9049696063
 30
0
 40
4.624783142204321
 50
314.3629295986001
 51
4.804289983800281
  0
ARC
  8
0
 62
7
 10
462.6100128377
 20
234.7724036024
 30
0
 40
4.031328536202375
 50
353.1603253007004
 51
44.87275669200056
  0
ARC
  8
0
 62
7
 10
463.9020257802
 20
235.6851009624
 30
0
 40
2.485909696575509
 50
50.98645367910067
 51
90.9020906519996
  0
ARC
  8
0
 62
7
 10
463.9153530868
 20
234.2676823068
 30
0
 40
3.903372850243617
 50
90.77013196049988
 51
149.7940922310005
  0
ARC
  8
0
 62
7
 10
464.2823518866
 20
234.3066291591
 30
0
 40
5.436114867075379
 50
88.36490321900081
 51
131.8590238722996
  0
ARC
  8
0
 62
7
 10
464.5182590013
 20
235.1015219073
 30
0
 40
4.639712160612297
 50
51.3447578329003
 51
90.99776631890012
  0
ARC
  8
0
 62
7
 10
463.8604446218
 20
234.6587884225
 30
0
 40
5.401552010202988
 50
356.1096351590005
 51
48.82839394219963
  0
ARC
  8
0
 62
7
 10
463.2014031031
 20
234.0526190167
 30
0
 40
6.052894281020921
 50
309.7387284863001
 51
2.269439194299887
  0
ARC
  8
0
 62
7
 10
463.3075358929
 20
234.2552596772
 30
0
 40
6.144498340978497
 50
268.7682144037993
 51
307.7693462502004
  0
ARC
  8
0
 62
7
 10
462.8105825424
 20
233.8952352373
 30
0
 40
5.794552577643231
 50
233.8973317866999
 51
273.6101229106009
  0
ARC
  8
0
 62
7
 10
462.7411100446
 20
233.1662190011
 30
0
 40
5.17808223889934
 50
179.8011176872008
 51
229.7617174097002
  0
ARC
  8
0
 62
7
 10
580.5322268834
 20
244.2920063741
 30
0
 40
63.16909462579915
 50
236.2209426319
 51
251.8851636733
  0
ARC
  8
0
 62
7
 10
567.303169163
 20
262.8651208869
 30
0
 40
20.53042370220638
 50
190.0404359817999
 51
239.2310183629
  0
ARC
  8
0
 62
7
 10
486.4962928843768
 20
238.8886850077263
 30
0
 40
104.4730862789562
 50
253.3763512991918
 51
268.4776472458917
  0
ARC
  8
0
 62
7
 10
486.0261138554827
 20
238.9628439587644
 30
0
 40
104.3710479069397
 50
233.6382391493265
 51
247.3249771937265
  0
ARC
  8
0
 62
7
 10
424.8018225209
 20
222.3943165014
 30
0
 40
0.4161552431316294
 50
107.6204790225022
 51
183.3047992650944
  0
ARC
  8
0
 62
7
 10
506.2112210486
 20
171.8093617901
 30
0
 40
34.45986244791605
 50
286.5478668119001
 51
306.8854817445999
  0
ARC
  8
0
 62
7
 10
574.2601723276
 20
257.924756196
 30
0
 40
10.04087324267861
 50
287.8214801981002
 51
0.064677993600379
  0
ARC
  8
0
 62
7
 10
574.2526141595
 20
168.3418764577
 30
0
 40
10.04842795860517
 50
359.9561315651002
 51
68.91000397650019
  0
ARC
  8
0
 62
7
 10
543.6315994657
 20
189.2964811545
 30
0
 40
3.060412697349788
 50
54.47347314989926
 51
179.8485237351998
  0
ARC
  8
0
 62
7
 10
396.2854888795
 20
212.8145656183
 30
0
 40
29.57922198384329
 50
63.12385336630003
 51
90.59439203180008
  0
ARC
  8
0
 62
7
 10
411.0278481917
 20
241.8626115758
 30
0
 40
2.995745194389185
 50
242.8326658205985
 51
4.23351923640067
  0
ARC
  8
0
 62
7
 10
514.0779279396919
 20
145.2769901057976
 30
0
 40
6.785857860712398
 50
286.4067581650706
 51
286.682680180171
  0
ARC
  8
0
 62
7
 10
574.3010417358
 20
147.6696792765
 30
0
 40
10
 50
0
 51
55.40771131250038
  0
ARC
  8
0
 62
7
 10
545.5734897685001
 20
173.552764282
 30
0
 40
5.002328027556303
 50
55.18794661930016
 51
179.7834669681003
  0
ARC
  8
0
 62
7
 10
552.0075393955
 20
260.1750893333
 30
0
 40
5.000090454698826
 50
190.2450327903998
 51
299.8242605658003
  0
ARC
  8
0
 62
7
 10
574.3010417358
 20
278.7152702984
 30
0
 40
10.00000000000002
 50
299.8187173092002
 51
0
  0
ARC
  8
0
 62
7
 10
395.972403471
 20
262.4206551067
 30
0
 40
20
 50
270
 51
342.9665898339003
  0
ARC
  8
0
 62
7
 10
574.3013027136
 20
564.1544189448
 30
0
 40
9.999739117565273
 50
269.8669745552002
 51
359.9582217304998
  0
ARC
  8
0
 62
7
 10
574.3013096626
 20
468.1609086298
 30
0
 40
9.999732166218999
 50
0.04175960240045962
 51
90.02446231769986
  0
ARC
  8
0
 62
7
 10
381.9539874441
 20
484.1576621558
 30
0
 40
2.65294570833224
 50
117.767617498801
 51
180
  0
ARC
  8
0
 62
7
 10
381.9539874441
 20
548.1576621558
 30
0
 40
2.652945708332311
 50
180
 51
242.3025998826006
  0
ARC
  8
0
 62
7
 10
518.5025823541999
 20
539.693381192
 30
0
 40
1.385068600028151
 50
224.7753339849982
 51
275.0880445218999
  0
ARC
  8
0
 62
7
 10
518.5025839914
 20
536.9226514944
 30
0
 40
1.385077397992256
 50
224.7756046358998
 51
275.0879441251979
  0
ARC
  8
0
 62
7
 10
517.4919520993
 20
537.1198313283001
 30
0
 40
1.181651624168547
 50
105.9402253178997
 51
183.6867816750986
  0
ARC
  8
0
 62
7
 10
517.4605647147
 20
539.9525835214
 30
0
 40
1.19464014737857
 50
84.76163419050043
 51
135.0968786681998
  0
ARC
  8
0
 62
7
 10
518.5025815752
 20
530.6933816956
 30
0
 40
1.385068784736998
 50
224.7753874393996
 51
275.0880761944988
  0
ARC
  8
0
 62
7
 10
518.502580579
 20
527.922642541
 30
0
 40
1.385068396597559
 50
224.7754297649985
 51
275.0881189960977
  0
ARC
  8
0
 62
7
 10
517.4919538839
 20
528.1198304574
 30
0
 40
1.18165332419246
 50
105.9402917673995
 51
183.6867152256022
  0
ARC
  8
0
 62
7
 10
517.4605614941
 20
530.9525909287
 30
0
 40
1.194631595998997
 50
84.76144147939829
 51
135.0970713793031
  0
ARC
  8
0
 62
7
 10
486.3010417358
 20
516.1576621558
 30
0
 40
52.99999999999987
 50
347.3977351584999
 51
12.60226484150001
  0
ARC
  8
0
 62
7
 10
486.3010417358
 20
516.1576621558
 30
0
 40
52.99999999999998
 50
12.60226484150001
 51
347.3977351584999
  0
ARC
  8
0
 62
7
 10
539.9759893371
 20
504.1576621558
 30
0
 40
2
 50
90
 51
167.3977351585
  0
ARC
  8
0
 62
7
 10
539.9759893371
 20
528.1576621558
 30
0
 40
2.000000000000134
 50
192.6022648414993
 51
270
  0
ARC
  8
0
 62
7
 10
541.7266675780001
 20
524.1576621558
 30
0
 40
1.999999999999962
 50
8.213210701700268
 51
90
  0
ARC
  8
0
 62
7
 10
486.3010417358
 20
516.1576621558
 30
0
 40
58.00000000000001
 50
351.7867892983
 51
8.213210701699996
  0
ARC
  8
0
 62
7
 10
541.7266675780001
 20
508.1576621558
 30
0
 40
2
 50
270
 51
351.7867892982997
  0
ARC
  8
0
 62
7
 10
431.5711595872
 20
496.9576621558
 30
0
 40
5.000000000000063
 50
19.33157640590095
 51
90
  0
ARC
  8
0
 62
7
 10
431.5711595872
 20
535.3576621558
 30
0
 40
5
 50
270
 51
340.6684235940992
  0
ARC
  8
0
 62
7
 10
425.8010417358
 20
528.3576621558
 30
0
 40
2
 50
90
 51
180
  0
ARC
  8
0
 62
7
 10
425.8010417358
 20
503.9576621558
 30
0
 40
2
 50
180
 51
270
  0
ARC
  8
0
 62
7
 10
354.8010402568
 20
459.1576621558
 30
0
 40
9.500000000000041
 50
330.0000000000001
 51
29.99999999999986
  0
ARC
  8
0
 62
7
 10
354.8010402568
 20
459.1576621558
 30
0
 40
9.500000000000057
 50
270
 51
330.0000000000001
  0
ARC
  8
0
 62
7
 10
354.8010402568
 20
459.1576621558
 30
0
 40
9.499999999999991
 50
210
 51
270
  0
ARC
  8
0
 62
7
 10
354.8010402568
 20
459.1576621558
 30
0
 40
9.499999999999915
 50
150.0000000000001
 51
210
  0
ARC
  8
0
 62
7
 10
354.8010402568
 20
459.1576621558
 30
0
 40
9.5
 50
90
 51
150.0000000000001
  0
ARC
  8
0
 62
7
 10
354.8010402568
 20
459.1576621558
 30
0
 40
9.500000000000041
 50
29.99999999999986
 51
90
  0
ARC
  8
0
 62
7
 10
354.8010417358
 20
573.1576621558
 30
0
 40
9.500000000000114
 50
90
 51
149.9999999999996
  0
ARC
  8
0
 62
7
 10
354.8010417358
 20
573.1576621558
 30
0
 40
9.499999999999991
 50
329.9999999999999
 51
30.00000000000003
  0
ARC
  8
0
 62
7
 10
354.8010417358
 20
573.1576621558
 30
0
 40
9.499999999999886
 50
270
 51
329.9999999999999
  0
ARC
  8
0
 62
7
 10
354.8010417358
 20
573.1576621558
 30
0
 40
9.499999999999943
 50
210.0000000000002
 51
270
  0
ARC
  8
0
 62
7
 10
354.8010417358
 20
573.1576621558
 30
0
 40
9.500000000000098
 50
149.9999999999996
 51
210.0000000000002
  0
ARC
  8
0
 62
7
 10
354.8010417358
 20
573.1576621558
 30
0
 40
9.499999999999991
 50
30.00000000000003
 51
90
  0
ARC
  8
0
 62
7
 10
354.8010417358
 20
573.1576621558
 30
0
 40
15.00000000000001
 50
20.79222496169978
 51
159.2077750383002
  0
ARC
  8
0
 62
7
 10
347.3010417358
 20
550.6537358578
 30
0
 40
30
 50
0
 51
20.79222496170002
  0
ARC
  8
0
 62
7
 10
362.3010417358
 20
550.6537358578
 30
0
 40
30.00000000000002
 50
159.2077750383
 51
180
  0
ARC
  8
0
 62
7
 10
354.8010360138
 20
577.2206853109
 30
0
 40
5.966919661389971
 50
65.66985544860008
 51
114.3301445513999
  0
ARC
  8
0
 62
7
 10
347.3010417358
 20
481.6615884538
 30
0
 40
30.00000000000002
 50
339.2077750383
 51
0
  0
ARC
  8
0
 62
7
 10
354.8010417358
 20
459.1576621558
 30
0
 40
14.99999999999998
 50
200.7922249617
 51
339.2077750383
  0
ARC
  8
0
 62
7
 10
362.3010417358
 20
481.6615884538
 30
0
 40
30
 50
180
 51
200.7922249617
  0
ARC
  8
0
 62
7
 10
354.8010360138
 20
455.0946390007
 30
0
 40
5.966919661389873
 50
245.6698554486009
 51
294.3301445513991
  0
ARC
  8
0
 62
7
 10
545.3010417358
 20
516.1576621558
 30
0
 40
5.000000000000018
 50
278.6269265586997
 51
81.37307344130031
  0
ARC
  8
0
 62
7
 10
545.3010417358
 20
516.1576621558
 30
0
 40
5.000000000000018
 50
261.3730734413003
 51
278.6269265586997
  0
ARC
  8
0
 62
7
 10
545.3010417358
 20
516.1576621558
 30
0
 40
5.000000000000018
 50
81.37307344130031
 51
98.62692655869969
  0
ARC
  8
0
 62
7
 10
545.3010417358
 20
516.1576621558
 30
0
 40
8.000000000000046
 50
258.9458122641998
 51
101.0541877358002
  0
ARC
  8
0
 62
7
 10
486.3010417358
 20
516.1576621558
 30
0
 40
54.49999999999992
 50
195.6921034791
 51
243.2857429566
  0
ARC
  8
0
 62
7
 10
486.3010417358
 20
516.1576621558
 30
0
 40
54.50000000000011
 50
249.0349647653
 51
349.2646806432
  0
ARC
  8
0
 62
7
 10
545.3010417358
 20
516.1576621558
 30
0
 40
5.250000000000014
 50
256.5054122687003
 51
90
  0
ARC
  8
0
 62
7
 10
486.3010417358
 20
516.1576621558
 30
0
 40
54.50000000000006
 50
10.73531935680001
 51
164.3078965208999
  0
ARC
  8
0
 62
7
 10
422.6052061211
 20
549.7261075375
 30
0
 40
10.00000000000008
 50
332.2102484831998
 51
59.45798196500006
  0
ARC
  8
0
 62
7
 10
433.7849484268
 20
568.6737554648
 30
0
 40
12.00000000000006
 50
30.54201803500023
 51
239.4579819649999
  0
ARC
  8
0
 62
7
 10
452.7325963541
 20
579.8534977705
 30
0
 40
9.999999999999995
 50
210.5420180350003
 51
297.7897515168004
  0
ARC
  8
0
 62
7
 10
486.3010417358
 20
516.1576621558
 30
0
 40
62.00000000000001
 50
62.21024848319994
 51
117.7897515168
  0
ARC
  8
0
 62
7
 10
519.8694871174999
 20
579.8534977705
 30
0
 40
10.00000000000013
 50
242.2102484831999
 51
329.4579819650004
  0
ARC
  8
0
 62
7
 10
549.9968773505
 20
549.7261075375
 30
0
 40
9.999999999999995
 50
120.5420180350003
 51
207.7897515168004
  0
ARC
  8
0
 62
7
 10
486.3010417358
 20
516.1576621558
 30
0
 40
62.00000000000012
 50
7.029987932200033
 51
27.78975151680001
  0
ARC
  8
0
 62
7
 10
538.8171350448
 20
568.6737554648
 30
0
 40
11.99999999999995
 50
300.5420180349999
 51
149.4579819649996
  0
ARC
  8
0
 62
7
 10
486.3010417358
 20
516.1576621558
 30
0
 40
62.00000000000006
 50
152.2102484832
 51
163.5439458174
  0
ARC
  8
0
 62
7
 10
549.9968773505
 20
482.5892167741
 30
0
 40
10.00000000000013
 50
152.2102484832
 51
239.457981965
  0
ARC
  8
0
 62
7
 10
538.8171350448
 20
463.6415688468
 30
0
 40
12.00000000000008
 50
210.5420180349999
 51
59.45798196499976
  0
ARC
  8
0
 62
7
 10
519.8694871174999
 20
452.4618265411
 30
0
 40
10.00000000000009
 50
30.54201803499995
 51
117.7897515168002
  0
ARC
  8
0
 62
7
 10
486.3010417358
 20
516.1576621558
 30
0
 40
62.00000000000011
 50
251.6683945757
 51
297.7897515168
  0
ARC
  8
0
 62
7
 10
452.7325963541
 20
452.4618265411
 30
0
 40
10.00000000000003
 50
62.21024848319968
 51
149.4579819649997
  0
ARC
  8
0
 62
7
 10
433.7849484268
 20
463.6415688468
 30
0
 40
12.00000000004449
 50
253.7791271862696
 51
329.4579819649999
  0
ARC
  8
0
 62
7
 10
422.6052061211
 20
482.5892167741
 30
0
 40
10.00000000000004
 50
300.5420180350001
 51
27.78975151680018
  0
ARC
  8
0
 62
7
 10
486.3010417358
 20
516.1576621558
 30
0
 40
61.99999999999999
 50
332.2102484832
 51
352.9700120677999
  0
ARC
  8
0
 62
7
 10
486.3010417358
 20
516.1576621558
 30
0
 40
62.00000000000007
 50
196.4560541826
 51
207.7897515168
  0
ARC
  8
0
 62
7
 10
472.3985061007
 20
586.8026867712
 30
0
 40
9.999999999999961
 50
224.9999999999998
 51
281.1332133828
  0
ARC
  8
0
 62
7
 10
500.2035773709
 20
586.8026867712
 30
0
 40
9.999999999999949
 50
258.8667866172001
 51
315
  0
ARC
  8
0
 62
7
 10
426.5766748493
 20
539.1576621558
 30
0
 40
1.999999999999993
 50
338.9381823983994
 51
90
  0
ARC
  8
0
 62
7
 10
614.3010417358
 20
516.1576621558
 30
0
 40
200.0000000000003
 50
163.7791271864
 51
196.2208728136
  0
ARC
  8
0
 62
7
 10
556.9460663512
 20
530.0601977909
 30
0
 40
9.99999999999992
 50
135
 51
191.1332133828001
  0
ARC
  8
0
 62
7
 10
358.3010417358
 20
516.1576621558
 30
0
 40
200.0000000000001
 50
7.903207733500006
 51
16.22087281359999
  0
ARC
  8
0
 62
7
 10
556.9460663512
 20
502.2551265207
 30
0
 40
9.999999999999949
 50
168.8667866172001
 51
225
  0
ARC
  8
0
 62
7
 10
358.3010417358
 20
516.1576621558
 30
0
 40
200
 50
343.7791271864
 51
352.0967922665
  0
ARC
  8
0
 62
7
 10
426.5766748493
 20
493.1576621558
 30
0
 40
2.000000000000057
 50
270
 51
21.06181760160052
  0
ARC
  8
0
 62
7
 10
472.3985061007
 20
445.5126375404
 30
0
 40
10
 50
78.86678661720013
 51
124.0382639507
  0
ARC
  8
0
 62
7
 10
486.3010417358
 20
644.1576621558
 30
0
 40
199.9999999999999
 50
253.7791271864
 51
262.0967922665
  0
ARC
  8
0
 62
7
 10
500.2035773709
 20
445.5126375404
 30
0
 40
10
 50
45
 51
101.1332133827999
  0
ARC
  8
0
 62
7
 10
486.3010417358
 20
388.1576621558
 30
0
 40
200.0000000000006
 50
90
 51
106.2208728136
  0
ARC
  8
0
 62
7
 10
358.3010417358
 20
516.1576621558
 30
0
 40
199.9999999999999
 50
352.0967922665
 51
7.903207733500006
  0
ARC
  8
0
 62
7
 10
486.3010417358
 20
644.1576621558
 30
0
 40
199.9999999999997
 50
270
 51
286.2208728136
  0
ARC
  8
0
 62
7
 10
364.0716961491
 20
516.1576621558
 30
0
 40
194.2293455866809
 50
351.8752779101999
 51
0.0002001120999915486
  0
ARC
  8
0
 62
7
 10
756.1408391602
 20
341.9206551067
 30
0
 40
7
 50
90
 51
180
  0
ARC
  8
0
 62
7
 10
848.1408391602
 20
341.9206551067
 30
0
 40
7
 50
0
 51
90
  0
ARC
  8
0
 62
7
 10
859.3381812345
 20
309.0211903588
 30
0
 40
14.3999772407484
 50
90.48319793270004
 51
109.7730350337999
  0
ARC
  8
0
 62
7
 10
849.8381806086001
 20
309.0211903588
 30
0
 40
14.3999772407484
 50
90.48319793270004
 51
109.7730350337999
  0
ARC
  8
0
 62
7
 10
754.6863735379
 20
309.0212267666
 30
0
 40
14.39994081164943
 50
90.48318847890013
 51
109.7730600451002
  0
ARC
  8
0
 62
7
 10
745.1863729121
 20
309.0212267666
 30
0
 40
14.39994081164943
 50
90.48318847890013
 51
109.7730600451002
  0
ARC
  8
0
 62
7
 10
802.1408391602
 20
212.9206551067
 30
0
 40
93.00000000000003
 50
300.6592644656781
 51
239.3407355343219
  0
ARC
  8
0
 62
7
 10
486.3010417358
 20
388.1576621558
 30
0
 40
200.0000000000007
 50
73.7791271864
 51
90
  0
ARC
  8
0
 62
7
 10
486.3010417358
 20
644.1576621558
 30
0
 40
199.9999999999999
 50
264.4047725645
 51
270
  0
ARC
  8
0
 62
7
 10
433.7849484268
 20
463.6415688468
 30
0
 40
12
 50
120.5420180349998
 51
253.7791271862696
  0
ARC
  8
0
 62
7
 10
63.30104388159998
 20
252.2265922107001
 30
0
 40
5
 50
180
 51
261.4692343901002
  0
ARC
  8
0
 62
7
 10
63.30104388159998
 20
173.6147180026001
 30
0
 40
4.999999999999884
 50
98.53076560990017
 51
180
  0
ARC
  8
0
 62
7
 10
137.3275839498
 20
246.8838498778
 30
0
 40
2.902478033605159
 50
228.7167987959013
 51
264.0528597884006
  0
ARC
  8
0
 62
7
 10
139.9833314115001
 20
259.1622724264
 30
0
 40
15.45077479448034
 50
258.9685340008994
 51
271.3769471235995
  0
ARC
  8
0
 62
7
 10
143.4441642672001
 20
247.6569224983
 30
0
 40
3.632417629530001
 50
275.3837488523996
 51
308.4648450828
  0
ARC
  8
0
 62
7
 10
151.843365139
 20
251.6617118136001
 30
0
 40
7.748604669038298
 50
240.6698968548006
 51
259.5949411867002
  0
ARC
  8
0
 62
7
 10
155.3003322424
 20
251.6604467679999
 30
0
 40
7.747275972895101
 50
280.4033469786998
 51
299.3316573998005
  0
ARC
  8
0
 62
7
 10
165.7635997152
 20
243.8274289528999
 30
0
 40
1.058158186831197
 50
83.79308557180048
 51
116.2181029993992
  0
ARC
  8
0
 62
7
 10
166.829420912
 20
227.3397290570999
 30
0
 40
17.55436802992614
 50
88.22130628539988
 51
90.12082653049977
  0
ARC
  8
0
 62
7
 10
169.7537313444
 20
243.8273275286999
 30
0
 40
1.058257082119249
 50
83.79464241690162
 51
116.2165461542886
  0
ARC
  8
0
 62
7
 10
170.6600202382001
 20
223.5715492808001
 30
0
 40
21.3225451319267
 50
89.89419075120033
 51
92.12840128080026
  0
ARC
  8
0
 62
7
 10
171.4057436747
 20
244.5064359984001
 30
0
 40
0.381449396376538
 50
61.10893202377803
 51
96.22136179140715
  0
ARC
  8
0
 62
7
 10
176.4039388035999
 20
243.827202964
 30
0
 40
1.058381129730406
 50
83.7952654223958
 51
116.2149190079946
  0
ARC
  8
0
 62
7
 10
177.469722098
 20
227.3382101765001
 30
0
 40
17.55588686090592
 50
88.22138846059985
 51
90.12074435540011
  0
ARC
  8
0
 62
7
 10
180.3940366124
 20
243.8274289528999
 30
0
 40
1.0581581868312
 50
83.79308557179894
 51
116.2181029993992
  0
ARC
  8
0
 62
7
 10
181.3003160267001
 20
223.5730999891
 30
0
 40
21.32099447686244
 50
89.89410949500048
 51
92.12848253700018
  0
ARC
  8
0
 62
7
 10
182.0460668368
 20
244.5064359984001
 30
0
 40
0.381449396376483
 50
61.10893202379298
 51
96.22136179140715
  0
ARC
  8
0
 62
7
 10
181.300496941
 20
226.017836842
 30
0
 40
20.37501403302688
 50
89.88970189919972
 51
92.22786252619986
  0
ARC
  8
0
 62
7
 10
180.3944597183
 20
245.3655774967999
 30
0
 40
1.018272272176038
 50
83.57290500819966
 51
117.3554809233914
  0
ARC
  8
0
 62
7
 10
177.4692261071
 20
229.5903603158001
 30
0
 40
16.80249245228965
 50
88.13991905060003
 51
90.12446701819985
  0
ARC
  8
0
 62
7
 10
176.4043619258001
 20
245.3653614146001
 30
0
 40
1.018485212468041
 50
83.57515696230243
 51
117.3521808216983
  0
ARC
  8
0
 62
7
 10
177.727631506203
 20
178.2012148084
 30
0
 40
68.22032212879381
 50
89.68916269550253
 51
91.5045549521024
  0
ARC
  8
0
 62
7
 10
178.5591724459001
 20
214.5130611288
 30
0
 40
31.91080830957255
 50
87.69354040480013
 51
90.82854030269991
  0
ARC
  8
0
 62
7
 10
181.6346265642031
 20
178.2012148084
 30
0
 40
68.22032212879381
 50
89.6891626955026
 51
91.50455495210247
  0
ARC
  8
0
 62
7
 10
182.3940800740018
 20
93.43487652489989
 30
0
 40
152.9861519329643
 50
89.58543165050065
 51
90.14581834770068
  0
ARC
  8
0
 62
7
 10
183.6210650044
 20
244.8970194297999
 30
0
 40
1.524737810184851
 50
75.61807235879864
 51
94.51587256530006
  0
ARC
  8
0
 62
7
 10
170.6602011785
 20
226.0163542907001
 30
0
 40
20.37649652886841
 50
89.8897869677001
 51
92.2277774578001
  0
ARC
  8
0
 62
7
 10
169.7541544814999
 20
245.3654804422001
 30
0
 40
1.018366710686113
 50
83.57451843479558
 51
117.3538674967993
  0
ARC
  8
0
 62
7
 10
166.828924972102
 20
229.5918145136
 30
0
 40
16.80103830584212
 50
88.13983315970683
 51
90.1245529091068
  0
ARC
  8
0
 62
7
 10
165.764022821
 20
245.3655774967999
 30
0
 40
1.018272272176038
 50
83.57290500819966
 51
117.3554809233914
  0
ARC
  8
0
 62
7
 10
167.087302134
 20
178.204181806
 30
0
 40
68.21735520854553
 50
89.68914396040003
 51
91.50459014629996
  0
ARC
  8
0
 62
7
 10
167.9188587576001
 20
214.5137956459
 30
0
 40
31.91007400624913
 50
87.69350432500009
 51
90.8285763824002
  0
ARC
  8
0
 62
7
 10
170.994303402203
 20
178.2012148084
 30
0
 40
68.22032212879381
 50
89.68916269550242
 51
91.50455495210247
  0
ARC
  8
0
 62
7
 10
171.7537569119018
 20
93.43487652489989
 30
0
 40
152.9861519329643
 50
89.58543165050065
 51
90.14581834770068
  0
ARC
  8
0
 62
7
 10
172.9807418423
 20
244.8970194297999
 30
0
 40
1.524737810184851
 50
75.61807235879864
 51
94.51587256530006
  0
ARC
  8
0
 62
7
 10
139.9842660524
 20
259.9375760047001
 30
0
 40
14.78272710492746
 50
258.4596190759
 51
271.4355620075003
  0
ARC
  8
0
 62
7
 10
138.7726451669
 20
247.1336217543001
 30
0
 40
1.403492386122344
 50
222.1075854880021
 51
268.6810716372031
  0
ARC
  8
0
 62
7
 10
140.2376489892
 20
254.6571583514001
 30
0
 40
9.051361309271394
 50
260.4781562961003
 51
271.3900503307998
  0
ARC
  8
0
 62
7
 10
142.1297611529
 20
247.4908690985001
 30
0
 40
1.722357504731945
 50
271.362217087201
 51
316.6117905414973
  0
ARC
  8
0
 62
7
 10
142.7246387404001
 20
244.8967963104999
 30
0
 40
1.556298413307065
 50
65.03788898930125
 51
103.0774539427997
  0
ARC
  8
0
 62
7
 10
143.4261287613001
 20
249.0319378177001
 30
0
 40
3.550844734399925
 50
275.8002474297981
 51
309.8965495133965
  0
ARC
  8
0
 62
7
 10
137.3432446754001
 20
248.2778564682001
 30
0
 40
2.841826418857371
 50
227.2052915366988
 51
263.6078368550994
  0
ARC
  8
0
 62
7
 10
155.2683220484
 20
252.9022810496001
 30
0
 40
7.540043774940664
 50
280.9402353697002
 51
300.5023106946991
  0
ARC
  8
0
 62
7
 10
151.918259173
 20
253.0169827887
 30
0
 40
7.660916568663604
 50
239.4788004482002
 51
258.9042398019006
  0
ARC
  8
0
 62
7
 10
153.1175755067
 20
251.1139056944001
 30
0
 40
5.451280073378805
 50
239.687847305901
 51
260.9489941042999
  0
ARC
  8
0
 62
7
 10
154.0312390723
 20
251.1123399163
 30
0
 40
5.448857768931192
 50
278.9956016381998
 51
300.3011276678
  0
ARC
  8
0
 62
7
 10
187.9515525895
 20
174.8084964416
 30
0
 40
7.030978658275683
 50
60.38471823250056
 51
84.11151134330008
  0
ARC
  8
0
 62
7
 10
183.2689717941
 20
148.3163229378999
 30
0
 40
32.48007897562718
 50
80.42281767050004
 51
90.81426174929993
  0
ARC
  8
0
 62
7
 10
187.9275067233
 20
173.5508441315999
 30
0
 40
6.833634656256496
 50
59.20529868810083
 51
83.73805307100045
  0
ARC
  8
0
 62
7
 10
186.109370102
 20
175.6090925057999
 30
0
 40
4.464527524811602
 50
58.62938092050103
 51
84.74549332189974
  0
ARC
  8
0
 62
7
 10
63.30108266529999
 20
555.4636317675999
 30
0
 40
5.000039737513892
 50
180.0004002571992
 51
261.4689245037001
  0
ARC
  8
0
 62
7
 10
63.30108266529999
 20
476.8516906814001
 30
0
 40
5.00003973751378
 50
98.53107549629999
 51
179.9995997428008
  0
ARC
  8
0
 62
7
 10
181.9892917437
 20
513.4789504663
 30
0
 40
2.588352393594521
 50
89.65822764520134
 51
146.0017050522011
  0
ARC
  8
0
 62
7
 10
167.441944205
 20
513.4790620527
 30
0
 40
2.588240984278525
 50
89.65756389749959
 51
146.0030211518982
  0
ARC
  8
0
 62
7
 10
167.5913122721
 20
514.3662130698
 30
0
 40
1.706305599789026
 50
19.16145254299409
 51
94.50080794119528
  0
ARC
  8
0
 62
7
 10
171.3489685816
 20
513.4789504663
 30
0
 40
2.588352393594521
 50
89.65822764520134
 51
146.0017050522011
  0
ARC
  8
0
 62
7
 10
171.557238186
 20
513.8029231707
 30
0
 40
2.272529484340926
 50
55.00043705779842
 51
94.86754889460084
  0
ARC
  8
0
 62
7
 10
178.0822966855999
 20
513.4789504663
 30
0
 40
2.588352393594521
 50
89.65822764519756
 51
146.0017050522
  0
ARC
  8
0
 62
7
 10
182.1975613481
 20
513.8029231707
 30
0
 40
2.272529484340926
 50
55.00043705779842
 51
94.86754889460156
  0
ARC
  8
0
 62
7
 10
178.2316092315
 20
514.3661729803001
 30
0
 40
1.70634350969307
 50
19.16243530269473
 51
94.49982518150056
  0
ARC
  8
0
 62
7
 10
181.4208003846
 20
513.3930287215
 30
0
 40
1.401429015966556
 50
93.31663463849748
 51
130.618331889197
  0
ARC
  8
0
 62
7
 10
181.6571379183
 20
513.1516010177001
 30
0
 40
1.738687555633791
 50
131.3506879389026
 51
185.5345592360037
  0
ARC
  8
0
 62
7
 10
177.4463999216001
 20
513.8896308747
 30
0
 40
0.9025831216988626
 50
50.98335989380718
 51
90.86797259710453
  0
ARC
  8
0
 62
7
 10
177.6671166894001
 20
513.1515294528
 30
0
 40
1.738802393851981
 50
131.3514182081026
 51
185.5318233737061
  0
ARC
  8
0
 62
7
 10
182.5041776407
 20
514.5394945351999
 30
0
 40
1.503087586398213
 50
354.2827026421088
 51
48.45606700750666
  0
ARC
  8
0
 62
7
 10
170.7805136428
 20
513.3929384308
 30
0
 40
1.401521262880288
 50
93.31790749580102
 51
130.6170590318988
  0
ARC
  8
0
 62
7
 10
171.016940445
 20
513.1515513620999
 30
0
 40
1.73880787040809
 50
131.3527159609002
 51
185.5325312138957
  0
ARC
  8
0
 62
7
 10
166.8061026011
 20
513.8897056089999
 30
0
 40
0.9025087878535369
 50
50.98164765751007
 51
90.86968483340125
  0
ARC
  8
0
 62
7
 10
167.0267010211
 20
513.1516010177001
 30
0
 40
1.738687555633791
 50
131.3506879389026
 51
185.5345592360035
  0
ARC
  8
0
 62
7
 10
171.8638544786
 20
514.5394945351999
 30
0
 40
1.503087586398213
 50
354.2827026421088
 51
48.45606700750666
  0
ARC
  8
0
 62
7
 10
158.1626891909
 20
517.6497238986
 30
0
 40
10.21656894507421
 50
139.0703487251001
 51
187.0097119823002
  0
ARC
  8
0
 62
7
 10
148.7885254986
 20
515.1232640422001
 30
0
 40
10.41113632782316
 50
319.4499916070986
 51
7.060197201900433
  0
ARC
  8
0
 62
7
 10
159.6097005471
 20
517.5510944655999
 30
0
 40
9.33583353838713
 50
141.9297427915993
 51
187.0644593143995
  0
ARC
  8
0
 62
7
 10
159.6130226638
 20
515.1684222842999
 30
0
 40
9.350135310865191
 50
172.4130992166993
 51
218.1490631429996
  0
ARC
  8
0
 62
7
 10
147.551662413
 20
515.1670438427999
 30
0
 40
9.332422534582635
 50
321.7762414697005
 51
7.609923552300536
  0
ARC
  8
0
 62
7
 10
147.7331323985
 20
517.6019976933
 30
0
 40
9.147686529148405
 50
352.4679914031009
 51
38.5901549156002
  0
ARC
  8
0
 62
7
 10
141.3668145838
 20
511.9275125774001
 30
0
 40
3.650115039048414
 50
174.8535339895022
 51
223.9819358008018
  0
ARC
  8
0
 62
7
 10
140.2842182203
 20
511.184610315
 30
0
 40
2.365227103213099
 50
229.2515703761006
 51
274.1946824310995
  0
ARC
  8
0
 62
7
 10
138.4992903854
 20
512.8487353495001
 30
0
 40
4.914203036830694
 50
318.3400952247997
 51
6.548850460899049
  0
ARC
  8
0
 62
7
 10
138.820125915
 20
513.9705340447
 30
0
 40
4.595712350961872
 50
352.9842239177993
 51
39.37813027499959
  0
ARC
  8
0
 62
7
 10
141.1236767880001
 20
514.1088424573001
 30
0
 40
3.361118649627579
 50
92.79142340700103
 51
156.7381249658016
  0
ARC
  8
0
 62
7
 10
141.3570332165
 20
514.7987065678
 30
0
 40
4.308575163641108
 50
88.54877332649924
 51
138.4024283901987
  0
ARC
  8
0
 62
7
 10
139.7573683161
 20
513.9378473254
 30
0
 40
5.969739556932617
 50
354.9195616518999
 51
43.47604193789915
  0
ARC
  8
0
 62
7
 10
139.2873235105
 20
512.9535584358999
 30
0
 40
6.432489348652235
 50
314.3636190706998
 51
4.061928858300576
  0
ARC
  8
0
 62
7
 10
140.0486068896
 20
511.6634755117001
 30
0
 40
4.621316030022247
 50
229.1658259486007
 51
273.7967114752001
  0
ARC
  8
0
 62
7
 10
140.8812115568
 20
512.0516978753
 30
0
 40
5.472401686390253
 50
177.8716240714008
 51
225.2248961599
  0
CIRCLE
  8
0
 62
7
 10
464.3010417358
 20
337.4206551067
 30
0
 40
2.5
  0
CIRCLE
  8
0
 62
7
 10
410.2366433783
 20
243.854998345
 30
0
 40
1.250000000000057
  0
CIRCLE
  8
0
 62
7
 10
354.8010417358
 20
459.1576621558
 30
0
 40
6
  0
CIRCLE
  8
0
 62
7
 10
354.8010417358
 20
573.1576621558
 30
0
 40
6
  0
CIRCLE
  8
0
 62
7
 10
486.3010417358
 20
516.1576621558
 30
0
 40
46
  0
CIRCLE
  8
0
 62
7
 10
802.1408391602
 20
212.9206551067
 30
0
 40
52.00000000000011
  0
CIRCLE
  8
0
 62
7
 10
802.1408391602
 20
212.9206551067
 30
0
 40
50.00000000000011
  0
CIRCLE
  8
0
 62
7
 10
802.1408391602
 20
212.9206551067
 30
0
 40
42.5
  0
CIRCLE
  8
0
 62
7
 10
802.1408391602
 20
212.9206551067
 30
0
 40
41.99999999999989
  0
CIRCLE
  8
0
 62
7
 10
802.1408391602
 20
212.9206551067
 30
0
 40
41.5
  0
CIRCLE
  8
0
 62
7
 10
802.1408391602
 20
212.9206551067
 30
0
 40
34
  0
CIRCLE
  8
0
 62
7
 10
802.1408391602
 20
212.9206551067
 30
0
 40
33.5
  0
CIRCLE
  8
0
 62
7
 10
802.1408391602
 20
212.9206551067
 30
0
 40
32.99999999999989
  0
CIRCLE
  8
0
 62
7
 10
802.1408391602
 20
212.9206551067
 30
0
 40
27
  0
CIRCLE
  8
0
 62
7
 10
802.1408391602
 20
212.9206551067
 30
0
 40
25
  0
CIRCLE
  8
0
 62
7
 10
852.9905419361
 20
263.1855307914
 30
0
 40
9.500000000000341
  0
CIRCLE
  8
0
 62
7
 10
852.9905419361
 20
162.655779422
 30
0
 40
9.5
  0
CIRCLE
  8
0
 62
7
 10
751.2911363843
 20
263.1855307914
 30
0
 40
9.500000000000114
  0
CIRCLE
  8
0
 62
7
 10
751.2911363843
 20
162.655779422
 30
0
 40
9.5
  0
CIRCLE
  8
1
 62
2
  6
DASHDOT
 10
802.1408391601101
 20
212.9206551066851
 30
0
 40
71.50000000007765
  0
CIRCLE
  8
0
 62
7
 10
433.975139928
 20
463.831760348
 30
0
 40
9.5
  0
CIRCLE
  8
0
 62
7
 10
433.975139928
 20
568.4835616360999
 30
0
 40
9.5
  0
CIRCLE
  8
0
 62
7
 10
538.6269449413999
 20
568.4835616360999
 30
0
 40
9.5
  0
CIRCLE
  8
0
 62
7
 10
538.6269449413999
 20
463.831760348
 30
0
 40
9.5
  0
DIMENSION
  8
1
  6
CONTINUOUS
 62
2
  2
*D0
  3
DMST_1
 10
620.6230238527
 20
132.9206568948
 30
0
 11
618.0230238527
 21
241.42065325895
 31
0
 12
0
 22
0
 32
0
 70
128
 13
523.3010422126
 23
349.9206496231
 33
0
 14
526.3010408417
 24
132.9206568948
 34
0
 50
90
 53
0
  0
DIMENSION
  8
1
  6
CONTINUOUS
 62
2
  2
*D1
  3
DMST_1
 10
611.3010417358
 20
132.9206568948
 30
0
 11
608.7010417358
 21
172.92065600075
 31
0
 12
0
 22
0
 32
0
 70
128
 13
607.739096661
 23
212.9206551067
 33
0
 14
526.3010408417
 24
132.9206568948
 34
0
 50
90
 53
0
  0
DIMENSION
  8
1
  6
CONTINUOUS
 62
2
  2
*D2
  3
DMST_1
 10
41.30104888840003
 20
84.7239335771
 30
0
 11
321.3010463552
 21
87.32393357709999
 31
0
 12
0
 22
0
 32
0
 70
129
 13
601.301043822
 23
162.9206543616
 33
0
 14
41.3010488884
 24
162.9206543616
 34
0
 53
0
  0
DIMENSION
  8
1
  6
CONTINUOUS
 62
2
  2
*D3
  3
DMST_1
 10
41.3010488884
 20
96.7239335771
 30
0
 11
197.3010453121
 21
99.32393357709999
 31
0
 12
0
 22
0
 32
0
 70
128
 13
353.3010417358
 23
176.6706551067
 33
0
 14
41.3010488884
 24
162.9206543616
 34
0
 53
0
  0
DIMENSION
  8
1
  6
CONTINUOUS
 62
2
  2
*D4
  3
DMST_1
 10
601.301043822
 20
96.7239335771
 30
0
 11
486.3010417358
 21
99.32393357709999
 31
0
 12
0
 22
0
 32
0
 70
128
 13
356.3010417358
 23
176.4206551067
 33
0
 14
601.301043822
 24
162.9206543616
 34
0
 53
0
  0
DIMENSION
  8
1
  6
CONTINUOUS
 62
2
  2
*D5
  3
DMST_1
 10
486.3010417358
 20
104.678875982
 30
0
 11
543.8010427789
 21
107.278875982
 31
0
 12
0
 22
0
 32
0
 70
128
 13
601.301043822
 23
162.9206543616
 33
0
 14
486.3010417358
 24
124.2028196608
 34
0
 53
0
  0
DIMENSION
  8
1
  6
CONTINUOUS
 62
2
  2
*D6
  3
DMST_1
 10
356.3010417358
 20
104.678875982
 30
0
 11
421.3010417358
 21
107.278875982
 31
0
 12
0
 22
0
 32
0
 70
128
 13
486.3010417358
 23
124.2028196608
 33
0
 14
356.3010417358
 24
176.4206551067
 34
0
 53
0
  0
DIMENSION
  8
1
  6
CONTINUOUS
 62
2
  2
*D7
  3
DMST_2
 10
620.6230238527
 20
423.1576599504
 30
0
 11
618.3230238527001
 21
516.1576621557999
 31
0
 12
0
 22
0
 32
0
 70
128
 13
599.3010397689
 23
609.1576643612
 33
0
 14
599.3010397689
 24
423.1576599504
 34
0
 50
90
 53
0
  0
DIMENSION
  8
1
  6
CONTINUOUS
 62
2
  2
*D8
  3
DMST_3
 10
718.9893226556644
 20
171.2694209953805
 30
0
 11
920.3269244675826
 21
275.0289187311699
 31
0
 12
0
 22
0
 32
0
 70
131
  1
D1
 15
885.2923556647356
 25
254.5718892180194
 35
0
 40
42.99514936932651
 53
0
  0
DIMENSION
  8
1
  6
CONTINUOUS
 62
2
  2
*D9
  3
DMST_3
 10
731.6283174507214
 20
201.0785994492375
 30
0
 11
927.5657049677541
 21
236.6212433314244
 31
0
 12
0
 22
0
 32
0
 70
131
  1
D2
 15
872.6533608694988
 25
224.7627107641327
 35
0
 40
59.1067223164887
 53
0
  0
DIMENSION
  8
1
  6
CONTINUOUS
 62
2
  2
*D10
  3
DMST_3
 10
753.8563198982706
 20
225.9054615990734
 30
0
 11
924.8450894630184
 21
182.6150629968163
 31
0
 12
0
 22
0
 32
0
 70
131
  1
D3
 15
850.4253584221294
 25
199.9358486143265
 35
0
 40
79.35327843690287
 53
0
  0
ENDSEC
  0
EOF
