  0
SECTION
  2
HEADER
  9
$ACADVER
  1
AC1009
  9
$INSBASE
 10
0
 20
0
  9
$EXTMIN
 10
41.70516295760001
 20
213.9279129577387
  9
$EXTMAX
 10
615.9141905784339
 20
756.3892711182
  9
$LIMMIN
 10
41.70516295760001
 20
213.9279129577387
  9
$LIMMAX
 10
615.9141905784339
 20
756.3892711182
  9
$VIEWCTR
 10
10
 20
10
  9
$VIEWSIZE
 40
10
  9
$SNAPMODE
 70
0
  9
$SNAPUNIT
 10
1
 20
1
  9
$SNAPBASE
 10
0
 20
0
  9
$SNAPANG
 50
0
  9
$SNAPSTYLE
 70
0
  9
$SNAPISOPAIR
 70
0
  9
$GRIDMODE
 70
0
  9
$GRIDUNIT
 10
0
 20
0
  9
$ORTHOMODE
 70
0
  9
$REGENMODE
 70
1
  9
$FILLMODE
 70
1
  9
$QTEXTMODE
 70
0
  9
$DRAGMODE
 70
2
  9
$LTSCALE
 40
1
  9
$OSMODE
 70
0
  9
$ATTMODE
 70
1
  9
$TEXTSIZE
 40
3.5
  9
$TRACEWID
 40
0.5
  9
$TEXTSTYLE
  7
STANDARD
  9
$CLAYER
  8
0
  9
$CELTYPE
  6
BYLAYER
  9
$CECOLOR
 62
256
  9
$DIMSCALE
 40
1
  9
$DIMASZ
 40
0.18
  9
$DIMEXO
 40
0.0625
  9
$DIMDLI
 40
0.38
  9
$DIMRND
 40
0
  9
$DIMDLE
 40
0
  9
$DIMEXE
 40
0.18
  9
$DIMTP
 40
0
  9
$DIMTM
 40
0
  9
$DIMTXT
 40
0.18
  9
$DIMCEN
 40
0.09
  9
$DIMTSZ
 40
0
  9
$DIMTOL
 70
0
  9
$DIMLIM
 70
0
  9
$DIMTIH
 70
1
  9
$DIMTOH
 70
1
  9
$DIMSE1
 70
0
  9
$DIMSE2
 70
0
  9
$DIMTAD
 70
0
  9
$DIMZIN
 70
0
  9
$DIMBLK
  1

  9
$DIMASO
 70
1
  9
$DIMSHO
 70
1
  9
$DIMPOST
  1

  9
$DIMAPOST
  1

  9
$DIMALT
 70
0
  9
$DIMALTD
 70
2
  9
$DIMALTF
 40
25.4
  9
$DIMLFAC
 40
1
  9
$DIMTOFL
 70
0
  9
$DIMTVP
 40
0
  9
$DIMTIX
 70
0
  9
$DIMSOXD
 70
0
  9
$DIMSAH
 70
0
  9
$DIMBLK1
  1

  9
$DIMBLK2
  1

  9
$DIMSTYLE
  2
*UNNAMED
  9
$DIMCLRD
 70
0
  9
$DIMCLRE
 70
0
  9
$DIMCLRT
 70
0
  9
$DIMTFAC
 40
1
  9
$DIMGAP
 40
0.09
  9
$LUNITS
 70
2
  9
$LUPREC
 70
4
  9
$AXISMODE
 70
0
  9
$AXISUNIT
 10
0
 20
0
  9
$SKETCHINC
 40
0.1
  9
$FILLETRAD
 40
2
  9
$AUNITS
 70
0
  9
$AUPREC
 70
0
  9
$MENU
  1
ACAD
  9
$ELEVATION
 40
0
  9
$THICKNESS
 40
0
  9
$VIEWDIR
 10
0
 20
0
 30
1
  9
$LIMCHECK
 70
0
  9
$BLIPMODE
 70
1
  9
$CHAMFERA
 40
0
  9
$CHAMFERB
 40
0
  9
$FASTZOOM
 70
1
  9
$SKPOLY
 70
0
  9
$ANGBASE
 50
0
  9
$ANGDIR
 70
0
  9
$PDMODE
 70
0
  9
$PDSIZE
 40
0
  9
$PLINEWID
 40
0
  9
$COORDS
 70
2
  0
ENDSEC
  0
SECTION
  2
TABLES
  0
TABLE
  2
DIMSTYLE
 70
2
  0
DIMSTYLE
  2
DMST_1
 70
0
  3

  4

  5

  6

  7

 40
1
 41
3.2
 42
0.5
 43
7
 44
1.5
 45
0
 46
0
 47
0
 48
0
140
3.2
141
0
142
0
143
25.4
144
1
145
0
146
1
147
0.09
 71
0
 72
0
 73
0
 74
0
 75
0
 76
0
 77
1
 78
9
170
0
171
2
172
0
173
0
174
0
175
0
176
2
177
2
178
2
  0
DIMSTYLE
  2
DMST_2
 70
0
  3

  4

  5

  6

  7

 40
1
 41
3.2
 42
0.5
 43
7
 44
1.5
 45
0
 46
0
 47
0
 48
0
140
3.2
141
0
142
0
143
25.4
144
1
145
0
146
1
147
0.09
 71
0
 72
0
 73
0
 74
0
 75
0
 76
0
 77
1
 78
9
170
0
171
2
172
1
173
0
174
0
175
0
176
2
177
2
178
2
  0
ENDTAB
  0
TABLE
  2
LTYPE
 70
9
  0
LTYPE
  2
CONTINUOUS
 70
64
  3
Solid line
 72
65
 73
0
 40
0
  0
LTYPE
  2
BORDER
 70
64
  3
__ __ . __ __ .
 72
65
 73
6
 40
26.44383679832788
 49
7.555381942379394
 49
-3.777690971189697
 49
7.555381942379394
 49
-3.777690971189697
 49
0
 49
-3.777690971189697
  0
LTYPE
  2
CENTER
 70
64
  3
____ _ ____ _
 72
65
 73
4
 40
30.22152776951758
 49
18.88845485594849
 49
-3.777690971189697
 49
3.777690971189697
 49
-3.777690971189697
  0
LTYPE
  2
DASHDOT
 70
64
  3
__ . __ . __ .
 72
65
 73
4
 40
15.11076388475879
 49
7.555381942379394
 49
-3.777690971189697
 49
0
 49
-3.777690971189697
  0
LTYPE
  2
DASHED
 70
64
  3
__ __ __ __ __
 72
65
 73
2
 40
11.33307291356909
 49
7.555381942379394
 49
-3.777690971189697
  0
LTYPE
  2
DIVIDE
 70
64
  3
__ . . __ . . 
 72
65
 73
6
 40
18.88845485594849
 49
7.555381942379394
 49
-3.777690971189697
 49
0
 49
-3.777690971189697
 49
0
 49
-3.777690971189697
  0
LTYPE
  2
DOT
 70
64
  3
..............
 72
65
 73
4
 40
7.555381942379394
 49
0
 49
-3.777690971189697
 49
0
 49
-3.777690971189697
  0
LTYPE
  2
HIDDEN
 70
64
  3
_ _ _ _ _ _ _
 72
65
 73
2
 40
5.666536456784545
 49
3.777690971189697
 49
-1.888845485594848
  0
LTYPE
  2
PHANTOM
 70
64
  3
_____ _ _ _____ _ _ 
 72
65
 73
6
 40
37.77690971189697
 49
18.88845485594849
 49
-3.777690971189697
 49
3.777690971189697
 49
-3.777690971189697
 49
3.777690971189697
 49
-3.777690971189697
  0
ENDTAB
  0
TABLE
  2
LAYER
 70
3
  0
LAYER
  2
0
 70
0
 62
7
  6
CONTINUOUS
  0
LAYER
  2
1
 70
0
 62
7
  6
CONTINUOUS
  0
ENDTAB
  0
TABLE
  2
STYLE
 70
4
  0
STYLE
  2
STANDARD
 70
0
 40
0
 41
1
 50
0
 71
0
 42
3.5
  3
txt
  4

  0
STYLE
  2
SIMPLEX
 70
0
 40
0
 41
1
 50
0
 71
0
 42
3.5
  3
simplex
  4

  0
STYLE
  2
COMPLEX
 70
0
 40
0
 41
1
 50
0
 71
0
 42
3.5
  3
complex
  4

  0
STYLE
  2
ITALIC
 70
0
 40
0
 41
1
 50
0
 71
0
 42
3.5
  3
italic
  4

  0
ENDTAB
  0
TABLE
  2
VIEW
 70
0
  0
ENDTAB
  0
ENDSEC
  0
SECTION
  2
BLOCKS
  0
BLOCK
  8
1
  2
*D0
 70
1
 10
0
 20
0
 30
0
  0
LINE
  8
1
 62
2
 10
46.56450314040001
 20
322.8057643579
 30
0
 11
176.564498372
 21
322.8057643579
 31
0
  0
LINE
  8
1
 62
2
 10
46.56450314040001
 20
384.8904738594
 30
0
 11
46.56450314040001
 21
321.3057643579
 31
0
  0
LINE
  8
1
 62
2
 10
176.564498372
 20
342.2562918612
 30
0
 11
176.564498372
 21
321.3057643579
 31
0
  0
LINE
  8
1
 62
2
 10
46.56450314040001
 20
322.8057643579
 30
0
 11
49.76450314040001
 21
323.6697643579
 31
0
  0
LINE
  8
1
 62
2
 10
46.56450314040001
 20
322.8057643579
 30
0
 11
49.76450314040001
 21
321.9417643579
 31
0
  0
LINE
  8
1
 62
2
 10
176.564498372
 20
322.8057643579
 30
0
 11
173.364498372
 21
321.9417643579
 31
0
  0
LINE
  8
1
 62
2
 10
176.564498372
 20
322.8057643579
 30
0
 11
173.364498372
 21
323.6697643579
 31
0
  0
TEXT
  8
1
 62
2
 10
107.7757820483102
 20
323.8057643579
 30
0
 40
3.2
  1
130
 41
0.9
 51
15
  0
ENDBLK
  8
0
  0
BLOCK
  8
1
  2
*D1
 70
1
 10
0
 20
0
 30
0
  0
LINE
  8
1
 62
2
 10
176.564498372
 20
322.8057643579
 30
0
 11
291.5645004582
 21
322.8057643579
 31
0
  0
LINE
  8
1
 62
2
 10
176.564498372
 20
342.2562918612
 30
0
 11
176.564498372
 21
321.3057643579
 31
0
  0
LINE
  8
1
 62
2
 10
291.5645004582
 20
384.8904738594
 30
0
 11
291.5645004582
 21
321.3057643579
 31
0
  0
LINE
  8
1
 62
2
 10
176.564498372
 20
322.8057643579
 30
0
 11
179.764498372
 21
323.6697643579
 31
0
  0
LINE
  8
1
 62
2
 10
176.564498372
 20
322.8057643579
 30
0
 11
179.764498372
 21
321.9417643579
 31
0
  0
LINE
  8
1
 62
2
 10
291.5645004582
 20
322.8057643579
 30
0
 11
288.3645004582
 21
321.9417643579
 31
0
  0
LINE
  8
1
 62
2
 10
291.5645004582
 20
322.8057643579
 30
0
 11
288.3645004582
 21
323.6697643579
 31
0
  0
TEXT
  8
1
 62
2
 10
230.7557807072102
 20
323.8057643579
 30
0
 40
3.2
  1
115
 41
0.9
 51
15
  0
ENDBLK
  8
0
  0
BLOCK
  8
1
  2
*D2
 70
1
 10
0
 20
0
 30
0
  0
LINE
  8
1
 62
2
 10
46.56450314039999
 20
313.2125495991
 30
0
 11
291.5645004582
 21
313.2125495991
 31
0
  0
LINE
  8
1
 62
2
 10
46.56450314039999
 20
384.8904738594
 30
0
 11
46.56450314039999
 21
311.7125495991
 31
0
  0
LINE
  8
1
 62
2
 10
291.5645004582
 20
384.8904738594
 30
0
 11
291.5645004582
 21
311.7125495991
 31
0
  0
LINE
  8
1
 62
2
 10
46.56450314039999
 20
313.2125495991
 30
0
 11
49.7645031404
 21
314.0765495991
 31
0
  0
LINE
  8
1
 62
2
 10
46.56450314039999
 20
313.2125495991
 30
0
 11
49.7645031404
 21
312.3485495991
 31
0
  0
LINE
  8
1
 62
2
 10
291.5645004582
 20
313.2125495991
 30
0
 11
288.3645004582
 21
312.3485495991
 31
0
  0
LINE
  8
1
 62
2
 10
291.5645004582
 20
313.2125495991
 30
0
 11
288.3645004582
 21
314.0765495991
 31
0
  0
TEXT
  8
1
 62
2
 10
164.7957830914102
 20
314.2125495991
 30
0
 40
3.2
  1
245
 41
0.9
 51
15
  0
ENDBLK
  8
0
  0
BLOCK
  8
1
  2
*D3
 70
1
 10
0
 20
0
 30
0
  0
LINE
  8
1
 62
2
 10
313.564498372
 20
355.3904763926
 30
0
 11
313.564498372
 21
556.3904739487999
 31
0
  0
LINE
  8
1
 62
2
 10
217.0644974779
 20
355.3904763926
 30
0
 11
315.064498372
 21
355.3904763926
 31
0
  0
LINE
  8
1
 62
2
 10
128.0104591143679
 20
556.3904739487999
 30
0
 11
315.064498372
 21
556.3904739487999
 31
0
  0
LINE
  8
1
 62
2
 10
313.564498372
 20
556.3904739487999
 30
0
 11
314.428498372
 21
553.1904739487999
 31
0
  0
LINE
  8
1
 62
2
 10
313.564498372
 20
556.3904739487999
 30
0
 11
312.700498372
 21
553.1904739487999
 31
0
  0
LINE
  8
1
 62
2
 10
313.564498372
 20
355.3904763926
 30
0
 11
312.700498372
 21
358.5904763926
 31
0
  0
LINE
  8
1
 62
2
 10
313.564498372
 20
355.3904763926
 30
0
 11
314.428498372
 21
358.5904763926
 31
0
  0
TEXT
  8
1
 62
2
 10
312.564498372
 20
452.1017564628102
 30
0
 40
3.2
  1
201
 50
90
 41
0.9
 51
15
  0
ENDBLK
  8
0
  0
BLOCK
  8
1
  2
*D4
 70
1
 10
0
 20
0
 30
0
  0
LINE
  8
1
 62
2
 10
302.1537219546
 20
355.3904763926
 30
0
 11
302.1537219546
 21
435.3904746044
 31
0
  0
LINE
  8
1
 62
2
 10
217.0644974779001
 20
355.3904763926
 30
0
 11
303.6537219546
 21
355.3904763926
 31
0
  0
LINE
  8
1
 62
2
 10
297.2201178535001
 20
435.3904746044
 30
0
 11
303.6537219546
 21
435.3904746044
 31
0
  0
LINE
  8
1
 62
2
 10
302.1537219546
 20
435.3904746044
 30
0
 11
303.0177219546
 21
432.1904746044
 31
0
  0
LINE
  8
1
 62
2
 10
302.1537219546
 20
435.3904746044
 30
0
 11
301.2897219546001
 21
432.1904746044
 31
0
  0
LINE
  8
1
 62
2
 10
302.1537219546
 20
355.3904763926
 30
0
 11
301.2897219546001
 21
358.5904763926
 31
0
  0
LINE
  8
1
 62
2
 10
302.1537219546
 20
355.3904763926
 30
0
 11
303.0177219546
 21
358.5904763926
 31
0
  0
TEXT
  8
1
 62
2
 10
301.1537219546
 20
392.5617567906102
 30
0
 40
3.2
  1
80
 50
90
 41
0.9
 51
15
  0
ENDBLK
  8
0
  0
BLOCK
  8
1
  2
*D5
 70
1
 10
0
 20
0
 30
0
  0
LINE
  8
1
 62
2
 10
312.954591546733
 20
591.3892689129
 30
0
 11
312.954591546733
 21
735.3892689129
 31
0
  0
LINE
  8
1
 62
2
 10
177.064498372
 20
591.3892689129
 30
0
 11
314.454591546733
 21
591.3892689129
 31
0
  0
LINE
  8
1
 62
2
 10
177.064498372
 20
735.3892689129
 30
0
 11
314.454591546733
 21
735.3892689129
 31
0
  0
LINE
  8
1
 62
2
 10
312.954591546733
 20
735.3892689129
 30
0
 11
313.818591546733
 21
732.1892689128999
 31
0
  0
LINE
  8
1
 62
2
 10
312.954591546733
 20
735.3892689129
 30
0
 11
312.090591546733
 21
732.1892689128999
 31
0
  0
LINE
  8
1
 62
2
 10
312.954591546733
 20
591.3892689129
 30
0
 11
312.090591546733
 21
594.5892689129
 31
0
  0
LINE
  8
1
 62
2
 10
312.954591546733
 20
591.3892689129
 30
0
 11
313.818591546733
 21
594.5892689129
 31
0
  0
TEXT
  8
1
 62
2
 10
311.954591546733
 20
659.6005502050102
 30
0
 40
3.2
  1
144
 50
90
 41
0.9
 51
15
  0
ENDBLK
  8
0
  0
BLOCK
  8
1
  2
*D6
 70
1
 10
0
 20
0
 30
0
  0
LINE
  8
1
 62
2
 10
402.9772098072136
 20
396.8488379540873
 30
0
 11
607.6431213179054
 21
490.0479454953189
 31
0
  0
LINE
  8
1
 62
2
 10
572.2526332367863
 20
473.9321112547127
 30
0
 11
569.6984321247278
 21
471.8196357686635
 31
0
  0
LINE
  8
1
 62
2
 10
572.2526332367863
 20
473.9321112547127
 30
0
 11
568.9823036501929
 21
473.3922590572996
 31
0
  0
LINE
  8
1
 62
2
 10
402.9772098072136
 20
396.8488379540873
 30
0
 11
405.5314109192722
 21
398.9613134401366
 31
0
  0
LINE
  8
1
 62
2
 10
402.9772098072136
 20
396.8488379540873
 30
0
 11
406.247539393807
 21
397.3886901515005
 31
0
  0
TEXT
  8
1
 62
2
 10
602.6624110147436
 20
488.8786708923095
 30
0
 40
3.2
  1
D1
 50
24.48318679721232
 41
0.9
 51
15
  0
ENDBLK
  8
0
  0
BLOCK
  8
1
  2
*D7
 70
1
 10
0
 20
0
 30
0
  0
LINE
  8
1
 62
2
 10
416.9717166138129
 20
424.3547326493631
 30
0
 11
615.3255654525489
 21
455.3411791801138
 31
0
  0
LINE
  8
1
 62
2
 10
558.2581264287504
 20
446.426216559976
 30
0
 11
555.2298274825638
 21
445.0786626677233
 31
0
  0
LINE
  8
1
 62
2
 10
558.2581264287504
 20
446.426216559976
 30
0
 11
554.9631175231432
 21
446.7859557877076
 31
0
  0
LINE
  8
1
 62
2
 10
416.9717166138129
 20
424.3547326493631
 30
0
 11
420.0000155599994
 21
425.7022865416158
 31
0
  0
LINE
  8
1
 62
2
 10
416.9717166138129
 20
424.3547326493631
 30
0
 11
420.2667255194201
 21
423.9949934216314
 31
0
  0
TEXT
  8
1
 62
2
 10
609.2654105135916
 20
455.4066022295248
 30
0
 40
3.2
  1
D2
 50
8.878870774605689
 41
0.9
 51
15
  0
ENDBLK
  8
0
  0
BLOCK
  8
1
  2
*D8
 70
1
 10
0
 20
0
 30
0
  0
LINE
  8
1
 62
2
 10
446.6838871271261
 20
446.8316468942335
 30
0
 11
614.7835335521444
 21
399.8439016529455
 31
0
  0
LINE
  8
1
 62
2
 10
528.5459559168739
 20
423.9493023145665
 30
0
 11
525.2314974951795
 21
423.9786514348088
 31
0
  0
LINE
  8
1
 62
2
 10
528.5459559168739
 20
423.9493023145665
 30
0
 11
525.6966821002815
 21
425.6428591391463
 31
0
  0
LINE
  8
1
 62
2
 10
446.6838871271261
 20
446.8316468942335
 30
0
 11
449.9983455488205
 21
446.8022977739913
 31
0
  0
LINE
  8
1
 62
2
 10
446.6838871271261
 20
446.8316468942335
 30
0
 11
449.5331609437185
 21
445.1380900696538
 31
0
  0
TEXT
  8
1
 62
2
 10
609.295968277588
 20
402.4161351993105
 30
0
 40
3.2
  1
D3
 50
344.3830910812538
 41
0.9
 51
15
  0
ENDBLK
  8
0
  0
ENDSEC
  0
SECTION
  2
ENTITIES
  0
POLYLINE
  8
0
 62
7
 66
1
  0
VERTEX
  8
0
 10
163.6130255979
 20
459.6247508694
 30
0
  0
VERTEX
  8
0
 10
163.7280942273
 20
461.7297019381
 30
0
  0
VERTEX
  8
0
 10
164.0248052176
 20
463.368695559
 30
0
  0
VERTEX
  8
0
 10
164.5719535049
 20
464.9338427503
 30
0
  0
VERTEX
  8
0
 10
165.8795639273
 20
466.8514489699
 30
0
  0
VERTEX
  8
0
 10
166.3627880957
 20
467.2892003823
 30
0
  0
SEQEND
  8
0
  0
POLYLINE
  8
0
 62
7
 66
1
  0
VERTEX
  8
0
 10
106.1923490238
 20
481.3217989672
 30
0
  0
VERTEX
  8
0
 10
105.8196635317
 20
480.4141506124
 30
0
  0
VERTEX
  8
0
 10
105.358539648
 20
479.0318890978
 30
0
  0
SEQEND
  8
0
  0
POLYLINE
  8
0
 62
7
 66
1
  0
VERTEX
  8
0
 10
235.8097941946
 20
498.3904756177
 30
0
  0
VERTEX
  8
0
 10
236.2410151731
 20
497.984582888
 30
0
  0
VERTEX
  8
0
 10
236.9700805616
 20
496.3110670019
 30
0
  0
VERTEX
  8
0
 10
237.0644980442
 20
494.1564671267
 30
0
  0
VERTEX
  8
0
 10
237.0644980442
 20
487.6153043974
 30
0
  0
VERTEX
  8
0
 10
237.1740588319
 20
483.2720629443
 30
0
  0
VERTEX
  8
0
 10
237.3836660158
 20
481.7855491806
 30
0
  0
SEQEND
  8
0
  0
POLYLINE
  8
0
 62
7
 66
1
  0
VERTEX
  8
0
 10
183.2808577787
 20
409.3158024866
 30
0
  0
VERTEX
  8
0
 10
182.7035788778
 20
409.693619566
 30
0
  0
VERTEX
  8
0
 10
182.1676143777
 20
409.7853064109
 30
0
  0
SEQEND
  8
0
  0
POLYLINE
  8
0
 62
7
 66
1
  0
VERTEX
  8
0
 10
182.1676143777
 20
404.144607814
 30
0
  0
VERTEX
  8
0
 10
182.8629109409
 20
404.3112605382
 30
0
  0
VERTEX
  8
0
 10
183.3167691115
 20
404.6473618168
 30
0
  0
SEQEND
  8
0
  0
POLYLINE
  8
0
 62
7
 66
1
  0
VERTEX
  8
0
 10
182.1676143777
 20
410.4649576861
 30
0
  0
VERTEX
  8
0
 10
183.2237728272
 20
410.2808333505
 30
0
  0
VERTEX
  8
0
 10
183.9272571128
 20
409.8185583521
 30
0
  0
SEQEND
  8
0
  0
POLYLINE
  8
0
 62
7
 66
1
  0
VERTEX
  8
0
 10
184.753211714
 20
406.9456703533
 30
0
  0
VERTEX
  8
0
 10
184.5817682665
 20
405.3155559618
 30
0
  0
VERTEX
  8
0
 10
183.9990793128
 20
404.1805177499
 30
0
  0
SEQEND
  8
0
  0
POLYLINE
  8
0
 62
7
 66
1
  0
VERTEX
  8
0
 10
183.9990793128
 20
404.1805177499
 30
0
  0
VERTEX
  8
0
 10
183.0433025357
 20
403.5949654449
 30
0
  0
VERTEX
  8
0
 10
182.1676143777
 20
403.4649565388
 30
0
  0
SEQEND
  8
0
  0
POLYLINE
  8
0
 62
7
 66
1
  0
VERTEX
  8
0
 10
114.8682893586
 20
377.0465351213
 30
0
  0
VERTEX
  8
0
 10
109.1690422367
 20
381.526900785
 30
0
  0
VERTEX
  8
0
 10
103.7687049579
 20
386.416731732
 30
0
  0
VERTEX
  8
0
 10
98.6825065088
 20
391.6955165137
 30
0
  0
VERTEX
  8
0
 10
94.4874571037
 20
395.5963648427
 30
0
  0
VERTEX
  8
0
 10
89.8758680891
 20
398.9134415556
 30
0
  0
VERTEX
  8
0
 10
84.9089832377
 20
401.6196824182
 30
0
  0
SEQEND
  8
0
  0
POLYLINE
  8
0
 62
7
 66
1
  0
VERTEX
  8
0
 10
247.0637173724
 20
467.6944411863
 30
0
  0
VERTEX
  8
0
 10
250.2618939947
 20
466.531064691
 30
0
  0
VERTEX
  8
0
 10
253.6646635603
 20
466.4913810361
 30
0
  0
VERTEX
  8
0
 10
257.2441683483
 20
467.4299120475
 30
0
  0
VERTEX
  8
0
 10
260.7578845095
 20
468.6446882356
 30
0
  0
VERTEX
  8
0
 10
267.5771613313041
 20
470.8292698672126
 30
0
  0
VERTEX
  8
0
 10
267.5966606807
 20
470.835516559
 30
0
  0
SEQEND
  8
0
  0
POLYLINE
  8
0
 62
7
 66
1
  0
VERTEX
  8
0
 10
268.131835885
 20
400.1870438028
 30
0
  0
VERTEX
  8
0
 10
268.1119045627945
 20
400.1947063444265
 30
0
  0
VERTEX
  8
0
 10
259.9433572363
 20
403.3350817431
 30
0
  0
VERTEX
  8
0
 10
251.1549876403
 20
406.7236914802
 30
0
  0
SEQEND
  8
0
  0
POLYLINE
  8
0
 62
7
 66
1
  0
VERTEX
  8
0
 10
118.7537708651
 20
499.2389775384
 30
0
  0
VERTEX
  8
0
 10
121.4409419667
 20
498.623365866
 30
0
  0
VERTEX
  8
0
 10
124.238597728
 20
498.3904756177
 30
0
  0
SEQEND
  8
0
  0
POLYLINE
  8
0
 62
7
 66
1
  0
VERTEX
  8
0
 10
129.7234245908
 20
499.2389775384
 30
0
  0
VERTEX
  8
0
 10
131.7195170891
 20
498.4577618111
 30
0
  0
VERTEX
  8
0
 10
132.4658380222
 20
498.3904756177
 30
0
  0
SEQEND
  8
0
  0
POLYLINE
  8
0
 62
7
 66
1
  0
VERTEX
  8
0
 10
113.268940277
 20
499.2389775384
 30
0
  0
VERTEX
  8
0
 10
114.6125258278
 20
498.623365866
 30
0
  0
VERTEX
  8
0
 10
116.0113537084
 20
498.3904756177
 30
0
  0
SEQEND
  8
0
  0
POLYLINE
  8
0
 62
7
 66
1
  0
VERTEX
  8
0
 10
223.4055721533
 20
499.2389775384
 30
0
  0
VERTEX
  8
0
 10
226.0927432548
 20
498.623365866
 30
0
  0
VERTEX
  8
0
 10
228.8903990161
 20
498.3904756177
 30
0
  0
SEQEND
  8
0
  0
POLYLINE
  8
0
 62
7
 66
1
  0
VERTEX
  8
0
 10
234.3752258789
 20
499.2389775384
 30
0
  0
VERTEX
  8
0
 10
235.718815155
 20
498.623365866
 30
0
  0
VERTEX
  8
0
 10
237.1176430356
 20
498.3904756177
 30
0
  0
SEQEND
  8
0
  0
POLYLINE
  8
0
 62
7
 66
1
  0
VERTEX
  8
0
 10
220.6631587219
 20
498.3904756177
 30
0
  0
VERTEX
  8
0
 10
221.409479655
 20
498.4577618111
 30
0
  0
VERTEX
  8
0
 10
223.4055721533
 20
499.2389775384
 30
0
  0
SEQEND
  8
0
  0
POLYLINE
  8
0
 62
7
 66
1
  0
VERTEX
  8
0
 10
217.9207452905
 20
499.2389775384
 30
0
  0
VERTEX
  8
0
 10
218.6137461435
 20
498.8792113531
 30
0
  0
VERTEX
  8
0
 10
220.6631587219
 20
498.3904756177
 30
0
  0
SEQEND
  8
0
  0
POLYLINE
  8
0
 62
7
 66
1
  0
VERTEX
  8
0
 10
176.568370282
 20
427.3919615466
 30
0
  0
VERTEX
  8
0
 10
167.9427228268
 20
427.7710293923
 30
0
  0
VERTEX
  8
0
 10
159.305166952
 20
429.3205755334
 30
0
  0
VERTEX
  8
0
 10
153.6676646542
 20
430.8564726766
 30
0
  0
VERTEX
  8
0
 10
148.1791553419
 20
432.3331344444
 30
0
  0
VERTEX
  8
0
 10
142.9802724492
 20
434.0740771536
 30
0
  0
VERTEX
  8
0
 10
135.4634859931
 20
436.9253511345
 30
0
  0
VERTEX
  8
0
 10
128.317485131
 20
439.9922619145
 30
0
  0
VERTEX
  8
0
 10
123.7682202231
 20
442.0847355891
 30
0
  0
VERTEX
  8
0
 10
119.3432086479
 20
444.1267208699
 30
0
  0
VERTEX
  8
0
 10
114.9888434779
 20
445.9685118441
 30
0
  0
SEQEND
  8
0
  0
POLYLINE
  8
0
 62
7
 66
1
  0
VERTEX
  8
0
 10
209.4832533371
 20
428.0512108039
 30
0
  0
VERTEX
  8
0
 10
206.6733283322
 20
428.3076607194
 30
0
  0
VERTEX
  8
0
 10
203.6303622048
 20
428.470287336
 30
0
  0
VERTEX
  8
0
 10
200.5319395434
 20
428.537898561
 30
0
  0
VERTEX
  8
0
 10
197.3497928452
 20
428.5263333973
 30
0
  0
VERTEX
  8
0
 10
193.894671775
 20
428.4420650024
 30
0
  0
VERTEX
  8
0
 10
191.9502835121
 20
428.3674753774
 30
0
  0
VERTEX
  8
0
 10
189.8753648024
 20
428.2699500714
 30
0
  0
VERTEX
  8
0
 10
187.6696595322
 20
428.1494895499
 30
0
  0
VERTEX
  8
0
 10
185.3338466358
 20
428.0060928818
 30
0
  0
VERTEX
  8
0
 10
183.2512631413
 20
427.866964465
 30
0
  0
VERTEX
  8
0
 10
180.9746027324
 20
427.7057623062
 30
0
  0
VERTEX
  8
0
 10
178.280637167
 20
427.5071605612
 30
0
  0
VERTEX
  8
0
 10
176.5644986123
 20
427.3727930654
 30
0
  0
SEQEND
  8
0
  0
POLYLINE
  8
0
 62
7
 66
1
  0
VERTEX
  8
0
 10
230.8346540999
 20
411.7743264455
 30
0
  0
VERTEX
  8
0
 10
230.1930436265
 20
412.1624812055
 30
0
  0
VERTEX
  8
0
 10
229.1534976434
 20
412.893042298
 30
0
  0
VERTEX
  8
0
 10
228.138791896
 20
413.6812168676
 30
0
  0
VERTEX
  8
0
 10
226.8835776817
 20
414.7052116264
 30
0
  0
VERTEX
  8
0
 10
225.5661213171
 20
415.8049750645
 30
0
  0
VERTEX
  8
0
 10
223.9904948842
 20
417.1226307321
 30
0
  0
VERTEX
  8
0
 10
222.7008962404
 20
418.1891869325
 30
0
  0
VERTEX
  8
0
 10
221.5893366706
 20
419.0410676915
 30
0
  0
VERTEX
  8
0
 10
220.6732132804
 20
419.7340555061
 30
0
  0
VERTEX
  8
0
 10
219.6393334638
 20
420.6118940879
 30
0
  0
VERTEX
  8
0
 10
218.4904576611
 20
421.6644553039
 30
0
  0
VERTEX
  8
0
 10
217.3129492771
 20
422.8476019148
 30
0
  0
VERTEX
  8
0
 10
216.0846875381
 20
424.0893696938
 30
0
  0
VERTEX
  8
0
 10
214.8384289216
 20
425.0822098497
 30
0
  0
VERTEX
  8
0
 10
213.5131792497
 20
425.8294220585
 30
0
  0
VERTEX
  8
0
 10
212.1875309717
 20
426.5511635263
 30
0
  0
VERTEX
  8
0
 10
211.0926085483
 20
427.1610158999
 30
0
  0
VERTEX
  8
0
 10
209.4832533371
 20
428.0512108039
 30
0
  0
SEQEND
  8
0
  0
POLYLINE
  8
0
 62
7
 66
1
  0
VERTEX
  8
0
 10
114.7111305367
 20
445.5685749222
 30
0
  0
VERTEX
  8
0
 10
111.3158227276
 20
448.485988522
 30
0
  0
VERTEX
  8
0
 10
108.5036532354
 20
451.088633718
 30
0
  0
VERTEX
  8
0
 10
107.235542066
 20
452.285038637
 30
0
  0
VERTEX
  8
0
 10
106.1127097678
 20
453.4760064948
 30
0
  0
VERTEX
  8
0
 10
104.945136733
 20
454.8076208253
 30
0
  0
VERTEX
  8
0
 10
103.8147197437
 20
456.1913519669
 30
0
  0
VERTEX
  8
0
 10
102.1338836622
 20
458.4829624314
 30
0
  0
VERTEX
  8
0
 10
100.9916947555
 20
460.2000399996
 30
0
  0
VERTEX
  8
0
 10
100.3514440131
 20
461.1607756037
 30
0
  0
VERTEX
  8
0
 10
99.921023972
 20
461.6738728751
 30
0
  0
SEQEND
  8
0
  0
POLYLINE
  8
0
 62
7
 66
1
  0
VERTEX
  8
0
 10
248.5123721264194
 20
625.4030652698401
 30
0
  0
VERTEX
  8
0
 10
258.3158747625
 20
625.3993321438001
 30
0
  0
VERTEX
  8
0
 10
264.5445303392
 20
625.394612201
 30
0
  0
SEQEND
  8
0
  0
POLYLINE
  8
0
 62
7
 66
1
  0
VERTEX
  8
0
 10
264.5445303392
 20
701.3839256247001
 30
0
  0
VERTEX
  8
0
 10
258.3158747625
 20
701.3792056819
 30
0
  0
VERTEX
  8
0
 10
248.5383511853
 20
701.3600390633
 30
0
  0
SEQEND
  8
0
  0
POLYLINE
  8
0
 62
7
 66
1
  0
VERTEX
  8
0
 10
84.0769620013
 20
630.7306695958
 30
0
  0
VERTEX
  8
0
 10
87.9254774522
 20
629.15609742
 30
0
  0
VERTEX
  8
0
 10
92.5418646407
 20
627.2326033791001
 30
0
  0
VERTEX
  8
0
 10
97.1582220268
 20
625.3091056128
 30
0
  0
VERTEX
  8
0
 10
109.3327612948
 20
620.2363405605
 30
0
  0
SEQEND
  8
0
  0
POLYLINE
  8
0
 62
7
 66
1
  0
VERTEX
  8
0
 10
109.4046966504
 20
706.5721746762
 30
0
  0
VERTEX
  8
0
 10
97.1605466079
 20
701.4704007884
 30
0
  0
VERTEX
  8
0
 10
92.5447778177
 20
699.5471488913
 30
0
  0
VERTEX
  8
0
 10
87.9289717745
 20
697.6238969942
 30
0
  0
VERTEX
  8
0
 10
83.9181603264
 20
695.9827650567
 30
0
  0
SEQEND
  8
0
  0
POLYLINE
  8
0
 62
7
 66
1
  0
VERTEX
  8
0
 10
208.4471681487
 20
677.2484747921
 30
0
  0
VERTEX
  8
0
 10
208.1089564931
 20
677.2166216974
 30
0
  0
VERTEX
  8
0
 10
207.8623310995
 20
677.1167056863
 30
0
  0
SEQEND
  8
0
  0
POLYLINE
  8
0
 62
7
 66
1
  0
VERTEX
  8
0
 10
207.8623310995
 20
677.1167056863
 30
0
  0
VERTEX
  8
0
 10
207.7411287796
 20
676.9126082068
 30
0
  0
VERTEX
  8
0
 10
207.7161227685
 20
676.7268140097
 30
0
  0
SEQEND
  8
0
  0
POLYLINE
  8
0
 62
7
 66
1
  0
VERTEX
  8
0
 10
207.7161227685
 20
676.7268140097
 30
0
  0
VERTEX
  8
0
 10
207.8063120466
 20
676.4307214175
 30
0
  0
VERTEX
  8
0
 10
207.9598070454
 20
676.2394491811
 30
0
  0
SEQEND
  8
0
  0
POLYLINE
  8
0
 62
7
 66
1
  0
VERTEX
  8
0
 10
207.9598070454
 20
676.2394491811
 30
0
  0
VERTEX
  8
0
 10
208.5278095078
 20
675.9494865541
 30
0
  0
VERTEX
  8
0
 10
209.0320089232
 20
675.8982945462
 30
0
  0
SEQEND
  8
0
  0
POLYLINE
  8
0
 62
7
 66
1
  0
VERTEX
  8
0
 10
208.398433901
 20
674.8603876908001
 30
0
  0
VERTEX
  8
0
 10
208.0930271518
 20
674.8419931387
 30
0
  0
VERTEX
  8
0
 10
207.8623310995
 20
674.7773556267
 30
0
  0
SEQEND
  8
0
  0
POLYLINE
  8
0
 62
7
 66
1
  0
VERTEX
  8
0
 10
207.8623310995
 20
674.7773556267
 30
0
  0
VERTEX
  8
0
 10
207.7449732792
 20
674.6006380995
 30
0
  0
VERTEX
  8
0
 10
207.7161227685
 20
674.4362000604
 30
0
  0
SEQEND
  8
0
  0
POLYLINE
  8
0
 62
7
 66
1
  0
VERTEX
  8
0
 10
207.7161227685
 20
674.4362000604
 30
0
  0
VERTEX
  8
0
 10
207.7997331839
 20
674.1113482271001
 30
0
  0
VERTEX
  8
0
 10
207.9598070454
 20
673.9000991215
 30
0
  0
SEQEND
  8
0
  0
POLYLINE
  8
0
 62
7
 66
1
  0
VERTEX
  8
0
 10
207.9598070454
 20
673.9000991215
 30
0
  0
VERTEX
  8
0
 10
208.5278095078
 20
673.6101364945
 30
0
  0
VERTEX
  8
0
 10
209.0320089232
 20
673.5589435552
 30
0
  0
SEQEND
  8
0
  0
POLYLINE
  8
0
 62
7
 66
1
  0
VERTEX
  8
0
 10
207.6186505478
 20
673.5589435552
 30
0
  0
VERTEX
  8
0
 10
206.9725846272
 20
674.1589872395
 30
0
  0
VERTEX
  8
0
 10
206.7901292216
 20
674.826091737
 30
0
  0
SEQEND
  8
0
  0
POLYLINE
  8
0
 62
7
 66
1
  0
VERTEX
  8
0
 10
207.6186505477603
 20
675.8495575044982
 30
0
  0
VERTEX
  8
0
 10
206.9725846272
 20
676.4496011888
 30
0
  0
VERTEX
  8
0
 10
206.7901292216
 20
677.1167056863
 30
0
  0
SEQEND
  8
0
  0
POLYLINE
  8
0
 62
7
 66
1
  0
VERTEX
  8
0
 10
206.7901292216
 20
677.1167056863
 30
0
  0
VERTEX
  8
0
 10
206.8665926676
 20
677.6402617102
 30
0
  0
VERTEX
  8
0
 10
207.0825496089
 20
677.9939621915
 30
0
  0
SEQEND
  8
0
  0
POLYLINE
  8
0
 62
7
 66
1
  0
VERTEX
  8
0
 10
146.8871669244273
 20
670.5704868068428
 30
0
  0
VERTEX
  8
0
 10
147.1460354846
 20
671.034890343
 30
0
  0
VERTEX
  8
0
 10
147.2103656601
 20
671.4483132814
 30
0
  0
SEQEND
  8
0
  0
POLYLINE
  8
0
 62
7
 66
1
  0
VERTEX
  8
0
 10
147.2103656601
 20
671.4483132814
 30
0
  0
VERTEX
  8
0
 10
147.1012668084
 20
671.9437331189999
 30
0
  0
VERTEX
  8
0
 10
146.8871669244076
 20
672.2822483857732
 30
0
  0
SEQEND
  8
0
  0
POLYLINE
  8
0
 62
7
 66
1
  0
VERTEX
  8
0
 10
141.8955275189
 20
672.2822483857
 30
0
  0
VERTEX
  8
0
 10
141.6405761015
 20
671.8420932298
 30
0
  0
VERTEX
  8
0
 10
141.5723250579
 20
671.4483132814
 30
0
  0
SEQEND
  8
0
  0
POLYLINE
  8
0
 62
7
 66
1
  0
VERTEX
  8
0
 10
141.5723250579
 20
671.4483132814
 30
0
  0
VERTEX
  8
0
 10
141.6768678796
 20
670.9275973258
 30
0
  0
VERTEX
  8
0
 10
141.8955275188864
 20
670.5704868068397
 30
0
  0
SEQEND
  8
0
  0
POLYLINE
  8
0
 62
7
 66
1
  0
VERTEX
  8
0
 10
147.4258327257
 20
672.8967266385999
 30
0
  0
VERTEX
  8
0
 10
147.8101746511
 20
672.1247170349
 30
0
  0
VERTEX
  8
0
 10
147.8900169354
 20
671.4483132814
 30
0
  0
SEQEND
  8
0
  0
POLYLINE
  8
0
 62
7
 66
1
  0
VERTEX
  8
0
 10
147.8900169354
 20
671.4483132814
 30
0
  0
VERTEX
  8
0
 10
147.7596038353
 20
670.5688351062
 30
0
  0
VERTEX
  8
0
 10
147.4258327257
 20
669.9560085540001
 30
0
  0
SEQEND
  8
0
  0
POLYLINE
  8
0
 62
7
 66
1
  0
VERTEX
  8
0
 10
141.3568617176
 20
669.9560085540001
 30
0
  0
VERTEX
  8
0
 10
140.9678594541
 20
670.7523214859
 30
0
  0
VERTEX
  8
0
 10
140.890015788
 20
671.4483132814
 30
0
  0
SEQEND
  8
0
  0
POLYLINE
  8
0
 62
7
 66
1
  0
VERTEX
  8
0
 10
140.890015788
 20
671.4483132814
 30
0
  0
VERTEX
  8
0
 10
141.0252773535
 20
672.3031658908
 30
0
  0
VERTEX
  8
0
 10
141.3568617176
 20
672.8967266385999
 30
0
  0
SEQEND
  8
0
  0
POLYLINE
  8
0
 62
7
 66
1
  0
VERTEX
  8
0
 10
212.1793576848
 20
660.7143686847001
 30
0
  0
VERTEX
  8
0
 10
212.4241576862
 20
661.1741724187
 30
0
  0
VERTEX
  8
0
 10
212.4871672463
 20
661.5788945924001
 30
0
  0
SEQEND
  8
0
  0
POLYLINE
  8
0
 62
7
 66
1
  0
VERTEX
  8
0
 10
212.4871672463
 20
661.5788945924001
 30
0
  0
VERTEX
  8
0
 10
212.385824449
 20
662.0893388749
 30
0
  0
VERTEX
  8
0
 10
212.179357684746
 20
662.4434205582129
 30
0
  0
SEQEND
  8
0
  0
POLYLINE
  8
0
 62
7
 66
1
  0
VERTEX
  8
0
 10
212.7436721097434
 20
663.640456448299
 30
0
  0
VERTEX
  8
0
 10
213.3172587823
 20
662.5432319702001
 30
0
  0
VERTEX
  8
0
 10
213.4580933821
 20
661.5788945924001
 30
0
  0
SEQEND
  8
0
  0
POLYLINE
  8
0
 62
7
 66
1
  0
VERTEX
  8
0
 10
213.4580933821
 20
661.5788945924001
 30
0
  0
VERTEX
  8
0
 10
213.2294015359
 20
660.3627448198999
 30
0
  0
VERTEX
  8
0
 10
212.7436721098
 20
659.5173327946
 30
0
  0
SEQEND
  8
0
  0
POLYLINE
  8
0
 62
7
 66
1
  0
VERTEX
  8
0
 10
204.7406328242724
 20
662.4434205582242
 30
0
  0
VERTEX
  8
0
 10
204.4942905527
 20
661.9841831266
 30
0
  0
VERTEX
  8
0
 10
204.4328251254
 20
661.5788945924001
 30
0
  0
SEQEND
  8
0
  0
POLYLINE
  8
0
 62
7
 66
1
  0
VERTEX
  8
0
 10
203.4580954682
 20
661.5788945924001
 30
0
  0
VERTEX
  8
0
 10
203.6880203854
 20
662.7956452426
 30
0
  0
VERTEX
  8
0
 10
204.1763165365641
 20
663.6404564482843
 30
0
  0
SEQEND
  8
0
  0
POLYLINE
  8
0
 62
7
 66
1
  0
VERTEX
  8
0
 10
204.1763165366
 20
659.5173327946
 30
0
  0
VERTEX
  8
0
 10
203.5989915352
 20
660.6137285703001
 30
0
  0
VERTEX
  8
0
 10
203.4580954682
 20
661.5788945924001
 30
0
  0
SEQEND
  8
0
  0
POLYLINE
  8
0
 62
7
 66
1
  0
VERTEX
  8
0
 10
204.4328251254
 20
661.5788945924001
 30
0
  0
VERTEX
  8
0
 10
204.5327020209
 20
661.0679676519
 30
0
  0
VERTEX
  8
0
 10
204.740632824252
 20
660.7143686846465
 30
0
  0
SEQEND
  8
0
  0
POLYLINE
  8
0
 62
7
 66
1
  0
VERTEX
  8
0
 10
210.6403098773
 20
646.4565318306001
 30
0
  0
VERTEX
  8
0
 10
211.5770341229
 20
646.6246821215
 30
0
  0
VERTEX
  8
0
 10
212.1793576848
 20
647.0645494987
 30
0
  0
SEQEND
  8
0
  0
POLYLINE
  8
0
 62
7
 66
1
  0
VERTEX
  8
0
 10
212.1793576848
 20
647.0645494987
 30
0
  0
VERTEX
  8
0
 10
212.438682593
 20
647.6176731517001
 30
0
  0
VERTEX
  8
0
 10
212.4871672463
 20
648.0981797208
 30
0
  0
SEQEND
  8
0
  0
POLYLINE
  8
0
 62
7
 66
1
  0
VERTEX
  8
0
 10
212.4871672463
 20
648.0981797208
 30
0
  0
VERTEX
  8
0
 10
212.3483256769
 20
648.7141052489
 30
0
  0
VERTEX
  8
0
 10
212.0767520141321
 20
649.1318108742481
 30
0
  0
SEQEND
  8
0
  0
POLYLINE
  8
0
 62
7
 66
1
  0
VERTEX
  8
0
 10
208.1778371107
 20
649.2534145941
 30
0
  0
VERTEX
  8
0
 10
207.9276726913
 20
648.8035550569
 30
0
  0
VERTEX
  8
0
 10
207.8700275491738
 20
648.4021894861651
 30
0
  0
SEQEND
  8
0
  0
POLYLINE
  8
0
 62
7
 66
1
  0
VERTEX
  8
0
 10
207.7674237412
 20
646.6997374077
 30
0
  0
VERTEX
  8
0
 10
207.1367805224
 20
647.7491908004
 30
0
  0
VERTEX
  8
0
 10
206.9979017001
 20
648.7061983203
 30
0
  0
SEQEND
  8
0
  0
POLYLINE
  8
0
 62
7
 66
1
  0
VERTEX
  8
0
 10
206.9979017001
 20
648.7061983203
 30
0
  0
VERTEX
  8
0
 10
207.1718559932
 20
649.644923978
 30
0
  0
VERTEX
  8
0
 10
207.5622179877
 20
650.2870457475
 30
0
  0
SEQEND
  8
0
  0
POLYLINE
  8
0
 62
7
 66
1
  0
VERTEX
  8
0
 10
210.0246907543154
 20
651.2598745753589
 30
0
  0
VERTEX
  8
0
 10
211.6879546415
 20
650.9210007494
 30
0
  0
VERTEX
  8
0
 10
212.7436721098
 20
650.1046406333001
 30
0
  0
SEQEND
  8
0
  0
POLYLINE
  8
0
 62
7
 66
1
  0
VERTEX
  8
0
 10
212.7436721098
 20
650.1046406333001
 30
0
  0
VERTEX
  8
0
 10
213.3280136954
 20
649.0086090048
 30
0
  0
VERTEX
  8
0
 10
213.4580933821
 20
648.0373783265
 30
0
  0
SEQEND
  8
0
  0
POLYLINE
  8
0
 62
7
 66
1
  0
VERTEX
  8
0
 10
213.4580933821
 20
648.0373783265
 30
0
  0
VERTEX
  8
0
 10
213.2908911776
 20
646.8549423148
 30
0
  0
VERTEX
  8
0
 10
212.8462777805
 20
646.030917414
 30
0
  0
SEQEND
  8
0
  0
POLYLINE
  8
0
 62
7
 66
1
  0
VERTEX
  8
0
 10
212.8462777805
 20
646.030917414
 30
0
  0
VERTEX
  8
0
 10
211.7120945227
 20
645.2530265083
 30
0
  0
VERTEX
  8
0
 10
210.6403098773
 20
645.0580895175
 30
0
  0
SEQEND
  8
0
  0
POLYLINE
  8
0
 62
7
 66
1
  0
VERTEX
  8
0
 10
210.0246907543847
 20
649.861433193588
 30
0
  0
VERTEX
  8
0
 10
208.9158022177
 20
649.7158190464
 30
0
  0
VERTEX
  8
0
 10
208.1778371107
 20
649.2534145941
 30
0
  0
SEQEND
  8
0
  0
POLYLINE
  8
0
 62
7
 66
1
  0
VERTEX
  8
0
 10
231.0568564903
 20
669.2970196013
 30
0
  0
VERTEX
  8
0
 10
231.0551652085
 20
669.3058108208001
 30
0
  0
VERTEX
  8
0
 10
231.0539842915
 20
669.3119505649
 30
0
  0
SEQEND
  8
0
  0
POLYLINE
  8
0
 62
7
 66
1
  0
VERTEX
  8
0
 10
236.0790544521
 20
658.4158159089
 30
0
  0
VERTEX
  8
0
 10
236.1279302608
 20
658.4211160657
 30
0
  0
VERTEX
  8
0
 10
236.3144965243
 20
658.4458389548
 30
0
  0
SEQEND
  8
0
  0
POLYLINE
  8
0
 62
7
 66
1
  0
VERTEX
  8
0
 10
238.0951368582
 20
667.9890911323
 30
0
  0
VERTEX
  8
0
 10
236.923298366
 20
668.4603794706
 30
0
  0
VERTEX
  8
0
 10
235.5644987296
 20
668.6392688421
 30
0
  0
SEQEND
  8
0
  0
POLYLINE
  8
0
 62
7
 66
1
  0
VERTEX
  8
0
 10
493.5226722105
 20
550.8941806424
 30
0
  0
VERTEX
  8
0
 10
493.5226717449
 20
550.8942476977001
 30
0
  0
VERTEX
  8
0
 10
493.5226717449
 20
550.8943147529
 30
0
  0
SEQEND
  8
0
  0
POLYLINE
  8
0
 62
7
 66
1
  0
VERTEX
  8
0
 10
481.6163934252
 20
550.8876315821
 30
0
  0
VERTEX
  8
0
 10
481.6156767725
 20
550.8890099395001
 30
0
  0
VERTEX
  8
0
 10
481.6149461499
 20
550.8904255498001
 30
0
  0
SEQEND
  8
0
  0
POLYLINE
  8
0
 62
2
 66
1
  0
VERTEX
  8
0
 10
126.1452050221
 20
343.1823618479
 30
0
  0
VERTEX
  8
0
 10
142.1194003196
 20
343.1823618479
 30
0
  0
VERTEX
  8
0
 10
171.7662534219
 20
405.1580352189
 30
0
  0
SEQEND
  8
0
  0
POLYLINE
  8
0
 62
2
 66
1
  0
VERTEX
  8
0
 10
572.2064678516999
 20
502.6475470344
 30
0
  0
VERTEX
  8
0
 10
562.9898070193
 20
502.6475470344
 30
0
  0
VERTEX
  8
0
 10
546.999770318
 20
489.8268347272
 30
0
  0
SEQEND
  8
0
  0
POLYLINE
  8
0
 62
2
 40
0.5
 41
0.5
 66
1
  0
VERTEX
  8
0
 10
171.6583708498882
 20
404.932510606815
 30
0
 42
1.000000000000047
  0
VERTEX
  8
0
 10
171.8741359939118
 20
405.3835598309851
 30
0
 42
0.9999999999999528
  0
VERTEX
  8
0
 10
171.6583708498882
 20
404.932510606815
 30
0
  0
SEQEND
  8
0
  0
POLYLINE
  8
0
 62
7
 66
1
  0
VERTEX
  8
0
 10
208.4471681487
 20
687.0102087263999
 30
0
  0
VERTEX
  8
0
 10
208.1089564931
 20
686.9783556317
 30
0
  0
VERTEX
  8
0
 10
207.8623310995
 20
686.8784396205999
 30
0
  0
SEQEND
  8
0
  0
POLYLINE
  8
0
 62
7
 66
1
  0
VERTEX
  8
0
 10
207.8623310995
 20
686.8784396205999
 30
0
  0
VERTEX
  8
0
 10
207.7411287796
 20
686.6743421410999
 30
0
  0
VERTEX
  8
0
 10
207.7161227685
 20
686.488547944
 30
0
  0
SEQEND
  8
0
  0
POLYLINE
  8
0
 62
7
 66
1
  0
VERTEX
  8
0
 10
207.7161227685
 20
686.488547944
 30
0
  0
VERTEX
  8
0
 10
207.8063120466
 20
686.1924553517999
 30
0
  0
VERTEX
  8
0
 10
207.9598070454
 20
686.0011831154
 30
0
  0
SEQEND
  8
0
  0
POLYLINE
  8
0
 62
7
 66
1
  0
VERTEX
  8
0
 10
207.9598070454
 20
686.0011831154
 30
0
  0
VERTEX
  8
0
 10
208.5278095078
 20
685.7112204883999
 30
0
  0
VERTEX
  8
0
 10
209.0320089232
 20
685.6600284804999
 30
0
  0
SEQEND
  8
0
  0
POLYLINE
  8
0
 62
7
 66
1
  0
VERTEX
  8
0
 10
208.398433901
 20
684.6221216251
 30
0
  0
VERTEX
  8
0
 10
208.0930271518
 20
684.603727073
 30
0
  0
VERTEX
  8
0
 10
207.8623310995
 20
684.539089561
 30
0
  0
SEQEND
  8
0
  0
POLYLINE
  8
0
 62
7
 66
1
  0
VERTEX
  8
0
 10
207.8623310995
 20
684.539089561
 30
0
  0
VERTEX
  8
0
 10
207.7449732792
 20
684.3623720337999
 30
0
  0
VERTEX
  8
0
 10
207.7161227685
 20
684.1979339947
 30
0
  0
SEQEND
  8
0
  0
POLYLINE
  8
0
 62
7
 66
1
  0
VERTEX
  8
0
 10
207.7161227685
 20
684.1979339947
 30
0
  0
VERTEX
  8
0
 10
207.7997331839
 20
683.8730821614
 30
0
  0
VERTEX
  8
0
 10
207.9598070454
 20
683.6618330558
 30
0
  0
SEQEND
  8
0
  0
POLYLINE
  8
0
 62
7
 66
1
  0
VERTEX
  8
0
 10
207.9598070454
 20
683.6618330558
 30
0
  0
VERTEX
  8
0
 10
208.5278095078
 20
683.3718704288
 30
0
  0
VERTEX
  8
0
 10
209.0320089232
 20
683.3206774895
 30
0
  0
SEQEND
  8
0
  0
POLYLINE
  8
0
 62
7
 66
1
  0
VERTEX
  8
0
 10
207.6186505478
 20
683.3206774895
 30
0
  0
VERTEX
  8
0
 10
206.9725846272
 20
683.9207211738
 30
0
  0
VERTEX
  8
0
 10
206.7901292216
 20
684.5878256712999
 30
0
  0
SEQEND
  8
0
  0
POLYLINE
  8
0
 62
7
 66
1
  0
VERTEX
  8
0
 10
207.6186505477603
 20
685.6112914387982
 30
0
  0
VERTEX
  8
0
 10
206.9725846272
 20
686.2113351231
 30
0
  0
VERTEX
  8
0
 10
206.7901292216
 20
686.8784396205999
 30
0
  0
SEQEND
  8
0
  0
POLYLINE
  8
0
 62
7
 66
1
  0
VERTEX
  8
0
 10
206.7901292216
 20
686.8784396205999
 30
0
  0
VERTEX
  8
0
 10
206.8665926676
 20
687.4019956445
 30
0
  0
VERTEX
  8
0
 10
207.0825496089
 20
687.7556961258
 30
0
  0
SEQEND
  8
0
  0
POINT
  8
0
 62
7
  6
DASHED
 10
176.564498372
 20
735.3892689129
 30
0
  0
POINT
  8
0
 62
7
  6
DASHED
 10
176.564498372
 20
591.3892689129
 30
0
  0
LINE
  8
1
 62
2
 10
142.0071255453177
 20
339.6774608660001
 30
0
 11
141.7761255453177
 21
339.077460866
 31
0
  0
LINE
  8
1
 62
2
 10
142.1226255453177
 20
340.277460866
 30
0
 11
142.0071255453177
 21
339.6774608660001
 31
0
  0
LINE
  8
1
 62
2
 10
142.1226255453177
 20
340.877460866
 30
0
 11
142.1226255453177
 21
340.277460866
 31
0
  0
LINE
  8
1
 62
2
 10
142.0071255453177
 20
341.477460866
 30
0
 11
142.1226255453177
 21
340.877460866
 31
0
  0
LINE
  8
1
 62
2
 10
141.7761255453177
 20
342.077460866
 30
0
 11
142.0071255453177
 21
341.477460866
 31
0
  0
LINE
  8
1
 62
2
 10
140.8928902512
 20
339.077460866
 30
0
 11
140.4173020159059
 21
339.377460866
 31
0
  0
LINE
  8
1
 62
2
 10
140.8928902512
 20
340.977460866
 30
0
 11
140.8928902512
 21
339.077460866
 31
0
  0
LINE
  8
1
 62
2
 10
140.2814196629647
 20
340.977460866
 30
0
 11
141.1646549570824
 21
340.977460866
 31
0
  0
LINE
  8
1
 62
2
 10
140.2814196629647
 20
341.877460866
 30
0
 11
141.0967137806118
 21
341.877460866
 31
0
  0
LINE
  8
1
 62
2
 10
140.0096549570824
 20
340.6774608660001
 30
0
 11
140.0096549570824
 21
339.077460866
 31
0
  0
LINE
  8
1
 62
2
 10
140.2134784864941
 20
341.277460866
 30
0
 11
139.8058314276706
 21
340.077460866
 31
0
  0
LINE
  8
1
 62
2
 10
140.1455373100235
 20
342.077460866
 30
0
 11
139.8058314276706
 21
341.077460866
 31
0
  0
LINE
  8
1
 62
2
 10
139.4661255453177
 20
341.377460866
 30
0
 11
139.8058314276706
 21
340.277460866
 31
0
  0
LINE
  8
1
 62
2
 10
139.4661255453177
 20
341.377460866
 30
0
 11
139.1264196629647
 21
339.977460866
 31
0
  0
LINE
  8
1
 62
2
 10
139.4661255453177
 20
342.077460866
 30
0
 11
139.4661255453177
 21
339.077460866
 31
0
  0
LINE
  8
1
 62
2
 10
139.1264196629647
 20
341.377460866
 30
0
 11
139.8058314276706
 21
341.377460866
 31
0
  0
LINE
  8
1
 62
2
 10
136.7484784864941
 20
339.077460866
 30
0
 11
138.2431843688471
 21
339.077460866
 31
0
  0
LINE
  8
1
 62
2
 10
136.8843608394353
 20
339.577460866
 30
0
 11
136.7484784864941
 21
339.077460866
 31
0
  0
LINE
  8
1
 62
2
 10
137.0202431923765
 20
339.877460866
 30
0
 11
136.8843608394353
 21
339.577460866
 31
0
  0
LINE
  8
1
 62
2
 10
137.2920078982588
 20
340.1774608660001
 30
0
 11
137.0202431923765
 21
339.877460866
 31
0
  0
LINE
  8
1
 62
2
 10
137.5637726041412
 20
340.377460866
 30
0
 11
137.2920078982588
 21
340.1774608660001
 31
0
  0
LINE
  8
1
 62
2
 10
137.9034784864941
 20
340.6774608660001
 30
0
 11
137.5637726041412
 21
340.377460866
 31
0
  0
LINE
  8
1
 62
2
 10
138.1073020159059
 20
341.077460866
 30
0
 11
137.9034784864941
 21
340.6774608660001
 31
0
  0
LINE
  8
1
 62
2
 10
138.1752431923765
 20
341.477460866
 30
0
 11
138.1073020159059
 21
341.077460866
 31
0
  0
LINE
  8
1
 62
2
 10
137.9034784864941
 20
341.877460866
 30
0
 11
138.1752431923765
 21
341.477460866
 31
0
  0
LINE
  8
1
 62
2
 10
137.4958314276706
 20
342.077460866
 30
0
 11
137.9034784864941
 21
341.877460866
 31
0
  0
LINE
  8
1
 62
2
 10
137.0881843688471
 20
341.877460866
 30
0
 11
137.4958314276706
 21
342.077460866
 31
0
  0
LINE
  8
1
 62
2
 10
136.8164196629647
 20
341.477460866
 30
0
 11
137.0881843688471
 21
341.877460866
 31
0
  0
LINE
  8
1
 62
2
 10
134.7102431923765
 20
341.377460866
 30
0
 11
135.6614196629647
 21
340.377460866
 31
0
  0
LINE
  8
1
 62
2
 10
134.7102431923765
 20
342.077460866
 30
0
 11
134.7102431923765
 21
339.077460866
 31
0
  0
LINE
  8
1
 62
2
 10
133.6911255453177
 20
342.077460866
 30
0
 11
135.7293608394353
 21
342.077460866
 31
0
  0
LINE
  8
1
 62
2
 10
131.4490667217882
 20
339.477460866
 30
0
 11
131.4490667217882
 21
339.577460866
 31
0
  0
LINE
  8
1
 62
2
 10
131.4490667217882
 20
339.577460866
 30
0
 11
132.8758314276706
 21
339.577460866
 31
0
  0
LINE
  8
1
 62
2
 10
132.8758314276706
 20
339.077460866
 30
0
 11
131.4490667217882
 21
339.077460866
 31
0
  0
LINE
  8
1
 62
2
 10
132.8758314276706
 20
340.077460866
 30
0
 11
132.8758314276706
 21
339.077460866
 31
0
  0
LINE
  8
1
 62
2
 10
131.4490667217882
 20
340.077460866
 30
0
 11
132.8758314276706
 21
340.077460866
 31
0
  0
LINE
  8
1
 62
2
 10
131.4490667217882
 20
339.077460866
 30
0
 11
131.4490667217882
 21
340.077460866
 31
0
  0
LINE
  8
1
 62
2
 10
132.6040667217882
 20
341.477460866
 30
0
 11
133.0796549570824
 21
340.477460866
 31
0
  0
LINE
  8
1
 62
2
 10
132.6040667217882
 20
341.477460866
 30
0
 11
132.1964196629647
 21
340.477460866
 31
0
  0
LINE
  8
1
 62
2
 10
132.6040667217882
 20
341.877460866
 30
0
 11
132.6040667217882
 21
340.377460866
 31
0
  0
LINE
  8
1
 62
2
 10
132.1964196629647
 20
341.477460866
 30
0
 11
133.0117137806118
 21
341.477460866
 31
0
  0
LINE
  8
1
 62
2
 10
131.7208314276706
 20
341.477460866
 30
0
 11
132.0605373100235
 21
340.777460866
 31
0
  0
LINE
  8
1
 62
2
 10
131.7208314276706
 20
341.477460866
 30
0
 11
131.3131843688471
 21
340.477460866
 31
0
  0
LINE
  8
1
 62
2
 10
131.7208314276706
 20
341.877460866
 30
0
 11
131.7208314276706
 21
340.377460866
 31
0
  0
LINE
  8
1
 62
2
 10
131.3131843688471
 20
341.477460866
 30
0
 11
132.0605373100235
 21
341.477460866
 31
0
  0
LINE
  8
1
 62
2
 10
131.1773020159059
 20
341.977460866
 30
0
 11
133.0796549570824
 21
341.977460866
 31
0
  0
LINE
  8
1
 62
2
 10
131.1773020159059
 20
340.077460866
 30
0
 11
131.1773020159059
 21
341.977460866
 31
0
  0
LINE
  8
1
 62
2
 10
130.9734784864941
 20
339.277460866
 30
0
 11
131.1773020159059
 21
340.077460866
 31
0
  0
LINE
  8
1
 62
2
 10
129.5467137806118
 20
339.877460866
 30
0
 11
130.2261255453176
 21
339.877460866
 31
0
  0
LINE
  8
1
 62
2
 10
129.5467137806118
 20
341.977460866
 30
0
 11
129.5467137806118
 21
339.877460866
 31
0
  0
LINE
  8
1
 62
2
 10
129.0031843688471
 20
340.577460866
 30
0
 11
128.527596133553
 21
339.877460866
 31
0
  0
LINE
  8
1
 62
2
 10
129.0031843688471
 20
341.977460866
 30
0
 11
129.0031843688471
 21
340.577460866
 31
0
  0
LINE
  8
1
 62
2
 10
128.3237726041412
 20
339.077460866
 30
0
 11
128.3237726041412
 21
341.1774608660001
 31
0
  0
LINE
  8
1
 62
2
 10
130.2261255453176
 20
339.077460866
 30
0
 11
128.3237726041412
 21
339.077460866
 31
0
  0
LINE
  8
1
 62
2
 10
130.2261255453176
 20
341.1774608660001
 30
0
 11
130.2261255453176
 21
339.077460866
 31
0
  0
LINE
  8
1
 62
2
 10
128.3237726041412
 20
341.1774608660001
 30
0
 11
130.2261255453176
 21
341.1774608660001
 31
0
  0
LINE
  8
1
 62
2
 10
128.2558314276706
 20
341.977460866
 30
0
 11
130.2940667217882
 21
341.977460866
 31
0
  0
LINE
  8
1
 62
2
 10
127.2638902512
 20
339.6774608660001
 30
0
 11
127.4948902512
 21
339.077460866
 31
0
  0
LINE
  8
1
 62
2
 10
127.1483902512
 20
340.277460866
 30
0
 11
127.2638902512
 21
339.6774608660001
 31
0
  0
LINE
  8
1
 62
2
 10
127.1483902512
 20
340.877460866
 30
0
 11
127.1483902512
 21
340.277460866
 31
0
  0
LINE
  8
1
 62
2
 10
127.2638902512
 20
341.477460866
 30
0
 11
127.1483902512
 21
340.877460866
 31
0
  0
LINE
  8
1
 62
2
 10
127.4948902512
 20
342.077460866
 30
0
 11
127.2638902512
 21
341.477460866
 31
0
  0
LINE
  8
1
 62
2
 10
215.1977167552412
 20
339.1774608660001
 30
0
 11
214.4503638140647
 21
339.1774608660001
 31
0
  0
LINE
  8
1
 62
2
 10
215.5374226375941
 20
339.377460866
 30
0
 11
215.1977167552412
 21
339.1774608660001
 31
0
  0
LINE
  8
1
 62
2
 10
215.7412461670059
 20
339.977460866
 30
0
 11
215.5374226375941
 21
339.377460866
 31
0
  0
LINE
  8
1
 62
2
 10
215.8091873434765
 20
340.577460866
 30
0
 11
215.7412461670059
 21
339.977460866
 31
0
  0
LINE
  8
1
 62
2
 10
215.7412461670059
 20
341.277460866
 30
0
 11
215.8091873434765
 21
340.577460866
 31
0
  0
LINE
  8
1
 62
2
 10
215.5374226375941
 20
341.777460866
 30
0
 11
215.7412461670059
 21
341.277460866
 31
0
  0
LINE
  8
1
 62
2
 10
215.1977167552412
 20
341.977460866
 30
0
 11
215.5374226375941
 21
341.777460866
 31
0
  0
LINE
  8
1
 62
2
 10
214.4503638140647
 20
341.977460866
 30
0
 11
215.1977167552412
 21
341.977460866
 31
0
  0
LINE
  8
1
 62
2
 10
214.4503638140647
 20
339.1774608660001
 30
0
 11
214.4503638140647
 21
341.977460866
 31
0
  0
LINE
  8
1
 62
2
 10
576.2009899870001
 20
634.5053163879001
 30
0
 11
575.1614899870001
 21
633.9053163879
 31
0
  0
LINE
  8
1
 62
2
 10
577.0094899870001
 20
635.4053163879
 30
0
 11
576.2009899870001
 21
634.5053163879001
 31
0
  0
LINE
  8
1
 62
2
 10
577.3559899870002
 20
636.0053163879001
 30
0
 11
577.0094899870001
 21
635.4053163879
 31
0
  0
LINE
  8
1
 62
2
 10
577.4714899870002
 20
636.6053163879001
 30
0
 11
577.3559899870002
 21
636.0053163879001
 31
0
  0
LINE
  8
1
 62
2
 10
577.5869899870002
 20
637.3553163879001
 30
0
 11
577.4714899870002
 21
636.6053163879001
 31
0
  0
LINE
  8
1
 62
2
 10
577.5869899870002
 20
638.4053163879
 30
0
 11
577.5869899870002
 21
637.3553163879001
 31
0
  0
LINE
  8
1
 62
2
 10
577.4714899870002
 20
639.0053163879001
 30
0
 11
577.5869899870002
 21
638.4053163879
 31
0
  0
LINE
  8
1
 62
2
 10
577.2404899870002
 20
639.4553163879
 30
0
 11
577.4714899870002
 21
639.0053163879001
 31
0
  0
LINE
  8
1
 62
2
 10
576.8939899870001
 20
639.7553163879001
 30
0
 11
577.2404899870002
 21
639.4553163879
 31
0
  0
LINE
  8
1
 62
2
 10
576.5474899870001
 20
639.9053163879
 30
0
 11
576.8939899870001
 21
639.7553163879001
 31
0
  0
LINE
  8
1
 62
2
 10
575.8544899870001
 20
639.9053163879
 30
0
 11
576.5474899870001
 21
639.9053163879
 31
0
  0
LINE
  8
1
 62
2
 10
575.5079899870001
 20
639.7553163879001
 30
0
 11
575.8544899870001
 21
639.9053163879
 31
0
  0
LINE
  8
1
 62
2
 10
575.1614899870001
 20
639.4553163879
 30
0
 11
575.5079899870001
 21
639.7553163879001
 31
0
  0
LINE
  8
1
 62
2
 10
574.9304899870001
 20
639.0053163879001
 30
0
 11
575.1614899870001
 21
639.4553163879
 31
0
  0
LINE
  8
1
 62
2
 10
574.8149899870001
 20
638.4053163879
 30
0
 11
574.9304899870001
 21
639.0053163879001
 31
0
  0
LINE
  8
1
 62
2
 10
574.8149899870001
 20
638.1053163879001
 30
0
 11
574.8149899870001
 21
638.4053163879
 31
0
  0
LINE
  8
1
 62
2
 10
574.9304899870001
 20
637.5053163879001
 30
0
 11
574.8149899870001
 21
638.1053163879001
 31
0
  0
LINE
  8
1
 62
2
 10
575.1614899870001
 20
637.0553163879
 30
0
 11
574.9304899870001
 21
637.5053163879001
 31
0
  0
LINE
  8
1
 62
2
 10
575.5079899870001
 20
636.7553163879001
 30
0
 11
575.1614899870001
 21
637.0553163879
 31
0
  0
LINE
  8
1
 62
2
 10
575.8544899870001
 20
636.6053163879001
 30
0
 11
575.5079899870001
 21
636.7553163879001
 31
0
  0
LINE
  8
1
 62
2
 10
577.4714899870002
 20
636.6053163879001
 30
0
 11
575.8544899870001
 21
636.6053163879001
 31
0
  0
LINE
  8
1
 62
2
 10
573.428989987
 20
639.9053163879
 30
0
 11
573.428989987
 21
633.9053163879
 31
0
  0
LINE
  8
1
 62
2
 10
572.0429899870001
 20
638.1053163879001
 30
0
 11
573.428989987
 21
639.9053163879
 31
0
  0
LINE
  8
1
 62
2
 10
540.6999292644
 20
636.3053163879
 30
0
 11
540.6999292644
 21
633.9053163879
 31
0
  0
LINE
  8
1
 62
2
 10
538.6209292644001
 20
635.1053163879001
 30
0
 11
541.3929292644001
 21
635.1053163879001
 31
0
  0
LINE
  8
1
 62
2
 10
540.6999292644
 20
639.9053163879
 30
0
 11
538.6209292644001
 21
635.1053163879001
 31
0
  0
LINE
  8
1
 62
2
 10
506.6737019082002
 20
638.5553163879
 30
0
 11
507.9442019082002
 21
639.9053163879
 31
0
  0
LINE
  8
1
 62
2
 10
506.2117019082002
 20
637.8053163879
 30
0
 11
506.6737019082002
 21
638.5553163879
 31
0
  0
LINE
  8
1
 62
2
 10
505.9807019082002
 20
637.2053163879
 30
0
 11
506.2117019082002
 21
637.8053163879
 31
0
  0
LINE
  8
1
 62
2
 10
505.8652019082002
 20
636.0053163879001
 30
0
 11
505.9807019082002
 21
637.2053163879
 31
0
  0
LINE
  8
1
 62
2
 10
505.8652019082002
 20
635.4053163879
 30
0
 11
505.8652019082002
 21
636.0053163879001
 31
0
  0
LINE
  8
1
 62
2
 10
505.9807019082002
 20
634.8053163879
 30
0
 11
505.8652019082002
 21
635.4053163879
 31
0
  0
LINE
  8
1
 62
2
 10
506.2117019082002
 20
634.3553163879001
 30
0
 11
505.9807019082002
 21
634.8053163879
 31
0
  0
LINE
  8
1
 62
2
 10
506.5582019082002
 20
634.0553163879
 30
0
 11
506.2117019082002
 21
634.3553163879001
 31
0
  0
LINE
  8
1
 62
2
 10
506.9047019082002
 20
633.9053163879
 30
0
 11
506.5582019082002
 21
634.0553163879
 31
0
  0
LINE
  8
1
 62
2
 10
507.5977019082002
 20
633.9053163879
 30
0
 11
506.9047019082002
 21
633.9053163879
 31
0
  0
LINE
  8
1
 62
2
 10
507.9442019082002
 20
634.0553163879
 30
0
 11
507.5977019082002
 21
633.9053163879
 31
0
  0
LINE
  8
1
 62
2
 10
508.2907019082002
 20
634.3553163879001
 30
0
 11
507.9442019082002
 21
634.0553163879
 31
0
  0
LINE
  8
1
 62
2
 10
508.5217019082002
 20
634.8053163879
 30
0
 11
508.2907019082002
 21
634.3553163879001
 31
0
  0
LINE
  8
1
 62
2
 10
508.6372019082002
 20
635.4053163879
 30
0
 11
508.5217019082002
 21
634.8053163879
 31
0
  0
LINE
  8
1
 62
2
 10
508.6372019082002
 20
636.0053163879001
 30
0
 11
508.6372019082002
 21
635.4053163879
 31
0
  0
LINE
  8
1
 62
2
 10
508.5217019082002
 20
636.6053163879001
 30
0
 11
508.6372019082002
 21
636.0053163879001
 31
0
  0
LINE
  8
1
 62
2
 10
508.2907019082002
 20
637.0553163879
 30
0
 11
508.5217019082002
 21
636.6053163879001
 31
0
  0
LINE
  8
1
 62
2
 10
507.9442019082002
 20
637.3553163879001
 30
0
 11
508.2907019082002
 21
637.0553163879
 31
0
  0
LINE
  8
1
 62
2
 10
507.5977019082002
 20
637.5053163879001
 30
0
 11
507.9442019082002
 21
637.3553163879001
 31
0
  0
LINE
  8
1
 62
2
 10
506.9047019082002
 20
637.5053163879001
 30
0
 11
507.5977019082002
 21
637.5053163879001
 31
0
  0
LINE
  8
1
 62
2
 10
506.5582019082002
 20
637.3553163879001
 30
0
 11
506.9047019082002
 21
637.5053163879001
 31
0
  0
LINE
  8
1
 62
2
 10
506.2117019082002
 20
637.0553163879
 30
0
 11
506.5582019082002
 21
637.3553163879001
 31
0
  0
LINE
  8
1
 62
2
 10
505.9807019082002
 20
636.6053163879001
 30
0
 11
506.2117019082002
 21
637.0553163879
 31
0
  0
LINE
  8
1
 62
2
 10
505.8652019082002
 20
636.0053163879001
 30
0
 11
505.9807019082002
 21
636.6053163879001
 31
0
  0
LINE
  8
1
 62
2
 10
503.0932019082002
 20
634.5053163879001
 30
0
 11
502.0537019082002
 21
633.9053163879
 31
0
  0
LINE
  8
1
 62
2
 10
503.9017019082002
 20
635.4053163879
 30
0
 11
503.0932019082002
 21
634.5053163879001
 31
0
  0
LINE
  8
1
 62
2
 10
504.2482019082002
 20
636.0053163879001
 30
0
 11
503.9017019082002
 21
635.4053163879
 31
0
  0
LINE
  8
1
 62
2
 10
504.3637019082002
 20
636.6053163879001
 30
0
 11
504.2482019082002
 21
636.0053163879001
 31
0
  0
LINE
  8
1
 62
2
 10
504.4792019082002
 20
637.3553163879001
 30
0
 11
504.3637019082002
 21
636.6053163879001
 31
0
  0
LINE
  8
1
 62
2
 10
504.4792019082002
 20
638.4053163879
 30
0
 11
504.4792019082002
 21
637.3553163879001
 31
0
  0
LINE
  8
1
 62
2
 10
504.3637019082002
 20
639.0053163879001
 30
0
 11
504.4792019082002
 21
638.4053163879
 31
0
  0
LINE
  8
1
 62
2
 10
504.1327019082002
 20
639.4553163879
 30
0
 11
504.3637019082002
 21
639.0053163879001
 31
0
  0
LINE
  8
1
 62
2
 10
503.7862019082002
 20
639.7553163879001
 30
0
 11
504.1327019082002
 21
639.4553163879
 31
0
  0
LINE
  8
1
 62
2
 10
503.4397019082002
 20
639.9053163879
 30
0
 11
503.7862019082002
 21
639.7553163879001
 31
0
  0
LINE
  8
1
 62
2
 10
502.7467019082002
 20
639.9053163879
 30
0
 11
503.4397019082002
 21
639.9053163879
 31
0
  0
LINE
  8
1
 62
2
 10
502.4002019082002
 20
639.7553163879001
 30
0
 11
502.7467019082002
 21
639.9053163879
 31
0
  0
LINE
  8
1
 62
2
 10
502.0537019082002
 20
639.4553163879
 30
0
 11
502.4002019082002
 21
639.7553163879001
 31
0
  0
LINE
  8
1
 62
2
 10
501.8227019082002
 20
639.0053163879001
 30
0
 11
502.0537019082002
 21
639.4553163879
 31
0
  0
LINE
  8
1
 62
2
 10
501.7072019082002
 20
638.4053163879
 30
0
 11
501.8227019082002
 21
639.0053163879001
 31
0
  0
LINE
  8
1
 62
2
 10
501.7072019082002
 20
638.1053163879001
 30
0
 11
501.7072019082002
 21
638.4053163879
 31
0
  0
LINE
  8
1
 62
2
 10
501.8227019082002
 20
637.5053163879001
 30
0
 11
501.7072019082002
 21
638.1053163879001
 31
0
  0
LINE
  8
1
 62
2
 10
502.0537019082002
 20
637.0553163879
 30
0
 11
501.8227019082002
 21
637.5053163879001
 31
0
  0
LINE
  8
1
 62
2
 10
502.4002019082002
 20
636.7553163879001
 30
0
 11
502.0537019082002
 21
637.0553163879
 31
0
  0
LINE
  8
1
 62
2
 10
502.7467019082002
 20
636.6053163879001
 30
0
 11
502.4002019082002
 21
636.7553163879001
 31
0
  0
LINE
  8
1
 62
2
 10
504.3637019082002
 20
636.6053163879001
 30
0
 11
502.7467019082002
 21
636.6053163879001
 31
0
  0
LINE
  8
1
 62
2
 10
474.4954743190002
 20
637.6553163879
 30
0
 11
474.4954743190002
 21
636.1553163879
 31
0
  0
LINE
  8
1
 62
2
 10
474.3799743190002
 20
638.5553163879
 30
0
 11
474.4954743190002
 21
637.6553163879
 31
0
  0
LINE
  8
1
 62
2
 10
474.1489743190002
 20
639.1553163879
 30
0
 11
474.3799743190002
 21
638.5553163879
 31
0
  0
LINE
  8
1
 62
2
 10
473.9179743190002
 20
639.4553163879
 30
0
 11
474.1489743190002
 21
639.1553163879
 31
0
  0
LINE
  8
1
 62
2
 10
473.5714743190002
 20
639.7553163879001
 30
0
 11
473.9179743190002
 21
639.4553163879
 31
0
  0
LINE
  8
1
 62
2
 10
473.2249743190002
 20
639.9053163879
 30
0
 11
473.5714743190002
 21
639.7553163879001
 31
0
  0
LINE
  8
1
 62
2
 10
472.9939743190002
 20
639.9053163879
 30
0
 11
473.2249743190002
 21
639.9053163879
 31
0
  0
LINE
  8
1
 62
2
 10
472.6474743190002
 20
639.7553163879001
 30
0
 11
472.9939743190002
 21
639.9053163879
 31
0
  0
LINE
  8
1
 62
2
 10
472.3009743190002
 20
639.4553163879
 30
0
 11
472.6474743190002
 21
639.7553163879001
 31
0
  0
LINE
  8
1
 62
2
 10
472.0699743190002
 20
639.1553163879
 30
0
 11
472.3009743190002
 21
639.4553163879
 31
0
  0
LINE
  8
1
 62
2
 10
471.8389743190002
 20
638.5553163879
 30
0
 11
472.0699743190002
 21
639.1553163879
 31
0
  0
LINE
  8
1
 62
2
 10
471.7234743190002
 20
637.6553163879
 30
0
 11
471.8389743190002
 21
638.5553163879
 31
0
  0
LINE
  8
1
 62
2
 10
471.7234743190002
 20
636.1553163879
 30
0
 11
471.7234743190002
 21
637.6553163879
 31
0
  0
LINE
  8
1
 62
2
 10
471.8389743190002
 20
635.2553163879001
 30
0
 11
471.7234743190002
 21
636.1553163879
 31
0
  0
LINE
  8
1
 62
2
 10
472.0699743190002
 20
634.6553163879
 30
0
 11
471.8389743190002
 21
635.2553163879001
 31
0
  0
LINE
  8
1
 62
2
 10
472.3009743190002
 20
634.3553163879001
 30
0
 11
472.0699743190002
 21
634.6553163879
 31
0
  0
LINE
  8
1
 62
2
 10
472.6474743190002
 20
634.0553163879
 30
0
 11
472.3009743190002
 21
634.3553163879001
 31
0
  0
LINE
  8
1
 62
2
 10
472.9939743190002
 20
633.9053163879
 30
0
 11
472.6474743190002
 21
634.0553163879
 31
0
  0
LINE
  8
1
 62
2
 10
473.2249743190002
 20
633.9053163879
 30
0
 11
472.9939743190002
 21
633.9053163879
 31
0
  0
LINE
  8
1
 62
2
 10
473.5714743190002
 20
634.0553163879
 30
0
 11
473.2249743190002
 21
633.9053163879
 31
0
  0
LINE
  8
1
 62
2
 10
473.9179743190002
 20
634.3553163879001
 30
0
 11
473.5714743190002
 21
634.0553163879
 31
0
  0
LINE
  8
1
 62
2
 10
474.1489743190002
 20
634.6553163879
 30
0
 11
473.9179743190002
 21
634.3553163879001
 31
0
  0
LINE
  8
1
 62
2
 10
474.3799743190002
 20
635.2553163879001
 30
0
 11
474.1489743190002
 21
634.6553163879
 31
0
  0
LINE
  8
1
 62
2
 10
474.4954743190002
 20
636.1553163879
 30
0
 11
474.3799743190002
 21
635.2553163879001
 31
0
  0
LINE
  8
1
 62
2
 10
467.5654743190002
 20
633.9053163879
 30
0
 11
470.3374743190002
 21
633.9053163879
 31
0
  0
LINE
  8
1
 62
2
 10
470.1064743190002
 20
637.8053163879
 30
0
 11
467.5654743190002
 21
633.9053163879
 31
0
  0
LINE
  8
1
 62
2
 10
470.3374743190002
 20
638.4053163879
 30
0
 11
470.1064743190002
 21
637.8053163879
 31
0
  0
LINE
  8
1
 62
2
 10
470.3374743190002
 20
639.0053163879001
 30
0
 11
470.3374743190002
 21
638.4053163879
 31
0
  0
LINE
  8
1
 62
2
 10
470.1064743190002
 20
639.4553163879
 30
0
 11
470.3374743190002
 21
639.0053163879001
 31
0
  0
LINE
  8
1
 62
2
 10
469.7599743190002
 20
639.7553163879001
 30
0
 11
470.1064743190002
 21
639.4553163879
 31
0
  0
LINE
  8
1
 62
2
 10
469.2979743190002
 20
639.9053163879
 30
0
 11
469.7599743190002
 21
639.7553163879001
 31
0
  0
LINE
  8
1
 62
2
 10
468.6049743190002
 20
639.9053163879
 30
0
 11
469.2979743190002
 21
639.9053163879
 31
0
  0
LINE
  8
1
 62
2
 10
468.1429743190002
 20
639.7553163879001
 30
0
 11
468.6049743190002
 21
639.9053163879
 31
0
  0
LINE
  8
1
 62
2
 10
467.7964743190002
 20
639.4553163879
 30
0
 11
468.1429743190002
 21
639.7553163879001
 31
0
  0
LINE
  8
1
 62
2
 10
467.5654743190002
 20
639.0053163879001
 30
0
 11
467.7964743190002
 21
639.4553163879
 31
0
  0
LINE
  8
1
 62
2
 10
466.1794743190002
 20
639.9053163879
 30
0
 11
466.1794743190002
 21
633.9053163879
 31
0
  0
LINE
  8
1
 62
2
 10
464.7934743190002
 20
638.1053163879001
 30
0
 11
466.1794743190002
 21
639.9053163879
 31
0
  0
LINE
  8
1
 62
2
 10
437.3640802795999
 20
638.5553163879
 30
0
 11
438.6345802795999
 21
639.9053163879
 31
0
  0
LINE
  8
1
 62
2
 10
436.9020802795999
 20
637.8053163879
 30
0
 11
437.3640802795999
 21
638.5553163879
 31
0
  0
LINE
  8
1
 62
2
 10
436.6710802795999
 20
637.2053163879
 30
0
 11
436.9020802795999
 21
637.8053163879
 31
0
  0
LINE
  8
1
 62
2
 10
436.5555802795999
 20
636.0053163879001
 30
0
 11
436.6710802795999
 21
637.2053163879
 31
0
  0
LINE
  8
1
 62
2
 10
436.5555802795999
 20
635.4053163879
 30
0
 11
436.5555802795999
 21
636.0053163879001
 31
0
  0
LINE
  8
1
 62
2
 10
436.6710802795999
 20
634.8053163879
 30
0
 11
436.5555802795999
 21
635.4053163879
 31
0
  0
LINE
  8
1
 62
2
 10
436.9020802795999
 20
634.3553163879001
 30
0
 11
436.6710802795999
 21
634.8053163879
 31
0
  0
LINE
  8
1
 62
2
 10
437.2485802795999
 20
634.0553163879
 30
0
 11
436.9020802795999
 21
634.3553163879001
 31
0
  0
LINE
  8
1
 62
2
 10
437.5950802795999
 20
633.9053163879
 30
0
 11
437.2485802795999
 21
634.0553163879
 31
0
  0
LINE
  8
1
 62
2
 10
438.2880802795999
 20
633.9053163879
 30
0
 11
437.5950802795999
 21
633.9053163879
 31
0
  0
LINE
  8
1
 62
2
 10
438.6345802795999
 20
634.0553163879
 30
0
 11
438.2880802795999
 21
633.9053163879
 31
0
  0
LINE
  8
1
 62
2
 10
438.9810802795999
 20
634.3553163879001
 30
0
 11
438.6345802795999
 21
634.0553163879
 31
0
  0
LINE
  8
1
 62
2
 10
439.2120802795999
 20
634.8053163879
 30
0
 11
438.9810802795999
 21
634.3553163879001
 31
0
  0
LINE
  8
1
 62
2
 10
439.3275802795999
 20
635.4053163879
 30
0
 11
439.2120802795999
 21
634.8053163879
 31
0
  0
LINE
  8
1
 62
2
 10
439.3275802795999
 20
636.0053163879001
 30
0
 11
439.3275802795999
 21
635.4053163879
 31
0
  0
LINE
  8
1
 62
2
 10
439.2120802795999
 20
636.6053163879001
 30
0
 11
439.3275802795999
 21
636.0053163879001
 31
0
  0
LINE
  8
1
 62
2
 10
438.9810802795999
 20
637.0553163879
 30
0
 11
439.2120802795999
 21
636.6053163879001
 31
0
  0
LINE
  8
1
 62
2
 10
438.6345802795999
 20
637.3553163879001
 30
0
 11
438.9810802795999
 21
637.0553163879
 31
0
  0
LINE
  8
1
 62
2
 10
438.2880802795999
 20
637.5053163879001
 30
0
 11
438.6345802795999
 21
637.3553163879001
 31
0
  0
LINE
  8
1
 62
2
 10
437.5950802795999
 20
637.5053163879001
 30
0
 11
438.2880802795999
 21
637.5053163879001
 31
0
  0
LINE
  8
1
 62
2
 10
437.2485802795999
 20
637.3553163879001
 30
0
 11
437.5950802795999
 21
637.5053163879001
 31
0
  0
LINE
  8
1
 62
2
 10
436.9020802795999
 20
637.0553163879
 30
0
 11
437.2485802795999
 21
637.3553163879001
 31
0
  0
LINE
  8
1
 62
2
 10
436.6710802795999
 20
636.6053163879001
 30
0
 11
436.9020802795999
 21
637.0553163879
 31
0
  0
LINE
  8
1
 62
2
 10
436.5555802795999
 20
636.0053163879001
 30
0
 11
436.6710802795999
 21
636.6053163879001
 31
0
  0
LINE
  8
1
 62
2
 10
432.8595802795999
 20
639.4553163879
 30
0
 11
433.2060802795999
 21
639.7553163879001
 31
0
  0
LINE
  8
1
 62
2
 10
432.6285802795999
 20
639.0053163879001
 30
0
 11
432.8595802795999
 21
639.4553163879
 31
0
  0
LINE
  8
1
 62
2
 10
432.6285802795999
 20
638.4053163879
 30
0
 11
432.6285802795999
 21
639.0053163879001
 31
0
  0
LINE
  8
1
 62
2
 10
432.8595802795999
 20
637.9553163879
 30
0
 11
432.6285802795999
 21
638.4053163879
 31
0
  0
LINE
  8
1
 62
2
 10
433.2060802795999
 20
637.6553163879
 30
0
 11
432.8595802795999
 21
637.9553163879
 31
0
  0
LINE
  8
1
 62
2
 10
433.5525802795999
 20
637.5053163879001
 30
0
 11
433.2060802795999
 21
637.6553163879
 31
0
  0
LINE
  8
1
 62
2
 10
434.0145802795999
 20
637.5053163879001
 30
0
 11
433.5525802795999
 21
637.5053163879001
 31
0
  0
LINE
  8
1
 62
2
 10
434.3610802795999
 20
637.6553163879
 30
0
 11
434.0145802795999
 21
637.5053163879001
 31
0
  0
LINE
  8
1
 62
2
 10
434.7075802795999
 20
637.9553163879
 30
0
 11
434.3610802795999
 21
637.6553163879
 31
0
  0
LINE
  8
1
 62
2
 10
434.9385802795999
 20
638.4053163879
 30
0
 11
434.7075802795999
 21
637.9553163879
 31
0
  0
LINE
  8
1
 62
2
 10
434.9385802795999
 20
639.0053163879001
 30
0
 11
434.9385802795999
 21
638.4053163879
 31
0
  0
LINE
  8
1
 62
2
 10
434.7075802795999
 20
639.4553163879
 30
0
 11
434.9385802795999
 21
639.0053163879001
 31
0
  0
LINE
  8
1
 62
2
 10
434.3610802795999
 20
639.7553163879001
 30
0
 11
434.7075802795999
 21
639.4553163879
 31
0
  0
LINE
  8
1
 62
2
 10
434.0145802795999
 20
639.9053163879
 30
0
 11
434.3610802795999
 21
639.7553163879001
 31
0
  0
LINE
  8
1
 62
2
 10
433.5525802795999
 20
639.9053163879
 30
0
 11
434.0145802795999
 21
639.9053163879
 31
0
  0
LINE
  8
1
 62
2
 10
433.2060802795999
 20
639.7553163879001
 30
0
 11
433.5525802795999
 21
639.9053163879
 31
0
  0
LINE
  8
1
 62
2
 10
434.5920802795999
 20
637.2053163879
 30
0
 11
434.0145802795999
 21
637.5053163879001
 31
0
  0
LINE
  8
1
 62
2
 10
434.9385802795999
 20
636.7553163879001
 30
0
 11
434.5920802795999
 21
637.2053163879
 31
0
  0
LINE
  8
1
 62
2
 10
435.1695802795999
 20
636.1553163879
 30
0
 11
434.9385802795999
 21
636.7553163879001
 31
0
  0
LINE
  8
1
 62
2
 10
435.1695802795999
 20
635.2553163879001
 30
0
 11
435.1695802795999
 21
636.1553163879
 31
0
  0
LINE
  8
1
 62
2
 10
434.9385802795999
 20
634.6553163879
 30
0
 11
435.1695802795999
 21
635.2553163879001
 31
0
  0
LINE
  8
1
 62
2
 10
434.5920802795999
 20
634.2053163879
 30
0
 11
434.9385802795999
 21
634.6553163879
 31
0
  0
LINE
  8
1
 62
2
 10
434.1300802795999
 20
633.9053163879
 30
0
 11
434.5920802795999
 21
634.2053163879
 31
0
  0
LINE
  8
1
 62
2
 10
433.4370802795999
 20
633.9053163879
 30
0
 11
434.1300802795999
 21
633.9053163879
 31
0
  0
LINE
  8
1
 62
2
 10
432.9750802795999
 20
634.2053163879
 30
0
 11
433.4370802795999
 21
633.9053163879
 31
0
  0
LINE
  8
1
 62
2
 10
432.6285802795999
 20
634.6553163879
 30
0
 11
432.9750802795999
 21
634.2053163879
 31
0
  0
LINE
  8
1
 62
2
 10
432.3975802795999
 20
635.2553163879001
 30
0
 11
432.6285802795999
 21
634.6553163879
 31
0
  0
LINE
  8
1
 62
2
 10
432.3975802795999
 20
636.1553163879
 30
0
 11
432.3975802795999
 21
635.2553163879001
 31
0
  0
LINE
  8
1
 62
2
 10
432.6285802795999
 20
636.7553163879001
 30
0
 11
432.3975802795999
 21
636.1553163879
 31
0
  0
LINE
  8
1
 62
2
 10
432.9750802795999
 20
637.2053163879
 30
0
 11
432.6285802795999
 21
636.7553163879001
 31
0
  0
LINE
  8
1
 62
2
 10
433.5525802795999
 20
637.5053163879001
 30
0
 11
432.9750802795999
 21
637.2053163879
 31
0
  0
LINE
  8
1
 62
2
 10
431.0115802795999
 20
639.9053163879
 30
0
 11
431.0115802795999
 21
633.9053163879
 31
0
  0
LINE
  8
1
 62
2
 10
429.6255802795999
 20
638.1053163879001
 30
0
 11
431.0115802795999
 21
639.9053163879
 31
0
  0
LINE
  8
1
 62
2
 10
405.390186988
 20
633.9053163879
 30
0
 11
405.390186988
 21
639.9053163879
 31
0
  0
LINE
  8
1
 62
2
 10
406.314186988
 20
636.9053163879
 30
0
 11
408.624186988
 21
633.9053163879
 31
0
  0
LINE
  8
1
 62
2
 10
408.624186988
 20
639.9053163879
 30
0
 11
405.390186988
 21
635.7053163879
 31
0
  0
LINE
  8
1
 62
2
 10
404.004186988
 20
637.6553163879
 30
0
 11
404.004186988
 21
636.1553163879
 31
0
  0
LINE
  8
1
 62
2
 10
403.888686988
 20
638.5553163879
 30
0
 11
404.004186988
 21
637.6553163879
 31
0
  0
LINE
  8
1
 62
2
 10
403.657686988
 20
639.1553163879
 30
0
 11
403.888686988
 21
638.5553163879
 31
0
  0
LINE
  8
1
 62
2
 10
403.426686988
 20
639.4553163879
 30
0
 11
403.657686988
 21
639.1553163879
 31
0
  0
LINE
  8
1
 62
2
 10
403.080186988
 20
639.7553163879001
 30
0
 11
403.426686988
 21
639.4553163879
 31
0
  0
LINE
  8
1
 62
2
 10
402.733686988
 20
639.9053163879
 30
0
 11
403.080186988
 21
639.7553163879001
 31
0
  0
LINE
  8
1
 62
2
 10
402.5026869880001
 20
639.9053163879
 30
0
 11
402.733686988
 21
639.9053163879
 31
0
  0
LINE
  8
1
 62
2
 10
402.156186988
 20
639.7553163879001
 30
0
 11
402.5026869880001
 21
639.9053163879
 31
0
  0
LINE
  8
1
 62
2
 10
401.809686988
 20
639.4553163879
 30
0
 11
402.156186988
 21
639.7553163879001
 31
0
  0
LINE
  8
1
 62
2
 10
401.578686988
 20
639.1553163879
 30
0
 11
401.809686988
 21
639.4553163879
 31
0
  0
LINE
  8
1
 62
2
 10
401.347686988
 20
638.5553163879
 30
0
 11
401.578686988
 21
639.1553163879
 31
0
  0
LINE
  8
1
 62
2
 10
401.232186988
 20
637.6553163879
 30
0
 11
401.347686988
 21
638.5553163879
 31
0
  0
LINE
  8
1
 62
2
 10
401.232186988
 20
636.1553163879
 30
0
 11
401.232186988
 21
637.6553163879
 31
0
  0
LINE
  8
1
 62
2
 10
401.347686988
 20
635.2553163879001
 30
0
 11
401.232186988
 21
636.1553163879
 31
0
  0
LINE
  8
1
 62
2
 10
401.578686988
 20
634.6553163879
 30
0
 11
401.347686988
 21
635.2553163879001
 31
0
  0
LINE
  8
1
 62
2
 10
401.809686988
 20
634.3553163879001
 30
0
 11
401.578686988
 21
634.6553163879
 31
0
  0
LINE
  8
1
 62
2
 10
402.156186988
 20
634.0553163879
 30
0
 11
401.809686988
 21
634.3553163879001
 31
0
  0
LINE
  8
1
 62
2
 10
402.5026869880001
 20
633.9053163879
 30
0
 11
402.156186988
 21
634.0553163879
 31
0
  0
LINE
  8
1
 62
2
 10
402.733686988
 20
633.9053163879
 30
0
 11
402.5026869880001
 21
633.9053163879
 31
0
  0
LINE
  8
1
 62
2
 10
403.080186988
 20
634.0553163879
 30
0
 11
402.733686988
 21
633.9053163879
 31
0
  0
LINE
  8
1
 62
2
 10
403.426686988
 20
634.3553163879001
 30
0
 11
403.080186988
 21
634.0553163879
 31
0
  0
LINE
  8
1
 62
2
 10
403.657686988
 20
634.6553163879
 30
0
 11
403.426686988
 21
634.3553163879001
 31
0
  0
LINE
  8
1
 62
2
 10
403.888686988
 20
635.2553163879001
 30
0
 11
403.657686988
 21
634.6553163879
 31
0
  0
LINE
  8
1
 62
2
 10
404.004186988
 20
636.1553163879
 30
0
 11
403.888686988
 21
635.2553163879001
 31
0
  0
LINE
  8
1
 62
2
 10
399.8461869880001
 20
639.9053163879
 30
0
 11
399.8461869880001
 21
633.9053163879
 31
0
  0
LINE
  8
1
 62
2
 10
398.460186988
 20
638.1053163879001
 30
0
 11
399.8461869880001
 21
639.9053163879
 31
0
  0
LINE
  8
1
 62
2
 10
394.071186988
 20
634.3553163879001
 30
0
 11
393.840186988
 21
634.6553163879
 31
0
  0
LINE
  8
1
 62
2
 10
394.533186988
 20
634.0553163879
 30
0
 11
394.071186988
 21
634.3553163879001
 31
0
  0
LINE
  8
1
 62
2
 10
395.1106869880001
 20
633.9053163879
 30
0
 11
394.533186988
 21
634.0553163879
 31
0
  0
LINE
  8
1
 62
2
 10
395.803686988
 20
633.9053163879
 30
0
 11
395.1106869880001
 21
633.9053163879
 31
0
  0
LINE
  8
1
 62
2
 10
396.381186988
 20
634.0553163879
 30
0
 11
395.803686988
 21
633.9053163879
 31
0
  0
LINE
  8
1
 62
2
 10
396.727686988
 20
634.3553163879001
 30
0
 11
396.381186988
 21
634.0553163879
 31
0
  0
LINE
  8
1
 62
2
 10
396.958686988
 20
634.8053163879
 30
0
 11
396.727686988
 21
634.3553163879001
 31
0
  0
LINE
  8
1
 62
2
 10
397.074186988
 20
635.2553163879001
 30
0
 11
396.958686988
 21
634.8053163879
 31
0
  0
LINE
  8
1
 62
2
 10
397.074186988
 20
635.5553163879
 30
0
 11
397.074186988
 21
635.2553163879001
 31
0
  0
LINE
  8
1
 62
2
 10
396.958686988
 20
636.0053163879001
 30
0
 11
397.074186988
 21
635.5553163879
 31
0
  0
LINE
  8
1
 62
2
 10
396.727686988
 20
636.4553163879
 30
0
 11
396.958686988
 21
636.0053163879001
 31
0
  0
LINE
  8
1
 62
2
 10
396.381186988
 20
636.7553163879001
 30
0
 11
396.727686988
 21
636.4553163879
 31
0
  0
LINE
  8
1
 62
2
 10
394.417686988
 20
637.8053163879
 30
0
 11
396.381186988
 21
636.7553163879001
 31
0
  0
LINE
  8
1
 62
2
 10
394.071186988
 20
638.1053163879001
 30
0
 11
394.417686988
 21
637.8053163879
 31
0
  0
LINE
  8
1
 62
2
 10
393.955686988
 20
638.5553163879
 30
0
 11
394.071186988
 21
638.1053163879001
 31
0
  0
LINE
  8
1
 62
2
 10
393.955686988
 20
638.8553163879001
 30
0
 11
393.955686988
 21
638.5553163879
 31
0
  0
LINE
  8
1
 62
2
 10
394.071186988
 20
639.3053163879
 30
0
 11
393.955686988
 21
638.8553163879001
 31
0
  0
LINE
  8
1
 62
2
 10
394.417686988
 20
639.6053163879001
 30
0
 11
394.071186988
 21
639.3053163879
 31
0
  0
LINE
  8
1
 62
2
 10
394.764186988
 20
639.7553163879001
 30
0
 11
394.417686988
 21
639.6053163879001
 31
0
  0
LINE
  8
1
 62
2
 10
395.2261869880001
 20
639.9053163879
 30
0
 11
394.764186988
 21
639.7553163879001
 31
0
  0
LINE
  8
1
 62
2
 10
395.688186988
 20
639.9053163879
 30
0
 11
395.2261869880001
 21
639.9053163879
 31
0
  0
LINE
  8
1
 62
2
 10
396.265686988
 20
639.7553163879001
 30
0
 11
395.688186988
 21
639.9053163879
 31
0
  0
LINE
  8
1
 62
2
 10
396.612186988
 20
639.6053163879001
 30
0
 11
396.265686988
 21
639.7553163879001
 31
0
  0
LINE
  8
1
 62
2
 10
396.958686988
 20
639.3053163879
 30
0
 11
396.612186988
 21
639.6053163879001
 31
0
  0
LINE
  8
1
 62
2
 10
392.454186988
 20
633.9053163879
 30
0
 11
392.454186988
 21
639.9053163879
 31
0
  0
LINE
  8
1
 62
2
 10
390.144186988
 20
633.9053163879
 30
0
 11
389.220186988
 21
633.9053163879
 31
0
  0
LINE
  8
1
 62
2
 10
390.4906869880001
 20
634.0553163879
 30
0
 11
390.144186988
 21
633.9053163879
 31
0
  0
LINE
  8
1
 62
2
 10
390.837186988
 20
634.3553163879001
 30
0
 11
390.4906869880001
 21
634.0553163879
 31
0
  0
LINE
  8
1
 62
2
 10
391.068186988
 20
634.9553163879
 30
0
 11
390.837186988
 21
634.3553163879001
 31
0
  0
LINE
  8
1
 62
2
 10
391.068186988
 20
639.9053163879
 30
0
 11
391.068186988
 21
634.9553163879
 31
0
  0
LINE
  8
1
 62
2
 10
576.2009899870001
 20
645.6085037066999
 30
0
 11
575.1614899870001
 21
645.0085037066999
 31
0
  0
LINE
  8
1
 62
2
 10
577.0094899870001
 20
646.5085037066999
 30
0
 11
576.2009899870001
 21
645.6085037066999
 31
0
  0
LINE
  8
1
 62
2
 10
577.3559899870002
 20
647.1085037066999
 30
0
 11
577.0094899870001
 21
646.5085037066999
 31
0
  0
LINE
  8
1
 62
2
 10
577.4714899870002
 20
647.7085037067
 30
0
 11
577.3559899870002
 21
647.1085037066999
 31
0
  0
LINE
  8
1
 62
2
 10
577.5869899870002
 20
648.4585037067
 30
0
 11
577.4714899870002
 21
647.7085037067
 31
0
  0
LINE
  8
1
 62
2
 10
577.5869899870002
 20
649.5085037066999
 30
0
 11
577.5869899870002
 21
648.4585037067
 31
0
  0
LINE
  8
1
 62
2
 10
577.4714899870002
 20
650.1085037066999
 30
0
 11
577.5869899870002
 21
649.5085037066999
 31
0
  0
LINE
  8
1
 62
2
 10
577.2404899870002
 20
650.5585037066999
 30
0
 11
577.4714899870002
 21
650.1085037066999
 31
0
  0
LINE
  8
1
 62
2
 10
576.8939899870001
 20
650.8585037066999
 30
0
 11
577.2404899870002
 21
650.5585037066999
 31
0
  0
LINE
  8
1
 62
2
 10
576.5474899870001
 20
651.0085037066999
 30
0
 11
576.8939899870001
 21
650.8585037066999
 31
0
  0
LINE
  8
1
 62
2
 10
575.8544899870001
 20
651.0085037066999
 30
0
 11
576.5474899870001
 21
651.0085037066999
 31
0
  0
LINE
  8
1
 62
2
 10
575.5079899870001
 20
650.8585037066999
 30
0
 11
575.8544899870001
 21
651.0085037066999
 31
0
  0
LINE
  8
1
 62
2
 10
575.1614899870001
 20
650.5585037066999
 30
0
 11
575.5079899870001
 21
650.8585037066999
 31
0
  0
LINE
  8
1
 62
2
 10
574.9304899870001
 20
650.1085037066999
 30
0
 11
575.1614899870001
 21
650.5585037066999
 31
0
  0
LINE
  8
1
 62
2
 10
574.8149899870001
 20
649.5085037066999
 30
0
 11
574.9304899870001
 21
650.1085037066999
 31
0
  0
LINE
  8
1
 62
2
 10
574.8149899870001
 20
649.2085037067
 30
0
 11
574.8149899870001
 21
649.5085037066999
 31
0
  0
LINE
  8
1
 62
2
 10
574.9304899870001
 20
648.6085037066999
 30
0
 11
574.8149899870001
 21
649.2085037067
 31
0
  0
LINE
  8
1
 62
2
 10
575.1614899870001
 20
648.1585037066999
 30
0
 11
574.9304899870001
 21
648.6085037066999
 31
0
  0
LINE
  8
1
 62
2
 10
575.5079899870001
 20
647.8585037066999
 30
0
 11
575.1614899870001
 21
648.1585037066999
 31
0
  0
LINE
  8
1
 62
2
 10
575.8544899870001
 20
647.7085037067
 30
0
 11
575.5079899870001
 21
647.8585037066999
 31
0
  0
LINE
  8
1
 62
2
 10
577.4714899870002
 20
647.7085037067
 30
0
 11
575.8544899870001
 21
647.7085037067
 31
0
  0
LINE
  8
1
 62
2
 10
573.428989987
 20
651.0085037066999
 30
0
 11
573.428989987
 21
645.0085037066999
 31
0
  0
LINE
  8
1
 62
2
 10
572.0429899870001
 20
649.2085037067
 30
0
 11
573.428989987
 21
651.0085037066999
 31
0
  0
LINE
  8
1
 62
2
 10
540.6999292644
 20
647.4085037066999
 30
0
 11
540.6999292644
 21
645.0085037066999
 31
0
  0
LINE
  8
1
 62
2
 10
538.6209292644001
 20
646.2085037067
 30
0
 11
541.3929292644001
 21
646.2085037067
 31
0
  0
LINE
  8
1
 62
2
 10
540.6999292644
 20
651.0085037066999
 30
0
 11
538.6209292644001
 21
646.2085037067
 31
0
  0
LINE
  8
1
 62
2
 10
509.6633683584
 20
648.7585037066999
 30
0
 11
509.6633683584
 21
647.2585037066999
 31
0
  0
LINE
  8
1
 62
2
 10
509.5478683584
 20
649.6585037066999
 30
0
 11
509.6633683584
 21
648.7585037066999
 31
0
  0
LINE
  8
1
 62
2
 10
509.3168683584
 20
650.2585037066999
 30
0
 11
509.5478683584
 21
649.6585037066999
 31
0
  0
LINE
  8
1
 62
2
 10
509.0858683584
 20
650.5585037066999
 30
0
 11
509.3168683584
 21
650.2585037066999
 31
0
  0
LINE
  8
1
 62
2
 10
508.7393683584
 20
650.8585037066999
 30
0
 11
509.0858683584
 21
650.5585037066999
 31
0
  0
LINE
  8
1
 62
2
 10
508.3928683584001
 20
651.0085037066999
 30
0
 11
508.7393683584
 21
650.8585037066999
 31
0
  0
LINE
  8
1
 62
2
 10
508.1618683584001
 20
651.0085037066999
 30
0
 11
508.3928683584001
 21
651.0085037066999
 31
0
  0
LINE
  8
1
 62
2
 10
507.8153683584
 20
650.8585037066999
 30
0
 11
508.1618683584001
 21
651.0085037066999
 31
0
  0
LINE
  8
1
 62
2
 10
507.4688683584
 20
650.5585037066999
 30
0
 11
507.8153683584
 21
650.8585037066999
 31
0
  0
LINE
  8
1
 62
2
 10
507.2378683584
 20
650.2585037066999
 30
0
 11
507.4688683584
 21
650.5585037066999
 31
0
  0
LINE
  8
1
 62
2
 10
507.0068683584
 20
649.6585037066999
 30
0
 11
507.2378683584
 21
650.2585037066999
 31
0
  0
LINE
  8
1
 62
2
 10
506.8913683584
 20
648.7585037066999
 30
0
 11
507.0068683584
 21
649.6585037066999
 31
0
  0
LINE
  8
1
 62
2
 10
506.8913683584
 20
647.2585037066999
 30
0
 11
506.8913683584
 21
648.7585037066999
 31
0
  0
LINE
  8
1
 62
2
 10
507.0068683584
 20
646.3585037066999
 30
0
 11
506.8913683584
 21
647.2585037066999
 31
0
  0
LINE
  8
1
 62
2
 10
507.2378683584
 20
645.7585037066999
 30
0
 11
507.0068683584
 21
646.3585037066999
 31
0
  0
LINE
  8
1
 62
2
 10
507.4688683584
 20
645.4585037067
 30
0
 11
507.2378683584
 21
645.7585037066999
 31
0
  0
LINE
  8
1
 62
2
 10
507.8153683584
 20
645.1585037066999
 30
0
 11
507.4688683584
 21
645.4585037067
 31
0
  0
LINE
  8
1
 62
2
 10
508.1618683584001
 20
645.0085037066999
 30
0
 11
507.8153683584
 21
645.1585037066999
 31
0
  0
LINE
  8
1
 62
2
 10
508.3928683584001
 20
645.0085037066999
 30
0
 11
508.1618683584001
 21
645.0085037066999
 31
0
  0
LINE
  8
1
 62
2
 10
508.7393683584
 20
645.1585037066999
 30
0
 11
508.3928683584001
 21
645.0085037066999
 31
0
  0
LINE
  8
1
 62
2
 10
509.0858683584
 20
645.4585037067
 30
0
 11
508.7393683584
 21
645.1585037066999
 31
0
  0
LINE
  8
1
 62
2
 10
509.3168683584
 20
645.7585037066999
 30
0
 11
509.0858683584
 21
645.4585037067
 31
0
  0
LINE
  8
1
 62
2
 10
509.5478683584
 20
646.3585037066999
 30
0
 11
509.3168683584
 21
645.7585037066999
 31
0
  0
LINE
  8
1
 62
2
 10
509.6633683584
 20
647.2585037066999
 30
0
 11
509.5478683584
 21
646.3585037066999
 31
0
  0
LINE
  8
1
 62
2
 10
505.5053683584
 20
648.7585037066999
 30
0
 11
505.5053683584
 21
647.2585037066999
 31
0
  0
LINE
  8
1
 62
2
 10
505.3898683584
 20
649.6585037066999
 30
0
 11
505.5053683584
 21
648.7585037066999
 31
0
  0
LINE
  8
1
 62
2
 10
505.1588683584
 20
650.2585037066999
 30
0
 11
505.3898683584
 21
649.6585037066999
 31
0
  0
LINE
  8
1
 62
2
 10
504.9278683584
 20
650.5585037066999
 30
0
 11
505.1588683584
 21
650.2585037066999
 31
0
  0
LINE
  8
1
 62
2
 10
504.5813683584
 20
650.8585037066999
 30
0
 11
504.9278683584
 21
650.5585037066999
 31
0
  0
LINE
  8
1
 62
2
 10
504.2348683584
 20
651.0085037066999
 30
0
 11
504.5813683584
 21
650.8585037066999
 31
0
  0
LINE
  8
1
 62
2
 10
504.0038683584
 20
651.0085037066999
 30
0
 11
504.2348683584
 21
651.0085037066999
 31
0
  0
LINE
  8
1
 62
2
 10
503.6573683584
 20
650.8585037066999
 30
0
 11
504.0038683584
 21
651.0085037066999
 31
0
  0
LINE
  8
1
 62
2
 10
503.3108683584
 20
650.5585037066999
 30
0
 11
503.6573683584
 21
650.8585037066999
 31
0
  0
LINE
  8
1
 62
2
 10
503.0798683584
 20
650.2585037066999
 30
0
 11
503.3108683584
 21
650.5585037066999
 31
0
  0
LINE
  8
1
 62
2
 10
502.8488683584
 20
649.6585037066999
 30
0
 11
503.0798683584
 21
650.2585037066999
 31
0
  0
LINE
  8
1
 62
2
 10
502.7333683584
 20
648.7585037066999
 30
0
 11
502.8488683584
 21
649.6585037066999
 31
0
  0
LINE
  8
1
 62
2
 10
502.7333683584
 20
647.2585037066999
 30
0
 11
502.7333683584
 21
648.7585037066999
 31
0
  0
LINE
  8
1
 62
2
 10
502.8488683584
 20
646.3585037066999
 30
0
 11
502.7333683584
 21
647.2585037066999
 31
0
  0
LINE
  8
1
 62
2
 10
503.0798683584
 20
645.7585037066999
 30
0
 11
502.8488683584
 21
646.3585037066999
 31
0
  0
LINE
  8
1
 62
2
 10
503.3108683584
 20
645.4585037067
 30
0
 11
503.0798683584
 21
645.7585037066999
 31
0
  0
LINE
  8
1
 62
2
 10
503.6573683584
 20
645.1585037066999
 30
0
 11
503.3108683584
 21
645.4585037067
 31
0
  0
LINE
  8
1
 62
2
 10
504.0038683584
 20
645.0085037066999
 30
0
 11
503.6573683584
 21
645.1585037066999
 31
0
  0
LINE
  8
1
 62
2
 10
504.2348683584
 20
645.0085037066999
 30
0
 11
504.0038683584
 21
645.0085037066999
 31
0
  0
LINE
  8
1
 62
2
 10
504.5813683584
 20
645.1585037066999
 30
0
 11
504.2348683584
 21
645.0085037066999
 31
0
  0
LINE
  8
1
 62
2
 10
504.9278683584
 20
645.4585037067
 30
0
 11
504.5813683584
 21
645.1585037066999
 31
0
  0
LINE
  8
1
 62
2
 10
505.1588683584
 20
645.7585037066999
 30
0
 11
504.9278683584
 21
645.4585037067
 31
0
  0
LINE
  8
1
 62
2
 10
505.3898683584
 20
646.3585037066999
 30
0
 11
505.1588683584
 21
645.7585037066999
 31
0
  0
LINE
  8
1
 62
2
 10
505.5053683584
 20
647.2585037066999
 30
0
 11
505.3898683584
 21
646.3585037066999
 31
0
  0
LINE
  8
1
 62
2
 10
501.3473683584001
 20
651.0085037066999
 30
0
 11
501.3473683584001
 21
645.0085037066999
 31
0
  0
LINE
  8
1
 62
2
 10
499.9613683584
 20
649.2085037067
 30
0
 11
501.3473683584001
 21
651.0085037066999
 31
0
  0
LINE
  8
1
 62
2
 10
473.4559743190002
 20
645.0085037066999
 30
0
 11
471.7234743190002
 21
645.0085037066999
 31
0
  0
LINE
  8
1
 62
2
 10
473.8024743190002
 20
645.1585037066999
 30
0
 11
473.4559743190002
 21
645.0085037066999
 31
0
  0
LINE
  8
1
 62
2
 10
474.1489743190002
 20
645.4585037067
 30
0
 11
473.8024743190002
 21
645.1585037066999
 31
0
  0
LINE
  8
1
 62
2
 10
474.3799743190002
 20
645.9085037066999
 30
0
 11
474.1489743190002
 21
645.4585037067
 31
0
  0
LINE
  8
1
 62
2
 10
474.4954743190002
 20
646.5085037066999
 30
0
 11
474.3799743190002
 21
645.9085037066999
 31
0
  0
LINE
  8
1
 62
2
 10
474.4954743190002
 20
647.2585037066999
 30
0
 11
474.4954743190002
 21
646.5085037066999
 31
0
  0
LINE
  8
1
 62
2
 10
474.3799743190002
 20
647.8585037066999
 30
0
 11
474.4954743190002
 21
647.2585037066999
 31
0
  0
LINE
  8
1
 62
2
 10
474.2644743190002
 20
648.1585037066999
 30
0
 11
474.3799743190002
 21
647.8585037066999
 31
0
  0
LINE
  8
1
 62
2
 10
474.0334743190002
 20
648.4585037067
 30
0
 11
474.2644743190002
 21
648.1585037066999
 31
0
  0
LINE
  8
1
 62
2
 10
473.5714743190002
 20
648.6085037066999
 30
0
 11
474.0334743190002
 21
648.4585037067
 31
0
  0
LINE
  8
1
 62
2
 10
473.9179743190002
 20
648.7585037066999
 30
0
 11
473.5714743190002
 21
648.6085037066999
 31
0
  0
LINE
  8
1
 62
2
 10
474.1489743190002
 20
648.9085037066999
 30
0
 11
473.9179743190002
 21
648.7585037066999
 31
0
  0
LINE
  8
1
 62
2
 10
474.3799743190002
 20
649.2085037067
 30
0
 11
474.1489743190002
 21
648.9085037066999
 31
0
  0
LINE
  8
1
 62
2
 10
474.4954743190002
 20
649.6585037066999
 30
0
 11
474.3799743190002
 21
649.2085037067
 31
0
  0
LINE
  8
1
 62
2
 10
474.4954743190002
 20
650.1085037066999
 30
0
 11
474.4954743190002
 21
649.6585037066999
 31
0
  0
LINE
  8
1
 62
2
 10
474.3799743190002
 20
650.5585037066999
 30
0
 11
474.4954743190002
 21
650.1085037066999
 31
0
  0
LINE
  8
1
 62
2
 10
474.0334743190002
 20
650.8585037066999
 30
0
 11
474.3799743190002
 21
650.5585037066999
 31
0
  0
LINE
  8
1
 62
2
 10
473.4559743190002
 20
651.0085037066999
 30
0
 11
474.0334743190002
 21
650.8585037066999
 31
0
  0
LINE
  8
1
 62
2
 10
471.7234743190002
 20
651.0085037066999
 30
0
 11
473.4559743190002
 21
651.0085037066999
 31
0
  0
LINE
  8
1
 62
2
 10
472.4164743190002
 20
648.6085037066999
 30
0
 11
473.5714743190002
 21
648.6085037066999
 31
0
  0
LINE
  8
1
 62
2
 10
469.6444743190002
 20
647.4085037066999
 30
0
 11
469.6444743190002
 21
645.0085037066999
 31
0
  0
LINE
  8
1
 62
2
 10
467.5654743190002
 20
646.2085037067
 30
0
 11
470.3374743190002
 21
646.2085037067
 31
0
  0
LINE
  8
1
 62
2
 10
469.6444743190002
 20
651.0085037066999
 30
0
 11
467.5654743190002
 21
646.2085037067
 31
0
  0
LINE
  8
1
 62
2
 10
466.1794743190002
 20
651.0085037066999
 30
0
 11
466.1794743190002
 21
645.0085037066999
 31
0
  0
LINE
  8
1
 62
2
 10
464.7934743190002
 20
649.2085037067
 30
0
 11
466.1794743190002
 21
651.0085037066999
 31
0
  0
LINE
  8
1
 62
2
 10
437.3640802795999
 20
649.6585037066999
 30
0
 11
438.6345802795999
 21
651.0085037066999
 31
0
  0
LINE
  8
1
 62
2
 10
436.9020802795999
 20
648.9085037066999
 30
0
 11
437.3640802795999
 21
649.6585037066999
 31
0
  0
LINE
  8
1
 62
2
 10
436.6710802795999
 20
648.3085037066999
 30
0
 11
436.9020802795999
 21
648.9085037066999
 31
0
  0
LINE
  8
1
 62
2
 10
436.5555802795999
 20
647.1085037066999
 30
0
 11
436.6710802795999
 21
648.3085037066999
 31
0
  0
LINE
  8
1
 62
2
 10
436.5555802795999
 20
646.5085037066999
 30
0
 11
436.5555802795999
 21
647.1085037066999
 31
0
  0
LINE
  8
1
 62
2
 10
436.6710802795999
 20
645.9085037066999
 30
0
 11
436.5555802795999
 21
646.5085037066999
 31
0
  0
LINE
  8
1
 62
2
 10
436.9020802795999
 20
645.4585037067
 30
0
 11
436.6710802795999
 21
645.9085037066999
 31
0
  0
LINE
  8
1
 62
2
 10
437.2485802795999
 20
645.1585037066999
 30
0
 11
436.9020802795999
 21
645.4585037067
 31
0
  0
LINE
  8
1
 62
2
 10
437.5950802795999
 20
645.0085037066999
 30
0
 11
437.2485802795999
 21
645.1585037066999
 31
0
  0
LINE
  8
1
 62
2
 10
438.2880802795999
 20
645.0085037066999
 30
0
 11
437.5950802795999
 21
645.0085037066999
 31
0
  0
LINE
  8
1
 62
2
 10
438.6345802795999
 20
645.1585037066999
 30
0
 11
438.2880802795999
 21
645.0085037066999
 31
0
  0
LINE
  8
1
 62
2
 10
438.9810802795999
 20
645.4585037067
 30
0
 11
438.6345802795999
 21
645.1585037066999
 31
0
  0
LINE
  8
1
 62
2
 10
439.2120802795999
 20
645.9085037066999
 30
0
 11
438.9810802795999
 21
645.4585037067
 31
0
  0
LINE
  8
1
 62
2
 10
439.3275802795999
 20
646.5085037066999
 30
0
 11
439.2120802795999
 21
645.9085037066999
 31
0
  0
LINE
  8
1
 62
2
 10
439.3275802795999
 20
647.1085037066999
 30
0
 11
439.3275802795999
 21
646.5085037066999
 31
0
  0
LINE
  8
1
 62
2
 10
439.2120802795999
 20
647.7085037067
 30
0
 11
439.3275802795999
 21
647.1085037066999
 31
0
  0
LINE
  8
1
 62
2
 10
438.9810802795999
 20
648.1585037066999
 30
0
 11
439.2120802795999
 21
647.7085037067
 31
0
  0
LINE
  8
1
 62
2
 10
438.6345802795999
 20
648.4585037067
 30
0
 11
438.9810802795999
 21
648.1585037066999
 31
0
  0
LINE
  8
1
 62
2
 10
438.2880802795999
 20
648.6085037066999
 30
0
 11
438.6345802795999
 21
648.4585037067
 31
0
  0
LINE
  8
1
 62
2
 10
437.5950802795999
 20
648.6085037066999
 30
0
 11
438.2880802795999
 21
648.6085037066999
 31
0
  0
LINE
  8
1
 62
2
 10
437.2485802795999
 20
648.4585037067
 30
0
 11
437.5950802795999
 21
648.6085037066999
 31
0
  0
LINE
  8
1
 62
2
 10
436.9020802795999
 20
648.1585037066999
 30
0
 11
437.2485802795999
 21
648.4585037067
 31
0
  0
LINE
  8
1
 62
2
 10
436.6710802795999
 20
647.7085037067
 30
0
 11
436.9020802795999
 21
648.1585037066999
 31
0
  0
LINE
  8
1
 62
2
 10
436.5555802795999
 20
647.1085037066999
 30
0
 11
436.6710802795999
 21
647.7085037067
 31
0
  0
LINE
  8
1
 62
2
 10
432.8595802795999
 20
650.5585037066999
 30
0
 11
433.2060802795999
 21
650.8585037066999
 31
0
  0
LINE
  8
1
 62
2
 10
432.6285802795999
 20
650.1085037066999
 30
0
 11
432.8595802795999
 21
650.5585037066999
 31
0
  0
LINE
  8
1
 62
2
 10
432.6285802795999
 20
649.5085037066999
 30
0
 11
432.6285802795999
 21
650.1085037066999
 31
0
  0
LINE
  8
1
 62
2
 10
432.8595802795999
 20
649.0585037066999
 30
0
 11
432.6285802795999
 21
649.5085037066999
 31
0
  0
LINE
  8
1
 62
2
 10
433.2060802795999
 20
648.7585037066999
 30
0
 11
432.8595802795999
 21
649.0585037066999
 31
0
  0
LINE
  8
1
 62
2
 10
433.5525802795999
 20
648.6085037066999
 30
0
 11
433.2060802795999
 21
648.7585037066999
 31
0
  0
LINE
  8
1
 62
2
 10
434.0145802795999
 20
648.6085037066999
 30
0
 11
433.5525802795999
 21
648.6085037066999
 31
0
  0
LINE
  8
1
 62
2
 10
434.3610802795999
 20
648.7585037066999
 30
0
 11
434.0145802795999
 21
648.6085037066999
 31
0
  0
LINE
  8
1
 62
2
 10
434.7075802795999
 20
649.0585037066999
 30
0
 11
434.3610802795999
 21
648.7585037066999
 31
0
  0
LINE
  8
1
 62
2
 10
434.9385802795999
 20
649.5085037066999
 30
0
 11
434.7075802795999
 21
649.0585037066999
 31
0
  0
LINE
  8
1
 62
2
 10
434.9385802795999
 20
650.1085037066999
 30
0
 11
434.9385802795999
 21
649.5085037066999
 31
0
  0
LINE
  8
1
 62
2
 10
434.7075802795999
 20
650.5585037066999
 30
0
 11
434.9385802795999
 21
650.1085037066999
 31
0
  0
LINE
  8
1
 62
2
 10
434.3610802795999
 20
650.8585037066999
 30
0
 11
434.7075802795999
 21
650.5585037066999
 31
0
  0
LINE
  8
1
 62
2
 10
434.0145802795999
 20
651.0085037066999
 30
0
 11
434.3610802795999
 21
650.8585037066999
 31
0
  0
LINE
  8
1
 62
2
 10
433.5525802795999
 20
651.0085037066999
 30
0
 11
434.0145802795999
 21
651.0085037066999
 31
0
  0
LINE
  8
1
 62
2
 10
433.2060802795999
 20
650.8585037066999
 30
0
 11
433.5525802795999
 21
651.0085037066999
 31
0
  0
LINE
  8
1
 62
2
 10
434.5920802795999
 20
648.3085037066999
 30
0
 11
434.0145802795999
 21
648.6085037066999
 31
0
  0
LINE
  8
1
 62
2
 10
434.9385802795999
 20
647.8585037066999
 30
0
 11
434.5920802795999
 21
648.3085037066999
 31
0
  0
LINE
  8
1
 62
2
 10
435.1695802795999
 20
647.2585037066999
 30
0
 11
434.9385802795999
 21
647.8585037066999
 31
0
  0
LINE
  8
1
 62
2
 10
435.1695802795999
 20
646.3585037066999
 30
0
 11
435.1695802795999
 21
647.2585037066999
 31
0
  0
LINE
  8
1
 62
2
 10
434.9385802795999
 20
645.7585037066999
 30
0
 11
435.1695802795999
 21
646.3585037066999
 31
0
  0
LINE
  8
1
 62
2
 10
434.5920802795999
 20
645.3085037066999
 30
0
 11
434.9385802795999
 21
645.7585037066999
 31
0
  0
LINE
  8
1
 62
2
 10
434.1300802795999
 20
645.0085037066999
 30
0
 11
434.5920802795999
 21
645.3085037066999
 31
0
  0
LINE
  8
1
 62
2
 10
433.4370802795999
 20
645.0085037066999
 30
0
 11
434.1300802795999
 21
645.0085037066999
 31
0
  0
LINE
  8
1
 62
2
 10
432.9750802795999
 20
645.3085037066999
 30
0
 11
433.4370802795999
 21
645.0085037066999
 31
0
  0
LINE
  8
1
 62
2
 10
432.6285802795999
 20
645.7585037066999
 30
0
 11
432.9750802795999
 21
645.3085037066999
 31
0
  0
LINE
  8
1
 62
2
 10
432.3975802795999
 20
646.3585037066999
 30
0
 11
432.6285802795999
 21
645.7585037066999
 31
0
  0
LINE
  8
1
 62
2
 10
432.3975802795999
 20
647.2585037066999
 30
0
 11
432.3975802795999
 21
646.3585037066999
 31
0
  0
LINE
  8
1
 62
2
 10
432.6285802795999
 20
647.8585037066999
 30
0
 11
432.3975802795999
 21
647.2585037066999
 31
0
  0
LINE
  8
1
 62
2
 10
432.9750802795999
 20
648.3085037066999
 30
0
 11
432.6285802795999
 21
647.8585037066999
 31
0
  0
LINE
  8
1
 62
2
 10
433.5525802795999
 20
648.6085037066999
 30
0
 11
432.9750802795999
 21
648.3085037066999
 31
0
  0
LINE
  8
1
 62
2
 10
431.0115802795999
 20
651.0085037066999
 30
0
 11
431.0115802795999
 21
645.0085037066999
 31
0
  0
LINE
  8
1
 62
2
 10
429.6255802795999
 20
649.2085037067
 30
0
 11
431.0115802795999
 21
651.0085037066999
 31
0
  0
LINE
  8
1
 62
2
 10
401.5442060971764
 20
646.6085037066999
 30
0
 11
402.4953825677646
 21
645.2085037067
 31
0
  0
LINE
  8
1
 62
2
 10
400.8647943324705
 20
648.2085037067
 30
0
 11
401.5442060971764
 21
646.6085037066999
 31
0
  0
LINE
  8
1
 62
2
 10
400.3212649207058
 20
650.4085037066999
 30
0
 11
400.8647943324705
 21
648.2085037067
 31
0
  0
LINE
  8
1
 62
2
 10
402.2236178618823
 20
650.4085037066999
 30
0
 11
401.1365590383529
 21
648.4085037066999
 31
0
  0
LINE
  8
1
 62
2
 10
399.0983237442352
 20
646.8085037066999
 30
0
 11
398.2830296265881
 21
645.4085037066999
 31
0
  0
LINE
  8
1
 62
2
 10
399.5059708030587
 20
648.2085037067
 30
0
 11
399.0983237442352
 21
646.8085037066999
 31
0
  0
LINE
  8
1
 62
2
 10
399.6418531559999
 20
649.8085037066999
 30
0
 11
399.5059708030587
 21
648.2085037067
 31
0
  0
LINE
  8
1
 62
2
 10
398.2830296265881
 20
649.8085037066999
 30
0
 11
399.6418531559999
 21
649.8085037066999
 31
0
  0
LINE
  8
1
 62
2
 10
400.3212649207058
 20
644.8085037066999
 30
0
 11
399.3700884501176
 21
645.6085037066999
 31
0
  0
LINE
  8
1
 62
2
 10
400.3212649207058
 20
651.0085037066999
 30
0
 11
400.3212649207058
 21
644.8085037066999
 31
0
  0
LINE
  8
1
 62
2
 10
392.8477355089411
 20
645.0085037066999
 30
0
 11
396.9242060971764
 21
645.0085037066999
 31
0
  0
LINE
  8
1
 62
2
 10
394.4783237442352
 20
650.8085037066999
 30
0
 11
394.4783237442352
 21
645.0085037066999
 31
0
  0
LINE
  8
1
 62
2
 10
394.4783237442352
 20
649.0085037066999
 30
0
 11
396.652441391294
 21
649.0085037066999
 31
0
  0
LINE
  8
1
 62
2
 10
582.8270393551413
 20
657.3116910253
 30
0
 11
582.3650393551413
 21
656.1116910252999
 31
0
  0
LINE
  8
1
 62
2
 10
583.0580393551413
 20
658.5116910252999
 30
0
 11
582.8270393551413
 21
657.3116910253
 31
0
  0
LINE
  8
1
 62
2
 10
583.0580393551413
 20
659.7116910253
 30
0
 11
583.0580393551413
 21
658.5116910252999
 31
0
  0
LINE
  8
1
 62
2
 10
582.8270393551413
 20
660.9116910252999
 30
0
 11
583.0580393551413
 21
659.7116910253
 31
0
  0
LINE
  8
1
 62
2
 10
582.3650393551413
 20
662.1116910252999
 30
0
 11
582.8270393551413
 21
660.9116910252999
 31
0
  0
LINE
  8
1
 62
2
 10
578.1526864139648
 20
656.1116910252999
 30
0
 11
581.1420981786707
 21
656.1116910252999
 31
0
  0
LINE
  8
1
 62
2
 10
579.6473922963178
 20
658.9116910252999
 30
0
 11
579.6473922963178
 21
656.1116910252999
 31
0
  0
LINE
  8
1
 62
2
 10
578.288568766906
 20
657.9116910252999
 30
0
 11
581.0062158257296
 21
657.9116910252999
 31
0
  0
LINE
  8
1
 62
2
 10
580.1909217080824
 20
659.5116910252999
 30
0
 11
581.1420981786707
 21
659.1116910252999
 31
0
  0
LINE
  8
1
 62
2
 10
579.2397452374942
 20
660.3116910253
 30
0
 11
580.1909217080824
 21
659.5116910252999
 31
0
  0
LINE
  8
1
 62
2
 10
578.5603334727883
 20
661.5116910252999
 30
0
 11
579.2397452374942
 21
660.3116910253
 31
0
  0
LINE
  8
1
 62
2
 10
579.3756275904354
 20
659.7116910253
 30
0
 11
578.1526864139648
 21
659.1116910252999
 31
0
  0
LINE
  8
1
 62
2
 10
580.3268040610236
 20
660.7116910253
 30
0
 11
579.3756275904354
 21
659.7116910253
 31
0
  0
LINE
  8
1
 62
2
 10
580.8703334727884
 20
661.9116910252999
 30
0
 11
580.3268040610236
 21
660.7116910253
 31
0
  0
LINE
  8
1
 62
2
 10
578.4244511198472
 20
661.9116910252999
 30
0
 11
580.8703334727884
 21
661.9116910252999
 31
0
  0
LINE
  8
1
 62
2
 10
577.6091570022001
 20
659.1116910252999
 30
0
 11
577.6091570022001
 21
656.1116910252999
 31
0
  0
LINE
  8
1
 62
2
 10
577.8809217080825
 20
660.3116910253
 30
0
 11
577.3373922963177
 21
657.9116910252999
 31
0
  0
LINE
  8
1
 62
2
 10
577.8809217080825
 20
661.9116910252999
 30
0
 11
577.3373922963177
 21
660.3116910253
 31
0
  0
LINE
  8
1
 62
2
 10
574.8915099433766
 20
657.7116910253
 30
0
 11
575.7068040610237
 21
656.1116910252999
 31
0
  0
LINE
  8
1
 62
2
 10
574.4838628845531
 20
659.9116910252999
 30
0
 11
574.8915099433766
 21
657.7116910253
 31
0
  0
LINE
  8
1
 62
2
 10
572.7173922963178
 20
659.9116910252999
 30
0
 11
574.4838628845531
 21
659.9116910252999
 31
0
  0
LINE
  8
1
 62
2
 10
572.7173922963178
 20
659.1116910252999
 30
0
 11
571.6303334727884
 21
656.1116910252999
 31
0
  0
LINE
  8
1
 62
2
 10
575.7068040610237
 20
661.3116910253
 30
0
 11
575.4350393551414
 21
659.9116910252999
 31
0
  0
LINE
  8
1
 62
2
 10
571.6303334727884
 20
661.3116910253
 30
0
 11
575.7068040610237
 21
661.3116910253
 31
0
  0
LINE
  8
1
 62
2
 10
571.6303334727884
 20
659.9116910252999
 30
0
 11
571.6303334727884
 21
661.3116910253
 31
0
  0
LINE
  8
1
 62
2
 10
573.668568766906
 20
662.1116910252999
 30
0
 11
573.668568766906
 21
661.3116910253
 31
0
  0
LINE
  8
1
 62
2
 10
569.6464511198471
 20
657.3116910253
 30
0
 11
570.1084511198471
 21
656.1116910252999
 31
0
  0
LINE
  8
1
 62
2
 10
569.4154511198472
 20
658.5116910252999
 30
0
 11
569.6464511198471
 21
657.3116910253
 31
0
  0
LINE
  8
1
 62
2
 10
569.4154511198472
 20
659.7116910253
 30
0
 11
569.4154511198472
 21
658.5116910252999
 31
0
  0
LINE
  8
1
 62
2
 10
569.6464511198471
 20
660.9116910252999
 30
0
 11
569.4154511198472
 21
659.7116910253
 31
0
  0
LINE
  8
1
 62
2
 10
570.1084511198471
 20
662.1116910252999
 30
0
 11
569.6464511198471
 21
660.9116910252999
 31
0
  0
LINE
  8
1
 62
2
 10
568.0294511198472
 20
656.1116910252999
 30
0
 11
568.0294511198472
 21
662.1116910252999
 31
0
  0
LINE
  8
1
 62
2
 10
566.2969511198471
 20
656.1116910252999
 30
0
 11
568.0294511198472
 21
656.1116910252999
 31
0
  0
LINE
  8
1
 62
2
 10
565.8349511198471
 20
656.2616910252999
 30
0
 11
566.2969511198471
 21
656.1116910252999
 31
0
  0
LINE
  8
1
 62
2
 10
565.6039511198471
 20
656.4116910252999
 30
0
 11
565.8349511198471
 21
656.2616910252999
 31
0
  0
LINE
  8
1
 62
2
 10
565.3729511198471
 20
656.7116910253
 30
0
 11
565.6039511198471
 21
656.4116910252999
 31
0
  0
LINE
  8
1
 62
2
 10
565.2574511198471
 20
657.3116910253
 30
0
 11
565.3729511198471
 21
656.7116910253
 31
0
  0
LINE
  8
1
 62
2
 10
565.2574511198471
 20
659.1116910252999
 30
0
 11
565.2574511198471
 21
657.3116910253
 31
0
  0
LINE
  8
1
 62
2
 10
565.3729511198471
 20
659.7116910253
 30
0
 11
565.2574511198471
 21
659.1116910252999
 31
0
  0
LINE
  8
1
 62
2
 10
565.6039511198471
 20
660.0116910252999
 30
0
 11
565.3729511198471
 21
659.7116910253
 31
0
  0
LINE
  8
1
 62
2
 10
565.8349511198471
 20
660.1616910252999
 30
0
 11
565.6039511198471
 21
660.0116910252999
 31
0
  0
LINE
  8
1
 62
2
 10
566.2969511198471
 20
660.3116910253
 30
0
 11
565.8349511198471
 21
660.1616910252999
 31
0
  0
LINE
  8
1
 62
2
 10
568.0294511198472
 20
660.3116910253
 30
0
 11
566.2969511198471
 21
660.3116910253
 31
0
  0
LINE
  8
1
 62
2
 10
562.6756864139649
 20
661.3116910253
 30
0
 11
561.3168628845531
 21
654.5116910252999
 31
0
  0
LINE
  8
1
 62
2
 10
562.9474511198472
 20
659.7116910253
 30
0
 11
562.4039217080825
 21
659.9116910252999
 31
0
  0
LINE
  8
1
 62
2
 10
563.2192158257295
 20
659.3116910253
 30
0
 11
562.9474511198472
 21
659.7116910253
 31
0
  0
LINE
  8
1
 62
2
 10
563.3550981786707
 20
658.7116910253
 30
0
 11
563.2192158257295
 21
659.3116910253
 31
0
  0
LINE
  8
1
 62
2
 10
563.3550981786707
 20
657.7116910253
 30
0
 11
563.3550981786707
 21
658.7116910253
 31
0
  0
LINE
  8
1
 62
2
 10
563.0833334727884
 20
656.9116910252999
 30
0
 11
563.3550981786707
 21
657.7116910253
 31
0
  0
LINE
  8
1
 62
2
 10
562.811568766906
 20
656.5116910252999
 30
0
 11
563.0833334727884
 21
656.9116910252999
 31
0
  0
LINE
  8
1
 62
2
 10
562.2680393551414
 20
656.1116910252999
 30
0
 11
562.811568766906
 21
656.5116910252999
 31
0
  0
LINE
  8
1
 62
2
 10
561.7245099433766
 20
655.9116910252999
 30
0
 11
562.2680393551414
 21
656.1116910252999
 31
0
  0
LINE
  8
1
 62
2
 10
561.3168628845531
 20
656.1116910252999
 30
0
 11
561.7245099433766
 21
655.9116910252999
 31
0
  0
LINE
  8
1
 62
2
 10
560.9092158257296
 20
656.5116910252999
 30
0
 11
561.3168628845531
 21
656.1116910252999
 31
0
  0
LINE
  8
1
 62
2
 10
560.7733334727884
 20
657.1116910252999
 30
0
 11
560.9092158257296
 21
656.5116910252999
 31
0
  0
LINE
  8
1
 62
2
 10
560.7733334727884
 20
657.9116910252999
 30
0
 11
560.7733334727884
 21
657.1116910252999
 31
0
  0
LINE
  8
1
 62
2
 10
560.9092158257296
 20
658.5116910252999
 30
0
 11
560.7733334727884
 21
657.9116910252999
 31
0
  0
LINE
  8
1
 62
2
 10
561.3168628845531
 20
659.1116910252999
 30
0
 11
560.9092158257296
 21
658.5116910252999
 31
0
  0
LINE
  8
1
 62
2
 10
561.7245099433766
 20
659.5116910252999
 30
0
 11
561.3168628845531
 21
659.1116910252999
 31
0
  0
LINE
  8
1
 62
2
 10
562.4039217080825
 20
659.9116910252999
 30
0
 11
561.7245099433766
 21
659.5116910252999
 31
0
  0
LINE
  8
1
 62
2
 10
543.7718903476472
 20
657.3116910253
 30
0
 11
543.3098903476472
 21
656.1116910252999
 31
0
  0
LINE
  8
1
 62
2
 10
544.0028903476472
 20
658.5116910252999
 30
0
 11
543.7718903476472
 21
657.3116910253
 31
0
  0
LINE
  8
1
 62
2
 10
544.0028903476472
 20
659.7116910253
 30
0
 11
544.0028903476472
 21
658.5116910252999
 31
0
  0
LINE
  8
1
 62
2
 10
543.7718903476472
 20
660.9116910252999
 30
0
 11
544.0028903476472
 21
659.7116910253
 31
0
  0
LINE
  8
1
 62
2
 10
543.3098903476472
 20
662.1116910252999
 30
0
 11
543.7718903476472
 21
660.9116910252999
 31
0
  0
LINE
  8
1
 62
2
 10
541.4075374064706
 20
657.5116910252999
 30
0
 11
542.0869491711766
 21
656.3116910253
 31
0
  0
LINE
  8
1
 62
2
 10
540.864007994706
 20
658.9116910252999
 30
0
 11
541.4075374064706
 21
657.5116910252999
 31
0
  0
LINE
  8
1
 62
2
 10
540.5922432888236
 20
660.5116910252999
 30
0
 11
540.864007994706
 21
658.9116910252999
 31
0
  0
LINE
  8
1
 62
2
 10
540.7281256417648
 20
657.5116910252999
 30
0
 11
539.9128315241177
 21
656.1116910252999
 31
0
  0
LINE
  8
1
 62
2
 10
541.4075374064706
 20
659.1116910252999
 30
0
 11
540.7281256417648
 21
657.5116910252999
 31
0
  0
LINE
  8
1
 62
2
 10
541.679302112353
 20
661.1116910252999
 30
0
 11
541.4075374064706
 21
659.1116910252999
 31
0
  0
LINE
  8
1
 62
2
 10
540.7281256417648
 20
661.1116910252999
 30
0
 11
542.0869491711766
 21
661.1116910252999
 31
0
  0
LINE
  8
1
 62
2
 10
540.5922432888236
 20
660.5116910252999
 30
0
 11
540.18459623
 21
659.3116910253
 31
0
  0
LINE
  8
1
 62
2
 10
540.7281256417648
 20
661.1116910252999
 30
0
 11
540.5922432888236
 21
660.5116910252999
 31
0
  0
LINE
  8
1
 62
2
 10
540.7281256417648
 20
662.1116910252999
 30
0
 11
540.7281256417648
 21
661.1116910252999
 31
0
  0
LINE
  8
1
 62
2
 10
538.0104785829412
 20
658.5116910252999
 30
0
 11
540.3204785829413
 21
658.5116910252999
 31
0
  0
LINE
  8
1
 62
2
 10
539.2334197594119
 20
657.1116910252999
 30
0
 11
538.1463609358824
 21
656.1116910252999
 31
0
  0
LINE
  8
1
 62
2
 10
539.9128315241177
 20
658.5116910252999
 30
0
 11
539.2334197594119
 21
657.1116910252999
 31
0
  0
LINE
  8
1
 62
2
 10
538.2822432888236
 20
657.5116910252999
 30
0
 11
539.9128315241177
 21
656.7116910253
 31
0
  0
LINE
  8
1
 62
2
 10
538.9616550535295
 20
658.9116910252999
 30
0
 11
538.2822432888236
 21
657.5116910252999
 31
0
  0
LINE
  8
1
 62
2
 10
539.0975374064707
 20
660.9116910252999
 30
0
 11
540.0487138770588
 21
659.5116910252999
 31
0
  0
LINE
  8
1
 62
2
 10
539.0975374064707
 20
660.9116910252999
 30
0
 11
538.0104785829412
 21
659.1116910252999
 31
0
  0
LINE
  8
1
 62
2
 10
539.0975374064707
 20
662.1116910252999
 30
0
 11
539.0975374064707
 21
659.3116910253
 31
0
  0
LINE
  8
1
 62
2
 10
538.0104785829412
 20
660.9116910252999
 30
0
 11
540.18459623
 21
660.9116910252999
 31
0
  0
LINE
  8
1
 62
2
 10
540.0487138770588
 20
661.7116910253
 30
0
 11
539.5051844652942
 21
661.1116910252999
 31
0
  0
LINE
  8
1
 62
2
 10
538.2822432888236
 20
661.7116910253
 30
0
 11
538.6898903476472
 21
661.1116910252999
 31
0
  0
LINE
  8
1
 62
2
 10
536.0265962300001
 20
657.3116910253
 30
0
 11
536.4885962300001
 21
656.1116910252999
 31
0
  0
LINE
  8
1
 62
2
 10
535.7955962300001
 20
658.5116910252999
 30
0
 11
536.0265962300001
 21
657.3116910253
 31
0
  0
LINE
  8
1
 62
2
 10
535.7955962300001
 20
659.7116910253
 30
0
 11
535.7955962300001
 21
658.5116910252999
 31
0
  0
LINE
  8
1
 62
2
 10
536.0265962300001
 20
660.9116910252999
 30
0
 11
535.7955962300001
 21
659.7116910253
 31
0
  0
LINE
  8
1
 62
2
 10
536.4885962300001
 20
662.1116910252999
 30
0
 11
536.0265962300001
 21
660.9116910252999
 31
0
  0
LINE
  8
1
 62
2
 10
534.4095962300002
 20
659.5616910253
 30
0
 11
534.4095962300002
 21
656.1116910252999
 31
0
  0
LINE
  8
1
 62
2
 10
534.2940962300002
 20
659.8616910252999
 30
0
 11
534.4095962300002
 21
659.5616910253
 31
0
  0
LINE
  8
1
 62
2
 10
534.0630962300002
 20
660.1616910252999
 30
0
 11
534.2940962300002
 21
659.8616910252999
 31
0
  0
LINE
  8
1
 62
2
 10
533.7165962300001
 20
660.3116910253
 30
0
 11
534.0630962300002
 21
660.1616910252999
 31
0
  0
LINE
  8
1
 62
2
 10
531.6375962300001
 20
660.3116910253
 30
0
 11
533.7165962300001
 21
660.3116910253
 31
0
  0
LINE
  8
1
 62
2
 10
531.6375962300001
 20
656.1116910252999
 30
0
 11
531.6375962300001
 21
660.3116910253
 31
0
  0
LINE
  8
1
 62
2
 10
567.3945331304118
 20
668.1225095940999
 30
0
 11
568.2098272480589
 21
666.5225095940999
 31
0
  0
LINE
  8
1
 62
2
 10
566.9868860715883
 20
670.3225095940999
 30
0
 11
567.3945331304118
 21
668.1225095940999
 31
0
  0
LINE
  8
1
 62
2
 10
565.220415483353
 20
670.3225095940999
 30
0
 11
566.9868860715883
 21
670.3225095940999
 31
0
  0
LINE
  8
1
 62
2
 10
565.220415483353
 20
669.5225095940999
 30
0
 11
564.1333566598236
 21
666.5225095940999
 31
0
  0
LINE
  8
1
 62
2
 10
568.2098272480589
 20
671.7225095941
 30
0
 11
567.9380625421766
 21
670.3225095940999
 31
0
  0
LINE
  8
1
 62
2
 10
564.1333566598236
 20
671.7225095941
 30
0
 11
568.2098272480589
 21
671.7225095941
 31
0
  0
LINE
  8
1
 62
2
 10
564.1333566598236
 20
670.3225095940999
 30
0
 11
564.1333566598236
 21
671.7225095941
 31
0
  0
LINE
  8
1
 62
2
 10
566.1715919539412
 20
672.5225095940999
 30
0
 11
566.1715919539412
 21
671.7225095941
 31
0
  0
LINE
  8
1
 62
2
 10
560.1927684245295
 20
670.1225095940999
 30
0
 11
562.095121365706
 21
668.9225095940999
 31
0
  0
LINE
  8
1
 62
2
 10
560.1927684245295
 20
672.1225095940999
 30
0
 11
560.1927684245295
 21
667.1225095940999
 31
0
  0
LINE
  8
1
 62
2
 10
556.9315919539412
 20
668.7225095941
 30
0
 11
557.2033566598236
 21
669.5225095940999
 31
0
  0
LINE
  8
1
 62
2
 10
556.5239448951177
 20
667.9225095940999
 30
0
 11
556.9315919539412
 21
668.7225095941
 31
0
  0
LINE
  8
1
 62
2
 10
555.7086507774707
 20
667.5225095940999
 30
0
 11
556.5239448951177
 21
667.9225095940999
 31
0
  0
LINE
  8
1
 62
2
 10
555.7086507774707
 20
671.5225095940999
 30
0
 11
555.7086507774707
 21
667.5225095940999
 31
0
  0
LINE
  8
1
 62
2
 10
554.2139448951177
 20
668.3225095940999
 30
0
 11
553.5345331304118
 21
667.3225095940999
 31
0
  0
LINE
  8
1
 62
2
 10
554.4857096010001
 20
669.3225095940999
 30
0
 11
554.2139448951177
 21
668.3225095940999
 31
0
  0
LINE
  8
1
 62
2
 10
554.4857096010001
 20
671.3225095940999
 30
0
 11
554.4857096010001
 21
669.3225095940999
 31
0
  0
LINE
  8
1
 62
2
 10
551.6321801892354
 20
672.5225095940999
 30
0
 11
551.9039448951178
 21
671.7225095941
 31
0
  0
LINE
  8
1
 62
2
 10
551.0886507774707
 20
672.5225095940999
 30
0
 11
551.360415483353
 21
671.7225095941
 31
0
  0
LINE
  8
1
 62
2
 10
550.9527684245295
 20
669.3225095940999
 30
0
 11
551.6321801892354
 21
667.5225095940999
 31
0
  0
LINE
  8
1
 62
2
 10
548.9145331304119
 20
669.3225095940999
 30
0
 11
548.2351213657059
 21
667.5225095940999
 31
0
  0
LINE
  8
1
 62
2
 10
550.0015919539412
 20
672.1225095940999
 30
0
 11
550.0015919539412
 21
666.9225095940999
 31
0
  0
LINE
  8
1
 62
2
 10
548.3710037186471
 20
670.7225095941
 30
0
 11
551.6321801892354
 21
670.7225095941
 31
0
  0
LINE
  8
1
 62
2
 10
508.0597019082002
 20
661.6632846846999
 30
0
 11
506.3272019082002
 21
661.6632846846999
 31
0
  0
LINE
  8
1
 62
2
 10
508.4062019082002
 20
661.8132846846999
 30
0
 11
508.0597019082002
 21
661.6632846846999
 31
0
  0
LINE
  8
1
 62
2
 10
508.7527019082002
 20
662.1132846846999
 30
0
 11
508.4062019082002
 21
661.8132846846999
 31
0
  0
LINE
  8
1
 62
2
 10
508.9837019082002
 20
662.5632846846999
 30
0
 11
508.7527019082002
 21
662.1132846846999
 31
0
  0
LINE
  8
1
 62
2
 10
509.0992019082002
 20
663.1632846846999
 30
0
 11
508.9837019082002
 21
662.5632846846999
 31
0
  0
LINE
  8
1
 62
2
 10
509.0992019082002
 20
663.9132846846999
 30
0
 11
509.0992019082002
 21
663.1632846846999
 31
0
  0
LINE
  8
1
 62
2
 10
508.9837019082002
 20
664.5132846846999
 30
0
 11
509.0992019082002
 21
663.9132846846999
 31
0
  0
LINE
  8
1
 62
2
 10
508.8682019082002
 20
664.8132846846999
 30
0
 11
508.9837019082002
 21
664.5132846846999
 31
0
  0
LINE
  8
1
 62
2
 10
508.6372019082002
 20
665.1132846846999
 30
0
 11
508.8682019082002
 21
664.8132846846999
 31
0
  0
LINE
  8
1
 62
2
 10
508.1752019082002
 20
665.2632846846999
 30
0
 11
508.6372019082002
 21
665.1132846846999
 31
0
  0
LINE
  8
1
 62
2
 10
508.5217019082002
 20
665.4132846846999
 30
0
 11
508.1752019082002
 21
665.2632846846999
 31
0
  0
LINE
  8
1
 62
2
 10
508.7527019082002
 20
665.5632846846999
 30
0
 11
508.5217019082002
 21
665.4132846846999
 31
0
  0
LINE
  8
1
 62
2
 10
508.9837019082002
 20
665.8632846846999
 30
0
 11
508.7527019082002
 21
665.5632846846999
 31
0
  0
LINE
  8
1
 62
2
 10
509.0992019082002
 20
666.3132846846999
 30
0
 11
508.9837019082002
 21
665.8632846846999
 31
0
  0
LINE
  8
1
 62
2
 10
509.0992019082002
 20
666.7632846846999
 30
0
 11
509.0992019082002
 21
666.3132846846999
 31
0
  0
LINE
  8
1
 62
2
 10
508.9837019082002
 20
667.2132846846998
 30
0
 11
509.0992019082002
 21
666.7632846846999
 31
0
  0
LINE
  8
1
 62
2
 10
508.6372019082002
 20
667.5132846846999
 30
0
 11
508.9837019082002
 21
667.2132846846998
 31
0
  0
LINE
  8
1
 62
2
 10
508.0597019082002
 20
667.6632846846999
 30
0
 11
508.6372019082002
 21
667.5132846846999
 31
0
  0
LINE
  8
1
 62
2
 10
506.3272019082002
 20
667.6632846846999
 30
0
 11
508.0597019082002
 21
667.6632846846999
 31
0
  0
LINE
  8
1
 62
2
 10
507.0202019082002
 20
665.2632846846999
 30
0
 11
508.1752019082002
 21
665.2632846846999
 31
0
  0
LINE
  8
1
 62
2
 10
504.8257019082002
 20
666.4632846846998
 30
0
 11
504.9412019082002
 21
665.8632846846999
 31
0
  0
LINE
  8
1
 62
2
 10
504.5947019082002
 20
666.9132846846999
 30
0
 11
504.8257019082002
 21
666.4632846846998
 31
0
  0
LINE
  8
1
 62
2
 10
504.3637019082002
 20
667.2132846846998
 30
0
 11
504.5947019082002
 21
666.9132846846999
 31
0
  0
LINE
  8
1
 62
2
 10
504.0172019082002
 20
667.5132846846999
 30
0
 11
504.3637019082002
 21
667.2132846846998
 31
0
  0
LINE
  8
1
 62
2
 10
503.5552019082002
 20
667.6632846846999
 30
0
 11
504.0172019082002
 21
667.5132846846999
 31
0
  0
LINE
  8
1
 62
2
 10
501.7072019082002
 20
667.6632846846999
 30
0
 11
503.5552019082002
 21
667.6632846846999
 31
0
  0
LINE
  8
1
 62
2
 10
501.7072019082002
 20
661.6632846846999
 30
0
 11
501.7072019082002
 21
667.6632846846999
 31
0
  0
LINE
  8
1
 62
2
 10
503.5552019082002
 20
661.6632846846999
 30
0
 11
501.7072019082002
 21
661.6632846846999
 31
0
  0
LINE
  8
1
 62
2
 10
504.0172019082002
 20
661.8132846846999
 30
0
 11
503.5552019082002
 21
661.6632846846999
 31
0
  0
LINE
  8
1
 62
2
 10
504.3637019082002
 20
662.1132846846999
 30
0
 11
504.0172019082002
 21
661.8132846846999
 31
0
  0
LINE
  8
1
 62
2
 10
504.5947019082002
 20
662.4132846846999
 30
0
 11
504.3637019082002
 21
662.1132846846999
 31
0
  0
LINE
  8
1
 62
2
 10
504.8257019082002
 20
662.8632846846999
 30
0
 11
504.5947019082002
 21
662.4132846846999
 31
0
  0
LINE
  8
1
 62
2
 10
504.9412019082002
 20
663.4632846846998
 30
0
 11
504.8257019082002
 21
662.8632846846999
 31
0
  0
LINE
  8
1
 62
2
 10
504.9412019082002
 20
665.8632846846999
 30
0
 11
504.9412019082002
 21
663.4632846846998
 31
0
  0
LINE
  8
1
 62
2
 10
471.1593078685999
 20
661.6632846846999
 30
0
 11
473.9313078685999
 21
661.6632846846999
 31
0
  0
LINE
  8
1
 62
2
 10
473.7003078685999
 20
665.5632846846999
 30
0
 11
471.1593078685999
 21
661.6632846846999
 31
0
  0
LINE
  8
1
 62
2
 10
473.9313078685999
 20
666.1632846846999
 30
0
 11
473.7003078685999
 21
665.5632846846999
 31
0
  0
LINE
  8
1
 62
2
 10
473.9313078685999
 20
666.7632846846999
 30
0
 11
473.9313078685999
 21
666.1632846846999
 31
0
  0
LINE
  8
1
 62
2
 10
473.7003078685999
 20
667.2132846846998
 30
0
 11
473.9313078685999
 21
666.7632846846999
 31
0
  0
LINE
  8
1
 62
2
 10
473.3538078685999
 20
667.5132846846999
 30
0
 11
473.7003078685999
 21
667.2132846846998
 31
0
  0
LINE
  8
1
 62
2
 10
472.8918078685999
 20
667.6632846846999
 30
0
 11
473.3538078685999
 21
667.5132846846999
 31
0
  0
LINE
  8
1
 62
2
 10
472.1988078685999
 20
667.6632846846999
 30
0
 11
472.8918078685999
 21
667.6632846846999
 31
0
  0
LINE
  8
1
 62
2
 10
471.7368078685999
 20
667.5132846846999
 30
0
 11
472.1988078685999
 21
667.6632846846999
 31
0
  0
LINE
  8
1
 62
2
 10
471.3903078685999
 20
667.2132846846998
 30
0
 11
471.7368078685999
 21
667.5132846846999
 31
0
  0
LINE
  8
1
 62
2
 10
471.1593078685999
 20
666.7632846846999
 30
0
 11
471.3903078685999
 21
667.2132846846998
 31
0
  0
LINE
  8
1
 62
2
 10
469.6578078685999
 20
666.4632846846998
 30
0
 11
469.7733078685999
 21
665.8632846846999
 31
0
  0
LINE
  8
1
 62
2
 10
469.4268078685999
 20
666.9132846846999
 30
0
 11
469.6578078685999
 21
666.4632846846998
 31
0
  0
LINE
  8
1
 62
2
 10
469.1958078685999
 20
667.2132846846998
 30
0
 11
469.4268078685999
 21
666.9132846846999
 31
0
  0
LINE
  8
1
 62
2
 10
468.8493078685999
 20
667.5132846846999
 30
0
 11
469.1958078685999
 21
667.2132846846998
 31
0
  0
LINE
  8
1
 62
2
 10
468.3873078685999
 20
667.6632846846999
 30
0
 11
468.8493078685999
 21
667.5132846846999
 31
0
  0
LINE
  8
1
 62
2
 10
466.5393078685999
 20
667.6632846846999
 30
0
 11
468.3873078685999
 21
667.6632846846999
 31
0
  0
LINE
  8
1
 62
2
 10
466.5393078685999
 20
661.6632846846999
 30
0
 11
466.5393078685999
 21
667.6632846846999
 31
0
  0
LINE
  8
1
 62
2
 10
468.3873078685999
 20
661.6632846846999
 30
0
 11
466.5393078685999
 21
661.6632846846999
 31
0
  0
LINE
  8
1
 62
2
 10
468.8493078685999
 20
661.8132846846999
 30
0
 11
468.3873078685999
 21
661.6632846846999
 31
0
  0
LINE
  8
1
 62
2
 10
469.1958078685999
 20
662.1132846846999
 30
0
 11
468.8493078685999
 21
661.8132846846999
 31
0
  0
LINE
  8
1
 62
2
 10
469.4268078685999
 20
662.4132846846999
 30
0
 11
469.1958078685999
 21
662.1132846846999
 31
0
  0
LINE
  8
1
 62
2
 10
469.6578078685999
 20
662.8632846846999
 30
0
 11
469.4268078685999
 21
662.4132846846999
 31
0
  0
LINE
  8
1
 62
2
 10
469.7733078685999
 20
663.4632846846998
 30
0
 11
469.6578078685999
 21
662.8632846846999
 31
0
  0
LINE
  8
1
 62
2
 10
469.7733078685999
 20
665.8632846846999
 30
0
 11
469.7733078685999
 21
663.4632846846998
 31
0
  0
LINE
  8
1
 62
2
 10
437.3774138292
 20
667.6632846846999
 30
0
 11
437.3774138292
 21
661.6632846846999
 31
0
  0
LINE
  8
1
 62
2
 10
435.9914138292
 20
665.8632846846999
 30
0
 11
437.3774138292
 21
667.6632846846999
 31
0
  0
LINE
  8
1
 62
2
 10
434.4899138292
 20
666.4632846846998
 30
0
 11
434.6054138292
 21
665.8632846846999
 31
0
  0
LINE
  8
1
 62
2
 10
434.2589138292
 20
666.9132846846999
 30
0
 11
434.4899138292
 21
666.4632846846998
 31
0
  0
LINE
  8
1
 62
2
 10
434.0279138292
 20
667.2132846846998
 30
0
 11
434.2589138292
 21
666.9132846846999
 31
0
  0
LINE
  8
1
 62
2
 10
433.6814138292
 20
667.5132846846999
 30
0
 11
434.0279138292
 21
667.2132846846998
 31
0
  0
LINE
  8
1
 62
2
 10
433.2194138292
 20
667.6632846846999
 30
0
 11
433.6814138292
 21
667.5132846846999
 31
0
  0
LINE
  8
1
 62
2
 10
431.3714138292
 20
667.6632846846999
 30
0
 11
433.2194138292
 21
667.6632846846999
 31
0
  0
LINE
  8
1
 62
2
 10
431.3714138292
 20
661.6632846846999
 30
0
 11
431.3714138292
 21
667.6632846846999
 31
0
  0
LINE
  8
1
 62
2
 10
433.2194138292
 20
661.6632846846999
 30
0
 11
431.3714138292
 21
661.6632846846999
 31
0
  0
LINE
  8
1
 62
2
 10
433.6814138292
 20
661.8132846846999
 30
0
 11
433.2194138292
 21
661.6632846846999
 31
0
  0
LINE
  8
1
 62
2
 10
434.0279138292
 20
662.1132846846999
 30
0
 11
433.6814138292
 21
661.8132846846999
 31
0
  0
LINE
  8
1
 62
2
 10
434.2589138292
 20
662.4132846846999
 30
0
 11
434.0279138292
 21
662.1132846846999
 31
0
  0
LINE
  8
1
 62
2
 10
434.4899138292
 20
662.8632846846999
 30
0
 11
434.2589138292
 21
662.4132846846999
 31
0
  0
LINE
  8
1
 62
2
 10
434.6054138292
 20
663.4632846846998
 30
0
 11
434.4899138292
 21
662.8632846846999
 31
0
  0
LINE
  8
1
 62
2
 10
434.6054138292
 20
665.8632846846999
 30
0
 11
434.6054138292
 21
663.4632846846998
 31
0
  0
LINE
  8
1
 62
2
 10
136.8766488833882
 20
346.9464546746
 30
0
 11
136.8766488833882
 21
344.1464546746
 31
0
  0
LINE
  8
1
 62
2
 10
135.5857665304471
 20
344.9464546746
 30
0
 11
137.7598841775059
 21
344.9464546746
 31
0
  0
LINE
  8
1
 62
2
 10
135.9934135892706
 20
346.1464546746
 30
0
 11
135.9934135892706
 21
344.9464546746
 31
0
  0
LINE
  8
1
 62
2
 10
137.6919430010353
 20
346.1464546746
 30
0
 11
135.9934135892706
 21
346.1464546746
 31
0
  0
LINE
  8
1
 62
2
 10
136.0613547657412
 20
346.9464546746
 30
0
 11
137.7598841775059
 21
346.9464546746
 31
0
  0
LINE
  8
1
 62
2
 10
136.0613547657412
 20
346.9464546746
 30
0
 11
135.7216488833882
 21
346.3464546746
 31
0
  0
LINE
  8
1
 62
2
 10
136.1972371186824
 20
347.3464546746
 30
0
 11
136.0613547657412
 21
346.9464546746
 31
0
  0
LINE
  8
1
 62
2
 10
133.6834135892706
 20
344.6464546746
 30
0
 11
133.6834135892706
 21
345.6464546746
 31
0
  0
LINE
  8
1
 62
2
 10
134.7704724128
 20
344.6464546746
 30
0
 11
133.6834135892706
 21
344.6464546746
 31
0
  0
LINE
  8
1
 62
2
 10
134.7704724128
 20
345.6464546746
 30
0
 11
134.7704724128
 21
344.6464546746
 31
0
  0
LINE
  8
1
 62
2
 10
133.6834135892706
 20
345.6464546746
 30
0
 11
134.7704724128
 21
345.6464546746
 31
0
  0
LINE
  8
1
 62
2
 10
134.2269430010353
 20
347.2464546746
 30
0
 11
134.2269430010353
 21
346.0464546746
 31
0
  0
LINE
  8
1
 62
2
 10
133.4116488833882
 20
346.0464546746
 30
0
 11
134.9742959422118
 21
346.0464546746
 31
0
  0
LINE
  8
1
 62
2
 10
133.6154724128
 20
346.7464546746
 30
0
 11
134.9063547657412
 21
346.7464546746
 31
0
  0
LINE
  8
1
 62
2
 10
133.6154724128
 20
346.7464546746
 30
0
 11
133.4116488833882
 21
346.3464546746
 31
0
  0
LINE
  8
1
 62
2
 10
133.6834135892706
 20
347.1464546746
 30
0
 11
133.6154724128
 21
346.7464546746
 31
0
  0
LINE
  8
1
 62
2
 10
133.8872371186824
 20
344.2464546746
 30
0
 11
135.0422371186824
 21
344.2464546746
 31
0
  0
LINE
  8
1
 62
2
 10
133.2757665304471
 20
344.9464546746
 30
0
 11
133.8872371186824
 21
344.2464546746
 31
0
  0
LINE
  8
1
 62
2
 10
133.2757665304471
 20
344.9464546746
 30
0
 11
132.9360606480941
 21
344.2464546746
 31
0
  0
LINE
  8
1
 62
2
 10
133.2757665304471
 20
345.9464546746
 30
0
 11
133.2757665304471
 21
344.9464546746
 31
0
  0
LINE
  8
1
 62
2
 10
132.9360606480941
 20
345.9464546746
 30
0
 11
133.2757665304471
 21
345.9464546746
 31
0
  0
LINE
  8
1
 62
2
 10
133.0040018245647
 20
347.1464546746
 30
0
 11
133.3437077069177
 21
346.6464546746
 31
0
  0
LINE
  8
1
 62
2
 10
131.645178295153
 20
345.2464546746
 30
0
 11
131.8490018245647
 21
344.5464546746
 31
0
  0
LINE
  8
1
 62
2
 10
132.1207665304471
 20
344.2464546746
 30
0
 11
131.5772371186824
 21
344.4464546746
 31
0
  0
LINE
  8
1
 62
2
 10
132.1207665304471
 20
346.1464546746
 30
0
 11
132.1207665304471
 21
344.2464546746
 31
0
  0
LINE
  8
1
 62
2
 10
131.1695900598589
 20
345.4464546746
 30
0
 11
132.3245900598589
 21
345.4464546746
 31
0
  0
LINE
  8
1
 62
2
 10
131.5772371186824
 20
345.8464546746
 30
0
 11
131.1695900598589
 21
344.5464546746
 31
0
  0
LINE
  8
1
 62
2
 10
131.645178295153
 20
347.2464546746
 30
0
 11
131.5772371186824
 21
345.8464546746
 31
0
  0
LINE
  8
1
 62
2
 10
131.1016488833882
 20
346.1464546746
 30
0
 11
132.3245900598589
 21
346.1464546746
 31
0
  0
LINE
  8
1
 62
2
 10
131.2375312363294
 20
346.5464546746
 30
0
 11
132.1887077069177
 21
346.5464546746
 31
0
  0
LINE
  8
1
 62
2
 10
131.1695900598589
 20
346.9464546746
 30
0
 11
132.2566488833882
 21
346.9464546746
 31
0
  0
LINE
  8
1
 62
2
 10
130.2184135892706
 20
344.2464546746
 30
0
 11
131.0337077069177
 21
344.4464546746
 31
0
  0
LINE
  8
1
 62
2
 10
131.0337077069177
 20
345.3464546746
 30
0
 11
130.8978253539765
 21
344.6464546746
 31
0
  0
LINE
  8
1
 62
2
 10
130.2863547657412
 20
345.3464546746
 30
0
 11
130.4222371186824
 21
344.5464546746
 31
0
  0
LINE
  8
1
 62
2
 10
130.6260606480941
 20
346.2464546746
 30
0
 11
130.6260606480941
 21
344.3464546746
 31
0
  0
LINE
  8
1
 62
2
 10
130.2184135892706
 20
345.6464546746
 30
0
 11
131.0337077069177
 21
345.6464546746
 31
0
  0
LINE
  8
1
 62
2
 10
130.2863547657412
 20
346.2464546746
 30
0
 11
130.9657665304471
 21
346.2464546746
 31
0
  0
LINE
  8
1
 62
2
 10
130.6940018245647
 20
347.1464546746
 30
0
 11
131.0337077069177
 21
346.5464546746
 31
0
  0
LINE
  8
1
 62
2
 10
130.2184135892706
 20
346.4464546746
 30
0
 11
130.6940018245647
 21
347.1464546746
 31
0
  0
LINE
  8
1
 62
2
 10
219.8248346041823
 20
344.1464546746
 30
0
 11
218.8057169571235
 21
344.4464546746
 31
0
  0
LINE
  8
1
 62
2
 10
220.3004228394765
 20
344.5464546746
 30
0
 11
219.8248346041823
 21
344.1464546746
 31
0
  0
LINE
  8
1
 62
2
 10
220.3683640159471
 20
345.2464546746
 30
0
 11
220.3004228394765
 21
344.5464546746
 31
0
  0
LINE
  8
1
 62
2
 10
219.0774816630059
 20
345.2464546746
 30
0
 11
220.3683640159471
 21
345.2464546746
 31
0
  0
LINE
  8
1
 62
2
 10
219.2133640159471
 20
345.9464546746
 30
0
 11
219.0774816630059
 21
345.2464546746
 31
0
  0
LINE
  8
1
 62
2
 10
218.5339522512412
 20
345.9464546746
 30
0
 11
220.5721875453588
 21
345.9464546746
 31
0
  0
LINE
  8
1
 62
2
 10
218.8057169571235
 20
346.2464546746
 30
0
 11
218.8057169571235
 21
347.1464546746
 31
0
  0
LINE
  8
1
 62
2
 10
220.3683640159471
 20
346.2464546746
 30
0
 11
218.8057169571235
 21
346.2464546746
 31
0
  0
LINE
  8
1
 62
2
 10
220.3683640159471
 20
347.1464546746
 30
0
 11
220.3683640159471
 21
346.2464546746
 31
0
  0
LINE
  8
1
 62
2
 10
218.8057169571235
 20
347.1464546746
 30
0
 11
220.3683640159471
 21
347.1464546746
 31
0
  0
LINE
  8
1
 62
2
 10
217.8545404865353
 20
344.2464546746
 30
0
 11
217.8545404865353
 21
344.9464546746
 31
0
  0
LINE
  8
1
 62
2
 10
216.8354228394765
 20
344.2464546746
 30
0
 11
217.8545404865353
 21
344.2464546746
 31
0
  0
LINE
  8
1
 62
2
 10
216.8354228394765
 20
345.9464546746
 30
0
 11
216.8354228394765
 21
344.2464546746
 31
0
  0
LINE
  8
1
 62
2
 10
217.7186581335941
 20
345.9464546746
 30
0
 11
216.8354228394765
 21
345.9464546746
 31
0
  0
LINE
  8
1
 62
2
 10
217.7186581335941
 20
347.1464546746
 30
0
 11
217.7186581335941
 21
345.9464546746
 31
0
  0
LINE
  8
1
 62
2
 10
216.7674816630059
 20
347.1464546746
 30
0
 11
217.7186581335941
 21
347.1464546746
 31
0
  0
LINE
  8
1
 62
2
 10
215.8842463688882
 20
344.2464546746
 30
0
 11
215.8842463688882
 21
345.2464546746
 31
0
  0
LINE
  8
1
 62
2
 10
216.6315993100647
 20
344.2464546746
 30
0
 11
215.8842463688882
 21
344.2464546746
 31
0
  0
LINE
  8
1
 62
2
 10
216.6315993100647
 20
345.2464546746
 30
0
 11
216.6315993100647
 21
344.2464546746
 31
0
  0
LINE
  8
1
 62
2
 10
215.8842463688882
 20
345.2464546746
 30
0
 11
216.6315993100647
 21
345.2464546746
 31
0
  0
LINE
  8
1
 62
2
 10
215.9521875453588
 20
345.6464546746
 30
0
 11
216.5636581335941
 21
345.6464546746
 31
0
  0
LINE
  8
1
 62
2
 10
215.9521875453588
 20
346.1464546746
 30
0
 11
216.5636581335941
 21
346.1464546746
 31
0
  0
LINE
  8
1
 62
2
 10
215.8163051924176
 20
346.6464546746
 30
0
 11
216.6995404865353
 21
346.6464546746
 31
0
  0
LINE
  8
1
 62
2
 10
215.9521875453588
 20
347.1464546746
 30
0
 11
216.5636581335941
 21
347.1464546746
 31
0
  0
LINE
  8
1
 62
2
 10
214.9330698983
 20
347.1464546746
 30
0
 11
214.9330698983
 21
344.2464546746
 31
0
  0
LINE
  8
1
 62
2
 10
214.0498346041824
 20
344.7464546746
 30
0
 11
215.1368934277118
 21
345.0464546746
 31
0
  0
LINE
  8
1
 62
2
 10
214.117775780653
 20
346.1464546746
 30
0
 11
214.7292463688882
 21
345.3464546746
 31
0
  0
LINE
  8
1
 62
2
 10
214.1857169571235
 20
347.0464546746
 30
0
 11
214.7292463688882
 21
346.3464546746
 31
0
  0
LINE
  8
1
 62
2
 10
213.5063051924176
 20
345.9464546746
 30
0
 11
213.9818934277118
 21
345.0464546746
 31
0
  0
LINE
  8
1
 62
2
 10
213.5063051924176
 20
345.9464546746
 30
0
 11
213.0986581335941
 21
344.7464546746
 31
0
  0
LINE
  8
1
 62
2
 10
213.5063051924176
 20
347.2464546746
 30
0
 11
213.5063051924176
 21
344.2464546746
 31
0
  0
LINE
  8
1
 62
2
 10
213.0986581335941
 20
345.9464546746
 30
0
 11
213.9818934277118
 21
345.9464546746
 31
0
  0
LINE
  8
1
 62
2
 10
213.9818934277118
 20
347.0464546746
 30
0
 11
213.7101287218294
 21
346.2464546746
 31
0
  0
LINE
  8
1
 62
2
 10
213.1665993100647
 20
347.0464546746
 30
0
 11
213.3024816630059
 21
346.1464546746
 31
0
  0
LINE
  8
1
 62
2
 10
212.1474816630059
 20
346.7464546746
 30
0
 11
211.1963051924176
 21
344.9464546746
 31
0
  0
LINE
  8
1
 62
2
 10
212.1474816630059
 20
344.2464546746
 30
0
 11
211.5360110747706
 21
344.6464546746
 31
0
  0
LINE
  8
1
 62
2
 10
212.1474816630059
 20
347.2464546746
 30
0
 11
212.1474816630059
 21
344.2464546746
 31
0
  0
LINE
  8
1
 62
2
 10
211.3321875453588
 20
346.7464546746
 30
0
 11
212.4192463688882
 21
346.7464546746
 31
0
  0
LINE
  8
1
 62
2
 10
210.7886581335941
 20
346.7464546746
 30
0
 11
211.1963051924176
 21
345.5464546746
 31
0
  0
LINE
  8
1
 62
2
 10
210.7886581335941
 20
346.7464546746
 30
0
 11
210.3810110747706
 21
345.2464546746
 31
0
  0
LINE
  8
1
 62
2
 10
210.7886581335941
 20
347.2464546746
 30
0
 11
210.7886581335941
 21
344.2464546746
 31
0
  0
LINE
  8
1
 62
2
 10
210.3810110747706
 20
346.7464546746
 30
0
 11
211.1963051924176
 21
346.7464546746
 31
0
  0
LINE
  8
1
 62
2
 10
571.5285603592236
 20
503.7151387754
 30
0
 11
571.5285603592236
 21
506.7151387754
 31
0
  0
LINE
  8
1
 62
2
 10
570.6623103592236
 20
503.7151387754
 30
0
 11
571.5285603592236
 21
503.7151387754
 31
0
  0
LINE
  8
1
 62
2
 10
570.4313103592236
 20
503.7901387754
 30
0
 11
570.6623103592236
 21
503.7151387754
 31
0
  0
LINE
  8
1
 62
2
 10
570.3158103592236
 20
503.8651387754
 30
0
 11
570.4313103592236
 21
503.7901387754
 31
0
  0
LINE
  8
1
 62
2
 10
570.2003103592236
 20
504.0151387754
 30
0
 11
570.3158103592236
 21
503.8651387754
 31
0
  0
LINE
  8
1
 62
2
 10
570.1425603592236
 20
504.3151387754
 30
0
 11
570.2003103592236
 21
504.0151387754
 31
0
  0
LINE
  8
1
 62
2
 10
570.1425603592236
 20
505.2151387754
 30
0
 11
570.1425603592236
 21
504.3151387754
 31
0
  0
LINE
  8
1
 62
2
 10
570.2003103592236
 20
505.5151387754
 30
0
 11
570.1425603592236
 21
505.2151387754
 31
0
  0
LINE
  8
1
 62
2
 10
570.3158103592236
 20
505.6651387754
 30
0
 11
570.2003103592236
 21
505.5151387754
 31
0
  0
LINE
  8
1
 62
2
 10
570.4313103592236
 20
505.7401387754
 30
0
 11
570.3158103592236
 21
505.6651387754
 31
0
  0
LINE
  8
1
 62
2
 10
570.6623103592236
 20
505.8151387754
 30
0
 11
570.4313103592236
 21
505.7401387754
 31
0
  0
LINE
  8
1
 62
2
 10
571.5285603592236
 20
505.8151387754
 30
0
 11
570.6623103592236
 21
505.8151387754
 31
0
  0
LINE
  8
1
 62
2
 10
568.8516780062823
 20
506.3151387754
 30
0
 11
568.1722662415765
 21
502.9151387754
 31
0
  0
LINE
  8
1
 62
2
 10
568.9875603592236
 20
505.5151387754
 30
0
 11
568.7157956533412
 21
505.6151387754
 31
0
  0
LINE
  8
1
 62
2
 10
569.1234427121648
 20
505.3151387754
 30
0
 11
568.9875603592236
 21
505.5151387754
 31
0
  0
LINE
  8
1
 62
2
 10
569.1913838886353
 20
505.0151387754
 30
0
 11
569.1234427121648
 21
505.3151387754
 31
0
  0
LINE
  8
1
 62
2
 10
569.1913838886353
 20
504.5151387754
 30
0
 11
569.1913838886353
 21
505.0151387754
 31
0
  0
LINE
  8
1
 62
2
 10
569.0555015356941
 20
504.1151387754
 30
0
 11
569.1913838886353
 21
504.5151387754
 31
0
  0
LINE
  8
1
 62
2
 10
568.919619182753
 20
503.9151387754
 30
0
 11
569.0555015356941
 21
504.1151387754
 31
0
  0
LINE
  8
1
 62
2
 10
568.6478544768706
 20
503.7151387754
 30
0
 11
568.919619182753
 21
503.9151387754
 31
0
  0
LINE
  8
1
 62
2
 10
568.3760897709883
 20
503.6151387754
 30
0
 11
568.6478544768706
 21
503.7151387754
 31
0
  0
LINE
  8
1
 62
2
 10
568.1722662415765
 20
503.7151387754
 30
0
 11
568.3760897709883
 21
503.6151387754
 31
0
  0
LINE
  8
1
 62
2
 10
567.9684427121647
 20
503.9151387754
 30
0
 11
568.1722662415765
 21
503.7151387754
 31
0
  0
LINE
  8
1
 62
2
 10
567.9005015356942
 20
504.2151387754
 30
0
 11
567.9684427121647
 21
503.9151387754
 31
0
  0
LINE
  8
1
 62
2
 10
567.9005015356942
 20
504.6151387754
 30
0
 11
567.9005015356942
 21
504.2151387754
 31
0
  0
LINE
  8
1
 62
2
 10
567.9684427121647
 20
504.9151387754
 30
0
 11
567.9005015356942
 21
504.6151387754
 31
0
  0
LINE
  8
1
 62
2
 10
568.1722662415765
 20
505.2151387754
 30
0
 11
567.9684427121647
 21
504.9151387754
 31
0
  0
LINE
  8
1
 62
2
 10
568.3760897709883
 20
505.4151387754
 30
0
 11
568.1722662415765
 21
505.2151387754
 31
0
  0
LINE
  8
1
 62
2
 10
568.7157956533412
 20
505.6151387754
 30
0
 11
568.3760897709883
 21
505.4151387754
 31
0
  0
LINE
  8
1
 62
2
 10
565.5769133004
 20
504.7651387754
 30
0
 11
566.7319133003999
 21
504.7651387754
 31
0
  0
LINE
  8
1
 62
2
 10
564.8839133004
 20
505.4401387754
 30
0
 11
564.8839133004
 21
503.7151387754
 31
0
  0
LINE
  8
1
 62
2
 10
564.8261633004
 20
505.5901387754
 30
0
 11
564.8839133004
 21
505.4401387754
 31
0
  0
LINE
  8
1
 62
2
 10
564.7106633004
 20
505.7401387754
 30
0
 11
564.8261633004
 21
505.5901387754
 31
0
  0
LINE
  8
1
 62
2
 10
564.5374133004
 20
505.8151387754
 30
0
 11
564.7106633004
 21
505.7401387754
 31
0
  0
LINE
  8
1
 62
2
 10
563.4979133004
 20
505.8151387754
 30
0
 11
564.5374133004
 21
505.8151387754
 31
0
  0
LINE
  8
1
 62
2
 10
563.4979133004
 20
503.7151387754
 30
0
 11
563.4979133004
 21
505.8151387754
 31
0
  0
LINE
  8
1
 62
2
 10
353.2130893094659
 20
214.6779129577387
 30
0
 11
359.5464226427993
 21
214.6779129577387
 31
0
  0
LINE
  8
1
 62
2
 10
356.5464226427993
 20
225.5529129577387
 30
0
 11
356.5464226427993
 21
214.6779129577387
 31
0
  0
LINE
  8
1
 62
2
 10
354.2130893094659
 20
221.0529129577387
 30
0
 11
358.8797559761326
 21
221.0529129577387
 31
0
  0
LINE
  8
1
 62
2
 10
352.2130893094659
 20
220.6779129577387
 30
0
 11
353.8797559761326
 21
218.8029129577387
 31
0
  0
LINE
  8
1
 62
2
 10
351.5464226427993
 20
223.3029129577387
 30
0
 11
351.5464226427993
 21
225.5529129577387
 31
0
  0
LINE
  8
1
 62
2
 10
353.2130893094659
 20
223.3029129577387
 30
0
 11
349.5464226427993
 21
223.3029129577387
 31
0
  0
LINE
  8
1
 62
2
 10
351.8797559761326
 20
221.4279129577387
 30
0
 11
353.2130893094659
 21
223.3029129577387
 31
0
  0
LINE
  8
1
 62
2
 10
350.2130893094659
 20
219.5529129577387
 30
0
 11
351.8797559761326
 21
221.4279129577387
 31
0
  0
LINE
  8
1
 62
2
 10
348.8797559761326
 20
218.4279129577387
 30
0
 11
350.2130893094659
 21
219.5529129577387
 31
0
  0
LINE
  8
1
 62
2
 10
351.5464226427993
 20
214.3029129577387
 30
0
 11
351.5464226427993
 21
221.0529129577387
 31
0
  0
LINE
  8
1
 62
2
 10
342.2130893094659
 20
218.4279129577387
 30
0
 11
338.8797559761326
 21
214.3029129577387
 31
0
  0
LINE
  8
1
 62
2
 10
346.2130893094659
 20
213.9279129577387
 30
0
 11
343.8797559761326
 21
216.5529129577387
 31
0
  0
LINE
  8
1
 62
2
 10
337.8797559761326
 20
214.3029129577387
 30
0
 11
345.2130893094659
 21
215.0529129577387
 31
0
  0
LINE
  8
1
 62
2
 10
338.5464226427993
 20
218.8029129577387
 30
0
 11
346.2130893094659
 21
218.8029129577387
 31
0
  0
LINE
  8
1
 62
2
 10
339.8797559761326
 20
220.6779129577387
 30
0
 11
344.5464226427993
 21
220.6779129577387
 31
0
  0
LINE
  8
1
 62
2
 10
342.2130893094659
 20
225.5529129577387
 30
0
 11
347.5464226427993
 21
219.9279129577387
 31
0
  0
LINE
  8
1
 62
2
 10
342.2130893094659
 20
225.5529129577387
 30
0
 11
336.8797559761326
 21
219.9279129577387
 31
0
  0
LINE
  8
1
 62
2
 10
334.5464226427993
 20
214.3029129577387
 30
0
 11
335.5464226427993
 21
215.4279129577387
 31
0
  0
LINE
  8
1
 62
2
 10
333.2130893094659
 20
215.8029129577387
 30
0
 11
334.5464226427993
 21
214.3029129577387
 31
0
  0
LINE
  8
1
 62
2
 10
331.8797559761326
 20
218.4279129577387
 30
0
 11
333.2130893094659
 21
215.8029129577387
 31
0
  0
LINE
  8
1
 62
2
 10
331.2130893094659
 20
221.4279129577387
 30
0
 11
331.8797559761326
 21
218.4279129577387
 31
0
  0
LINE
  8
1
 62
2
 10
330.8797559761326
 20
225.9279129577387
 30
0
 11
331.2130893094659
 21
221.4279129577387
 31
0
  0
LINE
  8
1
 62
2
 10
332.8797559761326
 20
224.4279129577387
 30
0
 11
331.8797559761326
 21
225.5529129577387
 31
0
  0
LINE
  8
1
 62
2
 10
324.8797559761326
 20
223.3029129577387
 30
0
 11
334.5464226427993
 21
223.3029129577387
 31
0
  0
LINE
  8
1
 62
2
 10
327.8797559761326
 20
220.3029129577387
 30
0
 11
327.8797559761326
 21
216.1779129577387
 31
0
  0
LINE
  8
1
 62
2
 10
330.2130893094659
 20
220.3029129577387
 30
0
 11
325.5464226427993
 21
220.3029129577387
 31
0
  0
LINE
  8
1
 62
2
 10
325.5464226427993
 20
215.4279129577387
 30
0
 11
330.2130893094659
 21
216.9279129577387
 31
0
  0
LINE
  8
1
 62
2
 10
321.8797559761326
 20
216.9279129577387
 30
0
 11
323.2130893094659
 21
214.3029129577387
 31
0
  0
LINE
  8
1
 62
2
 10
320.2130893094659
 20
220.3029129577387
 30
0
 11
321.8797559761326
 21
216.9279129577387
 31
0
  0
LINE
  8
1
 62
2
 10
319.2130893094659
 20
217.6779129577387
 30
0
 11
320.2130893094659
 21
220.3029129577387
 31
0
  0
LINE
  8
1
 62
2
 10
317.8797559761326
 20
215.8029129577387
 30
0
 11
319.2130893094659
 21
217.6779129577387
 31
0
  0
LINE
  8
1
 62
2
 10
316.8797559761326
 20
214.3029129577387
 30
0
 11
317.8797559761326
 21
215.8029129577387
 31
0
  0
LINE
  8
1
 62
2
 10
320.2130893094659
 20
225.9279129577387
 30
0
 11
320.2130893094659
 21
213.9279129577387
 31
0
  0
LINE
  8
1
 62
2
 10
323.2130893094659
 20
220.3029129577387
 30
0
 11
317.5464226427993
 21
220.3029129577387
 31
0
  0
LINE
  8
1
 62
2
 10
318.5464226427993
 20
222.9279129577387
 30
0
 11
322.8797559761326
 21
222.9279129577387
 31
0
  0
LINE
  8
1
 62
2
 10
318.5464226427993
 20
222.9279129577387
 30
0
 11
318.8797559761326
 21
224.8029129577387
 31
0
  0
LINE
  8
1
 62
2
 10
317.5464226427993
 20
221.0529129577387
 30
0
 11
318.5464226427993
 21
222.9279129577387
 31
0
  0
LINE
  8
1
 62
2
 10
315.2130893094659
 20
222.5529129577387
 30
0
 11
316.8797559761326
 21
219.5529129577387
 31
0
  0
LINE
  8
1
 62
2
 10
313.2130893094659
 20
217.3029129577387
 30
0
 11
315.2130893094659
 21
222.5529129577387
 31
0
  0
LINE
  8
1
 62
2
 10
316.8797559761326
 20
222.5529129577387
 30
0
 11
313.5464226427993
 21
222.5529129577387
 31
0
  0
LINE
  8
1
 62
2
 10
315.2130893094659
 20
214.3029129577387
 30
0
 11
315.2130893094659
 21
225.9279129577387
 31
0
  0
LINE
  8
1
 62
2
 10
307.2130893094659
 20
223.3029129577387
 30
0
 11
310.5464226427993
 21
223.3029129577387
 31
0
  0
LINE
  8
1
 62
2
 10
307.2130893094659
 20
221.4279129577387
 30
0
 11
310.5464226427993
 21
221.4279129577387
 31
0
  0
LINE
  8
1
 62
2
 10
307.2130893094659
 20
225.1779129577387
 30
0
 11
307.2130893094659
 21
221.4279129577387
 31
0
  0
LINE
  8
1
 62
2
 10
310.5464226427993
 20
225.1779129577387
 30
0
 11
307.2130893094659
 21
225.1779129577387
 31
0
  0
LINE
  8
1
 62
2
 10
310.5464226427993
 20
214.6779129577387
 30
0
 11
310.5464226427993
 21
225.1779129577387
 31
0
  0
LINE
  8
1
 62
2
 10
310.2130893094659
 20
214.3029129577387
 30
0
 11
310.5464226427993
 21
214.6779129577387
 31
0
  0
LINE
  8
1
 62
2
 10
309.2130893094659
 20
214.3029129577387
 30
0
 11
310.2130893094659
 21
214.3029129577387
 31
0
  0
LINE
  8
1
 62
2
 10
305.2130893094659
 20
223.3029129577387
 30
0
 11
301.8797559761326
 21
223.3029129577387
 31
0
  0
LINE
  8
1
 62
2
 10
305.2130893094659
 20
221.4279129577387
 30
0
 11
301.8797559761326
 21
221.4279129577387
 31
0
  0
LINE
  8
1
 62
2
 10
305.2130893094659
 20
225.1779129577387
 30
0
 11
305.2130893094659
 21
221.4279129577387
 31
0
  0
LINE
  8
1
 62
2
 10
301.8797559761326
 20
225.1779129577387
 30
0
 11
305.2130893094659
 21
225.1779129577387
 31
0
  0
LINE
  8
1
 62
2
 10
301.8797559761326
 20
214.3029129577387
 30
0
 11
301.8797559761326
 21
225.1779129577387
 31
0
  0
LINE
  8
1
 62
2
 10
298.2130893094659
 20
221.0529129577387
 30
0
 11
299.5464226427993
 21
219.9279129577387
 31
0
  0
LINE
  8
1
 62
2
 10
295.8797559761326
 20
223.6779129577387
 30
0
 11
298.2130893094659
 21
221.0529129577387
 31
0
  0
LINE
  8
1
 62
2
 10
294.2130893094659
 20
225.9279129577387
 30
0
 11
295.8797559761326
 21
223.6779129577387
 31
0
  0
LINE
  8
1
 62
2
 10
292.5464226427993
 20
223.6779129577387
 30
0
 11
294.2130893094659
 21
225.9279129577387
 31
0
  0
LINE
  8
1
 62
2
 10
290.2130893094659
 20
221.0529129577387
 30
0
 11
292.5464226427993
 21
223.6779129577387
 31
0
  0
LINE
  8
1
 62
2
 10
288.8797559761326
 20
219.9279129577387
 30
0
 11
290.2130893094659
 21
221.0529129577387
 31
0
  0
LINE
  8
1
 62
2
 10
295.8797559761326
 20
215.8029129577387
 30
0
 11
296.5464226427993
 21
217.6779129577387
 31
0
  0
LINE
  8
1
 62
2
 10
291.8797559761326
 20
217.6779129577387
 30
0
 11
292.5464226427993
 21
215.8029129577387
 31
0
  0
LINE
  8
1
 62
2
 10
297.5464226427993
 20
219.1779129577387
 30
0
 11
290.8797559761326
 21
219.1779129577387
 31
0
  0
LINE
  8
1
 62
2
 10
291.8797559761326
 20
221.4279129577387
 30
0
 11
296.5464226427993
 21
221.4279129577387
 31
0
  0
LINE
  8
1
 62
2
 10
294.2130893094659
 20
214.3029129577387
 30
0
 11
294.2130893094659
 21
221.4279129577387
 31
0
  0
LINE
  8
1
 62
2
 10
289.8797559761326
 20
214.3029129577387
 30
0
 11
298.2130893094659
 21
214.3029129577387
 31
0
  0
LINE
  8
1
 62
2
 10
285.2130893094659
 20
217.6779129577387
 30
0
 11
286.8797559761326
 21
219.9279129577387
 31
0
  0
LINE
  8
1
 62
2
 10
282.5464226427993
 20
216.1779129577387
 30
0
 11
285.2130893094659
 21
217.6779129577387
 31
0
  0
LINE
  8
1
 62
2
 10
282.5464226427993
 20
222.9279129577387
 30
0
 11
282.5464226427993
 21
216.1779129577387
 31
0
  0
LINE
  8
1
 62
2
 10
279.8797559761326
 20
219.9279129577387
 30
0
 11
280.2130893094659
 21
222.9279129577387
 31
0
  0
LINE
  8
1
 62
2
 10
279.2130893094659
 20
217.6779129577387
 30
0
 11
279.8797559761326
 21
219.9279129577387
 31
0
  0
LINE
  8
1
 62
2
 10
278.2130893094659
 20
215.8029129577387
 30
0
 11
279.2130893094659
 21
217.6779129577387
 31
0
  0
LINE
  8
1
 62
2
 10
270.5464226427993
 20
215.0529129577387
 30
0
 11
272.5464226427993
 21
215.4279129577387
 31
0
  0
LINE
  8
1
 62
2
 10
267.2130893094659
 20
215.4279129577387
 30
0
 11
270.5464226427993
 21
215.0529129577387
 31
0
  0
LINE
  8
1
 62
2
 10
266.8797559761326
 20
216.5529129577387
 30
0
 11
267.2130893094659
 21
215.4279129577387
 31
0
  0
LINE
  8
1
 62
2
 10
266.8797559761326
 20
222.9279129577387
 30
0
 11
266.8797559761326
 21
216.5529129577387
 31
0
  0
LINE
  8
1
 62
2
 10
273.2130893094659
 20
223.6779129577387
 30
0
 11
274.2130893094659
 21
222.5529129577387
 31
0
  0
LINE
  8
1
 62
2
 10
273.5464226427993
 20
221.8029129577387
 30
0
 11
272.5464226427993
 21
222.9279129577387
 31
0
  0
LINE
  8
1
 62
2
 10
269.8797559761326
 20
219.9279129577387
 30
0
 11
271.8797559761326
 21
221.0529129577387
 31
0
  0
LINE
  8
1
 62
2
 10
266.8797559761326
 20
218.8029129577387
 30
0
 11
269.8797559761326
 21
219.9279129577387
 31
0
  0
LINE
  8
1
 62
2
 10
259.5464226427992
 20
217.6779129577387
 30
0
 11
261.5464226427992
 21
215.4279129577387
 31
0
  0
LINE
  8
1
 62
2
 10
257.8797559761325
 20
219.1779129577387
 30
0
 11
259.5464226427992
 21
217.6779129577387
 31
0
  0
LINE
  8
1
 62
2
 10
261.8797559761325
 20
224.4279129577387
 30
0
 11
262.8797559761325
 21
223.3029129577387
 31
0
  0
LINE
  8
1
 62
2
 10
261.2130893094659
 20
223.6779129577387
 30
0
 11
262.2130893094659
 21
222.5529129577387
 31
0
  0
LINE
  8
1
 62
2
 10
259.8797559761325
 20
222.9279129577387
 30
0
 11
255.5464226427992
 21
222.9279129577387
 31
0
  0
LINE
  8
1
 62
2
 10
258.8797559761325
 20
220.6779129577387
 30
0
 11
259.8797559761325
 21
222.9279129577387
 31
0
  0
LINE
  8
1
 62
2
 10
256.5464226427992
 20
217.3029129577387
 30
0
 11
258.8797559761325
 21
220.6779129577387
 31
0
  0
LINE
  8
1
 62
2
 10
254.2130893094659
 20
215.4279129577387
 30
0
 11
256.5464226427992
 21
217.3029129577387
 31
0
  0
LINE
  8
1
 62
2
 10
250.2130893094659
 20
222.5529129577387
 30
0
 11
247.2130893094659
 21
219.1779129577387
 31
0
  0
LINE
  8
1
 62
2
 10
242.5464226427992
 20
222.5529129577387
 30
0
 11
250.2130893094659
 21
222.5529129577387
 31
0
  0
LINE
  8
1
 62
2
 10
246.2130893094659
 20
219.1779129577387
 30
0
 11
246.5464226427992
 21
221.0529129577387
 31
0
  0
LINE
  8
1
 62
2
 10
245.5464226427992
 20
216.9279129577387
 30
0
 11
246.2130893094659
 21
219.1779129577387
 31
0
  0
LINE
  8
1
 62
2
 10
244.2130893094659
 20
214.6779129577387
 30
0
 11
245.5464226427992
 21
216.9279129577387
 31
0
  0
LINE
  8
1
 62
2
 10
386.8464226427992
 20
243.9279129577387
 30
0
 11
387.5130893094658
 21
243.5529129577387
 31
0
  0
LINE
  8
1
 62
2
 10
380.8464226427992
 20
243.9279129577387
 30
0
 11
386.8464226427992
 21
243.9279129577387
 31
0
  0
LINE
  8
1
 62
2
 10
380.1797559761325
 20
244.3029129577387
 30
0
 11
380.8464226427992
 21
243.9279129577387
 31
0
  0
LINE
  8
1
 62
2
 10
371.5130893094658
 20
245.0529129577387
 30
0
 11
374.1797559761325
 21
242.0529129577387
 31
0
  0
LINE
  8
1
 62
2
 10
370.5130893094658
 20
246.5529129577387
 30
0
 11
368.8464226427992
 21
244.6779129577387
 31
0
  0
LINE
  8
1
 62
2
 10
372.1797559761325
 20
248.8029129577387
 30
0
 11
370.5130893094658
 21
246.5529129577387
 31
0
  0
LINE
  8
1
 62
2
 10
375.5130893094658
 20
247.3029129577387
 30
0
 11
371.1797559761325
 21
247.3029129577387
 31
0
  0
LINE
  8
1
 62
2
 10
374.1797559761325
 20
244.6779129577387
 30
0
 11
375.5130893094658
 21
247.3029129577387
 31
0
  0
LINE
  8
1
 62
2
 10
371.5130893094658
 20
241.6779129577387
 30
0
 11
374.1797559761325
 21
244.6779129577387
 31
0
  0
LINE
  8
1
 62
2
 10
368.5130893094658
 20
239.4279129577387
 30
0
 11
371.5130893094658
 21
241.6779129577387
 31
0
  0
LINE
  8
1
 62
2
 10
362.8464226427992
 20
243.9279129577387
 30
0
 11
363.5130893094658
 21
243.5529129577387
 31
0
  0
LINE
  8
1
 62
2
 10
356.8464226427992
 20
243.9279129577387
 30
0
 11
362.8464226427992
 21
243.9279129577387
 31
0
  0
LINE
  8
1
 62
2
 10
356.1797559761325
 20
244.3029129577387
 30
0
 11
356.8464226427992
 21
243.9279129577387
 31
0
  0
LINE
  8
1
 62
2
 10
348.8464226427992
 20
243.9279129577387
 30
0
 11
350.5130893094658
 21
241.3029129577387
 31
0
  0
LINE
  8
1
 62
2
 10
347.1797559761325
 20
245.8029129577387
 30
0
 11
348.8464226427992
 21
243.9279129577387
 31
0
  0
LINE
  8
1
 62
2
 10
349.5130893094658
 20
244.6779129577387
 30
0
 11
351.1797559761325
 21
248.0529129577387
 31
0
  0
LINE
  8
1
 62
2
 10
346.8464226427992
 20
241.3029129577387
 30
0
 11
349.5130893094658
 21
244.6779129577387
 31
0
  0
LINE
  8
1
 62
2
 10
344.5130893094658
 20
239.4279129577387
 30
0
 11
346.8464226427992
 21
241.3029129577387
 31
0
  0
LINE
  8
1
 62
2
 10
334.5130893094658
 20
239.0529129577387
 30
0
 11
340.8464226427992
 21
239.0529129577387
 31
0
  0
LINE
  8
1
 62
2
 10
333.1797559761325
 20
239.4279129577387
 30
0
 11
334.5130893094658
 21
239.0529129577387
 31
0
  0
LINE
  8
1
 62
2
 10
332.1797559761325
 20
240.1779129577387
 30
0
 11
333.1797559761325
 21
239.4279129577387
 31
0
  0
LINE
  8
1
 62
2
 10
339.1797559761325
 20
242.0529129577387
 30
0
 11
335.1797559761325
 21
242.0529129577387
 31
0
  0
LINE
  8
1
 62
2
 10
335.1797559761325
 20
243.9279129577387
 30
0
 11
339.1797559761325
 21
243.9279129577387
 31
0
  0
LINE
  8
1
 62
2
 10
339.1797559761325
 20
245.4279129577387
 30
0
 11
335.1797559761325
 21
245.4279129577387
 31
0
  0
LINE
  8
1
 62
2
 10
339.1797559761325
 20
240.5529129577387
 30
0
 11
339.1797559761325
 21
245.4279129577387
 31
0
  0
LINE
  8
1
 62
2
 10
335.1797559761325
 20
240.5529129577387
 30
0
 11
339.1797559761325
 21
240.5529129577387
 31
0
  0
LINE
  8
1
 62
2
 10
335.1797559761325
 20
245.4279129577387
 30
0
 11
335.1797559761325
 21
240.5529129577387
 31
0
  0
LINE
  8
1
 62
2
 10
336.8464226427992
 20
247.3029129577387
 30
0
 11
335.8464226427992
 21
245.4279129577387
 31
0
  0
LINE
  8
1
 62
2
 10
333.5130893094658
 20
247.3029129577387
 30
0
 11
340.5130893094658
 21
247.3029129577387
 31
0
  0
LINE
  8
1
 62
2
 10
338.8464226427992
 20
249.5529129577387
 30
0
 11
337.5130893094658
 21
247.3029129577387
 31
0
  0
LINE
  8
1
 62
2
 10
335.1797559761325
 20
249.5529129577387
 30
0
 11
336.1797559761325
 21
248.0529129577387
 31
0
  0
LINE
  8
1
 62
2
 10
331.5130893094658
 20
249.5529129577387
 30
0
 11
332.8464226427992
 21
248.0529129577387
 31
0
  0
LINE
  8
1
 62
2
 10
332.1797559761325
 20
244.6779129577387
 30
0
 11
330.8464226427992
 21
244.6779129577387
 31
0
  0
LINE
  8
1
 62
2
 10
332.1797559761325
 20
240.1779129577387
 30
0
 11
332.1797559761325
 21
244.6779129577387
 31
0
  0
LINE
  8
1
 62
2
 10
331.1797559761325
 20
239.0529129577387
 30
0
 11
332.1797559761325
 21
240.1779129577387
 31
0
  0
LINE
  8
1
 62
2
 10
327.5130893094658
 20
241.6779129577387
 30
0
 11
329.1797559761325
 21
239.8029129577387
 31
0
  0
LINE
  8
1
 62
2
 10
326.1797559761325
 20
243.9279129577387
 30
0
 11
327.5130893094658
 21
241.6779129577387
 31
0
  0
LINE
  8
1
 62
2
 10
325.1797559761325
 20
246.5529129577387
 30
0
 11
326.1797559761325
 21
243.9279129577387
 31
0
  0
LINE
  8
1
 62
2
 10
328.1797559761325
 20
246.9279129577387
 30
0
 11
325.8464226427992
 21
245.0529129577387
 31
0
  0
LINE
  8
1
 62
2
 10
324.1797559761325
 20
237.9279129577387
 30
0
 11
323.1797559761325
 21
238.3029129577387
 31
0
  0
LINE
  8
1
 62
2
 10
324.1797559761325
 20
249.5529129577387
 30
0
 11
324.1797559761325
 21
237.9279129577387
 31
0
  0
LINE
  8
1
 62
2
 10
322.5130893094658
 20
245.8029129577387
 30
0
 11
319.1797559761325
 21
245.8029129577387
 31
0
  0
LINE
  8
1
 62
2
 10
321.8464226427992
 20
243.5529129577387
 30
0
 11
322.5130893094658
 21
245.8029129577387
 31
0
  0
LINE
  8
1
 62
2
 10
320.5130893094658
 20
241.3029129577387
 30
0
 11
321.8464226427992
 21
243.5529129577387
 31
0
  0
LINE
  8
1
 62
2
 10
319.1797559761325
 20
239.8029129577387
 30
0
 11
320.5130893094658
 21
241.3029129577387
 31
0
  0
LINE
  8
1
 62
2
 10
310.7130893094658
 20
246.3279129577387
 30
0
 11
310.7130893094658
 21
237.9279129577387
 31
0
  0
LINE
  8
1
 62
2
 10
314.9130893094658
 20
244.8279129577387
 30
0
 11
314.9130893094658
 21
237.9279129577387
 31
0
  0
LINE
  8
1
 62
2
 10
314.6130893094659
 20
245.4279129577387
 30
0
 11
314.9130893094658
 21
244.8279129577387
 31
0
  0
LINE
  8
1
 62
2
 10
314.0130893094658
 20
246.0279129577387
 30
0
 11
314.6130893094659
 21
245.4279129577387
 31
0
  0
LINE
  8
1
 62
2
 10
313.1130893094659
 20
246.3279129577387
 30
0
 11
314.0130893094658
 21
246.0279129577387
 31
0
  0
LINE
  8
1
 62
2
 10
306.5130893094658
 20
246.3279129577387
 30
0
 11
313.1130893094659
 21
246.3279129577387
 31
0
  0
LINE
  8
1
 62
2
 10
306.5130893094658
 20
237.9279129577387
 30
0
 11
306.5130893094658
 21
246.3279129577387
 31
0
  0
LINE
  8
1
 62
2
 10
298.7130893094658
 20
246.3279129577387
 30
0
 11
298.7130893094658
 21
237.9279129577387
 31
0
  0
LINE
  8
1
 62
2
 10
302.9130893094658
 20
244.8279129577387
 30
0
 11
302.9130893094658
 21
237.9279129577387
 31
0
  0
LINE
  8
1
 62
2
 10
302.6130893094659
 20
245.4279129577387
 30
0
 11
302.9130893094658
 21
244.8279129577387
 31
0
  0
LINE
  8
1
 62
2
 10
302.0130893094658
 20
246.0279129577387
 30
0
 11
302.6130893094659
 21
245.4279129577387
 31
0
  0
LINE
  8
1
 62
2
 10
301.1130893094659
 20
246.3279129577387
 30
0
 11
302.0130893094658
 21
246.0279129577387
 31
0
  0
LINE
  8
1
 62
2
 10
294.5130893094658
 20
246.3279129577387
 30
0
 11
301.1130893094659
 21
246.3279129577387
 31
0
  0
LINE
  8
1
 62
2
 10
294.5130893094658
 20
237.9279129577387
 30
0
 11
294.5130893094658
 21
246.3279129577387
 31
0
  0
LINE
  8
1
 62
2
 10
290.9130893094659
 20
245.4279129577387
 30
0
 11
290.9130893094659
 21
242.4279129577387
 31
0
  0
LINE
  8
1
 62
2
 10
290.6130893094659
 20
247.2279129577387
 30
0
 11
290.9130893094659
 21
245.4279129577387
 31
0
  0
LINE
  8
1
 62
2
 10
290.0130893094659
 20
248.4279129577387
 30
0
 11
290.6130893094659
 21
247.2279129577387
 31
0
  0
LINE
  8
1
 62
2
 10
289.4130893094659
 20
249.0279129577387
 30
0
 11
290.0130893094659
 21
248.4279129577387
 31
0
  0
LINE
  8
1
 62
2
 10
288.5130893094659
 20
249.6279129577387
 30
0
 11
289.4130893094659
 21
249.0279129577387
 31
0
  0
LINE
  8
1
 62
2
 10
287.6130893094659
 20
249.9279129577387
 30
0
 11
288.5130893094659
 21
249.6279129577387
 31
0
  0
LINE
  8
1
 62
2
 10
287.0130893094659
 20
249.9279129577387
 30
0
 11
287.6130893094659
 21
249.9279129577387
 31
0
  0
LINE
  8
1
 62
2
 10
286.1130893094659
 20
249.6279129577387
 30
0
 11
287.0130893094659
 21
249.9279129577387
 31
0
  0
LINE
  8
1
 62
2
 10
285.2130893094659
 20
249.0279129577387
 30
0
 11
286.1130893094659
 21
249.6279129577387
 31
0
  0
LINE
  8
1
 62
2
 10
284.6130893094659
 20
248.4279129577387
 30
0
 11
285.2130893094659
 21
249.0279129577387
 31
0
  0
LINE
  8
1
 62
2
 10
284.0130893094659
 20
247.2279129577387
 30
0
 11
284.6130893094659
 21
248.4279129577387
 31
0
  0
LINE
  8
1
 62
2
 10
283.7130893094659
 20
245.4279129577387
 30
0
 11
284.0130893094659
 21
247.2279129577387
 31
0
  0
LINE
  8
1
 62
2
 10
283.7130893094659
 20
242.4279129577387
 30
0
 11
283.7130893094659
 21
245.4279129577387
 31
0
  0
LINE
  8
1
 62
2
 10
284.0130893094659
 20
240.6279129577387
 30
0
 11
283.7130893094659
 21
242.4279129577387
 31
0
  0
LINE
  8
1
 62
2
 10
284.6130893094659
 20
239.4279129577387
 30
0
 11
284.0130893094659
 21
240.6279129577387
 31
0
  0
LINE
  8
1
 62
2
 10
285.2130893094659
 20
238.8279129577387
 30
0
 11
284.6130893094659
 21
239.4279129577387
 31
0
  0
LINE
  8
1
 62
2
 10
286.1130893094659
 20
238.2279129577387
 30
0
 11
285.2130893094659
 21
238.8279129577387
 31
0
  0
LINE
  8
1
 62
2
 10
287.0130893094659
 20
237.9279129577387
 30
0
 11
286.1130893094659
 21
238.2279129577387
 31
0
  0
LINE
  8
1
 62
2
 10
287.6130893094659
 20
237.9279129577387
 30
0
 11
287.0130893094659
 21
237.9279129577387
 31
0
  0
LINE
  8
1
 62
2
 10
288.5130893094659
 20
238.2279129577387
 30
0
 11
287.6130893094659
 21
237.9279129577387
 31
0
  0
LINE
  8
1
 62
2
 10
289.4130893094659
 20
238.8279129577387
 30
0
 11
288.5130893094659
 21
238.2279129577387
 31
0
  0
LINE
  8
1
 62
2
 10
290.0130893094659
 20
239.4279129577387
 30
0
 11
289.4130893094659
 21
238.8279129577387
 31
0
  0
LINE
  8
1
 62
2
 10
290.6130893094659
 20
240.6279129577387
 30
0
 11
290.0130893094659
 21
239.4279129577387
 31
0
  0
LINE
  8
1
 62
2
 10
290.9130893094659
 20
242.4279129577387
 30
0
 11
290.6130893094659
 21
240.6279129577387
 31
0
  0
LINE
  8
1
 62
2
 10
277.4130893094659
 20
237.9279129577387
 30
0
 11
272.9130893094659
 21
237.9279129577387
 31
0
  0
LINE
  8
1
 62
2
 10
278.3130893094659
 20
238.2279129577387
 30
0
 11
277.4130893094659
 21
237.9279129577387
 31
0
  0
LINE
  8
1
 62
2
 10
279.2130893094659
 20
238.8279129577387
 30
0
 11
278.3130893094659
 21
238.2279129577387
 31
0
  0
LINE
  8
1
 62
2
 10
279.8130893094659
 20
239.7279129577387
 30
0
 11
279.2130893094659
 21
238.8279129577387
 31
0
  0
LINE
  8
1
 62
2
 10
280.1130893094659
 20
240.9279129577387
 30
0
 11
279.8130893094659
 21
239.7279129577387
 31
0
  0
LINE
  8
1
 62
2
 10
280.1130893094659
 20
242.7279129577387
 30
0
 11
280.1130893094659
 21
240.9279129577387
 31
0
  0
LINE
  8
1
 62
2
 10
279.8130893094659
 20
243.9279129577387
 30
0
 11
280.1130893094659
 21
242.7279129577387
 31
0
  0
LINE
  8
1
 62
2
 10
278.9130893094659
 20
244.8279129577387
 30
0
 11
279.8130893094659
 21
243.9279129577387
 31
0
  0
LINE
  8
1
 62
2
 10
277.4130893094659
 20
245.1279129577387
 30
0
 11
278.9130893094659
 21
244.8279129577387
 31
0
  0
LINE
  8
1
 62
2
 10
272.9130893094659
 20
245.1279129577387
 30
0
 11
277.4130893094659
 21
245.1279129577387
 31
0
  0
LINE
  8
1
 62
2
 10
272.9130893094659
 20
249.9279129577387
 30
0
 11
272.9130893094659
 21
245.1279129577387
 31
0
  0
LINE
  8
1
 62
2
 10
279.5130893094659
 20
249.9279129577387
 30
0
 11
272.9130893094659
 21
249.9279129577387
 31
0
  0
LINE
  8
1
 62
2
 10
266.5797559761326
 20
242.8029129577387
 30
0
 11
266.5797559761326
 21
238.3029129577387
 31
0
  0
LINE
  8
1
 62
2
 10
270.5797559761326
 20
242.8029129577387
 30
0
 11
269.5797559761326
 21
242.8029129577387
 31
0
  0
LINE
  8
1
 62
2
 10
270.5797559761326
 20
249.5529129577387
 30
0
 11
270.5797559761326
 21
242.8029129577387
 31
0
  0
LINE
  8
1
 62
2
 10
268.2464226427992
 20
244.3029129577387
 30
0
 11
268.2464226427992
 21
249.1779129577387
 31
0
  0
LINE
  8
1
 62
2
 10
264.9130893094659
 20
249.1779129577387
 30
0
 11
264.9130893094659
 21
242.8029129577387
 31
0
  0
LINE
  8
1
 62
2
 10
261.2464226427992
 20
246.5529129577387
 30
0
 11
266.9130893094659
 21
246.5529129577387
 31
0
  0
LINE
  8
1
 62
2
 10
266.5797559761326
 20
249.1779129577387
 30
0
 11
261.5797559761326
 21
249.1779129577387
 31
0
  0
LINE
  8
1
 62
2
 10
263.2464226427992
 20
246.5529129577387
 30
0
 11
263.2464226427992
 21
249.1779129577387
 31
0
  0
LINE
  8
1
 62
2
 10
262.5797559761326
 20
243.9279129577387
 30
0
 11
263.2464226427992
 21
246.5529129577387
 31
0
  0
LINE
  8
1
 62
2
 10
261.5797559761326
 20
242.4279129577387
 30
0
 11
262.5797559761326
 21
243.9279129577387
 31
0
  0
LINE
  8
1
 62
2
 10
269.9130893094659
 20
240.9279129577387
 30
0
 11
262.5797559761326
 21
240.9279129577387
 31
0
  0
LINE
  8
1
 62
2
 10
261.5797559761326
 20
238.3029129577387
 30
0
 11
271.2464226427992
 21
238.3029129577387
 31
0
  0
LINE
  8
1
 62
2
 10
253.1130893094659
 20
249.9279129577387
 30
0
 11
253.1130893094659
 21
237.9279129577387
 31
0
  0
LINE
  8
1
 62
2
 10
248.9130893094659
 20
249.9279129577387
 30
0
 11
257.3130893094659
 21
249.9279129577387
 31
0
  0
LINE
  8
1
 62
2
 10
245.0130893094659
 20
247.5279129577387
 30
0
 11
245.3130893094659
 21
246.3279129577387
 31
0
  0
LINE
  8
1
 62
2
 10
244.4130893094659
 20
248.4279129577387
 30
0
 11
245.0130893094659
 21
247.5279129577387
 31
0
  0
LINE
  8
1
 62
2
 10
243.8130893094659
 20
249.0279129577387
 30
0
 11
244.4130893094659
 21
248.4279129577387
 31
0
  0
LINE
  8
1
 62
2
 10
242.9130893094659
 20
249.6279129577387
 30
0
 11
243.8130893094659
 21
249.0279129577387
 31
0
  0
LINE
  8
1
 62
2
 10
241.7130893094659
 20
249.9279129577387
 30
0
 11
242.9130893094659
 21
249.6279129577387
 31
0
  0
LINE
  8
1
 62
2
 10
236.9130893094659
 20
249.9279129577387
 30
0
 11
241.7130893094659
 21
249.9279129577387
 31
0
  0
LINE
  8
1
 62
2
 10
236.9130893094659
 20
237.9279129577387
 30
0
 11
236.9130893094659
 21
249.9279129577387
 31
0
  0
LINE
  8
1
 62
2
 10
241.7130893094659
 20
237.9279129577387
 30
0
 11
236.9130893094659
 21
237.9279129577387
 31
0
  0
LINE
  8
1
 62
2
 10
242.9130893094659
 20
238.2279129577387
 30
0
 11
241.7130893094659
 21
237.9279129577387
 31
0
  0
LINE
  8
1
 62
2
 10
243.8130893094659
 20
238.8279129577387
 30
0
 11
242.9130893094659
 21
238.2279129577387
 31
0
  0
LINE
  8
1
 62
2
 10
244.4130893094659
 20
239.4279129577387
 30
0
 11
243.8130893094659
 21
238.8279129577387
 31
0
  0
LINE
  8
1
 62
2
 10
245.0130893094659
 20
240.3279129577387
 30
0
 11
244.4130893094659
 21
239.4279129577387
 31
0
  0
LINE
  8
1
 62
2
 10
245.3130893094659
 20
241.5279129577387
 30
0
 11
245.0130893094659
 21
240.3279129577387
 31
0
  0
LINE
  8
1
 62
2
 10
245.3130893094659
 20
246.3279129577387
 30
0
 11
245.3130893094659
 21
241.5279129577387
 31
0
  0
LINE
  8
1
 62
2
 10
224.9130893094659
 20
249.9279129577387
 30
0
 11
224.9130893094659
 21
237.9279129577387
 31
0
  0
LINE
  8
1
 62
2
 10
233.3130893094659
 20
249.9279129577387
 30
0
 11
224.9130893094659
 21
249.9279129577387
 31
0
  0
LINE
  8
1
 62
2
 10
224.9130893094659
 20
244.5279129577387
 30
0
 11
233.3130893094659
 21
244.5279129577387
 31
0
  0
LINE
  8
1
 62
2
 10
221.3130893094659
 20
237.9279129577387
 30
0
 11
221.3130893094659
 21
249.9279129577387
 31
0
  0
LINE
  8
1
 62
2
 10
212.9130893094659
 20
249.9279129577387
 30
0
 11
221.3130893094659
 21
237.9279129577387
 31
0
  0
LINE
  8
1
 62
2
 10
212.9130893094659
 20
237.9279129577387
 30
0
 11
212.9130893094659
 21
249.9279129577387
 31
0
  0
LINE
  8
0
 62
7
 10
63.564500339
 20
528.3904768098
 30
0
 11
48.5644922923
 21
528.3904768098
 31
0
  0
LINE
  8
0
 62
7
 10
289.5644964051
 20
528.3904768098
 30
0
 11
274.564495809
 21
528.3904768098
 31
0
  0
LINE
  8
0
 62
7
 10
248.5644952726
 20
508.3904735316
 30
0
 11
248.5644952726
 21
531.3904754389
 31
0
  0
LINE
  8
0
 62
7
 10
104.5645014715
 20
531.3904754389
 30
0
 11
104.5645014715
 21
508.3904735316
 31
0
  0
LINE
  8
0
 62
7
 10
289.5644964051
 20
383.3904735316
 30
0
 11
291.5645004582
 21
385.3904738594
 31
0
  0
LINE
  8
0
 62
7
 10
291.5645004582
 20
485.3904753495
 30
0
 11
289.5644964051
 21
487.3904756773
 31
0
  0
LINE
  8
0
 62
7
 10
48.5644922923
 20
487.3904756773
 30
0
 11
46.5645031404
 21
485.3904753495
 31
0
  0
LINE
  8
0
 62
7
 10
46.5645031404
 20
385.3904738594
 30
0
 11
48.5644922923
 21
383.3904735316
 31
0
  0
LINE
  8
0
 62
7
 10
231.0644970607
 20
545.8904750217
 30
0
 11
231.0644970607
 21
546.8889124263
 31
0
  0
LINE
  8
0
 62
7
 10
133.7385983538
 20
498.3904756177
 30
0
 11
135.2082514536
 21
499.2389775384
 31
0
  0
LINE
  8
0
 62
7
 10
113.268940277
 20
499.2389775384
 30
0
 11
114.7385971021
 21
498.3904756177
 31
0
  0
LINE
  8
0
 62
7
 10
217.9207452905
 20
499.2389775384
 30
0
 11
219.3903983902
 21
498.3904756177
 31
0
  0
LINE
  8
0
 62
7
 10
238.3903996419
 20
498.3904756177
 30
0
 11
239.860056467
 21
499.2389775384
 31
0
  0
LINE
  8
0
 62
7
 10
118.2385967445
 20
498.3904756177
 30
0
 11
118.2385967445
 21
492.8904756475
 31
0
  0
LINE
  8
0
 62
7
 10
130.2385949861
 20
492.8904756475
 30
0
 11
130.2385949861
 21
498.3904756177
 31
0
  0
LINE
  8
0
 62
7
 10
114.7385971021
 20
545.8904750217
 30
0
 11
113.268940277
 21
545.0419656504
 31
0
  0
LINE
  8
0
 62
7
 10
135.2082514536
 20
545.0419656504
 30
0
 11
133.7385983538
 21
545.8904750217
 31
0
  0
LINE
  8
0
 62
7
 10
222.8904017579
 20
498.3904756177
 30
0
 11
222.8904017579
 21
492.8904756475
 31
0
  0
LINE
  8
0
 62
7
 10
234.8903999996
 20
492.8904756475
 30
0
 11
234.8903999996
 21
498.3904756177
 31
0
  0
LINE
  8
0
 62
7
 10
239.860056467
 20
545.0419656504
 30
0
 11
238.3903996419
 21
545.8904750217
 31
0
  0
LINE
  8
0
 62
7
 10
219.3903983902
 20
545.8904750217
 30
0
 11
217.9207452905
 21
545.0419656504
 31
0
  0
LINE
  8
0
 62
7
 10
241.0805882286
 20
534.8904750813
 30
0
 11
241.0805882286
 21
537.8904737104
 31
0
  0
LINE
  8
0
 62
7
 10
112.0484085154
 20
537.8904737104
 30
0
 11
112.0484085154
 21
534.8904750813
 31
0
  0
LINE
  8
0
 62
7
 10
243.5645000409
 20
534.8904750813
 30
0
 11
243.5645000409
 21
544.8904729951
 31
0
  0
LINE
  8
0
 62
7
 10
63.564500339
 20
528.3904768098
 30
0
 11
63.564500339
 21
355.3904763926
 31
0
  0
LINE
  8
0
 62
7
 10
63.564500339
 20
355.3904763926
 30
0
 11
48.5644922923
 21
355.3904763926
 31
0
  0
LINE
  8
0
 62
7
 10
48.5644922923
 20
528.3904768098
 30
0
 11
48.5644922923
 21
355.3904763926
 31
0
  0
LINE
  8
0
 62
7
 10
274.564495809
 20
355.3904763926
 30
0
 11
289.5644964051
 21
355.3904763926
 31
0
  0
LINE
  8
0
 62
7
 10
274.564495809
 20
528.3904768098
 30
0
 11
274.564495809
 21
355.3904763926
 31
0
  0
LINE
  8
0
 62
7
 10
289.5644964051
 20
528.3904768098
 30
0
 11
289.5644964051
 21
355.3904763926
 31
0
  0
LINE
  8
0
 62
7
 10
192.9986817163
 20
450.5713603962
 30
0
 11
190.8668172877
 21
450.5713603962
 31
0
  0
LINE
  8
0
 62
7
 10
190.8668172877
 20
450.5713603962
 30
0
 11
190.8668172877
 21
459.5477994103
 31
0
  0
LINE
  8
0
 62
7
 10
188.0921642628
 20
458.5012480188
 30
0
 11
188.0921642628
 21
450.5713603962
 31
0
  0
LINE
  8
0
 62
7
 10
188.0921642628
 20
450.5713603962
 30
0
 11
185.9602998343
 21
450.5713603962
 31
0
  0
LINE
  8
0
 62
7
 10
185.9602998343
 20
450.5713603962
 30
0
 11
185.9602998343
 21
459.6350121815
 31
0
  0
LINE
  8
0
 62
7
 10
183.2857798185
 20
458.5012480188
 30
0
 11
183.2857798185
 21
450.5713603962
 31
0
  0
LINE
  8
0
 62
7
 10
183.2857798185
 20
450.5713603962
 30
0
 11
181.1539158557
 21
450.5713603962
 31
0
  0
LINE
  8
0
 62
7
 10
181.1539158557
 20
462.5130280424
 30
0
 11
183.2857798185
 21
462.5130280424
 31
0
  0
LINE
  8
0
 62
7
 10
183.2857798185
 20
462.5130280424
 30
0
 11
183.2857798185
 21
461.0304146577
 31
0
  0
LINE
  8
0
 62
7
 10
192.9986817163
 20
460.3327124883
 30
0
 11
192.9986817163
 21
450.5713603962
 31
0
  0
LINE
  8
0
 62
7
 10
181.1539158557
 20
450.5713603962
 30
0
 11
181.1539158557
 21
462.5130280424
 31
0
  0
LINE
  8
0
 62
7
 10
104.5645014715
 20
508.3904735316
 30
0
 11
248.5644952726
 21
508.3904735316
 31
0
  0
LINE
  8
0
 62
7
 10
156.5644988191
 20
478.8904733528
 30
0
 11
184.564498752
 21
478.8904733528
 31
0
  0
LINE
  8
0
 62
7
 10
156.5644988191
 20
481.8904757071
 30
0
 11
156.5644988191
 21
478.8904733528
 31
0
  0
LINE
  8
0
 62
7
 10
184.564498752
 20
481.8904757071
 30
0
 11
156.5644988191
 21
481.8904757071
 31
0
  0
LINE
  8
0
 62
7
 10
207.0974079292
 20
450.5713603962
 30
0
 11
204.9655435007
 21
450.5713603962
 31
0
  0
LINE
  8
0
 62
7
 10
204.9655435007
 20
450.5713603962
 30
0
 11
204.9655435007
 21
459.5477994103
 31
0
  0
LINE
  8
0
 62
7
 10
202.1908914071
 20
458.5012480188
 30
0
 11
202.1908914071
 21
450.5713603962
 31
0
  0
LINE
  8
0
 62
7
 10
202.1908914071
 20
450.5713603962
 30
0
 11
200.0590269786
 21
450.5713603962
 31
0
  0
LINE
  8
0
 62
7
 10
200.0590269786
 20
450.5713603962
 30
0
 11
200.0590269786
 21
459.6350121815
 31
0
  0
LINE
  8
0
 62
7
 10
197.3845069628
 20
458.5012480188
 30
0
 11
197.3845069628
 21
450.5713603962
 31
0
  0
LINE
  8
0
 62
7
 10
197.3845069628
 20
450.5713603962
 30
0
 11
195.2526425343
 21
450.5713603962
 31
0
  0
LINE
  8
0
 62
7
 10
195.2526425343
 20
450.5713603962
 30
0
 11
195.2526425343
 21
462.5130280424
 31
0
  0
LINE
  8
0
 62
7
 10
195.2526425343
 20
462.5130280424
 30
0
 11
197.3845069628
 21
462.5130280424
 31
0
  0
LINE
  8
0
 62
7
 10
197.3845069628
 20
462.5130280424
 30
0
 11
197.3845069628
 21
461.0304146577
 31
0
  0
LINE
  8
0
 62
7
 10
207.0974079292
 20
460.3327124883
 30
0
 11
207.0974079292
 21
450.5713603962
 31
0
  0
LINE
  8
0
 62
7
 10
184.564498752
 20
478.8904733528
 30
0
 11
184.564498752
 21
476.3904757369
 31
0
  0
LINE
  8
0
 62
7
 10
184.564498752
 20
484.3904733229
 30
0
 11
184.564498752
 21
481.8904757071
 31
0
  0
LINE
  8
0
 62
7
 10
150.8054253977
 20
458.7013240475
 30
0
 11
148.3668932092
 21
458.7013240475
 31
0
  0
LINE
  8
0
 62
7
 10
148.3668932092
 20
458.7013240475
 30
0
 11
149.0543322038
 21
468.5819990505
 31
0
  0
LINE
  8
0
 62
7
 10
149.0543322038
 20
468.5819990505
 30
0
 11
159.0547138225
 21
468.5819990505
 31
0
  0
LINE
  8
0
 62
7
 10
159.0547138225
 20
466.8343275357
 30
0
 11
151.376583181
 21
466.8343275357
 31
0
  0
LINE
  8
0
 62
7
 10
151.376583181
 20
466.8343275357
 30
0
 11
150.9182886552
 21
460.8252070416
 31
0
  0
LINE
  8
0
 62
7
 10
147.826515637
 20
455.654012369
 30
0
 11
150.4599959921
 21
455.654012369
 31
0
  0
LINE
  8
0
 62
7
 10
159.0547138225
 20
468.5819990505
 30
0
 11
159.0547138225
 21
466.8343275357
 31
0
  0
LINE
  8
0
 62
7
 10
181.7725925107
 20
404.144607814
 30
0
 11
182.1676143777
 21
404.144607814
 31
0
  0
LINE
  8
0
 62
7
 10
182.1676143777
 20
403.4649565388
 30
0
 11
180.9226973314
 21
403.4649565388
 31
0
  0
LINE
  8
0
 62
7
 10
180.9226973314
 20
403.4649565388
 30
0
 11
180.9226973314
 21
410.4649576861
 31
0
  0
LINE
  8
0
 62
7
 10
180.9226973314
 20
410.4649576861
 30
0
 11
182.1676143777
 21
410.4649576861
 31
0
  0
LINE
  8
0
 62
7
 10
182.1676143777
 20
409.7853064109
 30
0
 11
181.7725925107
 21
409.7853064109
 31
0
  0
LINE
  8
0
 62
7
 10
181.7725925107
 20
409.7853064109
 30
0
 11
181.7725925107
 21
404.144607814
 31
0
  0
LINE
  8
0
 62
7
 10
185.5644979846
 20
400.8904754687
 30
0
 11
185.5644979846
 21
412.8904737104
 31
0
  0
LINE
  8
0
 62
7
 10
167.5644987594
 20
400.8904754687
 30
0
 11
185.5644979846
 21
400.8904754687
 31
0
  0
LINE
  8
0
 62
7
 10
167.5644987594
 20
412.8904737104
 30
0
 11
167.5644987594
 21
400.8904754687
 31
0
  0
LINE
  8
0
 62
7
 10
185.5644979846
 20
412.8904737104
 30
0
 11
167.5644987594
 21
412.8904737104
 31
0
  0
LINE
  8
0
 62
7
 10
230.8346540999
 20
411.7743264455
 30
0
 11
230.8346540998789
 21
396.0414886046438
 31
0
  0
LINE
  8
0
 62
7
 10
176.564498372
 20
366.6246182788
 30
0
 11
173.4548125282
 21
367.0239768494
 31
0
  0
LINE
  8
0
 62
7
 10
146.8714722764
 20
361.2478695381
 30
0
 11
136.0545070242
 21
365.1216871608
 31
0
  0
LINE
  8
0
 62
7
 10
179.6580918931
 20
366.7169160713
 30
0
 11
176.5644983713
 21
366.625378238
 31
0
  0
LINE
  8
0
 62
7
 10
291.5645004582
 20
385.3904738594
 30
0
 11
291.5645004582
 21
485.3904753495
 31
0
  0
LINE
  8
0
 62
7
 10
46.5645031404
 20
385.3904738594
 30
0
 11
46.5645031404
 21
485.3904753495
 31
0
  0
LINE
  8
0
 62
7
 10
86.2358571362
 20
464.8904747833
 30
0
 11
78.564500935
 21
464.8904747833
 31
0
  0
LINE
  8
0
 62
7
 10
174.0644984279
 20
355.3904763926
 30
0
 11
179.0644983161
 21
355.3904763926
 31
0
  0
LINE
  8
0
 62
7
 10
173.4548125282
 20
367.0239768494
 30
0
 11
174.0644984279
 21
355.3904763926
 31
0
  0
LINE
  8
0
 62
7
 10
179.6580918931
 20
366.7169160713
 30
0
 11
179.0644983161
 21
355.3904763926
 31
0
  0
LINE
  8
0
 62
7
 10
270.2425047813371
 20
378.3711597982903
 30
0
 11
270.2411509494899
 21
378.3720934754153
 31
0
  0
LINE
  8
0
 62
7
 10
269.5370725217072
 20
492.5090592334562
 30
0
 11
244.7577478271517
 21
478.3070556681878
 31
0
  0
LINE
  8
0
 62
7
 10
206.5644977015
 20
355.3904763926
 30
0
 11
216.5644974779
 21
355.3904763926
 31
0
  0
LINE
  8
0
 62
7
 10
206.2580813985
 20
361.237267362
 30
0
 11
206.5644977015
 21
355.3904763926
 31
0
  0
LINE
  8
0
 62
7
 10
217.1580926847
 20
366.7169160713
 30
0
 11
216.5644974779
 21
355.3904763926
 31
0
  0
LINE
  8
0
 62
7
 10
136.5644992661
 20
355.3904763926
 30
0
 11
146.5644990426
 21
355.3904763926
 31
0
  0
LINE
  8
0
 62
7
 10
136.0545070242
 20
365.1216871608
 30
0
 11
136.5644992661
 21
355.3904763926
 31
0
  0
LINE
  8
0
 62
7
 10
146.8714722764
 20
361.2478695381
 30
0
 11
146.5644990426
 21
355.3904763926
 31
0
  0
LINE
  8
0
 62
7
 10
86.2358571362
 20
464.8904747833
 30
0
 11
86.24046904559999
 21
464.8694417942
 31
0
  0
LINE
  8
0
 62
7
 10
105.3649694991
 20
479.0318890978
 30
0
 11
105.358539648
 21
479.0318890978
 31
0
  0
LINE
  8
0
 62
7
 10
217.9207452905
 20
544.8904729951
 30
0
 11
135.2082514536
 21
544.8904729951
 31
0
  0
LINE
  8
0
 62
7
 10
130.0122686993
 20
551.8904722799
 30
0
 11
130.0122686993
 21
553.8883068867751
 31
0
  0
LINE
  8
0
 62
7
 10
127.5140801638321
 20
556.3904739488
 30
0
 11
127.5104591143679
 21
556.3904739488
 31
0
  0
LINE
  8
0
 62
7
 10
114.064498372
 20
545.5012864936
 30
0
 11
114.064498372
 21
553.8904704363
 31
0
  0
LINE
  8
0
 62
7
 10
240.5645014119
 20
550.8904777039001
 30
0
 11
240.5645014119
 21
548.8904736508
 31
0
  0
LINE
  8
0
 62
7
 10
129.7234245908
 20
499.2389775384
 30
0
 11
129.7234245908
 21
508.3904735316
 31
0
  0
LINE
  8
0
 62
7
 10
118.7537708651
 20
499.2389775384
 30
0
 11
118.7537708651
 21
508.3904735316
 31
0
  0
LINE
  8
0
 62
7
 10
133.7385983538
 20
498.3904756177
 30
0
 11
114.7385971021
 21
498.3904756177
 31
0
  0
LINE
  8
0
 62
7
 10
135.2082514536
 20
499.2389775384
 30
0
 11
135.2082514536
 21
508.3904735316
 31
0
  0
LINE
  8
0
 62
7
 10
113.268940277
 20
499.2389775384
 30
0
 11
113.268940277
 21
508.3904735316
 31
0
  0
LINE
  8
0
 62
7
 10
234.3752258789
 20
499.2389775384
 30
0
 11
234.3752258789
 21
508.3904735316
 31
0
  0
LINE
  8
0
 62
7
 10
223.4055721533
 20
499.2389775384
 30
0
 11
223.4055721533
 21
508.3904735316
 31
0
  0
LINE
  8
0
 62
7
 10
238.3903996419
 20
498.3904756177
 30
0
 11
219.3903983902
 21
498.3904756177
 31
0
  0
LINE
  8
0
 62
7
 10
239.860056467
 20
499.2389775384
 30
0
 11
239.860056467
 21
508.3904735316
 31
0
  0
LINE
  8
0
 62
7
 10
217.9207452905
 20
499.2389775384
 30
0
 11
217.9207452905
 21
508.3904735316
 31
0
  0
LINE
  8
0
 62
7
 10
133.7385983538
 20
545.8904750217
 30
0
 11
114.7385971021
 21
545.8904750217
 31
0
  0
LINE
  8
0
 62
7
 10
118.7537708651
 20
545.0419656504
 30
0
 11
118.7537708651
 21
537.8904737104
 31
0
  0
LINE
  8
0
 62
7
 10
129.7234245908
 20
545.0419656504
 30
0
 11
129.7234245908
 21
537.8904737104
 31
0
  0
LINE
  8
0
 62
7
 10
135.2082514536
 20
545.0419656504
 30
0
 11
135.2082514536
 21
537.8904737104
 31
0
  0
LINE
  8
0
 62
7
 10
113.268940277
 20
545.0419656504
 30
0
 11
113.268940277
 21
537.8904737104
 31
0
  0
LINE
  8
0
 62
7
 10
130.2385949861
 20
492.8904756475
 30
0
 11
118.2385967445
 21
492.8904756475
 31
0
  0
LINE
  8
0
 62
7
 10
238.3903996419
 20
545.8904750217
 30
0
 11
219.3903983902
 21
545.8904750217
 31
0
  0
LINE
  8
0
 62
7
 10
223.4055721533
 20
545.0419656504
 30
0
 11
223.4055721533
 21
537.8904737104
 31
0
  0
LINE
  8
0
 62
7
 10
234.3752258789
 20
545.0419656504
 30
0
 11
234.3752258789
 21
537.8904737104
 31
0
  0
LINE
  8
0
 62
7
 10
239.860056467
 20
545.0419656504
 30
0
 11
239.860056467
 21
537.8904737104
 31
0
  0
LINE
  8
0
 62
7
 10
217.9207452905
 20
545.0419656504
 30
0
 11
217.9207452905
 21
537.8904737104
 31
0
  0
LINE
  8
0
 62
7
 10
234.8903999996
 20
492.8904756475
 30
0
 11
222.8904017579
 21
492.8904756475
 31
0
  0
LINE
  8
0
 62
7
 10
104.5645014715
 20
523.3904741276
 30
0
 11
248.5644952726
 21
523.3904741276
 31
0
  0
LINE
  8
0
 62
7
 10
120.6963123154
 20
534.8904750813
 30
0
 11
164.5928700786
 21
534.8904750813
 31
0
  0
LINE
  8
0
 62
7
 10
149.064498521
 20
531.3904754389
 30
0
 11
149.064498521
 21
534.8904750813
 31
0
  0
LINE
  8
0
 62
7
 10
149.064498521
 20
531.3904754389
 30
0
 11
204.064498223
 21
531.3904754389
 31
0
  0
LINE
  8
0
 62
7
 10
204.064498223
 20
531.3904754389
 30
0
 11
204.064498223
 21
534.8904750813
 31
0
  0
LINE
  8
0
 62
7
 10
188.5361266654
 20
534.8904750813
 30
0
 11
232.4326844286
 21
534.8904750813
 31
0
  0
LINE
  8
0
 62
7
 10
112.0484085154
 20
537.8904737104
 30
0
 11
241.0805882286
 21
537.8904737104
 31
0
  0
LINE
  8
0
 62
7
 10
246.6648505401
 20
531.3904754389
 30
0
 11
246.6648505401
 21
534.8904750813
 31
0
  0
LINE
  8
0
 62
7
 10
246.6648505401
 20
531.3904754389
 30
0
 11
248.5644952726
 21
531.3904754389
 31
0
  0
LINE
  8
0
 62
7
 10
240.6028942537
 20
534.8904750813
 30
0
 11
246.6648505401
 21
534.8904750813
 31
0
  0
LINE
  8
0
 62
7
 10
104.5645014715
 20
531.3904754389
 30
0
 11
106.1331467103
 21
531.3904754389
 31
0
  0
LINE
  8
0
 62
7
 10
106.1331467103
 20
531.3904754389
 30
0
 11
106.1331467103
 21
534.8904750813
 31
0
  0
LINE
  8
0
 62
7
 10
106.1331467103
 20
534.8904750813
 30
0
 11
112.5261024904
 21
534.8904750813
 31
0
  0
LINE
  8
0
 62
7
 10
239.860056467
 20
544.8904729951
 30
0
 11
243.5645000409
 21
544.8904729951
 31
0
  0
LINE
  8
0
 62
7
 10
232.3361174535
 20
508.3904735316
 30
0
 11
232.3361174535
 21
523.3904741276
 31
0
  0
LINE
  8
0
 62
7
 10
120.7928792905
 20
508.3904735316
 30
0
 11
120.7928792905
 21
523.3904741276
 31
0
  0
LINE
  8
0
 62
7
 10
112.7439425659
 20
508.3904735316
 30
0
 11
112.7439425659
 21
523.3904741276
 31
0
  0
LINE
  8
0
 62
7
 10
240.3850541782
 20
508.3904735316
 30
0
 11
240.3850541782
 21
523.3904741276
 31
0
  0
LINE
  8
0
 62
7
 10
217.9207452905
 20
503.3904782999
 30
0
 11
135.2082514536
 21
503.3904782999
 31
0
  0
LINE
  8
0
 62
7
 10
237.3506264161
 20
481.7556015719
 30
0
 11
237.3836660158
 21
481.7855491806
 31
0
  0
LINE
  8
0
 62
7
 10
120.2474483621
 20
545.8904750217
 30
0
 11
120.2474483621
 21
550.3904766906686
 31
0
  0
LINE
  8
0
 62
7
 10
232.4326844286
 20
523.3904741276
 30
0
 11
232.4326844286
 21
534.8904750813
 31
0
  0
LINE
  8
0
 62
7
 10
120.6963123154
 20
534.8904750813
 30
0
 11
120.6963123154
 21
523.3904741276
 31
0
  0
LINE
  8
0
 62
7
 10
155.5908941995
 20
531.3904754389
 30
0
 11
155.5908941995
 21
534.8904750813
 31
0
  0
LINE
  8
0
 62
7
 10
197.5381025445
 20
531.3904754389
 30
0
 11
197.5381025445
 21
534.8904750813
 31
0
  0
LINE
  8
0
 62
7
 10
240.6028942537
 20
534.8904750813
 30
0
 11
240.6028942537
 21
523.3904741276
 31
0
  0
LINE
  8
0
 62
7
 10
112.5261024904
 20
523.3904741276
 30
0
 11
112.5261024904
 21
534.8904750813
 31
0
  0
LINE
  8
0
 62
7
 10
188.5361266654
 20
531.3904754389
 30
0
 11
188.5361266654
 21
534.8904750813
 31
0
  0
LINE
  8
0
 62
7
 10
164.5928700786
 20
531.3904754389
 30
0
 11
164.5928700786
 21
534.8904750813
 31
0
  0
LINE
  8
0
 62
7
 10
147.6583374065
 20
537.8904737104
 30
0
 11
147.6583374065
 21
534.8904750813
 31
0
  0
LINE
  8
0
 62
7
 10
205.4706593376
 20
537.8904737104
 30
0
 11
205.4706593376
 21
534.8904750813
 31
0
  0
LINE
  8
0
 62
7
 10
168.8517869907
 20
410.4649568389
 30
0
 11
178.5980533787
 21
410.4649568389
 31
0
  0
LINE
  8
0
 62
7
 10
168.8517869907
 20
410.4649568389
 30
0
 11
168.8517869907
 21
403.4649568389
 31
0
  0
LINE
  8
0
 62
7
 10
168.8517869907
 20
403.4649568389
 30
0
 11
178.5980533787
 21
403.4649568389
 31
0
  0
LINE
  8
0
 62
7
 10
178.5980533787
 20
410.4649568389
 30
0
 11
178.5980533787
 21
403.4649568389
 31
0
  0
LINE
  8
0
 62
2
  6
DASHDOT
 10
124.2385965642
 20
488.8904746044
 30
0
 11
124.2385965642
 21
549.7012798278
 31
0
  0
LINE
  8
0
 62
2
  6
DASHDOT
 10
228.8904001798
 20
488.8904746044
 30
0
 11
228.8904001798
 21
548.8627974888
 31
0
  0
LINE
  8
0
 62
7
 10
48.5644922923
 20
570.3892667075
 30
0
 11
63.564500339
 21
570.3892667075
 31
0
  0
LINE
  8
0
 62
7
 10
63.564500339
 20
756.3892711182
 30
0
 11
48.5644922923
 21
756.3892711182
 31
0
  0
LINE
  8
0
 62
7
 10
289.5644964051
 20
756.3892711182
 30
0
 11
274.564495809
 21
756.3892711182
 31
0
  0
LINE
  8
0
 62
7
 10
274.564495809
 20
570.3892667075
 30
0
 11
289.5644964051
 21
570.3892667075
 31
0
  0
LINE
  8
0
 62
7
 10
104.7005565237
 20
670.5641519507
 30
0
 11
104.1971431445
 21
664.8855458475
 31
0
  0
LINE
  8
0
 62
7
 10
248.5383511853
 20
701.3600390633
 30
0
 11
244.304879136
 21
703.8750346978
 31
0
  0
LINE
  8
0
 62
7
 10
244.4021911692
 20
622.9613121827
 30
0
 11
248.5123721264194
 21
625.4030652698401
 31
0
  0
LINE
  8
0
 62
7
 10
289.5644964051
 20
611.38926784
 30
0
 11
291.5645004582
 21
613.3892681678
 31
0
  0
LINE
  8
0
 62
7
 10
291.5645004582
 20
713.3892696578999
 30
0
 11
289.5644964051
 21
715.3892699857
 31
0
  0
LINE
  8
0
 62
7
 10
48.5644922923
 20
715.3892699857
 30
0
 11
46.5645031404
 21
713.3892696578999
 31
0
  0
LINE
  8
0
 62
7
 10
46.5645031404
 20
613.3892681678
 30
0
 11
48.5644922923
 21
611.38926784
 31
0
  0
LINE
  8
0
 62
7
 10
63.564500339
 20
756.3892711182
 30
0
 11
63.564500339
 21
570.3892667075
 31
0
  0
LINE
  8
0
 62
7
 10
48.5644922923
 20
756.3892711182
 30
0
 11
48.5644922923
 21
570.3892667075
 31
0
  0
LINE
  8
0
 62
7
 10
289.5644964051
 20
756.3892711182
 30
0
 11
289.5644964051
 21
570.3892667075
 31
0
  0
LINE
  8
0
 62
7
 10
274.564495809
 20
756.3892711182
 30
0
 11
274.564495809
 21
570.3892667075
 31
0
  0
LINE
  8
0
 62
7
 10
274.564495809
 20
658.3892690246
 30
0
 11
248.5019849014
 21
658.3892690246
 31
0
  0
LINE
  8
0
 62
7
 10
248.5019849014
 20
668.3892688011
 30
0
 11
274.564495809
 21
668.3892688011
 31
0
  0
LINE
  8
0
 62
7
 10
291.5645004582
 20
613.3892681678
 30
0
 11
291.5645004582
 21
713.3892696578999
 31
0
  0
LINE
  8
0
 62
7
 10
46.5645031404
 20
613.3892681678
 30
0
 11
46.5645031404
 21
713.3892696578999
 31
0
  0
LINE
  8
0
 62
7
 10
104.5701266598
 20
661.8892688998
 30
0
 11
86.2358571362
 21
661.8892688998
 31
0
  0
LINE
  8
0
 62
7
 10
86.2358571362
 20
661.8892688998
 30
0
 11
86.2358571362
 21
664.8892689259
 31
0
  0
LINE
  8
0
 62
7
 10
104.5701266598
 20
664.8892689259
 30
0
 11
86.2358571362
 21
664.8892689259
 31
0
  0
LINE
  8
0
 62
7
 10
115.064498372
 20
677.5892689129
 30
0
 11
127.5120564621
 21
677.5892689129001
 31
0
  0
LINE
  8
0
 62
7
 10
114.064498372
 20
650.1892689129001
 30
0
 11
114.064498372
 21
676.5892689129
 31
0
  0
LINE
  8
0
 62
7
 10
119.0644973289
 20
665.8892688570001
 30
0
 11
119.0644973289
 21
672.589269117
 31
0
  0
LINE
  8
0
 62
7
 10
119.0644973289
 20
672.589269117
 30
0
 11
127.5110462640036
 21
672.589269117
 31
0
  0
LINE
  8
0
 62
7
 10
126.065027049807
 20
665.8892688570001
 30
0
 11
126.063969694193
 21
665.8892688570001
 31
0
  0
LINE
  8
0
 62
7
 10
119.0644973289
 20
660.8892689687
 30
0
 11
126.0639701669534
 21
660.8892689687
 31
0
  0
LINE
  8
0
 62
7
 10
119.0644973289
 20
654.1892687087
 30
0
 11
119.0644973289
 21
660.8892689687
 31
0
  0
LINE
  8
0
 62
7
 10
127.5132800850331
 20
654.1892687087
 30
0
 11
127.5112591931669
 21
654.1892687087
 31
0
  0
LINE
  8
0
 62
7
 10
127.5122710835
 20
649.1892688205001
 30
0
 11
115.064498372
 21
649.1892689129001
 31
0
  0
LINE
  8
0
 62
7
 10
230.7332144451
 20
657.3892935407
 30
0
 11
230.6466424238
 21
657.3889419665001
 31
0
  0
LINE
  8
0
 62
7
 10
231.0568564903
 20
669.2970196013
 30
0
 11
231.0568564903
 21
669.2970191357
 31
0
  0
LINE
  8
0
 62
7
 10
198.5644982528
 20
690.3892696132
 30
0
 11
186.5644981485
 21
690.3892696132
 31
0
  0
LINE
  8
0
 62
7
 10
198.5644982528
 20
636.3892682125
 30
0
 11
198.5644982528
 21
690.3892696132
 31
0
  0
LINE
  8
0
 62
7
 10
186.5644981485
 20
636.3892682125
 30
0
 11
198.5644982528
 21
636.3892682125
 31
0
  0
LINE
  8
0
 62
7
 10
186.5644981485
 20
690.3892696132
 30
0
 11
186.5644981485
 21
636.3892682125
 31
0
  0
LINE
  8
0
 62
7
 10
140.890015788
 20
680.8626797278999
 30
0
 11
147.8900169354
 21
680.8626797278999
 31
0
  0
LINE
  8
0
 62
7
 10
147.8900169354
 20
680.8626797278999
 30
0
 11
147.8900169354
 21
679.559239768
 31
0
  0
LINE
  8
0
 62
7
 10
147.8900169354
 20
679.559239768
 30
0
 11
142.6496603858
 21
677.1385675525
 31
0
  0
LINE
  8
0
 62
7
 10
142.6496603858
 20
677.1385675525
 30
0
 11
142.6496603858
 21
677.0920163249
 31
0
  0
LINE
  8
0
 62
7
 10
142.6496603858
 20
677.0920163249
 30
0
 11
147.8900169354
 21
677.0920163249
 31
0
  0
LINE
  8
0
 62
7
 10
147.8900169354
 20
677.0920163249
 30
0
 11
147.8900169354
 21
675.9907432129
 31
0
  0
LINE
  8
0
 62
7
 10
147.8900169354
 20
675.9907432129
 30
0
 11
140.890015788
 21
675.9907432129
 31
0
  0
LINE
  8
0
 62
7
 10
140.890015788
 20
675.9907432129
 30
0
 11
140.890015788
 21
677.3247733941
 31
0
  0
LINE
  8
0
 62
7
 10
140.890015788
 20
677.3247733941
 30
0
 11
146.1330340576
 21
679.7454465409001
 31
0
  0
LINE
  8
0
 62
7
 10
146.1330340576
 20
679.7454465409001
 30
0
 11
146.1330340576
 21
679.7614056845
 31
0
  0
LINE
  8
0
 62
7
 10
146.1330340576
 20
679.7614056845
 30
0
 11
140.890015788
 21
679.7614056845
 31
0
  0
LINE
  8
0
 62
7
 10
140.890015788
 20
679.7614056845
 30
0
 11
140.890015788
 21
680.8626797278999
 31
0
  0
LINE
  8
0
 62
7
 10
213.4634168219
 20
678.2863807161
 30
0
 11
213.4634168219
 21
677.2484747921
 31
0
  0
LINE
  8
0
 62
7
 10
213.4634168219
 20
677.2484747921
 30
0
 11
208.4471681487
 21
677.2484747921
 31
0
  0
LINE
  8
0
 62
7
 10
209.0320089232
 20
675.8982945462
 30
0
 11
213.4634168219
 21
675.8982945462
 31
0
  0
LINE
  8
0
 62
7
 10
213.4634168219
 20
675.8982945462
 30
0
 11
213.4634168219
 21
674.8603876908001
 31
0
  0
LINE
  8
0
 62
7
 10
213.4634168219
 20
674.8603876908001
 30
0
 11
208.398433901
 21
674.8603876908001
 31
0
  0
LINE
  8
0
 62
7
 10
209.0320089232
 20
673.5589435552
 30
0
 11
213.4634168219
 21
673.5589435552
 31
0
  0
LINE
  8
0
 62
7
 10
213.4634168219
 20
673.5589435552
 30
0
 11
213.4634168219
 21
672.5210376312
 31
0
  0
LINE
  8
0
 62
7
 10
213.4634168219
 20
672.5210376312
 30
0
 11
206.7901292216
 21
672.5210376312
 31
0
  0
LINE
  8
0
 62
7
 10
206.7901292216
 20
672.5210376312
 30
0
 11
206.7901292216
 21
673.5589435552
 31
0
  0
LINE
  8
0
 62
7
 10
206.7901292216
 20
673.5589435552
 30
0
 11
207.6186505478
 21
673.5589435552
 31
0
  0
LINE
  8
0
 62
7
 10
208.0085412931246
 20
678.2863807161369
 30
0
 11
213.4634168219
 21
678.2863807161
 31
0
  0
LINE
  8
0
 62
7
 10
163.0644980218
 20
666.5646954202
 30
0
 11
157.564498983
 21
663.3892689129
 31
0
  0
LINE
  8
0
 62
7
 10
157.564498983
 20
663.3892689129
 30
0
 11
163.0644980218
 21
660.2138424055
 31
0
  0
LINE
  8
0
 62
7
 10
163.0644980218
 20
660.2138424055
 30
0
 11
163.0644980218
 21
653.8629891579
 31
0
  0
LINE
  8
0
 62
7
 10
163.0644980218
 20
653.8629891579
 30
0
 11
168.564497992
 21
657.0384158981
 31
0
  0
LINE
  8
0
 62
7
 10
168.564497992
 20
657.0384158981
 30
0
 11
174.0644984279
 21
653.8629891579
 31
0
  0
LINE
  8
0
 62
7
 10
174.0644984279
 20
653.8629891579
 30
0
 11
174.0644984279
 21
660.2138424055
 31
0
  0
LINE
  8
0
 62
7
 10
174.0644984279
 20
660.2138424055
 30
0
 11
179.5644983981
 21
663.3892689129
 31
0
  0
LINE
  8
0
 62
7
 10
179.5644983981
 20
663.3892689129
 30
0
 11
174.0644984279
 21
666.5646954202
 31
0
  0
LINE
  8
0
 62
7
 10
174.0644984279
 20
666.5646954202
 30
0
 11
174.0644984279
 21
672.9155486678
 31
0
  0
LINE
  8
0
 62
7
 10
174.0644984279
 20
672.9155486678
 30
0
 11
168.564497992
 21
669.7401219275999
 31
0
  0
LINE
  8
0
 62
7
 10
168.564497992
 20
669.7401219275999
 30
0
 11
163.0644980218
 21
672.9155486678
 31
0
  0
LINE
  8
0
 62
7
 10
163.0644980218
 20
672.9155486678
 30
0
 11
163.0644980218
 21
666.5646954202
 31
0
  0
LINE
  8
0
 62
7
 10
183.5644985881
 20
663.3892689129
 30
0
 11
176.0644983483
 21
667.7193959472
 31
0
  0
LINE
  8
0
 62
7
 10
176.0644983483
 20
659.0591418785
 30
0
 11
183.5644985881
 21
663.3892689129
 31
0
  0
LINE
  8
0
 62
7
 10
176.0644983483
 20
650.3988882755
 30
0
 11
176.0644983483
 21
659.0591418785
 31
0
  0
LINE
  8
0
 62
7
 10
168.564497992
 20
654.7290148442
 30
0
 11
176.0644983483
 21
650.3988882755
 31
0
  0
LINE
  8
0
 62
7
 10
161.0644986253
 20
650.3988882755
 30
0
 11
168.564497992
 21
654.7290148442
 31
0
  0
LINE
  8
0
 62
7
 10
161.0644986253
 20
659.0591418785
 30
0
 11
161.0644986253
 21
650.3988882755
 31
0
  0
LINE
  8
0
 62
7
 10
153.5644983273
 20
663.3892689129
 30
0
 11
161.0644986253
 21
659.0591418785
 31
0
  0
LINE
  8
0
 62
7
 10
161.0644986253
 20
667.7193959472
 30
0
 11
153.5644983273
 21
663.3892689129
 31
0
  0
LINE
  8
0
 62
7
 10
176.0644983483
 20
667.7193959472
 30
0
 11
176.0644983483
 21
676.3796495502
 31
0
  0
LINE
  8
0
 62
7
 10
168.564497992
 20
672.0495229815
 30
0
 11
161.0644986253
 21
676.3796495502
 31
0
  0
LINE
  8
0
 62
7
 10
176.0644983483
 20
676.3796495502
 30
0
 11
168.564497992
 21
672.0495229815
 31
0
  0
LINE
  8
0
 62
7
 10
161.0644986253
 20
676.3796495502
 30
0
 11
161.0644986253
 21
667.7193959472
 31
0
  0
LINE
  8
0
 62
7
 10
142.6496603858
 20
662.9259590113001
 30
0
 11
147.8900169354
 21
662.9259590113001
 31
0
  0
LINE
  8
0
 62
7
 10
147.8900169354
 20
662.9259590113001
 30
0
 11
147.8900169354
 21
661.9776405855
 31
0
  0
LINE
  8
0
 62
7
 10
147.8900169354
 20
661.9776405855
 30
0
 11
140.890015788
 21
661.9776405855
 31
0
  0
LINE
  8
0
 62
7
 10
140.890015788
 20
661.9776405855
 30
0
 11
140.890015788
 21
663.4606350558
 31
0
  0
LINE
  8
0
 62
7
 10
140.890015788
 20
663.4606350558
 30
0
 11
145.450722925
 21
664.3969831052
 31
0
  0
LINE
  8
0
 62
7
 10
145.450722925
 20
664.3969831052
 30
0
 11
145.450722925
 21
664.4860957745
 31
0
  0
LINE
  8
0
 62
7
 10
140.890015788
 20
665.4211139535
 30
0
 11
140.890015788
 21
666.8469166611
 31
0
  0
LINE
  8
0
 62
7
 10
147.8900169354
 20
665.898598148
 30
0
 11
142.6496603858
 21
665.898598148
 31
0
  0
LINE
  8
0
 62
7
 10
142.6496603858
 20
665.898598148
 30
0
 11
142.6496603858
 21
665.8666772996
 31
0
  0
LINE
  8
0
 62
7
 10
142.6496603858
 20
665.8666772996
 30
0
 11
147.8900169354
 21
664.7973251525
 31
0
  0
LINE
  8
0
 62
7
 10
147.8900169354
 20
664.7973251525
 30
0
 11
147.8900169354
 21
664.0844237404
 31
0
  0
LINE
  8
0
 62
7
 10
147.8900169354
 20
664.0844237404
 30
0
 11
142.6496603858
 21
663.0150716806
 31
0
  0
LINE
  8
0
 62
7
 10
142.6496603858
 20
663.0150716806
 30
0
 11
142.6496603858
 21
662.9259590113001
 31
0
  0
LINE
  8
0
 62
7
 10
145.450722925
 20
664.4860957745
 30
0
 11
140.890015788
 21
665.4211139535
 31
0
  0
LINE
  8
0
 62
7
 10
140.890015788
 20
666.8469166611
 30
0
 11
147.8900169354
 21
666.8469166611
 31
0
  0
LINE
  8
0
 62
7
 10
147.8900169354
 20
666.8469166611
 30
0
 11
147.8900169354
 21
665.898598148
 31
0
  0
LINE
  8
0
 62
7
 10
174.0644984279
 20
664.4892689069
 30
0
 11
169.6644984517
 21
664.4892689069
 31
0
  0
LINE
  8
0
 62
7
 10
174.0644984279
 20
662.2892689188
 30
0
 11
174.0644984279
 21
664.4892689069
 31
0
  0
LINE
  8
0
 62
7
 10
169.6644984517
 20
662.2892689188
 30
0
 11
174.0644984279
 21
662.2892689188
 31
0
  0
LINE
  8
0
 62
7
 10
169.6644984517
 20
657.8892689427
 30
0
 11
169.6644984517
 21
662.2892689188
 31
0
  0
LINE
  8
0
 62
7
 10
167.464497998
 20
657.8892689427
 30
0
 11
169.6644984517
 21
657.8892689427
 31
0
  0
LINE
  8
0
 62
7
 10
167.464497998
 20
662.2892689188
 30
0
 11
167.464497998
 21
657.8892689427
 31
0
  0
LINE
  8
0
 62
7
 10
163.0644980218
 20
662.2892689188
 30
0
 11
167.464497998
 21
662.2892689188
 31
0
  0
LINE
  8
0
 62
7
 10
163.0644980218
 20
664.4892689069
 30
0
 11
163.0644980218
 21
662.2892689188
 31
0
  0
LINE
  8
0
 62
7
 10
167.464497998
 20
664.4892689069
 30
0
 11
163.0644980218
 21
664.4892689069
 31
0
  0
LINE
  8
0
 62
7
 10
169.6644984517
 20
668.8892688831
 30
0
 11
167.464497998
 21
668.8892688831
 31
0
  0
LINE
  8
0
 62
7
 10
169.6644984517
 20
664.4892689069
 30
0
 11
169.6644984517
 21
668.8892688831
 31
0
  0
LINE
  8
0
 62
7
 10
167.464497998
 20
668.8892688831
 30
0
 11
167.464497998
 21
664.4892689069
 31
0
  0
LINE
  8
0
 62
7
 10
142.6496603858
 20
655.925958999
 30
0
 11
147.8900169354
 21
655.925958999
 31
0
  0
LINE
  8
0
 62
7
 10
147.8900169354
 20
655.925958999
 30
0
 11
147.8900169354
 21
654.9776407186999
 31
0
  0
LINE
  8
0
 62
7
 10
147.8900169354
 20
654.9776407186999
 30
0
 11
140.890015788
 21
654.9776407186999
 31
0
  0
LINE
  8
0
 62
7
 10
140.890015788
 20
654.9776407186999
 30
0
 11
140.890015788
 21
656.4606350144001
 31
0
  0
LINE
  8
0
 62
7
 10
140.890015788
 20
656.4606350144001
 30
0
 11
145.450722925
 21
657.3969830056
 31
0
  0
LINE
  8
0
 62
7
 10
140.890015788
 20
659.8469166779
 30
0
 11
147.8900169354
 21
659.8469166779
 31
0
  0
LINE
  8
0
 62
7
 10
147.8900169354
 20
659.8469166779
 30
0
 11
147.8900169354
 21
658.8985981648
 31
0
  0
LINE
  8
0
 62
7
 10
147.8900169354
 20
658.8985981648
 30
0
 11
142.6496603858
 21
658.8985981648
 31
0
  0
LINE
  8
0
 62
7
 10
142.6496603858
 20
658.8985981648
 30
0
 11
142.6496603858
 21
658.8666770836001
 31
0
  0
LINE
  8
0
 62
7
 10
142.6496603858
 20
658.8666770836001
 30
0
 11
147.8900169354
 21
657.7973250528
 31
0
  0
LINE
  8
0
 62
7
 10
147.8900169354
 20
657.7973250528
 30
0
 11
147.8900169354
 21
657.084423699
 31
0
  0
LINE
  8
0
 62
7
 10
147.8900169354
 20
657.084423699
 30
0
 11
142.6496603858
 21
656.0150716682
 31
0
  0
LINE
  8
0
 62
7
 10
142.6496603858
 20
656.0150716682
 30
0
 11
142.6496603858
 21
655.925958999
 31
0
  0
LINE
  8
0
 62
7
 10
145.450722925
 20
657.4860956748
 30
0
 11
140.890015788
 21
658.4211137374
 31
0
  0
LINE
  8
0
 62
7
 10
140.890015788
 20
658.4211137374
 30
0
 11
140.890015788
 21
659.8469166779
 31
0
  0
LINE
  8
0
 62
7
 10
145.450722925
 20
657.3969830056
 30
0
 11
145.450722925
 21
657.4860956748
 31
0
  0
LINE
  8
0
 62
7
 10
140.890015788
 20
653.3816118022
 30
0
 11
147.8900169354
 21
653.3816118022
 31
0
  0
LINE
  8
0
 62
7
 10
147.8900169354
 20
653.3816118022
 30
0
 11
147.8900169354
 21
652.4053622265
 31
0
  0
LINE
  8
0
 62
7
 10
147.8900169354
 20
652.4053622265
 30
0
 11
140.890015788
 21
652.4053622265
 31
0
  0
LINE
  8
0
 62
7
 10
140.890015788
 20
652.4053622265
 30
0
 11
140.890015788
 21
653.3816118022
 31
0
  0
LINE
  8
0
 62
7
 10
208.9473591518
 20
646.638936944716
 30
0
 11
208.9473591518
 21
645.3449983378
 31
0
  0
LINE
  8
0
 62
7
 10
208.9473591518
 20
645.3449983378
 30
0
 11
203.4580954682
 21
645.7098085662
 31
0
  0
LINE
  8
0
 62
7
 10
203.4580954682
 20
645.7098085662
 30
0
 11
203.4580954682
 21
651.0166680669
 31
0
  0
LINE
  8
0
 62
7
 10
203.4580954682
 20
651.0166680669
 30
0
 11
204.4290234666
 21
651.0166680669
 31
0
  0
LINE
  8
0
 62
7
 10
204.4290234666
 20
651.0166680669
 30
0
 11
204.4290234666
 21
646.9429448475
 31
0
  0
LINE
  8
0
 62
7
 10
204.4290234666
 20
646.9429448475
 30
0
 11
207.7674237412
 21
646.6997374077
 31
0
  0
LINE
  8
0
 62
7
 10
210.6403098773
 20
645.0580895175
 30
0
 11
210.6403098773
 21
646.4565318306001
 31
0
  0
LINE
  8
0
 62
7
 10
147.8900169354
 20
645.9146846314
 30
0
 11
140.890015788
 21
645.9146846314
 31
0
  0
LINE
  8
0
 62
7
 10
140.890015788
 20
645.9146846314
 30
0
 11
140.890015788
 21
646.9694055845
 31
0
  0
LINE
  8
0
 62
7
 10
140.890015788
 20
646.9694055845
 30
0
 11
143.8347236585
 21
646.9694055845
 31
0
  0
LINE
  8
0
 62
7
 10
144.3374813866
 20
647.6823069384
 30
0
 11
145.1275223266
 21
646.9694055845
 31
0
  0
LINE
  8
0
 62
7
 10
145.1275223266
 20
646.9694055845
 30
0
 11
147.8900169354
 21
646.9694055845
 31
0
  0
LINE
  8
0
 62
7
 10
147.8900169354
 20
646.9694055845
 30
0
 11
147.8900169354
 21
645.9146846314
 31
0
  0
LINE
  8
0
 62
7
 10
140.890015788
 20
649.5084516932
 30
0
 11
140.890015788
 21
650.7121376922
 31
0
  0
LINE
  8
0
 62
7
 10
147.8900169354
 20
650.8903630306
 30
0
 11
147.8900169354
 21
649.7318983306
 31
0
  0
LINE
  8
0
 62
7
 10
143.8347236585
 20
646.9694055845
 30
0
 11
140.890015788
 21
649.5084516932
 31
0
  0
LINE
  8
0
 62
7
 10
143.6551683914
 20
648.3499869933
 30
0
 11
147.8900169354
 21
650.8903630306
 31
0
  0
LINE
  8
0
 62
7
 10
140.890015788
 20
650.7121376922
 30
0
 11
143.6551683914
 21
648.3499869933
 31
0
  0
LINE
  8
0
 62
7
 10
147.8900169354
 20
649.7318983306
 30
0
 11
144.3374813866
 21
647.6823069384
 31
0
  0
LINE
  8
0
 62
7
 10
236.3144965243
 20
658.4458389548
 30
0
 11
236.6512143385
 21
658.5087926355
 31
0
  0
LINE
  8
0
 62
7
 10
236.954262979
 20
668.1922428538001
 30
0
 11
236.3144965243
 21
668.3326988709
 31
0
  0
LINE
  8
0
 62
7
 10
236.3144965243
 20
658.4458389548
 30
0
 11
236.3144965243
 21
658.4955897411001
 31
0
  0
LINE
  8
0
 62
7
 10
236.3144965243
 20
668.248464935
 30
0
 11
236.3144965243
 21
668.3326988709
 31
0
  0
LINE
  8
0
 62
7
 10
123.5729591321
 20
659.3892687229001
 30
0
 11
123.5729591321
 21
667.3892691028
 31
0
  0
LINE
  8
0
 62
7
 10
235.5644987296
 20
668.6392688421
 30
0
 11
234.9595041346
 21
668.6042939540999
 31
0
  0
LINE
  8
0
 62
7
 10
123.5729591321
 20
659.3892687229001
 30
0
 11
122.5644969713
 21
659.3892687229001
 31
0
  0
LINE
  8
0
 62
7
 10
123.5729591321
 20
667.3892691028
 30
0
 11
122.5644969713
 21
667.3892691028
 31
0
  0
LINE
  8
0
 62
7
 10
117.104186244
 20
677.5892690052
 30
0
 11
117.104186244
 21
680.9526194115
 31
0
  0
LINE
  8
0
 62
7
 10
116.2386448454
 20
677.5892690052
 30
0
 11
117.104186244
 21
680.9526194115
 31
0
  0
LINE
  8
0
 62
7
 10
149.064498521
 20
733.4896210809
 30
0
 11
155.5908941995
 21
726.9632254024
 31
0
  0
LINE
  8
0
 62
7
 10
197.5381018189655
 20
726.9632257164345
 30
0
 11
204.064498223
 21
733.4896210809
 31
0
  0
LINE
  8
0
 62
7
 10
116.8401314855
 20
688.3892689129
 30
0
 11
106.1331467103
 21
688.3892692854
 31
0
  0
LINE
  8
0
 62
7
 10
246.6648505401
 20
690.8892687638
 30
0
 11
240.1384551755345
 21
684.3628723598655
 31
0
  0
LINE
  8
0
 62
7
 10
240.1384551755345
 20
642.4156654658344
 30
0
 11
246.6648505401
 21
635.8892690619
 31
0
  0
LINE
  8
0
 62
7
 10
106.1331467103
 20
638.3892685403
 30
0
 11
116.840130217
 21
638.3892685403
 31
0
  0
LINE
  8
0
 62
7
 10
155.5908941995
 20
599.8153124233
 30
0
 11
149.064498521
 21
593.2889167448
 31
0
  0
LINE
  8
0
 62
7
 10
204.064498223
 20
593.2889167448
 30
0
 11
197.5381025445
 21
599.8153124233
 31
0
  0
LINE
  8
0
 62
7
 10
559.6149184226
 20
508.3904735316
 30
0
 11
559.6149184226
 21
531.3904754389
 31
0
  0
LINE
  8
0
 62
7
 10
415.6149246215
 20
531.3904754389
 30
0
 11
415.6149246215
 21
508.3904735316
 31
0
  0
LINE
  8
0
 62
7
 10
542.1149202107
 20
545.8904750217
 30
0
 11
542.1149202107
 21
550.3924580102324
 31
0
  0
LINE
  8
0
 62
7
 10
433.1149228333
 20
550.3924580101466
 30
0
 11
433.1149228333
 21
550.3884911986534
 31
0
  0
LINE
  8
0
 62
7
 10
479.614921142
 20
544.8904729951
 30
0
 11
479.614921142
 21
537.8904737104
 31
0
  0
LINE
  8
0
 62
7
 10
495.614921902
 20
537.8904737104
 30
0
 11
495.614921902
 21
544.8904729951
 31
0
  0
LINE
  8
0
 62
7
 10
552.1310113786
 20
534.8904750813
 30
0
 11
552.1310113786
 21
537.8904737104
 31
0
  0
LINE
  8
0
 62
7
 10
423.0988316654
 20
537.8904737104
 30
0
 11
423.0988316654
 21
534.8904750813
 31
0
  0
LINE
  8
0
 62
7
 10
440.1912956999269
 20
355.3904763926
 30
0
 11
535.0385473440731
 21
355.3904763926
 31
0
  0
LINE
  8
0
 62
7
 10
559.6149184226
 20
508.3904735316
 30
0
 11
545.2343628227
 21
508.3904735316
 31
0
  0
LINE
  8
0
 62
7
 10
415.6149246215
 20
508.3904735316
 30
0
 11
429.9954802214
 21
508.3904735316
 31
0
  0
LINE
  8
0
 62
7
 10
434.6122807845048
 20
551.8904722799
 30
0
 11
540.6175622595599
 21
551.8904722799
 31
0
  0
LINE
  8
0
 62
7
 10
481.6163934252
 20
550.887579428
 30
0
 11
481.6163934252
 21
550.8876315821
 31
0
  0
LINE
  8
0
 62
7
 10
530.4928005158
 20
544.8904729951
 30
0
 11
444.7890215038
 21
544.8904729951
 31
0
  0
LINE
  8
0
 62
7
 10
434.6122807845048
 20
551.8904722799
 30
0
 11
434.6175622594951
 21
551.8904722799
 31
0
  0
LINE
  8
0
 62
7
 10
473.4149214296
 20
553.890476333
 30
0
 11
501.8149216144
 21
553.890476333
 31
0
  0
LINE
  8
0
 62
7
 10
499.3140727698
 20
551.8904722799
 30
0
 11
499.3140727698
 21
553.890476333
 31
0
  0
LINE
  8
0
 62
7
 10
475.9149218394
 20
551.8904722799
 30
0
 11
475.9149218394
 21
553.890476333
 31
0
  0
LINE
  8
0
 62
7
 10
473.4149214296
 20
551.8904722799
 30
0
 11
473.4149214296
 21
553.890476333
 31
0
  0
LINE
  8
0
 62
7
 10
501.8149216144
 20
551.8904722799
 30
0
 11
501.8149216144
 21
553.890476333
 31
0
  0
LINE
  8
0
 62
7
 10
499.3149212046
 20
556.3904739488
 30
0
 11
475.9149218394
 21
556.3904739488
 31
0
  0
LINE
  8
0
 62
7
 10
549.4408227919
 20
504.8639051188
 30
0
 11
549.4408227919
 21
508.3904735316
 31
0
  0
LINE
  8
0
 62
7
 10
425.7890202521
 20
504.8639051188
 30
0
 11
425.7890202521
 21
508.3904735316
 31
0
  0
LINE
  8
0
 62
7
 10
435.289020878
 20
545.0419656504
 30
0
 11
435.289020878
 21
537.8904737104
 31
0
  0
LINE
  8
0
 62
7
 10
444.7890215038
 20
545.8904750217
 30
0
 11
444.7890215038
 21
537.8904737104
 31
0
  0
LINE
  8
0
 62
7
 10
444.7890215038
 20
545.8904750217
 30
0
 11
425.7890202521
 21
545.8904750217
 31
0
  0
LINE
  8
0
 62
7
 10
425.7890202521
 20
545.8904750217
 30
0
 11
425.7890202521
 21
537.8904737104
 31
0
  0
LINE
  8
0
 62
7
 10
539.9408221661
 20
545.0419656504
 30
0
 11
539.9408221661
 21
537.8904737104
 31
0
  0
LINE
  8
0
 62
7
 10
549.4408227919
 20
545.8904750217
 30
0
 11
549.4408227919
 21
537.8904737104
 31
0
  0
LINE
  8
0
 62
7
 10
549.4408227919
 20
545.8904750217
 30
0
 11
530.4408215402
 21
545.8904750217
 31
0
  0
LINE
  8
0
 62
7
 10
530.4408215402
 20
545.8904750217
 30
0
 11
530.4408215402
 21
537.8904737104
 31
0
  0
LINE
  8
0
 62
7
 10
431.7467354654
 20
534.8904750813
 30
0
 11
475.6432932286
 21
534.8904750813
 31
0
  0
LINE
  8
0
 62
7
 10
460.114921671
 20
531.3904754389
 30
0
 11
460.114921671
 21
534.8904750813
 31
0
  0
LINE
  8
0
 62
7
 10
460.114921671
 20
531.3904754389
 30
0
 11
515.114921373
 21
531.3904754389
 31
0
  0
LINE
  8
0
 62
7
 10
515.114921373
 20
531.3904754389
 30
0
 11
515.114921373
 21
534.8904750813
 31
0
  0
LINE
  8
0
 62
7
 10
499.5865498154
 20
534.8904750813
 30
0
 11
543.4831075786
 21
534.8904750813
 31
0
  0
LINE
  8
0
 62
7
 10
415.6149246215
 20
523.3904741276
 30
0
 11
457.5317029326
 21
523.3904741276
 31
0
  0
LINE
  8
0
 62
7
 10
517.6981401114
 20
523.3904741276
 30
0
 11
559.6149184226
 21
523.3904741276
 31
0
  0
LINE
  8
0
 62
7
 10
495.2030281952
 20
537.8904737104
 30
0
 11
495.2030281952
 21
531.3904754389
 31
0
  0
LINE
  8
0
 62
7
 10
480.0268148488
 20
531.3904754389
 30
0
 11
480.0268148488
 21
537.8904737104
 31
0
  0
LINE
  8
0
 62
7
 10
495.2030281952
 20
537.8904737104
 30
0
 11
552.1310113786
 21
537.8904737104
 31
0
  0
LINE
  8
0
 62
7
 10
423.0988316654
 20
537.8904737104
 30
0
 11
480.0268148488
 21
537.8904737104
 31
0
  0
LINE
  8
0
 62
7
 10
551.6533174037
 20
534.8904750813
 30
0
 11
557.7152736901001
 21
534.8904750813
 31
0
  0
LINE
  8
0
 62
7
 10
557.7152736901001
 20
531.3904754389
 30
0
 11
557.7152736901001
 21
534.8904750813
 31
0
  0
LINE
  8
0
 62
7
 10
557.7152736901001
 20
531.3904754389
 30
0
 11
559.6149184226
 21
531.3904754389
 31
0
  0
LINE
  8
0
 62
7
 10
415.6149246215
 20
531.3904754389
 30
0
 11
417.5145693539
 21
531.3904754389
 31
0
  0
LINE
  8
0
 62
7
 10
417.5145693539
 20
531.3904754389
 30
0
 11
417.5145693539
 21
534.8904750813
 31
0
  0
LINE
  8
0
 62
7
 10
417.5145693539
 20
534.8904750813
 30
0
 11
423.5765256404
 21
534.8904750813
 31
0
  0
LINE
  8
0
 62
7
 10
431.8433024405
 20
509.8117537368
 30
0
 11
431.8433024405
 21
523.3904741276
 31
0
  0
LINE
  8
0
 62
7
 10
543.3865406035
 20
509.8117537368
 30
0
 11
543.3865406035
 21
523.3904741276
 31
0
  0
LINE
  8
0
 62
7
 10
551.4354773282
 20
508.3904735316
 30
0
 11
551.4354773282
 21
523.3904741276
 31
0
  0
LINE
  8
0
 62
7
 10
423.7943657159
 20
508.3904735316
 30
0
 11
423.7943657159
 21
523.3904741276
 31
0
  0
LINE
  8
0
 62
7
 10
493.537603174
 20
546.8878022898
 30
0
 11
488.7863427817
 21
546.8878022898
 31
0
  0
LINE
  8
0
 62
7
 10
486.4583399563
 20
546.8878022898
 30
0
 11
481.6423447287
 21
546.8878022898
 31
0
  0
LINE
  8
0
 62
7
 10
481.6149461499
 20
550.8904255498001
 30
0
 11
481.6145945756
 21
550.8911110032
 31
0
  0
LINE
  8
0
 62
7
 10
543.4831075786
 20
523.3904741276
 30
0
 11
543.4831075786
 21
534.8904750813
 31
0
  0
LINE
  8
0
 62
7
 10
431.7467354654
 20
534.8904750813
 30
0
 11
431.7467354654
 21
523.3904741276
 31
0
  0
LINE
  8
0
 62
7
 10
508.5885256945
 20
531.3904754389
 30
0
 11
508.5885256945
 21
534.8904750813
 31
0
  0
LINE
  8
0
 62
7
 10
466.6413173496
 20
531.3904754389
 30
0
 11
466.6413173496
 21
534.8904750813
 31
0
  0
LINE
  8
0
 62
7
 10
551.6533174037
 20
534.8904750813
 30
0
 11
551.6533174037
 21
523.3904741276
 31
0
  0
LINE
  8
0
 62
7
 10
423.5765256404
 20
523.3904741276
 30
0
 11
423.5765256404
 21
534.8904750813
 31
0
  0
LINE
  8
0
 62
7
 10
499.5865498154
 20
531.3904754389
 30
0
 11
499.5865498154
 21
534.8904750813
 31
0
  0
LINE
  8
0
 62
7
 10
475.6432932286
 20
531.3904754389
 30
0
 11
475.6432932286
 21
534.8904750813
 31
0
  0
LINE
  8
0
 62
7
 10
516.5210824876
 20
537.8904737104
 30
0
 11
516.5210824876
 21
534.8904750813
 31
0
  0
LINE
  8
0
 62
7
 10
458.7087605565
 20
537.8904737104
 30
0
 11
458.7087605565
 21
534.8904750813
 31
0
  0
LINE
  8
0
 62
7
 10
497.7667622684
 20
544.8904729951
 30
0
 11
497.7667622684
 21
537.8904737104
 31
0
  0
LINE
  8
0
 62
7
 10
477.4630807756
 20
537.8904737104
 30
0
 11
477.4630807756
 21
544.8904729951
 31
0
  0
LINE
  8
0
 62
2
 10
382.1112394036
 20
641.7645412973
 30
0
 11
593.1186036404001
 21
641.7645412973
 31
0
  0
LINE
  8
0
 62
2
 10
382.1112394036
 20
652.8677286161001
 30
0
 11
593.1186036404001
 21
652.8677286161001
 31
0
  0
LINE
  8
0
 62
2
 10
522.7828155616001
 20
663.9709159346999
 30
0
 11
593.1186036404001
 21
663.9709159346999
 31
0
  0
LINE
  8
0
 62
2
 10
557.950709601
 20
663.9709159346999
 30
0
 11
557.950709601
 21
630.6613539785001
 31
0
  0
LINE
  8
0
 62
2
 10
522.7828155616001
 20
675.0741032535
 30
0
 11
522.7828155616001
 21
630.6613539785001
 31
0
  0
LINE
  8
0
 62
2
 10
487.614921522
 20
675.0741032535
 30
0
 11
487.614921522
 21
630.6613539785001
 31
0
  0
LINE
  8
0
 62
2
 10
452.4470274826002
 20
675.0741032535
 30
0
 11
452.4470274826002
 21
630.6613539785001
 31
0
  0
LINE
  8
0
 62
2
 10
417.2791334430002
 20
675.0741032535
 30
0
 11
417.2791334430002
 21
630.6613539785001
 31
0
  0
LINE
  8
0
 62
2
 10
593.1186036404001
 20
675.0741032535
 30
0
 11
382.1112394036
 21
675.0741032535
 31
0
  0
LINE
  8
0
 62
2
 10
593.1186036404001
 20
630.6613539785001
 30
0
 11
593.1186036404001
 21
675.0741032535
 31
0
  0
LINE
  8
0
 62
2
 10
382.1112394036
 20
630.6613539785001
 30
0
 11
593.1186036404001
 21
630.6613539785001
 31
0
  0
LINE
  8
0
 62
2
 10
382.1112394036
 20
675.0741032535
 30
0
 11
382.1112394036
 21
630.6613539785001
 31
0
  0
LINE
  8
0
 62
2
 10
546.999770318
 20
489.8268347272
 30
0
 11
548.2249117039539
 21
491.4960307165394
 31
0
  0
LINE
  8
0
 62
2
 10
548.8953715770202
 20
490.6598308455612
 30
0
 11
546.999770318
 21
489.8268347272
 31
0
  0
LINE
  8
1
 62
2
  6
DASHDOT
 10
383.2043894878
 20
435.3904746044
 30
0
 11
559.114921522
 21
435.3904746046696
 31
0
  0
LINE
  8
1
 62
2
  6
DASHDOT
 10
487.614921522
 20
564.1775516496
 30
0
 11
487.614921522
 21
342.7562918612
 31
0
  0
LINE
  8
1
 62
2
  6
DASHDOT
 10
41.70516295760001
 20
435.3904746044
 30
0
 11
296.7201178535
 21
435.3904746044
 31
0
  0
LINE
  8
1
 62
2
  6
DASHDOT
 10
176.564498372
 20
747.6113099662
 30
0
 11
176.564498372
 21
583.3270644115
 31
0
  0
LINE
  8
1
 62
2
  6
DASHDOT
 10
176.564498372
 20
564.1775516496
 30
0
 11
176.564498372
 21
342.7562918612
 31
0
  0
LINE
  8
1
 62
2
  6
DASHDOT
 10
428.2310028957323
 20
376.6895358669503
 30
0
 11
445.2994345966887
 21
393.5616619709944
 31
0
  0
LINE
  8
1
 62
2
  6
DASHDOT
 10
546.9988401479591
 20
376.689535867254
 30
0
 11
529.9304084470027
 21
393.5616619712981
 31
0
  0
LINE
  8
1
 62
2
  6
DASHDOT
 10
546.9988401483996
 20
494.0914133411004
 30
0
 11
529.9304084474431
 21
477.2192872370563
 31
0
  0
LINE
  8
1
 62
2
  6
DASHDOT
 10
428.2310028952925
 20
494.0914133414048
 30
0
 11
445.2994345962488
 21
477.2192872373606
 31
0
  0
LINE
  8
1
 62
2
  6
DASHDOT
 10
559.114921522
 20
435.3904746046696
 30
0
 11
594.0397035509
 21
435.3904746044
 31
0
  0
LINE
  8
1
 62
7
 10
113.268940277
 20
611.0633682688
 30
0
 11
118.7537708651
 21
601.5633676429
 31
0
  0
LINE
  8
1
 62
7
 10
118.7537708651
 20
601.5633676429
 30
0
 11
129.7234245908
 21
601.5633676429
 31
0
  0
LINE
  8
1
 62
7
 10
129.7234245908
 20
601.5633676429
 30
0
 11
135.2082514536
 21
611.0633682688
 31
0
  0
LINE
  8
1
 62
7
 10
135.2082514536
 20
611.0633682688
 30
0
 11
129.7234245908
 21
620.5633688946
 31
0
  0
LINE
  8
1
 62
7
 10
129.7234245908
 20
620.5633688946
 30
0
 11
118.7537708651
 21
620.5633688946
 31
0
  0
LINE
  8
1
 62
7
 10
118.7537708651
 20
620.5633688946
 30
0
 11
113.268940277
 21
611.0633682688
 31
0
  0
LINE
  8
1
 62
7
 10
129.7234245908
 20
725.2151701828
 30
0
 11
118.7537708651
 21
725.2151701828
 31
0
  0
LINE
  8
1
 62
7
 10
118.7537708651
 20
725.2151701828
 30
0
 11
113.268940277
 21
715.715169557
 31
0
  0
LINE
  8
1
 62
7
 10
113.268940277
 20
715.715169557
 30
0
 11
118.7537708651
 21
706.2151689310999
 31
0
  0
LINE
  8
1
 62
7
 10
118.7537708651
 20
706.2151689310999
 30
0
 11
129.7234245908
 21
706.2151689311
 31
0
  0
LINE
  8
1
 62
7
 10
129.7234245908
 20
706.2151689311
 30
0
 11
135.2082514536
 21
715.715169557
 31
0
  0
LINE
  8
1
 62
7
 10
135.2082514536
 20
715.715169557
 30
0
 11
129.7234245908
 21
725.2151701828
 31
0
  0
LINE
  8
1
 62
7
 10
234.3752296043
 20
620.5633688946
 30
0
 11
223.4055758786
 21
620.5633688946
 31
0
  0
LINE
  8
1
 62
7
 10
223.4055758786
 20
620.5633688946
 30
0
 11
217.9207452905
 21
611.0633682688
 31
0
  0
LINE
  8
1
 62
7
 10
217.9207452905
 20
611.0633682688
 30
0
 11
223.4055758786
 21
601.5633676429
 31
0
  0
LINE
  8
1
 62
7
 10
223.4055758786
 20
601.5633676429
 30
0
 11
234.3752296043
 21
601.5633676429
 31
0
  0
LINE
  8
1
 62
7
 10
234.3752296043
 20
601.5633676429
 30
0
 11
239.8600564671
 21
611.0633682688
 31
0
  0
LINE
  8
1
 62
7
 10
239.8600564671
 20
611.0633682688
 30
0
 11
234.3752296043
 21
620.5633688946
 31
0
  0
LINE
  8
1
 62
7
 10
234.3752296043
 20
725.2151701828
 30
0
 11
223.4055758786
 21
725.2151701828
 31
0
  0
LINE
  8
1
 62
7
 10
223.4055758786
 20
725.2151701828
 30
0
 11
217.9207452905
 21
715.715169557
 31
0
  0
LINE
  8
1
 62
7
 10
217.9207452905
 20
715.715169557
 30
0
 11
223.4055758786
 21
706.2151689310999
 31
0
  0
LINE
  8
1
 62
7
 10
223.4055758786
 20
706.2151689310999
 30
0
 11
234.3752296043
 21
706.2151689311
 31
0
  0
LINE
  8
1
 62
7
 10
234.3752296043
 20
706.2151689311
 30
0
 11
239.8600564671
 21
715.715169557
 31
0
  0
LINE
  8
1
 62
7
 10
239.8600564671
 20
715.715169557
 30
0
 11
234.3752296043
 21
725.2151701828
 31
0
  0
LINE
  8
0
 62
7
 10
104.1971431445
 20
661.8929919783002
 30
0
 11
104.7005565237
 21
656.2143858751002
 31
0
  0
LINE
  8
0
 62
7
 10
117.1041862456928
 20
645.8259183828291
 30
0
 11
117.104186244
 21
649.1892688205001
 31
0
  0
LINE
  8
1
 62
7
 10
117.1041862456928
 20
645.8259183828291
 30
0
 11
116.2219555449
 21
649.1892688205001
 31
0
  0
LINE
  8
1
 62
7
 10
119.0644973289
 20
665.8892688570001
 30
0
 11
116.5644997131
 21
663.3892689129
 31
0
  0
LINE
  8
1
 62
2
  6
DASHDOT
 10
41.70516295760001
 20
663.3892689129
 30
0
 11
296.7201178535
 21
663.3892689129
 31
0
  0
LINE
  8
1
 62
7
 10
116.5644997131
 20
663.3892689129
 30
0
 11
119.0644973289
 21
660.8892689687
 31
0
  0
LINE
  8
0
 62
7
 10
126.0639701669534
 20
660.8892689687
 30
0
 11
126.0650265770466
 21
660.8892689687
 31
0
  0
LINE
  8
0
 62
7
 10
126.063969694193
 20
665.8892688570001
 30
0
 11
119.0644973289
 21
665.8892688570001
 31
0
  0
LINE
  8
0
 62
7
 10
127.5112591931669
 20
654.1892687087
 30
0
 11
119.0644973289
 21
654.1892687087
 31
0
  0
LINE
  8
0
 62
7
 10
127.5110462640036
 20
672.589269117
 30
0
 11
127.5130666601965
 21
672.589269117
 31
0
  0
LINE
  8
1
 62
7
 10
116.5644997131
 20
651.6892692302
 30
0
 11
119.0644973289
 21
654.1892687087
 31
0
  0
LINE
  8
1
 62
7
 10
116.5644997131
 20
675.0892685955
 30
0
 11
119.0644973289
 21
672.589269117
 31
0
  0
LINE
  8
1
 62
7
 10
230.6466424238
 20
657.3889419665001
 30
0
 11
231.0642834933144
 21
657.3907411156331
 31
0
  0
LINE
  8
1
 62
7
 10
231.0642400157
 20
657.3907319685
 30
0
 11
230.9578792524
 21
658.3902669368
 31
0
  0
LINE
  8
1
 62
7
 10
231.0568564903
 20
669.2970191357
 30
0
 11
230.8226474892
 21
668.3240827401
 31
0
  0
LINE
  8
1
 62
7
 10
239.7625602357655
 20
667.551392140418
 30
0
 11
231.0539842915
 21
669.3119505649
 31
0
  0
LINE
  8
1
 62
7
 10
239.7701836113672
 20
659.2223509906221
 30
0
 11
231.0642834933144
 21
657.3907411156331
 31
0
  0
LINE
  8
1
 62
7
 10
240.5645014118243
 20
666.5711315576978
 30
0
 11
240.564498372
 21
660.2009691910999
 31
0
  0
LINE
  8
1
 62
7
 10
230.6446754705054
 20
669.4120416646425
 30
0
 11
231.0539842915
 21
669.3119505649
 31
0
  0
LINE
  8
0
 62
7
 10
213.4634168219
 20
688.0481146504
 30
0
 11
213.4634168219
 21
687.0102087263999
 31
0
  0
LINE
  8
0
 62
7
 10
213.4634168219
 20
687.0102087263999
 30
0
 11
208.4471681487
 21
687.0102087263999
 31
0
  0
LINE
  8
0
 62
7
 10
209.0320089232
 20
685.6600284804999
 30
0
 11
213.4634168219
 21
685.6600284804999
 31
0
  0
LINE
  8
0
 62
7
 10
213.4634168219
 20
685.6600284804999
 30
0
 11
213.4634168219
 21
684.6221216251
 31
0
  0
LINE
  8
0
 62
7
 10
213.4634168219
 20
684.6221216251
 30
0
 11
208.398433901
 21
684.6221216251
 31
0
  0
LINE
  8
0
 62
7
 10
209.0320089232
 20
683.3206774895
 30
0
 11
213.4634168219
 21
683.3206774895
 31
0
  0
LINE
  8
0
 62
7
 10
213.4634168219
 20
683.3206774895
 30
0
 11
213.4634168219
 21
682.2827715655
 31
0
  0
LINE
  8
0
 62
7
 10
213.4634168219
 20
682.2827715655
 30
0
 11
206.7901292216
 21
682.2827715655
 31
0
  0
LINE
  8
0
 62
7
 10
206.7901292216
 20
682.2827715655
 30
0
 11
206.7901292216
 21
683.3206774895
 31
0
  0
LINE
  8
0
 62
7
 10
206.7901292216
 20
683.3206774895
 30
0
 11
207.6186505478
 21
683.3206774895
 31
0
  0
LINE
  8
0
 62
7
 10
208.0085412931246
 20
688.0481146504369
 30
0
 11
213.4634168219
 21
688.0481146504
 31
0
  0
LINE
  8
0
 62
7
 10
270.2411509494899
 20
378.3720934754153
 30
0
 11
238.6927069497
 21
400.1296408046
 31
0
  0
LINE
  8
0
 62
7
 10
231.0644970607
 20
394.4520344311852
 30
0
 11
231.0644970607
 21
395.8684339691
 31
0
  0
LINE
  8
1
 62
7
 10
230.8346540998789
 20
396.0414886046438
 30
0
 11
231.0644983720001
 21
395.8684358474812
 31
0
  0
LINE
  8
0
 62
7
 10
230.8346540998789
 20
396.0414886046438
 30
0
 11
230.8346540999
 21
396.0414886046
 31
0
  0
LINE
  8
1
 62
7
 10
184.564498752
 20
484.3904733229
 30
0
 11
196.564497925
 21
480.3904763926
 31
0
  0
LINE
  8
1
 62
7
 10
196.564497925
 20
480.3904763926
 30
0
 11
184.564498752
 21
476.3904757369
 31
0
  0
LINE
  8
0
 62
7
 10
244.7577478271517
 20
478.3070556681878
 30
0
 11
244.7569072651599
 21
478.3065739092057
 31
0
  0
LINE
  8
0
 62
7
 10
127.5104591143679
 20
556.3904739488
 30
0
 11
116.5645018845
 21
556.3904739488
 31
0
  0
LINE
  8
0
 62
7
 10
130.0122686993
 20
553.8883068867751
 30
0
 11
130.0122686993
 21
553.8926423220248
 31
0
  0
LINE
  8
0
 62
7
 10
124.4007596148393
 20
551.8904722799
 30
0
 11
239.5623422192818
 21
551.8904722799
 31
0
  0
LINE
  8
1
 62
7
 10
230.6466424238124
 20
550.8911110032062
 30
0
 11
230.7332218956
 21
550.3904766906001
 31
0
  0
LINE
  8
1
 62
7
 10
230.7332218956
 20
550.3904766906001
 30
0
 11
230.7332703244
 21
546.8206874598
 31
0
  0
LINE
  8
1
 62
7
 10
240.5645014119
 20
548.8904736508
 30
0
 11
230.7332703244
 21
546.8206874598
 31
0
  0
LINE
  8
0
 62
7
 10
239.5623422192818
 20
551.8904722799
 30
0
 11
239.5666545247182
 21
551.8904722799
 31
0
  0
LINE
  8
0
 62
7
 10
433.1149228333
 20
550.3884911986534
 30
0
 11
433.1149228333
 21
545.8904750217
 31
0
  0
LINE
  8
1
 62
7
 10
481.6163934252
 20
550.887579428
 30
0
 11
481.6423447287
 21
546.8878022898
 31
0
  0
LINE
  8
1
 62
7
 10
493.537603174
 20
546.8878022898
 30
0
 11
493.5226722105
 21
550.8941806424
 31
0
  0
LINE
  8
1
 62
7
 10
483.4480036465741
 20
550.8899040091561
 30
0
 11
483.44961390335
 21
548.722641872266
 31
0
  0
LINE
  8
1
 62
7
 10
491.7762528589196
 20
550.8909768927742
 30
0
 11
491.7770421548
 21
548.7216062415
 31
0
  0
LINE
  8
1
 62
7
 10
491.7770421548044
 20
548.7216062414965
 30
0
 11
493.537603174
 21
546.8878022898
 31
0
  0
LINE
  8
1
 62
7
 10
483.44961390335
 20
548.722641872266
 30
0
 11
481.6423447287
 21
546.8878022898
 31
0
  0
LINE
  8
0
 62
7
 10
484.0906625788321
 20
548.8904736508
 30
0
 11
491.1508298973771
 21
548.8904736508
 31
0
  0
ARC
  8
0
 62
7
 10
132.1647559316849
 20
472.7827247028567
 30
0
 40
27.34011173862889
 50
120.6216958031713
 51
161.8004352661713
  0
ARC
  8
0
 62
7
 10
176.4173900285915
 20
461.4021757934294
 30
0
 40
104.5154330351453
 50
271.4953357496063
 51
286.5896164768062
  0
ARC
  8
0
 62
7
 10
236.064498372
 20
395.8684349652
 30
0
 40
5.000000000000004
 50
55.40771131249992
 51
179.9999898898022
  0
ARC
  8
0
 62
7
 10
189.1307975826
 20
459.6561685721
 30
0
 40
1.739398830590695
 50
356.4280075304978
 51
32.64086724100139
  0
ARC
  8
0
 62
7
 10
189.856420323
 20
459.6886629876
 30
0
 40
1.16897119571714
 50
50.78449479700148
 51
93.04003510149813
  0
ARC
  8
0
 62
7
 10
189.9011547508
 20
459.2432021315
 30
0
 40
1.616314636844589
 50
93.78613963470036
 51
133.2786297366985
  0
ARC
  8
0
 62
7
 10
190.5640917758
 20
458.6855742642
 30
0
 40
2.478790389318167
 50
135.5989572627005
 51
184.2645289436983
  0
ARC
  8
0
 62
7
 10
183.7748880296
 20
459.7399678422
 30
0
 40
2.187930631077291
 50
357.250449794301
 51
22.98550202409825
  0
ARC
  8
0
 62
7
 10
185.0993422618
 20
459.8161899872
 30
0
 40
1.039859104498915
 50
48.44617710629937
 51
90.61537896559746
  0
ARC
  8
0
 62
7
 10
185.0961679709
 20
459.2266602995
 30
0
 40
1.629348426199008
 50
90.28110837399862
 51
132.9156325519991
  0
ARC
  8
0
 62
7
 10
185.7587744575
 20
458.6851844218
 30
0
 40
2.479825615788513
 50
135.6097729719011
 51
184.2537132346009
  0
ARC
  8
0
 62
7
 10
185.9150752701
 20
459.4405245992
 30
0
 40
3.07261207601648
 50
90.48179872779994
 51
148.8393629771987
  0
ARC
  8
0
 62
7
 10
186.0206225575
 20
460.4668665578
 30
0
 40
2.050375260180188
 50
15.95314682989792
 51
93.67393153689928
  0
ARC
  8
0
 62
7
 10
190.6214194211
 20
459.4403617907
 30
0
 40
3.072775659780385
 50
90.48350194509928
 51
148.8376597599011
  0
ARC
  8
0
 62
7
 10
190.8181862833
 20
459.9143297978
 30
0
 40
2.608222848336834
 50
52.72361893899979
 51
94.89802491680041
  0
ARC
  8
0
 62
7
 10
190.8575451334
 20
460.4938313618
 30
0
 40
2.14719006100508
 50
355.6966471318986
 51
44.16189572650067
  0
ARC
  8
0
 62
7
 10
165.1431855238
 20
460.5406358921
 30
0
 40
8.488991844100719
 50
353.8062502201
 51
42.47908916909994
  0
ARC
  8
0
 62
7
 10
169.8915610389
 20
464.4866641738
 30
0
 40
2.34095418773741
 50
49.75282763639905
 51
89.3951050245017
  0
ARC
  8
0
 62
7
 10
169.9325804763
 20
464.499945884
 30
0
 40
2.327599131643219
 50
90.40137631350056
 51
130.364692932
  0
ARC
  8
0
 62
7
 10
174.6434570506
 20
460.5588767631
 30
0
 40
8.445352223894343
 50
137.4175244688999
 51
186.3503814927996
  0
ARC
  8
0
 62
7
 10
174.8363921562
 20
458.673968829
 30
0
 40
8.638947128607255
 50
173.6813623462001
 51
222.0862241126999
  0
ARC
  8
0
 62
7
 10
169.9407927016
 20
454.6793172591
 30
0
 40
2.349771969714911
 50
229.8317704083002
 51
269.4021603462005
  0
ARC
  8
0
 62
7
 10
169.8958969636
 20
454.6588541764
 30
0
 40
2.32927011575659
 50
270.5012685405015
 51
310.3507987985994
  0
ARC
  8
0
 62
7
 10
165.4542775064
 20
458.5291630922
 30
0
 40
8.201850040765416
 50
316.5033508701998
 51
7.676407975600417
  0
ARC
  8
0
 62
7
 10
169.9289831484
 20
463.016973959
 30
0
 40
5.56503960146893
 50
90.13083904090071
 51
129.8530775436999
  0
ARC
  8
0
 62
7
 10
169.8919230631
 20
462.9944307881
 30
0
 40
5.587621327817282
 50
50.23032106310043
 51
89.75029319240034
  0
ARC
  8
0
 62
7
 10
166.8466780168
 20
460.5887853607
 30
0
 40
9.418890825197229
 50
354.1254225718995
 51
45.34734578550019
  0
ARC
  8
0
 62
7
 10
169.9160417261
 20
456.1258500127
 30
0
 40
5.543849260984572
 50
270.0024107922001
 51
309.8219029476998
  0
ARC
  8
0
 62
7
 10
169.9378378137
 20
456.1942379409
 30
0
 40
5.612278607486972
 50
230.4311468682002
 51
269.7798644921003
  0
ARC
  8
0
 62
7
 10
173.0862741859
 20
458.6172049248
 30
0
 40
9.52667768118644
 50
173.929017537
 51
225.1095498655999
  0
ARC
  8
0
 62
7
 10
166.3501037645
 20
458.7564343848
 30
0
 40
9.904137151359286
 50
315.9317331629998
 51
5.029698670599928
  0
ARC
  8
0
 62
7
 10
203.236616162
 20
459.6580073314
 30
0
 40
1.732436298527536
 50
356.3526997172007
 51
32.71617505420002
  0
ARC
  8
0
 62
7
 10
203.9417333093
 20
459.6475954013
 30
0
 40
1.209369896798697
 50
51.52227795879963
 51
92.30225193969964
  0
ARC
  8
0
 62
7
 10
203.9937180815
 20
459.2573539107
 30
0
 40
1.601795282776533
 50
93.59960182969932
 51
133.4651675418005
  0
ARC
  8
0
 62
7
 10
204.6574560172
 20
458.6875342966
 30
0
 40
2.473589204583566
 50
135.5444945247001
 51
184.3190407550018
  0
ARC
  8
0
 62
7
 10
197.8735627792
 20
459.7399565368
 30
0
 40
2.187982423224324
 50
357.2508113186001
 51
22.98524831169832
  0
ARC
  8
0
 62
7
 10
199.2003834869
 20
459.8223918747
 30
0
 40
1.033685169597947
 50
48.31417604519904
 51
90.74733014360106
  0
ARC
  8
0
 62
7
 10
199.2109828489
 20
459.1860215421
 30
0
 40
1.670141199085803
 50
90.82617487980033
 51
132.370532885001
  0
ARC
  8
0
 62
7
 10
199.8532495953
 20
458.6867386227
 30
0
 40
2.475701304563122
 50
135.5666528348005
 51
184.2968824449993
  0
ARC
  8
0
 62
7
 10
199.993446551
 20
459.4762693462
 30
0
 40
3.036763643057704
 50
90.10341873400016
 51
149.2177429710002
  0
ARC
  8
0
 62
7
 10
200.1187231389
 20
460.4659791412
 30
0
 40
2.051220817354732
 50
15.97217680510115
 51
93.65487766000061
  0
ARC
  8
0
 62
7
 10
204.6992994003
 20
459.4769676244
 30
0
 40
3.036064674134344
 50
90.09593810759965
 51
149.2252235973994
  0
ARC
  8
0
 62
7
 10
204.911066883
 20
459.8941948707
 30
0
 40
2.627795961203294
 50
52.88809433420094
 51
94.73354952159848
  0
ARC
  8
0
 62
7
 10
204.9631250965
 20
460.4963163458
 30
0
 40
2.140544190703262
 50
355.6165534207017
 51
44.2419894377978
  0
ARC
  8
0
 62
7
 10
143.8277171834
 20
468.8676756016
 30
0
 40
39.78308931472982
 50
165.1973304367
 51
186.21059872
  0
ARC
  8
0
 62
7
 10
153.8117688593
 20
455.4181713482
 30
0
 40
3.360059871472284
 50
175.9751267778
 51
228.9628960792001
  0
ARC
  8
0
 62
7
 10
153.4205363453
 20
455.5625288259
 30
0
 40
3.235658630152043
 50
235.8835231435004
 51
272.3850623172999
  0
ARC
  8
0
 62
7
 10
153.4818265162
 20
455.4554834767
 30
0
 40
3.126671056813588
 50
271.3444767526007
 51
310.2303822473005
  0
ARC
  8
0
 62
7
 10
152.2675737885
 20
456.374789104
 30
0
 40
4.624783142204341
 50
314.3629295986003
 51
4.80428998380034
  0
ARC
  8
0
 62
7
 10
152.8734694739
 20
457.2422231001
 30
0
 40
4.031328536202441
 50
353.1603253006993
 51
44.87275669200029
  0
ARC
  8
0
 62
7
 10
154.1654824164
 20
458.1549204601
 30
0
 40
2.485909696575487
 50
50.98645367910026
 51
90.90209065200025
  0
ARC
  8
0
 62
7
 10
154.178809723
 20
456.7375018046
 30
0
 40
3.903372850243589
 50
90.77013196050031
 51
149.7940922310005
  0
ARC
  8
0
 62
7
 10
154.5458085228
 20
456.7764486568
 30
0
 40
5.436114867075467
 50
88.36490321899963
 51
131.8590238723
  0
ARC
  8
0
 62
7
 10
154.7817156375
 20
457.5713414051
 30
0
 40
4.639712160612225
 50
51.34475783289914
 51
90.99776631890013
  0
ARC
  8
0
 62
7
 10
154.123901258
 20
457.1286079203
 30
0
 40
5.401552010202988
 50
356.1096351590007
 51
48.82839394219977
  0
ARC
  8
0
 62
7
 10
153.4648597393
 20
456.5224385145
 30
0
 40
6.052894281020921
 50
309.7387284863001
 51
2.26943919429963
  0
ARC
  8
0
 62
7
 10
153.5709925291
 20
456.725079175
 30
0
 40
6.14449834097838
 50
268.7682144038
 51
307.7693462502002
  0
ARC
  8
0
 62
7
 10
153.0740391786
 20
456.3650547351
 30
0
 40
5.794552577643219
 50
233.8973317867005
 51
273.6101229106
  0
ARC
  8
0
 62
7
 10
153.0045666808
 20
455.6360384988
 30
0
 40
5.178082238899398
 50
179.8011176872001
 51
229.7617174096999
  0
ARC
  8
0
 62
7
 10
270.7956835196453
 20
466.7618258716303
 30
0
 40
63.16909462568209
 50
236.0578021729854
 51
251.8851636731802
  0
ARC
  8
0
 62
7
 10
257.5666257993781
 20
485.3349403848807
 30
0
 40
20.5304237024134
 50
190.04043598221
 51
239.2310183627882
  0
ARC
  8
0
 62
7
 10
180.3968862736
 20
406.5439881603
 30
0
 40
3.481796558352904
 50
326.9940344161001
 51
6.624756539199524
  0
ARC
  8
0
 62
7
 10
180.6215100535
 20
407.4164007877
 30
0
 40
3.268005070036077
 50
351.7181845879014
 51
35.53578902269958
  0
ARC
  8
0
 62
7
 10
180.7817195277
 20
407.3590421882
 30
0
 40
3.992947089512188
 50
354.0577791755988
 51
38.02208170270035
  0
ARC
  8
0
 62
7
 10
176.7443835969397
 20
461.3572756218011
 30
0
 40
104.4714507279199
 50
253.3847576269065
 51
268.4860535736065
  0
ARC
  8
0
 62
7
 10
176.3143227293944
 20
461.431688885102
 30
0
 40
104.3861542195672
 50
233.9393284775914
 51
247.3139406054914
  0
ARC
  8
0
 62
7
 10
115.1009981936
 20
445.5943353174
 30
0
 40
0.3906235442755323
 50
106.6854420000997
 51
183.7699948291898
  0
ARC
  8
0
 62
7
 10
196.4746389406629
 20
394.2791722034254
 30
0
 40
34.45987843675046
 50
286.4935981971032
 51
306.8855423354279
  0
ARC
  8
0
 62
7
 10
78.564498372
 20
388.0274968338
 30
0
 40
15.00000000000004
 50
64.97804313450004
 51
180
  0
ARC
  8
0
 62
7
 10
78.564498372
 20
479.8904746044
 30
0
 40
15.00000000000001
 50
180
 51
270
  0
ARC
  8
0
 62
7
 10
264.5236289638
 20
480.3945756938
 30
0
 40
10.04087324267877
 50
287.7046418049756
 51
0.06467799360037826
  0
ARC
  8
0
 62
7
 10
264.5160707957
 20
390.8116959555
 30
0
 40
10.04842795860523
 50
359.9561315651004
 51
69.03176092318061
  0
ARC
  8
0
 62
7
 10
233.8950561019
 20
411.7663006522
 30
0
 40
3.060412697349807
 50
57.82329328806776
 51
179.8485237351998
  0
ARC
  8
0
 62
7
 10
86.5489191465
 20
435.3082548714
 30
0
 40
29.56279610851594
 50
63.11070457779998
 51
90.59781928519999
  0
ARC
  8
0
 62
7
 10
101.2863880462
 20
464.3448567855
 30
0
 40
2.99973224806744
 50
242.9248029322004
 51
4.117727917099244
  0
ARC
  8
0
 62
7
 10
264.564498372
 20
370.1394987742
 30
0
 40
10.00000000000006
 50
55.40300027991682
 51
55.41242297744227
  0
ARC
  8
0
 62
7
 10
235.8369464047
 20
396.0225837798
 30
0
 40
5.002328027556264
 50
55.18794661930025
 51
179.7834669680994
  0
ARC
  8
0
 62
7
 10
242.2709960317
 20
482.6449088311
 30
0
 40
5.000090454698739
 50
299.8131594353768
 51
299.824261235828
  0
ARC
  8
0
 62
7
 10
264.564498372
 20
501.1850897962
 30
0
 40
10.00000000000004
 50
299.8187173091997
 51
0
  0
ARC
  8
0
 62
7
 10
86.2358601072
 20
484.8904746044
 30
0
 40
20
 50
270
 51
342.9665898339
  0
ARC
  8
0
 62
7
 10
229.3009771357
 20
550.4851610168
 30
0
 40
1.405564107073677
 50
16.78710977939919
 51
88.9132111510995
  0
ARC
  8
0
 62
7
 10
125.6197805237
 20
542.0151340260001
 30
0
 40
9.950292337674259
 50
97.0370455184439
 51
122.6779900428932
  0
ARC
  8
0
 62
7
 10
118.064498372
 20
544.8904746044
 30
0
 40
1.599999999999997
 50
38.68218745349997
 51
141.3178125465003
  0
ARC
  8
0
 62
7
 10
116.5645018845
 20
553.8904704363
 30
0
 40
2.50000351250003
 50
90
 51
180
  0
ARC
  8
0
 62
7
 10
127.5122696391
 20
553.8904746044
 30
0
 40
2.500000000000114
 50
89.95850582603134
 51
90.04149417396835
  0
ARC
  8
0
 62
7
 10
239.564498372
 20
550.8904746044
 30
0
 40
0.9999999999999999
 50
89.87646145354049
 51
90.12353854646115
  0
ARC
  8
0
 62
7
 10
124.1091447474
 20
517.3788448888
 30
0
 40
18.98881053800934
 50
270.3906072405001
 51
287.1972700609001
  0
ARC
  8
0
 62
7
 10
115.8980742642
 20
503.6126950009
 30
0
 40
5.223447857330024
 50
271.2426548719006
 51
303.1414057186998
  0
ARC
  8
0
 62
7
 10
132.2374462406
 20
503.984733029
 30
0
 40
5.598917644485465
 50
272.3378656119001
 51
302.0462389324998
  0
ARC
  8
0
 62
7
 10
228.7609481641
 20
517.3788311292
 30
0
 40
18.98879676419466
 50
270.3906011010001
 51
287.1972762003999
  0
ARC
  8
0
 62
7
 10
237.0043592505
 20
503.612696493
 30
0
 40
5.223449443231875
 50
271.2427021200995
 51
303.1414024243006
  0
ARC
  8
0
 62
7
 10
115.8737706773
 20
540.5897438517
 30
0
 40
5.302516386308711
 50
57.10246102559978
 51
88.51319426089967
  0
ARC
  8
0
 62
7
 10
124.499563239
 20
526.052158382
 30
0
 40
19.84003301643873
 50
90.75366072010012
 51
106.834368604
  0
ARC
  8
0
 62
7
 10
124.0172919861
 20
526.3085220411
 30
0
 40
19.58320348575849
 50
73.0594722403
 51
89.35249843560011
  0
ARC
  8
0
 62
7
 10
132.6550304864
 20
540.422952914
 30
0
 40
5.470794438379931
 50
91.98181299670003
 51
122.4025756709003
  0
ARC
  8
0
 62
7
 10
132.2719398655
 20
540.4077439433
 30
0
 40
5.486158635398637
 50
57.64104679049967
 51
87.97456454189995
  0
ARC
  8
0
 62
7
 10
116.1645541894
 20
540.5392803251
 30
0
 40
5.353387251860719
 50
91.63988501309946
 51
122.7445036545002
  0
ARC
  8
0
 62
7
 10
237.3068411602
 20
540.4229217487
 30
0
 40
5.470825780750412
 50
91.98186095409956
 51
122.4024837593998
  0
ARC
  8
0
 62
7
 10
228.6691043797
 20
526.3085938276
 30
0
 40
19.58313157831425
 50
73.05944212379998
 51
89.35252855200007
  0
ARC
  8
0
 62
7
 10
229.1513767113
 20
526.0520796224
 30
0
 40
19.84011192955694
 50
90.75369291190008
 51
106.8343364123001
  0
ARC
  8
0
 62
7
 10
236.9237289487
 20
540.4076924564999
 30
0
 40
5.486210653128462
 50
57.64119405040049
 51
87.97441728199986
  0
ARC
  8
0
 62
7
 10
220.8163571434
 20
540.5392869812
 30
0
 40
5.353380539511793
 50
91.63986501929935
 51
122.7445236483002
  0
ARC
  8
0
 62
7
 10
220.5255787419
 20
540.5897663576
 30
0
 40
5.302493808781412
 50
57.10239042289931
 51
88.51322090949985
  0
ARC
  8
0
 62
7
 10
78.56912429421431
 20
616.7734773335722
 30
0
 40
15.00464901463504
 50
68.46463700765716
 51
179.8952847664565
  0
ARC
  8
0
 62
7
 10
78.51001096172944
 20
709.9156062262305
 30
0
 40
14.94563958504106
 50
179.76198078995
 51
291.2141409489494
  0
ARC
  8
0
 62
7
 10
264.5650611356541
 20
711.383340282012
 30
0
 40
9.999435734203606
 50
269.8823604806688
 51
359.973607655968
  0
ARC
  8
0
 62
7
 10
264.5570553357146
 20
615.3871715932185
 30
0
 40
10.00744844572351
 50
0.07232231283633873
 51
90.07170955013639
  0
ARC
  8
0
 62
7
 10
239.564498372
 20
660.2009691910999
 30
0
 40
1.000000000000028
 50
281.8696152433996
 51
0
  0
ARC
  8
0
 62
7
 10
115.064498372
 20
676.5892689129
 30
0
 40
1
 50
90
 51
180
  0
ARC
  8
0
 62
7
 10
127.5120564621
 20
675.0892689129
 30
0
 40
2.500000000000113
 50
270.0231520355906
 51
90
  0
ARC
  8
0
 62
7
 10
126.064498372
 20
663.3892689129
 30
0
 40
2.500000000000113
 50
89.98788359708442
 51
90.01211640291558
  0
ARC
  8
0
 62
7
 10
127.5122696391
 20
651.6892689129001
 30
0
 40
2.500000000000114
 50
89.97684228441229
 51
90.02315771558772
  0
ARC
  8
0
 62
7
 10
115.064498372
 20
650.1892689129001
 30
0
 40
1
 50
180
 51
270
  0
ARC
  8
0
 62
7
 10
176.564498372
 20
663.3892689129
 30
0
 40
48.00000000000006
 50
167.2758504679001
 51
192.7232172348
  0
ARC
  8
0
 62
7
 10
120.2474494436965
 20
682.5892689128978
 30
0
 40
4.999999999997726
 50
270.0000000000402
 51
341.1743730240941
  0
ARC
  8
0
 62
7
 10
120.2474494437
 20
644.1892689129001
 30
0
 40
4.999999999942522
 50
18.82562697594426
 51
90
  0
ARC
  8
0
 62
7
 10
176.564498372
 20
663.3892689129
 30
0
 40
54.49999999999473
 50
198.825626975944
 51
353.6794527795999
  0
ARC
  8
0
 62
7
 10
234.2536097377
 20
663.5410922619
 30
0
 40
7.131561291938755
 50
226.3121878425996
 51
239.6171701785
  0
ARC
  8
0
 62
7
 10
231.9792803072
 20
664.9862507431
 30
0
 40
4.622639435575434
 50
106.7807750871993
 51
125.5307679150995
  0
ARC
  8
0
 62
7
 10
176.564498372
 20
663.3892689129
 30
0
 40
54.49999999999955
 50
6.321823192792493
 51
161.1743730240559
  0
ARC
  8
0
 62
7
 10
176.564498372
 20
663.3892689129
 30
0
 40
48.00000000000003
 50
194.1079746503
 51
165.8930700373
  0
ARC
  8
0
 62
7
 10
207.7992802402101
 20
674.8562458890164
 30
0
 40
1.009601431875796
 50
100.3063864420315
 51
181.7115294844255
  0
ARC
  8
0
 62
7
 10
207.8942624775031
 20
677.0359012401618
 30
0
 40
1.255690474414314
 50
84.77835783740107
 51
130.2727899422975
  0
ARC
  8
0
 62
7
 10
144.9441612110721
 20
673.3079502108622
 30
0
 40
3.356929711876164
 50
260.210558048078
 51
305.3664949074739
  0
ARC
  8
0
 62
7
 10
144.8621578849
 20
669.1835111431
 30
0
 40
3.701733932796572
 50
56.83558807819961
 51
97.5873589657996
  0
ARC
  8
0
 62
7
 10
143.8144951880346
 20
669.6143771022867
 30
0
 40
3.286331404476034
 50
80.20832522956918
 51
125.7270095043646
  0
ARC
  8
0
 62
7
 10
143.8942575628
 20
673.5847385611
 30
0
 40
3.616716110853131
 50
236.4519099086003
 51
277.6127553606005
  0
ARC
  8
0
 62
7
 10
144.9230149019708
 20
670.2923564147945
 30
0
 40
3.612041157215791
 50
46.13913120201063
 51
98.75239953301104
  0
ARC
  8
0
 62
7
 10
144.8507896471358
 20
672.7886942176099
 30
0
 40
3.828179061287826
 50
262.8361724072596
 51
312.2722968600579
  0
ARC
  8
0
 62
7
 10
143.8359642902628
 20
672.5060684119883
 30
0
 40
3.556508800088413
 50
225.8083420029767
 51
278.6912764834766
  0
ARC
  8
0
 62
7
 10
143.9081331144627
 20
670.1212140228201
 30
0
 40
3.769941116357345
 50
82.91093427619998
 51
132.5894472368997
  0
ARC
  8
0
 62
7
 10
207.9089100596
 20
663.9455213957
 30
0
 40
4.525298717451992
 50
225.5629225585005
 51
276.6676931464002
  0
ARC
  8
0
 62
7
 10
209.0932271839841
 20
663.6796721314308
 30
0
 40
4.279862848183377
 50
261.1441412966232
 51
316.1438545892228
  0
ARC
  8
0
 62
7
 10
207.7954983713504
 20
659.5438044335632
 30
0
 40
4.211885228863462
 50
81.27585963446028
 51
136.4935173861588
  0
ARC
  8
0
 62
7
 10
207.9179113434194
 20
663.0214443010243
 30
0
 40
5.126239279225404
 50
223.1227611208693
 51
275.7819756533689
  0
ARC
  8
0
 62
7
 10
209.0856946613136
 20
660.3795344906974
 30
0
 40
4.900450084103393
 50
41.71556440332856
 51
97.63813819362926
  0
ARC
  8
0
 62
7
 10
209.0080812072442
 20
662.9878111299431
 30
0
 40
5.098907654325936
 50
263.539324400463
 51
317.1069716406657
  0
ARC
  8
0
 62
7
 10
207.8786935663
 20
660.2409725928
 30
0
 40
5.026339239845933
 50
83.65308928689959
 51
137.4421753141002
  0
ARC
  8
0
 62
7
 10
209.0055994926
 20
659.2183956839
 30
0
 40
4.524768115843164
 50
45.45904067050063
 51
97.25297064079999
  0
ARC
  8
0
 62
7
 10
210.2842928791
 20
647.3410434529
 30
0
 40
2.533724078924526
 50
44.97294950639971
 51
95.88077215669941
  0
ARC
  8
0
 62
7
 10
209.8680436151
 20
648.4122132328999
 30
0
 40
1.99804120958446
 50
180.2874419152003
 51
242.561675554963
  0
ARC
  8
0
 62
7
 10
209.789672792873
 20
648.2517824898878
 30
0
 40
3.01725892771482
 50
85.53263709640108
 51
137.581524716198
  0
ARC
  8
0
 62
7
 10
239.5643814963
 20
666.5711039005
 30
0
 40
1.000119915906709
 50
0.001584450702664167
 51
78.57091216134137
  0
ARC
  8
0
 62
7
 10
235.564498372
 20
663.3892689129
 30
0
 40
5.000000000000142
 50
81.37307344129955
 51
86.16574451789958
  0
ARC
  8
0
 62
7
 10
233.0581424397911
 20
674.0999262195059
 30
0
 40
2.999999999992344
 50
190.7353193569402
 51
283.1705569648308
  0
ARC
  8
0
 62
7
 10
235.564498372
 20
663.3892689129
 30
0
 40
8.000000000005466
 50
256.8294430354273
 51
103.1705569646916
  0
ARC
  8
0
 62
7
 10
233.0581424398
 20
652.6786116062
 30
0
 40
3.000000000014544
 50
76.82944303542726
 51
169.2646806432002
  0
ARC
  8
0
 62
7
 10
235.564498372
 20
663.3892689129
 30
0
 40
5.249999999999977
 50
265.4191361209996
 51
299.9481417546996
  0
ARC
  8
0
 62
7
 10
235.564498372
 20
663.3892689129
 30
0
 40
5.250000000000112
 50
342.2472098379996
 51
17.75279016200036
  0
ARC
  8
0
 62
7
 10
112.8686627573
 20
696.9577142945
 30
0
 40
10.00000000000008
 50
332.2102484831998
 51
59.45798196500182
  0
ARC
  8
0
 62
7
 10
142.9960529903
 20
727.0851045276
 30
0
 40
9.999999999970388
 50
210.5420180351306
 51
297.7897515167684
  0
ARC
  8
0
 62
7
 10
176.564498372
 20
663.3892689129
 30
0
 40
61.99999999999411
 50
62.21024848323146
 51
117.7897515167686
  0
ARC
  8
0
 62
7
 10
210.13294375371
 20
727.0851045276028
 30
0
 40
10.00000000000649
 50
242.2102484831881
 51
329.457981964959
  0
ARC
  8
0
 62
7
 10
229.0805916811
 20
715.9053622219
 30
0
 40
12.00000000000011
 50
300.5420180350001
 51
149.4579819650016
  0
ARC
  8
0
 62
7
 10
240.260333986762
 20
696.9577142944879
 30
0
 40
10.00000000004923
 50
120.5420180347733
 51
207.7897515164717
  0
ARC
  8
0
 62
7
 10
176.5644983720053
 20
663.389268912883
 30
0
 40
61.99999999999701
 50
7.029987932216161
 51
27.78975151671425
  0
ARC
  8
0
 62
7
 10
124.0484050629947
 20
715.9053622218947
 30
0
 40
12.00000000000902
 50
30.54201803513949
 51
239.4579819650108
  0
ARC
  8
0
 62
7
 10
176.5644983712978
 20
663.389268912894
 30
0
 40
61.99999999932835
 50
152.2102484830108
 51
163.5439458172108
  0
ARC
  8
0
 62
7
 10
240.2603339867
 20
629.8208235312
 30
0
 40
9.999999999994241
 50
152.2102484832315
 51
239.4579819652259
  0
ARC
  8
0
 62
7
 10
229.0805916811007
 20
610.8731756038008
 30
0
 40
12.0000000000011
 50
210.5420180350017
 51
59.45798196522721
  0
ARC
  8
0
 62
7
 10
210.1329437537404
 20
599.6934332980879
 30
0
 40
10.00000000002951
 50
30.54201803517278
 51
117.7897515169038
  0
ARC
  8
0
 62
7
 10
176.5644983720105
 20
663.3892689129
 30
0
 40
62.00000000001641
 50
242.2102484832599
 51
297.7897515167229
  0
ARC
  8
0
 62
7
 10
142.9960529903
 20
599.6934332981
 30
0
 40
10.00000000007042
 50
62.21024848326846
 51
149.4579819648696
  0
ARC
  8
0
 62
7
 10
124.0484050629974
 20
610.8731756038026
 30
0
 40
11.99999999999649
 50
120.5420180349954
 51
329.457981964865
  0
ARC
  8
0
 62
7
 10
112.8686627572881
 20
629.8208235311596
 30
0
 40
10.0000000000295
 50
300.5420180351727
 51
27.78975151694105
  0
ARC
  8
0
 62
7
 10
176.564498372
 20
663.3892689129
 30
0
 40
61.99999999999925
 50
332.2102484832314
 51
352.9700120678
  0
ARC
  8
0
 62
7
 10
176.564498372
 20
663.3892689129
 30
0
 40
62.00000000000014
 50
196.4560541826
 51
207.7897515167686
  0
ARC
  8
0
 62
7
 10
176.564498372
 20
535.3892689129
 30
0
 40
200
 50
90
 51
106.2208728136
  0
ARC
  8
0
 62
7
 10
162.6619620796525
 20
734.0342940516395
 30
0
 40
10.00000064039906
 50
225.0000031158968
 51
281.133216498697
  0
ARC
  8
0
 62
7
 10
190.4670340071
 20
734.0342935283001
 30
0
 40
10.00000000000006
 50
258.8667866172002
 51
314.9999999999998
  0
ARC
  8
0
 62
7
 10
116.8401314855
 20
686.3892689129
 30
0
 40
2.000000000000006
 50
338.9381823983997
 51
90
  0
ARC
  8
0
 62
7
 10
304.564498372
 20
663.3892689129
 30
0
 40
200.0000000000007
 50
163.7791271864
 51
196.2208728136
  0
ARC
  8
0
 62
7
 10
247.2095229874
 20
677.291804548
 30
0
 40
10.00000000000006
 50
134.9999999999999
 51
191.1332133827999
  0
ARC
  8
0
 62
7
 10
48.564498372
 20
663.3892689129
 30
0
 40
200.0000000000004
 50
343.7791271864
 51
16.2208728136
  0
ARC
  8
0
 62
7
 10
247.2095229874
 20
649.4867332777
 30
0
 40
10.00000000000003
 50
168.8667866172002
 51
225.0000000000001
  0
ARC
  8
0
 62
7
 10
116.8401307233575
 20
640.3892691620043
 30
0
 40
2.00000062170438
 50
269.9999854939305
 51
21.06180309553255
  0
ARC
  8
0
 62
7
 10
162.6619620796526
 20
592.7442437740606
 30
0
 40
10.0000006403991
 50
78.86678350130359
 51
134.9999968841036
  0
ARC
  8
0
 62
7
 10
176.564498372
 20
791.3892689129
 30
0
 40
200
 50
270
 51
286.2208728136
  0
ARC
  8
0
 62
7
 10
190.4670346643474
 20
592.7442437740606
 30
0
 40
10.00000064039912
 50
45.00000311589641
 51
101.1332164986964
  0
ARC
  8
0
 62
7
 10
434.614921522
 20
550.3904746044
 30
0
 40
1.5
 50
179.9242394590281
 51
180.0757605409719
  0
ARC
  8
0
 62
7
 10
487.614921522
 20
435.3904746044
 30
0
 40
93.00000000000001
 50
300.6592644657989
 51
239.3407355342012
  0
ARC
  8
0
 62
7
 10
487.622341369
 20
293.4614277475
 30
0
 40
253.4290476897427
 50
89.73683915319998
 51
90.26316084680001
  0
ARC
  8
0
 62
7
 10
484.2595838771
 20
546.9370758349
 30
0
 40
1.960687999700934
 50
94.94239305783076
 51
114.4000345132002
  0
ARC
  8
0
 62
7
 10
482.6160882211
 20
550.8907725638001
 30
0
 40
0.9996997303205555
 50
90.00966728110274
 51
180.1800193439028
  0
ARC
  8
0
 62
7
 10
492.5392081194
 20
550.9069834011
 30
0
 40
0.9835452186804646
 50
359.2619758255999
 51
89.38673144109899
  0
ARC
  8
0
 62
7
 10
482.6149356851
 20
550.890482743
 30
0
 40
0.9999895368481704
 50
89.99987126669628
 51
180.0032769630026
  0
ARC
  8
0
 62
7
 10
475.914921522
 20
553.8904746044
 30
0
 40
2.500000000000114
 50
0
 51
180
  0
ARC
  8
0
 62
7
 10
499.314921522
 20
553.8904746044
 30
0
 40
2.500000000000057
 50
0
 51
180
  0
ARC
  8
0
 62
7
 10
487.614921522
 20
553.8904746044
 30
0
 40
2.500000000000114
 50
0
 51
180
  0
ARC
  8
0
 62
7
 10
440.2295315489
 20
531.1043572804
 30
0
 40
14.78734502079106
 50
90.7381885094002
 51
109.5180600145999
  0
ARC
  8
0
 62
7
 10
439.8590507948
 20
531.1633597313
 30
0
 40
14.72821487654519
 50
70.44389899900014
 51
89.29986803449997
  0
ARC
  8
0
 62
7
 10
430.3311665395
 20
531.0072656383001
 30
0
 40
14.88466069723057
 50
70.54388193130011
 51
89.19988510219989
  0
ARC
  8
0
 62
7
 10
430.7418591255
 20
531.0353433783
 30
0
 40
14.85651642817772
 50
90.78230056999969
 51
109.4739479540001
  0
ARC
  8
0
 62
7
 10
544.8813389696001
 20
531.1043221134
 30
0
 40
14.78738021595644
 50
90.73819608059992
 51
109.5180368859002
  0
ARC
  8
0
 62
7
 10
544.5108554212
 20
531.1633792094
 30
0
 40
14.72819540460105
 50
70.44388587279983
 51
89.29986560320008
  0
ARC
  8
0
 62
7
 10
534.9829695975
 20
531.0072764589
 30
0
 40
14.88464990500803
 50
70.54387448159973
 51
89.1998769943999
  0
ARC
  8
0
 62
7
 10
535.3936710043
 20
531.0352832011
 30
0
 40
14.85657669349571
 50
90.78232387549983
 51
109.473909091
  0
ARC
  8
0
 62
7
 10
490.7859573329
 20
550.9001832194
 30
0
 40
0.9903383186084986
 50
359.4673625687
 51
89.42853884139868
  0
ARC
  8
0
 62
7
 10
484.4374334353
 20
550.9010389059
 30
0
 40
0.9894924419841632
 50
90.62605119099962
 51
180.6447710233999
  0
ARC
  8
0
 62
7
 10
176.564498372
 20
535.3892689129
 30
0
 40
200.000000000001
 50
73.7791271864
 51
90
  0
ARC
  8
0
 62
7
 10
176.564498372
 20
791.3892689129
 30
0
 40
200.0000000000002
 50
253.7791271864
 51
270
  0
ARC
  8
0
 62
7
 10
126.064498372
 20
663.3892689129
 30
0
 40
2.500000000000114
 50
270.0121055680449
 51
89.98788359708442
  0
ARC
  8
0
 62
7
 10
126.064498372
 20
663.3892689129
 30
0
 40
2.500000000000114
 50
269.9878944319547
 51
270.0121055680449
  0
ARC
  8
0
 62
7
 10
127.5122703612907
 20
651.689268866554
 30
0
 40
2.500000046054074
 50
270.0000165518175
 51
89.9768588362317
  0
ARC
  8
0
 62
7
 10
127.5120564621
 20
675.0892689129
 30
0
 40
2.500000000000113
 50
269.9768479644114
 51
270.0231520355906
  0
ARC
  8
0
 62
7
 10
207.7992802402101
 20
684.6179798233163
 30
0
 40
1.009601431875796
 50
100.3063864420315
 51
181.7115294844255
  0
ARC
  8
0
 62
7
 10
207.8942624775031
 20
686.7976351744618
 30
0
 40
1.255690474414314
 50
84.77835783740107
 51
130.2727899422975
  0
ARC
  8
0
 62
7
 10
264.564498372
 20
370.1394987742
 30
0
 40
10.00000000000011
 50
0
 51
55.40300027991682
  0
ARC
  8
0
 62
7
 10
196.5974756461374
 20
394.3799201138883
 30
0
 40
34.46709685579406
 50
306.6216959892759
 51
0.1198780696688767
  0
ARC
  8
0
 62
7
 10
242.2709960317
 20
482.6449088311
 30
0
 40
5.000090454698743
 50
190.2450327903999
 51
299.8131594353768
  0
ARC
  8
0
 62
7
 10
127.5122696391
 20
553.8904746044
 30
0
 40
2.500000000000114
 50
0.04968043465714225
 51
89.95850582603134
  0
ARC
  8
0
 62
7
 10
127.5122696391
 20
553.8904746044
 30
0
 40
2.500000000000114
 50
359.9503195653429
 51
0.04968043465714225
  0
ARC
  8
0
 62
7
 10
239.5645014450451
 20
550.8904746309192
 30
0
 40
0.9999999668596367
 50
0.0001760688363806953
 51
89.87663752237498
  0
ARC
  8
0
 62
7
 10
434.614921522
 20
550.3904746044
 30
0
 40
1.5
 50
90.10086879428889
 51
179.9242394590281
  0
ARC
  8
0
 62
7
 10
434.614921522
 20
550.3904746044
 30
0
 40
1.5
 50
89.89913120571328
 51
90.10086879428889
  0
ARC
  8
0
 62
7
 10
540.614921522
 20
550.3904746044
 30
0
 40
1.500000000000114
 50
0.07576054425054436
 51
89.89913120324023
  0
ARC
  8
0
 62
7
 10
490.9738070325
 20
546.98849099
 30
0
 40
1.910202904581936
 50
65.13401327749959
 51
65.13401327766469
  0
ARC
  8
0
 62
7
 10
490.9738070325
 20
546.98849099
 30
0
 40
1.91020290458327
 50
65.13401327766469
 51
84.68263963259228
  0
CIRCLE
  8
0
 62
7
 10
100.5001000145
 20
466.3248178428
 30
0
 40
1.25
  0
CIRCLE
  8
0
 62
7
 10
487.614921522
 20
435.3904746044
 30
0
 40
42.50000000000006
  0
CIRCLE
  8
0
 62
7
 10
487.614921522
 20
435.3904746044
 30
0
 40
50.00000000000006
  0
CIRCLE
  8
0
 62
7
 10
487.614921522
 20
435.3904746044
 30
0
 40
52.00000000000006
  0
CIRCLE
  8
0
 62
7
 10
487.614921522
 20
435.3904746044
 30
0
 40
42.00000000000006
  0
CIRCLE
  8
0
 62
7
 10
487.614921522
 20
435.3904746044
 30
0
 40
41.50000000000006
  0
CIRCLE
  8
0
 62
7
 10
487.614921522
 20
435.3904746044
 30
0
 40
34.00000000000006
  0
CIRCLE
  8
0
 62
7
 10
487.614921522
 20
435.3904746044
 30
0
 40
27.00000000000006
  0
CIRCLE
  8
0
 62
7
 10
487.614921522
 20
435.3904746044
 30
0
 40
33.00000000000006
  0
CIRCLE
  8
0
 62
7
 10
487.614921522
 20
435.3904746044
 30
0
 40
33.50000000000006
  0
CIRCLE
  8
0
 62
7
 10
487.614921522
 20
435.3904746044
 30
0
 40
25.00000000000006
  0
CIRCLE
  8
0
 62
7
 10
436.7652187461
 20
385.1255989197
 30
0
 40
9.500000000000114
  0
CIRCLE
  8
0
 62
7
 10
436.7652187461
 20
485.6553502892
 30
0
 40
9.500000000000171
  0
CIRCLE
  8
0
 62
7
 10
538.4646242979
 20
385.1255989197
 30
0
 40
9.5
  0
CIRCLE
  8
0
 62
7
 10
538.4646242979
 20
485.6553502892
 30
0
 40
9.500000000000114
  0
CIRCLE
  8
0
 62
7
 10
124.2385965642
 20
715.7151707207
 30
0
 40
9.500000000000028
  0
CIRCLE
  8
0
 62
7
 10
124.2385965642
 20
611.0633671051
 30
0
 40
9.500000000000028
  0
CIRCLE
  8
0
 62
7
 10
228.8904001798
 20
611.063367105
 30
0
 40
9.500000000000016
  0
CIRCLE
  8
0
 62
7
 10
228.8904001798
 20
715.7151707207
 30
0
 40
9.500000000000016
  0
CIRCLE
  8
1
 62
2
  6
DASHDOT
 10
487.6149215212816
 20
435.3904746046696
 30
0
 40
71.50000000071844
  0
LINE
  8
1
 62
2
 10
222.2795805472
 20
343.1823618479
 30
0
 11
207.8080691927
 21
343.1823618479
 31
0
  0
LINE
  8
1
 62
2
 10
207.8080691927
 20
343.1823618479
 30
0
 11
183.1505611451
 21
403.6606769451897
 31
0
  0
LINE
  8
1
 62
2
 10
185.1526584483
 20
401.0212062955143
 30
0
 11
183.1505611451
 21
403.6606769451897
 31
0
  0
LINE
  8
1
 62
2
 10
183.5646929456818
 20
400.3737796584274
 30
0
 11
183.1505611451
 21
403.6606769451897
 31
0
  0
DIMENSION
  8
1
  6
CONTINUOUS
 62
2
  2
*D0
  3
DMST_1
 10
46.56450314040001
 20
322.8057643579
 30
0
 11
111.5645007562
 21
325.4057643579
 31
0
 12
0
 22
0
 32
0
 70
128
 13
176.564498372
 23
342.7562918612
 33
0
 14
46.5645031404
 24
385.3904738594
 34
0
 53
0
  0
DIMENSION
  8
1
  6
CONTINUOUS
 62
2
  2
*D1
  3
DMST_1
 10
176.564498372
 20
322.8057643579
 30
0
 11
234.0644994151
 21
325.4057643579
 31
0
 12
0
 22
0
 32
0
 70
128
 13
291.5645004582
 23
385.3904738594
 33
0
 14
176.564498372
 24
342.7562918612
 34
0
 53
0
  0
DIMENSION
  8
1
  6
CONTINUOUS
 62
2
  2
*D2
  3
DMST_1
 10
46.56450314039999
 20
313.2125495991
 30
0
 11
169.0645017993
 21
315.8125495991
 31
0
 12
0
 22
0
 32
0
 70
128
 13
291.5645004582
 23
385.3904738594
 33
0
 14
46.5645031404
 24
385.3904738594
 34
0
 53
0
  0
DIMENSION
  8
1
  6
CONTINUOUS
 62
2
  2
*D3
  3
DMST_1
 10
313.564498372
 20
355.3904763926
 30
0
 11
310.964498372
 21
455.8904751707
 31
0
 12
0
 22
0
 32
0
 70
128
 13
127.5104591143679
 23
556.3904739488
 33
0
 14
216.5644974779
 24
355.3904763926
 34
0
 50
90
 53
0
  0
DIMENSION
  8
1
  6
CONTINUOUS
 62
2
  2
*D4
  3
DMST_1
 10
302.1537219546
 20
355.3904763926
 30
0
 11
299.5537219546
 21
395.3904754985
 31
0
 12
0
 22
0
 32
0
 70
128
 13
296.7201178535
 23
435.3904746044
 33
0
 14
216.5644974779
 24
355.3904763926
 34
0
 50
90
 53
0
  0
DIMENSION
  8
1
  6
CONTINUOUS
 62
2
  2
*D5
  3
DMST_1
 10
312.954591546733
 20
591.3892689129
 30
0
 11
310.354591546733
 21
663.3892689129
 31
0
 12
0
 22
0
 32
0
 70
129
 13
176.564498372
 23
735.3892689129
 33
0
 14
176.564498372
 24
591.3892689129
 34
0
 53
0
  0
DIMENSION
  8
1
  6
CONTINUOUS
 62
2
  2
*D6
  3
DMST_2
 10
402.9772098072136
 20
396.8488379540873
 30
0
 11
604.2824711451884
 21
491.3744823293094
 31
0
 12
0
 22
0
 32
0
 70
131
  1
D1
 15
572.2526332367863
 25
473.9321112547127
 35
0
 40
38.8871027448758
 53
0
  0
DIMENSION
  8
1
  6
CONTINUOUS
 62
2
  2
*D7
  3
DMST_2
 10
416.9717166138128
 20
424.3547326493631
 30
0
 11
611.9713612962743
 21
457.4487260936892
 31
0
 12
0
 22
0
 32
0
 70
131
  1
D2
 15
558.2581264287504
 25
446.426216559976
 35
0
 40
57.75958063605906
 53
0
  0
DIMENSION
  8
1
  6
CONTINUOUS
 62
2
  2
*D8
  3
DMST_2
 10
446.6838871271261
 20
446.8316468942335
 30
0
 11
612.605079428011
 21
403.152493066816
 31
0
 12
0
 22
0
 32
0
 70
131
  1
D3
 15
528.5459559168739
 25
423.9493023145665
 35
0
 40
89.54323055070417
 53
0
  0
ENDSEC
  0
EOF
