  0
SECTION
  2
HEADER
  9
$ACADVER
  1
AC1009
  9
$INSBASE
 10
0
 20
0
  9
$EXTMIN
 10
-8.2911052355
 20
218.5963347476387
  9
$EXTMAX
 10
875.1947415536839
 20
787.5475228749
  9
$LIMMIN
 10
-8.2911052355
 20
218.5963347476387
  9
$LIMMAX
 10
875.1947415536839
 20
787.5475228749
  9
$VIEWCTR
 10
10
 20
10
  9
$VIEWSIZE
 40
10
  9
$SNAPMODE
 70
0
  9
$SNAPUNIT
 10
1
 20
1
  9
$SNAPBASE
 10
0
 20
0
  9
$SNAPANG
 50
0
  9
$SNAPSTYLE
 70
0
  9
$SNAPISOPAIR
 70
0
  9
$GRIDMODE
 70
0
  9
$GRIDUNIT
 10
0
 20
0
  9
$ORTHOMODE
 70
0
  9
$REGENMODE
 70
1
  9
$FILLMODE
 70
1
  9
$QTEXTMODE
 70
0
  9
$DRAGMODE
 70
2
  9
$LTSCALE
 40
1
  9
$OSMODE
 70
0
  9
$ATTMODE
 70
1
  9
$TEXTSIZE
 40
3.5
  9
$TRACEWID
 40
0.5
  9
$TEXTSTYLE
  7
STANDARD
  9
$CLAYER
  8
0
  9
$CELTYPE
  6
BYLAYER
  9
$CECOLOR
 62
256
  9
$DIMSCALE
 40
1
  9
$DIMASZ
 40
0.18
  9
$DIMEXO
 40
0.0625
  9
$DIMDLI
 40
0.38
  9
$DIMRND
 40
0
  9
$DIMDLE
 40
0
  9
$DIMEXE
 40
0.18
  9
$DIMTP
 40
0
  9
$DIMTM
 40
0
  9
$DIMTXT
 40
0.18
  9
$DIMCEN
 40
0.09
  9
$DIMTSZ
 40
0
  9
$DIMTOL
 70
0
  9
$DIMLIM
 70
0
  9
$DIMTIH
 70
1
  9
$DIMTOH
 70
1
  9
$DIMSE1
 70
0
  9
$DIMSE2
 70
0
  9
$DIMTAD
 70
0
  9
$DIMZIN
 70
0
  9
$DIMBLK
  1

  9
$DIMASO
 70
1
  9
$DIMSHO
 70
1
  9
$DIMPOST
  1

  9
$DIMAPOST
  1

  9
$DIMALT
 70
0
  9
$DIMALTD
 70
2
  9
$DIMALTF
 40
25.4
  9
$DIMLFAC
 40
1
  9
$DIMTOFL
 70
0
  9
$DIMTVP
 40
0
  9
$DIMTIX
 70
0
  9
$DIMSOXD
 70
0
  9
$DIMSAH
 70
0
  9
$DIMBLK1
  1

  9
$DIMBLK2
  1

  9
$DIMSTYLE
  2
*UNNAMED
  9
$DIMCLRD
 70
0
  9
$DIMCLRE
 70
0
  9
$DIMCLRT
 70
0
  9
$DIMTFAC
 40
1
  9
$DIMGAP
 40
0.09
  9
$LUNITS
 70
2
  9
$LUPREC
 70
4
  9
$AXISMODE
 70
0
  9
$AXISUNIT
 10
0
 20
0
  9
$SKETCHINC
 40
0.1
  9
$FILLETRAD
 40
2
  9
$AUNITS
 70
0
  9
$AUPREC
 70
0
  9
$MENU
  1
ACAD
  9
$ELEVATION
 40
0
  9
$THICKNESS
 40
0
  9
$VIEWDIR
 10
0
 20
0
 30
1
  9
$LIMCHECK
 70
0
  9
$BLIPMODE
 70
1
  9
$CHAMFERA
 40
0
  9
$CHAMFERB
 40
0
  9
$FASTZOOM
 70
1
  9
$SKPOLY
 70
0
  9
$ANGBASE
 50
0
  9
$ANGDIR
 70
0
  9
$PDMODE
 70
0
  9
$PDSIZE
 40
0
  9
$PLINEWID
 40
0
  9
$COORDS
 70
2
  0
ENDSEC
  0
SECTION
  2
TABLES
  0
TABLE
  2
DIMSTYLE
 70
3
  0
DIMSTYLE
  2
DMST_1
 70
0
  3

  4

  5

  6

  7

 40
1
 41
3
 42
0.5
 43
7
 44
1
 45
0
 46
0
 47
0
 48
0
140
3
141
0
142
0
143
25.4
144
1
145
0
146
1
147
0.09
 71
0
 72
0
 73
0
 74
0
 75
0
 76
0
 77
1
 78
9
170
0
171
2
172
0
173
0
174
0
175
0
176
2
177
2
178
2
  0
DIMSTYLE
  2
DMST_2
 70
0
  3

  4

  5

  6

  7

 40
1
 41
3.2
 42
0.5
 43
7
 44
1.5
 45
0
 46
0
 47
0
 48
0
140
3.2
141
0
142
0
143
25.4
144
1
145
0
146
1
147
0.09
 71
0
 72
0
 73
0
 74
0
 75
0
 76
0
 77
1
 78
9
170
0
171
2
172
0
173
0
174
0
175
0
176
2
177
2
178
2
  0
DIMSTYLE
  2
DMST_3
 70
0
  3

  4

  5

  6

  7

 40
1
 41
3.2
 42
0.5
 43
7
 44
1.5
 45
0
 46
0
 47
0
 48
0
140
3.2
141
0
142
0
143
25.4
144
1
145
0
146
1
147
0.09
 71
0
 72
0
 73
0
 74
0
 75
0
 76
0
 77
1
 78
9
170
0
171
2
172
1
173
0
174
0
175
0
176
2
177
2
178
2
  0
ENDTAB
  0
TABLE
  2
LTYPE
 70
9
  0
LTYPE
  2
CONTINUOUS
 70
64
  3
Solid line
 72
65
 73
0
 40
0
  0
LTYPE
  2
BORDER
 70
64
  3
__ __ . __ __ .
 72
65
 73
6
 40
40.68684820739663
 49
11.62481377354189
 49
-5.812406886770947
 49
11.62481377354189
 49
-5.812406886770947
 49
0
 49
-5.812406886770947
  0
LTYPE
  2
CENTER
 70
64
  3
____ _ ____ _
 72
65
 73
4
 40
46.49925509416757
 49
29.06203443385473
 49
-5.812406886770947
 49
5.812406886770947
 49
-5.812406886770947
  0
LTYPE
  2
DASHDOT
 70
64
  3
__ . __ . __ .
 72
65
 73
4
 40
23.24962754708379
 49
11.62481377354189
 49
-5.812406886770947
 49
0
 49
-5.812406886770947
  0
LTYPE
  2
DASHED
 70
64
  3
__ __ __ __ __
 72
65
 73
2
 40
17.43722066031284
 49
11.62481377354189
 49
-5.812406886770947
  0
LTYPE
  2
DIVIDE
 70
64
  3
__ . . __ . . 
 72
65
 73
6
 40
29.06203443385473
 49
11.62481377354189
 49
-5.812406886770947
 49
0
 49
-5.812406886770947
 49
0
 49
-5.812406886770947
  0
LTYPE
  2
DOT
 70
64
  3
..............
 72
65
 73
4
 40
11.62481377354189
 49
0
 49
-5.812406886770947
 49
0
 49
-5.812406886770947
  0
LTYPE
  2
HIDDEN
 70
64
  3
_ _ _ _ _ _ _
 72
65
 73
2
 40
8.71861033015642
 49
5.812406886770947
 49
-2.906203443385473
  0
LTYPE
  2
PHANTOM
 70
64
  3
_____ _ _ _____ _ _ 
 72
65
 73
6
 40
58.12406886770947
 49
29.06203443385473
 49
-5.812406886770947
 49
5.812406886770947
 49
-5.812406886770947
 49
5.812406886770947
 49
-5.812406886770947
  0
ENDTAB
  0
TABLE
  2
LAYER
 70
3
  0
LAYER
  2
0
 70
0
 62
7
  6
CONTINUOUS
  0
LAYER
  2
1
 70
0
 62
7
  6
CONTINUOUS
  0
ENDTAB
  0
TABLE
  2
STYLE
 70
4
  0
STYLE
  2
STANDARD
 70
0
 40
0
 41
1
 50
0
 71
0
 42
3.5
  3
txt
  4

  0
STYLE
  2
SIMPLEX
 70
0
 40
0
 41
1
 50
0
 71
0
 42
3.5
  3
simplex
  4

  0
STYLE
  2
COMPLEX
 70
0
 40
0
 41
1
 50
0
 71
0
 42
3.5
  3
complex
  4

  0
STYLE
  2
ITALIC
 70
0
 40
0
 41
1
 50
0
 71
0
 42
3.5
  3
italic
  4

  0
ENDTAB
  0
TABLE
  2
VIEW
 70
0
  0
ENDTAB
  0
ENDSEC
  0
SECTION
  2
BLOCKS
  0
BLOCK
  8
1
  2
*D0
 70
1
 10
0
 20
0
 30
0
  0
LINE
  8
1
 62
2
 10
599.0142957058
 20
601.5475184642
 30
0
 11
599.0142957058
 21
787.5475228749
 31
0
  0
LINE
  8
1
 62
2
 10
575.5142937388
 20
787.5475228749
 30
0
 11
600.0142957058
 21
787.5475228749
 31
0
  0
LINE
  8
1
 62
2
 10
575.5142937388
 20
601.5475184642
 30
0
 11
600.0142957058
 21
601.5475184642
 31
0
  0
LINE
  8
1
 62
2
 10
599.0142957058
 20
787.5475228749
 30
0
 11
599.8242957058
 21
784.5475228749
 31
0
  0
LINE
  8
1
 62
2
 10
599.0142957058
 20
787.5475228749
 30
0
 11
598.2042957058001
 21
784.5475228749
 31
0
  0
LINE
  8
1
 62
2
 10
599.0142957058
 20
601.5475184642
 30
0
 11
598.2042957058001
 21
604.5475184642
 31
0
  0
LINE
  8
1
 62
2
 10
599.0142957058
 20
601.5475184642
 30
0
 11
599.8242957058
 21
604.5475184642
 31
0
  0
TEXT
  8
1
 62
2
 10
598.2142957058001
 20
690.9955968809034
 30
0
 40
3
  1
186
 50
90
 41
0.9
 51
15
  0
ENDBLK
  8
0
  0
BLOCK
  8
1
  2
*D1
 70
1
 10
0
 20
0
 30
0
  0
LINE
  8
1
 62
2
 10
17.01430285830003
 20
317.8621748647001
 30
0
 11
577.0142977918999
 21
317.8621748647001
 31
0
  0
LINE
  8
1
 62
2
 10
577.0142977918999
 20
389.5588956493
 30
0
 11
577.0142977918999
 21
316.3621748647001
 31
0
  0
LINE
  8
1
 62
2
 10
17.01430285830003
 20
389.5588956493
 30
0
 11
17.01430285830003
 21
316.3621748647001
 31
0
  0
LINE
  8
1
 62
2
 10
577.0142977918999
 20
317.8621748647001
 30
0
 11
573.8142977918999
 21
316.9981748647001
 31
0
  0
LINE
  8
1
 62
2
 10
577.0142977918999
 20
317.8621748647001
 30
0
 11
573.8142977918999
 21
318.7261748647001
 31
0
  0
LINE
  8
1
 62
2
 10
17.01430285830003
 20
317.8621748647001
 30
0
 11
20.21430285830003
 21
318.7261748647001
 31
0
  0
LINE
  8
1
 62
2
 10
17.01430285830003
 20
317.8621748647001
 30
0
 11
20.21430285830003
 21
316.9981748647001
 31
0
  0
TEXT
  8
1
 62
2
 10
292.7455816172102
 20
318.8621748647001
 30
0
 40
3.2
  1
560
 41
0.9
 51
15
  0
ENDBLK
  8
0
  0
BLOCK
  8
1
  2
*D2
 70
1
 10
0
 20
0
 30
0
  0
LINE
  8
1
 62
2
 10
332.0142957058
 20
327.5856386431001
 30
0
 11
577.0142977918999
 21
327.5856386431001
 31
0
  0
LINE
  8
1
 62
2
 10
577.0142977918999
 20
389.5588956493
 30
0
 11
577.0142977918999
 21
326.0856386431001
 31
0
  0
LINE
  8
1
 62
2
 10
332.0142957058
 20
403.0588963943001
 30
0
 11
332.0142957058
 21
326.0856386431001
 31
0
  0
LINE
  8
1
 62
2
 10
332.0142957058
 20
327.5856386431001
 30
0
 11
335.2142957057999
 21
328.4496386431001
 31
0
  0
LINE
  8
1
 62
2
 10
332.0142957058
 20
327.5856386431001
 30
0
 11
335.2142957057999
 21
326.7216386431001
 31
0
  0
LINE
  8
1
 62
2
 10
577.0142977918999
 20
327.5856386431001
 30
0
 11
573.8142977918999
 21
326.7216386431001
 31
0
  0
LINE
  8
1
 62
2
 10
577.0142977918999
 20
327.5856386431001
 30
0
 11
573.8142977918999
 21
328.4496386431001
 31
0
  0
TEXT
  8
1
 62
2
 10
450.2455780409602
 20
328.5856386431001
 30
0
 40
3.2
  1
245
 41
0.9
 51
15
  0
ENDBLK
  8
0
  0
BLOCK
  8
1
  2
*D3
 70
1
 10
0
 20
0
 30
0
  0
LINE
  8
1
 62
2
 10
332.0142957058
 20
335.8621748647001
 30
0
 11
462.0142957058
 21
335.8621748647001
 31
0
  0
LINE
  8
1
 62
2
 10
462.0142957058
 20
341.8878602573001
 30
0
 11
462.0142957058
 21
334.3621748647001
 31
0
  0
LINE
  8
1
 62
2
 10
332.0142957058
 20
403.0588963943001
 30
0
 11
332.0142957058
 21
334.3621748647001
 31
0
  0
LINE
  8
1
 62
2
 10
332.0142957058
 20
335.8621748647001
 30
0
 11
335.2142957058
 21
336.7261748647001
 31
0
  0
LINE
  8
1
 62
2
 10
332.0142957058
 20
335.8621748647001
 30
0
 11
335.2142957058
 21
334.9981748647001
 31
0
  0
LINE
  8
1
 62
2
 10
462.0142957058
 20
335.8621748647001
 30
0
 11
458.8142957058
 21
334.9981748647001
 31
0
  0
LINE
  8
1
 62
2
 10
462.0142957058
 20
335.8621748647001
 30
0
 11
458.8142957058
 21
336.7261748647001
 31
0
  0
TEXT
  8
1
 62
2
 10
393.2255769979102
 20
336.8621748647001
 30
0
 40
3.2
  1
130
 41
0.9
 51
15
  0
ENDBLK
  8
0
  0
BLOCK
  8
1
  2
*D4
 70
1
 10
0
 20
0
 30
0
  0
LINE
  8
1
 62
2
 10
17.0143028583
 20
327.5856386431001
 30
0
 11
329.0142957058
 21
327.5856386431001
 31
0
  0
LINE
  8
1
 62
2
 10
329.0142957058
 20
403.3088963943001
 30
0
 11
329.0142957058
 21
326.0856386431001
 31
0
  0
LINE
  8
1
 62
2
 10
17.0143028583
 20
389.5588956493
 30
0
 11
17.0143028583
 21
326.0856386431001
 31
0
  0
LINE
  8
1
 62
2
 10
17.0143028583
 20
327.5856386431001
 30
0
 11
20.2143028583
 21
328.4496386431001
 31
0
  0
LINE
  8
1
 62
2
 10
17.0143028583
 20
327.5856386431001
 30
0
 11
20.2143028583
 21
326.7216386431001
 31
0
  0
LINE
  8
1
 62
2
 10
329.0142957058
 20
327.5856386431001
 30
0
 11
325.8142957058
 21
326.7216386431001
 31
0
  0
LINE
  8
1
 62
2
 10
329.0142957058
 20
327.5856386431001
 30
0
 11
325.8142957058
 21
328.4496386431001
 31
0
  0
TEXT
  8
1
 62
2
 10
169.2255805741602
 20
328.5856386431001
 30
0
 40
3.2
  1
312
 41
0.9
 51
15
  0
ENDBLK
  8
0
  0
BLOCK
  8
1
  2
*D5
 70
1
 10
0
 20
0
 30
0
  0
LINE
  8
1
 62
2
 10
462.0142957058
 20
335.8621748647001
 30
0
 11
577.0142977919001
 21
335.8621748647001
 31
0
  0
LINE
  8
1
 62
2
 10
577.0142977919001
 20
389.5588956493
 30
0
 11
577.0142977919001
 21
334.3621748647001
 31
0
  0
LINE
  8
1
 62
2
 10
462.0142957058
 20
341.8878602573001
 30
0
 11
462.0142957058
 21
334.3621748647001
 31
0
  0
LINE
  8
1
 62
2
 10
462.0142957058
 20
335.8621748647001
 30
0
 11
465.2142957058
 21
336.7261748647001
 31
0
  0
LINE
  8
1
 62
2
 10
462.0142957058
 20
335.8621748647001
 30
0
 11
465.2142957058
 21
334.9981748647001
 31
0
  0
LINE
  8
1
 62
2
 10
577.0142977919001
 20
335.8621748647001
 30
0
 11
573.8142977919
 21
334.9981748647001
 31
0
  0
LINE
  8
1
 62
2
 10
577.0142977919001
 20
335.8621748647001
 30
0
 11
573.8142977919
 21
336.7261748647001
 31
0
  0
TEXT
  8
1
 62
2
 10
516.2055780409602
 20
336.8621748647001
 30
0
 40
3.2
  1
115
 41
0.9
 51
15
  0
ENDBLK
  8
0
  0
BLOCK
  8
1
  2
*D6
 70
1
 10
0
 20
0
 30
0
  0
LINE
  8
1
 62
2
 10
587.0142957058
 20
360.0588981825
 30
0
 11
587.0142957058
 21
440.0588963943
 31
0
  0
LINE
  8
1
 62
2
 10
583.9410676481
 20
440.0588963943
 30
0
 11
588.5142957058
 21
440.0588963943
 31
0
  0
LINE
  8
1
 62
2
 10
502.5142948117
 20
360.0588981825
 30
0
 11
588.5142957058
 21
360.0588981825
 31
0
  0
LINE
  8
1
 62
2
 10
587.0142957058
 20
440.0588963943
 30
0
 11
587.8782957058
 21
436.8588963943
 31
0
  0
LINE
  8
1
 62
2
 10
587.0142957058
 20
440.0588963943
 30
0
 11
586.1502957058
 21
436.8588963943
 31
0
  0
LINE
  8
1
 62
2
 10
587.0142957058
 20
360.0588981825
 30
0
 11
586.1502957058
 21
363.2588981825
 31
0
  0
LINE
  8
1
 62
2
 10
587.0142957058
 20
360.0588981825
 30
0
 11
587.8782957058
 21
363.2588981825
 31
0
  0
TEXT
  8
1
 62
2
 10
586.0142957058
 20
397.2301785805102
 30
0
 40
3.2
  1
80
 50
90
 41
0.9
 51
15
  0
ENDBLK
  8
0
  0
BLOCK
  8
1
  2
*D7
 70
1
 10
0
 20
0
 30
0
  0
LINE
  8
1
 62
2
 10
599.0142957058
 20
360.0588981825
 30
0
 11
599.0142957058
 21
561.0588957387
 31
0
  0
LINE
  8
1
 62
2
 10
413.4638774974754
 20
561.0588957387
 30
0
 11
600.5142957058
 21
561.0588957387
 31
0
  0
LINE
  8
1
 62
2
 10
502.5142948117
 20
360.0588981825
 30
0
 11
600.5142957058
 21
360.0588981825
 31
0
  0
LINE
  8
1
 62
2
 10
599.0142957058
 20
561.0588957387
 30
0
 11
599.8782957058
 21
557.8588957387
 31
0
  0
LINE
  8
1
 62
2
 10
599.0142957058
 20
561.0588957387
 30
0
 11
598.1502957058
 21
557.8588957387
 31
0
  0
LINE
  8
1
 62
2
 10
599.0142957058
 20
360.0588981825
 30
0
 11
598.1502957058
 21
363.2588981825
 31
0
  0
LINE
  8
1
 62
2
 10
599.0142957058
 20
360.0588981825
 30
0
 11
599.8782957058
 21
363.2588981825
 31
0
  0
TEXT
  8
1
 62
2
 10
598.0142957058
 20
456.7701782527102
 30
0
 40
3.2
  1
201
 50
90
 41
0.9
 51
15
  0
ENDBLK
  8
0
  0
BLOCK
  8
1
  2
*D8
 70
1
 10
0
 20
0
 30
0
  0
LINE
  8
1
 62
2
 10
692.2146376569364
 20
453.1703639849157
 30
0
 11
866.6429376324398
 21
405.7714462513778
 31
0
  0
LINE
  8
1
 62
2
 10
788.7151955334635
 20
426.9474288036842
 30
0
 11
785.4006115214488
 21
426.9527979094304
 31
0
  0
LINE
  8
1
 62
2
 10
788.7151955334635
 20
426.9474288036842
 30
0
 11
785.8537438413805
 21
428.6203275495368
 31
0
  0
LINE
  8
1
 62
2
 10
692.2146376569364
 20
453.1703639849157
 30
0
 11
695.5292216689511
 21
453.1649948791695
 31
0
  0
LINE
  8
1
 62
2
 10
692.2146376569364
 20
453.1703639849157
 30
0
 11
695.0760893490194
 21
451.4974652390631
 31
0
  0
TEXT
  8
1
 62
2
 10
861.1369065313046
 20
408.3039113691816
 30
0
 40
3.2
  1
D3
 50
344.7976147908303
 41
0.9
 51
15
  0
ENDBLK
  8
0
  0
BLOCK
  8
1
  2
*D9
 70
1
 10
0
 20
0
 30
0
  0
LINE
  8
1
 62
2
 10
669.9184647779296
 20
428.420677630623
 30
0
 11
873.1472801007409
 21
461.9478267770679
 31
0
  0
LINE
  8
1
 62
2
 10
811.0113684124706
 20
451.697115158177
 30
0
 11
807.9946799536823
 21
450.3237664251112
 31
0
  0
LINE
  8
1
 62
2
 10
811.0113684124706
 20
451.697115158177
 30
0
 11
807.7134094358668
 21
452.0287212326671
 31
0
  0
LINE
  8
1
 62
2
 10
669.9184647779296
 20
428.420677630623
 30
0
 11
672.9351532367178
 21
429.7940263636888
 31
0
  0
LINE
  8
1
 62
2
 10
669.9184647779296
 20
428.420677630623
 30
0
 11
673.2164237545334
 21
428.0890715561329
 31
0
  0
TEXT
  8
1
 62
2
 10
867.0867875216245
 20
461.961529259944
 30
0
 40
3.2
  1
D2
 50
9.367846662411232
 41
0.9
 51
15
  0
ENDBLK
  8
0
  0
BLOCK
  8
1
  2
*D10
 70
1
 10
0
 20
0
 30
0
  0
LINE
  8
1
 62
2
 10
655.7618219495864
 20
401.6611652444486
 30
0
 11
875.1947415536839
 21
501.1348183339517
 31
0
  0
LINE
  8
1
 62
2
 10
825.1680112408134
 20
478.4566275441514
 30
0
 11
822.6102234649801
 21
476.3484962166962
 31
0
  0
LINE
  8
1
 62
2
 10
825.1680112408134
 20
478.4566275441514
 30
0
 11
821.8967688474861
 21
477.9223343623696
 31
0
  0
LINE
  8
1
 62
2
 10
655.7618219495864
 20
401.6611652444486
 30
0
 11
658.3196097254197
 21
403.7692965719038
 31
0
  0
LINE
  8
1
 62
2
 10
655.7618219495864
 20
401.6611652444486
 30
0
 11
659.0330643429137
 21
402.1954584262305
 31
0
  0
TEXT
  8
1
 62
2
 10
870.2120511509197
 20
499.9740106102237
 30
0
 40
3.2
  1
D1
 50
24.38580712815808
 41
0.9
 51
15
  0
ENDBLK
  8
0
  0
ENDSEC
  0
SECTION
  2
ENTITIES
  0
POLYLINE
  8
0
 62
7
 66
1
  0
VERTEX
  8
0
 10
119.4982353534
 20
686.7447194628001
 30
0
  0
VERTEX
  8
0
 10
117.9083410587
 20
685.7563608311
 30
0
  0
VERTEX
  8
0
 10
116.0678688373
 20
685.4421605340999
 30
0
  0
SEQEND
  8
0
  0
POLYLINE
  8
0
 62
7
 66
1
  0
VERTEX
  8
0
 10
117.1794060554
 20
697.4957582525999
 30
0
  0
VERTEX
  8
0
 10
118.5902479972
 20
697.2324174814
 30
0
  0
VERTEX
  8
0
 10
119.8026362743
 20
696.4351960443
 30
0
  0
SEQEND
  8
0
  0
POLYLINE
  8
0
 62
7
 66
1
  0
VERTEX
  8
0
 10
111.6012159671
 20
693.8261219285
 30
0
  0
VERTEX
  8
0
 10
111.9039181556
 20
698.9849020711999
 30
0
  0
VERTEX
  8
0
 10
112.2065905418
 20
704.0381298385
 30
0
  0
SEQEND
  8
0
  0
POLYLINE
  8
0
 62
7
 66
1
  0
VERTEX
  8
0
 10
118.0857542839
 20
695.2760794185001
 30
0
  0
VERTEX
  8
0
 10
117.4337092723
 20
695.7108152083999
 30
0
  0
VERTEX
  8
0
 10
116.673243412
 20
695.8558314464999
 30
0
  0
SEQEND
  8
0
  0
POLYLINE
  8
0
 62
7
 66
1
  0
VERTEX
  8
0
 10
116.1704782333
 20
687.2155775301001
 30
0
  0
VERTEX
  8
0
 10
117.0966152038
 20
687.4242710865999
 30
0
  0
VERTEX
  8
0
 10
117.883962759
 20
687.9720824756
 30
0
  0
SEQEND
  8
0
  0
POLYLINE
  8
0
 62
7
 66
1
  0
VERTEX
  8
0
 10
129.2865697231
 20
702.2632450782
 30
0
  0
VERTEX
  8
0
 10
128.577065834
 20
702.1111340247001
 30
0
  0
VERTEX
  8
0
 10
127.9732707824
 20
701.6976826809
 30
0
  0
SEQEND
  8
0
  0
POLYLINE
  8
0
 62
7
 66
1
  0
VERTEX
  8
0
 10
130.596471199
 20
701.6976826809
 30
0
  0
VERTEX
  8
0
 10
129.9947325077
 20
702.1116704665001
 30
0
  0
VERTEX
  8
0
 10
129.2865697231
 20
702.2632450782
 30
0
  0
SEQEND
  8
0
  0
POLYLINE
  8
0
 62
7
 66
1
  0
VERTEX
  8
0
 10
129.2865697231
 20
687.2155775301001
 30
0
  0
VERTEX
  8
0
 10
129.9935106124
 20
687.3705030403999
 30
0
  0
VERTEX
  8
0
 10
130.596471199
 20
687.7826132796999
 30
0
  0
SEQEND
  8
0
  0
POLYLINE
  8
0
 62
7
 66
1
  0
VERTEX
  8
0
 10
127.9732707824
 20
687.7826132796999
 30
0
  0
VERTEX
  8
0
 10
128.5782877292
 20
687.3710441388
 30
0
  0
VERTEX
  8
0
 10
129.2865697231
 20
687.2155775301001
 30
0
  0
SEQEND
  8
0
  0
POLYLINE
  8
0
 62
7
 66
1
  0
VERTEX
  8
0
 10
126.1571768608
 20
686.7447222568001
 30
0
  0
VERTEX
  8
0
 10
125.4569116916
 20
687.534226755
 30
0
  0
VERTEX
  8
0
 10
124.9072078552
 20
688.4452576734
 30
0
  0
VERTEX
  8
0
 10
124.4867566909
 20
689.4311930038
 30
0
  0
VERTEX
  8
0
 10
124.1832498397
 20
690.4668423332
 30
0
  0
VERTEX
  8
0
 10
123.9685837116
 20
691.5303465894999
 30
0
  0
VERTEX
  8
0
 10
123.8330427494
 20
692.6109741426999
 30
0
  0
VERTEX
  8
0
 10
123.7585667457
 20
693.7001503058
 30
0
  0
VERTEX
  8
0
 10
123.7357381668
 20
694.7927770189999
 30
0
  0
SEQEND
  8
0
  0
POLYLINE
  8
0
 62
7
 66
1
  0
VERTEX
  8
0
 10
129.2865697231
 20
685.4421605340999
 30
0
  0
VERTEX
  8
0
 10
127.5994602527
 20
685.7856704838
 30
0
  0
VERTEX
  8
0
 10
126.1571768608
 20
686.7447194628001
 30
0
  0
SEQEND
  8
0
  0
POLYLINE
  8
0
 62
7
 66
1
  0
VERTEX
  8
0
 10
132.4125651206
 20
686.7447194628001
 30
0
  0
VERTEX
  8
0
 10
130.9718016471
 20
685.7863158903999
 30
0
  0
VERTEX
  8
0
 10
129.2865697231
 20
685.4421605340999
 30
0
  0
SEQEND
  8
0
  0
POLYLINE
  8
0
 62
7
 66
1
  0
VERTEX
  8
0
 10
132.4125651206
 20
702.7327881179999
 30
0
  0
VERTEX
  8
0
 10
133.1067804183
 20
701.9549996577
 30
0
  0
VERTEX
  8
0
 10
133.6561266269
 20
701.0595702551
 30
0
  0
VERTEX
  8
0
 10
134.3827072467
 20
699.0675494991001
 30
0
  0
VERTEX
  8
0
 10
134.5982972469
 20
698.0176863245001
 30
0
  0
VERTEX
  8
0
 10
134.7357157554
 20
696.9502211532999
 30
0
  0
VERTEX
  8
0
 10
134.8107878055
 20
695.8734893225001
 30
0
  0
VERTEX
  8
0
 10
134.8339740123
 20
694.7927770189999
 30
0
  0
SEQEND
  8
0
  0
POLYLINE
  8
0
 62
7
 66
1
  0
VERTEX
  8
0
 10
129.2865697231
 20
704.0381298385
 30
0
  0
VERTEX
  8
0
 10
130.9733811702
 20
703.6941588841
 30
0
  0
VERTEX
  8
0
 10
132.4125353183
 20
702.7327918432
 30
0
  0
SEQEND
  8
0
  0
POLYLINE
  8
0
 62
7
 66
1
  0
VERTEX
  8
0
 10
126.1571768608
 20
702.7327881179999
 30
0
  0
VERTEX
  8
0
 10
127.5978807296
 20
703.6948126725999
 30
0
  0
VERTEX
  8
0
 10
129.2865697231
 20
704.0381298385
 30
0
  0
SEQEND
  8
0
  0
POLYLINE
  8
0
 62
7
 66
1
  0
VERTEX
  8
0
 10
142.505658039
 20
693.1819689445001
 30
0
  0
VERTEX
  8
0
 10
142.0217577304
 20
693.0950607158
 30
0
  0
VERTEX
  8
0
 10
141.5912631835
 20
692.8466602213
 30
0
  0
SEQEND
  8
0
  0
POLYLINE
  8
0
 62
7
 66
1
  0
VERTEX
  8
0
 10
143.2300630893
 20
692.2435506232
 30
0
  0
VERTEX
  8
0
 10
143.2062212314
 20
692.6235805250999
 30
0
  0
VERTEX
  8
0
 10
143.0875483837
 20
692.9807632215
 30
0
  0
SEQEND
  8
0
  0
POLYLINE
  8
0
 62
7
 66
1
  0
VERTEX
  8
0
 10
147.0776621189
 20
692.9807632215
 30
0
  0
VERTEX
  8
0
 10
146.7619363155
 20
693.1398731641
 30
0
  0
VERTEX
  8
0
 10
146.4126530971
 20
693.1819689445001
 30
0
  0
SEQEND
  8
0
  0
POLYLINE
  8
0
 62
7
 66
1
  0
VERTEX
  8
0
 10
147.3032955017
 20
692.1765810795
 30
0
  0
VERTEX
  8
0
 10
147.2578171577
 20
692.6007882677
 30
0
  0
VERTEX
  8
0
 10
147.0776621189
 20
692.9807632215
 30
0
  0
SEQEND
  8
0
  0
POLYLINE
  8
0
 62
7
 66
1
  0
VERTEX
  8
0
 10
153.1459812011
 20
693.1819689445001
 30
0
  0
VERTEX
  8
0
 10
152.6620510902
 20
693.0950607158
 30
0
  0
VERTEX
  8
0
 10
152.2315863456
 20
692.8466602213
 30
0
  0
SEQEND
  8
0
  0
POLYLINE
  8
0
 62
7
 66
1
  0
VERTEX
  8
0
 10
153.8703564491
 20
692.2435506232
 30
0
  0
VERTEX
  8
0
 10
153.8465443935
 20
692.6235805250999
 30
0
  0
VERTEX
  8
0
 10
153.7278715457
 20
692.9807632215
 30
0
  0
SEQEND
  8
0
  0
POLYLINE
  8
0
 62
7
 66
1
  0
VERTEX
  8
0
 10
157.7179852809
 20
692.9807632215
 30
0
  0
VERTEX
  8
0
 10
157.4022594776
 20
693.1398731641
 30
0
  0
VERTEX
  8
0
 10
157.0529762592
 20
693.1819689445001
 30
0
  0
SEQEND
  8
0
  0
POLYLINE
  8
0
 62
7
 66
1
  0
VERTEX
  8
0
 10
157.9436186637
 20
692.1765810795
 30
0
  0
VERTEX
  8
0
 10
157.8981403198
 20
692.6007882677
 30
0
  0
VERTEX
  8
0
 10
157.7179852809
 20
692.9807632215
 30
0
  0
SEQEND
  8
0
  0
POLYLINE
  8
0
 62
7
 66
1
  0
VERTEX
  8
0
 10
123.7471822586
 20
694.0585874937001
 30
0
  0
VERTEX
  8
0
 10
123.7473908748
 20
694.0399610422001
 30
0
  0
VERTEX
  8
0
 10
123.7475696887
 20
694.0210179411001
 30
0
  0
SEQEND
  8
0
  0
POLYLINE
  8
0
 62
7
 66
1
  0
VERTEX
  8
0
 10
129.2865675773
 20
472.7467019873
 30
0
  0
VERTEX
  8
0
 10
129.9935084667
 20
472.7810677903001
 30
0
  0
VERTEX
  8
0
 10
130.5964690532
 20
472.8687424974
 30
0
  0
SEQEND
  8
0
  0
POLYLINE
  8
0
 62
7
 66
1
  0
VERTEX
  8
0
 10
127.9732686366
 20
472.8687424974
 30
0
  0
VERTEX
  8
0
 10
128.5782855834
 20
472.7811869996001
 30
0
  0
VERTEX
  8
0
 10
129.2865675773
 20
472.7467019873
 30
0
  0
SEQEND
  8
0
  0
POLYLINE
  8
0
 62
7
 66
1
  0
VERTEX
  8
0
 10
120.9728223171
 20
473.5555928962001
 30
0
  0
VERTEX
  8
0
 10
121.0786205615
 20
473.5580180602001
 30
0
  0
VERTEX
  8
0
 10
121.416906723
 20
473.4459576027
 30
0
  0
SEQEND
  8
0
  0
POLYLINE
  8
0
 62
7
 66
1
  0
VERTEX
  8
0
 10
116.6732412662
 20
473.5333380120001
 30
0
  0
VERTEX
  8
0
 10
115.7630187358
 20
473.5385124402001
 30
0
  0
VERTEX
  8
0
 10
114.9421733703
 20
473.5508506017002
 30
0
  0
VERTEX
  8
0
 10
114.271382698
 20
473.5588152723001
 30
0
  0
VERTEX
  8
0
 10
113.7490373935
 20
473.5511262732
 30
0
  0
SEQEND
  8
0
  0
POLYLINE
  8
0
 62
7
 66
1
  0
VERTEX
  8
0
 10
118.0857521381
 20
473.5509735363
 30
0
  0
VERTEX
  8
0
 10
117.4337071266
 20
473.5386912541001
 30
0
  0
VERTEX
  8
0
 10
116.6732412662
 20
473.5333380120001
 30
0
  0
SEQEND
  8
0
  0
POLYLINE
  8
0
 62
7
 66
1
  0
VERTEX
  8
0
 10
116.1704760875
 20
472.7467019873
 30
0
  0
VERTEX
  8
0
 10
117.096613058
 20
472.7928136306
 30
0
  0
VERTEX
  8
0
 10
117.8839606132
 20
472.9072396474001
 30
0
  0
SEQEND
  8
0
  0
POLYLINE
  8
0
 62
7
 66
1
  0
VERTEX
  8
0
 10
119.4982332076
 20
472.6375137286002
 30
0
  0
VERTEX
  8
0
 10
117.9083389129
 20
472.3848235624
 30
0
  0
VERTEX
  8
0
 10
116.0678666915
 20
472.2977300005
 30
0
  0
SEQEND
  8
0
  0
POLYLINE
  8
0
 62
7
 66
1
  0
VERTEX
  8
0
 10
129.2865675773
 20
472.2977300005
 30
0
  0
VERTEX
  8
0
 10
127.5994581069
 20
472.3927807825
 30
0
  0
VERTEX
  8
0
 10
126.157174715
 20
472.6375137286002
 30
0
  0
SEQEND
  8
0
  0
POLYLINE
  8
0
 62
7
 66
1
  0
VERTEX
  8
0
 10
132.4125629749
 20
472.6375137286002
 30
0
  0
VERTEX
  8
0
 10
130.9717995014
 20
472.3929558711
 30
0
  0
VERTEX
  8
0
 10
129.2865675773
 20
472.2977300005
 30
0
  0
SEQEND
  8
0
  0
POLYLINE
  8
0
 62
7
 66
1
  0
VERTEX
  8
0
 10
142.5056558933
 20
473.531054409
 30
0
  0
VERTEX
  8
0
 10
142.0217555847
 20
473.5273961740002
 30
0
  0
VERTEX
  8
0
 10
141.5912610378
 20
473.5156913118001
 30
0
  0
SEQEND
  8
0
  0
POLYLINE
  8
0
 62
7
 66
1
  0
VERTEX
  8
0
 10
143.2300609436
 20
473.4795746224002
 30
0
  0
VERTEX
  8
0
 10
143.2062190856
 20
473.5036027448
 30
0
  0
VERTEX
  8
0
 10
143.0875462379
 20
473.5222403722
 30
0
  0
SEQEND
  8
0
  0
POLYLINE
  8
0
 62
7
 66
1
  0
VERTEX
  8
0
 10
147.0776599731
 20
473.5222403722
 30
0
  0
VERTEX
  8
0
 10
146.7619341697
 20
473.5293109732002
 30
0
  0
VERTEX
  8
0
 10
146.4126509513
 20
473.531054409
 30
0
  0
SEQEND
  8
0
  0
POLYLINE
  8
0
 62
7
 66
1
  0
VERTEX
  8
0
 10
147.3032933559
 20
473.4748919325
 30
0
  0
VERTEX
  8
0
 10
147.2578150119
 20
473.5022839921001
 30
0
  0
VERTEX
  8
0
 10
147.0776599731
 20
473.5222403722
 30
0
  0
SEQEND
  8
0
  0
POLYLINE
  8
0
 62
7
 66
1
  0
VERTEX
  8
0
 10
153.1459790554
 20
473.531054409
 30
0
  0
VERTEX
  8
0
 10
152.6620489444
 20
473.5273961740002
 30
0
  0
VERTEX
  8
0
 10
152.2315841999
 20
473.5156913118001
 30
0
  0
SEQEND
  8
0
  0
POLYLINE
  8
0
 62
7
 66
1
  0
VERTEX
  8
0
 10
153.8703543033
 20
473.4795746224002
 30
0
  0
VERTEX
  8
0
 10
153.8465422477
 20
473.5036027448
 30
0
  0
VERTEX
  8
0
 10
153.7278694
 20
473.5222403722
 30
0
  0
SEQEND
  8
0
  0
POLYLINE
  8
0
 62
7
 66
1
  0
VERTEX
  8
0
 10
157.7179831352
 20
473.5222403722
 30
0
  0
VERTEX
  8
0
 10
157.4022573318
 20
473.5293109732002
 30
0
  0
VERTEX
  8
0
 10
157.0529741134
 20
473.531054409
 30
0
  0
SEQEND
  8
0
  0
POLYLINE
  8
0
 62
7
 66
1
  0
VERTEX
  8
0
 10
157.943616518
 20
473.4748919325
 30
0
  0
VERTEX
  8
0
 10
157.898138174
 20
473.5022839921001
 30
0
  0
VERTEX
  8
0
 10
157.7179831352
 20
473.5222403722
 30
0
  0
SEQEND
  8
0
  0
POLYLINE
  8
0
 62
7
 66
1
  0
VERTEX
  8
0
 10
157.7179831352
 20
472.0238801854
 30
0
  0
VERTEX
  8
0
 10
157.4022573318
 20
472.0306341367
 30
0
  0
VERTEX
  8
0
 10
157.0529741134
 20
472.0322993414
 30
0
  0
SEQEND
  8
0
  0
POLYLINE
  8
0
 62
7
 66
1
  0
VERTEX
  8
0
 10
153.1459790554
 20
472.0322993414
 30
0
  0
VERTEX
  8
0
 10
152.6620489444
 20
472.0288050191
 30
0
  0
VERTEX
  8
0
 10
152.2315841999
 20
472.017625423
 30
0
  0
SEQEND
  8
0
  0
POLYLINE
  8
0
 62
7
 66
1
  0
VERTEX
  8
0
 10
147.0776599731
 20
472.0238801854
 30
0
  0
VERTEX
  8
0
 10
146.7619341697
 20
472.0306341367
 30
0
  0
VERTEX
  8
0
 10
146.4126509513
 20
472.0322993414
 30
0
  0
SEQEND
  8
0
  0
POLYLINE
  8
0
 62
7
 66
1
  0
VERTEX
  8
0
 10
142.5056558933
 20
472.0322993414
 30
0
  0
VERTEX
  8
0
 10
142.0217555847
 20
472.0288050191
 30
0
  0
VERTEX
  8
0
 10
141.5912610378
 20
472.017625423
 30
0
  0
SEQEND
  8
0
  0
POLYLINE
  8
0
 62
7
 66
1
  0
VERTEX
  8
0
 10
132.4125629749
 20
471.1787701415001
 30
0
  0
VERTEX
  8
0
 10
130.9717995014
 20
470.9451609122
 30
0
  0
VERTEX
  8
0
 10
129.2865675773
 20
470.8542004989001
 30
0
  0
SEQEND
  8
0
  0
POLYLINE
  8
0
 62
7
 66
1
  0
VERTEX
  8
0
 10
129.2865675773
 20
470.8542004989001
 30
0
  0
VERTEX
  8
0
 10
127.5994581069
 20
470.9449932741002
 30
0
  0
VERTEX
  8
0
 10
126.157174715
 20
471.1787701415001
 30
0
  0
SEQEND
  8
0
  0
POLYLINE
  8
0
 62
7
 66
1
  0
VERTEX
  8
0
 10
119.4982332076
 20
471.1787701415001
 30
0
  0
VERTEX
  8
0
 10
117.9083389129
 20
470.9373936819
 30
0
  0
VERTEX
  8
0
 10
116.0678666915
 20
470.8542004989001
 30
0
  0
SEQEND
  8
0
  0
POLYLINE
  8
0
 62
7
 66
1
  0
VERTEX
  8
0
 10
158.520649084
 20
407.3710908012001
 30
0
  0
VERTEX
  8
0
 10
160.5468493785
 20
407.2997328656002
 30
0
  0
VERTEX
  8
0
 10
162.3511713829
 20
407.1016331034
 30
0
  0
SEQEND
  8
0
  0
POLYLINE
  8
0
 62
7
 66
1
  0
VERTEX
  8
0
 10
162.2314852561
 20
407.1931001560999
 30
0
  0
VERTEX
  8
0
 10
160.4806882228
 20
407.3932674544001
 30
0
  0
VERTEX
  8
0
 10
158.520649084
 20
407.461198123
 30
0
  0
SEQEND
  8
0
  0
POLYLINE
  8
0
 62
7
 66
1
  0
VERTEX
  8
0
 10
158.520649084
 20
409.3699102120002
 30
0
  0
VERTEX
  8
0
 10
161.5965169753
 20
409.272471519
 30
0
  0
VERTEX
  8
0
 10
164.3861335601
 20
408.9406170713
 30
0
  0
SEQEND
  8
0
  0
POLYLINE
  8
0
 62
7
 66
1
  0
VERTEX
  8
0
 10
493.8969654824
 20
718.1684604830999
 30
0
  0
VERTEX
  8
0
 10
493.5587538268
 20
718.1366073884
 30
0
  0
VERTEX
  8
0
 10
493.3121284332
 20
718.0366913772999
 30
0
  0
SEQEND
  8
0
  0
POLYLINE
  8
0
 62
7
 66
1
  0
VERTEX
  8
0
 10
493.3121284332
 20
718.0366913772999
 30
0
  0
VERTEX
  8
0
 10
493.1909261133
 20
717.8325938977
 30
0
  0
VERTEX
  8
0
 10
493.1659201022
 20
717.6467997006999
 30
0
  0
SEQEND
  8
0
  0
POLYLINE
  8
0
 62
7
 66
1
  0
VERTEX
  8
0
 10
493.1659201022
 20
717.6467997006999
 30
0
  0
VERTEX
  8
0
 10
493.2561093803
 20
717.3507071084999
 30
0
  0
VERTEX
  8
0
 10
493.4096043791
 20
717.1594348721
 30
0
  0
SEQEND
  8
0
  0
POLYLINE
  8
0
 62
7
 66
1
  0
VERTEX
  8
0
 10
493.4096043791
 20
717.1594348721
 30
0
  0
VERTEX
  8
0
 10
493.9776068415
 20
716.8694722450999
 30
0
  0
VERTEX
  8
0
 10
494.481806257
 20
716.8182802371999
 30
0
  0
SEQEND
  8
0
  0
POLYLINE
  8
0
 62
7
 66
1
  0
VERTEX
  8
0
 10
493.8482312347
 20
715.7803733818
 30
0
  0
VERTEX
  8
0
 10
493.5428244855
 20
715.7619788296
 30
0
  0
VERTEX
  8
0
 10
493.3121284332
 20
715.6973413177
 30
0
  0
SEQEND
  8
0
  0
POLYLINE
  8
0
 62
7
 66
1
  0
VERTEX
  8
0
 10
493.3121284332
 20
715.6973413177
 30
0
  0
VERTEX
  8
0
 10
493.1947706129
 20
715.5206237904999
 30
0
  0
VERTEX
  8
0
 10
493.1659201022
 20
715.3561857514
 30
0
  0
SEQEND
  8
0
  0
POLYLINE
  8
0
 62
7
 66
1
  0
VERTEX
  8
0
 10
493.1659201022
 20
715.3561857514
 30
0
  0
VERTEX
  8
0
 10
493.2495305177
 20
715.0313339181
 30
0
  0
VERTEX
  8
0
 10
493.4096043791
 20
714.8200848125
 30
0
  0
SEQEND
  8
0
  0
POLYLINE
  8
0
 62
7
 66
1
  0
VERTEX
  8
0
 10
493.4096043791
 20
714.8200848125
 30
0
  0
VERTEX
  8
0
 10
493.9776068415
 20
714.5301221855
 30
0
  0
VERTEX
  8
0
 10
494.481806257
 20
714.4789292462
 30
0
  0
SEQEND
  8
0
  0
POLYLINE
  8
0
 62
7
 66
1
  0
VERTEX
  8
0
 10
493.0684478815
 20
714.4789292462
 30
0
  0
VERTEX
  8
0
 10
492.4223819609
 20
715.0789729305
 30
0
  0
VERTEX
  8
0
 10
492.2399265553752
 20
715.7460774279959
 30
0
  0
SEQEND
  8
0
  0
POLYLINE
  8
0
 62
7
 66
1
  0
VERTEX
  8
0
 10
493.0684478815
 20
716.7695431955
 30
0
  0
VERTEX
  8
0
 10
492.4223819609
 20
717.3695868798
 30
0
  0
VERTEX
  8
0
 10
492.2399265554
 20
718.0366913772999
 30
0
  0
SEQEND
  8
0
  0
POLYLINE
  8
0
 62
7
 66
1
  0
VERTEX
  8
0
 10
492.2399265554
 20
718.0366913772999
 30
0
  0
VERTEX
  8
0
 10
492.3163900014
 20
718.5602474011
 30
0
  0
VERTEX
  8
0
 10
492.5323469426263
 20
718.9139478825136
 30
0
  0
SEQEND
  8
0
  0
POLYLINE
  8
0
 62
7
 66
1
  0
VERTEX
  8
0
 10
516.0964397575
 20
555.5595327931
 30
0
  0
VERTEX
  8
0
 10
516.1481505122
 20
555.3793703036999
 30
0
  0
VERTEX
  8
0
 10
516.1830192294
 20
555.0588984805
 30
0
  0
SEQEND
  8
0
  0
POLYLINE
  8
0
 62
7
 66
1
  0
VERTEX
  8
0
 10
325.0294705715
 20
407.9074022191
 30
0
  0
VERTEX
  8
0
 10
327.716641673
 20
407.2917868214
 30
0
  0
VERTEX
  8
0
 10
330.5142899837
 20
407.0588965732
 30
0
  0
SEQEND
  8
0
  0
POLYLINE
  8
0
 62
7
 66
1
  0
VERTEX
  8
0
 10
335.9991242971
 20
407.9074022191
 30
0
  0
VERTEX
  8
0
 10
337.9952167954
 20
407.1261864918
 30
0
  0
VERTEX
  8
0
 10
338.7415340032
 20
407.0588965732
 30
0
  0
SEQEND
  8
0
  0
POLYLINE
  8
0
 62
7
 66
1
  0
VERTEX
  8
0
 10
338.7415340032
 20
407.0588965732
 30
0
  0
VERTEX
  8
0
 10
340.7909503068
 20
407.5476323086
 30
0
  0
VERTEX
  8
0
 10
341.4839511599
 20
407.9074022191
 30
0
  0
SEQEND
  8
0
  0
POLYLINE
  8
0
 62
7
 66
1
  0
VERTEX
  8
0
 10
319.5446362581
 20
407.9074022191
 30
0
  0
VERTEX
  8
0
 10
320.8882292594
 20
407.2917868214
 30
0
  0
VERTEX
  8
0
 10
322.2870608654
 20
407.0588965732
 30
0
  0
SEQEND
  8
0
  0
POLYLINE
  8
0
 62
7
 66
1
  0
VERTEX
  8
0
 10
325.0294705715
 20
474.2103908974
 30
0
  0
VERTEX
  8
0
 10
323.6858775701
 20
474.826006295
 30
0
  0
VERTEX
  8
0
 10
322.2870459642
 20
475.0588965433
 30
0
  0
SEQEND
  8
0
  0
POLYLINE
  8
0
 62
7
 66
1
  0
VERTEX
  8
0
 10
330.5142899837
 20
475.0588965433
 30
0
  0
VERTEX
  8
0
 10
326.4154722776
 20
474.5701608079
 30
0
  0
VERTEX
  8
0
 10
325.0294705715
 20
474.2103908974
 30
0
  0
SEQEND
  8
0
  0
POLYLINE
  8
0
 62
7
 66
1
  0
VERTEX
  8
0
 10
341.4839511599
 20
474.2103908974
 30
0
  0
VERTEX
  8
0
 10
340.1403656091
 20
474.826006295
 30
0
  0
VERTEX
  8
0
 10
338.7415340032
 20
475.0588965433
 30
0
  0
SEQEND
  8
0
  0
POLYLINE
  8
0
 62
7
 66
1
  0
VERTEX
  8
0
 10
335.9991242971
 20
474.2103908974
 30
0
  0
VERTEX
  8
0
 10
332.0069393005
 20
474.9916066247
 30
0
  0
VERTEX
  8
0
 10
330.5142899837
 20
475.0588965433
 30
0
  0
SEQEND
  8
0
  0
POLYLINE
  8
0
 62
7
 66
1
  0
VERTEX
  8
0
 10
508.855369487
 20
503.9073993283
 30
0
  0
VERTEX
  8
0
 10
511.5425405886
 20
503.2917876559
 30
0
  0
VERTEX
  8
0
 10
514.3401963498
 20
503.0588974076
 30
0
  0
SEQEND
  8
0
  0
POLYLINE
  8
0
 62
7
 66
1
  0
VERTEX
  8
0
 10
519.8250232125999
 20
503.9073993283
 30
0
  0
VERTEX
  8
0
 10
521.1686124887
 20
503.2917876559
 30
0
  0
VERTEX
  8
0
 10
522.5674403693
 20
503.0588974076
 30
0
  0
SEQEND
  8
0
  0
POLYLINE
  8
0
 62
7
 66
1
  0
VERTEX
  8
0
 10
506.1129560556
 20
503.0588974076
 30
0
  0
VERTEX
  8
0
 10
506.8592769887
 20
503.126183601
 30
0
  0
VERTEX
  8
0
 10
508.855369487
 20
503.9073993283
 30
0
  0
SEQEND
  8
0
  0
POLYLINE
  8
0
 62
7
 66
1
  0
VERTEX
  8
0
 10
503.3705426242
 20
503.9073993283
 30
0
  0
VERTEX
  8
0
 10
504.0635434773
 20
503.547633143
 30
0
  0
VERTEX
  8
0
 10
506.1129560556
 20
503.0588974076
 30
0
  0
SEQEND
  8
0
  0
POLYLINE
  8
0
 62
7
 66
1
  0
VERTEX
  8
0
 10
404.2035681989
 20
503.9073993283
 30
0
  0
VERTEX
  8
0
 10
406.8907393004
 20
503.2917876559
 30
0
  0
VERTEX
  8
0
 10
409.6883950617
 20
503.0588974076
 30
0
  0
SEQEND
  8
0
  0
POLYLINE
  8
0
 62
7
 66
1
  0
VERTEX
  8
0
 10
415.1732219245
 20
503.9073993283
 30
0
  0
VERTEX
  8
0
 10
417.1693144228
 20
503.126183601
 30
0
  0
VERTEX
  8
0
 10
417.9156353559
 20
503.0588974076
 30
0
  0
SEQEND
  8
0
  0
POLYLINE
  8
0
 62
7
 66
1
  0
VERTEX
  8
0
 10
398.7187376108
 20
503.9073993283
 30
0
  0
VERTEX
  8
0
 10
400.0623231616
 20
503.2917876559
 30
0
  0
VERTEX
  8
0
 10
401.4611510422
 20
503.0588974076
 30
0
  0
SEQEND
  8
0
  0
POLYLINE
  8
0
 62
7
 66
1
  0
VERTEX
  8
0
 10
417.9156353559
 20
503.0588974076
 30
0
  0
VERTEX
  8
0
 10
419.9650479343
 20
503.547633143
 30
0
  0
VERTEX
  8
0
 10
420.6580487873
 20
503.9073993283
 30
0
  0
SEQEND
  8
0
  0
POLYLINE
  8
0
 62
7
 66
1
  0
VERTEX
  8
0
 10
404.2035681989
 20
549.7103874403
 30
0
  0
VERTEX
  8
0
 10
402.8599789228
 20
550.3260065633
 30
0
  0
VERTEX
  8
0
 10
401.4611510422
 20
550.5588968116
 30
0
  0
SEQEND
  8
0
  0
POLYLINE
  8
0
 62
7
 66
1
  0
VERTEX
  8
0
 10
409.6883950617
 20
550.5588968116
 30
0
  0
VERTEX
  8
0
 10
405.5895661797
 20
550.0701610762
 30
0
  0
VERTEX
  8
0
 10
404.2035681989
 20
549.7103874403
 30
0
  0
SEQEND
  8
0
  0
POLYLINE
  8
0
 62
7
 66
1
  0
VERTEX
  8
0
 10
420.6580487873
 20
549.7103874403
 30
0
  0
VERTEX
  8
0
 10
419.3144632365
 20
550.3260065633
 30
0
  0
VERTEX
  8
0
 10
417.9156353559
 20
550.5588968116
 30
0
  0
SEQEND
  8
0
  0
POLYLINE
  8
0
 62
7
 66
1
  0
VERTEX
  8
0
 10
415.1732219245
 20
549.7103874403
 30
0
  0
VERTEX
  8
0
 10
411.1810332026
 20
550.4916106182
 30
0
  0
VERTEX
  8
0
 10
409.6883950617
 20
550.5588968116
 30
0
  0
SEQEND
  8
0
  0
POLYLINE
  8
0
 62
7
 66
1
  0
VERTEX
  8
0
 10
508.855369487
 20
549.7103874403
 30
0
  0
VERTEX
  8
0
 10
507.5117839362
 20
550.3260065633
 30
0
  0
VERTEX
  8
0
 10
506.1129560556
 20
550.5588968116
 30
0
  0
SEQEND
  8
0
  0
POLYLINE
  8
0
 62
7
 66
1
  0
VERTEX
  8
0
 10
519.8250232125999
 20
549.7103874403
 30
0
  0
VERTEX
  8
0
 10
515.832838216
 20
550.4916106182
 30
0
  0
VERTEX
  8
0
 10
514.3401963498
 20
550.5588968116
 30
0
  0
SEQEND
  8
0
  0
POLYLINE
  8
0
 62
7
 66
1
  0
VERTEX
  8
0
 10
514.3401963498
 20
550.5588968116
 30
0
  0
VERTEX
  8
0
 10
510.2413711931
 20
550.0701610762
 30
0
  0
VERTEX
  8
0
 10
508.855369487
 20
549.7103874403
 30
0
  0
SEQEND
  8
0
  0
POLYLINE
  8
0
 62
7
 66
1
  0
VERTEX
  8
0
 10
525.3098538007
 20
549.7103874403
 30
0
  0
VERTEX
  8
0
 10
523.9662682499001
 20
550.3260065633
 30
0
  0
VERTEX
  8
0
 10
522.5674403693
 20
550.5588968116
 30
0
  0
SEQEND
  8
0
  0
POLYLINE
  8
0
 62
7
 66
1
  0
VERTEX
  8
0
 10
343.6557134475
 20
455.0588960591
 30
0
  0
VERTEX
  8
0
 10
344.1729700055
 20
454.8757905903
 30
0
  0
VERTEX
  8
0
 10
344.5374002542
 20
454.3744661677
 30
0
  0
SEQEND
  8
0
  0
POLYLINE
  8
0
 62
7
 66
1
  0
VERTEX
  8
0
 10
316.4911946144
 20
454.3744661677
 30
0
  0
VERTEX
  8
0
 10
316.8632915105
 20
454.8819158989
 30
0
  0
VERTEX
  8
0
 10
317.372881421
 20
455.0588960591
 30
0
  0
SEQEND
  8
0
  0
POLYLINE
  8
0
 62
7
 66
1
  0
VERTEX
  8
0
 10
324.4736721601
 20
455.0588960591
 30
0
  0
VERTEX
  8
0
 10
323.5836854066
 20
454.8023697751
 30
0
  0
VERTEX
  8
0
 10
323.1141349163
 20
454.2574026453
 30
0
  0
VERTEX
  8
0
 10
322.7877100792
 20
453.4198530781
 30
0
  0
VERTEX
  8
0
 10
322.6740589227
 20
452.9209398496
 30
0
  0
SEQEND
  8
0
  0
POLYLINE
  8
0
 62
7
 66
1
  0
VERTEX
  8
0
 10
338.3545284953
 20
452.9209398496
 30
0
  0
VERTEX
  8
0
 10
338.1174510207
 20
453.8107068109
 30
0
  0
VERTEX
  8
0
 10
337.7642338957
 20
454.4875175523
 30
0
  0
VERTEX
  8
0
 10
337.2668778386
 20
454.9088404345
 30
0
  0
VERTEX
  8
0
 10
336.5549078073
 20
455.0588960591
 30
0
  0
SEQEND
  8
0
  0
POLYLINE
  8
0
 62
7
 66
1
  0
VERTEX
  8
0
 10
344.5374002542
 20
425.743326621
 30
0
  0
VERTEX
  8
0
 10
344.1652959075
 20
425.2358768898
 30
0
  0
VERTEX
  8
0
 10
343.6557134475
 20
425.0588967296
 30
0
  0
SEQEND
  8
0
  0
POLYLINE
  8
0
 62
7
 66
1
  0
VERTEX
  8
0
 10
317.372881421
 20
425.0588967296
 30
0
  0
VERTEX
  8
0
 10
316.8556174125
 20
425.2420021984
 30
0
  0
VERTEX
  8
0
 10
316.4911946144
 20
425.743326621
 30
0
  0
SEQEND
  8
0
  0
POLYLINE
  8
0
 62
7
 66
1
  0
VERTEX
  8
0
 10
336.5549078073
 20
425.0588967296
 30
0
  0
VERTEX
  8
0
 10
337.4449020114
 20
425.3154230135
 30
0
  0
VERTEX
  8
0
 10
337.9144599523
 20
425.8603901434
 30
0
  0
VERTEX
  8
0
 10
338.2408773388
 20
426.6979397106
 30
0
  0
VERTEX
  8
0
 10
338.3545284953
 20
427.1968529391
 30
0
  0
SEQEND
  8
0
  0
POLYLINE
  8
0
 62
7
 66
1
  0
VERTEX
  8
0
 10
322.6740589227
 20
427.1968529391
 30
0
  0
VERTEX
  8
0
 10
322.9111363973
 20
426.3070859778
 30
0
  0
VERTEX
  8
0
 10
323.2643535223
 20
425.6302752363
 30
0
  0
VERTEX
  8
0
 10
323.7617095794
 20
425.2089523542
 30
0
  0
VERTEX
  8
0
 10
324.4736721601
 20
425.0588967296
 30
0
  0
SEQEND
  8
0
  0
POLYLINE
  8
0
 62
7
 66
1
  0
VERTEX
  8
0
 10
449.0628229316
 20
464.2931726592
 30
0
  0
VERTEX
  8
0
 10
449.177891561
 20
466.398123728
 30
0
  0
VERTEX
  8
0
 10
449.4746025514
 20
468.0371173489
 30
0
  0
VERTEX
  8
0
 10
450.0217508387
 20
469.6022645402
 30
0
  0
VERTEX
  8
0
 10
451.329361261
 20
471.5198707598
 30
0
  0
VERTEX
  8
0
 10
451.8125854294
 20
471.9576221722
 30
0
  0
SEQEND
  8
0
  0
POLYLINE
  8
0
 62
7
 66
1
  0
VERTEX
  8
0
 10
391.5175577488
 20
485.6203553098
 30
0
  0
VERTEX
  8
0
 10
391.2694608655
 20
485.0825724023
 30
0
  0
VERTEX
  8
0
 10
390.8070629324
 20
483.6961385625
 30
0
  0
SEQEND
  8
0
  0
POLYLINE
  8
0
 62
7
 66
1
  0
VERTEX
  8
0
 10
521.2595915284001
 20
503.0588974076
 30
0
  0
VERTEX
  8
0
 10
521.6908125069
 20
502.6530046779
 30
0
  0
VERTEX
  8
0
 10
522.4198778953
 20
500.9794887918
 30
0
  0
VERTEX
  8
0
 10
522.5142953779
 20
498.8248889166
 30
0
  0
VERTEX
  8
0
 10
522.5142953779
 20
492.2837261873
 30
0
  0
VERTEX
  8
0
 10
522.6238561656001
 20
487.9404847341
 30
0
  0
VERTEX
  8
0
 10
522.8334633495
 20
486.4539709705
 30
0
  0
SEQEND
  8
0
  0
POLYLINE
  8
0
 62
7
 66
1
 70
1
  0
VERTEX
  8
0
 10
356.2060376491
 20
410.2731701749
 30
0
  0
VERTEX
  8
0
 10
395.1820513095
 20
385.7234102505
 30
0
  0
VERTEX
  8
0
 10
390.7038798418
 20
389.6708582359
 30
0
  0
VERTEX
  8
0
 10
386.4383926477
 20
393.8886691647
 30
0
  0
VERTEX
  8
0
 10
382.2680940713
 20
398.2198369521
 30
0
  0
VERTEX
  8
0
 10
377.6724269476
 20
402.0032157021
 30
0
  0
VERTEX
  8
0
 10
371.0293402757
 20
405.9684146958
 30
0
  0
VERTEX
  8
0
 10
363.8217082109
 20
408.7481145578
 30
0
  0
VERTEX
  8
0
 10
356.2060386695006
 20
410.2731699705624
 30
0
  0
VERTEX
  8
0
 10
363.8217082109
 20
408.7481145578
 30
0
  0
SEQEND
  8
0
  0
POLYLINE
  8
0
 62
7
 66
1
  0
VERTEX
  8
0
 10
356.7794790353
 20
469.5588965732
 30
0
  0
VERTEX
  8
0
 10
356.5932964768
 20
469.1531863826
 30
0
  0
VERTEX
  8
0
 10
356.2646886196
 20
467.9041636008
 30
0
  0
VERTEX
  8
0
 10
355.9565326061
 20
465.7202456909
 30
0
  0
VERTEX
  8
0
 10
355.721861669
 20
462.8396426159
 30
0
  0
VERTEX
  8
0
 10
355.6072344865
 20
459.036657663
 30
0
  0
VERTEX
  8
0
 10
355.6768303599
 20
455.3067778068
 30
0
  0
VERTEX
  8
0
 10
355.9217905488
 20
451.0411267
 30
0
  0
VERTEX
  8
0
 10
356.2876736607
 20
445.3872624616
 30
0
  0
VERTEX
  8
0
 10
356.4166506614
 20
439.4131274492
 30
0
  0
VERTEX
  8
0
 10
356.1723833766
 20
433.6626032199
 30
0
  0
VERTEX
  8
0
 10
355.8161338653
 20
427.9280724766
 30
0
  0
VERTEX
  8
0
 10
355.6591724839
 20
423.9599929022
 30
0
  0
VERTEX
  8
0
 10
355.5898075785
 20
420.261403622
 30
0
  0
VERTEX
  8
0
 10
355.6016465511
 20
417.1467368322
 30
0
  0
VERTEX
  8
0
 10
355.6957697358
 20
414.5261776465
 30
0
  0
VERTEX
  8
0
 10
355.8520680155
 20
412.5954714435
 30
0
  0
VERTEX
  8
0
 10
356.0242583837
 20
411.2222884613
 30
0
  0
VERTEX
  8
0
 10
356.1517378177
 20
410.5116818863
 30
0
  0
VERTEX
  8
0
 10
356.2060376491
 20
410.2731701749
 30
0
  0
SEQEND
  8
0
  0
POLYLINE
  8
0
 62
7
 66
1
  0
VERTEX
  8
0
 10
532.5135147061
 20
472.3628629762
 30
0
  0
VERTEX
  8
0
 10
535.7116913285
 20
471.1994864809
 30
0
  0
VERTEX
  8
0
 10
539.1144608941
 20
471.159802826
 30
0
  0
VERTEX
  8
0
 10
542.693965682
 20
472.0983338374
 30
0
  0
VERTEX
  8
0
 10
546.2076818432
 20
473.3131100255
 30
0
  0
VERTEX
  8
0
 10
553.0464580144
 20
475.5039383489
 30
0
  0
SEQEND
  8
0
  0
POLYLINE
  8
0
 62
7
 66
1
  0
VERTEX
  8
0
 10
553.5816332187
 20
404.8554655927
 30
0
  0
VERTEX
  8
0
 10
545.3931545701
 20
408.003503533
 30
0
  0
VERTEX
  8
0
 10
536.6047849741
 20
411.3921132701
 30
0
  0
SEQEND
  8
0
  0
POLYLINE
  8
0
 62
7
 66
1
  0
VERTEX
  8
0
 10
462.0177151005
 20
432.0606105792
 30
0
  0
VERTEX
  8
0
 10
453.383623236
 20
432.3798972945
 30
0
  0
VERTEX
  8
0
 10
444.7369040783
 20
433.8435065764
 30
0
  0
VERTEX
  8
0
 10
439.0190156039
 20
435.3244920092
 30
0
  0
VERTEX
  8
0
 10
433.487162539
 20
436.7398916109
 30
0
  0
VERTEX
  8
0
 10
428.2983770456
 20
438.3978093573
 30
0
  0
VERTEX
  8
0
 10
420.7313140716
 20
441.1543731875
 30
0
  0
VERTEX
  8
0
 10
413.5617656495
 20
444.1330568696
 30
0
  0
VERTEX
  8
0
 10
410.1331723716
 20
445.6625027413
 30
0
  0
VERTEX
  8
0
 10
406.7818788673
 20
447.183325963
 30
0
  0
VERTEX
  8
0
 10
403.5063056137
 20
448.6427838745
 30
0
  0
VERTEX
  8
0
 10
400.3891019013
 20
449.9291880819
 30
0
  0
SEQEND
  8
0
  0
POLYLINE
  8
0
 62
7
 66
1
  0
VERTEX
  8
0
 10
494.9330506708
 20
432.7196325938
 30
0
  0
VERTEX
  8
0
 10
492.123125666
 20
432.9760825093
 30
0
  0
VERTEX
  8
0
 10
489.0801595386
 20
433.1387091259
 30
0
  0
VERTEX
  8
0
 10
485.9817368772
 20
433.2063203509
 30
0
  0
VERTEX
  8
0
 10
482.7995901789
 20
433.1947551871
 30
0
  0
VERTEX
  8
0
 10
479.3444691088
 20
433.1104867923
 30
0
  0
VERTEX
  8
0
 10
477.4000808458
 20
433.0358971673
 30
0
  0
VERTEX
  8
0
 10
475.3251621362
 20
432.9383718612
 30
0
  0
VERTEX
  8
0
 10
473.119456866
 20
432.8179113398
 30
0
  0
VERTEX
  8
0
 10
470.7836439695
 20
432.6745146717
 30
0
  0
VERTEX
  8
0
 10
468.701060475
 20
432.5353862549
 30
0
  0
VERTEX
  8
0
 10
466.4244000662
 20
432.3741840961
 30
0
  0
VERTEX
  8
0
 10
463.7304343844
 20
432.1755823511
 30
0
  0
VERTEX
  8
0
 10
462.0142959461
 20
432.0412148553
 30
0
  0
SEQEND
  8
0
  0
POLYLINE
  8
0
 62
7
 66
1
  0
VERTEX
  8
0
 10
516.2844514336
 20
416.4427482354
 30
0
  0
VERTEX
  8
0
 10
515.6428409602
 20
416.8309029954
 30
0
  0
VERTEX
  8
0
 10
514.6032949771
 20
417.5614640879
 30
0
  0
VERTEX
  8
0
 10
513.5885892298001
 20
418.3496386575
 30
0
  0
VERTEX
  8
0
 10
512.3333750155
 20
419.3736334163
 30
0
  0
VERTEX
  8
0
 10
511.0159186508
 20
420.4733968544
 30
0
  0
VERTEX
  8
0
 10
509.4402922179
 20
421.791052522
 30
0
  0
VERTEX
  8
0
 10
508.1506935741
 20
422.8576087224
 30
0
  0
VERTEX
  8
0
 10
507.0391340043
 20
423.7094894814
 30
0
  0
VERTEX
  8
0
 10
506.1230106141
 20
424.402477296
 30
0
  0
VERTEX
  8
0
 10
505.0891307976
 20
425.2803158778
 30
0
  0
VERTEX
  8
0
 10
503.9402549948
 20
426.3328770938
 30
0
  0
VERTEX
  8
0
 10
502.7627466108
 20
427.5160237047
 30
0
  0
VERTEX
  8
0
 10
501.5344848718
 20
428.7577914837
 30
0
  0
VERTEX
  8
0
 10
500.2882262554
 20
429.7506316396
 30
0
  0
VERTEX
  8
0
 10
498.9629765834
 20
430.4978438484
 30
0
  0
VERTEX
  8
0
 10
497.6373283054
 20
431.2195853161
 30
0
  0
VERTEX
  8
0
 10
496.5424058821
 20
431.8294386211
 30
0
  0
VERTEX
  8
0
 10
494.9330506708
 20
432.7196325938
 30
0
  0
SEQEND
  8
0
  0
POLYLINE
  8
0
 62
7
 66
1
  0
VERTEX
  8
0
 10
516.5142943945
 20
400.536855759
 30
0
  0
VERTEX
  8
0
 10
516.4887426283
 20
400.5560968834
 30
0
  0
VERTEX
  8
0
 10
516.2844514336
 20
400.7099103945
 30
0
  0
SEQEND
  8
0
  0
POLYLINE
  8
0
 62
7
 66
1
  0
VERTEX
  8
0
 10
400.0995015587
 20
449.5084696281
 30
0
  0
VERTEX
  8
0
 10
396.7366149511
 20
452.3828523996
 30
0
  0
VERTEX
  8
0
 10
393.9638888325
 20
454.9852228555
 30
0
  0
VERTEX
  8
0
 10
392.7258109536
 20
456.219326781
 30
0
  0
VERTEX
  8
0
 10
391.6182523455
 20
457.4577604252
 30
0
  0
VERTEX
  8
0
 10
390.4670705881
 20
458.844656201
 30
0
  0
VERTEX
  8
0
 10
389.3534323062
 20
460.289064871
 30
0
  0
VERTEX
  8
0
 10
387.6603400197
 20
462.749142276
 30
0
  0
VERTEX
  8
0
 10
386.4920964326
 20
464.6445625293
 30
0
  0
VERTEX
  8
0
 10
385.8226766672
 20
465.7426942902
 30
0
  0
VERTEX
  8
0
 10
385.3732650961
 20
466.3356189447
 30
0
  0
SEQEND
  8
0
  0
POLYLINE
  8
0
 62
7
 66
1
  0
VERTEX
  8
0
 10
389.6479239549
 20
693.0469657047
 30
0
  0
VERTEX
  8
0
 10
390.1700084891
 20
687.1843977816
 30
0
  0
VERTEX
  8
0
 10
390.1906391468
 20
687.0764011502
 30
0
  0
SEQEND
  8
0
  0
POLYLINE
  8
0
 62
7
 66
1
  0
VERTEX
  8
0
 10
394.8545908417
 20
737.7308175884
 30
0
  0
VERTEX
  8
0
 10
389.809564301
 20
735.6287592076
 30
0
  0
VERTEX
  8
0
 10
382.8283926334
 20
732.7199705861
 30
0
  0
VERTEX
  8
0
 10
376.9816463675
 20
730.2838505231
 30
0
  0
VERTEX
  8
0
 10
370.6113105502
 20
727.629562559
 30
0
  0
VERTEX
  8
0
 10
367.1578025307
 20
726.3328188084
 30
0
  0
VERTEX
  8
0
 10
363.4028961744
 20
725.2855242215001
 30
0
  0
VERTEX
  8
0
 10
359.3661939587
 20
724.5312702827
 30
0
  0
VERTEX
  8
0
 10
356.4015557851
 20
724.2436480693
 30
0
  0
SEQEND
  8
0
  0
POLYLINE
  8
0
 62
7
 66
1
  0
VERTEX
  8
0
 10
356.4008256282
 20
664.8455613278001
 30
0
  0
VERTEX
  8
0
 10
359.7879564251
 20
664.5018530063001
 30
0
  0
VERTEX
  8
0
 10
364.2764991011
 20
663.5970302842
 30
0
  0
VERTEX
  8
0
 10
368.4926336493
 20
662.3011955045
 30
0
  0
VERTEX
  8
0
 10
374.3636986103
 20
659.9019744418
 30
0
  0
VERTEX
  8
0
 10
380.0359150257
 20
657.5385683201
 30
0
  0
VERTEX
  8
0
 10
390.8567434039
 20
653.0299426041
 30
0
  0
VERTEX
  8
0
 10
394.9235459652
 20
651.3354905866
 30
0
  0
SEQEND
  8
0
  0
POLYLINE
  8
0
 62
7
 66
1
  0
VERTEX
  8
0
 10
493.8969654824
 20
708.4067265488
 30
0
  0
VERTEX
  8
0
 10
493.5587538268
 20
708.3748734541
 30
0
  0
VERTEX
  8
0
 10
493.3121284332
 20
708.274957443
 30
0
  0
SEQEND
  8
0
  0
POLYLINE
  8
0
 62
7
 66
1
  0
VERTEX
  8
0
 10
493.3121284332
 20
708.274957443
 30
0
  0
VERTEX
  8
0
 10
493.1909261133
 20
708.0708599634
 30
0
  0
VERTEX
  8
0
 10
493.1659201022
 20
707.8850657664
 30
0
  0
SEQEND
  8
0
  0
POLYLINE
  8
0
 62
7
 66
1
  0
VERTEX
  8
0
 10
493.1659201022
 20
707.8850657664
 30
0
  0
VERTEX
  8
0
 10
493.2561093803
 20
707.5889731742
 30
0
  0
VERTEX
  8
0
 10
493.4096043791
 20
707.3977009378
 30
0
  0
SEQEND
  8
0
  0
POLYLINE
  8
0
 62
7
 66
1
  0
VERTEX
  8
0
 10
493.4096043791
 20
707.3977009378
 30
0
  0
VERTEX
  8
0
 10
493.9776068415
 20
707.1077383108
 30
0
  0
VERTEX
  8
0
 10
494.481806257
 20
707.0565463029
 30
0
  0
SEQEND
  8
0
  0
POLYLINE
  8
0
 62
7
 66
1
  0
VERTEX
  8
0
 10
493.8482312347
 20
706.0186394475001
 30
0
  0
VERTEX
  8
0
 10
493.5428244855
 20
706.0002448953001
 30
0
  0
VERTEX
  8
0
 10
493.3121284332
 20
705.9356073834
 30
0
  0
SEQEND
  8
0
  0
POLYLINE
  8
0
 62
7
 66
1
  0
VERTEX
  8
0
 10
493.3121284332
 20
705.9356073834
 30
0
  0
VERTEX
  8
0
 10
493.1947706129
 20
705.7588898562
 30
0
  0
VERTEX
  8
0
 10
493.1659201022
 20
705.5944518171
 30
0
  0
SEQEND
  8
0
  0
POLYLINE
  8
0
 62
7
 66
1
  0
VERTEX
  8
0
 10
493.1659201022
 20
705.5944518171
 30
0
  0
VERTEX
  8
0
 10
493.2495305177
 20
705.2695999838001
 30
0
  0
VERTEX
  8
0
 10
493.4096043791
 20
705.0583508782
 30
0
  0
SEQEND
  8
0
  0
POLYLINE
  8
0
 62
7
 66
1
  0
VERTEX
  8
0
 10
493.4096043791
 20
705.0583508782
 30
0
  0
VERTEX
  8
0
 10
493.9776068415
 20
704.7683882512
 30
0
  0
VERTEX
  8
0
 10
494.481806257
 20
704.7171953119
 30
0
  0
SEQEND
  8
0
  0
POLYLINE
  8
0
 62
7
 66
1
  0
VERTEX
  8
0
 10
493.0684478815
 20
704.7171953119
 30
0
  0
VERTEX
  8
0
 10
492.4223819609
 20
705.3172389962
 30
0
  0
VERTEX
  8
0
 10
492.2399265553752
 20
705.984343493696
 30
0
  0
SEQEND
  8
0
  0
POLYLINE
  8
0
 62
7
 66
1
  0
VERTEX
  8
0
 10
493.0684478815
 20
707.0078092612
 30
0
  0
VERTEX
  8
0
 10
492.4223819609
 20
707.6078529455
 30
0
  0
VERTEX
  8
0
 10
492.2399265554
 20
708.274957443
 30
0
  0
SEQEND
  8
0
  0
POLYLINE
  8
0
 62
7
 66
1
  0
VERTEX
  8
0
 10
492.2399265554
 20
708.274957443
 30
0
  0
VERTEX
  8
0
 10
492.3163900014
 20
708.7985134668001
 30
0
  0
VERTEX
  8
0
 10
492.5323469426263
 20
709.1522139482137
 30
0
  0
SEQEND
  8
0
  0
POLYLINE
  8
0
 62
7
 66
1
  0
VERTEX
  8
0
 10
432.3369642581273
 20
701.7287385634429
 30
0
  0
VERTEX
  8
0
 10
432.5958328183
 20
702.1931420997
 30
0
  0
VERTEX
  8
0
 10
432.6601629939
 20
702.6065650381
 30
0
  0
SEQEND
  8
0
  0
POLYLINE
  8
0
 62
7
 66
1
  0
VERTEX
  8
0
 10
432.6601629939
 20
702.6065650381
 30
0
  0
VERTEX
  8
0
 10
432.5510641422
 20
703.1019848756
 30
0
  0
VERTEX
  8
0
 10
432.3369642582
 20
703.4405001424
 30
0
  0
SEQEND
  8
0
  0
POLYLINE
  8
0
 62
7
 66
1
  0
VERTEX
  8
0
 10
427.3453248527
 20
703.4405001424
 30
0
  0
VERTEX
  8
0
 10
427.0903734352
 20
703.0003449864
 30
0
  0
VERTEX
  8
0
 10
427.0221223917
 20
702.6065650381
 30
0
  0
SEQEND
  8
0
  0
POLYLINE
  8
0
 62
7
 66
1
  0
VERTEX
  8
0
 10
427.0221223917
 20
702.6065650381
 30
0
  0
VERTEX
  8
0
 10
427.1266652133
 20
702.0858490825
 30
0
  0
VERTEX
  8
0
 10
427.3453248527
 20
701.7287385635
 30
0
  0
SEQEND
  8
0
  0
POLYLINE
  8
0
 62
7
 66
1
  0
VERTEX
  8
0
 10
432.8756300594
 20
704.0549783952
 30
0
  0
VERTEX
  8
0
 10
433.2599719848
 20
703.2829687916
 30
0
  0
VERTEX
  8
0
 10
433.3398142691
 20
702.6065650381
 30
0
  0
SEQEND
  8
0
  0
POLYLINE
  8
0
 62
7
 66
1
  0
VERTEX
  8
0
 10
433.3398142691
 20
702.6065650381
 30
0
  0
VERTEX
  8
0
 10
433.209401169
 20
701.7270868629
 30
0
  0
VERTEX
  8
0
 10
432.8756300594
 20
701.1142603107001
 30
0
  0
SEQEND
  8
0
  0
POLYLINE
  8
0
 62
7
 66
1
  0
VERTEX
  8
0
 10
426.8066590513852
 20
701.1142603106948
 30
0
  0
VERTEX
  8
0
 10
426.4176567878
 20
701.9105732426
 30
0
  0
VERTEX
  8
0
 10
426.3398131218
 20
702.6065650381
 30
0
  0
SEQEND
  8
0
  0
POLYLINE
  8
0
 62
7
 66
1
  0
VERTEX
  8
0
 10
426.3398131218
 20
702.6065650381
 30
0
  0
VERTEX
  8
0
 10
426.4750746872
 20
703.4614176474
 30
0
  0
VERTEX
  8
0
 10
426.806659051398
 20
704.0549783952644
 30
0
  0
SEQEND
  8
0
  0
POLYLINE
  8
0
 62
7
 66
1
  0
VERTEX
  8
0
 10
489.8826224591
 20
692.737146349
 30
0
  0
VERTEX
  8
0
 10
489.9824993547
 20
692.2262194086
 30
0
  0
VERTEX
  8
0
 10
490.1904301579519
 20
691.8726204413465
 30
0
  0
SEQEND
  8
0
  0
POLYLINE
  8
0
 62
7
 66
1
  0
VERTEX
  8
0
 10
498.9078907158
 20
692.737146349
 30
0
  0
VERTEX
  8
0
 10
498.6791988697
 20
691.5209965765
 30
0
  0
VERTEX
  8
0
 10
498.1934694435
 20
690.6755845513
 30
0
  0
SEQEND
  8
0
  0
POLYLINE
  8
0
 62
7
 66
1
  0
VERTEX
  8
0
 10
489.6261138703
 20
690.6755845513
 30
0
  0
VERTEX
  8
0
 10
489.048788869
 20
691.7719803270001
 30
0
  0
VERTEX
  8
0
 10
488.907892802
 20
692.737146349
 30
0
  0
SEQEND
  8
0
  0
POLYLINE
  8
0
 62
7
 66
1
  0
VERTEX
  8
0
 10
490.190430158
 20
693.6016723149
 30
0
  0
VERTEX
  8
0
 10
489.9440878864
 20
693.1424348833
 30
0
  0
VERTEX
  8
0
 10
489.8826224591
 20
692.737146349
 30
0
  0
SEQEND
  8
0
  0
POLYLINE
  8
0
 62
7
 66
1
  0
VERTEX
  8
0
 10
498.1934694435
 20
694.798708205
 30
0
  0
VERTEX
  8
0
 10
498.7670561161
 20
693.7014837269001
 30
0
  0
VERTEX
  8
0
 10
498.9078907158
 20
692.737146349
 30
0
  0
SEQEND
  8
0
  0
POLYLINE
  8
0
 62
7
 66
1
  0
VERTEX
  8
0
 10
488.907892802
 20
692.737146349
 30
0
  0
VERTEX
  8
0
 10
489.1378177192
 20
693.9538969992
 30
0
  0
VERTEX
  8
0
 10
489.6261138703
 20
694.798708205
 30
0
  0
SEQEND
  8
0
  0
POLYLINE
  8
0
 62
7
 66
1
  0
VERTEX
  8
0
 10
497.93696458
 20
692.737146349
 30
0
  0
VERTEX
  8
0
 10
497.8356217827
 20
693.2475906316
 30
0
  0
VERTEX
  8
0
 10
497.6291550185
 20
693.6016723149
 30
0
  0
SEQEND
  8
0
  0
POLYLINE
  8
0
 62
7
 66
1
  0
VERTEX
  8
0
 10
497.6291550185
 20
691.8726204414
 30
0
  0
VERTEX
  8
0
 10
497.8739550199
 20
692.3324241753001
 30
0
  0
VERTEX
  8
0
 10
497.93696458
 20
692.737146349
 30
0
  0
SEQEND
  8
0
  0
POLYLINE
  8
0
 62
7
 66
1
  0
VERTEX
  8
0
 10
496.0901072111
 20
677.6147835873001
 30
0
  0
VERTEX
  8
0
 10
497.0268314566
 20
677.7829338781
 30
0
  0
VERTEX
  8
0
 10
497.6291550185
 20
678.2228012554
 30
0
  0
SEQEND
  8
0
  0
POLYLINE
  8
0
 62
7
 66
1
  0
VERTEX
  8
0
 10
497.6291550185
 20
678.2228012554
 30
0
  0
VERTEX
  8
0
 10
497.8884799268
 20
678.7759249084
 30
0
  0
VERTEX
  8
0
 10
497.93696458
 20
679.2564314775
 30
0
  0
SEQEND
  8
0
  0
POLYLINE
  8
0
 62
7
 66
1
  0
VERTEX
  8
0
 10
497.93696458
 20
679.2564314775
 30
0
  0
VERTEX
  8
0
 10
497.7981230106
 20
679.8723570056
 30
0
  0
VERTEX
  8
0
 10
497.5265493478
 20
680.2900626309
 30
0
  0
SEQEND
  8
0
  0
POLYLINE
  8
0
 62
7
 66
1
  0
VERTEX
  8
0
 10
493.6276344444
 20
680.4116663508
 30
0
  0
VERTEX
  8
0
 10
493.377470025
 20
679.9618068136
 30
0
  0
VERTEX
  8
0
 10
493.3198248829
 20
679.5604412429
 30
0
  0
SEQEND
  8
0
  0
POLYLINE
  8
0
 62
7
 66
1
  0
VERTEX
  8
0
 10
493.2172210749
 20
677.8579891644
 30
0
  0
VERTEX
  8
0
 10
492.5865778561
 20
678.907442557
 30
0
  0
VERTEX
  8
0
 10
492.4476990338
 20
679.8644500769
 30
0
  0
SEQEND
  8
0
  0
POLYLINE
  8
0
 62
7
 66
1
 70
1
  0
VERTEX
  8
0
 10
493.0120153215
 20
681.4452975042
 30
0
  0
VERTEX
  8
0
 10
492.6216533269
 20
680.8031757347
 30
0
  0
VERTEX
  8
0
 10
493.0120153214684
 20
681.445297504148
 30
0
  0
VERTEX
  8
0
 10
492.6216533269
 20
680.8031757347
 30
0
  0
SEQEND
  8
0
  0
POLYLINE
  8
0
 62
7
 66
1
  0
VERTEX
  8
0
 10
495.4744880881
 20
682.418126332
 30
0
  0
VERTEX
  8
0
 10
497.1377519753
 20
682.079252506
 30
0
  0
VERTEX
  8
0
 10
498.1934694435
 20
681.2628923900001
 30
0
  0
SEQEND
  8
0
  0
POLYLINE
  8
0
 62
7
 66
1
  0
VERTEX
  8
0
 10
498.9078907158
 20
679.1956300831999
 30
0
  0
VERTEX
  8
0
 10
498.7406885113
 20
678.0131940715
 30
0
  0
VERTEX
  8
0
 10
498.2960751142
 20
677.1891691707
 30
0
  0
SEQEND
  8
0
  0
POLYLINE
  8
0
 62
7
 66
1
  0
VERTEX
  8
0
 10
498.2960751142
 20
677.1891691707
 30
0
  0
VERTEX
  8
0
 10
497.1618918564
 20
676.4112782649
 30
0
  0
VERTEX
  8
0
 10
496.0901072111
 20
676.2163412742
 30
0
  0
SEQEND
  8
0
  0
POLYLINE
  8
0
 62
7
 66
1
  0
VERTEX
  8
0
 10
498.1934694435
 20
681.2628923900001
 30
0
  0
VERTEX
  8
0
 10
498.7778110292
 20
680.1668607615
 30
0
  0
VERTEX
  8
0
 10
498.9078907158
 20
679.1956300831999
 30
0
  0
SEQEND
  8
0
  0
POLYLINE
  8
0
 62
7
 66
1
  0
VERTEX
  8
0
 10
495.4744880881
 20
681.0196849502
 30
0
  0
VERTEX
  8
0
 10
494.3655995514
 20
680.8740708031
 30
0
  0
VERTEX
  8
0
 10
493.6276344444
 20
680.4116663508
 30
0
  0
SEQEND
  8
0
  0
POLYLINE
  8
0
 62
7
 66
1
  0
VERTEX
  8
0
 10
521.5571975197
 20
689.5770823568
 30
0
  0
VERTEX
  8
0
 10
521.5777275946
 20
689.5793678223999
 30
0
  0
VERTEX
  8
0
 10
521.764293858
 20
689.6040907115
 30
0
  0
SEQEND
  8
0
  0
POLYLINE
  8
0
 62
7
 66
1
  0
VERTEX
  8
0
 10
523.5449341919
 20
699.147342889
 30
0
  0
VERTEX
  8
0
 10
522.3730956997
 20
699.6186312273001
 30
0
  0
VERTEX
  8
0
 10
521.0142960634
 20
699.7975205987
 30
0
  0
SEQEND
  8
0
  0
POLYLINE
  8
0
 62
7
 66
1
  0
VERTEX
  8
0
 10
802.2908178651001
 20
549.7103874403
 30
0
  0
VERTEX
  8
0
 10
799.963658818
 20
550.3260065633
 30
0
  0
VERTEX
  8
0
 10
797.5408194148
 20
550.5588968116
 30
0
  0
SEQEND
  8
0
  0
POLYLINE
  8
0
 62
7
 66
1
  0
VERTEX
  8
0
 10
792.7908172393001
 20
549.7103874403
 30
0
  0
VERTEX
  8
0
 10
790.4636581921
 20
550.3260065633
 30
0
  0
VERTEX
  8
0
 10
788.040818789
 20
550.5588968116
 30
0
  0
SEQEND
  8
0
  0
POLYLINE
  8
0
 62
7
 66
1
  0
VERTEX
  8
0
 10
697.639016577
 20
549.7103874403
 30
0
  0
VERTEX
  8
0
 10
695.3118538046
 20
550.3260065633
 30
0
  0
VERTEX
  8
0
 10
692.8890144014
 20
550.5588968116
 30
0
  0
SEQEND
  8
0
  0
POLYLINE
  8
0
 62
7
 66
1
  0
VERTEX
  8
0
 10
688.1390159511
 20
549.7103874403
 30
0
  0
VERTEX
  8
0
 10
685.811856904
 20
550.3260065633
 30
0
  0
VERTEX
  8
0
 10
683.3890137756
 20
550.5588968116
 30
0
  0
SEQEND
  8
0
  0
POLYLINE
  8
0
 62
2
 66
1
  0
VERTEX
  8
0
 10
416.813368883462
 20
352.949771009
 30
0
  0
VERTEX
  8
0
 10
436.5643296755
 20
352.949771009
 30
0
  0
VERTEX
  8
0
 10
458.002464932
 20
410.0894009495
 30
0
  0
SEQEND
  8
0
  0
POLYLINE
  8
0
 62
2
 40
0.5
 41
0.5
 66
1
  0
VERTEX
  8
0
 10
457.9141448294468
 20
409.8555215799844
 30
0
 42
0.9999999999999599
  0
VERTEX
  8
0
 10
458.0907850345532
 20
410.3232803190155
 30
0
 42
1.00000000000004
  0
VERTEX
  8
0
 10
457.9141448294468
 20
409.8555215799844
 30
0
  0
SEQEND
  8
0
  0
POINT
  8
0
 62
7
  6
DASHED
 10
329.0142957058
 20
403.8088963943
 30
0
  0
POINT
  8
0
 62
7
  6
DASHED
 10
332.0142957058
 20
403.5588963943
 30
0
  0
POINT
  8
0
 62
7
  6
DASHED
 10
462.0142957058
 20
766.5475206695001
 30
0
  0
POINT
  8
0
 62
7
  6
DASHED
 10
462.0142957058
 20
622.5475206695001
 30
0
  0
LINE
  8
1
 62
2
 10
433.9996344974177
 20
349.6006764441002
 30
0
 11
433.7686344974177
 21
349.0006764441001
 31
0
  0
LINE
  8
1
 62
2
 10
434.1151344974177
 20
350.2006764441001
 30
0
 11
433.9996344974177
 21
349.6006764441002
 31
0
  0
LINE
  8
1
 62
2
 10
434.1151344974177
 20
350.8006764441001
 30
0
 11
434.1151344974177
 21
350.2006764441001
 31
0
  0
LINE
  8
1
 62
2
 10
433.9996344974177
 20
351.4006764441001
 30
0
 11
434.1151344974177
 21
350.8006764441001
 31
0
  0
LINE
  8
1
 62
2
 10
433.7686344974177
 20
352.0006764441001
 30
0
 11
433.9996344974177
 21
351.4006764441001
 31
0
  0
LINE
  8
1
 62
2
 10
432.8853992033
 20
349.0006764441001
 30
0
 11
432.4098109680059
 21
349.3006764441001
 31
0
  0
LINE
  8
1
 62
2
 10
432.8853992033
 20
350.9006764441001
 30
0
 11
432.8853992033
 21
349.0006764441001
 31
0
  0
LINE
  8
1
 62
2
 10
432.2739286150647
 20
350.9006764441001
 30
0
 11
433.1571639091824
 21
350.9006764441001
 31
0
  0
LINE
  8
1
 62
2
 10
432.2739286150647
 20
351.8006764441001
 30
0
 11
433.0892227327118
 21
351.8006764441001
 31
0
  0
LINE
  8
1
 62
2
 10
432.0021639091823
 20
350.6006764441002
 30
0
 11
432.0021639091823
 21
349.0006764441001
 31
0
  0
LINE
  8
1
 62
2
 10
432.2059874385941
 20
351.2006764441001
 30
0
 11
431.7983403797706
 21
350.0006764441001
 31
0
  0
LINE
  8
1
 62
2
 10
432.1380462621235
 20
352.0006764441001
 30
0
 11
431.7983403797706
 21
351.0006764441001
 31
0
  0
LINE
  8
1
 62
2
 10
431.4586344974177
 20
351.3006764441001
 30
0
 11
431.7983403797706
 21
350.2006764441001
 31
0
  0
LINE
  8
1
 62
2
 10
431.4586344974177
 20
351.3006764441001
 30
0
 11
431.1189286150647
 21
349.9006764441001
 31
0
  0
LINE
  8
1
 62
2
 10
431.4586344974177
 20
352.0006764441001
 30
0
 11
431.4586344974177
 21
349.0006764441001
 31
0
  0
LINE
  8
1
 62
2
 10
431.1189286150647
 20
351.3006764441001
 30
0
 11
431.7983403797706
 21
351.3006764441001
 31
0
  0
LINE
  8
1
 62
2
 10
428.7409874385942
 20
349.0006764441001
 30
0
 11
430.2356933209471
 21
349.0006764441001
 31
0
  0
LINE
  8
1
 62
2
 10
428.8768697915353
 20
349.5006764441001
 30
0
 11
428.7409874385942
 21
349.0006764441001
 31
0
  0
LINE
  8
1
 62
2
 10
429.0127521444765
 20
349.8006764441001
 30
0
 11
428.8768697915353
 21
349.5006764441001
 31
0
  0
LINE
  8
1
 62
2
 10
429.2845168503588
 20
350.1006764441002
 30
0
 11
429.0127521444765
 21
349.8006764441001
 31
0
  0
LINE
  8
1
 62
2
 10
429.5562815562412
 20
350.3006764441001
 30
0
 11
429.2845168503588
 21
350.1006764441002
 31
0
  0
LINE
  8
1
 62
2
 10
429.8959874385942
 20
350.6006764441002
 30
0
 11
429.5562815562412
 21
350.3006764441001
 31
0
  0
LINE
  8
1
 62
2
 10
430.0998109680059
 20
351.0006764441001
 30
0
 11
429.8959874385942
 21
350.6006764441002
 31
0
  0
LINE
  8
1
 62
2
 10
430.1677521444765
 20
351.4006764441001
 30
0
 11
430.0998109680059
 21
351.0006764441001
 31
0
  0
LINE
  8
1
 62
2
 10
429.8959874385942
 20
351.8006764441001
 30
0
 11
430.1677521444765
 21
351.4006764441001
 31
0
  0
LINE
  8
1
 62
2
 10
429.4883403797706
 20
352.0006764441001
 30
0
 11
429.8959874385942
 21
351.8006764441001
 31
0
  0
LINE
  8
1
 62
2
 10
429.0806933209471
 20
351.8006764441001
 30
0
 11
429.4883403797706
 21
352.0006764441001
 31
0
  0
LINE
  8
1
 62
2
 10
428.8089286150648
 20
351.4006764441001
 30
0
 11
429.0806933209471
 21
351.8006764441001
 31
0
  0
LINE
  8
1
 62
2
 10
426.7027521444765
 20
351.3006764441001
 30
0
 11
427.6539286150647
 21
350.3006764441001
 31
0
  0
LINE
  8
1
 62
2
 10
426.7027521444765
 20
352.0006764441001
 30
0
 11
426.7027521444765
 21
349.0006764441001
 31
0
  0
LINE
  8
1
 62
2
 10
425.6836344974176
 20
352.0006764441001
 30
0
 11
427.7218697915353
 21
352.0006764441001
 31
0
  0
LINE
  8
1
 62
2
 10
423.4415756738883
 20
349.4006764441001
 30
0
 11
423.4415756738883
 21
349.5006764441001
 31
0
  0
LINE
  8
1
 62
2
 10
423.4415756738883
 20
349.5006764441001
 30
0
 11
424.8683403797706
 21
349.5006764441001
 31
0
  0
LINE
  8
1
 62
2
 10
424.8683403797706
 20
349.0006764441001
 30
0
 11
423.4415756738883
 21
349.0006764441001
 31
0
  0
LINE
  8
1
 62
2
 10
424.8683403797706
 20
350.0006764441001
 30
0
 11
424.8683403797706
 21
349.0006764441001
 31
0
  0
LINE
  8
1
 62
2
 10
423.4415756738883
 20
350.0006764441001
 30
0
 11
424.8683403797706
 21
350.0006764441001
 31
0
  0
LINE
  8
1
 62
2
 10
423.4415756738883
 20
349.0006764441001
 30
0
 11
423.4415756738883
 21
350.0006764441001
 31
0
  0
LINE
  8
1
 62
2
 10
424.5965756738883
 20
351.4006764441001
 30
0
 11
425.0721639091824
 21
350.4006764441001
 31
0
  0
LINE
  8
1
 62
2
 10
424.5965756738883
 20
351.4006764441001
 30
0
 11
424.1889286150648
 21
350.4006764441001
 31
0
  0
LINE
  8
1
 62
2
 10
424.5965756738883
 20
351.8006764441001
 30
0
 11
424.5965756738883
 21
350.3006764441001
 31
0
  0
LINE
  8
1
 62
2
 10
424.1889286150648
 20
351.4006764441001
 30
0
 11
425.0042227327118
 21
351.4006764441001
 31
0
  0
LINE
  8
1
 62
2
 10
423.7133403797706
 20
351.4006764441001
 30
0
 11
424.0530462621235
 21
350.7006764441001
 31
0
  0
LINE
  8
1
 62
2
 10
423.7133403797706
 20
351.4006764441001
 30
0
 11
423.3056933209471
 21
350.4006764441001
 31
0
  0
LINE
  8
1
 62
2
 10
423.7133403797706
 20
351.8006764441001
 30
0
 11
423.7133403797706
 21
350.3006764441001
 31
0
  0
LINE
  8
1
 62
2
 10
423.3056933209471
 20
351.4006764441001
 30
0
 11
424.0530462621235
 21
351.4006764441001
 31
0
  0
LINE
  8
1
 62
2
 10
423.1698109680059
 20
351.9006764441001
 30
0
 11
425.0721639091824
 21
351.9006764441001
 31
0
  0
LINE
  8
1
 62
2
 10
423.1698109680059
 20
350.0006764441001
 30
0
 11
423.1698109680059
 21
351.9006764441001
 31
0
  0
LINE
  8
1
 62
2
 10
422.9659874385941
 20
349.2006764441001
 30
0
 11
423.1698109680059
 21
350.0006764441001
 31
0
  0
LINE
  8
1
 62
2
 10
421.5392227327118
 20
349.8006764441001
 30
0
 11
422.2186344974177
 21
349.8006764441001
 31
0
  0
LINE
  8
1
 62
2
 10
421.5392227327118
 20
351.9006764441001
 30
0
 11
421.5392227327118
 21
349.8006764441001
 31
0
  0
LINE
  8
1
 62
2
 10
420.9956933209471
 20
350.5006764441001
 30
0
 11
420.5201050856529
 21
349.8006764441001
 31
0
  0
LINE
  8
1
 62
2
 10
420.9956933209471
 20
351.9006764441001
 30
0
 11
420.9956933209471
 21
350.5006764441001
 31
0
  0
LINE
  8
1
 62
2
 10
420.3162815562412
 20
349.0006764441001
 30
0
 11
420.3162815562412
 21
351.1006764441002
 31
0
  0
LINE
  8
1
 62
2
 10
422.2186344974177
 20
349.0006764441001
 30
0
 11
420.3162815562412
 21
349.0006764441001
 31
0
  0
LINE
  8
1
 62
2
 10
422.2186344974177
 20
351.1006764441002
 30
0
 11
422.2186344974177
 21
349.0006764441001
 31
0
  0
LINE
  8
1
 62
2
 10
420.3162815562412
 20
351.1006764441002
 30
0
 11
422.2186344974177
 21
351.1006764441002
 31
0
  0
LINE
  8
1
 62
2
 10
420.2483403797706
 20
351.9006764441001
 30
0
 11
422.2865756738883
 21
351.9006764441001
 31
0
  0
LINE
  8
1
 62
2
 10
419.2563992033
 20
349.6006764441002
 30
0
 11
419.4873992033
 21
349.0006764441001
 31
0
  0
LINE
  8
1
 62
2
 10
419.1408992033
 20
350.2006764441001
 30
0
 11
419.2563992033
 21
349.6006764441002
 31
0
  0
LINE
  8
1
 62
2
 10
419.1408992033
 20
350.8006764441001
 30
0
 11
419.1408992033
 21
350.2006764441001
 31
0
  0
LINE
  8
1
 62
2
 10
419.2563992033
 20
351.4006764441001
 30
0
 11
419.1408992033
 21
350.8006764441001
 31
0
  0
LINE
  8
1
 62
2
 10
419.4873992033
 20
352.0006764441001
 30
0
 11
419.2563992033
 21
351.4006764441001
 31
0
  0
LINE
  8
1
 62
2
 10
490.8232417184
 20
351.4433536582
 30
0
 11
490.8809917184
 21
351.1433536582
 31
0
  0
LINE
  8
1
 62
2
 10
490.7077417184
 20
351.6683536582
 30
0
 11
490.8232417184
 21
351.4433536582
 31
0
  0
LINE
  8
1
 62
2
 10
490.5922417184
 20
351.8183536582
 30
0
 11
490.7077417184
 21
351.6683536582
 31
0
  0
LINE
  8
1
 62
2
 10
490.4189917184
 20
351.9683536582
 30
0
 11
490.5922417184
 21
351.8183536582
 31
0
  0
LINE
  8
1
 62
2
 10
490.1879917184
 20
352.0433536582
 30
0
 11
490.4189917184
 21
351.9683536582
 31
0
  0
LINE
  8
1
 62
2
 10
489.2639917184
 20
352.0433536582
 30
0
 11
490.1879917184
 21
352.0433536582
 31
0
  0
LINE
  8
1
 62
2
 10
489.2639917184
 20
349.0433536582
 30
0
 11
489.2639917184
 21
352.0433536582
 31
0
  0
LINE
  8
1
 62
2
 10
490.1879917184
 20
349.0433536582
 30
0
 11
489.2639917184
 21
349.0433536582
 31
0
  0
LINE
  8
1
 62
2
 10
490.4189917184
 20
349.1183536582
 30
0
 11
490.1879917184
 21
349.0433536582
 31
0
  0
LINE
  8
1
 62
2
 10
490.5922417184
 20
349.2683536582
 30
0
 11
490.4189917184
 21
349.1183536582
 31
0
  0
LINE
  8
1
 62
2
 10
490.7077417184
 20
349.4183536582
 30
0
 11
490.5922417184
 21
349.2683536582
 31
0
  0
LINE
  8
1
 62
2
 10
490.8232417184
 20
349.6433536582
 30
0
 11
490.7077417184
 21
349.4183536582
 31
0
  0
LINE
  8
1
 62
2
 10
490.8809917184
 20
349.9433536582
 30
0
 11
490.8232417184
 21
349.6433536582
 31
0
  0
LINE
  8
1
 62
2
 10
490.8809917184
 20
351.1433536582
 30
0
 11
490.8809917184
 21
349.9433536582
 31
0
  0
LINE
  8
1
 62
7
 10
467.9778340300173
 20
414.29740581736
 30
0
 11
468.0796986133513
 21
413.76823915069
 31
0
  0
LINE
  8
1
 62
7
 10
467.7741048633494
 20
414.6942808173625
 30
0
 11
467.9778340300173
 21
414.29740581736
 31
0
  0
LINE
  8
1
 62
7
 10
467.5703756966814
 20
414.9588641506975
 30
0
 11
467.7741048633494
 21
414.6942808173625
 31
0
  0
LINE
  8
1
 62
7
 10
467.2647819466795
 20
415.2234474840325
 30
0
 11
467.5703756966814
 21
414.9588641506975
 31
0
  0
LINE
  8
1
 62
7
 10
466.8573236133436
 20
415.3557391507
 30
0
 11
467.2647819466795
 21
415.2234474840325
 31
0
  0
LINE
  8
1
 62
7
 10
465.22749028
 20
415.3557391507
 30
0
 11
466.8573236133436
 21
415.3557391507
 31
0
  0
LINE
  8
1
 62
7
 10
465.22749028
 20
410.064072484
 30
0
 11
465.22749028
 21
415.3557391507
 31
0
  0
LINE
  8
1
 62
7
 10
466.8573236133436
 20
410.064072484
 30
0
 11
465.22749028
 21
410.064072484
 31
0
  0
LINE
  8
1
 62
7
 10
467.2647819466795
 20
410.1963641506675
 30
0
 11
466.8573236133436
 21
410.064072484
 31
0
  0
LINE
  8
1
 62
7
 10
467.5703756966814
 20
410.4609474840025
 30
0
 11
467.2647819466795
 21
410.1963641506675
 31
0
  0
LINE
  8
1
 62
7
 10
467.7741048633494
 20
410.7255308173375
 30
0
 11
467.5703756966814
 21
410.4609474840025
 31
0
  0
LINE
  8
1
 62
7
 10
467.9778340300173
 20
411.12240581734
 30
0
 11
467.7741048633494
 21
410.7255308173375
 31
0
  0
LINE
  8
1
 62
7
 10
468.0796986133513
 20
411.65157248401
 30
0
 11
467.9778340300173
 21
411.12240581734
 31
0
  0
LINE
  8
1
 62
7
 10
468.0796986133513
 20
413.76823915069
 30
0
 11
468.0796986133513
 21
411.65157248401
 31
0
  0
LINE
  8
1
 62
2
 10
429.8155708435883
 20
356.7122165256
 30
0
 11
429.8155708435883
 21
353.9122165256
 31
0
  0
LINE
  8
1
 62
2
 10
428.5246884906471
 20
354.7122165256
 30
0
 11
430.6988061377059
 21
354.7122165256
 31
0
  0
LINE
  8
1
 62
2
 10
428.9323355494706
 20
355.9122165256
 30
0
 11
428.9323355494706
 21
354.7122165256
 31
0
  0
LINE
  8
1
 62
2
 10
430.6308649612353
 20
355.9122165256
 30
0
 11
428.9323355494706
 21
355.9122165256
 31
0
  0
LINE
  8
1
 62
2
 10
429.0002767259412
 20
356.7122165256
 30
0
 11
430.6988061377059
 21
356.7122165256
 31
0
  0
LINE
  8
1
 62
2
 10
429.0002767259412
 20
356.7122165256
 30
0
 11
428.6605708435882
 21
356.1122165256001
 31
0
  0
LINE
  8
1
 62
2
 10
429.1361590788824
 20
357.1122165256001
 30
0
 11
429.0002767259412
 21
356.7122165256
 31
0
  0
LINE
  8
1
 62
2
 10
426.6223355494706
 20
354.4122165256
 30
0
 11
426.6223355494706
 21
355.4122165256
 31
0
  0
LINE
  8
1
 62
2
 10
427.709394373
 20
354.4122165256
 30
0
 11
426.6223355494706
 21
354.4122165256
 31
0
  0
LINE
  8
1
 62
2
 10
427.709394373
 20
355.4122165256
 30
0
 11
427.709394373
 21
354.4122165256
 31
0
  0
LINE
  8
1
 62
2
 10
426.6223355494706
 20
355.4122165256
 30
0
 11
427.709394373
 21
355.4122165256
 31
0
  0
LINE
  8
1
 62
2
 10
427.1658649612353
 20
357.0122165256
 30
0
 11
427.1658649612353
 21
355.8122165256
 31
0
  0
LINE
  8
1
 62
2
 10
426.3505708435882
 20
355.8122165256
 30
0
 11
427.9132179024118
 21
355.8122165256
 31
0
  0
LINE
  8
1
 62
2
 10
426.554394373
 20
356.5122165256
 30
0
 11
427.8452767259412
 21
356.5122165256
 31
0
  0
LINE
  8
1
 62
2
 10
426.554394373
 20
356.5122165256
 30
0
 11
426.3505708435882
 21
356.1122165256001
 31
0
  0
LINE
  8
1
 62
2
 10
426.6223355494706
 20
356.9122165256
 30
0
 11
426.554394373
 21
356.5122165256
 31
0
  0
LINE
  8
1
 62
2
 10
426.8261590788823
 20
354.0122165256
 30
0
 11
427.9811590788823
 21
354.0122165256
 31
0
  0
LINE
  8
1
 62
2
 10
426.2146884906471
 20
354.7122165256
 30
0
 11
426.8261590788823
 21
354.0122165256
 31
0
  0
LINE
  8
1
 62
2
 10
426.2146884906471
 20
354.7122165256
 30
0
 11
425.8749826082941
 21
354.0122165256
 31
0
  0
LINE
  8
1
 62
2
 10
426.2146884906471
 20
355.7122165256
 30
0
 11
426.2146884906471
 21
354.7122165256
 31
0
  0
LINE
  8
1
 62
2
 10
425.8749826082941
 20
355.7122165256
 30
0
 11
426.2146884906471
 21
355.7122165256
 31
0
  0
LINE
  8
1
 62
2
 10
425.9429237847647
 20
356.9122165256
 30
0
 11
426.2826296671177
 21
356.4122165256
 31
0
  0
LINE
  8
1
 62
2
 10
424.584100255353
 20
355.0122165256
 30
0
 11
424.7879237847647
 21
354.3122165256
 31
0
  0
LINE
  8
1
 62
2
 10
425.0596884906471
 20
354.0122165256
 30
0
 11
424.5161590788824
 21
354.2122165256
 31
0
  0
LINE
  8
1
 62
2
 10
425.0596884906471
 20
355.9122165256
 30
0
 11
425.0596884906471
 21
354.0122165256
 31
0
  0
LINE
  8
1
 62
2
 10
424.1085120200588
 20
355.2122165256
 30
0
 11
425.2635120200588
 21
355.2122165256
 31
0
  0
LINE
  8
1
 62
2
 10
424.5161590788824
 20
355.6122165256001
 30
0
 11
424.1085120200588
 21
354.3122165256
 31
0
  0
LINE
  8
1
 62
2
 10
424.584100255353
 20
357.0122165256
 30
0
 11
424.5161590788824
 21
355.6122165256001
 31
0
  0
LINE
  8
1
 62
2
 10
424.0405708435882
 20
355.9122165256
 30
0
 11
425.2635120200588
 21
355.9122165256
 31
0
  0
LINE
  8
1
 62
2
 10
424.1764531965294
 20
356.3122165256
 30
0
 11
425.1276296671177
 21
356.3122165256
 31
0
  0
LINE
  8
1
 62
2
 10
424.1085120200588
 20
356.7122165256
 30
0
 11
425.1955708435883
 21
356.7122165256
 31
0
  0
LINE
  8
1
 62
2
 10
423.1573355494706
 20
354.0122165256
 30
0
 11
423.9726296671176
 21
354.2122165256
 31
0
  0
LINE
  8
1
 62
2
 10
423.9726296671176
 20
355.1122165256001
 30
0
 11
423.8367473141765
 21
354.4122165256
 31
0
  0
LINE
  8
1
 62
2
 10
423.2252767259412
 20
355.1122165256001
 30
0
 11
423.3611590788823
 21
354.3122165256
 31
0
  0
LINE
  8
1
 62
2
 10
423.5649826082941
 20
356.0122165256
 30
0
 11
423.5649826082941
 21
354.1122165256001
 31
0
  0
LINE
  8
1
 62
2
 10
423.1573355494706
 20
355.4122165256
 30
0
 11
423.9726296671176
 21
355.4122165256
 31
0
  0
LINE
  8
1
 62
2
 10
423.2252767259412
 20
356.0122165256
 30
0
 11
423.9046884906471
 21
356.0122165256
 31
0
  0
LINE
  8
1
 62
2
 10
423.6329237847647
 20
356.9122165256
 30
0
 11
423.9726296671176
 21
356.3122165256
 31
0
  0
LINE
  8
1
 62
2
 10
423.1573355494706
 20
356.2122165256
 30
0
 11
423.6329237847647
 21
356.9122165256
 31
0
  0
LINE
  8
1
 62
2
 10
495.7150886812823
 20
353.9153900939
 30
0
 11
494.6959710342235
 21
354.2153900939
 31
0
  0
LINE
  8
1
 62
2
 10
496.1906769165764
 20
354.3153900939
 30
0
 11
495.7150886812823
 21
353.9153900939
 31
0
  0
LINE
  8
1
 62
2
 10
496.258618093047
 20
355.0153900939
 30
0
 11
496.1906769165764
 21
354.3153900939
 31
0
  0
LINE
  8
1
 62
2
 10
494.9677357401059
 20
355.0153900939
 30
0
 11
496.258618093047
 21
355.0153900939
 31
0
  0
LINE
  8
1
 62
2
 10
495.103618093047
 20
355.7153900939
 30
0
 11
494.9677357401059
 21
355.0153900939
 31
0
  0
LINE
  8
1
 62
2
 10
494.4242063283411
 20
355.7153900939
 30
0
 11
496.4624416224588
 21
355.7153900939
 31
0
  0
LINE
  8
1
 62
2
 10
494.6959710342235
 20
356.0153900939
 30
0
 11
494.6959710342235
 21
356.9153900939
 31
0
  0
LINE
  8
1
 62
2
 10
496.258618093047
 20
356.0153900939
 30
0
 11
494.6959710342235
 21
356.0153900939
 31
0
  0
LINE
  8
1
 62
2
 10
496.258618093047
 20
356.9153900939
 30
0
 11
496.258618093047
 21
356.0153900939
 31
0
  0
LINE
  8
1
 62
2
 10
494.6959710342235
 20
356.9153900939
 30
0
 11
496.258618093047
 21
356.9153900939
 31
0
  0
LINE
  8
1
 62
2
 10
493.7447945636353
 20
354.0153900939
 30
0
 11
493.7447945636353
 21
354.7153900939
 31
0
  0
LINE
  8
1
 62
2
 10
492.7256769165765
 20
354.0153900939
 30
0
 11
493.7447945636353
 21
354.0153900939
 31
0
  0
LINE
  8
1
 62
2
 10
492.7256769165765
 20
355.7153900939
 30
0
 11
492.7256769165765
 21
354.0153900939
 31
0
  0
LINE
  8
1
 62
2
 10
493.6089122106941
 20
355.7153900939
 30
0
 11
492.7256769165765
 21
355.7153900939
 31
0
  0
LINE
  8
1
 62
2
 10
493.6089122106941
 20
356.9153900939
 30
0
 11
493.6089122106941
 21
355.7153900939
 31
0
  0
LINE
  8
1
 62
2
 10
492.6577357401059
 20
356.9153900939
 30
0
 11
493.6089122106941
 21
356.9153900939
 31
0
  0
LINE
  8
1
 62
2
 10
491.7745004459882
 20
354.0153900939
 30
0
 11
491.7745004459882
 21
355.0153900939
 31
0
  0
LINE
  8
1
 62
2
 10
492.5218533871647
 20
354.0153900939
 30
0
 11
491.7745004459882
 21
354.0153900939
 31
0
  0
LINE
  8
1
 62
2
 10
492.5218533871647
 20
355.0153900939
 30
0
 11
492.5218533871647
 21
354.0153900939
 31
0
  0
LINE
  8
1
 62
2
 10
491.7745004459882
 20
355.0153900939
 30
0
 11
492.5218533871647
 21
355.0153900939
 31
0
  0
LINE
  8
1
 62
2
 10
491.8424416224588
 20
355.4153900939
 30
0
 11
492.4539122106941
 21
355.4153900939
 31
0
  0
LINE
  8
1
 62
2
 10
491.8424416224588
 20
355.9153900939
 30
0
 11
492.4539122106941
 21
355.9153900939
 31
0
  0
LINE
  8
1
 62
2
 10
491.7065592695176
 20
356.4153900939
 30
0
 11
492.5897945636353
 21
356.4153900939
 31
0
  0
LINE
  8
1
 62
2
 10
491.8424416224588
 20
356.9153900939
 30
0
 11
492.4539122106941
 21
356.9153900939
 31
0
  0
LINE
  8
1
 62
2
 10
490.8233239753999
 20
356.9153900939
 30
0
 11
490.8233239753999
 21
354.0153900939
 31
0
  0
LINE
  8
1
 62
2
 10
489.9400886812823
 20
354.5153900939
 30
0
 11
491.0271475048118
 21
354.8153900939
 31
0
  0
LINE
  8
1
 62
2
 10
490.0080298577529
 20
355.9153900939
 30
0
 11
490.6195004459882
 21
355.1153900939
 31
0
  0
LINE
  8
1
 62
2
 10
490.0759710342235
 20
356.8153900939
 30
0
 11
490.6195004459882
 21
356.1153900939
 31
0
  0
LINE
  8
1
 62
2
 10
489.3965592695176
 20
355.7153900939
 30
0
 11
489.8721475048117
 21
354.8153900939
 31
0
  0
LINE
  8
1
 62
2
 10
489.3965592695176
 20
355.7153900939
 30
0
 11
488.9889122106941
 21
354.5153900939
 31
0
  0
LINE
  8
1
 62
2
 10
489.3965592695176
 20
357.0153900939
 30
0
 11
489.3965592695176
 21
354.0153900939
 31
0
  0
LINE
  8
1
 62
2
 10
488.9889122106941
 20
355.7153900939
 30
0
 11
489.8721475048117
 21
355.7153900939
 31
0
  0
LINE
  8
1
 62
2
 10
489.8721475048117
 20
356.8153900939
 30
0
 11
489.6003827989294
 21
356.0153900939
 31
0
  0
LINE
  8
1
 62
2
 10
489.0568533871647
 20
356.8153900939
 30
0
 11
489.1927357401058
 21
355.9153900939
 31
0
  0
LINE
  8
1
 62
2
 10
488.0377357401059
 20
356.5153900939
 30
0
 11
487.0865592695176
 21
354.7153900939
 31
0
  0
LINE
  8
1
 62
2
 10
488.0377357401059
 20
354.0153900939
 30
0
 11
487.4262651518706
 21
354.4153900939
 31
0
  0
LINE
  8
1
 62
2
 10
488.0377357401059
 20
357.0153900939
 30
0
 11
488.0377357401059
 21
354.0153900939
 31
0
  0
LINE
  8
1
 62
2
 10
487.2224416224588
 20
356.5153900939
 30
0
 11
488.3095004459883
 21
356.5153900939
 31
0
  0
LINE
  8
1
 62
2
 10
486.6789122106941
 20
356.5153900939
 30
0
 11
487.0865592695176
 21
355.3153900939
 31
0
  0
LINE
  8
1
 62
2
 10
486.6789122106941
 20
356.5153900939
 30
0
 11
486.2712651518706
 21
355.0153900939
 31
0
  0
LINE
  8
1
 62
2
 10
486.6789122106941
 20
357.0153900939
 30
0
 11
486.6789122106941
 21
354.0153900939
 31
0
  0
LINE
  8
1
 62
2
 10
486.2712651518706
 20
356.5153900939
 30
0
 11
487.0865592695176
 21
356.5153900939
 31
0
  0
LINE
  8
1
 62
2
 10
841.6002755038146
 20
503.71265579
 30
0
 11
841.6002755038146
 21
506.71265579
 31
0
  0
LINE
  8
1
 62
2
 10
840.7340255038147
 20
503.71265579
 30
0
 11
841.6002755038146
 21
503.71265579
 31
0
  0
LINE
  8
1
 62
2
 10
840.5030255038147
 20
503.78765579
 30
0
 11
840.7340255038147
 21
503.71265579
 31
0
  0
LINE
  8
1
 62
2
 10
840.3875255038147
 20
503.86265579
 30
0
 11
840.5030255038147
 21
503.78765579
 31
0
  0
LINE
  8
1
 62
2
 10
840.2720255038147
 20
504.01265579
 30
0
 11
840.3875255038147
 21
503.86265579
 31
0
  0
LINE
  8
1
 62
2
 10
840.2142755038146
 20
504.31265579
 30
0
 11
840.2720255038147
 21
504.01265579
 31
0
  0
LINE
  8
1
 62
2
 10
840.2142755038146
 20
505.21265579
 30
0
 11
840.2142755038146
 21
504.31265579
 31
0
  0
LINE
  8
1
 62
2
 10
840.2720255038147
 20
505.51265579
 30
0
 11
840.2142755038146
 21
505.21265579
 31
0
  0
LINE
  8
1
 62
2
 10
840.3875255038147
 20
505.66265579
 30
0
 11
840.2720255038147
 21
505.51265579
 31
0
  0
LINE
  8
1
 62
2
 10
840.5030255038147
 20
505.73765579
 30
0
 11
840.3875255038147
 21
505.66265579
 31
0
  0
LINE
  8
1
 62
2
 10
840.7340255038147
 20
505.81265579
 30
0
 11
840.5030255038147
 21
505.73765579
 31
0
  0
LINE
  8
1
 62
2
 10
841.6002755038146
 20
505.81265579
 30
0
 11
840.7340255038147
 21
505.81265579
 31
0
  0
LINE
  8
1
 62
2
 10
838.9233931508734
 20
506.31265579
 30
0
 11
838.2439813861676
 21
502.91265579
 31
0
  0
LINE
  8
1
 62
2
 10
839.0592755038147
 20
505.51265579
 30
0
 11
838.7875107979322
 21
505.61265579
 31
0
  0
LINE
  8
1
 62
2
 10
839.1951578567558
 20
505.31265579
 30
0
 11
839.0592755038147
 21
505.51265579
 31
0
  0
LINE
  8
1
 62
2
 10
839.2630990332264
 20
505.01265579
 30
0
 11
839.1951578567558
 21
505.31265579
 31
0
  0
LINE
  8
1
 62
2
 10
839.2630990332264
 20
504.51265579
 30
0
 11
839.2630990332264
 21
505.01265579
 31
0
  0
LINE
  8
1
 62
2
 10
839.1272166802852
 20
504.11265579
 30
0
 11
839.2630990332264
 21
504.51265579
 31
0
  0
LINE
  8
1
 62
2
 10
838.991334327344
 20
503.91265579
 30
0
 11
839.1272166802852
 21
504.11265579
 31
0
  0
LINE
  8
1
 62
2
 10
838.7195696214617
 20
503.71265579
 30
0
 11
838.991334327344
 21
503.91265579
 31
0
  0
LINE
  8
1
 62
2
 10
838.4478049155794
 20
503.61265579
 30
0
 11
838.7195696214617
 21
503.71265579
 31
0
  0
LINE
  8
1
 62
2
 10
838.2439813861676
 20
503.71265579
 30
0
 11
838.4478049155794
 21
503.61265579
 31
0
  0
LINE
  8
1
 62
2
 10
838.0401578567557
 20
503.91265579
 30
0
 11
838.2439813861676
 21
503.71265579
 31
0
  0
LINE
  8
1
 62
2
 10
837.9722166802852
 20
504.21265579
 30
0
 11
838.0401578567557
 21
503.91265579
 31
0
  0
LINE
  8
1
 62
2
 10
837.9722166802852
 20
504.61265579
 30
0
 11
837.9722166802852
 21
504.21265579
 31
0
  0
LINE
  8
1
 62
2
 10
838.0401578567557
 20
504.91265579
 30
0
 11
837.9722166802852
 21
504.61265579
 31
0
  0
LINE
  8
1
 62
2
 10
838.2439813861676
 20
505.21265579
 30
0
 11
838.0401578567557
 21
504.91265579
 31
0
  0
LINE
  8
1
 62
2
 10
838.4478049155794
 20
505.41265579
 30
0
 11
838.2439813861676
 21
505.21265579
 31
0
  0
LINE
  8
1
 62
2
 10
838.7875107979322
 20
505.61265579
 30
0
 11
838.4478049155794
 21
505.41265579
 31
0
  0
LINE
  8
1
 62
2
 10
835.648628444991
 20
504.76265579
 30
0
 11
836.803628444991
 21
504.76265579
 31
0
  0
LINE
  8
1
 62
2
 10
834.955628444991
 20
505.43765579
 30
0
 11
834.955628444991
 21
503.71265579
 31
0
  0
LINE
  8
1
 62
2
 10
834.8978784449911
 20
505.58765579
 30
0
 11
834.955628444991
 21
505.43765579
 31
0
  0
LINE
  8
1
 62
2
 10
834.7823784449911
 20
505.73765579
 30
0
 11
834.8978784449911
 21
505.58765579
 31
0
  0
LINE
  8
1
 62
2
 10
834.609128444991
 20
505.81265579
 30
0
 11
834.7823784449911
 21
505.73765579
 31
0
  0
LINE
  8
1
 62
2
 10
833.5696284449911
 20
505.81265579
 30
0
 11
834.609128444991
 21
505.81265579
 31
0
  0
LINE
  8
1
 62
2
 10
833.5696284449911
 20
503.71265579
 30
0
 11
833.5696284449911
 21
505.81265579
 31
0
  0
LINE
  8
1
 62
2
 10
833.0178390365001
 20
670.9122110401
 30
0
 11
831.9783390365001
 21
670.3122110401
 31
0
  0
LINE
  8
1
 62
2
 10
833.8263390365
 20
671.8122110401
 30
0
 11
833.0178390365001
 21
670.9122110401
 31
0
  0
LINE
  8
1
 62
2
 10
834.1728390365001
 20
672.4122110401
 30
0
 11
833.8263390365
 21
671.8122110401
 31
0
  0
LINE
  8
1
 62
2
 10
834.2883390365001
 20
673.0122110401001
 30
0
 11
834.1728390365001
 21
672.4122110401
 31
0
  0
LINE
  8
1
 62
2
 10
834.4038390365001
 20
673.7622110401001
 30
0
 11
834.2883390365001
 21
673.0122110401001
 31
0
  0
LINE
  8
1
 62
2
 10
834.4038390365001
 20
674.8122110401
 30
0
 11
834.4038390365001
 21
673.7622110401001
 31
0
  0
LINE
  8
1
 62
2
 10
834.2883390365001
 20
675.4122110401
 30
0
 11
834.4038390365001
 21
674.8122110401
 31
0
  0
LINE
  8
1
 62
2
 10
834.0573390365001
 20
675.8622110401
 30
0
 11
834.2883390365001
 21
675.4122110401
 31
0
  0
LINE
  8
1
 62
2
 10
833.7108390365
 20
676.1622110401
 30
0
 11
834.0573390365001
 21
675.8622110401
 31
0
  0
LINE
  8
1
 62
2
 10
833.3643390365
 20
676.3122110401
 30
0
 11
833.7108390365
 21
676.1622110401
 31
0
  0
LINE
  8
1
 62
2
 10
832.6713390365001
 20
676.3122110401
 30
0
 11
833.3643390365
 21
676.3122110401
 31
0
  0
LINE
  8
1
 62
2
 10
832.3248390365001
 20
676.1622110401
 30
0
 11
832.6713390365001
 21
676.3122110401
 31
0
  0
LINE
  8
1
 62
2
 10
831.9783390365001
 20
675.8622110401
 30
0
 11
832.3248390365001
 21
676.1622110401
 31
0
  0
LINE
  8
1
 62
2
 10
831.7473390365001
 20
675.4122110401
 30
0
 11
831.9783390365001
 21
675.8622110401
 31
0
  0
LINE
  8
1
 62
2
 10
831.6318390365001
 20
674.8122110401
 30
0
 11
831.7473390365001
 21
675.4122110401
 31
0
  0
LINE
  8
1
 62
2
 10
831.6318390365001
 20
674.5122110401001
 30
0
 11
831.6318390365001
 21
674.8122110401
 31
0
  0
LINE
  8
1
 62
2
 10
831.7473390365001
 20
673.9122110401
 30
0
 11
831.6318390365001
 21
674.5122110401001
 31
0
  0
LINE
  8
1
 62
2
 10
831.9783390365001
 20
673.4622110401
 30
0
 11
831.7473390365001
 21
673.9122110401
 31
0
  0
LINE
  8
1
 62
2
 10
832.3248390365001
 20
673.1622110401
 30
0
 11
831.9783390365001
 21
673.4622110401
 31
0
  0
LINE
  8
1
 62
2
 10
832.6713390365001
 20
673.0122110401001
 30
0
 11
832.3248390365001
 21
673.1622110401
 31
0
  0
LINE
  8
1
 62
2
 10
834.2883390365001
 20
673.0122110401001
 30
0
 11
832.6713390365001
 21
673.0122110401001
 31
0
  0
LINE
  8
1
 62
2
 10
830.2458390365
 20
676.3122110401
 30
0
 11
830.2458390365
 21
670.3122110401
 31
0
  0
LINE
  8
1
 62
2
 10
828.8598390365
 20
674.5122110401001
 30
0
 11
830.2458390365
 21
676.3122110401
 31
0
  0
LINE
  8
1
 62
2
 10
797.6480069482998
 20
672.7122110401
 30
0
 11
797.6480069482998
 21
670.3122110401
 31
0
  0
LINE
  8
1
 62
2
 10
795.5690069482998
 20
671.5122110401001
 30
0
 11
798.3410069482999
 21
671.5122110401001
 31
0
  0
LINE
  8
1
 62
2
 10
797.6480069482998
 20
676.3122110401
 30
0
 11
795.5690069482998
 21
671.5122110401001
 31
0
  0
LINE
  8
1
 62
2
 10
763.7530082265
 20
674.9622110401
 30
0
 11
765.0235082265
 21
676.3122110401
 31
0
  0
LINE
  8
1
 62
2
 10
763.2910082265
 20
674.2122110401
 30
0
 11
763.7530082265
 21
674.9622110401
 31
0
  0
LINE
  8
1
 62
2
 10
763.0600082265
 20
673.6122110401
 30
0
 11
763.2910082265
 21
674.2122110401
 31
0
  0
LINE
  8
1
 62
2
 10
762.9445082265
 20
672.4122110401
 30
0
 11
763.0600082265
 21
673.6122110401
 31
0
  0
LINE
  8
1
 62
2
 10
762.9445082265
 20
671.8122110401
 30
0
 11
762.9445082265
 21
672.4122110401
 31
0
  0
LINE
  8
1
 62
2
 10
763.0600082265
 20
671.2122110401
 30
0
 11
762.9445082265
 21
671.8122110401
 31
0
  0
LINE
  8
1
 62
2
 10
763.2910082265
 20
670.7622110401001
 30
0
 11
763.0600082265
 21
671.2122110401
 31
0
  0
LINE
  8
1
 62
2
 10
763.6375082265
 20
670.4622110401
 30
0
 11
763.2910082265
 21
670.7622110401001
 31
0
  0
LINE
  8
1
 62
2
 10
763.9840082265
 20
670.3122110401
 30
0
 11
763.6375082265
 21
670.4622110401
 31
0
  0
LINE
  8
1
 62
2
 10
764.6770082265
 20
670.3122110401
 30
0
 11
763.9840082265
 21
670.3122110401
 31
0
  0
LINE
  8
1
 62
2
 10
765.0235082265
 20
670.4622110401
 30
0
 11
764.6770082265
 21
670.3122110401
 31
0
  0
LINE
  8
1
 62
2
 10
765.3700082265001
 20
670.7622110401001
 30
0
 11
765.0235082265
 21
670.4622110401
 31
0
  0
LINE
  8
1
 62
2
 10
765.6010082265001
 20
671.2122110401
 30
0
 11
765.3700082265001
 21
670.7622110401001
 31
0
  0
LINE
  8
1
 62
2
 10
765.7165082265001
 20
671.8122110401
 30
0
 11
765.6010082265001
 21
671.2122110401
 31
0
  0
LINE
  8
1
 62
2
 10
765.7165082265001
 20
672.4122110401
 30
0
 11
765.7165082265001
 21
671.8122110401
 31
0
  0
LINE
  8
1
 62
2
 10
765.6010082265001
 20
673.0122110401001
 30
0
 11
765.7165082265001
 21
672.4122110401
 31
0
  0
LINE
  8
1
 62
2
 10
765.3700082265001
 20
673.4622110401
 30
0
 11
765.6010082265001
 21
673.0122110401001
 31
0
  0
LINE
  8
1
 62
2
 10
765.0235082265
 20
673.7622110401001
 30
0
 11
765.3700082265001
 21
673.4622110401
 31
0
  0
LINE
  8
1
 62
2
 10
764.6770082265
 20
673.9122110401
 30
0
 11
765.0235082265
 21
673.7622110401001
 31
0
  0
LINE
  8
1
 62
2
 10
763.9840082265
 20
673.9122110401
 30
0
 11
764.6770082265
 21
673.9122110401
 31
0
  0
LINE
  8
1
 62
2
 10
763.6375082265
 20
673.7622110401001
 30
0
 11
763.9840082265
 21
673.9122110401
 31
0
  0
LINE
  8
1
 62
2
 10
763.2910082265
 20
673.4622110401
 30
0
 11
763.6375082265
 21
673.7622110401001
 31
0
  0
LINE
  8
1
 62
2
 10
763.0600082265
 20
673.0122110401001
 30
0
 11
763.2910082265
 21
673.4622110401
 31
0
  0
LINE
  8
1
 62
2
 10
762.9445082265
 20
672.4122110401
 30
0
 11
763.0600082265
 21
673.0122110401001
 31
0
  0
LINE
  8
1
 62
2
 10
760.1725082265
 20
670.9122110401
 30
0
 11
759.1330082265
 21
670.3122110401
 31
0
  0
LINE
  8
1
 62
2
 10
760.9810082265
 20
671.8122110401
 30
0
 11
760.1725082265
 21
670.9122110401
 31
0
  0
LINE
  8
1
 62
2
 10
761.3275082265001
 20
672.4122110401
 30
0
 11
760.9810082265
 21
671.8122110401
 31
0
  0
LINE
  8
1
 62
2
 10
761.4430082265001
 20
673.0122110401001
 30
0
 11
761.3275082265001
 21
672.4122110401
 31
0
  0
LINE
  8
1
 62
2
 10
761.5585082265001
 20
673.7622110401001
 30
0
 11
761.4430082265001
 21
673.0122110401001
 31
0
  0
LINE
  8
1
 62
2
 10
761.5585082265001
 20
674.8122110401
 30
0
 11
761.5585082265001
 21
673.7622110401001
 31
0
  0
LINE
  8
1
 62
2
 10
761.4430082265001
 20
675.4122110401
 30
0
 11
761.5585082265001
 21
674.8122110401
 31
0
  0
LINE
  8
1
 62
2
 10
761.2120082265001
 20
675.8622110401
 30
0
 11
761.4430082265001
 21
675.4122110401
 31
0
  0
LINE
  8
1
 62
2
 10
760.8655082265
 20
676.1622110401
 30
0
 11
761.2120082265001
 21
675.8622110401
 31
0
  0
LINE
  8
1
 62
2
 10
760.5190082265
 20
676.3122110401
 30
0
 11
760.8655082265
 21
676.1622110401
 31
0
  0
LINE
  8
1
 62
2
 10
759.8260082265
 20
676.3122110401
 30
0
 11
760.5190082265
 21
676.3122110401
 31
0
  0
LINE
  8
1
 62
2
 10
759.4795082265
 20
676.1622110401
 30
0
 11
759.8260082265
 21
676.3122110401
 31
0
  0
LINE
  8
1
 62
2
 10
759.1330082265
 20
675.8622110401
 30
0
 11
759.4795082265
 21
676.1622110401
 31
0
  0
LINE
  8
1
 62
2
 10
758.9020082265
 20
675.4122110401
 30
0
 11
759.1330082265
 21
675.8622110401
 31
0
  0
LINE
  8
1
 62
2
 10
758.7865082265
 20
674.8122110401
 30
0
 11
758.9020082265
 21
675.4122110401
 31
0
  0
LINE
  8
1
 62
2
 10
758.7865082265
 20
674.5122110401001
 30
0
 11
758.7865082265
 21
674.8122110401
 31
0
  0
LINE
  8
1
 62
2
 10
758.9020082265
 20
673.9122110401
 30
0
 11
758.7865082265
 21
674.5122110401001
 31
0
  0
LINE
  8
1
 62
2
 10
759.1330082265
 20
673.4622110401
 30
0
 11
758.9020082265
 21
673.9122110401
 31
0
  0
LINE
  8
1
 62
2
 10
759.4795082265
 20
673.1622110401
 30
0
 11
759.1330082265
 21
673.4622110401
 31
0
  0
LINE
  8
1
 62
2
 10
759.8260082265
 20
673.0122110401001
 30
0
 11
759.4795082265
 21
673.1622110401
 31
0
  0
LINE
  8
1
 62
2
 10
761.4430082265001
 20
673.0122110401001
 30
0
 11
759.8260082265
 21
673.0122110401001
 31
0
  0
LINE
  8
1
 62
2
 10
731.7060092719
 20
674.0622110401
 30
0
 11
731.7060092719
 21
672.5622110401
 31
0
  0
LINE
  8
1
 62
2
 10
731.5905092719
 20
674.9622110401
 30
0
 11
731.7060092719
 21
674.0622110401
 31
0
  0
LINE
  8
1
 62
2
 10
731.3595092719
 20
675.5622110401
 30
0
 11
731.5905092719
 21
674.9622110401
 31
0
  0
LINE
  8
1
 62
2
 10
731.1285092718999
 20
675.8622110401
 30
0
 11
731.3595092719
 21
675.5622110401
 31
0
  0
LINE
  8
1
 62
2
 10
730.7820092718999
 20
676.1622110401
 30
0
 11
731.1285092718999
 21
675.8622110401
 31
0
  0
LINE
  8
1
 62
2
 10
730.4355092719
 20
676.3122110401
 30
0
 11
730.7820092718999
 21
676.1622110401
 31
0
  0
LINE
  8
1
 62
2
 10
730.2045092719
 20
676.3122110401
 30
0
 11
730.4355092719
 21
676.3122110401
 31
0
  0
LINE
  8
1
 62
2
 10
729.8580092719
 20
676.1622110401
 30
0
 11
730.2045092719
 21
676.3122110401
 31
0
  0
LINE
  8
1
 62
2
 10
729.5115092719
 20
675.8622110401
 30
0
 11
729.8580092719
 21
676.1622110401
 31
0
  0
LINE
  8
1
 62
2
 10
729.2805092719
 20
675.5622110401
 30
0
 11
729.5115092719
 21
675.8622110401
 31
0
  0
LINE
  8
1
 62
2
 10
729.0495092719
 20
674.9622110401
 30
0
 11
729.2805092719
 21
675.5622110401
 31
0
  0
LINE
  8
1
 62
2
 10
728.9340092719
 20
674.0622110401
 30
0
 11
729.0495092719
 21
674.9622110401
 31
0
  0
LINE
  8
1
 62
2
 10
728.9340092719
 20
672.5622110401
 30
0
 11
728.9340092719
 21
674.0622110401
 31
0
  0
LINE
  8
1
 62
2
 10
729.0495092719
 20
671.6622110401
 30
0
 11
728.9340092719
 21
672.5622110401
 31
0
  0
LINE
  8
1
 62
2
 10
729.2805092719
 20
671.0622110401
 30
0
 11
729.0495092719
 21
671.6622110401
 31
0
  0
LINE
  8
1
 62
2
 10
729.5115092719
 20
670.7622110401001
 30
0
 11
729.2805092719
 21
671.0622110401
 31
0
  0
LINE
  8
1
 62
2
 10
729.8580092719
 20
670.4622110401
 30
0
 11
729.5115092719
 21
670.7622110401001
 31
0
  0
LINE
  8
1
 62
2
 10
730.2045092719
 20
670.3122110401
 30
0
 11
729.8580092719
 21
670.4622110401
 31
0
  0
LINE
  8
1
 62
2
 10
730.4355092719
 20
670.3122110401
 30
0
 11
730.2045092719
 21
670.3122110401
 31
0
  0
LINE
  8
1
 62
2
 10
730.7820092718999
 20
670.4622110401
 30
0
 11
730.4355092719
 21
670.3122110401
 31
0
  0
LINE
  8
1
 62
2
 10
731.1285092718999
 20
670.7622110401001
 30
0
 11
730.7820092718999
 21
670.4622110401
 31
0
  0
LINE
  8
1
 62
2
 10
731.3595092719
 20
671.0622110401
 30
0
 11
731.1285092718999
 21
670.7622110401001
 31
0
  0
LINE
  8
1
 62
2
 10
731.5905092719
 20
671.6622110401
 30
0
 11
731.3595092719
 21
671.0622110401
 31
0
  0
LINE
  8
1
 62
2
 10
731.7060092719
 20
672.5622110401
 30
0
 11
731.5905092719
 21
671.6622110401
 31
0
  0
LINE
  8
1
 62
2
 10
724.7760092719001
 20
670.3122110401
 30
0
 11
727.5480092719001
 21
670.3122110401
 31
0
  0
LINE
  8
1
 62
2
 10
727.3170092719001
 20
674.2122110401
 30
0
 11
724.7760092719001
 21
670.3122110401
 31
0
  0
LINE
  8
1
 62
2
 10
727.5480092719001
 20
674.8122110401
 30
0
 11
727.3170092719001
 21
674.2122110401
 31
0
  0
LINE
  8
1
 62
2
 10
727.5480092719001
 20
675.4122110401
 30
0
 11
727.5480092719001
 21
674.8122110401
 31
0
  0
LINE
  8
1
 62
2
 10
727.3170092719001
 20
675.8622110401
 30
0
 11
727.5480092719001
 21
675.4122110401
 31
0
  0
LINE
  8
1
 62
2
 10
726.9705092719
 20
676.1622110401
 30
0
 11
727.3170092719001
 21
675.8622110401
 31
0
  0
LINE
  8
1
 62
2
 10
726.5085092719
 20
676.3122110401
 30
0
 11
726.9705092719
 21
676.1622110401
 31
0
  0
LINE
  8
1
 62
2
 10
725.8155092719001
 20
676.3122110401
 30
0
 11
726.5085092719
 21
676.3122110401
 31
0
  0
LINE
  8
1
 62
2
 10
725.3535092719001
 20
676.1622110401
 30
0
 11
725.8155092719001
 21
676.3122110401
 31
0
  0
LINE
  8
1
 62
2
 10
725.0070092719001
 20
675.8622110401
 30
0
 11
725.3535092719001
 21
676.1622110401
 31
0
  0
LINE
  8
1
 62
2
 10
724.7760092719001
 20
675.4122110401
 30
0
 11
725.0070092719001
 21
675.8622110401
 31
0
  0
LINE
  8
1
 62
2
 10
723.3900092719
 20
676.3122110401
 30
0
 11
723.3900092719
 21
670.3122110401
 31
0
  0
LINE
  8
1
 62
2
 10
722.0040092719
 20
674.5122110401001
 30
0
 11
723.3900092719
 21
676.3122110401
 31
0
  0
LINE
  8
1
 62
2
 10
694.7058438667
 20
674.9622110401
 30
0
 11
695.9763438667
 21
676.3122110401
 31
0
  0
LINE
  8
1
 62
2
 10
694.2438438667
 20
674.2122110401
 30
0
 11
694.7058438667
 21
674.9622110401
 31
0
  0
LINE
  8
1
 62
2
 10
694.0128438667
 20
673.6122110401
 30
0
 11
694.2438438667
 21
674.2122110401
 31
0
  0
LINE
  8
1
 62
2
 10
693.8973438667
 20
672.4122110401
 30
0
 11
694.0128438667
 21
673.6122110401
 31
0
  0
LINE
  8
1
 62
2
 10
693.8973438667
 20
671.8122110401
 30
0
 11
693.8973438667
 21
672.4122110401
 31
0
  0
LINE
  8
1
 62
2
 10
694.0128438667
 20
671.2122110401
 30
0
 11
693.8973438667
 21
671.8122110401
 31
0
  0
LINE
  8
1
 62
2
 10
694.2438438667
 20
670.7622110401001
 30
0
 11
694.0128438667
 21
671.2122110401
 31
0
  0
LINE
  8
1
 62
2
 10
694.5903438667
 20
670.4622110401
 30
0
 11
694.2438438667
 21
670.7622110401001
 31
0
  0
LINE
  8
1
 62
2
 10
694.9368438667
 20
670.3122110401
 30
0
 11
694.5903438667
 21
670.4622110401
 31
0
  0
LINE
  8
1
 62
2
 10
695.6298438667
 20
670.3122110401
 30
0
 11
694.9368438667
 21
670.3122110401
 31
0
  0
LINE
  8
1
 62
2
 10
695.9763438667
 20
670.4622110401
 30
0
 11
695.6298438667
 21
670.3122110401
 31
0
  0
LINE
  8
1
 62
2
 10
696.3228438667001
 20
670.7622110401001
 30
0
 11
695.9763438667
 21
670.4622110401
 31
0
  0
LINE
  8
1
 62
2
 10
696.5538438667001
 20
671.2122110401
 30
0
 11
696.3228438667001
 21
670.7622110401001
 31
0
  0
LINE
  8
1
 62
2
 10
696.6693438667001
 20
671.8122110401
 30
0
 11
696.5538438667001
 21
671.2122110401
 31
0
  0
LINE
  8
1
 62
2
 10
696.6693438667001
 20
672.4122110401
 30
0
 11
696.6693438667001
 21
671.8122110401
 31
0
  0
LINE
  8
1
 62
2
 10
696.5538438667001
 20
673.0122110401001
 30
0
 11
696.6693438667001
 21
672.4122110401
 31
0
  0
LINE
  8
1
 62
2
 10
696.3228438667001
 20
673.4622110401
 30
0
 11
696.5538438667001
 21
673.0122110401001
 31
0
  0
LINE
  8
1
 62
2
 10
695.9763438667
 20
673.7622110401001
 30
0
 11
696.3228438667001
 21
673.4622110401
 31
0
  0
LINE
  8
1
 62
2
 10
695.6298438667
 20
673.9122110401
 30
0
 11
695.9763438667
 21
673.7622110401001
 31
0
  0
LINE
  8
1
 62
2
 10
694.9368438667
 20
673.9122110401
 30
0
 11
695.6298438667
 21
673.9122110401
 31
0
  0
LINE
  8
1
 62
2
 10
694.5903438667
 20
673.7622110401001
 30
0
 11
694.9368438667
 21
673.9122110401
 31
0
  0
LINE
  8
1
 62
2
 10
694.2438438667
 20
673.4622110401
 30
0
 11
694.5903438667
 21
673.7622110401001
 31
0
  0
LINE
  8
1
 62
2
 10
694.0128438667
 20
673.0122110401001
 30
0
 11
694.2438438667
 21
673.4622110401
 31
0
  0
LINE
  8
1
 62
2
 10
693.8973438667
 20
672.4122110401
 30
0
 11
694.0128438667
 21
673.0122110401001
 31
0
  0
LINE
  8
1
 62
2
 10
690.2013438667001
 20
675.8622110401
 30
0
 11
690.5478438667001
 21
676.1622110401
 31
0
  0
LINE
  8
1
 62
2
 10
689.9703438667001
 20
675.4122110401
 30
0
 11
690.2013438667001
 21
675.8622110401
 31
0
  0
LINE
  8
1
 62
2
 10
689.9703438667001
 20
674.8122110401
 30
0
 11
689.9703438667001
 21
675.4122110401
 31
0
  0
LINE
  8
1
 62
2
 10
690.2013438667001
 20
674.3622110401
 30
0
 11
689.9703438667001
 21
674.8122110401
 31
0
  0
LINE
  8
1
 62
2
 10
690.5478438667001
 20
674.0622110401
 30
0
 11
690.2013438667001
 21
674.3622110401
 31
0
  0
LINE
  8
1
 62
2
 10
690.8943438667001
 20
673.9122110401
 30
0
 11
690.5478438667001
 21
674.0622110401
 31
0
  0
LINE
  8
1
 62
2
 10
691.3563438667001
 20
673.9122110401
 30
0
 11
690.8943438667001
 21
673.9122110401
 31
0
  0
LINE
  8
1
 62
2
 10
691.7028438667001
 20
674.0622110401
 30
0
 11
691.3563438667001
 21
673.9122110401
 31
0
  0
LINE
  8
1
 62
2
 10
692.0493438667
 20
674.3622110401
 30
0
 11
691.7028438667001
 21
674.0622110401
 31
0
  0
LINE
  8
1
 62
2
 10
692.2803438667002
 20
674.8122110401
 30
0
 11
692.0493438667
 21
674.3622110401
 31
0
  0
LINE
  8
1
 62
2
 10
692.2803438667002
 20
675.4122110401
 30
0
 11
692.2803438667002
 21
674.8122110401
 31
0
  0
LINE
  8
1
 62
2
 10
692.0493438667
 20
675.8622110401
 30
0
 11
692.2803438667002
 21
675.4122110401
 31
0
  0
LINE
  8
1
 62
2
 10
691.7028438667001
 20
676.1622110401
 30
0
 11
692.0493438667
 21
675.8622110401
 31
0
  0
LINE
  8
1
 62
2
 10
691.3563438667001
 20
676.3122110401
 30
0
 11
691.7028438667001
 21
676.1622110401
 31
0
  0
LINE
  8
1
 62
2
 10
690.8943438667001
 20
676.3122110401
 30
0
 11
691.3563438667001
 21
676.3122110401
 31
0
  0
LINE
  8
1
 62
2
 10
690.5478438667001
 20
676.1622110401
 30
0
 11
690.8943438667001
 21
676.3122110401
 31
0
  0
LINE
  8
1
 62
2
 10
691.9338438667
 20
673.6122110401
 30
0
 11
691.3563438667001
 21
673.9122110401
 31
0
  0
LINE
  8
1
 62
2
 10
692.2803438667002
 20
673.1622110401
 30
0
 11
691.9338438667
 21
673.6122110401
 31
0
  0
LINE
  8
1
 62
2
 10
692.5113438667001
 20
672.5622110401
 30
0
 11
692.2803438667002
 21
673.1622110401
 31
0
  0
LINE
  8
1
 62
2
 10
692.5113438667001
 20
671.6622110401
 30
0
 11
692.5113438667001
 21
672.5622110401
 31
0
  0
LINE
  8
1
 62
2
 10
692.2803438667002
 20
671.0622110401
 30
0
 11
692.5113438667001
 21
671.6622110401
 31
0
  0
LINE
  8
1
 62
2
 10
691.9338438667
 20
670.6122110401
 30
0
 11
692.2803438667002
 21
671.0622110401
 31
0
  0
LINE
  8
1
 62
2
 10
691.4718438667001
 20
670.3122110401
 30
0
 11
691.9338438667
 21
670.6122110401
 31
0
  0
LINE
  8
1
 62
2
 10
690.7788438667001
 20
670.3122110401
 30
0
 11
691.4718438667001
 21
670.3122110401
 31
0
  0
LINE
  8
1
 62
2
 10
690.3168438667001
 20
670.6122110401
 30
0
 11
690.7788438667001
 21
670.3122110401
 31
0
  0
LINE
  8
1
 62
2
 10
689.9703438667001
 20
671.0622110401
 30
0
 11
690.3168438667001
 21
670.6122110401
 31
0
  0
LINE
  8
1
 62
2
 10
689.7393438667001
 20
671.6622110401
 30
0
 11
689.9703438667001
 21
671.0622110401
 31
0
  0
LINE
  8
1
 62
2
 10
689.7393438667001
 20
672.5622110401
 30
0
 11
689.7393438667001
 21
671.6622110401
 31
0
  0
LINE
  8
1
 62
2
 10
689.9703438667001
 20
673.1622110401
 30
0
 11
689.7393438667001
 21
672.5622110401
 31
0
  0
LINE
  8
1
 62
2
 10
690.3168438667001
 20
673.6122110401
 30
0
 11
689.9703438667001
 21
673.1622110401
 31
0
  0
LINE
  8
1
 62
2
 10
690.8943438667001
 20
673.9122110401
 30
0
 11
690.3168438667001
 21
673.6122110401
 31
0
  0
LINE
  8
1
 62
2
 10
688.3533438667
 20
676.3122110401
 30
0
 11
688.3533438667
 21
670.3122110401
 31
0
  0
LINE
  8
1
 62
2
 10
686.9673438667001
 20
674.5122110401001
 30
0
 11
688.3533438667
 21
676.3122110401
 31
0
  0
LINE
  8
1
 62
2
 10
662.8631792097
 20
670.3122110401
 30
0
 11
662.8631792097
 21
676.3122110401
 31
0
  0
LINE
  8
1
 62
2
 10
663.7871792097
 20
673.3122110401
 30
0
 11
666.0971792097
 21
670.3122110401
 31
0
  0
LINE
  8
1
 62
2
 10
666.0971792097
 20
676.3122110401
 30
0
 11
662.8631792097
 21
672.1122110401
 31
0
  0
LINE
  8
1
 62
2
 10
661.4771792097
 20
674.0622110401
 30
0
 11
661.4771792097
 21
672.5622110401
 31
0
  0
LINE
  8
1
 62
2
 10
661.3616792097
 20
674.9622110401
 30
0
 11
661.4771792097
 21
674.0622110401
 31
0
  0
LINE
  8
1
 62
2
 10
661.1306792097
 20
675.5622110401
 30
0
 11
661.3616792097
 21
674.9622110401
 31
0
  0
LINE
  8
1
 62
2
 10
660.8996792096999
 20
675.8622110401
 30
0
 11
661.1306792097
 21
675.5622110401
 31
0
  0
LINE
  8
1
 62
2
 10
660.5531792096999
 20
676.1622110401
 30
0
 11
660.8996792096999
 21
675.8622110401
 31
0
  0
LINE
  8
1
 62
2
 10
660.2066792096999
 20
676.3122110401
 30
0
 11
660.5531792096999
 21
676.1622110401
 31
0
  0
LINE
  8
1
 62
2
 10
659.9756792096999
 20
676.3122110401
 30
0
 11
660.2066792096999
 21
676.3122110401
 31
0
  0
LINE
  8
1
 62
2
 10
659.6291792096999
 20
676.1622110401
 30
0
 11
659.9756792096999
 21
676.3122110401
 31
0
  0
LINE
  8
1
 62
2
 10
659.2826792097
 20
675.8622110401
 30
0
 11
659.6291792096999
 21
676.1622110401
 31
0
  0
LINE
  8
1
 62
2
 10
659.0516792097
 20
675.5622110401
 30
0
 11
659.2826792097
 21
675.8622110401
 31
0
  0
LINE
  8
1
 62
2
 10
658.8206792097
 20
674.9622110401
 30
0
 11
659.0516792097
 21
675.5622110401
 31
0
  0
LINE
  8
1
 62
2
 10
658.7051792097
 20
674.0622110401
 30
0
 11
658.8206792097
 21
674.9622110401
 31
0
  0
LINE
  8
1
 62
2
 10
658.7051792097
 20
672.5622110401
 30
0
 11
658.7051792097
 21
674.0622110401
 31
0
  0
LINE
  8
1
 62
2
 10
658.8206792097
 20
671.6622110401
 30
0
 11
658.7051792097
 21
672.5622110401
 31
0
  0
LINE
  8
1
 62
2
 10
659.0516792097
 20
671.0622110401
 30
0
 11
658.8206792097
 21
671.6622110401
 31
0
  0
LINE
  8
1
 62
2
 10
659.2826792097
 20
670.7622110401001
 30
0
 11
659.0516792097
 21
671.0622110401
 31
0
  0
LINE
  8
1
 62
2
 10
659.6291792096999
 20
670.4622110401
 30
0
 11
659.2826792097
 21
670.7622110401001
 31
0
  0
LINE
  8
1
 62
2
 10
659.9756792096999
 20
670.3122110401
 30
0
 11
659.6291792096999
 21
670.4622110401
 31
0
  0
LINE
  8
1
 62
2
 10
660.2066792096999
 20
670.3122110401
 30
0
 11
659.9756792096999
 21
670.3122110401
 31
0
  0
LINE
  8
1
 62
2
 10
660.5531792096999
 20
670.4622110401
 30
0
 11
660.2066792096999
 21
670.3122110401
 31
0
  0
LINE
  8
1
 62
2
 10
660.8996792096999
 20
670.7622110401001
 30
0
 11
660.5531792096999
 21
670.4622110401
 31
0
  0
LINE
  8
1
 62
2
 10
661.1306792097
 20
671.0622110401
 30
0
 11
660.8996792096999
 21
670.7622110401001
 31
0
  0
LINE
  8
1
 62
2
 10
661.3616792097
 20
671.6622110401
 30
0
 11
661.1306792097
 21
671.0622110401
 31
0
  0
LINE
  8
1
 62
2
 10
661.4771792097
 20
672.5622110401
 30
0
 11
661.3616792097
 21
671.6622110401
 31
0
  0
LINE
  8
1
 62
2
 10
657.3191792097
 20
676.3122110401
 30
0
 11
657.3191792097
 21
670.3122110401
 31
0
  0
LINE
  8
1
 62
2
 10
655.9331792097
 20
674.5122110401001
 30
0
 11
657.3191792097
 21
676.3122110401
 31
0
  0
LINE
  8
1
 62
2
 10
651.5441792097
 20
670.7622110401001
 30
0
 11
651.3131792097
 21
671.0622110401
 31
0
  0
LINE
  8
1
 62
2
 10
652.0061792097
 20
670.4622110401
 30
0
 11
651.5441792097
 21
670.7622110401001
 31
0
  0
LINE
  8
1
 62
2
 10
652.5836792097
 20
670.3122110401
 30
0
 11
652.0061792097
 21
670.4622110401
 31
0
  0
LINE
  8
1
 62
2
 10
653.2766792097
 20
670.3122110401
 30
0
 11
652.5836792097
 21
670.3122110401
 31
0
  0
LINE
  8
1
 62
2
 10
653.8541792097001
 20
670.4622110401
 30
0
 11
653.2766792097
 21
670.3122110401
 31
0
  0
LINE
  8
1
 62
2
 10
654.2006792097001
 20
670.7622110401001
 30
0
 11
653.8541792097001
 21
670.4622110401
 31
0
  0
LINE
  8
1
 62
2
 10
654.4316792097001
 20
671.2122110401
 30
0
 11
654.2006792097001
 21
670.7622110401001
 31
0
  0
LINE
  8
1
 62
2
 10
654.5471792097001
 20
671.6622110401
 30
0
 11
654.4316792097001
 21
671.2122110401
 31
0
  0
LINE
  8
1
 62
2
 10
654.5471792097001
 20
671.9622110401
 30
0
 11
654.5471792097001
 21
671.6622110401
 31
0
  0
LINE
  8
1
 62
2
 10
654.4316792097001
 20
672.4122110401
 30
0
 11
654.5471792097001
 21
671.9622110401
 31
0
  0
LINE
  8
1
 62
2
 10
654.2006792097001
 20
672.8622110401
 30
0
 11
654.4316792097001
 21
672.4122110401
 31
0
  0
LINE
  8
1
 62
2
 10
653.8541792097001
 20
673.1622110401
 30
0
 11
654.2006792097001
 21
672.8622110401
 31
0
  0
LINE
  8
1
 62
2
 10
651.8906792097
 20
674.2122110401
 30
0
 11
653.8541792097001
 21
673.1622110401
 31
0
  0
LINE
  8
1
 62
2
 10
651.5441792097
 20
674.5122110401001
 30
0
 11
651.8906792097
 21
674.2122110401
 31
0
  0
LINE
  8
1
 62
2
 10
651.4286792097
 20
674.9622110401
 30
0
 11
651.5441792097
 21
674.5122110401001
 31
0
  0
LINE
  8
1
 62
2
 10
651.4286792097
 20
675.2622110401001
 30
0
 11
651.4286792097
 21
674.9622110401
 31
0
  0
LINE
  8
1
 62
2
 10
651.5441792097
 20
675.7122110401
 30
0
 11
651.4286792097
 21
675.2622110401001
 31
0
  0
LINE
  8
1
 62
2
 10
651.8906792097
 20
676.0122110401001
 30
0
 11
651.5441792097
 21
675.7122110401
 31
0
  0
LINE
  8
1
 62
2
 10
652.2371792097
 20
676.1622110401
 30
0
 11
651.8906792097
 21
676.0122110401001
 31
0
  0
LINE
  8
1
 62
2
 10
652.6991792097
 20
676.3122110401
 30
0
 11
652.2371792097
 21
676.1622110401
 31
0
  0
LINE
  8
1
 62
2
 10
653.1611792097
 20
676.3122110401
 30
0
 11
652.6991792097
 21
676.3122110401
 31
0
  0
LINE
  8
1
 62
2
 10
653.7386792097001
 20
676.1622110401
 30
0
 11
653.1611792097
 21
676.3122110401
 31
0
  0
LINE
  8
1
 62
2
 10
654.0851792097001
 20
676.0122110401001
 30
0
 11
653.7386792097001
 21
676.1622110401
 31
0
  0
LINE
  8
1
 62
2
 10
654.4316792097001
 20
675.7122110401
 30
0
 11
654.0851792097001
 21
676.0122110401001
 31
0
  0
LINE
  8
1
 62
2
 10
649.9271792097001
 20
670.3122110401
 30
0
 11
649.9271792097001
 21
676.3122110401
 31
0
  0
LINE
  8
1
 62
2
 10
647.6171792097
 20
670.3122110401
 30
0
 11
646.6931792097
 21
670.3122110401
 31
0
  0
LINE
  8
1
 62
2
 10
647.9636792097
 20
670.4622110401
 30
0
 11
647.6171792097
 21
670.3122110401
 31
0
  0
LINE
  8
1
 62
2
 10
648.3101792097
 20
670.7622110401001
 30
0
 11
647.9636792097
 21
670.4622110401
 31
0
  0
LINE
  8
1
 62
2
 10
648.5411792097
 20
671.3622110401
 30
0
 11
648.3101792097
 21
670.7622110401001
 31
0
  0
LINE
  8
1
 62
2
 10
648.5411792097
 20
676.3122110401
 30
0
 11
648.5411792097
 21
671.3622110401
 31
0
  0
LINE
  8
1
 62
2
 10
833.0178390365001
 20
680.4085859589001
 30
0
 11
831.9783390365001
 21
679.8085859589
 31
0
  0
LINE
  8
1
 62
2
 10
833.8263390365
 20
681.3085859589
 30
0
 11
833.0178390365001
 21
680.4085859589001
 31
0
  0
LINE
  8
1
 62
2
 10
834.1728390365001
 20
681.9085859589001
 30
0
 11
833.8263390365
 21
681.3085859589
 31
0
  0
LINE
  8
1
 62
2
 10
834.2883390365001
 20
682.5085859589001
 30
0
 11
834.1728390365001
 21
681.9085859589001
 31
0
  0
LINE
  8
1
 62
2
 10
834.4038390365001
 20
683.2585859589001
 30
0
 11
834.2883390365001
 21
682.5085859589001
 31
0
  0
LINE
  8
1
 62
2
 10
834.4038390365001
 20
684.3085859589
 30
0
 11
834.4038390365001
 21
683.2585859589001
 31
0
  0
LINE
  8
1
 62
2
 10
834.2883390365001
 20
684.9085859589001
 30
0
 11
834.4038390365001
 21
684.3085859589
 31
0
  0
LINE
  8
1
 62
2
 10
834.0573390365001
 20
685.3585859589
 30
0
 11
834.2883390365001
 21
684.9085859589001
 31
0
  0
LINE
  8
1
 62
2
 10
833.7108390365
 20
685.6585859589001
 30
0
 11
834.0573390365001
 21
685.3585859589
 31
0
  0
LINE
  8
1
 62
2
 10
833.3643390365
 20
685.8085859589
 30
0
 11
833.7108390365
 21
685.6585859589001
 31
0
  0
LINE
  8
1
 62
2
 10
832.6713390365001
 20
685.8085859589
 30
0
 11
833.3643390365
 21
685.8085859589
 31
0
  0
LINE
  8
1
 62
2
 10
832.3248390365001
 20
685.6585859589001
 30
0
 11
832.6713390365001
 21
685.8085859589
 31
0
  0
LINE
  8
1
 62
2
 10
831.9783390365001
 20
685.3585859589
 30
0
 11
832.3248390365001
 21
685.6585859589001
 31
0
  0
LINE
  8
1
 62
2
 10
831.7473390365001
 20
684.9085859589001
 30
0
 11
831.9783390365001
 21
685.3585859589
 31
0
  0
LINE
  8
1
 62
2
 10
831.6318390365001
 20
684.3085859589
 30
0
 11
831.7473390365001
 21
684.9085859589001
 31
0
  0
LINE
  8
1
 62
2
 10
831.6318390365001
 20
684.0085859589001
 30
0
 11
831.6318390365001
 21
684.3085859589
 31
0
  0
LINE
  8
1
 62
2
 10
831.7473390365001
 20
683.4085859589001
 30
0
 11
831.6318390365001
 21
684.0085859589001
 31
0
  0
LINE
  8
1
 62
2
 10
831.9783390365001
 20
682.9585859589
 30
0
 11
831.7473390365001
 21
683.4085859589001
 31
0
  0
LINE
  8
1
 62
2
 10
832.3248390365001
 20
682.6585859589001
 30
0
 11
831.9783390365001
 21
682.9585859589
 31
0
  0
LINE
  8
1
 62
2
 10
832.6713390365001
 20
682.5085859589001
 30
0
 11
832.3248390365001
 21
682.6585859589001
 31
0
  0
LINE
  8
1
 62
2
 10
834.2883390365001
 20
682.5085859589001
 30
0
 11
832.6713390365001
 21
682.5085859589001
 31
0
  0
LINE
  8
1
 62
2
 10
830.2458390365
 20
685.8085859589
 30
0
 11
830.2458390365
 21
679.8085859589
 31
0
  0
LINE
  8
1
 62
2
 10
828.8598390365
 20
684.0085859589001
 30
0
 11
830.2458390365
 21
685.8085859589
 31
0
  0
LINE
  8
1
 62
2
 10
797.6480069482998
 20
682.2085859589
 30
0
 11
797.6480069482998
 21
679.8085859589
 31
0
  0
LINE
  8
1
 62
2
 10
795.5690069482998
 20
681.0085859589001
 30
0
 11
798.3410069482999
 21
681.0085859589001
 31
0
  0
LINE
  8
1
 62
2
 10
797.6480069482998
 20
685.8085859589
 30
0
 11
795.5690069482998
 21
681.0085859589001
 31
0
  0
LINE
  8
1
 62
2
 10
766.7426746768999
 20
683.5585859589
 30
0
 11
766.7426746768999
 21
682.0585859589
 31
0
  0
LINE
  8
1
 62
2
 10
766.6271746768999
 20
684.4585859589
 30
0
 11
766.7426746768999
 21
683.5585859589
 31
0
  0
LINE
  8
1
 62
2
 10
766.3961746768999
 20
685.0585859589
 30
0
 11
766.6271746768999
 21
684.4585859589
 31
0
  0
LINE
  8
1
 62
2
 10
766.1651746768998
 20
685.3585859589
 30
0
 11
766.3961746768999
 21
685.0585859589
 31
0
  0
LINE
  8
1
 62
2
 10
765.8186746768998
 20
685.6585859589001
 30
0
 11
766.1651746768998
 21
685.3585859589
 31
0
  0
LINE
  8
1
 62
2
 10
765.4721746768998
 20
685.8085859589
 30
0
 11
765.8186746768998
 21
685.6585859589001
 31
0
  0
LINE
  8
1
 62
2
 10
765.2411746768999
 20
685.8085859589
 30
0
 11
765.4721746768998
 21
685.8085859589
 31
0
  0
LINE
  8
1
 62
2
 10
764.8946746768999
 20
685.6585859589001
 30
0
 11
765.2411746768999
 21
685.8085859589
 31
0
  0
LINE
  8
1
 62
2
 10
764.5481746768999
 20
685.3585859589
 30
0
 11
764.8946746768999
 21
685.6585859589001
 31
0
  0
LINE
  8
1
 62
2
 10
764.3171746768999
 20
685.0585859589
 30
0
 11
764.5481746768999
 21
685.3585859589
 31
0
  0
LINE
  8
1
 62
2
 10
764.0861746768999
 20
684.4585859589
 30
0
 11
764.3171746768999
 21
685.0585859589
 31
0
  0
LINE
  8
1
 62
2
 10
763.9706746768999
 20
683.5585859589
 30
0
 11
764.0861746768999
 21
684.4585859589
 31
0
  0
LINE
  8
1
 62
2
 10
763.9706746768999
 20
682.0585859589
 30
0
 11
763.9706746768999
 21
683.5585859589
 31
0
  0
LINE
  8
1
 62
2
 10
764.0861746768999
 20
681.1585859589001
 30
0
 11
763.9706746768999
 21
682.0585859589
 31
0
  0
LINE
  8
1
 62
2
 10
764.3171746768999
 20
680.5585859589
 30
0
 11
764.0861746768999
 21
681.1585859589001
 31
0
  0
LINE
  8
1
 62
2
 10
764.5481746768999
 20
680.2585859589001
 30
0
 11
764.3171746768999
 21
680.5585859589
 31
0
  0
LINE
  8
1
 62
2
 10
764.8946746768999
 20
679.9585859589
 30
0
 11
764.5481746768999
 21
680.2585859589001
 31
0
  0
LINE
  8
1
 62
2
 10
765.2411746768999
 20
679.8085859589
 30
0
 11
764.8946746768999
 21
679.9585859589
 31
0
  0
LINE
  8
1
 62
2
 10
765.4721746768998
 20
679.8085859589
 30
0
 11
765.2411746768999
 21
679.8085859589
 31
0
  0
LINE
  8
1
 62
2
 10
765.8186746768998
 20
679.9585859589
 30
0
 11
765.4721746768998
 21
679.8085859589
 31
0
  0
LINE
  8
1
 62
2
 10
766.1651746768998
 20
680.2585859589001
 30
0
 11
765.8186746768998
 21
679.9585859589
 31
0
  0
LINE
  8
1
 62
2
 10
766.3961746768999
 20
680.5585859589
 30
0
 11
766.1651746768998
 21
680.2585859589001
 31
0
  0
LINE
  8
1
 62
2
 10
766.6271746768999
 20
681.1585859589001
 30
0
 11
766.3961746768999
 21
680.5585859589
 31
0
  0
LINE
  8
1
 62
2
 10
766.7426746768999
 20
682.0585859589
 30
0
 11
766.6271746768999
 21
681.1585859589001
 31
0
  0
LINE
  8
1
 62
2
 10
762.5846746769
 20
683.5585859589
 30
0
 11
762.5846746769
 21
682.0585859589
 31
0
  0
LINE
  8
1
 62
2
 10
762.4691746769
 20
684.4585859589
 30
0
 11
762.5846746769
 21
683.5585859589
 31
0
  0
LINE
  8
1
 62
2
 10
762.2381746769
 20
685.0585859589
 30
0
 11
762.4691746769
 21
684.4585859589
 31
0
  0
LINE
  8
1
 62
2
 10
762.0071746768999
 20
685.3585859589
 30
0
 11
762.2381746769
 21
685.0585859589
 31
0
  0
LINE
  8
1
 62
2
 10
761.6606746768999
 20
685.6585859589001
 30
0
 11
762.0071746768999
 21
685.3585859589
 31
0
  0
LINE
  8
1
 62
2
 10
761.3141746768999
 20
685.8085859589
 30
0
 11
761.6606746768999
 21
685.6585859589001
 31
0
  0
LINE
  8
1
 62
2
 10
761.0831746768999
 20
685.8085859589
 30
0
 11
761.3141746768999
 21
685.8085859589
 31
0
  0
LINE
  8
1
 62
2
 10
760.7366746769
 20
685.6585859589001
 30
0
 11
761.0831746768999
 21
685.8085859589
 31
0
  0
LINE
  8
1
 62
2
 10
760.3901746769
 20
685.3585859589
 30
0
 11
760.7366746769
 21
685.6585859589001
 31
0
  0
LINE
  8
1
 62
2
 10
760.1591746769
 20
685.0585859589
 30
0
 11
760.3901746769
 21
685.3585859589
 31
0
  0
LINE
  8
1
 62
2
 10
759.9281746769
 20
684.4585859589
 30
0
 11
760.1591746769
 21
685.0585859589
 31
0
  0
LINE
  8
1
 62
2
 10
759.8126746769
 20
683.5585859589
 30
0
 11
759.9281746769
 21
684.4585859589
 31
0
  0
LINE
  8
1
 62
2
 10
759.8126746769
 20
682.0585859589
 30
0
 11
759.8126746769
 21
683.5585859589
 31
0
  0
LINE
  8
1
 62
2
 10
759.9281746769
 20
681.1585859589001
 30
0
 11
759.8126746769
 21
682.0585859589
 31
0
  0
LINE
  8
1
 62
2
 10
760.1591746769
 20
680.5585859589
 30
0
 11
759.9281746769
 21
681.1585859589001
 31
0
  0
LINE
  8
1
 62
2
 10
760.3901746769
 20
680.2585859589001
 30
0
 11
760.1591746769
 21
680.5585859589
 31
0
  0
LINE
  8
1
 62
2
 10
760.7366746769
 20
679.9585859589
 30
0
 11
760.3901746769
 21
680.2585859589001
 31
0
  0
LINE
  8
1
 62
2
 10
761.0831746768999
 20
679.8085859589
 30
0
 11
760.7366746769
 21
679.9585859589
 31
0
  0
LINE
  8
1
 62
2
 10
761.3141746768999
 20
679.8085859589
 30
0
 11
761.0831746768999
 21
679.8085859589
 31
0
  0
LINE
  8
1
 62
2
 10
761.6606746768999
 20
679.9585859589
 30
0
 11
761.3141746768999
 21
679.8085859589
 31
0
  0
LINE
  8
1
 62
2
 10
762.0071746768999
 20
680.2585859589001
 30
0
 11
761.6606746768999
 21
679.9585859589
 31
0
  0
LINE
  8
1
 62
2
 10
762.2381746769
 20
680.5585859589
 30
0
 11
762.0071746768999
 21
680.2585859589001
 31
0
  0
LINE
  8
1
 62
2
 10
762.4691746769
 20
681.1585859589001
 30
0
 11
762.2381746769
 21
680.5585859589
 31
0
  0
LINE
  8
1
 62
2
 10
762.5846746769
 20
682.0585859589
 30
0
 11
762.4691746769
 21
681.1585859589001
 31
0
  0
LINE
  8
1
 62
2
 10
758.4266746768999
 20
685.8085859589
 30
0
 11
758.4266746768999
 21
679.8085859589
 31
0
  0
LINE
  8
1
 62
2
 10
757.0406746768999
 20
684.0085859589001
 30
0
 11
758.4266746768999
 21
685.8085859589
 31
0
  0
LINE
  8
1
 62
2
 10
730.6665092718999
 20
679.8085859589
 30
0
 11
728.9340092719
 21
679.8085859589
 31
0
  0
LINE
  8
1
 62
2
 10
731.0130092718999
 20
679.9585859589
 30
0
 11
730.6665092718999
 21
679.8085859589
 31
0
  0
LINE
  8
1
 62
2
 10
731.3595092719
 20
680.2585859589001
 30
0
 11
731.0130092718999
 21
679.9585859589
 31
0
  0
LINE
  8
1
 62
2
 10
731.5905092719
 20
680.7085859589
 30
0
 11
731.3595092719
 21
680.2585859589001
 31
0
  0
LINE
  8
1
 62
2
 10
731.7060092719
 20
681.3085859589
 30
0
 11
731.5905092719
 21
680.7085859589
 31
0
  0
LINE
  8
1
 62
2
 10
731.7060092719
 20
682.0585859589
 30
0
 11
731.7060092719
 21
681.3085859589
 31
0
  0
LINE
  8
1
 62
2
 10
731.5905092719
 20
682.6585859589001
 30
0
 11
731.7060092719
 21
682.0585859589
 31
0
  0
LINE
  8
1
 62
2
 10
731.4750092719
 20
682.9585859589
 30
0
 11
731.5905092719
 21
682.6585859589001
 31
0
  0
LINE
  8
1
 62
2
 10
731.2440092718999
 20
683.2585859589001
 30
0
 11
731.4750092719
 21
682.9585859589
 31
0
  0
LINE
  8
1
 62
2
 10
730.7820092718999
 20
683.4085859589001
 30
0
 11
731.2440092718999
 21
683.2585859589001
 31
0
  0
LINE
  8
1
 62
2
 10
731.1285092718999
 20
683.5585859589
 30
0
 11
730.7820092718999
 21
683.4085859589001
 31
0
  0
LINE
  8
1
 62
2
 10
731.3595092719
 20
683.7085859589
 30
0
 11
731.1285092718999
 21
683.5585859589
 31
0
  0
LINE
  8
1
 62
2
 10
731.5905092719
 20
684.0085859589001
 30
0
 11
731.3595092719
 21
683.7085859589
 31
0
  0
LINE
  8
1
 62
2
 10
731.7060092719
 20
684.4585859589
 30
0
 11
731.5905092719
 21
684.0085859589001
 31
0
  0
LINE
  8
1
 62
2
 10
731.7060092719
 20
684.9085859589001
 30
0
 11
731.7060092719
 21
684.4585859589
 31
0
  0
LINE
  8
1
 62
2
 10
731.5905092719
 20
685.3585859589
 30
0
 11
731.7060092719
 21
684.9085859589001
 31
0
  0
LINE
  8
1
 62
2
 10
731.2440092718999
 20
685.6585859589001
 30
0
 11
731.5905092719
 21
685.3585859589
 31
0
  0
LINE
  8
1
 62
2
 10
730.6665092718999
 20
685.8085859589
 30
0
 11
731.2440092718999
 21
685.6585859589001
 31
0
  0
LINE
  8
1
 62
2
 10
728.9340092719
 20
685.8085859589
 30
0
 11
730.6665092718999
 21
685.8085859589
 31
0
  0
LINE
  8
1
 62
2
 10
729.6270092719
 20
683.4085859589001
 30
0
 11
730.7820092718999
 21
683.4085859589001
 31
0
  0
LINE
  8
1
 62
2
 10
726.8550092719
 20
682.2085859589
 30
0
 11
726.8550092719
 21
679.8085859589
 31
0
  0
LINE
  8
1
 62
2
 10
724.7760092719001
 20
681.0085859589001
 30
0
 11
727.5480092719001
 21
681.0085859589001
 31
0
  0
LINE
  8
1
 62
2
 10
726.8550092719
 20
685.8085859589
 30
0
 11
724.7760092719001
 21
681.0085859589001
 31
0
  0
LINE
  8
1
 62
2
 10
723.3900092719
 20
685.8085859589
 30
0
 11
723.3900092719
 21
679.8085859589
 31
0
  0
LINE
  8
1
 62
2
 10
722.0040092719
 20
684.0085859589001
 30
0
 11
723.3900092719
 21
685.8085859589
 31
0
  0
LINE
  8
1
 62
2
 10
694.7058438667
 20
684.4585859589
 30
0
 11
695.9763438667
 21
685.8085859589
 31
0
  0
LINE
  8
1
 62
2
 10
694.2438438667
 20
683.7085859589
 30
0
 11
694.7058438667
 21
684.4585859589
 31
0
  0
LINE
  8
1
 62
2
 10
694.0128438667
 20
683.1085859589
 30
0
 11
694.2438438667
 21
683.7085859589
 31
0
  0
LINE
  8
1
 62
2
 10
693.8973438667
 20
681.9085859589001
 30
0
 11
694.0128438667
 21
683.1085859589
 31
0
  0
LINE
  8
1
 62
2
 10
693.8973438667
 20
681.3085859589
 30
0
 11
693.8973438667
 21
681.9085859589001
 31
0
  0
LINE
  8
1
 62
2
 10
694.0128438667
 20
680.7085859589
 30
0
 11
693.8973438667
 21
681.3085859589
 31
0
  0
LINE
  8
1
 62
2
 10
694.2438438667
 20
680.2585859589001
 30
0
 11
694.0128438667
 21
680.7085859589
 31
0
  0
LINE
  8
1
 62
2
 10
694.5903438667
 20
679.9585859589
 30
0
 11
694.2438438667
 21
680.2585859589001
 31
0
  0
LINE
  8
1
 62
2
 10
694.9368438667
 20
679.8085859589
 30
0
 11
694.5903438667
 21
679.9585859589
 31
0
  0
LINE
  8
1
 62
2
 10
695.6298438667
 20
679.8085859589
 30
0
 11
694.9368438667
 21
679.8085859589
 31
0
  0
LINE
  8
1
 62
2
 10
695.9763438667
 20
679.9585859589
 30
0
 11
695.6298438667
 21
679.8085859589
 31
0
  0
LINE
  8
1
 62
2
 10
696.3228438667001
 20
680.2585859589001
 30
0
 11
695.9763438667
 21
679.9585859589
 31
0
  0
LINE
  8
1
 62
2
 10
696.5538438667001
 20
680.7085859589
 30
0
 11
696.3228438667001
 21
680.2585859589001
 31
0
  0
LINE
  8
1
 62
2
 10
696.6693438667001
 20
681.3085859589
 30
0
 11
696.5538438667001
 21
680.7085859589
 31
0
  0
LINE
  8
1
 62
2
 10
696.6693438667001
 20
681.9085859589001
 30
0
 11
696.6693438667001
 21
681.3085859589
 31
0
  0
LINE
  8
1
 62
2
 10
696.5538438667001
 20
682.5085859589001
 30
0
 11
696.6693438667001
 21
681.9085859589001
 31
0
  0
LINE
  8
1
 62
2
 10
696.3228438667001
 20
682.9585859589
 30
0
 11
696.5538438667001
 21
682.5085859589001
 31
0
  0
LINE
  8
1
 62
2
 10
695.9763438667
 20
683.2585859589001
 30
0
 11
696.3228438667001
 21
682.9585859589
 31
0
  0
LINE
  8
1
 62
2
 10
695.6298438667
 20
683.4085859589001
 30
0
 11
695.9763438667
 21
683.2585859589001
 31
0
  0
LINE
  8
1
 62
2
 10
694.9368438667
 20
683.4085859589001
 30
0
 11
695.6298438667
 21
683.4085859589001
 31
0
  0
LINE
  8
1
 62
2
 10
694.5903438667
 20
683.2585859589001
 30
0
 11
694.9368438667
 21
683.4085859589001
 31
0
  0
LINE
  8
1
 62
2
 10
694.2438438667
 20
682.9585859589
 30
0
 11
694.5903438667
 21
683.2585859589001
 31
0
  0
LINE
  8
1
 62
2
 10
694.0128438667
 20
682.5085859589001
 30
0
 11
694.2438438667
 21
682.9585859589
 31
0
  0
LINE
  8
1
 62
2
 10
693.8973438667
 20
681.9085859589001
 30
0
 11
694.0128438667
 21
682.5085859589001
 31
0
  0
LINE
  8
1
 62
2
 10
690.2013438667001
 20
685.3585859589
 30
0
 11
690.5478438667001
 21
685.6585859589001
 31
0
  0
LINE
  8
1
 62
2
 10
689.9703438667001
 20
684.9085859589001
 30
0
 11
690.2013438667001
 21
685.3585859589
 31
0
  0
LINE
  8
1
 62
2
 10
689.9703438667001
 20
684.3085859589
 30
0
 11
689.9703438667001
 21
684.9085859589001
 31
0
  0
LINE
  8
1
 62
2
 10
690.2013438667001
 20
683.8585859589
 30
0
 11
689.9703438667001
 21
684.3085859589
 31
0
  0
LINE
  8
1
 62
2
 10
690.5478438667001
 20
683.5585859589
 30
0
 11
690.2013438667001
 21
683.8585859589
 31
0
  0
LINE
  8
1
 62
2
 10
690.8943438667001
 20
683.4085859589001
 30
0
 11
690.5478438667001
 21
683.5585859589
 31
0
  0
LINE
  8
1
 62
2
 10
691.3563438667001
 20
683.4085859589001
 30
0
 11
690.8943438667001
 21
683.4085859589001
 31
0
  0
LINE
  8
1
 62
2
 10
691.7028438667001
 20
683.5585859589
 30
0
 11
691.3563438667001
 21
683.4085859589001
 31
0
  0
LINE
  8
1
 62
2
 10
692.0493438667
 20
683.8585859589
 30
0
 11
691.7028438667001
 21
683.5585859589
 31
0
  0
LINE
  8
1
 62
2
 10
692.2803438667002
 20
684.3085859589
 30
0
 11
692.0493438667
 21
683.8585859589
 31
0
  0
LINE
  8
1
 62
2
 10
692.2803438667002
 20
684.9085859589001
 30
0
 11
692.2803438667002
 21
684.3085859589
 31
0
  0
LINE
  8
1
 62
2
 10
692.0493438667
 20
685.3585859589
 30
0
 11
692.2803438667002
 21
684.9085859589001
 31
0
  0
LINE
  8
1
 62
2
 10
691.7028438667001
 20
685.6585859589001
 30
0
 11
692.0493438667
 21
685.3585859589
 31
0
  0
LINE
  8
1
 62
2
 10
691.3563438667001
 20
685.8085859589
 30
0
 11
691.7028438667001
 21
685.6585859589001
 31
0
  0
LINE
  8
1
 62
2
 10
690.8943438667001
 20
685.8085859589
 30
0
 11
691.3563438667001
 21
685.8085859589
 31
0
  0
LINE
  8
1
 62
2
 10
690.5478438667001
 20
685.6585859589001
 30
0
 11
690.8943438667001
 21
685.8085859589
 31
0
  0
LINE
  8
1
 62
2
 10
691.9338438667
 20
683.1085859589
 30
0
 11
691.3563438667001
 21
683.4085859589001
 31
0
  0
LINE
  8
1
 62
2
 10
692.2803438667002
 20
682.6585859589001
 30
0
 11
691.9338438667
 21
683.1085859589
 31
0
  0
LINE
  8
1
 62
2
 10
692.5113438667001
 20
682.0585859589
 30
0
 11
692.2803438667002
 21
682.6585859589001
 31
0
  0
LINE
  8
1
 62
2
 10
692.5113438667001
 20
681.1585859589001
 30
0
 11
692.5113438667001
 21
682.0585859589
 31
0
  0
LINE
  8
1
 62
2
 10
692.2803438667002
 20
680.5585859589
 30
0
 11
692.5113438667001
 21
681.1585859589001
 31
0
  0
LINE
  8
1
 62
2
 10
691.9338438667
 20
680.1085859589
 30
0
 11
692.2803438667002
 21
680.5585859589
 31
0
  0
LINE
  8
1
 62
2
 10
691.4718438667001
 20
679.8085859589
 30
0
 11
691.9338438667
 21
680.1085859589
 31
0
  0
LINE
  8
1
 62
2
 10
690.7788438667001
 20
679.8085859589
 30
0
 11
691.4718438667001
 21
679.8085859589
 31
0
  0
LINE
  8
1
 62
2
 10
690.3168438667001
 20
680.1085859589
 30
0
 11
690.7788438667001
 21
679.8085859589
 31
0
  0
LINE
  8
1
 62
2
 10
689.9703438667001
 20
680.5585859589
 30
0
 11
690.3168438667001
 21
680.1085859589
 31
0
  0
LINE
  8
1
 62
2
 10
689.7393438667001
 20
681.1585859589001
 30
0
 11
689.9703438667001
 21
680.5585859589
 31
0
  0
LINE
  8
1
 62
2
 10
689.7393438667001
 20
682.0585859589
 30
0
 11
689.7393438667001
 21
681.1585859589001
 31
0
  0
LINE
  8
1
 62
2
 10
689.9703438667001
 20
682.6585859589001
 30
0
 11
689.7393438667001
 21
682.0585859589
 31
0
  0
LINE
  8
1
 62
2
 10
690.3168438667001
 20
683.1085859589
 30
0
 11
689.9703438667001
 21
682.6585859589001
 31
0
  0
LINE
  8
1
 62
2
 10
690.8943438667001
 20
683.4085859589001
 30
0
 11
690.3168438667001
 21
683.1085859589
 31
0
  0
LINE
  8
1
 62
2
 10
688.3533438667
 20
685.8085859589
 30
0
 11
688.3533438667
 21
679.8085859589
 31
0
  0
LINE
  8
1
 62
2
 10
686.9673438667001
 20
684.0085859589001
 30
0
 11
688.3533438667
 21
685.8085859589
 31
0
  0
LINE
  8
1
 62
2
 10
659.0171983188764
 20
681.4085859589001
 30
0
 11
659.9683747894646
 21
680.0085859589001
 31
0
  0
LINE
  8
1
 62
2
 10
658.3377865541705
 20
683.0085859589001
 30
0
 11
659.0171983188764
 21
681.4085859589001
 31
0
  0
LINE
  8
1
 62
2
 10
657.7942571424057
 20
685.2085859589
 30
0
 11
658.3377865541705
 21
683.0085859589001
 31
0
  0
LINE
  8
1
 62
2
 10
659.6966100835823
 20
685.2085859589
 30
0
 11
658.6095512600529
 21
683.2085859589
 31
0
  0
LINE
  8
1
 62
2
 10
656.5713159659352
 20
681.6085859589
 30
0
 11
655.7560218482881
 21
680.2085859589
 31
0
  0
LINE
  8
1
 62
2
 10
656.9789630247587
 20
683.0085859589001
 30
0
 11
656.5713159659352
 21
681.6085859589
 31
0
  0
LINE
  8
1
 62
2
 10
657.1148453776999
 20
684.6085859589
 30
0
 11
656.9789630247587
 21
683.0085859589001
 31
0
  0
LINE
  8
1
 62
2
 10
655.7560218482881
 20
684.6085859589
 30
0
 11
657.1148453776999
 21
684.6085859589
 31
0
  0
LINE
  8
1
 62
2
 10
657.7942571424057
 20
679.6085859589
 30
0
 11
656.8430806718176
 21
680.4085859589001
 31
0
  0
LINE
  8
1
 62
2
 10
657.7942571424057
 20
685.8085859589
 30
0
 11
657.7942571424057
 21
679.6085859589
 31
0
  0
LINE
  8
1
 62
2
 10
650.3207277306411
 20
679.8085859589
 30
0
 11
654.3971983188765
 21
679.8085859589
 31
0
  0
LINE
  8
1
 62
2
 10
651.9513159659352
 20
685.6085859589
 30
0
 11
651.9513159659352
 21
679.8085859589
 31
0
  0
LINE
  8
1
 62
2
 10
651.9513159659352
 20
683.8085859589
 30
0
 11
654.1254336129941
 21
683.8085859589
 31
0
  0
LINE
  8
1
 62
2
 10
839.6438884046411
 20
692.8611519153001
 30
0
 11
839.1818884046411
 21
691.6611519153
 31
0
  0
LINE
  8
1
 62
2
 10
839.8748884046411
 20
694.0611519153
 30
0
 11
839.6438884046411
 21
692.8611519153001
 31
0
  0
LINE
  8
1
 62
2
 10
839.8748884046411
 20
695.2611519153001
 30
0
 11
839.8748884046411
 21
694.0611519153
 31
0
  0
LINE
  8
1
 62
2
 10
839.6438884046411
 20
696.4611519153
 30
0
 11
839.8748884046411
 21
695.2611519153001
 31
0
  0
LINE
  8
1
 62
2
 10
839.1818884046411
 20
697.6611519153
 30
0
 11
839.6438884046411
 21
696.4611519153
 31
0
  0
LINE
  8
1
 62
2
 10
834.9695354634646
 20
691.6611519153
 30
0
 11
837.9589472281705
 21
691.6611519153
 31
0
  0
LINE
  8
1
 62
2
 10
836.4642413458175
 20
694.4611519153
 30
0
 11
836.4642413458175
 21
691.6611519153
 31
0
  0
LINE
  8
1
 62
2
 10
835.1054178164058
 20
693.4611519153
 30
0
 11
837.8230648752293
 21
693.4611519153
 31
0
  0
LINE
  8
1
 62
2
 10
837.0077707575822
 20
695.0611519153
 30
0
 11
837.9589472281705
 21
694.6611519153
 31
0
  0
LINE
  8
1
 62
2
 10
836.0565942869939
 20
695.8611519153001
 30
0
 11
837.0077707575822
 21
695.0611519153
 31
0
  0
LINE
  8
1
 62
2
 10
835.3771825222881
 20
697.0611519153
 30
0
 11
836.0565942869939
 21
695.8611519153001
 31
0
  0
LINE
  8
1
 62
2
 10
836.1924766399352
 20
695.2611519153001
 30
0
 11
834.9695354634646
 21
694.6611519153
 31
0
  0
LINE
  8
1
 62
2
 10
837.1436531105234
 20
696.2611519153001
 30
0
 11
836.1924766399352
 21
695.2611519153001
 31
0
  0
LINE
  8
1
 62
2
 10
837.6871825222881
 20
697.4611519153
 30
0
 11
837.1436531105234
 21
696.2611519153001
 31
0
  0
LINE
  8
1
 62
2
 10
835.2413001693469
 20
697.4611519153
 30
0
 11
837.6871825222881
 21
697.4611519153
 31
0
  0
LINE
  8
1
 62
2
 10
834.4260060516998
 20
694.6611519153
 30
0
 11
834.4260060516998
 21
691.6611519153
 31
0
  0
LINE
  8
1
 62
2
 10
834.6977707575823
 20
695.8611519153001
 30
0
 11
834.1542413458175
 21
693.4611519153
 31
0
  0
LINE
  8
1
 62
2
 10
834.6977707575823
 20
697.4611519153
 30
0
 11
834.1542413458175
 21
695.8611519153001
 31
0
  0
LINE
  8
1
 62
2
 10
831.7083589928764
 20
693.2611519153001
 30
0
 11
832.5236531105235
 21
691.6611519153
 31
0
  0
LINE
  8
1
 62
2
 10
831.3007119340529
 20
695.4611519153
 30
0
 11
831.7083589928764
 21
693.2611519153001
 31
0
  0
LINE
  8
1
 62
2
 10
829.5342413458176
 20
695.4611519153
 30
0
 11
831.3007119340529
 21
695.4611519153
 31
0
  0
LINE
  8
1
 62
2
 10
829.5342413458176
 20
694.6611519153
 30
0
 11
828.4471825222881
 21
691.6611519153
 31
0
  0
LINE
  8
1
 62
2
 10
832.5236531105235
 20
696.8611519153001
 30
0
 11
832.2518884046411
 21
695.4611519153
 31
0
  0
LINE
  8
1
 62
2
 10
828.4471825222881
 20
696.8611519153001
 30
0
 11
832.5236531105235
 21
696.8611519153001
 31
0
  0
LINE
  8
1
 62
2
 10
828.4471825222881
 20
695.4611519153
 30
0
 11
828.4471825222881
 21
696.8611519153001
 31
0
  0
LINE
  8
1
 62
2
 10
830.4854178164057
 20
697.6611519153
 30
0
 11
830.4854178164057
 21
696.8611519153001
 31
0
  0
LINE
  8
1
 62
2
 10
826.4633001693469
 20
692.8611519153001
 30
0
 11
826.9253001693469
 21
691.6611519153
 31
0
  0
LINE
  8
1
 62
2
 10
826.2323001693469
 20
694.0611519153
 30
0
 11
826.4633001693469
 21
692.8611519153001
 31
0
  0
LINE
  8
1
 62
2
 10
826.2323001693469
 20
695.2611519153001
 30
0
 11
826.2323001693469
 21
694.0611519153
 31
0
  0
LINE
  8
1
 62
2
 10
826.4633001693469
 20
696.4611519153
 30
0
 11
826.2323001693469
 21
695.2611519153001
 31
0
  0
LINE
  8
1
 62
2
 10
826.9253001693469
 20
697.6611519153
 30
0
 11
826.4633001693469
 21
696.4611519153
 31
0
  0
LINE
  8
1
 62
2
 10
824.8463001693469
 20
691.6611519153
 30
0
 11
824.8463001693469
 21
697.6611519153
 31
0
  0
LINE
  8
1
 62
2
 10
823.1138001693469
 20
691.6611519153
 30
0
 11
824.8463001693469
 21
691.6611519153
 31
0
  0
LINE
  8
1
 62
2
 10
822.6518001693469
 20
691.8111519153
 30
0
 11
823.1138001693469
 21
691.6611519153
 31
0
  0
LINE
  8
1
 62
2
 10
822.4208001693469
 20
691.9611519153
 30
0
 11
822.6518001693469
 21
691.8111519153
 31
0
  0
LINE
  8
1
 62
2
 10
822.1898001693469
 20
692.2611519153001
 30
0
 11
822.4208001693469
 21
691.9611519153
 31
0
  0
LINE
  8
1
 62
2
 10
822.0743001693469
 20
692.8611519153001
 30
0
 11
822.1898001693469
 21
692.2611519153001
 31
0
  0
LINE
  8
1
 62
2
 10
822.0743001693469
 20
694.6611519153
 30
0
 11
822.0743001693469
 21
692.8611519153001
 31
0
  0
LINE
  8
1
 62
2
 10
822.1898001693469
 20
695.2611519153001
 30
0
 11
822.0743001693469
 21
694.6611519153
 31
0
  0
LINE
  8
1
 62
2
 10
822.4208001693469
 20
695.5611519153
 30
0
 11
822.1898001693469
 21
695.2611519153001
 31
0
  0
LINE
  8
1
 62
2
 10
822.6518001693469
 20
695.7111519153
 30
0
 11
822.4208001693469
 21
695.5611519153
 31
0
  0
LINE
  8
1
 62
2
 10
823.1138001693469
 20
695.8611519153001
 30
0
 11
822.6518001693469
 21
695.7111519153
 31
0
  0
LINE
  8
1
 62
2
 10
824.8463001693469
 20
695.8611519153001
 30
0
 11
823.1138001693469
 21
695.8611519153001
 31
0
  0
LINE
  8
1
 62
2
 10
819.4925354634646
 20
696.8611519153001
 30
0
 11
818.1337119340528
 21
690.0611519153
 31
0
  0
LINE
  8
1
 62
2
 10
819.7643001693469
 20
695.2611519153001
 30
0
 11
819.2207707575823
 21
695.4611519153
 31
0
  0
LINE
  8
1
 62
2
 10
820.0360648752293
 20
694.8611519153001
 30
0
 11
819.7643001693469
 21
695.2611519153001
 31
0
  0
LINE
  8
1
 62
2
 10
820.1719472281704
 20
694.2611519153001
 30
0
 11
820.0360648752293
 21
694.8611519153001
 31
0
  0
LINE
  8
1
 62
2
 10
820.1719472281704
 20
693.2611519153001
 30
0
 11
820.1719472281704
 21
694.2611519153001
 31
0
  0
LINE
  8
1
 62
2
 10
819.9001825222881
 20
692.4611519153
 30
0
 11
820.1719472281704
 21
693.2611519153001
 31
0
  0
LINE
  8
1
 62
2
 10
819.6284178164058
 20
692.0611519153
 30
0
 11
819.9001825222881
 21
692.4611519153
 31
0
  0
LINE
  8
1
 62
2
 10
819.0848884046411
 20
691.6611519153
 30
0
 11
819.6284178164058
 21
692.0611519153
 31
0
  0
LINE
  8
1
 62
2
 10
818.5413589928763
 20
691.4611519153
 30
0
 11
819.0848884046411
 21
691.6611519153
 31
0
  0
LINE
  8
1
 62
2
 10
818.1337119340528
 20
691.6611519153
 30
0
 11
818.5413589928763
 21
691.4611519153
 31
0
  0
LINE
  8
1
 62
2
 10
817.7260648752293
 20
692.0611519153
 30
0
 11
818.1337119340528
 21
691.6611519153
 31
0
  0
LINE
  8
1
 62
2
 10
817.5901825222882
 20
692.6611519153
 30
0
 11
817.7260648752293
 21
692.0611519153
 31
0
  0
LINE
  8
1
 62
2
 10
817.5901825222882
 20
693.4611519153
 30
0
 11
817.5901825222882
 21
692.6611519153
 31
0
  0
LINE
  8
1
 62
2
 10
817.7260648752293
 20
694.0611519153
 30
0
 11
817.5901825222882
 21
693.4611519153
 31
0
  0
LINE
  8
1
 62
2
 10
818.1337119340528
 20
694.6611519153
 30
0
 11
817.7260648752293
 21
694.0611519153
 31
0
  0
LINE
  8
1
 62
2
 10
818.5413589928763
 20
695.0611519153
 30
0
 11
818.1337119340528
 21
694.6611519153
 31
0
  0
LINE
  8
1
 62
2
 10
819.2207707575823
 20
695.4611519153
 30
0
 11
818.5413589928763
 21
695.0611519153
 31
0
  0
LINE
  8
1
 62
2
 10
800.2514281337941
 20
692.8611519153001
 30
0
 11
799.7894281337941
 21
691.6611519153
 31
0
  0
LINE
  8
1
 62
2
 10
800.4824281337941
 20
694.0611519153
 30
0
 11
800.2514281337941
 21
692.8611519153001
 31
0
  0
LINE
  8
1
 62
2
 10
800.4824281337941
 20
695.2611519153001
 30
0
 11
800.4824281337941
 21
694.0611519153
 31
0
  0
LINE
  8
1
 62
2
 10
800.2514281337941
 20
696.4611519153
 30
0
 11
800.4824281337941
 21
695.2611519153001
 31
0
  0
LINE
  8
1
 62
2
 10
799.7894281337941
 20
697.6611519153
 30
0
 11
800.2514281337941
 21
696.4611519153
 31
0
  0
LINE
  8
1
 62
2
 10
797.8870751926177
 20
693.0611519153
 30
0
 11
798.5664869573236
 21
691.8611519153001
 31
0
  0
LINE
  8
1
 62
2
 10
797.343545780853
 20
694.4611519153
 30
0
 11
797.8870751926177
 21
693.0611519153
 31
0
  0
LINE
  8
1
 62
2
 10
797.0717810749707
 20
696.0611519153
 30
0
 11
797.343545780853
 21
694.4611519153
 31
0
  0
LINE
  8
1
 62
2
 10
797.2076634279118
 20
693.0611519153
 30
0
 11
796.3923693102647
 21
691.6611519153
 31
0
  0
LINE
  8
1
 62
2
 10
797.8870751926177
 20
694.6611519153
 30
0
 11
797.2076634279118
 21
693.0611519153
 31
0
  0
LINE
  8
1
 62
2
 10
798.1588398985
 20
696.6611519153
 30
0
 11
797.8870751926177
 21
694.6611519153
 31
0
  0
LINE
  8
1
 62
2
 10
797.2076634279118
 20
696.6611519153
 30
0
 11
798.5664869573236
 21
696.6611519153
 31
0
  0
LINE
  8
1
 62
2
 10
797.0717810749707
 20
696.0611519153
 30
0
 11
796.6641340161471
 21
694.8611519153001
 31
0
  0
LINE
  8
1
 62
2
 10
797.2076634279118
 20
696.6611519153
 30
0
 11
797.0717810749707
 21
696.0611519153
 31
0
  0
LINE
  8
1
 62
2
 10
797.2076634279118
 20
697.6611519153
 30
0
 11
797.2076634279118
 21
696.6611519153
 31
0
  0
LINE
  8
1
 62
2
 10
794.4900163690883
 20
694.0611519153
 30
0
 11
796.8000163690883
 21
694.0611519153
 31
0
  0
LINE
  8
1
 62
2
 10
795.7129575455589
 20
692.6611519153
 30
0
 11
794.6258987220294
 21
691.6611519153
 31
0
  0
LINE
  8
1
 62
2
 10
796.3923693102647
 20
694.0611519153
 30
0
 11
795.7129575455589
 21
692.6611519153
 31
0
  0
LINE
  8
1
 62
2
 10
794.7617810749706
 20
693.0611519153
 30
0
 11
796.3923693102647
 21
692.2611519153001
 31
0
  0
LINE
  8
1
 62
2
 10
795.4411928396766
 20
694.4611519153
 30
0
 11
794.7617810749706
 21
693.0611519153
 31
0
  0
LINE
  8
1
 62
2
 10
795.5770751926177
 20
696.4611519153
 30
0
 11
796.5282516632059
 21
695.0611519153
 31
0
  0
LINE
  8
1
 62
2
 10
795.5770751926177
 20
696.4611519153
 30
0
 11
794.4900163690883
 21
694.6611519153
 31
0
  0
LINE
  8
1
 62
2
 10
795.5770751926177
 20
697.6611519153
 30
0
 11
795.5770751926177
 21
694.8611519153001
 31
0
  0
LINE
  8
1
 62
2
 10
794.4900163690883
 20
696.4611519153
 30
0
 11
796.6641340161471
 21
696.4611519153
 31
0
  0
LINE
  8
1
 62
2
 10
796.5282516632059
 20
697.2611519153001
 30
0
 11
795.9847222514412
 21
696.6611519153
 31
0
  0
LINE
  8
1
 62
2
 10
794.7617810749706
 20
697.2611519153001
 30
0
 11
795.1694281337942
 21
696.6611519153
 31
0
  0
LINE
  8
1
 62
2
 10
792.506134016147
 20
692.8611519153001
 30
0
 11
792.968134016147
 21
691.6611519153
 31
0
  0
LINE
  8
1
 62
2
 10
792.275134016147
 20
694.0611519153
 30
0
 11
792.506134016147
 21
692.8611519153001
 31
0
  0
LINE
  8
1
 62
2
 10
792.275134016147
 20
695.2611519153001
 30
0
 11
792.275134016147
 21
694.0611519153
 31
0
  0
LINE
  8
1
 62
2
 10
792.506134016147
 20
696.4611519153
 30
0
 11
792.275134016147
 21
695.2611519153001
 31
0
  0
LINE
  8
1
 62
2
 10
792.968134016147
 20
697.6611519153
 30
0
 11
792.506134016147
 21
696.4611519153
 31
0
  0
LINE
  8
1
 62
2
 10
789.9651340161471
 20
695.0611519153
 30
0
 11
789.9651340161471
 21
691.4611519153
 31
0
  0
LINE
  8
1
 62
2
 10
789.8292516632059
 20
695.4611519153
 30
0
 11
789.9651340161471
 21
695.0611519153
 31
0
  0
LINE
  8
1
 62
2
 10
789.4216046043824
 20
695.8611519153001
 30
0
 11
789.8292516632059
 21
695.4611519153
 31
0
  0
LINE
  8
1
 62
2
 10
789.1498398985
 20
695.8611519153001
 30
0
 11
789.4216046043824
 21
695.8611519153001
 31
0
  0
LINE
  8
1
 62
2
 10
788.4704281337941
 20
695.4611519153
 30
0
 11
789.1498398985
 21
695.8611519153001
 31
0
  0
LINE
  8
1
 62
2
 10
788.0627810749706
 20
694.6611519153
 30
0
 11
788.4704281337941
 21
695.4611519153
 31
0
  0
LINE
  8
1
 62
2
 10
788.0627810749706
 20
695.8611519153001
 30
0
 11
788.0627810749706
 21
691.4611519153
 31
0
  0
LINE
  8
1
 62
2
 10
824.2769964971117
 20
704.9249745827
 30
0
 11
825.0922906147588
 21
703.3249745827
 31
0
  0
LINE
  8
1
 62
2
 10
823.8693494382882
 20
707.1249745826999
 30
0
 11
824.2769964971117
 21
704.9249745827
 31
0
  0
LINE
  8
1
 62
2
 10
822.1028788500529
 20
707.1249745826999
 30
0
 11
823.8693494382882
 21
707.1249745826999
 31
0
  0
LINE
  8
1
 62
2
 10
822.1028788500529
 20
706.3249745827
 30
0
 11
821.0158200265234
 21
703.3249745827
 31
0
  0
LINE
  8
1
 62
2
 10
825.0922906147588
 20
708.5249745827
 30
0
 11
824.8205259088765
 21
707.1249745826999
 31
0
  0
LINE
  8
1
 62
2
 10
821.0158200265234
 20
708.5249745827
 30
0
 11
825.0922906147588
 21
708.5249745827
 31
0
  0
LINE
  8
1
 62
2
 10
821.0158200265234
 20
707.1249745826999
 30
0
 11
821.0158200265234
 21
708.5249745827
 31
0
  0
LINE
  8
1
 62
2
 10
823.0540553206411
 20
709.3249745827
 30
0
 11
823.0540553206411
 21
708.5249745827
 31
0
  0
LINE
  8
1
 62
2
 10
817.0752317912294
 20
706.9249745827
 30
0
 11
818.9775847324058
 21
705.7249745826999
 31
0
  0
LINE
  8
1
 62
2
 10
817.0752317912294
 20
708.9249745827
 30
0
 11
817.0752317912294
 21
703.9249745827
 31
0
  0
LINE
  8
1
 62
2
 10
813.8140553206411
 20
705.5249745827
 30
0
 11
814.0858200265235
 21
706.3249745827
 31
0
  0
LINE
  8
1
 62
2
 10
813.4064082618176
 20
704.7249745826999
 30
0
 11
813.8140553206411
 21
705.5249745827
 31
0
  0
LINE
  8
1
 62
2
 10
812.5911141441706
 20
704.3249745827
 30
0
 11
813.4064082618176
 21
704.7249745826999
 31
0
  0
LINE
  8
1
 62
2
 10
812.5911141441706
 20
708.3249745827
 30
0
 11
812.5911141441706
 21
704.3249745827
 31
0
  0
LINE
  8
1
 62
2
 10
811.0964082618176
 20
705.1249745826999
 30
0
 11
810.4169964971117
 21
704.1249745826999
 31
0
  0
LINE
  8
1
 62
2
 10
811.3681729676999
 20
706.1249745826999
 30
0
 11
811.0964082618176
 21
705.1249745826999
 31
0
  0
LINE
  8
1
 62
2
 10
811.3681729676999
 20
708.1249745826999
 30
0
 11
811.3681729676999
 21
706.1249745826999
 31
0
  0
LINE
  8
1
 62
2
 10
808.5146435559353
 20
709.3249745827
 30
0
 11
808.7864082618177
 21
708.5249745827
 31
0
  0
LINE
  8
1
 62
2
 10
807.9711141441705
 20
709.3249745827
 30
0
 11
808.2428788500529
 21
708.5249745827
 31
0
  0
LINE
  8
1
 62
2
 10
807.8352317912294
 20
706.1249745826999
 30
0
 11
808.5146435559353
 21
704.3249745827
 31
0
  0
LINE
  8
1
 62
2
 10
805.7969964971118
 20
706.1249745826999
 30
0
 11
805.1175847324058
 21
704.3249745827
 31
0
  0
LINE
  8
1
 62
2
 10
806.8840553206411
 20
708.9249745827
 30
0
 11
806.8840553206411
 21
703.7249745826999
 31
0
  0
LINE
  8
1
 62
2
 10
805.253467085347
 20
707.5249745827
 30
0
 11
808.5146435559353
 21
707.5249745827
 31
0
  0
LINE
  8
1
 62
2
 10
765.1390082265
 20
696.6611521051
 30
0
 11
763.4065082265
 21
696.6611521051
 31
0
  0
LINE
  8
1
 62
2
 10
765.4855082265
 20
696.8111521051
 30
0
 11
765.1390082265
 21
696.6611521051
 31
0
  0
LINE
  8
1
 62
2
 10
765.8320082265001
 20
697.1111521051
 30
0
 11
765.4855082265
 21
696.8111521051
 31
0
  0
LINE
  8
1
 62
2
 10
766.0630082265001
 20
697.5611521051
 30
0
 11
765.8320082265001
 21
697.1111521051
 31
0
  0
LINE
  8
1
 62
2
 10
766.1785082265001
 20
698.1611521051
 30
0
 11
766.0630082265001
 21
697.5611521051
 31
0
  0
LINE
  8
1
 62
2
 10
766.1785082265001
 20
698.9111521051
 30
0
 11
766.1785082265001
 21
698.1611521051
 31
0
  0
LINE
  8
1
 62
2
 10
766.0630082265001
 20
699.5111521051
 30
0
 11
766.1785082265001
 21
698.9111521051
 31
0
  0
LINE
  8
1
 62
2
 10
765.9475082265001
 20
699.8111521051
 30
0
 11
766.0630082265001
 21
699.5111521051
 31
0
  0
LINE
  8
1
 62
2
 10
765.7165082265
 20
700.1111521051
 30
0
 11
765.9475082265001
 21
699.8111521051
 31
0
  0
LINE
  8
1
 62
2
 10
765.2545082265
 20
700.2611521051
 30
0
 11
765.7165082265
 21
700.1111521051
 31
0
  0
LINE
  8
1
 62
2
 10
765.6010082265
 20
700.4111521051
 30
0
 11
765.2545082265
 21
700.2611521051
 31
0
  0
LINE
  8
1
 62
2
 10
765.8320082265001
 20
700.5611521051
 30
0
 11
765.6010082265
 21
700.4111521051
 31
0
  0
LINE
  8
1
 62
2
 10
766.0630082265001
 20
700.8611521051
 30
0
 11
765.8320082265001
 21
700.5611521051
 31
0
  0
LINE
  8
1
 62
2
 10
766.1785082265001
 20
701.3111521051
 30
0
 11
766.0630082265001
 21
700.8611521051
 31
0
  0
LINE
  8
1
 62
2
 10
766.1785082265001
 20
701.7611521051
 30
0
 11
766.1785082265001
 21
701.3111521051
 31
0
  0
LINE
  8
1
 62
2
 10
766.0630082265001
 20
702.2111521050999
 30
0
 11
766.1785082265001
 21
701.7611521051
 31
0
  0
LINE
  8
1
 62
2
 10
765.7165082265
 20
702.5111521051
 30
0
 11
766.0630082265001
 21
702.2111521050999
 31
0
  0
LINE
  8
1
 62
2
 10
765.1390082265
 20
702.6611521051
 30
0
 11
765.7165082265
 21
702.5111521051
 31
0
  0
LINE
  8
1
 62
2
 10
763.4065082265
 20
702.6611521051
 30
0
 11
765.1390082265
 21
702.6611521051
 31
0
  0
LINE
  8
1
 62
2
 10
764.0995082265
 20
700.2611521051
 30
0
 11
765.2545082265
 21
700.2611521051
 31
0
  0
LINE
  8
1
 62
2
 10
761.9050082265001
 20
701.4611521050999
 30
0
 11
762.0205082265001
 21
700.8611521051
 31
0
  0
LINE
  8
1
 62
2
 10
761.6740082265001
 20
701.9111521051
 30
0
 11
761.9050082265001
 21
701.4611521050999
 31
0
  0
LINE
  8
1
 62
2
 10
761.4430082265001
 20
702.2111521050999
 30
0
 11
761.6740082265001
 21
701.9111521051
 31
0
  0
LINE
  8
1
 62
2
 10
761.0965082265
 20
702.5111521051
 30
0
 11
761.4430082265001
 21
702.2111521050999
 31
0
  0
LINE
  8
1
 62
2
 10
760.6345082265
 20
702.6611521051
 30
0
 11
761.0965082265
 21
702.5111521051
 31
0
  0
LINE
  8
1
 62
2
 10
758.7865082265
 20
702.6611521051
 30
0
 11
760.6345082265
 21
702.6611521051
 31
0
  0
LINE
  8
1
 62
2
 10
758.7865082265
 20
696.6611521051
 30
0
 11
758.7865082265
 21
702.6611521051
 31
0
  0
LINE
  8
1
 62
2
 10
760.6345082265
 20
696.6611521051
 30
0
 11
758.7865082265
 21
696.6611521051
 31
0
  0
LINE
  8
1
 62
2
 10
761.0965082265
 20
696.8111521051
 30
0
 11
760.6345082265
 21
696.6611521051
 31
0
  0
LINE
  8
1
 62
2
 10
761.4430082265001
 20
697.1111521051
 30
0
 11
761.0965082265
 21
696.8111521051
 31
0
  0
LINE
  8
1
 62
2
 10
761.6740082265001
 20
697.4111521051
 30
0
 11
761.4430082265001
 21
697.1111521051
 31
0
  0
LINE
  8
1
 62
2
 10
761.9050082265001
 20
697.8611521051
 30
0
 11
761.6740082265001
 21
697.4111521051
 31
0
  0
LINE
  8
1
 62
2
 10
762.0205082265001
 20
698.4611521050999
 30
0
 11
761.9050082265001
 21
697.8611521051
 31
0
  0
LINE
  8
1
 62
2
 10
762.0205082265001
 20
700.8611521051
 30
0
 11
762.0205082265001
 21
698.4611521050999
 31
0
  0
LINE
  8
1
 62
2
 10
728.3698428214999
 20
696.6611521051
 30
0
 11
731.1418428215
 21
696.6611521051
 31
0
  0
LINE
  8
1
 62
2
 10
730.9108428215
 20
700.5611521051
 30
0
 11
728.3698428214999
 21
696.6611521051
 31
0
  0
LINE
  8
1
 62
2
 10
731.1418428215
 20
701.1611521051
 30
0
 11
730.9108428215
 21
700.5611521051
 31
0
  0
LINE
  8
1
 62
2
 10
731.1418428215
 20
701.7611521051
 30
0
 11
731.1418428215
 21
701.1611521051
 31
0
  0
LINE
  8
1
 62
2
 10
730.9108428215
 20
702.2111521050999
 30
0
 11
731.1418428215
 21
701.7611521051
 31
0
  0
LINE
  8
1
 62
2
 10
730.5643428214999
 20
702.5111521051
 30
0
 11
730.9108428215
 21
702.2111521050999
 31
0
  0
LINE
  8
1
 62
2
 10
730.1023428214999
 20
702.6611521051
 30
0
 11
730.5643428214999
 21
702.5111521051
 31
0
  0
LINE
  8
1
 62
2
 10
729.4093428214999
 20
702.6611521051
 30
0
 11
730.1023428214999
 21
702.6611521051
 31
0
  0
LINE
  8
1
 62
2
 10
728.9473428214999
 20
702.5111521051
 30
0
 11
729.4093428214999
 21
702.6611521051
 31
0
  0
LINE
  8
1
 62
2
 10
728.6008428214999
 20
702.2111521050999
 30
0
 11
728.9473428214999
 21
702.5111521051
 31
0
  0
LINE
  8
1
 62
2
 10
728.3698428214999
 20
701.7611521051
 30
0
 11
728.6008428214999
 21
702.2111521050999
 31
0
  0
LINE
  8
1
 62
2
 10
726.8683428214999
 20
701.4611521050999
 30
0
 11
726.9838428214999
 21
700.8611521051
 31
0
  0
LINE
  8
1
 62
2
 10
726.6373428214999
 20
701.9111521051
 30
0
 11
726.8683428214999
 21
701.4611521050999
 31
0
  0
LINE
  8
1
 62
2
 10
726.4063428215
 20
702.2111521050999
 30
0
 11
726.6373428214999
 21
701.9111521051
 31
0
  0
LINE
  8
1
 62
2
 10
726.0598428214998
 20
702.5111521051
 30
0
 11
726.4063428215
 21
702.2111521050999
 31
0
  0
LINE
  8
1
 62
2
 10
725.5978428214999
 20
702.6611521051
 30
0
 11
726.0598428214998
 21
702.5111521051
 31
0
  0
LINE
  8
1
 62
2
 10
723.7498428214999
 20
702.6611521051
 30
0
 11
725.5978428214999
 21
702.6611521051
 31
0
  0
LINE
  8
1
 62
2
 10
723.7498428214999
 20
696.6611521051
 30
0
 11
723.7498428214999
 21
702.6611521051
 31
0
  0
LINE
  8
1
 62
2
 10
725.5978428214999
 20
696.6611521051
 30
0
 11
723.7498428214999
 21
696.6611521051
 31
0
  0
LINE
  8
1
 62
2
 10
726.0598428214998
 20
696.8111521051
 30
0
 11
725.5978428214999
 21
696.6611521051
 31
0
  0
LINE
  8
1
 62
2
 10
726.4063428215
 20
697.1111521051
 30
0
 11
726.0598428214998
 21
696.8111521051
 31
0
  0
LINE
  8
1
 62
2
 10
726.6373428214999
 20
697.4111521051
 30
0
 11
726.4063428215
 21
697.1111521051
 31
0
  0
LINE
  8
1
 62
2
 10
726.8683428214999
 20
697.8611521051
 30
0
 11
726.6373428214999
 21
697.4111521051
 31
0
  0
LINE
  8
1
 62
2
 10
726.9838428214999
 20
698.4611521050999
 30
0
 11
726.8683428214999
 21
697.8611521051
 31
0
  0
LINE
  8
1
 62
2
 10
726.9838428214999
 20
700.8611521051
 30
0
 11
726.9838428214999
 21
698.4611521050999
 31
0
  0
LINE
  8
1
 62
2
 10
694.7191774165
 20
702.6611521051
 30
0
 11
694.7191774165
 21
696.6611521051
 31
0
  0
LINE
  8
1
 62
2
 10
693.3331774165
 20
700.8611521051
 30
0
 11
694.7191774165
 21
702.6611521051
 31
0
  0
LINE
  8
1
 62
2
 10
691.8316774165
 20
701.4611521050999
 30
0
 11
691.9471774165
 21
700.8611521051
 31
0
  0
LINE
  8
1
 62
2
 10
691.6006774165001
 20
701.9111521051
 30
0
 11
691.8316774165
 21
701.4611521050999
 31
0
  0
LINE
  8
1
 62
2
 10
691.3696774165001
 20
702.2111521050999
 30
0
 11
691.6006774165001
 21
701.9111521051
 31
0
  0
LINE
  8
1
 62
2
 10
691.0231774165
 20
702.5111521051
 30
0
 11
691.3696774165001
 21
702.2111521050999
 31
0
  0
LINE
  8
1
 62
2
 10
690.5611774165
 20
702.6611521051
 30
0
 11
691.0231774165
 21
702.5111521051
 31
0
  0
LINE
  8
1
 62
2
 10
688.7131774165
 20
702.6611521051
 30
0
 11
690.5611774165
 21
702.6611521051
 31
0
  0
LINE
  8
1
 62
2
 10
688.7131774165
 20
696.6611521051
 30
0
 11
688.7131774165
 21
702.6611521051
 31
0
  0
LINE
  8
1
 62
2
 10
690.5611774165
 20
696.6611521051
 30
0
 11
688.7131774165
 21
696.6611521051
 31
0
  0
LINE
  8
1
 62
2
 10
691.0231774165
 20
696.8111521051
 30
0
 11
690.5611774165
 21
696.6611521051
 31
0
  0
LINE
  8
1
 62
2
 10
691.3696774165001
 20
697.1111521051
 30
0
 11
691.0231774165
 21
696.8111521051
 31
0
  0
LINE
  8
1
 62
2
 10
691.6006774165001
 20
697.4111521051
 30
0
 11
691.3696774165001
 21
697.1111521051
 31
0
  0
LINE
  8
1
 62
2
 10
691.8316774165
 20
697.8611521051
 30
0
 11
691.6006774165001
 21
697.4111521051
 31
0
  0
LINE
  8
1
 62
2
 10
691.9471774165
 20
698.4611521050999
 30
0
 11
691.8316774165
 21
697.8611521051
 31
0
  0
LINE
  8
1
 62
2
 10
691.9471774165
 20
700.8611521051
 30
0
 11
691.9471774165
 21
698.4611521050999
 31
0
  0
LINE
  8
1
 62
2
 10
515.0142957058001
 20
219.3463347476387
 30
0
 11
521.3476290391335
 21
219.3463347476387
 31
0
  0
LINE
  8
1
 62
2
 10
518.3476290391335
 20
230.2213347476387
 30
0
 11
518.3476290391335
 21
219.3463347476387
 31
0
  0
LINE
  8
1
 62
2
 10
516.0142957058001
 20
225.7213347476387
 30
0
 11
520.6809623724669
 21
225.7213347476387
 31
0
  0
LINE
  8
1
 62
2
 10
514.0142957058001
 20
225.3463347476387
 30
0
 11
515.6809623724669
 21
223.4713347476387
 31
0
  0
LINE
  8
1
 62
2
 10
513.3476290391335
 20
227.9713347476387
 30
0
 11
513.3476290391335
 21
230.2213347476387
 31
0
  0
LINE
  8
1
 62
2
 10
515.0142957058001
 20
227.9713347476387
 30
0
 11
511.3476290391335
 21
227.9713347476387
 31
0
  0
LINE
  8
1
 62
2
 10
513.6809623724669
 20
226.0963347476387
 30
0
 11
515.0142957058001
 21
227.9713347476387
 31
0
  0
LINE
  8
1
 62
2
 10
512.0142957058001
 20
224.2213347476387
 30
0
 11
513.6809623724669
 21
226.0963347476387
 31
0
  0
LINE
  8
1
 62
2
 10
510.6809623724668
 20
223.0963347476387
 30
0
 11
512.0142957058001
 21
224.2213347476387
 31
0
  0
LINE
  8
1
 62
2
 10
513.3476290391335
 20
218.9713347476387
 30
0
 11
513.3476290391335
 21
225.7213347476387
 31
0
  0
LINE
  8
1
 62
2
 10
504.0142957058001
 20
223.0963347476387
 30
0
 11
500.6809623724668
 21
218.9713347476387
 31
0
  0
LINE
  8
1
 62
2
 10
508.0142957058001
 20
218.5963347476387
 30
0
 11
505.6809623724668
 21
221.2213347476387
 31
0
  0
LINE
  8
1
 62
2
 10
499.6809623724668
 20
218.9713347476387
 30
0
 11
507.0142957058001
 21
219.7213347476387
 31
0
  0
LINE
  8
1
 62
2
 10
500.3476290391335
 20
223.4713347476387
 30
0
 11
508.0142957058001
 21
223.4713347476387
 31
0
  0
LINE
  8
1
 62
2
 10
501.6809623724668
 20
225.3463347476387
 30
0
 11
506.3476290391335
 21
225.3463347476387
 31
0
  0
LINE
  8
1
 62
2
 10
504.0142957058001
 20
230.2213347476387
 30
0
 11
509.3476290391335
 21
224.5963347476387
 31
0
  0
LINE
  8
1
 62
2
 10
504.0142957058001
 20
230.2213347476387
 30
0
 11
498.6809623724668
 21
224.5963347476387
 31
0
  0
LINE
  8
1
 62
2
 10
496.3476290391335
 20
218.9713347476387
 30
0
 11
497.3476290391335
 21
220.0963347476387
 31
0
  0
LINE
  8
1
 62
2
 10
495.0142957058001
 20
220.4713347476387
 30
0
 11
496.3476290391335
 21
218.9713347476387
 31
0
  0
LINE
  8
1
 62
2
 10
493.6809623724668
 20
223.0963347476387
 30
0
 11
495.0142957058001
 21
220.4713347476387
 31
0
  0
LINE
  8
1
 62
2
 10
493.0142957058001
 20
226.0963347476387
 30
0
 11
493.6809623724668
 21
223.0963347476387
 31
0
  0
LINE
  8
1
 62
2
 10
492.6809623724668
 20
230.5963347476387
 30
0
 11
493.0142957058001
 21
226.0963347476387
 31
0
  0
LINE
  8
1
 62
2
 10
494.6809623724668
 20
229.0963347476387
 30
0
 11
493.6809623724668
 21
230.2213347476387
 31
0
  0
LINE
  8
1
 62
2
 10
486.6809623724668
 20
227.9713347476387
 30
0
 11
496.3476290391335
 21
227.9713347476387
 31
0
  0
LINE
  8
1
 62
2
 10
489.6809623724668
 20
224.9713347476387
 30
0
 11
489.6809623724668
 21
220.8463347476387
 31
0
  0
LINE
  8
1
 62
2
 10
492.0142957058001
 20
224.9713347476387
 30
0
 11
487.3476290391335
 21
224.9713347476387
 31
0
  0
LINE
  8
1
 62
2
 10
487.3476290391335
 20
220.0963347476387
 30
0
 11
492.0142957058001
 21
221.5963347476387
 31
0
  0
LINE
  8
1
 62
2
 10
483.6809623724668
 20
221.5963347476387
 30
0
 11
485.0142957058001
 21
218.9713347476387
 31
0
  0
LINE
  8
1
 62
2
 10
482.0142957058001
 20
224.9713347476387
 30
0
 11
483.6809623724668
 21
221.5963347476387
 31
0
  0
LINE
  8
1
 62
2
 10
481.0142957058001
 20
222.3463347476387
 30
0
 11
482.0142957058001
 21
224.9713347476387
 31
0
  0
LINE
  8
1
 62
2
 10
479.6809623724668
 20
220.4713347476387
 30
0
 11
481.0142957058001
 21
222.3463347476387
 31
0
  0
LINE
  8
1
 62
2
 10
478.6809623724668
 20
218.9713347476387
 30
0
 11
479.6809623724668
 21
220.4713347476387
 31
0
  0
LINE
  8
1
 62
2
 10
482.0142957058001
 20
230.5963347476387
 30
0
 11
482.0142957058001
 21
218.5963347476387
 31
0
  0
LINE
  8
1
 62
2
 10
485.0142957058001
 20
224.9713347476387
 30
0
 11
479.3476290391335
 21
224.9713347476387
 31
0
  0
LINE
  8
1
 62
2
 10
480.3476290391335
 20
227.5963347476387
 30
0
 11
484.6809623724668
 21
227.5963347476387
 31
0
  0
LINE
  8
1
 62
2
 10
480.3476290391335
 20
227.5963347476387
 30
0
 11
480.6809623724668
 21
229.4713347476387
 31
0
  0
LINE
  8
1
 62
2
 10
479.3476290391335
 20
225.7213347476387
 30
0
 11
480.3476290391335
 21
227.5963347476387
 31
0
  0
LINE
  8
1
 62
2
 10
477.0142957058001
 20
227.2213347476387
 30
0
 11
478.6809623724668
 21
224.2213347476387
 31
0
  0
LINE
  8
1
 62
2
 10
475.0142957058001
 20
221.9713347476387
 30
0
 11
477.0142957058001
 21
227.2213347476387
 31
0
  0
LINE
  8
1
 62
2
 10
478.6809623724668
 20
227.2213347476387
 30
0
 11
475.3476290391335
 21
227.2213347476387
 31
0
  0
LINE
  8
1
 62
2
 10
477.0142957058001
 20
218.9713347476387
 30
0
 11
477.0142957058001
 21
230.5963347476387
 31
0
  0
LINE
  8
1
 62
2
 10
469.0142957058001
 20
227.9713347476387
 30
0
 11
472.3476290391335
 21
227.9713347476387
 31
0
  0
LINE
  8
1
 62
2
 10
469.0142957058001
 20
226.0963347476387
 30
0
 11
472.3476290391335
 21
226.0963347476387
 31
0
  0
LINE
  8
1
 62
2
 10
469.0142957058001
 20
229.8463347476387
 30
0
 11
469.0142957058001
 21
226.0963347476387
 31
0
  0
LINE
  8
1
 62
2
 10
472.3476290391335
 20
229.8463347476387
 30
0
 11
469.0142957058001
 21
229.8463347476387
 31
0
  0
LINE
  8
1
 62
2
 10
472.3476290391335
 20
219.3463347476387
 30
0
 11
472.3476290391335
 21
229.8463347476387
 31
0
  0
LINE
  8
1
 62
2
 10
472.0142957058001
 20
218.9713347476387
 30
0
 11
472.3476290391335
 21
219.3463347476387
 31
0
  0
LINE
  8
1
 62
2
 10
471.0142957058001
 20
218.9713347476387
 30
0
 11
472.0142957058001
 21
218.9713347476387
 31
0
  0
LINE
  8
1
 62
2
 10
467.0142957058001
 20
227.9713347476387
 30
0
 11
463.6809623724668
 21
227.9713347476387
 31
0
  0
LINE
  8
1
 62
2
 10
467.0142957058001
 20
226.0963347476387
 30
0
 11
463.6809623724668
 21
226.0963347476387
 31
0
  0
LINE
  8
1
 62
2
 10
467.0142957058001
 20
229.8463347476387
 30
0
 11
467.0142957058001
 21
226.0963347476387
 31
0
  0
LINE
  8
1
 62
2
 10
463.6809623724668
 20
229.8463347476387
 30
0
 11
467.0142957058001
 21
229.8463347476387
 31
0
  0
LINE
  8
1
 62
2
 10
463.6809623724668
 20
218.9713347476387
 30
0
 11
463.6809623724668
 21
229.8463347476387
 31
0
  0
LINE
  8
1
 62
2
 10
460.0142957058001
 20
225.7213347476387
 30
0
 11
461.3476290391335
 21
224.5963347476387
 31
0
  0
LINE
  8
1
 62
2
 10
457.6809623724668
 20
228.3463347476387
 30
0
 11
460.0142957058001
 21
225.7213347476387
 31
0
  0
LINE
  8
1
 62
2
 10
456.0142957058001
 20
230.5963347476387
 30
0
 11
457.6809623724668
 21
228.3463347476387
 31
0
  0
LINE
  8
1
 62
2
 10
454.3476290391335
 20
228.3463347476387
 30
0
 11
456.0142957058001
 21
230.5963347476387
 31
0
  0
LINE
  8
1
 62
2
 10
452.0142957058001
 20
225.7213347476387
 30
0
 11
454.3476290391335
 21
228.3463347476387
 31
0
  0
LINE
  8
1
 62
2
 10
450.6809623724668
 20
224.5963347476387
 30
0
 11
452.0142957058001
 21
225.7213347476387
 31
0
  0
LINE
  8
1
 62
2
 10
457.6809623724668
 20
220.4713347476387
 30
0
 11
458.3476290391335
 21
222.3463347476387
 31
0
  0
LINE
  8
1
 62
2
 10
453.6809623724668
 20
222.3463347476387
 30
0
 11
454.3476290391335
 21
220.4713347476387
 31
0
  0
LINE
  8
1
 62
2
 10
459.3476290391335
 20
223.8463347476387
 30
0
 11
452.6809623724668
 21
223.8463347476387
 31
0
  0
LINE
  8
1
 62
2
 10
453.6809623724668
 20
226.0963347476387
 30
0
 11
458.3476290391335
 21
226.0963347476387
 31
0
  0
LINE
  8
1
 62
2
 10
456.0142957058001
 20
218.9713347476387
 30
0
 11
456.0142957058001
 21
226.0963347476387
 31
0
  0
LINE
  8
1
 62
2
 10
451.6809623724668
 20
218.9713347476387
 30
0
 11
460.0142957058001
 21
218.9713347476387
 31
0
  0
LINE
  8
1
 62
2
 10
447.0142957058001
 20
222.3463347476387
 30
0
 11
448.6809623724668
 21
224.5963347476387
 31
0
  0
LINE
  8
1
 62
2
 10
444.3476290391335
 20
220.8463347476387
 30
0
 11
447.0142957058001
 21
222.3463347476387
 31
0
  0
LINE
  8
1
 62
2
 10
444.3476290391335
 20
227.5963347476387
 30
0
 11
444.3476290391335
 21
220.8463347476387
 31
0
  0
LINE
  8
1
 62
2
 10
441.6809623724668
 20
224.5963347476387
 30
0
 11
442.0142957058001
 21
227.5963347476387
 31
0
  0
LINE
  8
1
 62
2
 10
441.0142957058001
 20
222.3463347476387
 30
0
 11
441.6809623724668
 21
224.5963347476387
 31
0
  0
LINE
  8
1
 62
2
 10
440.0142957058001
 20
220.4713347476387
 30
0
 11
441.0142957058001
 21
222.3463347476387
 31
0
  0
LINE
  8
1
 62
2
 10
432.3476290391335
 20
219.7213347476387
 30
0
 11
434.3476290391335
 21
220.0963347476387
 31
0
  0
LINE
  8
1
 62
2
 10
429.0142957058001
 20
220.0963347476387
 30
0
 11
432.3476290391335
 21
219.7213347476387
 31
0
  0
LINE
  8
1
 62
2
 10
428.6809623724668
 20
221.2213347476387
 30
0
 11
429.0142957058001
 21
220.0963347476387
 31
0
  0
LINE
  8
1
 62
2
 10
428.6809623724668
 20
227.5963347476387
 30
0
 11
428.6809623724668
 21
221.2213347476387
 31
0
  0
LINE
  8
1
 62
2
 10
435.0142957058001
 20
228.3463347476387
 30
0
 11
436.0142957058001
 21
227.2213347476387
 31
0
  0
LINE
  8
1
 62
2
 10
435.3476290391335
 20
226.4713347476387
 30
0
 11
434.3476290391335
 21
227.5963347476387
 31
0
  0
LINE
  8
1
 62
2
 10
431.6809623724668
 20
224.5963347476387
 30
0
 11
433.6809623724668
 21
225.7213347476387
 31
0
  0
LINE
  8
1
 62
2
 10
428.6809623724668
 20
223.4713347476387
 30
0
 11
431.6809623724668
 21
224.5963347476387
 31
0
  0
LINE
  8
1
 62
2
 10
421.3476290391335
 20
222.3463347476387
 30
0
 11
423.3476290391335
 21
220.0963347476387
 31
0
  0
LINE
  8
1
 62
2
 10
419.6809623724668
 20
223.8463347476387
 30
0
 11
421.3476290391335
 21
222.3463347476387
 31
0
  0
LINE
  8
1
 62
2
 10
423.6809623724668
 20
229.0963347476387
 30
0
 11
424.6809623724668
 21
227.9713347476387
 31
0
  0
LINE
  8
1
 62
2
 10
423.0142957058001
 20
228.3463347476387
 30
0
 11
424.0142957058001
 21
227.2213347476387
 31
0
  0
LINE
  8
1
 62
2
 10
421.6809623724668
 20
227.5963347476387
 30
0
 11
417.3476290391335
 21
227.5963347476387
 31
0
  0
LINE
  8
1
 62
2
 10
420.6809623724668
 20
225.3463347476387
 30
0
 11
421.6809623724668
 21
227.5963347476387
 31
0
  0
LINE
  8
1
 62
2
 10
418.3476290391335
 20
221.9713347476387
 30
0
 11
420.6809623724668
 21
225.3463347476387
 31
0
  0
LINE
  8
1
 62
2
 10
416.0142957058001
 20
220.0963347476387
 30
0
 11
418.3476290391335
 21
221.9713347476387
 31
0
  0
LINE
  8
1
 62
2
 10
412.0142957058001
 20
227.2213347476387
 30
0
 11
409.0142957058001
 21
223.8463347476387
 31
0
  0
LINE
  8
1
 62
2
 10
404.3476290391335
 20
227.2213347476387
 30
0
 11
412.0142957058001
 21
227.2213347476387
 31
0
  0
LINE
  8
1
 62
2
 10
408.0142957058001
 20
223.8463347476387
 30
0
 11
408.3476290391335
 21
225.7213347476387
 31
0
  0
LINE
  8
1
 62
2
 10
407.3476290391335
 20
221.5963347476387
 30
0
 11
408.0142957058001
 21
223.8463347476387
 31
0
  0
LINE
  8
1
 62
2
 10
406.0142957058001
 20
219.3463347476387
 30
0
 11
407.3476290391335
 21
221.5963347476387
 31
0
  0
LINE
  8
1
 62
2
 10
549.8476290391335
 20
248.5963347476387
 30
0
 11
550.5142957058001
 21
248.2213347476387
 31
0
  0
LINE
  8
1
 62
2
 10
543.8476290391335
 20
248.5963347476387
 30
0
 11
549.8476290391335
 21
248.5963347476387
 31
0
  0
LINE
  8
1
 62
2
 10
543.1809623724668
 20
248.9713347476387
 30
0
 11
543.8476290391335
 21
248.5963347476387
 31
0
  0
LINE
  8
1
 62
2
 10
534.5142957058001
 20
249.7213347476387
 30
0
 11
537.1809623724668
 21
246.7213347476387
 31
0
  0
LINE
  8
1
 62
2
 10
533.5142957058001
 20
251.2213347476387
 30
0
 11
531.8476290391335
 21
249.3463347476387
 31
0
  0
LINE
  8
1
 62
2
 10
535.1809623724668
 20
253.4713347476387
 30
0
 11
533.5142957058001
 21
251.2213347476387
 31
0
  0
LINE
  8
1
 62
2
 10
538.5142957058001
 20
251.9713347476387
 30
0
 11
534.1809623724668
 21
251.9713347476387
 31
0
  0
LINE
  8
1
 62
2
 10
537.1809623724668
 20
249.3463347476387
 30
0
 11
538.5142957058001
 21
251.9713347476387
 31
0
  0
LINE
  8
1
 62
2
 10
534.5142957058001
 20
246.3463347476387
 30
0
 11
537.1809623724668
 21
249.3463347476387
 31
0
  0
LINE
  8
1
 62
2
 10
531.5142957058001
 20
244.0963347476387
 30
0
 11
534.5142957058001
 21
246.3463347476387
 31
0
  0
LINE
  8
1
 62
2
 10
525.8476290391335
 20
248.5963347476387
 30
0
 11
526.5142957058001
 21
248.2213347476387
 31
0
  0
LINE
  8
1
 62
2
 10
519.8476290391335
 20
248.5963347476387
 30
0
 11
525.8476290391335
 21
248.5963347476387
 31
0
  0
LINE
  8
1
 62
2
 10
519.1809623724668
 20
248.9713347476387
 30
0
 11
519.8476290391335
 21
248.5963347476387
 31
0
  0
LINE
  8
1
 62
2
 10
511.8476290391334
 20
248.5963347476387
 30
0
 11
513.5142957058001
 21
245.9713347476387
 31
0
  0
LINE
  8
1
 62
2
 10
510.1809623724668
 20
250.4713347476387
 30
0
 11
511.8476290391334
 21
248.5963347476387
 31
0
  0
LINE
  8
1
 62
2
 10
512.5142957058001
 20
249.3463347476387
 30
0
 11
514.1809623724668
 21
252.7213347476387
 31
0
  0
LINE
  8
1
 62
2
 10
509.8476290391334
 20
245.9713347476387
 30
0
 11
512.5142957058001
 21
249.3463347476387
 31
0
  0
LINE
  8
1
 62
2
 10
507.5142957058001
 20
244.0963347476387
 30
0
 11
509.8476290391334
 21
245.9713347476387
 31
0
  0
LINE
  8
1
 62
2
 10
497.5142957058001
 20
243.7213347476387
 30
0
 11
503.8476290391334
 21
243.7213347476387
 31
0
  0
LINE
  8
1
 62
2
 10
496.1809623724668
 20
244.0963347476387
 30
0
 11
497.5142957058001
 21
243.7213347476387
 31
0
  0
LINE
  8
1
 62
2
 10
495.1809623724668
 20
244.8463347476387
 30
0
 11
496.1809623724668
 21
244.0963347476387
 31
0
  0
LINE
  8
1
 62
2
 10
502.1809623724668
 20
246.7213347476387
 30
0
 11
498.1809623724668
 21
246.7213347476387
 31
0
  0
LINE
  8
1
 62
2
 10
498.1809623724668
 20
248.5963347476387
 30
0
 11
502.1809623724668
 21
248.5963347476387
 31
0
  0
LINE
  8
1
 62
2
 10
502.1809623724668
 20
250.0963347476387
 30
0
 11
498.1809623724668
 21
250.0963347476387
 31
0
  0
LINE
  8
1
 62
2
 10
502.1809623724668
 20
245.2213347476387
 30
0
 11
502.1809623724668
 21
250.0963347476387
 31
0
  0
LINE
  8
1
 62
2
 10
498.1809623724668
 20
245.2213347476387
 30
0
 11
502.1809623724668
 21
245.2213347476387
 31
0
  0
LINE
  8
1
 62
2
 10
498.1809623724668
 20
250.0963347476387
 30
0
 11
498.1809623724668
 21
245.2213347476387
 31
0
  0
LINE
  8
1
 62
2
 10
499.8476290391334
 20
251.9713347476387
 30
0
 11
498.8476290391334
 21
250.0963347476387
 31
0
  0
LINE
  8
1
 62
2
 10
496.5142957058001
 20
251.9713347476387
 30
0
 11
503.5142957058001
 21
251.9713347476387
 31
0
  0
LINE
  8
1
 62
2
 10
501.8476290391334
 20
254.2213347476387
 30
0
 11
500.5142957058001
 21
251.9713347476387
 31
0
  0
LINE
  8
1
 62
2
 10
498.1809623724668
 20
254.2213347476387
 30
0
 11
499.1809623724668
 21
252.7213347476387
 31
0
  0
LINE
  8
1
 62
2
 10
494.5142957058001
 20
254.2213347476387
 30
0
 11
495.8476290391334
 21
252.7213347476387
 31
0
  0
LINE
  8
1
 62
2
 10
495.1809623724668
 20
249.3463347476387
 30
0
 11
493.8476290391334
 21
249.3463347476387
 31
0
  0
LINE
  8
1
 62
2
 10
495.1809623724668
 20
244.8463347476387
 30
0
 11
495.1809623724668
 21
249.3463347476387
 31
0
  0
LINE
  8
1
 62
2
 10
494.1809623724668
 20
243.7213347476387
 30
0
 11
495.1809623724668
 21
244.8463347476387
 31
0
  0
LINE
  8
1
 62
2
 10
490.5142957058001
 20
246.3463347476387
 30
0
 11
492.1809623724668
 21
244.4713347476387
 31
0
  0
LINE
  8
1
 62
2
 10
489.1809623724668
 20
248.5963347476387
 30
0
 11
490.5142957058001
 21
246.3463347476387
 31
0
  0
LINE
  8
1
 62
2
 10
488.1809623724668
 20
251.2213347476387
 30
0
 11
489.1809623724668
 21
248.5963347476387
 31
0
  0
LINE
  8
1
 62
2
 10
491.1809623724668
 20
251.5963347476387
 30
0
 11
488.8476290391334
 21
249.7213347476387
 31
0
  0
LINE
  8
1
 62
2
 10
487.1809623724668
 20
242.5963347476387
 30
0
 11
486.1809623724668
 21
242.9713347476387
 31
0
  0
LINE
  8
1
 62
2
 10
487.1809623724668
 20
254.2213347476387
 30
0
 11
487.1809623724668
 21
242.5963347476387
 31
0
  0
LINE
  8
1
 62
2
 10
485.5142957058001
 20
250.4713347476387
 30
0
 11
482.1809623724668
 21
250.4713347476387
 31
0
  0
LINE
  8
1
 62
2
 10
484.8476290391334
 20
248.2213347476387
 30
0
 11
485.5142957058001
 21
250.4713347476387
 31
0
  0
LINE
  8
1
 62
2
 10
483.5142957058001
 20
245.9713347476387
 30
0
 11
484.8476290391334
 21
248.2213347476387
 31
0
  0
LINE
  8
1
 62
2
 10
482.1809623724668
 20
244.4713347476387
 30
0
 11
483.5142957058001
 21
245.9713347476387
 31
0
  0
LINE
  8
1
 62
2
 10
473.7142957058001
 20
250.9963347476387
 30
0
 11
473.7142957058001
 21
242.5963347476387
 31
0
  0
LINE
  8
1
 62
2
 10
477.9142957058001
 20
249.4963347476387
 30
0
 11
477.9142957058001
 21
242.5963347476387
 31
0
  0
LINE
  8
1
 62
2
 10
477.6142957058002
 20
250.0963347476387
 30
0
 11
477.9142957058001
 21
249.4963347476387
 31
0
  0
LINE
  8
1
 62
2
 10
477.0142957058001
 20
250.6963347476387
 30
0
 11
477.6142957058002
 21
250.0963347476387
 31
0
  0
LINE
  8
1
 62
2
 10
476.1142957058002
 20
250.9963347476387
 30
0
 11
477.0142957058001
 21
250.6963347476387
 31
0
  0
LINE
  8
1
 62
2
 10
469.5142957058001
 20
250.9963347476387
 30
0
 11
476.1142957058002
 21
250.9963347476387
 31
0
  0
LINE
  8
1
 62
2
 10
469.5142957058001
 20
242.5963347476387
 30
0
 11
469.5142957058001
 21
250.9963347476387
 31
0
  0
LINE
  8
1
 62
2
 10
461.7142957058001
 20
250.9963347476387
 30
0
 11
461.7142957058001
 21
242.5963347476387
 31
0
  0
LINE
  8
1
 62
2
 10
465.9142957058001
 20
249.4963347476387
 30
0
 11
465.9142957058001
 21
242.5963347476387
 31
0
  0
LINE
  8
1
 62
2
 10
465.6142957058002
 20
250.0963347476387
 30
0
 11
465.9142957058001
 21
249.4963347476387
 31
0
  0
LINE
  8
1
 62
2
 10
465.0142957058001
 20
250.6963347476387
 30
0
 11
465.6142957058002
 21
250.0963347476387
 31
0
  0
LINE
  8
1
 62
2
 10
464.1142957058002
 20
250.9963347476387
 30
0
 11
465.0142957058001
 21
250.6963347476387
 31
0
  0
LINE
  8
1
 62
2
 10
457.5142957058001
 20
250.9963347476387
 30
0
 11
464.1142957058002
 21
250.9963347476387
 31
0
  0
LINE
  8
1
 62
2
 10
457.5142957058001
 20
242.5963347476387
 30
0
 11
457.5142957058001
 21
250.9963347476387
 31
0
  0
LINE
  8
1
 62
2
 10
453.9142957058001
 20
250.0963347476387
 30
0
 11
453.9142957058001
 21
247.0963347476387
 31
0
  0
LINE
  8
1
 62
2
 10
453.6142957058001
 20
251.8963347476387
 30
0
 11
453.9142957058001
 21
250.0963347476387
 31
0
  0
LINE
  8
1
 62
2
 10
453.0142957058001
 20
253.0963347476387
 30
0
 11
453.6142957058001
 21
251.8963347476387
 31
0
  0
LINE
  8
1
 62
2
 10
452.4142957058001
 20
253.6963347476387
 30
0
 11
453.0142957058001
 21
253.0963347476387
 31
0
  0
LINE
  8
1
 62
2
 10
451.5142957058001
 20
254.2963347476387
 30
0
 11
452.4142957058001
 21
253.6963347476387
 31
0
  0
LINE
  8
1
 62
2
 10
450.6142957058001
 20
254.5963347476387
 30
0
 11
451.5142957058001
 21
254.2963347476387
 31
0
  0
LINE
  8
1
 62
2
 10
450.0142957058001
 20
254.5963347476387
 30
0
 11
450.6142957058001
 21
254.5963347476387
 31
0
  0
LINE
  8
1
 62
2
 10
449.1142957058001
 20
254.2963347476387
 30
0
 11
450.0142957058001
 21
254.5963347476387
 31
0
  0
LINE
  8
1
 62
2
 10
448.2142957058001
 20
253.6963347476387
 30
0
 11
449.1142957058001
 21
254.2963347476387
 31
0
  0
LINE
  8
1
 62
2
 10
447.6142957058001
 20
253.0963347476387
 30
0
 11
448.2142957058001
 21
253.6963347476387
 31
0
  0
LINE
  8
1
 62
2
 10
447.0142957058001
 20
251.8963347476387
 30
0
 11
447.6142957058001
 21
253.0963347476387
 31
0
  0
LINE
  8
1
 62
2
 10
446.7142957058001
 20
250.0963347476387
 30
0
 11
447.0142957058001
 21
251.8963347476387
 31
0
  0
LINE
  8
1
 62
2
 10
446.7142957058001
 20
247.0963347476387
 30
0
 11
446.7142957058001
 21
250.0963347476387
 31
0
  0
LINE
  8
1
 62
2
 10
447.0142957058001
 20
245.2963347476387
 30
0
 11
446.7142957058001
 21
247.0963347476387
 31
0
  0
LINE
  8
1
 62
2
 10
447.6142957058001
 20
244.0963347476387
 30
0
 11
447.0142957058001
 21
245.2963347476387
 31
0
  0
LINE
  8
1
 62
2
 10
448.2142957058001
 20
243.4963347476387
 30
0
 11
447.6142957058001
 21
244.0963347476387
 31
0
  0
LINE
  8
1
 62
2
 10
449.1142957058001
 20
242.8963347476387
 30
0
 11
448.2142957058001
 21
243.4963347476387
 31
0
  0
LINE
  8
1
 62
2
 10
450.0142957058001
 20
242.5963347476387
 30
0
 11
449.1142957058001
 21
242.8963347476387
 31
0
  0
LINE
  8
1
 62
2
 10
450.6142957058001
 20
242.5963347476387
 30
0
 11
450.0142957058001
 21
242.5963347476387
 31
0
  0
LINE
  8
1
 62
2
 10
451.5142957058001
 20
242.8963347476387
 30
0
 11
450.6142957058001
 21
242.5963347476387
 31
0
  0
LINE
  8
1
 62
2
 10
452.4142957058001
 20
243.4963347476387
 30
0
 11
451.5142957058001
 21
242.8963347476387
 31
0
  0
LINE
  8
1
 62
2
 10
453.0142957058001
 20
244.0963347476387
 30
0
 11
452.4142957058001
 21
243.4963347476387
 31
0
  0
LINE
  8
1
 62
2
 10
453.6142957058001
 20
245.2963347476387
 30
0
 11
453.0142957058001
 21
244.0963347476387
 31
0
  0
LINE
  8
1
 62
2
 10
453.9142957058001
 20
247.0963347476387
 30
0
 11
453.6142957058001
 21
245.2963347476387
 31
0
  0
LINE
  8
1
 62
2
 10
440.4142957058001
 20
242.5963347476387
 30
0
 11
435.9142957058001
 21
242.5963347476387
 31
0
  0
LINE
  8
1
 62
2
 10
441.3142957058001
 20
242.8963347476387
 30
0
 11
440.4142957058001
 21
242.5963347476387
 31
0
  0
LINE
  8
1
 62
2
 10
442.2142957058001
 20
243.4963347476387
 30
0
 11
441.3142957058001
 21
242.8963347476387
 31
0
  0
LINE
  8
1
 62
2
 10
442.8142957058001
 20
244.3963347476387
 30
0
 11
442.2142957058001
 21
243.4963347476387
 31
0
  0
LINE
  8
1
 62
2
 10
443.1142957058001
 20
245.5963347476387
 30
0
 11
442.8142957058001
 21
244.3963347476387
 31
0
  0
LINE
  8
1
 62
2
 10
443.1142957058001
 20
247.3963347476387
 30
0
 11
443.1142957058001
 21
245.5963347476387
 31
0
  0
LINE
  8
1
 62
2
 10
442.8142957058001
 20
248.5963347476387
 30
0
 11
443.1142957058001
 21
247.3963347476387
 31
0
  0
LINE
  8
1
 62
2
 10
441.9142957058001
 20
249.4963347476387
 30
0
 11
442.8142957058001
 21
248.5963347476387
 31
0
  0
LINE
  8
1
 62
2
 10
440.4142957058001
 20
249.7963347476387
 30
0
 11
441.9142957058001
 21
249.4963347476387
 31
0
  0
LINE
  8
1
 62
2
 10
435.9142957058001
 20
249.7963347476387
 30
0
 11
440.4142957058001
 21
249.7963347476387
 31
0
  0
LINE
  8
1
 62
2
 10
435.9142957058001
 20
254.5963347476387
 30
0
 11
435.9142957058001
 21
249.7963347476387
 31
0
  0
LINE
  8
1
 62
2
 10
442.5142957058001
 20
254.5963347476387
 30
0
 11
435.9142957058001
 21
254.5963347476387
 31
0
  0
LINE
  8
1
 62
2
 10
429.5809623724668
 20
247.4713347476387
 30
0
 11
429.5809623724668
 21
242.9713347476387
 31
0
  0
LINE
  8
1
 62
2
 10
433.5809623724668
 20
247.4713347476387
 30
0
 11
432.5809623724668
 21
247.4713347476387
 31
0
  0
LINE
  8
1
 62
2
 10
433.5809623724668
 20
254.2213347476387
 30
0
 11
433.5809623724668
 21
247.4713347476387
 31
0
  0
LINE
  8
1
 62
2
 10
431.2476290391334
 20
248.9713347476387
 30
0
 11
431.2476290391334
 21
253.8463347476387
 31
0
  0
LINE
  8
1
 62
2
 10
427.9142957058001
 20
253.8463347476387
 30
0
 11
427.9142957058001
 21
247.4713347476387
 31
0
  0
LINE
  8
1
 62
2
 10
424.2476290391334
 20
251.2213347476387
 30
0
 11
429.9142957058001
 21
251.2213347476387
 31
0
  0
LINE
  8
1
 62
2
 10
429.5809623724668
 20
253.8463347476387
 30
0
 11
424.5809623724668
 21
253.8463347476387
 31
0
  0
LINE
  8
1
 62
2
 10
426.2476290391334
 20
251.2213347476387
 30
0
 11
426.2476290391334
 21
253.8463347476387
 31
0
  0
LINE
  8
1
 62
2
 10
425.5809623724668
 20
248.5963347476387
 30
0
 11
426.2476290391334
 21
251.2213347476387
 31
0
  0
LINE
  8
1
 62
2
 10
424.5809623724668
 20
247.0963347476387
 30
0
 11
425.5809623724668
 21
248.5963347476387
 31
0
  0
LINE
  8
1
 62
2
 10
432.9142957058001
 20
245.5963347476387
 30
0
 11
425.5809623724668
 21
245.5963347476387
 31
0
  0
LINE
  8
1
 62
2
 10
424.5809623724668
 20
242.9713347476387
 30
0
 11
434.2476290391334
 21
242.9713347476387
 31
0
  0
LINE
  8
1
 62
2
 10
417.9142957058001
 20
242.5963347476387
 30
0
 11
420.3142957058001
 21
254.5963347476387
 31
0
  0
LINE
  8
1
 62
2
 10
414.9142957058001
 20
250.9963347476387
 30
0
 11
417.9142957058001
 21
242.5963347476387
 31
0
  0
LINE
  8
1
 62
2
 10
411.9142957058001
 20
242.5963347476387
 30
0
 11
414.9142957058001
 21
250.9963347476387
 31
0
  0
LINE
  8
1
 62
2
 10
409.5142957058001
 20
254.5963347476387
 30
0
 11
411.9142957058001
 21
242.5963347476387
 31
0
  0
LINE
  8
1
 62
2
 10
405.6142957058002
 20
252.1963347476387
 30
0
 11
405.9142957058001
 21
250.9963347476387
 31
0
  0
LINE
  8
1
 62
2
 10
405.0142957058001
 20
253.0963347476387
 30
0
 11
405.6142957058002
 21
252.1963347476387
 31
0
  0
LINE
  8
1
 62
2
 10
404.4142957058001
 20
253.6963347476387
 30
0
 11
405.0142957058001
 21
253.0963347476387
 31
0
  0
LINE
  8
1
 62
2
 10
403.5142957058001
 20
254.2963347476387
 30
0
 11
404.4142957058001
 21
253.6963347476387
 31
0
  0
LINE
  8
1
 62
2
 10
402.3142957058001
 20
254.5963347476387
 30
0
 11
403.5142957058001
 21
254.2963347476387
 31
0
  0
LINE
  8
1
 62
2
 10
397.5142957058001
 20
254.5963347476387
 30
0
 11
402.3142957058001
 21
254.5963347476387
 31
0
  0
LINE
  8
1
 62
2
 10
397.5142957058001
 20
242.5963347476387
 30
0
 11
397.5142957058001
 21
254.5963347476387
 31
0
  0
LINE
  8
1
 62
2
 10
402.3142957058001
 20
242.5963347476387
 30
0
 11
397.5142957058001
 21
242.5963347476387
 31
0
  0
LINE
  8
1
 62
2
 10
403.5142957058001
 20
242.8963347476387
 30
0
 11
402.3142957058001
 21
242.5963347476387
 31
0
  0
LINE
  8
1
 62
2
 10
404.4142957058001
 20
243.4963347476387
 30
0
 11
403.5142957058001
 21
242.8963347476387
 31
0
  0
LINE
  8
1
 62
2
 10
405.0142957058001
 20
244.0963347476387
 30
0
 11
404.4142957058001
 21
243.4963347476387
 31
0
  0
LINE
  8
1
 62
2
 10
405.6142957058002
 20
244.9963347476387
 30
0
 11
405.0142957058001
 21
244.0963347476387
 31
0
  0
LINE
  8
1
 62
2
 10
405.9142957058001
 20
246.1963347476387
 30
0
 11
405.6142957058002
 21
244.9963347476387
 31
0
  0
LINE
  8
1
 62
2
 10
405.9142957058001
 20
250.9963347476387
 30
0
 11
405.9142957058001
 21
246.1963347476387
 31
0
  0
LINE
  8
1
 62
2
 10
385.5142957058001
 20
254.5963347476387
 30
0
 11
385.5142957058001
 21
242.5963347476387
 31
0
  0
LINE
  8
1
 62
2
 10
393.9142957058001
 20
254.5963347476387
 30
0
 11
385.5142957058001
 21
254.5963347476387
 31
0
  0
LINE
  8
1
 62
2
 10
385.5142957058001
 20
249.1963347476387
 30
0
 11
393.9142957058001
 21
249.1963347476387
 31
0
  0
LINE
  8
1
 62
2
 10
381.9142957058001
 20
242.5963347476387
 30
0
 11
381.9142957058001
 21
254.5963347476387
 31
0
  0
LINE
  8
1
 62
2
 10
373.5142957058001
 20
254.5963347476387
 30
0
 11
381.9142957058001
 21
242.5963347476387
 31
0
  0
LINE
  8
1
 62
2
 10
373.5142957058001
 20
242.5963347476387
 30
0
 11
373.5142957058001
 21
254.5963347476387
 31
0
  0
LINE
  8
1
 62
2
  6
DASHDOT
 10
104.5868407330009
 20
694.5475206695001
 30
0
 11
-8.2911052355
 21
694.5475206695001
 31
0
  0
LINE
  8
0
 62
7
 10
111.6946164455
 20
695.4217531703
 30
0
 11
111.6946164455
 21
695.3826096825001
 31
0
  0
LINE
  8
0
 62
7
 10
170.0143042888
 20
692.9777829893001
 30
0
 11
170.0143042888
 21
696.1172574185
 31
0
  0
LINE
  8
0
 62
7
 10
198.0143014278
 20
696.1172574185
 30
0
 11
170.0143042888
 21
696.1172574185
 31
0
  0
LINE
  8
0
 62
7
 10
198.0143014278
 20
696.1172574185
 30
0
 11
198.0143014278
 21
698.7241242997
 31
0
  0
LINE
  8
0
 62
7
 10
210.0142959442
 20
694.5475206695001
 30
0
 11
198.0143014278
 21
698.7241242997
 31
0
  0
LINE
  8
0
 62
7
 10
198.0143014278
 20
690.3709170392999
 30
0
 11
210.0142959442
 21
694.5475206695001
 31
0
  0
LINE
  8
0
 62
7
 10
198.0143014278
 20
690.3709170392999
 30
0
 11
198.0143014278
 21
692.9777829893001
 31
0
  0
LINE
  8
0
 62
7
 10
170.0143042888
 20
692.9777829893001
 30
0
 11
198.0143014278
 21
692.9777829893001
 31
0
  0
LINE
  8
0
 62
7
 10
157.7179852809
 20
694.4611628524999
 30
0
 11
157.7179852809
 21
694.4571153246
 31
0
  0
LINE
  8
0
 62
7
 10
143.1706670608
 20
694.4611628524999
 30
0
 11
143.1706670608
 21
694.4571153246
 31
0
  0
LINE
  8
0
 62
7
 10
147.0776621189
 20
694.4611628524999
 30
0
 11
147.0776621189
 21
694.4571153246
 31
0
  0
LINE
  8
0
 62
7
 10
153.8109902229
 20
694.4611628524999
 30
0
 11
153.8109902229
 21
694.4571153246
 31
0
  0
LINE
  8
0
 62
7
 10
159.7130421485
 20
685.3832171283
 30
0
 11
157.9436186637
 21
685.3832171283
 31
0
  0
LINE
  8
0
 62
7
 10
157.9436186637
 20
685.3832171283
 30
0
 11
157.9436186637
 21
692.1765810795
 31
0
  0
LINE
  8
0
 62
7
 10
155.6398097362
 20
685.3832171283
 30
0
 11
155.6398097362
 21
691.3737698443001
 31
0
  0
LINE
  8
0
 62
7
 10
155.6398097362
 20
685.3832171283
 30
0
 11
153.8703564491
 21
685.3832171283
 31
0
  0
LINE
  8
0
 62
7
 10
153.8703564491
 20
685.3832171283
 30
0
 11
153.8703564491
 21
692.2435506232
 31
0
  0
LINE
  8
0
 62
7
 10
151.6496661987
 20
685.3832171283
 30
0
 11
151.6496661987
 21
691.3737698443001
 31
0
  0
LINE
  8
0
 62
7
 10
151.6496661987
 20
685.3832171283
 30
0
 11
149.8802427139
 21
685.3832171283
 31
0
  0
LINE
  8
0
 62
7
 10
149.8802427139
 20
685.3832171283
 30
0
 11
149.8802427139
 21
694.4571153246
 31
0
  0
LINE
  8
0
 62
7
 10
149.8802427139
 20
694.4571153246
 30
0
 11
151.6496661987
 21
694.4571153246
 31
0
  0
LINE
  8
0
 62
7
 10
151.6496661987
 20
693.316133412
 30
0
 11
151.6496661987
 21
694.4571153246
 31
0
  0
LINE
  8
0
 62
7
 10
159.7130421485
 20
685.3832171283
 30
0
 11
159.7130421485
 21
692.7796152404999
 31
0
  0
LINE
  8
0
 62
7
 10
149.0727189865
 20
685.3832171283
 30
0
 11
147.3032955017
 21
685.3832171283
 31
0
  0
LINE
  8
0
 62
7
 10
147.3032955017
 20
685.3832171283
 30
0
 11
147.3032955017
 21
692.1765810795
 31
0
  0
LINE
  8
0
 62
7
 10
144.9994865741
 20
685.3832171283
 30
0
 11
144.9994865741
 21
691.3737698443001
 31
0
  0
LINE
  8
0
 62
7
 10
144.9994865741
 20
685.3832171283
 30
0
 11
143.2300630893
 21
685.3832171283
 31
0
  0
LINE
  8
0
 62
7
 10
143.2300630893
 20
685.3832171283
 30
0
 11
143.2300630893
 21
692.2435506232
 31
0
  0
LINE
  8
0
 62
7
 10
141.0093728389
 20
685.3832171283
 30
0
 11
141.0093728389
 21
691.3737698443001
 31
0
  0
LINE
  8
0
 62
7
 10
141.0093728389
 20
685.3832171283
 30
0
 11
139.2399195518
 21
685.3832171283
 31
0
  0
LINE
  8
0
 62
7
 10
139.2399195518
 20
685.3832171283
 30
0
 11
139.2399195518
 21
694.4571153246
 31
0
  0
LINE
  8
0
 62
7
 10
139.2399195518
 20
694.4571153246
 30
0
 11
141.0093728389
 21
694.4571153246
 31
0
  0
LINE
  8
0
 62
7
 10
141.0093728389
 20
693.316133412
 30
0
 11
141.0093728389
 21
694.4571153246
 31
0
  0
LINE
  8
0
 62
7
 10
149.0727189865
 20
685.3832171283
 30
0
 11
149.0727189865
 21
692.7796152404999
 31
0
  0
LINE
  8
0
 62
7
 10
134.8339740123
 20
694.7927770189999
 30
0
 11
134.8339740123
 21
694.7817948632001
 31
0
  0
LINE
  8
0
 62
7
 10
123.7357381668
 20
694.7927770189999
 30
0
 11
123.7357381668
 21
694.7817948632001
 31
0
  0
LINE
  8
0
 62
7
 10
149.0727189865
 20
692.8587748653999
 30
0
 11
149.0727189865
 21
692.7796152404999
 31
0
  0
LINE
  8
0
 62
7
 10
113.7490395393
 20
693.8261219285
 30
0
 11
111.6012159671
 21
693.8261219285
 31
0
  0
LINE
  8
0
 62
7
 10
112.2065905418
 20
704.0381298385
 30
0
 11
121.0133556213
 21
704.0381298385
 31
0
  0
LINE
  8
0
 62
7
 10
121.0133556213
 20
702.2702132336999
 30
0
 11
121.0133556213
 21
704.0381298385
 31
0
  0
LINE
  8
0
 62
7
 10
121.0133556213
 20
702.2702132336999
 30
0
 11
114.251804718
 21
702.2702132336999
 31
0
  0
LINE
  8
0
 62
7
 10
114.251804718
 20
702.2702132336999
 30
0
 11
113.8482216682
 21
696.0490045122999
 31
0
  0
LINE
  8
0
 62
7
 10
111.1258391227
 20
690.6447938628
 30
0
 11
113.4446684207
 21
690.6447938628
 31
0
  0
LINE
  8
0
 62
7
 10
111.6012159671
 20
693.8261219285
 30
0
 11
111.6012159671
 21
693.8584239207
 31
0
  0
LINE
  8
0
 62
7
 10
121.4169088687
 20
691.7990601606
 30
0
 11
121.4169088687
 21
691.922126057
 31
0
  0
LINE
  8
0
 62
7
 10
118.0857542839
 20
695.2760794185001
 30
0
 11
118.0857542839
 21
695.2434570513001
 31
0
  0
LINE
  8
0
 62
7
 10
139.2399195520533
 20
694.4611628525386
 30
0
 11
139.2399195518
 21
694.4571153246
 31
0
  0
LINE
  8
0
 62
7
 10
139.2399195520533
 20
694.4611628525386
 30
0
 11
141.0093728389
 21
694.4611628524999
 31
0
  0
LINE
  8
0
 62
7
 10
141.0093728389
 20
694.4611628524999
 30
0
 11
141.0093728389
 21
694.4571153246
 31
0
  0
LINE
  8
0
 62
7
 10
149.8802427139
 20
694.4611628524999
 30
0
 11
149.8802427139
 21
694.4571153246
 31
0
  0
LINE
  8
0
 62
7
 10
149.8802427139
 20
694.4611628524999
 30
0
 11
151.6496661987
 21
694.4611628524999
 31
0
  0
LINE
  8
0
 62
7
 10
151.6496661987
 20
694.4611628524999
 30
0
 11
151.6496661987
 21
694.4571153246
 31
0
  0
LINE
  8
0
 62
7
 10
54.0143076267
 20
662.5475191496
 30
0
 11
308.0142989691
 21
662.5475191496
 31
0
  0
LINE
  8
0
 62
7
 10
54.0143076267
 20
662.5475191496
 30
0
 11
54.0143076267
 21
726.5475203267999
 31
0
  0
LINE
  8
0
 62
7
 10
308.0142989691
 20
726.5475203267999
 30
0
 11
54.0143076267
 21
726.5475203267999
 31
0
  0
LINE
  8
0
 62
7
 10
38.27260173220001
 20
660.1862662456999
 30
0
 11
54.0143076267
 21
662.5475191496
 31
0
  0
LINE
  8
0
 62
7
 10
54.0143076267
 20
726.5475203267999
 30
0
 11
38.27260173220001
 21
728.9087732307
 31
0
  0
LINE
  8
0
 62
7
 10
111.125836977
 20
472.0588979142001
 30
0
 11
54.01430548089999
 21
472.0588979142001
 31
0
  0
LINE
  8
0
 62
7
 10
123.7610381927
 20
472.0588979142001
 30
0
 11
121.416906723
 21
472.0588979142001
 31
0
  0
LINE
  8
0
 62
7
 10
170.014302143
 20
472.0588979142001
 30
0
 11
159.7130400028
 21
472.0588979142001
 31
0
  0
LINE
  8
0
 62
7
 10
149.8802405681
 20
472.0588979142001
 30
0
 11
149.0727168407
 21
472.0588979142001
 31
0
  0
LINE
  8
0
 62
7
 10
139.239917406
 20
472.0588979142001
 30
0
 11
134.8086994972
 21
472.0588979142001
 31
0
  0
LINE
  8
0
 62
7
 10
114.2227751102
 20
473.5588972287001
 30
0
 11
111.6433841075
 21
473.5588972287001
 31
0
  0
LINE
  8
0
 62
7
 10
120.9728223171
 20
473.5588972287001
 30
0
 11
118.6012131061
 21
473.5588972287001
 31
0
  0
LINE
  8
0
 62
7
 10
126.0795098628
 20
473.5588972287001
 30
0
 11
123.7282556381
 21
473.5588972287001
 31
0
  0
LINE
  8
0
 62
7
 10
134.8414820518
 20
473.5588972287001
 30
0
 11
132.4936848964
 21
473.5588972287001
 31
0
  0
LINE
  8
0
 62
7
 10
210.0218039836
 20
473.5588972287001
 30
0
 11
170.014302143
 21
473.5588972287001
 31
0
  0
LINE
  8
0
 62
7
 10
141.0093706932
 20
470.8382432179001
 30
0
 11
139.239917406
 21
470.8382432179001
 31
0
  0
LINE
  8
0
 62
7
 10
144.9994844284
 20
470.8382432179001
 30
0
 11
143.2300609436
 21
470.8382432179001
 31
0
  0
LINE
  8
0
 62
7
 10
149.0727168407
 20
470.8382432179001
 30
0
 11
147.3032933559
 21
470.8382432179001
 31
0
  0
LINE
  8
0
 62
7
 10
151.6496640529
 20
470.8382432179001
 30
0
 11
149.8802405681
 21
470.8382432179001
 31
0
  0
LINE
  8
0
 62
7
 10
155.6398075904
 20
470.8382432179001
 30
0
 11
153.8703543033
 21
470.8382432179001
 31
0
  0
LINE
  8
0
 62
7
 10
159.7130400028
 20
470.8382432179001
 30
0
 11
157.943616518
 21
470.8382432179001
 31
0
  0
LINE
  8
0
 62
7
 10
170.014302143
 20
472.0237460749002
 30
0
 11
198.014299282
 21
472.0237460749002
 31
0
  0
LINE
  8
0
 62
7
 10
198.014299282
 20
471.8092215078
 30
0
 11
210.0142937984
 21
472.0588979142001
 31
0
  0
LINE
  8
0
 62
7
 10
159.7130400028
 20
472.2810257988001
 30
0
 11
157.943616518
 21
472.2810257988001
 31
0
  0
LINE
  8
0
 62
7
 10
155.6398075904
 20
472.2810257988001
 30
0
 11
155.6398075904
 21
473.408220412
 31
0
  0
LINE
  8
0
 62
7
 10
155.6398075904
 20
472.2810257988001
 30
0
 11
153.8703543033
 21
472.2810257988001
 31
0
  0
LINE
  8
0
 62
7
 10
153.8703543033
 20
472.2810257988001
 30
0
 11
153.8703543033
 21
473.4795746224002
 31
0
  0
LINE
  8
0
 62
7
 10
151.6496640529
 20
472.2810257988001
 30
0
 11
151.6496640529
 21
473.408220412
 31
0
  0
LINE
  8
0
 62
7
 10
151.6496640529
 20
472.2810257988001
 30
0
 11
149.8802405681
 21
472.2810257988001
 31
0
  0
LINE
  8
0
 62
7
 10
149.8802405681
 20
472.2810257988001
 30
0
 11
149.8802405681
 21
473.5587742941
 31
0
  0
LINE
  8
0
 62
7
 10
149.8802405681
 20
473.5587742941
 30
0
 11
151.6496640529
 21
473.5587742941
 31
0
  0
LINE
  8
0
 62
7
 10
151.6496640529
 20
473.5362586396002
 30
0
 11
151.6496640529
 21
473.5587742941
 31
0
  0
LINE
  8
0
 62
7
 10
159.7130400028
 20
472.2810257988001
 30
0
 11
159.7130400028
 21
473.5122156160001
 31
0
  0
LINE
  8
0
 62
7
 10
157.943616518
 20
472.2810257988001
 30
0
 11
157.943616518
 21
473.4748919325
 31
0
  0
LINE
  8
0
 62
7
 10
149.0727168407
 20
472.2810257988001
 30
0
 11
147.3032933559
 21
472.2810257988001
 31
0
  0
LINE
  8
0
 62
7
 10
144.9994844284
 20
472.2810257988001
 30
0
 11
144.9994844284
 21
473.408220412
 31
0
  0
LINE
  8
0
 62
7
 10
144.9994844284
 20
472.2810257988001
 30
0
 11
143.2300609436
 21
472.2810257988001
 31
0
  0
LINE
  8
0
 62
7
 10
141.0093706932
 20
472.2810257988001
 30
0
 11
141.0093706932
 21
473.408220412
 31
0
  0
LINE
  8
0
 62
7
 10
141.0093706932
 20
472.2810257988001
 30
0
 11
139.239917406
 21
472.2810257988001
 31
0
  0
LINE
  8
0
 62
7
 10
139.239917406
 20
472.2810257988001
 30
0
 11
139.239917406
 21
473.5587742941
 31
0
  0
LINE
  8
0
 62
7
 10
139.239917406
 20
473.5587742941
 30
0
 11
141.0093706932
 21
473.5587742941
 31
0
  0
LINE
  8
0
 62
7
 10
141.0093706932
 20
473.5362586396002
 30
0
 11
141.0093706932
 21
473.5587742941
 31
0
  0
LINE
  8
0
 62
7
 10
149.0727168407
 20
472.2810257988001
 30
0
 11
149.0727168407
 21
473.5122156160001
 31
0
  0
LINE
  8
0
 62
7
 10
147.3032933559
 20
472.2810257988001
 30
0
 11
147.3032933559
 21
473.4748919325
 31
0
  0
LINE
  8
0
 62
7
 10
143.2300609436
 20
472.2810257988001
 30
0
 11
143.2300609436
 21
473.4795746224002
 31
0
  0
LINE
  8
0
 62
7
 10
149.0727168407
 20
470.8382432179001
 30
0
 11
149.0727168407
 21
472.2810257988001
 31
0
  0
LINE
  8
0
 62
7
 10
147.3032933559
 20
470.8382432179001
 30
0
 11
147.3032933559
 21
472.2810257988001
 31
0
  0
LINE
  8
0
 62
7
 10
159.7130400028
 20
470.8382432179001
 30
0
 11
159.7130400028
 21
472.2810257988001
 31
0
  0
LINE
  8
0
 62
7
 10
157.943616518
 20
470.8382432179001
 30
0
 11
157.943616518
 21
472.2810257988001
 31
0
  0
LINE
  8
0
 62
7
 10
149.8802405681
 20
470.8382432179001
 30
0
 11
149.8802405681
 21
472.2810257988001
 31
0
  0
LINE
  8
0
 62
7
 10
151.6496640529
 20
470.8382432179001
 30
0
 11
151.6496640529
 21
472.2810257988001
 31
0
  0
LINE
  8
0
 62
7
 10
139.239917406
 20
470.8382432179001
 30
0
 11
139.239917406
 21
472.2810257988001
 31
0
  0
LINE
  8
0
 62
7
 10
141.0093706932
 20
470.8382432179001
 30
0
 11
141.0093706932
 21
472.2810257988001
 31
0
  0
LINE
  8
0
 62
7
 10
155.6398075904
 20
470.8382432179001
 30
0
 11
155.6398075904
 21
472.2810257988001
 31
0
  0
LINE
  8
0
 62
7
 10
153.8703543033
 20
470.8382432179001
 30
0
 11
153.8703543033
 21
472.2810257988001
 31
0
  0
LINE
  8
0
 62
7
 10
144.9994844284
 20
470.8382432179001
 30
0
 11
144.9994844284
 21
472.2810257988001
 31
0
  0
LINE
  8
0
 62
7
 10
143.2300609436
 20
470.8382432179001
 30
0
 11
143.2300609436
 21
472.2810257988001
 31
0
  0
LINE
  8
0
 62
7
 10
112.7401095714
 20
472.5919385271002
 30
0
 11
112.7401095714
 21
471.1352345364001
 31
0
  0
LINE
  8
0
 62
7
 10
116.0678666915
 20
472.2977300005
 30
0
 11
116.0678666915
 21
470.8542004989001
 31
0
  0
LINE
  8
0
 62
7
 10
129.2865675773
 20
472.2977300005
 30
0
 11
129.2865675773
 21
470.8542004989001
 31
0
  0
LINE
  8
0
 62
7
 10
132.4125629749
 20
472.6375137286002
 30
0
 11
132.4125629749
 21
471.1787701415001
 31
0
  0
LINE
  8
0
 62
7
 10
126.157174715
 20
472.6375137286002
 30
0
 11
126.157174715
 21
471.1787701415001
 31
0
  0
LINE
  8
0
 62
7
 10
119.4982332076
 20
472.6375137286002
 30
0
 11
119.4982332076
 21
471.1787701415001
 31
0
  0
LINE
  8
0
 62
7
 10
113.7490373935
 20
473.5511262732
 30
0
 11
111.6012138214
 21
473.5511262732
 31
0
  0
LINE
  8
0
 62
7
 10
111.125836977
 20
473.3307865279001
 30
0
 11
113.444666275
 21
473.3307865279001
 31
0
  0
LINE
  8
0
 62
7
 10
111.125836977
 20
473.3307865279001
 30
0
 11
111.125836977
 21
471.8410019593
 31
0
  0
LINE
  8
0
 62
7
 10
123.735736021
 20
473.5579994338
 30
0
 11
123.735736021
 21
472.0580373721
 31
0
  0
LINE
  8
0
 62
7
 10
121.416906723
 20
473.4459576027
 30
0
 11
121.416906723
 21
471.9510172324001
 31
0
  0
LINE
  8
0
 62
7
 10
134.8339718666
 20
473.5579994338
 30
0
 11
134.8339718666
 21
472.0580373721
 31
0
  0
LINE
  8
0
 62
7
 10
170.014302143
 20
473.5220988112001
 30
0
 11
170.014302143
 21
473.5588972287001
 31
0
  0
LINE
  8
0
 62
7
 10
198.014299282
 20
473.2975196855
 30
0
 11
210.0142937984
 21
473.5588972287001
 31
0
  0
LINE
  8
0
 62
7
 10
198.014299282
 20
473.2975196855
 30
0
 11
198.014299282
 21
473.5220988112001
 31
0
  0
LINE
  8
0
 62
7
 10
170.014302143
 20
473.5220988112001
 30
0
 11
198.014299282
 21
473.5220988112001
 31
0
  0
LINE
  8
0
 62
7
 10
210.0142937984
 20
472.0588979142001
 30
0
 11
210.0142937984
 21
473.5588972287001
 31
0
  0
LINE
  8
0
 62
7
 10
198.014299282
 20
471.8092215078
 30
0
 11
198.014299282
 21
473.2975196855
 31
0
  0
LINE
  8
0
 62
7
 10
156.2216979351
 20
472.017625423
 30
0
 11
156.2216979351
 21
473.5156913118001
 31
0
  0
LINE
  8
0
 62
7
 10
152.2315841999
 20
472.017625423
 30
0
 11
152.2315841999
 21
473.5156913118001
 31
0
  0
LINE
  8
0
 62
7
 10
145.581374773
 20
472.017625423
 30
0
 11
145.581374773
 21
473.5156913118001
 31
0
  0
LINE
  8
0
 62
7
 10
141.5912610378
 20
472.017625423
 30
0
 11
141.5912610378
 21
473.5156913118001
 31
0
  0
LINE
  8
0
 62
7
 10
118.0857521381
 20
473.5509735363
 30
0
 11
118.0857521381
 21
472.9419034736
 31
0
  0
LINE
  8
0
 62
7
 10
142.5056558933
 20
472.0322993414
 30
0
 11
142.5056558933
 21
473.531054409
 31
0
  0
LINE
  8
0
 62
7
 10
146.4126509513
 20
472.0322993414
 30
0
 11
146.4126509513
 21
473.531054409
 31
0
  0
LINE
  8
0
 62
7
 10
157.0529741134
 20
472.0322993414
 30
0
 11
157.0529741134
 21
473.531054409
 31
0
  0
LINE
  8
0
 62
7
 10
153.1459790554
 20
472.0322993414
 30
0
 11
153.1459790554
 21
473.531054409
 31
0
  0
LINE
  8
0
 62
7
 10
170.014302143
 20
472.0237460749002
 30
0
 11
170.014302143
 21
473.5220988112001
 31
0
  0
LINE
  8
0
 62
7
 10
113.7490373935
 20
473.5511262732
 30
0
 11
113.7490373935
 21
473.0751720088001
 31
0
  0
LINE
  8
0
 62
7
 10
116.6732412662
 20
473.5333380120001
 30
0
 11
116.6732412662
 21
472.7717322128001
 31
0
  0
LINE
  8
0
 62
7
 10
111.6012138214
 20
473.5511262732
 30
0
 11
111.6012138214
 21
473.3307865279001
 31
0
  0
LINE
  8
0
 62
7
 10
308.014298686
 20
472.0588979142001
 30
0
 11
210.0142937984
 21
472.0588979142001
 31
0
  0
LINE
  8
0
 62
7
 10
167.134712347
 20
408.0588948743
 30
0
 11
308.014298686
 21
408.0588948743
 31
0
  0
LINE
  8
0
 62
7
 10
164.1334396686
 20
406.5588955598
 30
0
 11
167.1468120899
 21
406.5588955598
 31
0
  0
LINE
  8
0
 62
7
 10
154.3720764007
 20
406.5588955598
 30
0
 11
157.2039228763
 21
406.5588955598
 31
0
  0
LINE
  8
0
 62
7
 10
154.3720764007
 20
409.3699102120002
 30
0
 11
158.520649084
 21
409.3699102120002
 31
0
  0
LINE
  8
0
 62
7
 10
154.3720764007
 20
406.5588955598
 30
0
 11
154.3720764007
 21
407.9313632863
 31
0
  0
LINE
  8
0
 62
7
 10
154.3720764007
 20
407.9313632863
 30
0
 11
158.520649084
 21
407.9313632863
 31
0
  0
LINE
  8
0
 62
7
 10
158.520649084
 20
407.461198123
 30
0
 11
157.2039228763
 21
407.461198123
 31
0
  0
LINE
  8
0
 62
7
 10
157.2039228763
 20
406.5588955598
 30
0
 11
157.2039228763
 21
407.461198123
 31
0
  0
LINE
  8
0
 62
7
 10
157.2039228763
 20
407.3710908012001
 30
0
 11
158.520649084
 21
407.3710908012001
 31
0
  0
LINE
  8
0
 62
7
 10
158.520649084
 20
407.9313632863
 30
0
 11
158.520649084
 21
409.3699102120002
 31
0
  0
LINE
  8
0
 62
7
 10
164.3861335601
 20
407.4819479899002
 30
0
 11
164.3861335601
 21
408.9406170713
 31
0
  0
LINE
  8
0
 62
7
 10
154.3720764007
 20
407.9313632863
 30
0
 11
154.3720764007
 21
409.3699102120002
 31
0
  0
LINE
  8
0
 62
7
 10
167.1393317069
 20
406.5592271106
 30
0
 11
167.1393317069
 21
408.0592115240002
 31
0
  0
LINE
  8
0
 62
7
 10
54.01430548089999
 20
408.0588948743
 30
0
 11
154.3720764007
 21
408.0588948743
 31
0
  0
LINE
  8
0
 62
7
 10
54.01430548089999
 20
408.0588948743
 30
0
 11
54.01430548089999
 21
472.0588979142001
 31
0
  0
LINE
  8
0
 62
7
 10
54.01430548089999
 20
472.0588979142001
 30
0
 11
38.2725995864
 21
474.4201508181002
 31
0
  0
LINE
  8
0
 62
7
 10
38.2725995864
 20
405.6976419704001
 30
0
 11
54.01430548089999
 21
408.0588948743
 31
0
  0
LINE
  8
0
 62
7
 10
38.2725995864
 20
474.4201508181002
 30
0
 11
38.2725995864
 21
440.0588963943001
 31
0
  0
LINE
  8
1
 62
7
 10
746.3725450743341
 20
555.595403711372
 30
0
 11
746.3875982472
 21
551.5562240797
 31
0
  0
LINE
  8
1
 62
7
 10
734.4645896487859
 20
555.5595327931296
 30
0
 11
734.4923398019
 21
551.5562240797
 31
0
  0
LINE
  8
1
 62
7
 10
736.2979987197742
 20
555.5583257990561
 30
0
 11
736.2996089765001
 21
553.3910636621
 31
0
  0
LINE
  8
1
 62
7
 10
744.6262479321196
 20
555.5593986826742
 30
0
 11
744.6270372280044
 21
553.3900280313967
 31
0
  0
LINE
  8
1
 62
7
 10
744.6270372280044
 20
553.3900280313967
 30
0
 11
746.3875982472
 21
551.5562240797
 31
0
  0
LINE
  8
1
 62
7
 10
736.299608976577
 20
553.3910636621781
 30
0
 11
734.4923398019
 21
551.5562240797
 31
0
  0
LINE
  8
0
 62
7
 10
754.6649165951995
 20
558.5588981229
 30
0
 11
754.6649166876
 21
558.5588981229
 31
0
  0
LINE
  8
0
 62
7
 10
726.2649165952005
 20
558.5588981229
 30
0
 11
754.6649165951995
 21
558.5588981229
 31
0
  0
LINE
  8
0
 62
7
 10
794.9649152839
 20
555.0569129886394
 30
0
 11
794.9649152839
 21
555.0608797999605
 31
0
  0
LINE
  8
0
 62
7
 10
685.9649179065
 20
555.0569129885533
 30
0
 11
685.9649179065
 21
550.5588968116
 31
0
  0
LINE
  8
1
 62
7
 10
516.1830192294
 20
555.0588984805
 30
0
 11
516.1830676581
 21
551.4891092497001
 31
0
  0
LINE
  8
1
 62
7
 10
516.1830676581
 20
551.4891092497001
 30
0
 11
526.0142987455999
 21
553.5588954407
 31
0
  0
LINE
  8
0
 62
7
 10
409.8505569487778
 20
556.5588940698
 30
0
 11
525.0164518585183
 21
556.5588940698
 31
0
  0
LINE
  8
0
 62
7
 10
415.4620660331
 20
558.5567286767733
 30
0
 11
415.4620660331
 21
558.5610641118266
 31
0
  0
LINE
  8
0
 62
7
 10
412.9602564483246
 20
561.0588957387
 30
0
 11
402.0142992182
 21
561.0588957387
 31
0
  0
LINE
  8
1
 62
7
 10
482.0142952587
 20
485.0588981825
 30
0
 11
470.0142960857
 21
481.0588975268
 31
0
  0
LINE
  8
1
 62
7
 10
470.0142960857
 20
489.0588951128
 30
0
 11
482.0142952587
 21
485.0588981825
 31
0
  0
LINE
  8
0
 62
7
 10
355.0142949309
 20
472.0588979143
 30
0
 11
353.0142983284
 21
472.0588979143
 31
0
  0
LINE
  8
1
 62
7
 10
526.0142987456245
 20
697.7293833143978
 30
0
 11
526.0142957058
 21
691.3592209478001
 31
0
  0
LINE
  8
1
 62
7
 10
516.5140597012
 20
688.5489888474
 30
0
 11
525.2199809451672
 21
690.3806027473222
 31
0
  0
LINE
  8
1
 62
7
 10
516.5140597012
 20
688.5489888474
 30
0
 11
516.0964397575849
 21
688.5471937231199
 31
0
  0
LINE
  8
1
 62
7
 10
516.4076765861
 20
689.5485186934
 30
0
 11
516.5139665689
 21
688.5490898959
 31
0
  0
LINE
  8
1
 62
7
 10
516.0944728043054
 20
700.5702934212426
 30
0
 11
516.5037816252
 21
700.4702023215
 31
0
  0
LINE
  8
1
 62
7
 10
516.506653824
 20
700.4552708924
 30
0
 11
516.272444823
 21
699.4823344968
 31
0
  0
LINE
  8
0
 62
7
 10
498.9132141556
 20
718.1684604830999
 30
0
 11
493.8969654824
 21
718.1684604830999
 31
0
  0
LINE
  8
0
 62
7
 10
494.481806257
 20
716.8182802371999
 30
0
 11
498.9132141556
 21
716.8182802371999
 31
0
  0
LINE
  8
0
 62
7
 10
498.9132141556
 20
716.8182802371999
 30
0
 11
498.9132141556
 21
715.7803733818
 31
0
  0
LINE
  8
0
 62
7
 10
498.9132141556
 20
715.7803733818
 30
0
 11
493.8482312347
 21
715.7803733818
 31
0
  0
LINE
  8
0
 62
7
 10
494.481806257
 20
714.4789292462
 30
0
 11
498.9132141556
 21
714.4789292462
 31
0
  0
LINE
  8
0
 62
7
 10
498.9132141556
 20
714.4789292462
 30
0
 11
498.9132141556
 21
713.4410233222
 31
0
  0
LINE
  8
0
 62
7
 10
498.9132141556
 20
713.4410233222
 30
0
 11
492.2399265554
 21
713.4410233222
 31
0
  0
LINE
  8
0
 62
7
 10
492.2399265554
 20
713.4410233222
 30
0
 11
492.2399265554
 21
714.4789292462
 31
0
  0
LINE
  8
0
 62
7
 10
492.2399265554
 20
714.4789292462
 30
0
 11
493.0684478815
 21
714.4789292462
 31
0
  0
LINE
  8
0
 62
7
 10
493.4583386268
 20
719.2063664071
 30
0
 11
498.9132141556
 21
719.2063664071
 31
0
  0
LINE
  8
0
 62
7
 10
498.9132141556
 20
719.2063664071
 30
0
 11
498.9132141556
 21
718.1684604830999
 31
0
  0
LINE
  8
1
 62
7
 10
533.988148519
 20
656.5767505191
 30
0
 11
550.0102942671155
 21
656.5504983984205
 31
0
  0
LINE
  8
1
 62
7
 10
533.988148519
 20
732.51829082
 30
0
 11
549.9913399901502
 21
732.5445652924168
 31
0
  0
LINE
  8
1
 62
7
 10
508.855369487
 20
651.7216206513
 30
0
 11
503.3705426242
 21
642.2216200255
 31
0
  0
LINE
  8
1
 62
7
 10
519.8250232125999
 20
651.7216206513
 30
0
 11
508.855369487
 21
651.7216206513
 31
0
  0
LINE
  8
1
 62
7
 10
525.3098538007
 20
642.2216200255
 30
0
 11
519.8250232125999
 21
651.7216206513
 31
0
  0
LINE
  8
1
 62
7
 10
519.8250232125999
 20
632.7216193995999
 30
0
 11
525.3098538007
 21
642.2216200255
 31
0
  0
LINE
  8
1
 62
7
 10
508.855369487
 20
632.7216193995999
 30
0
 11
519.8250232125999
 21
632.7216193995999
 31
0
  0
LINE
  8
1
 62
7
 10
503.3705426242
 20
642.2216200255
 30
0
 11
508.855369487
 21
632.7216193995999
 31
0
  0
LINE
  8
1
 62
7
 10
508.855369487
 20
756.3734219394
 30
0
 11
503.3705426242
 21
746.8734213136
 31
0
  0
LINE
  8
1
 62
7
 10
519.8250232125999
 20
756.3734219394
 30
0
 11
508.855369487
 21
756.3734219394
 31
0
  0
LINE
  8
1
 62
7
 10
525.3098538007
 20
746.8734213136
 30
0
 11
519.8250232125999
 21
756.3734219394
 31
0
  0
LINE
  8
1
 62
7
 10
519.8250232125999
 20
737.3734206877
 30
0
 11
525.3098538007
 21
746.8734213136
 31
0
  0
LINE
  8
1
 62
7
 10
508.855369487
 20
737.3734206877
 30
0
 11
519.8250232125999
 21
737.3734206877
 31
0
  0
LINE
  8
1
 62
7
 10
503.3705426242
 20
746.8734213136
 30
0
 11
508.855369487
 21
737.3734206877
 31
0
  0
LINE
  8
1
 62
7
 10
404.2035681989
 20
651.7216206513
 30
0
 11
398.7187376108
 21
642.2216200255
 31
0
  0
LINE
  8
1
 62
7
 10
415.1732219245
 20
651.7216206513
 30
0
 11
404.2035681989
 21
651.7216206513
 31
0
  0
LINE
  8
1
 62
7
 10
420.6580487873
 20
642.2216200255
 30
0
 11
415.1732219245
 21
651.7216206513
 31
0
  0
LINE
  8
1
 62
7
 10
415.1732219245
 20
632.7216193995999
 30
0
 11
420.6580487873
 21
642.2216200255
 31
0
  0
LINE
  8
1
 62
7
 10
404.2035681989
 20
632.7216193995999
 30
0
 11
415.1732219245
 21
632.7216193995999
 31
0
  0
LINE
  8
1
 62
7
 10
398.7187376108
 20
642.2216200255
 30
0
 11
404.2035681989
 21
632.7216193995999
 31
0
  0
LINE
  8
1
 62
7
 10
404.2035681989
 20
756.3734219394
 30
0
 11
398.7187376108
 21
746.8734213136
 31
0
  0
LINE
  8
1
 62
7
 10
415.1732219245
 20
756.3734219394
 30
0
 11
404.2035681989
 21
756.3734219394
 31
0
  0
LINE
  8
1
 62
7
 10
420.6580487873
 20
746.8734213136
 30
0
 11
415.1732219245
 21
756.3734219394
 31
0
  0
LINE
  8
1
 62
7
 10
415.1732219245
 20
737.3734206877
 30
0
 11
420.6580487873
 21
746.8734213136
 31
0
  0
LINE
  8
1
 62
7
 10
404.2035681989
 20
737.3734206877
 30
0
 11
415.1732219245
 21
737.3734206877
 31
0
  0
LINE
  8
1
 62
7
 10
398.7187376108
 20
746.8734213136
 30
0
 11
404.2035681989
 21
737.3734206877
 31
0
  0
LINE
  8
1
 62
7
 10
412.9618537958
 20
708.7475206695001
 30
0
 11
400.5142957058
 21
708.7475206695
 31
0
  0
LINE
  8
1
 62
7
 10
404.5142946627
 20
703.7475208737
 30
0
 11
412.9618537958
 21
703.7475206695
 31
0
  0
LINE
  8
1
 62
7
 10
411.5142957058
 20
697.0475206695002
 30
0
 11
404.5142946627
 21
697.0475206137
 31
0
  0
LINE
  8
1
 62
7
 10
404.5142946627
 20
692.0475207254
 30
0
 11
411.5142957058
 21
692.0475206695001
 31
0
  0
LINE
  8
1
 62
7
 10
412.9620669729
 20
685.3475206695001
 30
0
 11
404.5142946627
 21
685.3475204654
 31
0
  0
LINE
  8
1
 62
7
 10
400.5142957058
 20
680.3475206695
 30
0
 11
412.9620669729
 21
680.3475206695
 31
0
  0
LINE
  8
1
 62
7
 10
404.5142946627
 20
685.3475204654
 30
0
 11
402.0142970469
 21
682.8475209869
 31
0
  0
LINE
  8
1
 62
7
 10
402.0142970469
 20
694.5475206695001
 30
0
 11
404.5142946627
 21
692.0475207254
 31
0
  0
LINE
  8
1
 62
7
 10
404.5142946627
 20
697.0475206137
 30
0
 11
402.0142970469
 21
694.5475206695001
 31
0
  0
LINE
  8
1
 62
7
 10
402.0142970469
 20
706.2475203521
 30
0
 11
404.5142946627
 21
703.7475208737
 31
0
  0
LINE
  8
0
 62
7
 10
308.0142965402
 20
729.0365271646072
 30
0
 11
308.0142965402
 21
729.0506783586304
 31
0
  0
LINE
  8
1
 62
7
 10
308.0142965402
 20
723.826352226
 30
0
 11
312.8101309623
 21
737.2704648398
 31
0
  0
LINE
  8
0
 62
7
 10
344.5405667397824
 20
756.8638841711114
 30
0
 11
344.5342342083633
 21
756.880561489177
 31
0
  0
LINE
  8
0
 62
7
 10
316.4864797532498
 20
756.859806392367
 30
0
 11
309.9680771913
 21
739.6929987691
 31
0
  0
LINE
  8
0
 62
7
 10
316.4864797532004
 20
632.2352349467632
 30
0
 11
316.4959122012461
 21
632.2103937345984
 31
0
  0
LINE
  8
0
 62
7
 10
344.540566739855
 20
632.2311571680798
 30
0
 11
351.0605113800946
 21
649.4020438691589
 31
0
  0
LINE
  8
1
 62
7
 10
353.0142983284
 20
665.2686891131
 30
0
 11
348.2184639062
 21
651.8245764993
 31
0
  0
LINE
  8
0
 62
7
 10
308.0142965402
 20
660.0585225593654
 30
0
 11
308.0142965402
 21
729.0365271646072
 31
0
  0
LINE
  8
1
 62
7
 10
325.0294705715
 20
647.0475212656
 30
0
 11
319.5446362581
 21
637.5475206397
 31
0
  0
LINE
  8
1
 62
7
 10
335.9991242971
 20
647.0475212656
 30
0
 11
325.0294705715
 21
647.0475212656
 31
0
  0
LINE
  8
1
 62
7
 10
341.4839511599
 20
637.5475206397
 30
0
 11
335.9991242971
 21
647.0475212656
 31
0
  0
LINE
  8
1
 62
7
 10
335.9991242971
 20
628.0475200139
 30
0
 11
341.4839511599
 21
637.5475206397
 31
0
  0
LINE
  8
1
 62
7
 10
325.0294705715
 20
628.0475200139
 30
0
 11
335.9991242971
 21
628.0475200139
 31
0
  0
LINE
  8
1
 62
7
 10
319.5446362581
 20
637.5475206397
 30
0
 11
325.0294705715
 21
628.0475200139
 31
0
  0
LINE
  8
1
 62
7
 10
325.0294705715
 20
761.0475213252
 30
0
 11
319.5446362581
 21
751.5475206993
 31
0
  0
LINE
  8
1
 62
7
 10
335.9991242971
 20
761.0475213252
 30
0
 11
325.0294705715
 21
761.0475213252
 31
0
  0
LINE
  8
1
 62
7
 10
341.4839511599
 20
751.5475206993
 30
0
 11
335.9991242971
 21
761.0475213252
 31
0
  0
LINE
  8
1
 62
7
 10
335.9991242971
 20
742.0475200735
 30
0
 11
341.4839511599
 21
751.5475206993
 31
0
  0
LINE
  8
1
 62
7
 10
325.0294705715
 20
742.0475200735
 30
0
 11
335.9991242971
 21
742.0475200735
 31
0
  0
LINE
  8
1
 62
7
 10
319.5446362581
 20
751.5475206993
 30
0
 11
325.0294705715
 21
742.0475200735
 31
0
  0
LINE
  8
1
 62
2
  6
DASHDOT
 10
583.4410676481
 20
694.5475206695001
 30
0
 11
219.5528649766807
 21
694.5475206695001
 31
0
  0
LINE
  8
1
 62
2
  6
DASHDOT
 10
799.8488352215999
 20
381.3579576592041
 30
0
 11
782.7804035204721
 21
398.2300837630748
 31
0
  0
LINE
  8
1
 62
2
  6
DASHDOT
 10
799.8488352216023
 20
498.7598351310975
 30
0
 11
782.780403520644
 21
481.8877090270553
 31
0
  0
LINE
  8
1
 62
2
  6
DASHDOT
 10
681.0809979688
 20
498.7598351311
 30
0
 11
698.1494296699278
 21
481.8877090272293
 31
0
  0
LINE
  8
1
 62
2
  6
DASHDOT
 10
681.0809979699819
 20
381.3579576580084
 30
0
 11
698.1494296709402
 21
398.2300837620506
 31
0
  0
LINE
  8
0
 62
7
 10
516.5142943945
 20
550.5588968116
 30
0
 11
516.5142943945
 21
551.5562240797
 31
0
  0
LINE
  8
0
 62
7
 10
336.5143021431
 20
425.0588967296
 30
0
 11
336.5143021431
 21
455.0588960591
 31
0
  0
LINE
  8
0
 62
7
 10
336.5143021431
 20
475.0588965433
 30
0
 11
336.5143021431
 21
480.0588955003
 31
0
  0
LINE
  8
0
 62
7
 10
324.5142927255
 20
480.0588955003
 30
0
 11
324.5142927255
 21
475.0588965433
 31
0
  0
LINE
  8
0
 62
7
 10
324.5142927255
 20
455.0588960591
 30
0
 11
324.5142927255
 21
425.0588967296
 31
0
  0
LINE
  8
0
 62
7
 10
340.0142943348
 20
407.0588965732
 30
0
 11
341.4839511599
 21
407.9074022191
 31
0
  0
LINE
  8
0
 62
7
 10
319.5446362581
 20
407.9074022191
 30
0
 11
321.0142930831
 21
407.0588965732
 31
0
  0
LINE
  8
0
 62
7
 10
321.0142930831
 20
475.0588965433
 30
0
 11
319.5446362581
 21
474.2103908974
 31
0
  0
LINE
  8
0
 62
7
 10
341.4839511599
 20
474.2103908974
 30
0
 11
340.0142943348
 21
475.0588965433
 31
0
  0
LINE
  8
0
 62
7
 10
503.3705426242
 20
503.9073993283
 30
0
 11
504.840195724
 21
503.0588974076
 31
0
  0
LINE
  8
0
 62
7
 10
523.8401969757
 20
503.0588974076
 30
0
 11
525.3098538007
 21
503.9073993283
 31
0
  0
LINE
  8
0
 62
7
 10
398.7187376108
 20
503.9073993283
 30
0
 11
400.1883944358
 21
503.0588974076
 31
0
  0
LINE
  8
0
 62
7
 10
419.1883956875
 20
503.0588974076
 30
0
 11
420.6580487873
 21
503.9073993283
 31
0
  0
LINE
  8
0
 62
7
 10
403.6883940782
 20
503.0588974076
 30
0
 11
403.6883940782
 21
497.5588974374
 31
0
  0
LINE
  8
0
 62
7
 10
415.6883923199
 20
497.5588974374
 30
0
 11
415.6883923199
 21
503.0588974076
 31
0
  0
LINE
  8
0
 62
7
 10
400.1883944358
 20
550.5588968116
 30
0
 11
398.7187376108
 21
549.7103874403
 31
0
  0
LINE
  8
0
 62
7
 10
420.6580487873
 20
549.7103874403
 30
0
 11
419.1883956875
 21
550.5588968116
 31
0
  0
LINE
  8
0
 62
7
 10
508.3401990916
 20
503.0588974076
 30
0
 11
508.3401990916
 21
497.5588974374
 31
0
  0
LINE
  8
0
 62
7
 10
520.3401973333
 20
497.5588974374
 30
0
 11
520.3401973333
 21
503.0588974076
 31
0
  0
LINE
  8
0
 62
7
 10
525.3098538007
 20
549.7103874403
 30
0
 11
523.8401969757
 21
550.5588968116
 31
0
  0
LINE
  8
0
 62
7
 10
504.840195724
 20
550.5588968116
 30
0
 11
503.3705426242
 21
549.7103874403
 31
0
  0
LINE
  8
0
 62
7
 10
353.0142983284
 20
478.5588961857
 30
0
 11
348.2184639062
 21
489.5588961261
 31
0
  0
LINE
  8
0
 62
7
 10
348.2184639062
 20
489.5588961261
 30
0
 11
312.8101309623
 21
489.5588961261
 31
0
  0
LINE
  8
0
 62
7
 10
312.8101309623
 20
489.5588961261
 30
0
 11
308.0142965402
 21
478.5588961857
 31
0
  0
LINE
  8
0
 62
7
 10
348.2184639062
 20
390.5588966626
 30
0
 11
353.0142983284
 21
401.558896603
 31
0
  0
LINE
  8
0
 62
7
 10
312.8101309623
 20
390.5588966626
 30
0
 11
348.2184639062
 21
390.5588966626
 31
0
  0
LINE
  8
0
 62
7
 10
308.0142965402
 20
401.558896603
 30
0
 11
312.8101309623
 21
390.5588966626
 31
0
  0
LINE
  8
0
 62
7
 10
34.0142926063
 20
533.0588985997
 30
0
 11
19.0143069114
 21
533.0588985997
 31
0
  0
LINE
  8
0
 62
7
 10
19.0143069114
 20
492.0588974672
 30
0
 11
17.0143028583
 21
490.0588971394
 31
0
  0
LINE
  8
0
 62
7
 10
17.0143028583
 20
390.0588956493
 30
0
 11
19.0143069114
 21
388.0588953215
 31
0
  0
LINE
  8
0
 62
7
 10
526.5303855624001
 20
539.5588968712
 30
0
 11
526.5303855624001
 21
542.5588955003
 31
0
  0
LINE
  8
0
 62
7
 10
397.4982058491
 20
542.5588955003
 30
0
 11
397.4982058491
 21
539.5588968712
 31
0
  0
LINE
  8
0
 62
7
 10
534.0142926063001
 20
513.0588953215
 30
0
 11
534.0142926063001
 21
536.0588972288
 31
0
  0
LINE
  8
0
 62
7
 10
390.0142988052
 20
536.0588972288
 30
0
 11
390.0142988052
 21
513.0588953215
 31
0
  0
LINE
  8
0
 62
7
 10
529.0142973747001
 20
539.5588968712
 30
0
 11
529.0142973747001
 21
549.558894785
 31
0
  0
LINE
  8
0
 62
7
 10
575.0142937388
 20
533.0588985997
 30
0
 11
560.0142931428001
 21
533.0588985997
 31
0
  0
LINE
  8
0
 62
7
 10
516.5142943945
 20
398.9768569189
 30
0
 11
516.5142943945
 21
400.536855759
 31
0
  0
LINE
  8
0
 62
7
 10
575.0142937388
 20
388.0588953215
 30
0
 11
577.0142977919001
 21
390.0588956493
 31
0
  0
LINE
  8
0
 62
7
 10
577.0142977919001
 20
490.0588971394
 30
0
 11
575.0142937388
 21
492.0588974672
 31
0
  0
LINE
  8
0
 62
7
 10
353.0142983284
 20
408.0588948744
 30
0
 11
355.0142949309
 21
408.0588948744
 31
0
  0
LINE
  8
0
 62
7
 10
355.0142957057682
 20
472.0588979143
 30
0
 11
355.0142949309
 21
472.0588979143
 31
0
  0
LINE
  8
0
 62
7
 10
503.3705426242
 20
549.558894785
 30
0
 11
420.6580487873
 21
549.558894785
 31
0
  0
LINE
  8
0
 62
7
 10
415.4620660331
 20
556.5588940698
 30
0
 11
415.4620660331
 21
558.5567286767733
 31
0
  0
LINE
  8
0
 62
7
 10
399.5142957058
 20
550.1697082835
 30
0
 11
399.5142957058
 21
558.5588922262
 31
0
  0
LINE
  8
0
 62
7
 10
412.9638774974754
 20
561.0588957387
 30
0
 11
412.9602564483246
 21
561.0588957387
 31
0
  0
LINE
  8
0
 62
7
 10
526.0142987455999
 20
555.5588994938
 30
0
 11
526.0142987455999
 21
553.5588954407
 31
0
  0
LINE
  8
0
 62
7
 10
335.9991242971
 20
407.9074022191
 30
0
 11
335.9991242971
 21
415.0588960218
 31
0
  0
LINE
  8
0
 62
7
 10
325.0294705715
 20
407.9074022191
 30
0
 11
325.0294705715
 21
415.0588960218
 31
0
  0
LINE
  8
0
 62
7
 10
321.0142930831
 20
407.0588965732
 30
0
 11
340.0142943348
 21
407.0588965732
 31
0
  0
LINE
  8
0
 62
7
 10
341.4839511599
 20
407.9074022191
 30
0
 11
341.4839511599
 21
415.0588960218
 31
0
  0
LINE
  8
0
 62
7
 10
319.5446362581
 20
407.9074022191
 30
0
 11
319.5446362581
 21
415.0588960218
 31
0
  0
LINE
  8
0
 62
7
 10
324.5142927255
 20
480.0588955003
 30
0
 11
336.5143021431
 21
480.0588955003
 31
0
  0
LINE
  8
0
 62
7
 10
321.0142930831
 20
475.0588965433
 30
0
 11
340.0142943348
 21
475.0588965433
 31
0
  0
LINE
  8
0
 62
7
 10
335.9991242971
 20
474.2103908974
 30
0
 11
335.9991242971
 21
465.0588967669
 31
0
  0
LINE
  8
0
 62
7
 10
341.4839511599
 20
474.2103908974
 30
0
 11
341.4839511599
 21
465.0588967669
 31
0
  0
LINE
  8
0
 62
7
 10
319.5446362581
 20
474.2103908974
 30
0
 11
319.5446362581
 21
465.0588967669
 31
0
  0
LINE
  8
0
 62
7
 10
325.0294705715
 20
474.2103908974
 30
0
 11
325.0294705715
 21
465.0588967669
 31
0
  0
LINE
  8
0
 62
7
 10
519.8250232125999
 20
503.9073993283
 30
0
 11
519.8250232125999
 21
513.0588953215
 31
0
  0
LINE
  8
0
 62
7
 10
508.855369487
 20
503.9073993283
 30
0
 11
508.855369487
 21
513.0588953215
 31
0
  0
LINE
  8
0
 62
7
 10
523.8401969757
 20
503.0588974076
 30
0
 11
504.840195724
 21
503.0588974076
 31
0
  0
LINE
  8
0
 62
7
 10
503.3705426242
 20
503.9073993283
 30
0
 11
503.3705426242
 21
513.0588953215
 31
0
  0
LINE
  8
0
 62
7
 10
525.3098538007
 20
503.9073993283
 30
0
 11
525.3098538007
 21
513.0588953215
 31
0
  0
LINE
  8
0
 62
7
 10
415.1732219245
 20
503.9073993283
 30
0
 11
415.1732219245
 21
513.0588953215
 31
0
  0
LINE
  8
0
 62
7
 10
404.2035681989
 20
503.9073993283
 30
0
 11
404.2035681989
 21
513.0588953215
 31
0
  0
LINE
  8
0
 62
7
 10
419.1883956875
 20
503.0588974076
 30
0
 11
400.1883944358
 21
503.0588974076
 31
0
  0
LINE
  8
0
 62
7
 10
398.7187376108
 20
503.9073993283
 30
0
 11
398.7187376108
 21
513.0588953215
 31
0
  0
LINE
  8
0
 62
7
 10
420.6580487873
 20
503.9073993283
 30
0
 11
420.6580487873
 21
513.0588953215
 31
0
  0
LINE
  8
0
 62
7
 10
419.1883956875
 20
550.5588968116
 30
0
 11
400.1883944358
 21
550.5588968116
 31
0
  0
LINE
  8
0
 62
7
 10
398.7187376108
 20
549.7103874403
 30
0
 11
398.7187376108
 21
542.5588955003
 31
0
  0
LINE
  8
0
 62
7
 10
404.2035681989
 20
549.7103874403
 30
0
 11
404.2035681989
 21
542.5588955003
 31
0
  0
LINE
  8
0
 62
7
 10
415.1732219245
 20
549.7103874403
 30
0
 11
415.1732219245
 21
542.5588955003
 31
0
  0
LINE
  8
0
 62
7
 10
420.6580487873
 20
549.7103874403
 30
0
 11
420.6580487873
 21
542.5588955003
 31
0
  0
LINE
  8
0
 62
7
 10
415.6883923199
 20
497.5588974374
 30
0
 11
403.6883940782
 21
497.5588974374
 31
0
  0
LINE
  8
0
 62
7
 10
503.3705426242
 20
549.7103874403
 30
0
 11
503.3705426242
 21
542.5588955003
 31
0
  0
LINE
  8
0
 62
7
 10
508.855369487
 20
549.7103874403
 30
0
 11
508.855369487
 21
542.5588955003
 31
0
  0
LINE
  8
0
 62
7
 10
523.8401969757
 20
550.5588968116
 30
0
 11
504.840195724
 21
550.5588968116
 31
0
  0
LINE
  8
0
 62
7
 10
519.8250232125999
 20
549.7103874403
 30
0
 11
519.8250232125999
 21
542.5588955003
 31
0
  0
LINE
  8
0
 62
7
 10
525.3098538007
 20
549.7103874403
 30
0
 11
525.3098538007
 21
542.5588955003
 31
0
  0
LINE
  8
0
 62
7
 10
520.3401973333
 20
497.5588974374
 30
0
 11
508.3401990916
 21
497.5588974374
 31
0
  0
LINE
  8
0
 62
7
 10
343.6557134475
 20
455.0588960591
 30
0
 11
317.372881421
 21
455.0588960591
 31
0
  0
LINE
  8
0
 62
7
 10
308.0142965402
 20
465.0588967669
 30
0
 11
353.0142983284
 21
465.0588967669
 31
0
  0
LINE
  8
0
 62
7
 10
308.0142965402
 20
440.0588963943
 30
0
 11
324.5142927255
 21
440.0588963943
 31
0
  0
LINE
  8
0
 62
7
 10
316.1243578281
 20
452.9209398496
 30
0
 11
314.6592011537
 21
440.0588963943
 31
0
  0
LINE
  8
0
 62
7
 10
336.5143021431
 20
440.0588963943
 30
0
 11
353.0142983284
 21
440.0588963943
 31
0
  0
LINE
  8
0
 62
7
 10
346.3693862643
 20
440.0588963943
 30
0
 11
344.9042370405
 21
452.9209398496
 31
0
  0
LINE
  8
0
 62
7
 10
338.973172554
 20
449.5305624622
 30
0
 11
339.8630326476
 21
440.0588963943
 31
0
  0
LINE
  8
0
 62
7
 10
338.3545284953
 20
452.9209398496
 30
0
 11
338.973172554
 21
449.5305624622
 31
0
  0
LINE
  8
0
 62
7
 10
321.1655547704
 20
440.0588963943
 30
0
 11
322.0554223146
 21
449.5305624622
 31
0
  0
LINE
  8
0
 62
7
 10
322.0554223146
 20
449.5305624622
 30
0
 11
322.6740589227
 21
452.9209398496
 31
0
  0
LINE
  8
0
 62
7
 10
308.0142965402
 20
401.558896603
 30
0
 11
308.0142965402
 21
478.5588961857
 31
0
  0
LINE
  8
0
 62
7
 10
353.0142983284
 20
478.5588961857
 30
0
 11
353.0142983284
 21
401.558896603
 31
0
  0
LINE
  8
0
 62
7
 10
348.2184639062
 20
465.0588967669
 30
0
 11
348.2184639062
 21
489.5588961261
 31
0
  0
LINE
  8
0
 62
7
 10
312.8101309623
 20
465.0588967669
 30
0
 11
312.8101309623
 21
489.5588961261
 31
0
  0
LINE
  8
0
 62
7
 10
353.0142983284
 20
415.0588960218
 30
0
 11
308.0142965402
 21
415.0588960218
 31
0
  0
LINE
  8
0
 62
7
 10
317.372881421
 20
425.0588967296
 30
0
 11
343.6557134475
 21
425.0588967296
 31
0
  0
LINE
  8
0
 62
7
 10
314.6592011537
 20
440.0588963943
 30
0
 11
316.1243578281
 21
427.1968529391
 31
0
  0
LINE
  8
0
 62
7
 10
344.9042370405
 20
427.1968529391
 30
0
 11
346.3693862643
 21
440.0588963943
 31
0
  0
LINE
  8
0
 62
7
 10
339.8630326476
 20
440.0588963943
 30
0
 11
338.973172554
 21
430.5872303265
 31
0
  0
LINE
  8
0
 62
7
 10
338.973172554
 20
430.5872303265
 30
0
 11
338.3545284953
 21
427.1968529391
 31
0
  0
LINE
  8
0
 62
7
 10
322.0554223146
 20
430.5872303265
 30
0
 11
321.1655547704
 21
440.0588963943
 31
0
  0
LINE
  8
0
 62
7
 10
322.6740589227
 20
427.1968529391
 30
0
 11
322.0554223146
 21
430.5872303265
 31
0
  0
LINE
  8
0
 62
7
 10
336.8498166885
 20
440.0588963943
 30
0
 11
339.8630326476
 21
440.0588963943
 31
0
  0
LINE
  8
0
 62
7
 10
321.1655547704
 20
440.0588963943
 30
0
 11
324.1787632789
 21
440.0588963943
 31
0
  0
LINE
  8
0
 62
7
 10
348.2184639062
 20
390.5588966626
 30
0
 11
348.2184639062
 21
415.0588960218
 31
0
  0
LINE
  8
0
 62
7
 10
312.8101309623
 20
390.5588966626
 30
0
 11
312.8101309623
 21
415.0588960218
 31
0
  0
LINE
  8
0
 62
7
 10
34.0142926063
 20
360.0588981825
 30
0
 11
34.0142926063
 21
533.0588985997
 31
0
  0
LINE
  8
0
 62
7
 10
34.0142926063
 20
360.0588981825
 30
0
 11
19.0143069114
 21
360.0588981825
 31
0
  0
LINE
  8
0
 62
7
 10
19.0143069114
 20
360.0588981825
 30
0
 11
19.0143069114
 21
533.0588985997
 31
0
  0
LINE
  8
0
 62
7
 10
17.0143028583
 20
390.0588956493
 30
0
 11
17.0143028583
 21
490.0588971394
 31
0
  0
LINE
  8
0
 62
7
 10
406.1461096491
 20
539.5588968712
 30
0
 11
450.0426674124
 21
539.5588968712
 31
0
  0
LINE
  8
0
 62
7
 10
434.5142958548
 20
536.0588972288
 30
0
 11
434.5142958548
 21
539.5588968712
 31
0
  0
LINE
  8
0
 62
7
 10
489.5142955567
 20
536.0588972288
 30
0
 11
489.5142955567
 21
539.5588968712
 31
0
  0
LINE
  8
0
 62
7
 10
473.9859239991
 20
539.5588968712
 30
0
 11
517.8824817624
 21
539.5588968712
 31
0
  0
LINE
  8
0
 62
7
 10
390.0142988052
 20
528.0588959175
 30
0
 11
534.0142926063001
 21
528.0588959175
 31
0
  0
LINE
  8
0
 62
7
 10
434.5142958548
 20
536.0588972288
 30
0
 11
489.5142955567
 21
536.0588972288
 31
0
  0
LINE
  8
0
 62
7
 10
397.4982058491
 20
542.5588955003
 30
0
 11
526.5303855624001
 21
542.5588955003
 31
0
  0
LINE
  8
0
 62
7
 10
526.0526915874
 20
539.5588968712
 30
0
 11
532.1146478738
 21
539.5588968712
 31
0
  0
LINE
  8
0
 62
7
 10
532.1146478738
 20
536.0588972288
 30
0
 11
532.1146478738
 21
539.5588968712
 31
0
  0
LINE
  8
0
 62
7
 10
532.1146478738
 20
536.0588972288
 30
0
 11
534.0142926063001
 21
536.0588972288
 31
0
  0
LINE
  8
0
 62
7
 10
390.0142988052
 20
536.0588972288
 30
0
 11
391.5829440441
 21
536.0588972288
 31
0
  0
LINE
  8
0
 62
7
 10
391.5829440441
 20
536.0588972288
 30
0
 11
391.5829440441
 21
539.5588968712
 31
0
  0
LINE
  8
0
 62
7
 10
391.5829440441
 20
539.5588968712
 30
0
 11
397.9758998241
 21
539.5588968712
 31
0
  0
LINE
  8
0
 62
7
 10
525.3098538007
 20
549.558894785
 30
0
 11
529.0142973747001
 21
549.558894785
 31
0
  0
LINE
  8
0
 62
7
 10
560.0142931428001
 20
360.0588981825
 30
0
 11
575.0142937388
 21
360.0588981825
 31
0
  0
LINE
  8
0
 62
7
 10
575.0142937388
 20
533.0588985997
 30
0
 11
575.0142937388
 21
360.0588981825
 31
0
  0
LINE
  8
0
 62
7
 10
560.0142931428001
 20
533.0588985997
 30
0
 11
560.0142931428001
 21
360.0588981825
 31
0
  0
LINE
  8
0
 62
7
 10
478.44847905
 20
455.2397821861
 30
0
 11
476.3166146215
 21
455.2397821861
 31
0
  0
LINE
  8
0
 62
7
 10
476.3166146215
 20
455.2397821861
 30
0
 11
476.3166146215
 21
464.2162212002
 31
0
  0
LINE
  8
0
 62
7
 10
473.5419615965
 20
463.1696698087
 30
0
 11
473.5419615965
 21
455.2397821861
 31
0
  0
LINE
  8
0
 62
7
 10
473.5419615965
 20
455.2397821861
 30
0
 11
471.410097168
 21
455.2397821861
 31
0
  0
LINE
  8
0
 62
7
 10
471.410097168
 20
455.2397821861
 30
0
 11
471.410097168
 21
464.3034339714
 31
0
  0
LINE
  8
0
 62
7
 10
468.7355771523
 20
463.1696698087
 30
0
 11
468.7355771523
 21
455.2397821861
 31
0
  0
LINE
  8
0
 62
7
 10
468.7355771523
 20
455.2397821861
 30
0
 11
466.6037131894
 21
455.2397821861
 31
0
  0
LINE
  8
0
 62
7
 10
466.6037131894
 20
455.2397821861
 30
0
 11
466.6037131894
 21
467.1814498323
 31
0
  0
LINE
  8
0
 62
7
 10
466.6037131894
 20
467.1814498323
 30
0
 11
468.7355771523
 21
467.1814498323
 31
0
  0
LINE
  8
0
 62
7
 10
468.7355771523
 20
467.1814498323
 30
0
 11
468.7355771523
 21
465.6988364476
 31
0
  0
LINE
  8
0
 62
7
 10
478.44847905
 20
465.0011342781
 30
0
 11
478.44847905
 21
455.2397821861
 31
0
  0
LINE
  8
0
 62
7
 10
390.0142988052
 20
513.0588953215
 30
0
 11
534.0142926063001
 21
513.0588953215
 31
0
  0
LINE
  8
0
 62
7
 10
442.0142961528
 20
483.5588951426
 30
0
 11
470.0142960857
 21
483.5588951426
 31
0
  0
LINE
  8
0
 62
7
 10
442.0142961528
 20
486.558897497
 30
0
 11
442.0142961528
 21
483.5588951426
 31
0
  0
LINE
  8
0
 62
7
 10
470.0142960857
 20
486.558897497
 30
0
 11
442.0142961528
 21
486.558897497
 31
0
  0
LINE
  8
0
 62
7
 10
492.547205263
 20
455.2397821861
 30
0
 11
490.4153408345
 21
455.2397821861
 31
0
  0
LINE
  8
0
 62
7
 10
490.4153408345
 20
455.2397821861
 30
0
 11
490.4153408345
 21
464.2162212002
 31
0
  0
LINE
  8
0
 62
7
 10
487.6406887408
 20
463.1696698087
 30
0
 11
487.6406887408
 21
455.2397821861
 31
0
  0
LINE
  8
0
 62
7
 10
487.6406887408
 20
455.2397821861
 30
0
 11
485.5088243123
 21
455.2397821861
 31
0
  0
LINE
  8
0
 62
7
 10
485.5088243123
 20
455.2397821861
 30
0
 11
485.5088243123
 21
464.3034339714
 31
0
  0
LINE
  8
0
 62
7
 10
482.8343042966
 20
463.1696698087
 30
0
 11
482.8343042966
 21
455.2397821861
 31
0
  0
LINE
  8
0
 62
7
 10
482.8343042966
 20
455.2397821861
 30
0
 11
480.702439868
 21
455.2397821861
 31
0
  0
LINE
  8
0
 62
7
 10
480.702439868
 20
455.2397821861
 30
0
 11
480.702439868
 21
467.1814498323
 31
0
  0
LINE
  8
0
 62
7
 10
480.702439868
 20
467.1814498323
 30
0
 11
482.8343042966
 21
467.1814498323
 31
0
  0
LINE
  8
0
 62
7
 10
482.8343042966
 20
467.1814498323
 30
0
 11
482.8343042966
 21
465.6988364476
 31
0
  0
LINE
  8
0
 62
7
 10
492.547205263
 20
465.0011342781
 30
0
 11
492.547205263
 21
455.2397821861
 31
0
  0
LINE
  8
0
 62
7
 10
470.0142960857
 20
483.5588951426
 30
0
 11
470.0142960857
 21
481.0588975268
 31
0
  0
LINE
  8
0
 62
7
 10
470.0142960857
 20
489.0588951128
 30
0
 11
470.0142960857
 21
486.558897497
 31
0
  0
LINE
  8
0
 62
7
 10
436.2552227314
 20
463.3697458374
 30
0
 11
433.8166905429
 21
463.3697458374
 31
0
  0
LINE
  8
0
 62
7
 10
433.8166905429
 20
463.3697458374
 30
0
 11
434.5041295375
 21
473.2504208403
 31
0
  0
LINE
  8
0
 62
7
 10
434.5041295375
 20
473.2504208403
 30
0
 11
444.5045111563
 21
473.2504208403
 31
0
  0
LINE
  8
0
 62
7
 10
444.5045111563
 20
471.5027493256
 30
0
 11
436.8263805147
 21
471.5027493256
 31
0
  0
LINE
  8
0
 62
7
 10
436.8263805147
 20
471.5027493256
 30
0
 11
436.368085989
 21
465.4936288315
 31
0
  0
LINE
  8
0
 62
7
 10
433.2763129707
 20
460.3224341589
 30
0
 11
435.9097933259
 21
460.3224341589
 31
0
  0
LINE
  8
0
 62
7
 10
444.5045111563
 20
473.2504208403
 30
0
 11
444.5045111563
 21
471.5027493256
 31
0
  0
LINE
  8
0
 62
7
 10
471.0142953183
 20
405.5588972586
 30
0
 11
471.0142953183
 21
417.5588955003
 31
0
  0
LINE
  8
0
 62
7
 10
453.0142960932
 20
405.5588972586
 30
0
 11
471.0142953183
 21
405.5588972586
 31
0
  0
LINE
  8
0
 62
7
 10
453.0142960932
 20
417.5588955003
 30
0
 11
453.0142960932
 21
405.5588972586
 31
0
  0
LINE
  8
0
 62
7
 10
471.0142953183
 20
417.5588955003
 30
0
 11
453.0142960932
 21
417.5588955003
 31
0
  0
LINE
  8
0
 62
7
 10
516.2844514336
 20
416.4427482354
 30
0
 11
516.2844514336
 21
400.7099103945
 31
0
  0
LINE
  8
0
 62
7
 10
462.0142957058
 20
371.2930400687
 30
0
 11
458.9019185725
 21
371.7437480408
 31
0
  0
LINE
  8
0
 62
7
 10
432.321480089
 20
365.9203369933
 30
0
 11
421.5039281036
 21
369.7972689587
 31
0
  0
LINE
  8
0
 62
7
 10
465.1078892268
 20
371.3853378611
 30
0
 11
462.0142957051
 21
371.2938000279
 31
0
  0
LINE
  8
0
 62
7
 10
577.0142977919001
 20
390.0588956493
 30
0
 11
577.0142977919001
 21
490.0588971394
 31
0
  0
LINE
  8
0
 62
7
 10
371.6856544699
 20
469.5588965732
 30
0
 11
356.7794791565905
 21
469.5588965732
 31
0
  0
LINE
  8
0
 62
7
 10
459.5142957616
 20
360.0588981825
 30
0
 11
464.5142956499
 21
360.0588981825
 31
0
  0
LINE
  8
0
 62
7
 10
458.9019185725
 20
371.7437480408
 30
0
 11
459.5142957616
 21
360.0588981825
 31
0
  0
LINE
  8
0
 62
7
 10
465.1078892268
 20
371.3853378611
 30
0
 11
464.5142956499
 21
360.0588981825
 31
0
  0
LINE
  8
0
 62
7
 10
355.0142949309
 20
408.0588948744
 30
0
 11
355.0142949309
 21
472.0588979143
 31
0
  0
LINE
  8
0
 62
7
 10
555.6916227426
 20
383.0400501209
 30
0
 11
524.1425042833999
 21
404.7980625945
 31
0
  0
LINE
  8
0
 62
7
 10
554.9868723239
 20
497.1774798649
 30
0
 11
530.2075451102
 21
482.975477429
 31
0
  0
LINE
  8
0
 62
7
 10
492.0142950352
 20
360.0588981825
 30
0
 11
502.0142948117
 21
360.0588981825
 31
0
  0
LINE
  8
0
 62
7
 10
491.7078787323
 20
365.9056891518
 30
0
 11
492.0142950352
 21
360.0588981825
 31
0
  0
LINE
  8
0
 62
7
 10
502.6078900184
 20
371.3853378611
 30
0
 11
502.0142948117
 21
360.0588981825
 31
0
  0
LINE
  8
0
 62
7
 10
422.0142965998
 20
360.0588981825
 30
0
 11
432.0142963763
 21
360.0588981825
 31
0
  0
LINE
  8
0
 62
7
 10
421.5039281036
 20
369.7972689587
 30
0
 11
422.0142965998
 21
360.0588981825
 31
0
  0
LINE
  8
0
 62
7
 10
432.321480089
 20
365.9203369933
 30
0
 11
432.0142963763
 21
360.0588981825
 31
0
  0
LINE
  8
0
 62
7
 10
371.6856544699
 20
469.5588965732
 30
0
 11
371.6918906059
 21
469.5304372179
 31
0
  0
LINE
  8
0
 62
7
 10
390.8147668328
 20
483.7003108877
 30
0
 11
390.8083369817
 21
483.7003108877
 31
0
  0
LINE
  8
0
 62
7
 10
405.6972456958
 20
550.5588968116
 30
0
 11
405.6972456958
 21
555.0588984804759
 31
0
  0
LINE
  8
0
 62
7
 10
344.5374002542
 20
454.3744661677
 30
0
 11
344.5374002542
 21
465.0588967669
 31
0
  0
LINE
  8
0
 62
7
 10
316.4911946144
 20
454.3744661677
 30
0
 11
316.4911946144
 21
465.0588967669
 31
0
  0
LINE
  8
0
 62
7
 10
322.6740589227
 20
452.9209398496
 30
0
 11
316.1243578281
 21
452.9209398496
 31
0
  0
LINE
  8
0
 62
7
 10
344.9042370405
 20
452.9209398496
 30
0
 11
338.3545284953
 21
452.9209398496
 31
0
  0
LINE
  8
0
 62
7
 10
309.9680771913
 20
465.0588967669
 30
0
 11
309.9680771913
 21
415.0588960218
 31
0
  0
LINE
  8
0
 62
7
 10
351.0605102267
 20
415.0588960218
 30
0
 11
351.0605102267
 21
465.0588967669
 31
0
  0
LINE
  8
0
 62
7
 10
336.8498166885
 20
440.0588963943
 30
0
 11
336.5143021431
 21
443.6302588618
 31
0
  0
LINE
  8
0
 62
7
 10
324.5142927255
 20
443.6302588618
 30
0
 11
324.1787632789
 21
440.0588963943
 31
0
  0
LINE
  8
0
 62
7
 10
344.5374002542
 20
425.743326621
 30
0
 11
344.5374002542
 21
415.0588960218
 31
0
  0
LINE
  8
0
 62
7
 10
316.4911946144
 20
425.743326621
 30
0
 11
316.4911946144
 21
415.0588960218
 31
0
  0
LINE
  8
0
 62
7
 10
338.3545284953
 20
427.1968529391
 30
0
 11
344.9042370405
 21
427.1968529391
 31
0
  0
LINE
  8
0
 62
7
 10
316.1243578281
 20
427.1968529391
 30
0
 11
322.6740589227
 21
427.1968529391
 31
0
  0
LINE
  8
0
 62
7
 10
336.5143021431
 20
436.4875339269
 30
0
 11
336.8498166885
 21
440.0588963943
 31
0
  0
LINE
  8
0
 62
7
 10
324.1787632789
 20
440.0588963943
 30
0
 11
324.5142927255
 21
436.4875339269
 31
0
  0
LINE
  8
0
 62
7
 10
517.8824817624
 20
528.0588959175
 30
0
 11
517.8824817624
 21
539.5588968712
 31
0
  0
LINE
  8
0
 62
7
 10
406.1461096491
 20
539.5588968712
 30
0
 11
406.1461096491
 21
528.0588959175
 31
0
  0
LINE
  8
0
 62
7
 10
482.9878998782
 20
536.0588972288
 30
0
 11
482.9878998782
 21
539.5588968712
 31
0
  0
LINE
  8
0
 62
7
 10
441.0406915333
 20
536.0588972288
 30
0
 11
441.0406915333
 21
539.5588968712
 31
0
  0
LINE
  8
0
 62
7
 10
526.0526915874
 20
539.5588968712
 30
0
 11
526.0526915874
 21
528.0588959175
 31
0
  0
LINE
  8
0
 62
7
 10
397.9758998241
 20
528.0588959175
 30
0
 11
397.9758998241
 21
539.5588968712
 31
0
  0
LINE
  8
0
 62
7
 10
473.9859239991
 20
536.0588972288
 30
0
 11
473.9859239991
 21
539.5588968712
 31
0
  0
LINE
  8
0
 62
7
 10
450.0426674124
 20
536.0588972288
 30
0
 11
450.0426674124
 21
539.5588968712
 31
0
  0
LINE
  8
0
 62
7
 10
433.1081347402
 20
542.5588955003
 30
0
 11
433.1081347402
 21
539.5588968712
 31
0
  0
LINE
  8
0
 62
7
 10
490.9204566713
 20
542.5588955003
 30
0
 11
490.9204566713
 21
539.5588968712
 31
0
  0
LINE
  8
0
 62
7
 10
517.7859147872
 20
513.0588953215
 30
0
 11
517.7859147872
 21
528.0588959175
 31
0
  0
LINE
  8
0
 62
7
 10
406.2426766243
 20
513.0588953215
 30
0
 11
406.2426766243
 21
528.0588959175
 31
0
  0
LINE
  8
0
 62
7
 10
398.1937398996
 20
513.0588953215
 30
0
 11
398.1937398996
 21
528.0588959175
 31
0
  0
LINE
  8
0
 62
7
 10
525.8348515119
 20
513.0588953215
 30
0
 11
525.8348515119
 21
528.0588959175
 31
0
  0
LINE
  8
0
 62
7
 10
503.3705426242
 20
508.0589000898
 30
0
 11
420.6580487873
 21
508.0589000898
 31
0
  0
LINE
  8
0
 62
7
 10
522.8004237499
 20
486.4240233618
 30
0
 11
522.8334633495
 21
486.4539709705
 31
0
  0
LINE
  8
0
 62
7
 10
454.3015843244
 20
415.1333786288
 30
0
 11
464.0478507124
 21
415.1333786288
 31
0
  0
LINE
  8
0
 62
7
 10
454.3015843244
 20
415.1333786288
 30
0
 11
454.3015843244
 21
408.1333786288
 31
0
  0
LINE
  8
0
 62
7
 10
454.3015843244
 20
408.1333786288
 30
0
 11
464.0478507124
 21
408.1333786288
 31
0
  0
LINE
  8
0
 62
7
 10
464.0478507124
 20
415.1333786288
 30
0
 11
464.0478507124
 21
408.1333786288
 31
0
  0
LINE
  8
0
 62
2
  6
DASHDOT
 10
330.5142957058
 20
482.0588963943
 30
0
 11
330.5142957058
 21
402.0588963943
 31
0
  0
LINE
  8
0
 62
2
  6
DASHDOT
 10
514.3401975136
 20
492.5588963943
 30
0
 11
514.3401975136
 21
554.0984745575
 31
0
  0
LINE
  8
0
 62
7
 10
398.318460091
 20
544.5588963943
 30
0
 11
398.318460091
 21
537.5588963943
 31
0
  0
LINE
  8
0
 62
2
  6
DASHDOT
 10
409.6883938979
 20
492.5588963943
 30
0
 11
409.6883938979
 21
553.4831240485
 31
0
  0
LINE
  8
0
 62
7
 10
516.2491170551
 20
688.5478461146
 30
0
 11
516.5139665689
 21
688.5490898959
 31
0
  0
LINE
  8
0
 62
7
 10
19.0143069114
 20
601.5475184642
 30
0
 11
34.0142926063
 21
601.5475184642
 31
0
  0
LINE
  8
0
 62
7
 10
34.0142926063
 20
787.5475228749
 30
0
 11
19.0143069114
 21
787.5475228749
 31
0
  0
LINE
  8
0
 62
7
 10
19.0143069114
 20
746.5475217424
 30
0
 11
17.0143028583
 21
744.5475214146001
 31
0
  0
LINE
  8
0
 62
7
 10
17.0143028583
 20
644.5475199245
 30
0
 11
19.0143069114
 21
642.5475195966
 31
0
  0
LINE
  8
0
 62
7
 10
575.0142937388
 20
787.5475228749
 30
0
 11
560.0142931428001
 21
787.5475228749
 31
0
  0
LINE
  8
0
 62
7
 10
560.0142931428001
 20
601.5475184642
 30
0
 11
575.0142937388
 21
601.5475184642
 31
0
  0
LINE
  8
0
 62
7
 10
390.1439687099
 20
701.6182012841
 30
0
 11
389.6479239549
 21
696.0480756344
 31
0
  0
LINE
  8
0
 62
7
 10
533.988148519
 20
732.51829082
 30
0
 11
529.7546764698
 21
735.0332864544999
 31
0
  0
LINE
  8
0
 62
7
 10
529.7117983784
 20
654.0362813495
 30
0
 11
533.988148519
 21
656.5767505191
 31
0
  0
LINE
  8
0
 62
7
 10
575.0142937388
 20
642.5475195966
 30
0
 11
577.0142977919001
 21
644.5475199245
 31
0
  0
LINE
  8
0
 62
7
 10
577.0142977919001
 20
744.5475214146001
 30
0
 11
575.0142937388
 21
746.5475217424
 31
0
  0
LINE
  8
0
 62
7
 10
353.0142983284
 20
662.5475191496
 30
0
 11
355.0142949309
 21
662.5475191496
 31
0
  0
LINE
  8
0
 62
7
 10
355.0142949309
 20
726.5475221894
 30
0
 11
353.0142983284
 21
726.5475221894
 31
0
  0
LINE
  8
0
 62
7
 10
404.5142946627
 20
697.0475206137
 30
0
 11
404.5142946627
 21
703.7475208737
 31
0
  0
LINE
  8
0
 62
7
 10
399.5142957058
 20
681.3475206695
 30
0
 11
399.5142957058
 21
707.7475206695
 31
0
  0
LINE
  8
0
 62
7
 10
404.5142946627
 20
685.3475204654
 30
0
 11
404.5142946627
 21
692.0475207254
 31
0
  0
LINE
  8
0
 62
7
 10
516.506653824
 20
700.455271358
 30
0
 11
516.506653824
 21
700.4552708924
 31
0
  0
LINE
  8
0
 62
7
 10
484.0142955865
 20
721.5475213699
 30
0
 11
472.0142954822
 21
721.5475213699
 31
0
  0
LINE
  8
0
 62
7
 10
484.0142955865
 20
667.5475199692
 30
0
 11
484.0142955865
 21
721.5475213699
 31
0
  0
LINE
  8
0
 62
7
 10
472.0142954822
 20
667.5475199692
 30
0
 11
484.0142955865
 21
667.5475199692
 31
0
  0
LINE
  8
0
 62
7
 10
472.0142954822
 20
721.5475213699
 30
0
 11
472.0142954822
 21
667.5475199692
 31
0
  0
LINE
  8
0
 62
7
 10
426.3398131218
 20
712.0209314845
 30
0
 11
433.3398142691
 21
712.0209314845
 31
0
  0
LINE
  8
0
 62
7
 10
433.3398142691
 20
712.0209314845
 30
0
 11
433.3398142691
 21
710.7174915246
 31
0
  0
LINE
  8
0
 62
7
 10
433.3398142691
 20
710.7174915246
 30
0
 11
428.0994577195
 21
708.2968193091
 31
0
  0
LINE
  8
0
 62
7
 10
428.0994577195
 20
708.2968193091
 30
0
 11
428.0994577195
 21
708.2502680816
 31
0
  0
LINE
  8
0
 62
7
 10
428.0994577195
 20
708.2502680816
 30
0
 11
433.3398142691
 21
708.2502680816
 31
0
  0
LINE
  8
0
 62
7
 10
433.3398142691
 20
708.2502680816
 30
0
 11
433.3398142691
 21
707.1489949696
 31
0
  0
LINE
  8
0
 62
7
 10
433.3398142691
 20
707.1489949696
 30
0
 11
426.3398131218
 21
707.1489949696
 31
0
  0
LINE
  8
0
 62
7
 10
426.3398131218
 20
708.4830251507
 30
0
 11
431.5828313913
 21
710.9036982976
 31
0
  0
LINE
  8
0
 62
7
 10
431.5828313913
 20
710.9036982976
 30
0
 11
431.5828313913
 21
710.9196574412
 31
0
  0
LINE
  8
0
 62
7
 10
431.5828313913
 20
710.9196574412
 30
0
 11
426.3398131218
 21
710.9196574412
 31
0
  0
LINE
  8
0
 62
7
 10
426.3398131218
 20
710.9196574412
 30
0
 11
426.3398131218
 21
712.0209314845
 31
0
  0
LINE
  8
0
 62
7
 10
426.3398131218
 20
707.1489949696
 30
0
 11
426.3398131218
 21
708.4830251507
 31
0
  0
LINE
  8
0
 62
7
 10
498.9132141556
 20
708.4067265488
 30
0
 11
493.8969654824
 21
708.4067265488
 31
0
  0
LINE
  8
0
 62
7
 10
494.481806257
 20
707.0565463029
 30
0
 11
498.9132141556
 21
707.0565463029
 31
0
  0
LINE
  8
0
 62
7
 10
498.9132141556
 20
707.0565463029
 30
0
 11
498.9132141556
 21
706.0186394475001
 31
0
  0
LINE
  8
0
 62
7
 10
498.9132141556
 20
706.0186394475001
 30
0
 11
493.8482312347
 21
706.0186394475001
 31
0
  0
LINE
  8
0
 62
7
 10
494.481806257
 20
704.7171953119
 30
0
 11
498.9132141556
 21
704.7171953119
 31
0
  0
LINE
  8
0
 62
7
 10
498.9132141556
 20
704.7171953119
 30
0
 11
498.9132141556
 21
703.6792893879
 31
0
  0
LINE
  8
0
 62
7
 10
498.9132141556
 20
703.6792893879
 30
0
 11
492.2399265554
 21
703.6792893879
 31
0
  0
LINE
  8
0
 62
7
 10
492.2399265554
 20
703.6792893879
 30
0
 11
492.2399265554
 21
704.7171953119
 31
0
  0
LINE
  8
0
 62
7
 10
492.2399265554
 20
704.7171953119
 30
0
 11
493.0684478815
 21
704.7171953119
 31
0
  0
LINE
  8
0
 62
7
 10
493.4583386268
 20
709.4446324728
 30
0
 11
498.9132141556
 21
709.4446324728
 31
0
  0
LINE
  8
0
 62
7
 10
498.9132141556
 20
709.4446324728
 30
0
 11
498.9132141556
 21
708.4067265488
 31
0
  0
LINE
  8
0
 62
7
 10
448.5142953556
 20
697.7229471769
 30
0
 11
443.0142963167
 21
694.5475206695001
 31
0
  0
LINE
  8
0
 62
7
 10
443.0142963167
 20
694.5475206695001
 30
0
 11
448.5142953556
 21
691.3720941622
 31
0
  0
LINE
  8
0
 62
7
 10
448.5142953556
 20
691.3720941622
 30
0
 11
448.5142953556
 21
685.0212409146
 31
0
  0
LINE
  8
0
 62
7
 10
448.5142953556
 20
685.0212409146
 30
0
 11
454.0142953258
 21
688.1966676548
 31
0
  0
LINE
  8
0
 62
7
 10
454.0142953258
 20
688.1966676548
 30
0
 11
459.5142957616
 21
685.0212409146
 31
0
  0
LINE
  8
0
 62
7
 10
459.5142957616
 20
685.0212409146
 30
0
 11
459.5142957616
 21
691.3720941622
 31
0
  0
LINE
  8
0
 62
7
 10
459.5142957616
 20
691.3720941622
 30
0
 11
465.0142957318
 21
694.5475206695001
 31
0
  0
LINE
  8
0
 62
7
 10
465.0142957318
 20
694.5475206695001
 30
0
 11
459.5142957616
 21
697.7229471769
 31
0
  0
LINE
  8
0
 62
7
 10
459.5142957616
 20
697.7229471769
 30
0
 11
459.5142957616
 21
704.0738004245
 31
0
  0
LINE
  8
0
 62
7
 10
459.5142957616
 20
704.0738004245
 30
0
 11
454.0142953258
 21
700.8983736843001
 31
0
  0
LINE
  8
0
 62
7
 10
454.0142953258
 20
700.8983736843001
 30
0
 11
448.5142953556
 21
704.0738004245
 31
0
  0
LINE
  8
0
 62
7
 10
448.5142953556
 20
704.0738004245
 30
0
 11
448.5142953556
 21
697.7229471769
 31
0
  0
LINE
  8
0
 62
7
 10
469.0142959218
 20
694.5475206695001
 30
0
 11
461.514295682
 21
698.8776477039
 31
0
  0
LINE
  8
0
 62
7
 10
461.514295682
 20
690.2173936352
 30
0
 11
469.0142959218
 21
694.5475206695001
 31
0
  0
LINE
  8
0
 62
7
 10
461.514295682
 20
681.5571400322
 30
0
 11
461.514295682
 21
690.2173936352
 31
0
  0
LINE
  8
0
 62
7
 10
454.0142953258
 20
685.8872666009
 30
0
 11
461.514295682
 21
681.5571400322
 31
0
  0
LINE
  8
0
 62
7
 10
446.5142959591
 20
681.5571400322
 30
0
 11
454.0142953258
 21
685.8872666009
 31
0
  0
LINE
  8
0
 62
7
 10
446.5142959591
 20
690.2173936352
 30
0
 11
446.5142959591
 21
681.5571400322
 31
0
  0
LINE
  8
0
 62
7
 10
439.014295661
 20
694.5475206695001
 30
0
 11
446.5142959591
 21
690.2173936352
 31
0
  0
LINE
  8
0
 62
7
 10
446.5142959591
 20
698.8776477039
 30
0
 11
439.014295661
 21
694.5475206695001
 31
0
  0
LINE
  8
0
 62
7
 10
446.5142959591
 20
707.5379013069
 30
0
 11
446.5142959591
 21
698.8776477039
 31
0
  0
LINE
  8
0
 62
7
 10
454.0142953258
 20
703.2077747382
 30
0
 11
446.5142959591
 21
707.5379013069
 31
0
  0
LINE
  8
0
 62
7
 10
461.514295682
 20
698.8776477039
 30
0
 11
461.514295682
 21
707.5379013069
 31
0
  0
LINE
  8
0
 62
7
 10
461.514295682
 20
707.5379013069
 30
0
 11
454.0142953258
 21
703.2077747382
 31
0
  0
LINE
  8
0
 62
7
 10
428.0994577195
 20
694.0842107680001
 30
0
 11
433.3398142691
 21
694.0842107680001
 31
0
  0
LINE
  8
0
 62
7
 10
433.3398142691
 20
694.0842107680001
 30
0
 11
433.3398142691
 21
693.1358923422
 31
0
  0
LINE
  8
0
 62
7
 10
433.3398142691
 20
693.1358923422
 30
0
 11
426.3398131218
 21
693.1358923422
 31
0
  0
LINE
  8
0
 62
7
 10
426.3398131218
 20
693.1358923422
 30
0
 11
426.3398131218
 21
694.6188868125
 31
0
  0
LINE
  8
0
 62
7
 10
426.3398131218
 20
694.6188868125
 30
0
 11
430.9005202587
 21
695.5552348619
 31
0
  0
LINE
  8
0
 62
7
 10
430.9005202587
 20
695.5552348619
 30
0
 11
430.9005202587
 21
695.6443475311
 31
0
  0
LINE
  8
0
 62
7
 10
430.9005202587
 20
695.6443475311
 30
0
 11
426.3398131218
 21
696.5793657101
 31
0
  0
LINE
  8
0
 62
7
 10
426.3398131218
 20
696.5793657101
 30
0
 11
426.3398131218
 21
698.0051684178
 31
0
  0
LINE
  8
0
 62
7
 10
426.3398131218
 20
698.0051684178
 30
0
 11
433.3398142691
 21
698.0051684178
 31
0
  0
LINE
  8
0
 62
7
 10
433.3398142691
 20
698.0051684178
 30
0
 11
433.3398142691
 21
697.0568499047
 31
0
  0
LINE
  8
0
 62
7
 10
433.3398142691
 20
697.0568499047
 30
0
 11
428.0994577195
 21
697.0568499047
 31
0
  0
LINE
  8
0
 62
7
 10
428.0994577195
 20
697.0568499047
 30
0
 11
428.0994577195
 21
697.0249290563
 31
0
  0
LINE
  8
0
 62
7
 10
428.0994577195
 20
697.0249290563
 30
0
 11
433.3398142691
 21
695.9555769091001
 31
0
  0
LINE
  8
0
 62
7
 10
433.3398142691
 20
695.9555769091001
 30
0
 11
433.3398142691
 21
695.2426754971
 31
0
  0
LINE
  8
0
 62
7
 10
433.3398142691
 20
695.2426754971
 30
0
 11
428.0994577195
 21
694.1733234372
 31
0
  0
LINE
  8
0
 62
7
 10
428.0994577195
 20
694.1733234372
 30
0
 11
428.0994577195
 21
694.0842107680001
 31
0
  0
LINE
  8
0
 62
7
 10
455.1142957855
 20
695.6475206636
 30
0
 11
455.1142957855
 21
700.0475206397
 31
0
  0
LINE
  8
0
 62
7
 10
459.5142957616
 20
695.6475206636
 30
0
 11
455.1142957855
 21
695.6475206636
 31
0
  0
LINE
  8
0
 62
7
 10
459.5142957616
 20
693.4475206755
 30
0
 11
459.5142957616
 21
695.6475206636
 31
0
  0
LINE
  8
0
 62
7
 10
455.1142957855
 20
693.4475206755
 30
0
 11
459.5142957616
 21
693.4475206755
 31
0
  0
LINE
  8
0
 62
7
 10
455.1142957855
 20
689.0475206993
 30
0
 11
455.1142957855
 21
693.4475206755
 31
0
  0
LINE
  8
0
 62
7
 10
452.9142953317
 20
689.0475206993
 30
0
 11
455.1142957855
 21
689.0475206993
 31
0
  0
LINE
  8
0
 62
7
 10
452.9142953317
 20
693.4475206755
 30
0
 11
452.9142953317
 21
689.0475206993
 31
0
  0
LINE
  8
0
 62
7
 10
448.5142953556
 20
693.4475206755
 30
0
 11
452.9142953317
 21
693.4475206755
 31
0
  0
LINE
  8
0
 62
7
 10
448.5142953556
 20
695.6475206636
 30
0
 11
448.5142953556
 21
693.4475206755
 31
0
  0
LINE
  8
0
 62
7
 10
452.9142953317
 20
695.6475206636
 30
0
 11
448.5142953556
 21
695.6475206636
 31
0
  0
LINE
  8
0
 62
7
 10
452.9142953317
 20
700.0475206397
 30
0
 11
452.9142953317
 21
695.6475206636
 31
0
  0
LINE
  8
0
 62
7
 10
455.1142957855
 20
700.0475206397
 30
0
 11
452.9142953317
 21
700.0475206397
 31
0
  0
LINE
  8
0
 62
7
 10
428.0994577195
 20
687.0842107557
 30
0
 11
433.3398142691
 21
687.0842107557
 31
0
  0
LINE
  8
0
 62
7
 10
433.3398142691
 20
687.0842107557
 30
0
 11
433.3398142691
 21
686.1358924754001
 31
0
  0
LINE
  8
0
 62
7
 10
433.3398142691
 20
686.1358924754001
 30
0
 11
426.3398131218
 21
686.1358924754001
 31
0
  0
LINE
  8
0
 62
7
 10
426.3398131218
 20
686.1358924754001
 30
0
 11
426.3398131218
 21
687.618886771
 31
0
  0
LINE
  8
0
 62
7
 10
426.3398131218
 20
687.618886771
 30
0
 11
430.9005202587
 21
688.5552347623
 31
0
  0
LINE
  8
0
 62
7
 10
426.3398131218
 20
689.5793654941
 30
0
 11
426.3398131218
 21
691.0051684346
 31
0
  0
LINE
  8
0
 62
7
 10
426.3398131218
 20
691.0051684346
 30
0
 11
433.3398142691
 21
691.0051684346
 31
0
  0
LINE
  8
0
 62
7
 10
433.3398142691
 20
691.0051684346
 30
0
 11
433.3398142691
 21
690.0568499215
 31
0
  0
LINE
  8
0
 62
7
 10
428.0994577195
 20
690.0568499215
 30
0
 11
428.0994577195
 21
690.0249288402
 31
0
  0
LINE
  8
0
 62
7
 10
428.0994577195
 20
690.0249288402
 30
0
 11
433.3398142691
 21
688.9555768095
 31
0
  0
LINE
  8
0
 62
7
 10
433.3398142691
 20
688.2426754556
 30
0
 11
428.0994577195
 21
687.1733234249
 31
0
  0
LINE
  8
0
 62
7
 10
428.0994577195
 20
687.1733234249
 30
0
 11
428.0994577195
 21
687.0842107557
 31
0
  0
LINE
  8
0
 62
7
 10
433.3398142691
 20
690.0568499215
 30
0
 11
428.0994577195
 21
690.0568499215
 31
0
  0
LINE
  8
0
 62
7
 10
433.3398142691
 20
688.9555768095
 30
0
 11
433.3398142691
 21
688.2426754556
 31
0
  0
LINE
  8
0
 62
7
 10
430.9005202587
 20
688.5552347623
 30
0
 11
430.9005202587
 21
688.6443474315
 31
0
  0
LINE
  8
0
 62
7
 10
430.9005202587
 20
688.6443474315
 30
0
 11
426.3398131218
 21
689.5793654941
 31
0
  0
LINE
  8
0
 62
7
 10
433.3398142691
 20
677.0729363881
 30
0
 11
426.3398131218
 21
677.0729363881
 31
0
  0
LINE
  8
0
 62
7
 10
426.3398131218
 20
677.0729363881
 30
0
 11
426.3398131218
 21
678.1276573412
 31
0
  0
LINE
  8
0
 62
7
 10
426.3398131218
 20
678.1276573412
 30
0
 11
429.2845209922
 21
678.1276573412
 31
0
  0
LINE
  8
0
 62
7
 10
429.2845209922
 20
678.1276573412
 30
0
 11
426.3398131218
 21
680.6667034499
 31
0
  0
LINE
  8
0
 62
7
 10
429.7872787203
 20
678.840558695
 30
0
 11
430.5773196604
 21
678.1276573412
 31
0
  0
LINE
  8
0
 62
7
 10
430.5773196604
 20
678.1276573412
 30
0
 11
433.3398142691
 21
678.1276573412
 31
0
  0
LINE
  8
0
 62
7
 10
433.3398142691
 20
678.1276573412
 30
0
 11
433.3398142691
 21
677.0729363881
 31
0
  0
LINE
  8
0
 62
7
 10
426.3398131218
 20
680.6667034499
 30
0
 11
426.3398131218
 21
681.8703894488
 31
0
  0
LINE
  8
0
 62
7
 10
433.3398142691
 20
682.0486147873
 30
0
 11
433.3398142691
 21
680.8901500873
 31
0
  0
LINE
  8
0
 62
7
 10
429.1049657251
 20
679.5082387499
 30
0
 11
433.3398142691
 21
682.0486147873
 31
0
  0
LINE
  8
0
 62
7
 10
426.3398131218
 20
681.8703894488
 30
0
 11
429.1049657251
 21
679.5082387499
 31
0
  0
LINE
  8
0
 62
7
 10
433.3398142691
 20
680.8901500873
 30
0
 11
429.7872787203
 21
678.840558695
 31
0
  0
LINE
  8
0
 62
7
 10
494.3971564855
 20
677.797188701468
 30
0
 11
494.3971564855
 21
676.5032500945
 31
0
  0
LINE
  8
0
 62
7
 10
494.3971564855
 20
676.5032500945
 30
0
 11
488.907892802
 21
676.8680603228
 31
0
  0
LINE
  8
0
 62
7
 10
488.907892802
 20
676.8680603228
 30
0
 11
488.907892802
 21
682.1749198235
 31
0
  0
LINE
  8
0
 62
7
 10
488.907892802
 20
682.1749198235
 30
0
 11
489.8788208004
 21
682.1749198235
 31
0
  0
LINE
  8
0
 62
7
 10
489.8788208004
 20
682.1749198235
 30
0
 11
489.8788208004
 21
678.1011966042
 31
0
  0
LINE
  8
0
 62
7
 10
489.8788208004
 20
678.1011966042
 30
0
 11
493.2172210749
 21
677.8579891644
 31
0
  0
LINE
  8
0
 62
7
 10
496.0901072111
 20
676.2163412742
 30
0
 11
496.0901072111
 21
677.6147835873001
 31
0
  0
LINE
  8
0
 62
7
 10
433.3398142691
 20
683.5636139832
 30
0
 11
426.3398131218
 21
683.5636139832
 31
0
  0
LINE
  8
0
 62
7
 10
426.3398131218
 20
684.5398635588
 30
0
 11
433.3398142691
 21
684.5398635588
 31
0
  0
LINE
  8
0
 62
7
 10
426.3398131218
 20
683.5636139832
 30
0
 11
426.3398131218
 21
684.5398635588
 31
0
  0
LINE
  8
0
 62
7
 10
433.3398142691
 20
684.5398635588
 30
0
 11
433.3398142691
 21
683.5636139832
 31
0
  0
LINE
  8
0
 62
7
 10
353.0142983284
 20
723.826352226
 30
0
 11
348.2184639062
 21
737.2704648398
 31
0
  0
LINE
  8
0
 62
7
 10
353.0142983284
 20
660.0514479898
 30
0
 11
353.0142983284
 21
729.0435933493
 31
0
  0
LINE
  8
0
 62
7
 10
348.2184639062
 20
651.8245764993
 30
0
 11
348.2184639062
 21
737.2704648398
 31
0
  0
LINE
  8
0
 62
7
 10
312.8101309623
 20
651.8245764993
 30
0
 11
348.2184639062
 21
651.8245764993
 31
0
  0
LINE
  8
0
 62
7
 10
312.8101309623
 20
651.8245764993
 30
0
 11
312.8101309623
 21
737.2704648398
 31
0
  0
LINE
  8
0
 62
7
 10
348.2184639062
 20
737.2704648398
 30
0
 11
312.8101309623
 21
737.2704648398
 31
0
  0
LINE
  8
0
 62
7
 10
308.0142965402
 20
665.2686891131
 30
0
 11
312.8101309623
 21
651.8245764993
 31
0
  0
LINE
  8
0
 62
7
 10
308.0142965402
 20
660.0443713756347
 30
0
 11
308.0142965402
 21
660.0585225593654
 31
0
  0
LINE
  8
0
 62
7
 10
351.0605113800946
 20
739.6929974698412
 30
0
 11
344.5405667397824
 21
756.8638841711114
 31
0
  0
LINE
  8
0
 62
7
 10
316.495912201186
 20
756.8846476042435
 30
0
 11
316.4864797532498
 21
756.859806392367
 31
0
  0
LINE
  8
0
 62
7
 10
344.5342342082728
 20
632.2144798495847
 30
0
 11
344.540566739855
 21
632.2311571680798
 31
0
  0
LINE
  8
0
 62
7
 10
309.9680771913
 20
649.4020425699
 30
0
 11
316.4864797532004
 21
632.2352349467632
 31
0
  0
LINE
  8
0
 62
7
 10
34.0142926063
 20
601.5475184642
 30
0
 11
34.0142926063
 21
787.5475228749
 31
0
  0
LINE
  8
0
 62
7
 10
19.0143069114
 20
601.5475184642
 30
0
 11
19.0143069114
 21
787.5475228749
 31
0
  0
LINE
  8
0
 62
7
 10
17.0143028583
 20
644.5475199245
 30
0
 11
17.0143028583
 21
744.5475214146001
 31
0
  0
LINE
  8
0
 62
7
 10
521.764293858
 20
689.6040907115
 30
0
 11
522.1010116722
 21
689.6670443922
 31
0
  0
LINE
  8
0
 62
7
 10
522.4040603127
 20
699.3504946105001
 30
0
 11
521.764293858
 21
699.4909506276
 31
0
  0
LINE
  8
0
 62
7
 10
521.764293858
 20
689.6040907115
 30
0
 11
521.764293858
 21
689.6538414977
 31
0
  0
LINE
  8
0
 62
7
 10
521.764293858
 20
699.4067166917
 30
0
 11
521.764293858
 21
699.4909506276
 31
0
  0
LINE
  8
0
 62
7
 10
409.0227564659
 20
690.5475204795
 30
0
 11
409.0227564659
 21
698.5475208595
 31
0
  0
LINE
  8
0
 62
7
 10
521.0142960634
 20
699.7975205987
 30
0
 11
520.4093014683
 21
699.7625457108001
 31
0
  0
LINE
  8
0
 62
7
 10
409.0227564659
 20
690.5475204795
 30
0
 11
408.014294305
 21
690.5475204795
 31
0
  0
LINE
  8
0
 62
7
 10
409.0227564659
 20
698.5475208595
 30
0
 11
408.014294305
 21
698.5475208595
 31
0
  0
LINE
  8
0
 62
7
 10
402.5539835777
 20
708.7475207619
 30
0
 11
402.5539835777
 21
712.1108711682
 31
0
  0
LINE
  8
0
 62
7
 10
401.6884421792
 20
708.7475207619
 30
0
 11
402.5539836282661
 21
712.1108713646916
 31
0
  0
LINE
  8
0
 62
7
 10
402.5539835777
 20
676.9841701709
 30
0
 11
402.5539835777
 21
680.3475205771
 31
0
  0
LINE
  8
0
 62
7
 10
402.5539835777
 20
676.9841701709
 30
0
 11
401.6872798886
 21
680.3475205771
 31
0
  0
LINE
  8
0
 62
7
 10
434.5142958548
 20
764.6478728376
 30
0
 11
441.0406915333
 21
758.1214771591
 31
0
  0
LINE
  8
0
 62
7
 10
482.9878991527655
 20
758.1214774731345
 30
0
 11
489.5142955567
 21
764.6478728376
 31
0
  0
LINE
  8
0
 62
7
 10
402.2899288192
 20
719.5475206695001
 30
0
 11
391.5829440441
 21
719.5475210421
 31
0
  0
LINE
  8
0
 62
7
 10
532.1146478738
 20
722.0475205205
 30
0
 11
525.5882521953
 21
715.521124842
 31
0
  0
LINE
  8
0
 62
7
 10
525.5882521953
 20
673.5739164971
 30
0
 11
532.1146478738
 21
667.0475208185
 31
0
  0
LINE
  8
0
 62
7
 10
391.5829440441
 20
669.547520297
 30
0
 11
402.2899288192
 21
669.5475206695001
 31
0
  0
LINE
  8
0
 62
7
 10
489.5142955567
 20
624.4471685014
 30
0
 11
482.9878998782
 21
630.97356418
 31
0
  0
LINE
  8
0
 62
7
 10
441.0406922587345
 20
630.9735638659655
 30
0
 11
434.5142958548
 21
624.4471685014
 31
0
  0
LINE
  8
0
 62
7
 10
560.0142931428001
 20
787.5475228749
 30
0
 11
560.0142931428001
 21
601.5475184642
 31
0
  0
LINE
  8
0
 62
7
 10
575.0142937388
 20
787.5475228749
 30
0
 11
575.0142937388
 21
601.5475184642
 31
0
  0
LINE
  8
0
 62
7
 10
560.0142931428001
 20
689.5475207813
 30
0
 11
533.9517822351
 21
689.5475207813
 31
0
  0
LINE
  8
0
 62
7
 10
533.9517822351
 20
699.5475205578
 30
0
 11
560.0142931428001
 21
699.5475205578
 31
0
  0
LINE
  8
0
 62
7
 10
577.0142977919001
 20
644.5475199245
 30
0
 11
577.0142977919001
 21
744.5475214146001
 31
0
  0
LINE
  8
0
 62
7
 10
390.0200879063
 20
693.0475206565
 30
0
 11
371.6856544699
 21
693.0475206565
 31
0
  0
LINE
  8
0
 62
7
 10
371.6856544699
 20
693.0475206565
 30
0
 11
371.6856544699
 21
696.0475206826
 31
0
  0
LINE
  8
0
 62
7
 10
390.0200879063
 20
696.0475206826
 30
0
 11
371.6856544699
 21
696.0475206826
 31
0
  0
LINE
  8
0
 62
7
 10
355.0142949309
 20
662.5475191496
 30
0
 11
355.0142949309
 21
726.5475221894
 31
0
  0
LINE
  8
0
 62
7
 10
794.9649152839
 20
550.5588968116
 30
0
 11
794.9649152839
 21
555.0569129886394
 31
0
  0
LINE
  8
0
 62
7
 10
685.9649179065
 20
555.0608798000466
 30
0
 11
685.9649179065
 21
555.0569129885533
 31
0
  0
LINE
  8
0
 62
7
 10
732.4649162152
 20
549.558894785
 30
0
 11
732.4649162152
 21
542.5588955003
 31
0
  0
LINE
  8
0
 62
7
 10
748.4649169752
 20
542.5588955003
 30
0
 11
748.4649169752
 21
549.558894785
 31
0
  0
LINE
  8
0
 62
7
 10
804.9810064518
 20
539.5588968712
 30
0
 11
804.9810064518
 21
542.5588955003
 31
0
  0
LINE
  8
0
 62
7
 10
675.9488267386
 20
542.5588955003
 30
0
 11
675.9488267386
 21
539.5588968712
 31
0
  0
LINE
  8
0
 62
7
 10
812.4649134958
 20
513.0588953215
 30
0
 11
812.4649134958
 21
536.0588972288
 31
0
  0
LINE
  8
0
 62
7
 10
668.4649196946
 20
536.0588972288
 30
0
 11
668.4649196946
 21
513.0588953215
 31
0
  0
LINE
  8
0
 62
7
 10
746.3875982472
 20
551.5562240797
 30
0
 11
734.4923398019
 21
551.5562240797
 31
0
  0
LINE
  8
0
 62
7
 10
737.2785002485671
 20
553.5588954407
 30
0
 11
744.0008249705783
 21
553.5588954407
 31
0
  0
LINE
  8
0
 62
7
 10
687.4675573326952
 20
556.5588940698
 30
0
 11
793.4675573326952
 21
556.5588940698
 31
0
  0
LINE
  8
0
 62
7
 10
783.3427955889
 20
549.558894785
 30
0
 11
697.639016577
 21
549.558894785
 31
0
  0
LINE
  8
0
 62
7
 10
687.4622758577048
 20
556.5588940698
 30
0
 11
687.4675573326952
 21
556.5588940698
 31
0
  0
LINE
  8
0
 62
7
 10
726.2649165028
 20
558.5588981229
 30
0
 11
726.2649165952005
 21
558.5588981229
 31
0
  0
LINE
  8
0
 62
7
 10
752.1640678429
 20
556.5588940698
 30
0
 11
752.1640678429
 21
558.5588981229
 31
0
  0
LINE
  8
0
 62
7
 10
728.7649169126
 20
556.5588940698
 30
0
 11
728.7649169126
 21
558.5588981229
 31
0
  0
LINE
  8
0
 62
7
 10
726.2649165028
 20
556.5588940698
 30
0
 11
726.2649165028
 21
558.5588981229
 31
0
  0
LINE
  8
0
 62
7
 10
754.6649166876
 20
556.5588940698
 30
0
 11
754.6649166876
 21
558.5588981229
 31
0
  0
LINE
  8
0
 62
7
 10
752.1649162778
 20
561.0588957387
 30
0
 11
728.7649169126
 21
561.0588957387
 31
0
  0
LINE
  8
0
 62
7
 10
802.2908178651001
 20
509.5323269087
 30
0
 11
802.2908178651001
 21
513.0588953215
 31
0
  0
LINE
  8
0
 62
7
 10
678.6390153253
 20
509.5323269087
 30
0
 11
678.6390153253
 21
513.0588953215
 31
0
  0
LINE
  8
0
 62
7
 10
792.7908172393001
 20
549.7103874403
 30
0
 11
792.7908172393001
 21
542.5588955003
 31
0
  0
LINE
  8
0
 62
7
 10
802.2908178651001
 20
550.5588968116
 30
0
 11
802.2908178651001
 21
542.5588955003
 31
0
  0
LINE
  8
0
 62
7
 10
802.2908178651001
 20
550.5588968116
 30
0
 11
783.2908166134
 21
550.5588968116
 31
0
  0
LINE
  8
0
 62
7
 10
783.2908166134
 20
550.5588968116
 30
0
 11
783.2908166134
 21
542.5588955003
 31
0
  0
LINE
  8
0
 62
7
 10
688.1390159511
 20
549.7103874403
 30
0
 11
688.1390159511
 21
542.5588955003
 31
0
  0
LINE
  8
0
 62
7
 10
697.639016577
 20
550.5588968116
 30
0
 11
697.639016577
 21
542.5588955003
 31
0
  0
LINE
  8
0
 62
7
 10
697.639016577
 20
550.5588968116
 30
0
 11
678.6390153253
 21
550.5588968116
 31
0
  0
LINE
  8
0
 62
7
 10
678.6390153253
 20
550.5588968116
 30
0
 11
678.6390153253
 21
542.5588955003
 31
0
  0
LINE
  8
0
 62
7
 10
684.5967305386
 20
539.5588968712
 30
0
 11
728.4932883018
 21
539.5588968712
 31
0
  0
LINE
  8
0
 62
7
 10
712.9649167442
 20
536.0588972288
 30
0
 11
712.9649167442
 21
539.5588968712
 31
0
  0
LINE
  8
0
 62
7
 10
712.9649167442
 20
536.0588972288
 30
0
 11
767.9649164462001
 21
536.0588972288
 31
0
  0
LINE
  8
0
 62
7
 10
767.9649164462001
 20
536.0588972288
 30
0
 11
767.9649164462001
 21
539.5588968712
 31
0
  0
LINE
  8
0
 62
7
 10
752.4365448886
 20
539.5588968712
 30
0
 11
796.3331026518
 21
539.5588968712
 31
0
  0
LINE
  8
0
 62
7
 10
668.4649196946
 20
528.0588959175
 30
0
 11
710.3816980058
 21
528.0588959175
 31
0
  0
LINE
  8
0
 62
7
 10
770.5481351846
 20
528.0588959175
 30
0
 11
812.4649134958
 21
528.0588959175
 31
0
  0
LINE
  8
0
 62
7
 10
748.0530232684
 20
542.5588955003
 30
0
 11
748.0530232684
 21
536.0588972288
 31
0
  0
LINE
  8
0
 62
7
 10
732.876809922
 20
536.0588972288
 30
0
 11
732.876809922
 21
542.5588955003
 31
0
  0
LINE
  8
0
 62
7
 10
748.0530232684
 20
542.5588955003
 30
0
 11
804.9810064518
 21
542.5588955003
 31
0
  0
LINE
  8
0
 62
7
 10
675.9488267386
 20
542.5588955003
 30
0
 11
732.876809922
 21
542.5588955003
 31
0
  0
LINE
  8
0
 62
7
 10
804.5033124768
 20
539.5588968712
 30
0
 11
810.5652687633
 21
539.5588968712
 31
0
  0
LINE
  8
0
 62
7
 10
810.5652687633
 20
536.0588972288
 30
0
 11
810.5652687633
 21
539.5588968712
 31
0
  0
LINE
  8
0
 62
7
 10
810.5652687633
 20
536.0588972288
 30
0
 11
812.4649134958
 21
536.0588972288
 31
0
  0
LINE
  8
0
 62
7
 10
668.4649196946
 20
536.0588972288
 30
0
 11
670.3645644271001
 21
536.0588972288
 31
0
  0
LINE
  8
0
 62
7
 10
670.3645644271001
 20
536.0588972288
 30
0
 11
670.3645644271001
 21
539.5588968712
 31
0
  0
LINE
  8
0
 62
7
 10
670.3645644271001
 20
539.5588968712
 30
0
 11
676.4265207135001
 21
539.5588968712
 31
0
  0
LINE
  8
0
 62
7
 10
693.0412930929
 20
360.0588981825
 30
0
 11
787.8885400974
 21
360.0588981825
 31
0
  0
LINE
  8
0
 62
7
 10
812.4649134958
 20
513.0588953215
 30
0
 11
798.0843578958001
 21
513.0588953215
 31
0
  0
LINE
  8
0
 62
7
 10
668.4649196946
 20
513.0588953215
 30
0
 11
682.8454752946
 21
513.0588953215
 31
0
  0
LINE
  8
0
 62
7
 10
740.1442032102
 20
415.0904846209
 30
0
 11
740.4649165952
 21
415.0588960218
 31
0
  0
LINE
  8
0
 62
7
 10
796.3331026518
 20
528.0588959175
 30
0
 11
796.3331026518
 21
539.5588968712
 31
0
  0
LINE
  8
0
 62
7
 10
684.5967305386
 20
539.5588968712
 30
0
 11
684.5967305386
 21
528.0588959175
 31
0
  0
LINE
  8
0
 62
7
 10
761.4385207677
 20
536.0588972288
 30
0
 11
761.4385207677
 21
539.5588968712
 31
0
  0
LINE
  8
0
 62
7
 10
719.4913124227001
 20
536.0588972288
 30
0
 11
719.4913124227001
 21
539.5588968712
 31
0
  0
LINE
  8
0
 62
7
 10
804.5033124768
 20
539.5588968712
 30
0
 11
804.5033124768
 21
528.0588959175
 31
0
  0
LINE
  8
0
 62
7
 10
676.4265207135001
 20
528.0588959175
 30
0
 11
676.4265207135001
 21
539.5588968712
 31
0
  0
LINE
  8
0
 62
7
 10
752.4365448886
 20
536.0588972288
 30
0
 11
752.4365448886
 21
539.5588968712
 31
0
  0
LINE
  8
0
 62
7
 10
728.4932883018
 20
536.0588972288
 30
0
 11
728.4932883018
 21
539.5588968712
 31
0
  0
LINE
  8
0
 62
7
 10
769.3710775608
 20
542.5588955003
 30
0
 11
769.3710775608
 21
539.5588968712
 31
0
  0
LINE
  8
0
 62
7
 10
711.5587556296
 20
542.5588955003
 30
0
 11
711.5587556296
 21
539.5588968712
 31
0
  0
LINE
  8
0
 62
7
 10
750.6167573416
 20
549.558894785
 30
0
 11
750.6167573416
 21
542.5588955003
 31
0
  0
LINE
  8
0
 62
7
 10
730.3130758488001
 20
542.5588955003
 30
0
 11
730.3130758488001
 21
549.558894785
 31
0
  0
LINE
  8
0
 62
7
 10
740.4649165952
 20
465.0589098054
 30
0
 11
740.4649165952
 21
465.0588967669
 31
0
  0
LINE
  8
0
 62
7
 10
684.6932975137
 20
514.4801755267
 30
0
 11
684.6932975137
 21
528.0588959175
 31
0
  0
LINE
  8
0
 62
7
 10
796.2365356767
 20
514.4801755267
 30
0
 11
796.2365356767
 21
528.0588959175
 31
0
  0
LINE
  8
0
 62
7
 10
804.2854724014001
 20
513.0588953215
 30
0
 11
804.2854724014001
 21
528.0588959175
 31
0
  0
LINE
  8
0
 62
7
 10
676.644360789
 20
513.0588953215
 30
0
 11
676.644360789
 21
528.0588959175
 31
0
  0
LINE
  8
0
 62
2
 10
639.6498459425
 20
677.6198424801
 30
0
 11
849.8698383726999
 21
677.6198424801
 31
0
  0
LINE
  8
0
 62
2
 10
639.6498459425
 20
686.6125919377
 30
0
 11
849.8698383726999
 21
686.6125919377
 31
0
  0
LINE
  8
0
 62
2
 10
779.7965075626998
 20
701.3249743926999
 30
0
 11
849.8698383726999
 21
701.3249743926999
 31
0
  0
LINE
  8
0
 62
2
 10
814.8331729677
 20
701.3249743926999
 30
0
 11
814.8331729677
 21
667.6198421001
 31
0
  0
LINE
  8
0
 62
2
 10
779.7965075626998
 20
711.3249747727
 30
0
 11
779.7965075626998
 21
667.6198421001
 31
0
  0
LINE
  8
0
 62
2
 10
744.7598421577
 20
711.3249747727
 30
0
 11
744.7598421577
 21
667.6198421001
 31
0
  0
LINE
  8
0
 62
2
 10
709.7231767525
 20
711.3249747727
 30
0
 11
709.7231767525
 21
667.6198421001
 31
0
  0
LINE
  8
0
 62
2
 10
674.6865113474999
 20
711.3249747727
 30
0
 11
674.6865113474999
 21
667.6198421001
 31
0
  0
LINE
  8
0
 62
2
 10
849.8698383726999
 20
711.3249747727
 30
0
 11
639.6498459425
 21
711.3249747727
 31
0
  0
LINE
  8
0
 62
2
 10
849.8698383726999
 20
667.6198421001
 30
0
 11
849.8698383726999
 21
711.3249747727
 31
0
  0
LINE
  8
0
 62
2
 10
639.6498459425
 20
667.6198421001
 30
0
 11
849.8698383726999
 21
667.6198421001
 31
0
  0
LINE
  8
0
 62
2
 10
639.6498459425
 20
711.3249747727
 30
0
 11
639.6498459425
 21
667.6198421001
 31
0
  0
LINE
  8
1
 62
2
  6
DASHDOT
 10
642.2569947321999
 20
440.0588963943
 30
0
 11
841.0610012028
 21
440.0588963943
 31
0
  0
LINE
  8
1
 62
2
  6
DASHDOT
 10
740.4649165952
 20
342.3878602573
 30
0
 11
740.4649165952
 21
575.6748720189
 31
0
  0
LINE
  8
1
 62
2
  6
DASHDOT
 10
462.0142957058
 20
614.0741452936001
 30
0
 11
462.0142957058
 21
775.7634102551001
 31
0
  0
LINE
  8
1
 62
2
  6
DASHDOT
 10
462.0142957058
 20
575.6748720189
 30
0
 11
462.0142957058
 21
342.3878602573
 31
0
  0
LINE
  8
1
 62
2
  6
DASHDOT
 10
583.4410676481
 20
440.0588963943
 30
0
 11
-8.2911052355
 21
440.0588963943
 31
0
  0
LINE
  8
1
 62
7
 10
525.2123704042359
 20
698.7096413023745
 30
0
 11
516.5037816252
 21
700.4702023215
 31
0
  0
LINE
  8
1
 62
7
 10
516.506653824
 20
700.455271358
 30
0
 11
516.5037816252
 21
700.4702023215
 31
0
  0
ARC
  8
0
 62
7
 10
157.7025457136
 20
691.86880898
 30
0
 40
2.588352393594521
 50
89.65822764519945
 51
146.0017050522011
  0
ARC
  8
0
 62
7
 10
143.1551981749
 20
691.8689205664
 30
0
 40
2.588240984278525
 50
89.65756389749959
 51
146.0030211518982
  0
ARC
  8
0
 62
7
 10
143.304566242
 20
692.7560715835
 30
0
 40
1.706305599789026
 50
19.16145254299409
 51
94.50080794119813
  0
ARC
  8
0
 62
7
 10
147.0622225515
 20
691.86880898
 30
0
 40
2.588352393594521
 50
89.65822764520007
 51
146.0017050522011
  0
ARC
  8
0
 62
7
 10
147.2704921559
 20
692.1927816844
 30
0
 40
2.272529484340926
 50
55.00043705779842
 51
94.86754889460084
  0
ARC
  8
0
 62
7
 10
153.7955506555
 20
691.86880898
 30
0
 40
2.588352393594521
 50
89.65822764519945
 51
146.0017050522011
  0
ARC
  8
0
 62
7
 10
157.910815318
 20
692.1927816844
 30
0
 40
2.272529484340926
 50
55.00043705779842
 51
94.86754889460084
  0
ARC
  8
0
 62
7
 10
153.9448632014
 20
692.7560314940001
 30
0
 40
1.70634350969307
 50
19.16243530269473
 51
94.49982518150152
  0
ARC
  8
0
 62
7
 10
157.1340543545
 20
691.7828872352
 30
0
 40
1.401429015966556
 50
93.31663463849748
 51
130.6183318891961
  0
ARC
  8
0
 62
7
 10
157.3703918882
 20
691.5414595314001
 30
0
 40
1.738687555633791
 50
131.3506879389026
 51
185.5345592360035
  0
ARC
  8
0
 62
7
 10
153.1596538915
 20
692.2794893884
 30
0
 40
0.9025831216989162
 50
50.98335989380297
 51
90.8679725970991
  0
ARC
  8
0
 62
7
 10
153.3803706593
 20
691.5413879665
 30
0
 40
1.738802393851925
 50
131.3514182081005
 51
185.5318233737063
  0
ARC
  8
0
 62
7
 10
158.2174316106
 20
692.9293530488999
 30
0
 40
1.503087586398213
 50
354.2827026421088
 51
48.45606700750666
  0
ARC
  8
0
 62
7
 10
146.4937676127
 20
691.7827969445
 30
0
 40
1.401521262880288
 50
93.31790749580102
 51
130.6170590318988
  0
ARC
  8
0
 62
7
 10
146.7301944149
 20
691.5414098757999
 30
0
 40
1.738807870408109
 50
131.3527159609009
 51
185.5325312138956
  0
ARC
  8
0
 62
7
 10
142.519356571
 20
692.2795641226999
 30
0
 40
0.9025087878535369
 50
50.98164765751007
 51
90.86968483340125
  0
ARC
  8
0
 62
7
 10
142.739954991
 20
691.5414595314001
 30
0
 40
1.738687555633791
 50
131.3506879389026
 51
185.5345592360035
  0
ARC
  8
0
 62
7
 10
147.5771084485
 20
692.9293530488999
 30
0
 40
1.503087586398185
 50
354.2827026421086
 51
48.45606700750746
  0
ARC
  8
0
 62
7
 10
133.8759431608
 20
696.0395824123
 30
0
 40
10.2165689450742
 50
139.0703487251001
 51
187.0097119823002
  0
ARC
  8
0
 62
7
 10
124.5017794685
 20
693.5131225559001
 30
0
 40
10.41113632782313
 50
319.4499916070989
 51
7.060197201900442
  0
ARC
  8
0
 62
7
 10
135.322954517
 20
695.9409529792999
 30
0
 40
9.335833538387195
 50
141.9297427915996
 51
187.0644593143995
  0
ARC
  8
0
 62
7
 10
135.3262766337
 20
693.5582807979999
 30
0
 40
9.350135310865277
 50
172.4130992166994
 51
218.149063143
  0
ARC
  8
0
 62
7
 10
123.2649163829
 20
693.5569023564999
 30
0
 40
9.332422534582635
 50
321.7762414697005
 51
7.609923552300536
  0
ARC
  8
0
 62
7
 10
123.4463863684
 20
695.991856207
 30
0
 40
9.147686529148293
 50
352.4679914031008
 51
38.5901549156002
  0
ARC
  8
0
 62
7
 10
117.0800685537
 20
690.3173710911001
 30
0
 40
3.650115039048414
 50
174.8535339895022
 51
223.9819358008005
  0
ARC
  8
0
 62
7
 10
115.9974721902
 20
689.5744688287
 30
0
 40
2.365227103213099
 50
229.2515703761006
 51
274.1946824310996
  0
ARC
  8
0
 62
7
 10
114.2125443553
 20
691.2385938632001
 30
0
 40
4.91420303683072
 50
318.3400952247991
 51
6.548850460899049
  0
ARC
  8
0
 62
7
 10
114.5333798849
 20
692.3603925584
 30
0
 40
4.595712350961872
 50
352.9842239177993
 51
39.37813027499948
  0
ARC
  8
0
 62
7
 10
116.8369307579
 20
692.4987009710001
 30
0
 40
3.361118649627576
 50
92.79142340699983
 51
156.7381249658017
  0
ARC
  8
0
 62
7
 10
117.0702871864
 20
693.1885650815
 30
0
 40
4.308575163641106
 50
88.54877332650018
 51
138.4024283901986
  0
ARC
  8
0
 62
7
 10
115.470622286
 20
692.3277058391
 30
0
 40
5.969739556932646
 50
354.9195616518999
 51
43.47604193789961
  0
ARC
  8
0
 62
7
 10
115.0005774804
 20
691.3434169495999
 30
0
 40
6.432489348652235
 50
314.3636190706998
 51
4.061928858300584
  0
ARC
  8
0
 62
7
 10
115.7618608595
 20
690.0533340254001
 30
0
 40
4.621316030022266
 50
229.1658259486004
 51
273.7967114752001
  0
ARC
  8
0
 62
7
 10
116.5944655267
 20
690.441556389
 30
0
 40
5.472401686390267
 50
177.8716240714008
 51
225.2248961599003
  0
ARC
  8
0
 62
7
 10
39.0143366352
 20
733.8534902812999
 30
0
 40
5.000039737513899
 50
180.0004002571992
 51
261.4689245036998
  0
ARC
  8
0
 62
7
 10
39.0143366352
 20
655.2415491951001
 30
0
 40
5.00003973751384
 50
98.53107549630015
 51
179.9995997428008
  0
ARC
  8
0
 62
7
 10
113.0408379197
 20
474.0220911654001
 30
0
 40
2.902478033605169
 50
228.716798795901
 51
264.0528597884003
  0
ARC
  8
0
 62
7
 10
115.6965853814
 20
486.3005137140001
 30
0
 40
15.45077479448029
 50
258.9685340008999
 51
271.3769471235999
  0
ARC
  8
0
 62
7
 10
119.1574182371
 20
474.7951637859001
 30
0
 40
3.632417629530142
 50
275.3837488523992
 51
308.4648450828001
  0
ARC
  8
0
 62
7
 10
127.5566191089
 20
478.7999531012001
 30
0
 40
7.748604669038191
 50
240.6698968548003
 51
259.5949411867002
  0
ARC
  8
0
 62
7
 10
131.0135862123
 20
478.7986880556
 30
0
 40
7.747275972895216
 50
280.4033469786999
 51
299.3316573998008
  0
ARC
  8
0
 62
7
 10
141.4768536851
 20
470.9656702405
 30
0
 40
1.058158186831169
 50
83.7930855718003
 51
116.2181029993985
  0
ARC
  8
0
 62
7
 10
142.5426748819
 20
454.4779703447
 30
0
 40
17.55436802992608
 50
88.22130628539998
 51
90.12082653050014
  0
ARC
  8
0
 62
7
 10
145.4669853143
 20
470.9655688163
 30
0
 40
1.058257082119277
 50
83.79464241690178
 51
116.2165461542935
  0
ARC
  8
0
 62
7
 10
146.3732742081
 20
450.7097905684002
 30
0
 40
21.32254513192661
 50
89.89419075120009
 51
92.12840128079998
  0
ARC
  8
0
 62
7
 10
147.1189976446
 20
471.6446772860002
 30
0
 40
0.3814493963764719
 50
61.10893202378718
 51
96.22136179140946
  0
ARC
  8
0
 62
7
 10
152.1171927735
 20
470.9654442516001
 30
0
 40
1.0583811297304
 50
83.79526542239887
 51
116.2149190079994
  0
ARC
  8
0
 62
7
 10
153.1829760679
 20
454.4764514641001
 30
0
 40
17.55588686090604
 50
88.22138846059987
 51
90.12074435540011
  0
ARC
  8
0
 62
7
 10
156.1072905823
 20
470.9656702405
 30
0
 40
1.058158186831169
 50
83.7930855718003
 51
116.2181029993999
  0
ARC
  8
0
 62
7
 10
157.0135699966
 20
450.7113412767001
 30
0
 40
21.32099447686241
 50
89.89410949500017
 51
92.12848253700018
  0
ARC
  8
0
 62
7
 10
157.7593208067
 20
471.6446772860002
 30
0
 40
0.3814493963764581
 50
61.10893202379093
 51
96.22136179140946
  0
ARC
  8
0
 62
7
 10
157.0137509109
 20
453.1560781296
 30
0
 40
20.37501403302699
 50
89.88970189919994
 51
92.22786252620007
  0
ARC
  8
0
 62
7
 10
156.1077136882
 20
472.5038187844
 30
0
 40
1.018272272176038
 50
83.57290500819966
 51
117.3554809233957
  0
ARC
  8
0
 62
7
 10
153.182480077
 20
456.7286016034002
 30
0
 40
16.80249245228965
 50
88.13991905060003
 51
90.12446701819985
  0
ARC
  8
0
 62
7
 10
152.1176158957
 20
472.5036027022002
 30
0
 40
1.018485212467909
 50
83.57515696229677
 51
117.3521808217012
  0
ARC
  8
0
 62
7
 10
153.440885476103
 20
405.3394560960001
 30
0
 40
68.22032212879375
 50
89.68916269550253
 51
91.50455495210247
  0
ARC
  8
0
 62
7
 10
154.2724264158
 20
441.6513024164001
 30
0
 40
31.9108083095725
 50
87.69354040479998
 51
90.82854030269991
  0
ARC
  8
0
 62
7
 10
157.347880534103
 20
405.3394560960001
 30
0
 40
68.22032212879375
 50
89.68916269550253
 51
91.50455495210248
  0
ARC
  8
0
 62
7
 10
158.1073340439018
 20
320.5731178125
 30
0
 40
152.9861519329642
 50
89.58543165050065
 51
90.14581834770067
  0
ARC
  8
0
 62
7
 10
159.3343189743
 20
472.0352607174
 30
0
 40
1.524737810184906
 50
75.61807235879917
 51
94.51587256529987
  0
ARC
  8
0
 62
7
 10
146.3734551484
 20
453.1545955783001
 30
0
 40
20.37649652886844
 50
89.88978696770018
 51
92.22777745780017
  0
ARC
  8
0
 62
7
 10
145.4674084514
 20
472.5037217298002
 30
0
 40
1.018366710686131
 50
83.57451843480052
 51
117.353867496805
  0
ARC
  8
0
 62
7
 10
142.542178942002
 20
456.7300558012
 30
0
 40
16.8010383058422
 50
88.13983315970692
 51
90.12455290910691
  0
ARC
  8
0
 62
7
 10
141.4772767909
 20
472.5038187844
 30
0
 40
1.018272272176038
 50
83.57290500819966
 51
117.3554809233957
  0
ARC
  8
0
 62
7
 10
142.8005561039
 20
405.3424230936
 30
0
 40
68.21735520854556
 50
89.68914396040003
 51
91.50459014629995
  0
ARC
  8
0
 62
7
 10
143.6321127275
 20
441.6520369335001
 30
0
 40
31.91007400624908
 50
87.69350432499989
 51
90.8285763824
  0
ARC
  8
0
 62
7
 10
146.707557372103
 20
405.3394560960001
 30
0
 40
68.22032212879375
 50
89.68916269550253
 51
91.50455495210247
  0
ARC
  8
0
 62
7
 10
147.4670108818018
 20
320.5731178125
 30
0
 40
152.9861519329642
 50
89.58543165050065
 51
90.14581834770067
  0
ARC
  8
0
 62
7
 10
148.6939958122
 20
472.0352607174
 30
0
 40
1.524737810184906
 50
75.61807235879917
 51
94.51587256529987
  0
ARC
  8
0
 62
7
 10
115.6975200223
 20
487.0758172923001
 30
0
 40
14.78272710492741
 50
258.4596190758999
 51
271.4355620074998
  0
ARC
  8
0
 62
7
 10
114.4858991368
 20
474.2718630419001
 30
0
 40
1.403492386122278
 50
222.1075854879983
 51
268.681071637199
  0
ARC
  8
0
 62
7
 10
115.9509029591
 20
481.7953996390002
 30
0
 40
9.051361309271393
 50
260.4781562961004
 51
271.3900503307999
  0
ARC
  8
0
 62
7
 10
117.8430151228
 20
474.6291103861001
 30
0
 40
1.722357504731831
 50
271.362217087201
 51
316.6117905414998
  0
ARC
  8
0
 62
7
 10
118.4378927103
 20
472.0350375981
 30
0
 40
1.55629841330702
 50
65.0378889892999
 51
103.0774539427964
  0
ARC
  8
0
 62
7
 10
119.1393827312
 20
476.1701791053001
 30
0
 40
3.550844734399963
 50
275.8002474297997
 51
309.8965495133987
  0
ARC
  8
0
 62
7
 10
113.0564986453
 20
475.4160977558001
 30
0
 40
2.841826418857199
 50
227.2052915366983
 51
263.6078368551007
  0
ARC
  8
0
 62
7
 10
130.9815760183
 20
480.0405223372002
 30
0
 40
7.540043774940637
 50
280.9402353697002
 51
300.5023106946991
  0
ARC
  8
0
 62
7
 10
127.6315131429
 20
480.1552240763001
 30
0
 40
7.660916568663702
 50
239.4788004482006
 51
258.9042398018999
  0
ARC
  8
0
 62
7
 10
128.8308294766
 20
478.2521469820001
 30
0
 40
5.451280073378724
 50
239.6878473059006
 51
260.9489941042998
  0
ARC
  8
0
 62
7
 10
129.7444930422
 20
478.2505812039001
 30
0
 40
5.448857768931169
 50
278.9956016382002
 51
300.3011276678
  0
ARC
  8
0
 62
7
 10
163.6648065594
 20
401.9467377292001
 30
0
 40
7.030978658275584
 50
60.3847182325001
 51
84.11151134330008
  0
ARC
  8
0
 62
7
 10
158.982225764
 20
375.4545642255
 30
0
 40
32.48007897562712
 50
80.42281767050002
 51
90.81426174929993
  0
ARC
  8
0
 62
7
 10
163.6407606932
 20
400.6890854192
 30
0
 40
6.833634656256374
 50
59.20529868810022
 51
83.73805307100037
  0
ARC
  8
0
 62
7
 10
161.8226240719
 20
402.7473337934
 30
0
 40
4.464527524811602
 50
58.62938092050103
 51
84.74549332189962
  0
ARC
  8
0
 62
7
 10
39.0142978515
 20
479.3648334983002
 30
0
 40
5.000000000000014
 50
180
 51
261.4692343901003
  0
ARC
  8
0
 62
7
 10
39.0142978515
 20
400.7529592902001
 30
0
 40
4.999999999999968
 50
98.5307656099001
 51
180
  0
ARC
  8
0
 62
7
 10
743.8238021057
 20
551.6569127799
 30
0
 40
1.91020290458204
 50
65.13401327750103
 51
84.68263963255633
  0
ARC
  8
0
 62
7
 10
793.4649165952
 20
555.0588963943
 30
0
 40
1.5
 50
0.07576053768465814
 51
89.8991312057111
  0
ARC
  8
0
 62
7
 10
793.4649165952
 20
555.0588963943
 30
0
 40
1.5
 50
359.9242394623153
 51
0.07576053768465814
  0
ARC
  8
0
 62
7
 10
687.4649165952
 20
555.0588963943
 30
0
 40
1.5
 50
90.10086879428889
 51
179.9242394590281
  0
ARC
  8
0
 62
7
 10
687.4649165952
 20
555.0588963943
 30
0
 40
1.5
 50
89.8991312057111
 51
90.10086879428889
  0
ARC
  8
0
 62
7
 10
525.0142987787951
 20
555.5588964208695
 30
0
 40
0.999999966809529
 50
0.0001760659573004356
 51
89.8766375195011
  0
ARC
  8
0
 62
7
 10
412.9620669729
 20
558.5588963943
 30
0
 40
2.5
 50
359.950319567594
 51
0.04968043240598268
  0
ARC
  8
0
 62
7
 10
412.9620669729
 20
558.5588963943
 30
0
 40
2.5
 50
0.04968043240598268
 51
90.04149417037665
  0
ARC
  8
0
 62
7
 10
493.2490775739711
 20
715.7762315800359
 30
0
 40
1.009601431862156
 50
100.3063864434002
 51
181.7115294857844
  0
ARC
  8
0
 62
7
 10
493.3440598111438
 20
717.9558869312112
 30
0
 40
1.255690474331431
 50
84.77835783546409
 51
130.2727899403725
  0
ARC
  8
0
 62
7
 10
338.0142978266025
 20
729.0436027616188
 30
0
 40
30.00000212080368
 50
159.2077910622453
 51
179.9864866059533
  0
ARC
  8
0
 62
7
 10
330.5142957058
 20
751.5475206695001
 30
0
 40
14.99999999999994
 50
20.75816111147043
 51
20.82630150134295
  0
ARC
  8
0
 62
7
 10
330.5142957058
 20
751.5475206695001
 30
0
 40
14.99999999999989
 50
20.82630150134295
 51
159.1569987014156
  0
ARC
  8
0
 62
7
 10
330.5142957058
 20
637.5475206695001
 30
0
 40
15.00000000000007
 50
200.7415047492253
 51
200.8430012992309
  0
ARC
  8
0
 62
7
 10
330.5142957058
 20
637.5475206695001
 30
0
 40
15.00000000000008
 50
200.8430012992309
 51
339.173698497683
  0
ARC
  8
0
 62
7
 10
338.0142957058
 20
660.0514469675001
 30
0
 40
30.00000000000001
 50
179.9864866148266
 51
180.0135133851734
  0
ARC
  8
0
 62
7
 10
462.0142957058
 20
566.5475206695001
 30
0
 40
200.0000000000007
 50
73.7791271864
 51
90
  0
ARC
  8
0
 62
7
 10
462.0142957058
 20
822.5475206695001
 30
0
 40
199.9999999999998
 50
253.7791271864
 51
270
  0
ARC
  8
0
 62
7
 10
420.3316611493
 20
475.2260935754
 30
0
 40
30.66257477018138
 50
122.8736090225
 51
164.2361263223999
  0
ARC
  8
0
 62
7
 10
482.0472729799192
 20
399.0483419037539
 30
0
 40
34.46709685581229
 50
306.6216959891671
 51
359.881168342467
  0
ARC
  8
0
 62
7
 10
357.6672414141
 20
408.0588963943
 30
0
 40
2.652945708332265
 50
123.4208850334619
 51
180
  0
ARC
  8
0
 62
7
 10
357.6672414141
 20
472.0588963943
 30
0
 40
2.652945708332235
 50
179.9999671724961
 51
250.4497987542126
  0
ARC
  8
0
 62
7
 10
461.8671873625718
 20
466.0705975829926
 30
0
 40
104.5154330348039
 50
271.4953357495123
 51
286.5896164767122
  0
ARC
  8
0
 62
7
 10
521.5142957058
 20
400.5368567551
 30
0
 40
4.999999999999941
 50
55.40771131249982
 51
178.8293725758002
  0
ARC
  8
0
 62
7
 10
514.743165055
 20
555.1435395279
 30
0
 40
1.415769337579536
 50
17.08729750510004
 51
88.61302342530109
  0
ARC
  8
0
 62
7
 10
411.5165660934
 20
545.4458979966
 30
0
 40
11.23718239564182
 50
98.52602445180089
 51
121.1890111096948
  0
ARC
  8
0
 62
7
 10
403.5142957058
 20
549.5588963943
 30
0
 40
1.600000000000008
 50
38.68218745349965
 51
141.3178125465003
  0
ARC
  8
0
 62
7
 10
402.0142992182
 20
558.5588922262
 30
0
 40
2.50000351250003
 50
90
 51
180
  0
ARC
  8
0
 62
7
 10
412.9620669729
 20
558.5588963943
 30
0
 40
2.5
 50
89.95850582962336
 51
90.04149417037665
  0
ARC
  8
0
 62
7
 10
330.384849319
 20
426.0471558898
 30
0
 40
18.98870050218597
 50
270.3905723419
 51
287.1973574530002
  0
ARC
  8
0
 62
7
 10
322.1737629
 20
412.2811315396
 30
0
 40
5.223463838615288
 50
271.2428542736001
 51
303.141436286501
  0
ARC
  8
0
 62
7
 10
338.8548080172
 20
469.836738989
 30
0
 40
5.223385925307167
 50
91.24261002829928
 51
123.141680531801
  0
ARC
  8
0
 62
7
 10
322.4003439296
 20
469.8366615769
 30
0
 40
5.223463838615174
 50
91.24285427360013
 51
123.1414362865006
  0
ARC
  8
0
 62
7
 10
514.2107454979
 20
522.0472529191
 30
0
 40
18.98879676419455
 50
270.390601101
 51
287.1972762003998
  0
ARC
  8
0
 62
7
 10
522.4541565842
 20
508.2811182829
 30
0
 40
5.223449443231933
 50
271.2427021201001
 51
303.1414024242993
  0
ARC
  8
0
 62
7
 10
409.5589420811
 20
522.0472666787
 30
0
 40
18.98881053800939
 50
270.3906072404998
 51
287.1972700609
  0
ARC
  8
0
 62
7
 10
401.3478715979
 20
508.2811167908
 30
0
 40
5.223447857330078
 50
271.2426548718996
 51
303.1414057187005
  0
ARC
  8
0
 62
7
 10
401.5744261292
 20
545.3367424534
 30
0
 40
5.223382753119217
 50
91.2426225565997
 51
123.1417661110005
  0
ARC
  8
0
 62
7
 10
418.0289055616
 20
545.3367582304001
 30
0
 40
5.223366874051306
 50
91.24257277730003
 51
123.1418158902996
  0
ARC
  8
0
 62
7
 10
506.2262262612
 20
545.3367582304001
 30
0
 40
5.223366874051306
 50
91.24257277730003
 51
123.1418158902996
  0
ARC
  8
0
 62
7
 10
522.6807111156001
 20
545.3367439454
 30
0
 40
5.223381167348335
 50
91.24257530829966
 51
123.1417694052001
  0
ARC
  8
0
 62
7
 10
320.9937307233
 20
452.465075306
 30
0
 40
4.890665074918862
 50
157.0196520023998
 51
174.6516303028003
  0
ARC
  8
0
 62
7
 10
340.0345067743
 20
452.4649851138
 30
0
 40
4.891029297266119
 50
5.349031431099819
 51
22.97968626359976
  0
ARC
  8
0
 62
7
 10
340.0345067743
 20
427.6528076749
 30
0
 40
4.891029297266217
 50
337.0203137364002
 51
354.6509685689002
  0
ARC
  8
0
 62
7
 10
320.9937307233
 20
427.6527174826
 30
0
 40
4.890665074918845
 50
185.3483696972004
 51
202.9803479976002
  0
ARC
  8
0
 62
7
 10
474.5805949163
 20
464.324590362
 30
0
 40
1.739398830590663
 50
356.4280075304997
 51
32.64086724100194
  0
ARC
  8
0
 62
7
 10
475.3062176568
 20
464.3570847775
 30
0
 40
1.168971195717122
 50
50.78449479700255
 51
93.04003510149801
  0
ARC
  8
0
 62
7
 10
475.3509520845
 20
463.9116239214
 30
0
 40
1.616314636844649
 50
93.78613963470222
 51
133.2786297367013
  0
ARC
  8
0
 62
7
 10
476.0138891095
 20
463.3539960541
 30
0
 40
2.478790389318288
 50
135.5989572627013
 51
184.2645289436982
  0
ARC
  8
0
 62
7
 10
469.2246853634
 20
464.408389632
 30
0
 40
2.187930631077265
 50
357.2504497942995
 51
22.98550202409962
  0
ARC
  8
0
 62
7
 10
470.5491395955
 20
464.4846117771
 30
0
 40
1.039859104498934
 50
48.44617710629821
 51
90.61537896559742
  0
ARC
  8
0
 62
7
 10
470.5459653047
 20
463.8950820894
 30
0
 40
1.629348426198894
 50
90.28110837399963
 51
132.9156325520025
  0
ARC
  8
0
 62
7
 10
471.2085717912
 20
463.3536062117
 30
0
 40
2.479825615788493
 50
135.6097729719007
 51
184.2537132345981
  0
ARC
  8
0
 62
7
 10
471.3648726039
 20
464.1089463891
 30
0
 40
3.072612076016422
 50
90.48179872779942
 51
148.8393629772015
  0
ARC
  8
0
 62
7
 10
471.4704198913
 20
465.1352883477
 30
0
 40
2.050375260180301
 50
15.95314682990032
 51
93.67393153690087
  0
ARC
  8
0
 62
7
 10
476.0712167548
 20
464.1087835806
 30
0
 40
3.07277565978033
 50
90.48350194510142
 51
148.8376597598989
  0
ARC
  8
0
 62
7
 10
476.267983617
 20
464.5827515876
 30
0
 40
2.608222848336817
 50
52.72361893900029
 51
94.89802491680018
  0
ARC
  8
0
 62
7
 10
476.3073424671
 20
465.1622531517
 30
0
 40
2.147190061005104
 50
355.6966471319002
 51
44.16189572650177
  0
ARC
  8
0
 62
7
 10
450.5929828575
 20
465.209057682
 30
0
 40
8.488991844100776
 50
353.8062502201
 51
42.47908916909994
  0
ARC
  8
0
 62
7
 10
455.3413583727
 20
469.1550859637
 30
0
 40
2.340954187737293
 50
49.75282763640028
 51
89.39510502449821
  0
ARC
  8
0
 62
7
 10
455.38237781
 20
469.1683676739
 30
0
 40
2.327599131643219
 50
90.40137631350056
 51
130.3646929319997
  0
ARC
  8
0
 62
7
 10
460.0932543843
 20
465.227298553
 30
0
 40
8.445352223894306
 50
137.4175244689002
 51
186.3503814928
  0
ARC
  8
0
 62
7
 10
460.2861894899
 20
463.3423906189
 30
0
 40
8.638947128607281
 50
173.6813623462001
 51
222.0862241126997
  0
ARC
  8
0
 62
7
 10
455.3905900354
 20
459.3477390489
 30
0
 40
2.349771969714911
 50
229.8317704083002
 51
269.4021603461998
  0
ARC
  8
0
 62
7
 10
455.3456942974
 20
459.3272759663
 30
0
 40
2.329270115756532
 50
270.5012685404994
 51
310.3507987986005
  0
ARC
  8
0
 62
7
 10
450.9040748402
 20
463.1975848821
 30
0
 40
8.201850040765395
 50
316.5033508701997
 51
7.676407975599656
  0
ARC
  8
0
 62
7
 10
455.3787804821
 20
467.6853957489
 30
0
 40
5.565039601468987
 50
90.13083904089982
 51
129.8530775436995
  0
ARC
  8
0
 62
7
 10
455.3417203968
 20
467.662852578
 30
0
 40
5.587621327817239
 50
50.23032106310006
 51
89.75029319239918
  0
ARC
  8
0
 62
7
 10
452.2964753505
 20
465.2572071506
 30
0
 40
9.418890825197281
 50
354.1254225718999
 51
45.34734578550055
  0
ARC
  8
0
 62
7
 10
451.7999010982
 20
463.4248561747
 30
0
 40
9.904137151359267
 50
315.9317331630002
 51
5.029698670599985
  0
ARC
  8
0
 62
7
 10
455.3658390598
 20
460.7942718026
 30
0
 40
5.543849260984572
 50
270.0024107921998
 51
309.8219029477002
  0
ARC
  8
0
 62
7
 10
455.3876351474
 20
460.8626597308
 30
0
 40
5.612278607487026
 50
230.4311468681995
 51
269.7798644920998
  0
ARC
  8
0
 62
7
 10
458.5360715196
 20
463.2856267146
 30
0
 40
9.526677681186332
 50
173.9290175369996
 51
225.1095498655998
  0
ARC
  8
0
 62
7
 10
488.6864134957
 20
464.3264291213
 30
0
 40
1.732436298527674
 50
356.3526997172028
 51
32.71617505419906
  0
ARC
  8
0
 62
7
 10
489.3915306431
 20
464.3160171912
 30
0
 40
1.209369896798741
 50
51.52227795880131
 51
92.30225193970122
  0
ARC
  8
0
 62
7
 10
489.4435154153
 20
463.9257757006
 30
0
 40
1.601795282776589
 50
93.5996018296992
 51
133.4651675418012
  0
ARC
  8
0
 62
7
 10
490.1072533509
 20
463.3559560865
 30
0
 40
2.473589204583506
 50
135.5444945246988
 51
184.3190407550005
  0
ARC
  8
0
 62
7
 10
483.3233601129
 20
464.4083783267
 30
0
 40
2.18798242322441
 50
357.2508113186002
 51
22.98524831169969
  0
ARC
  8
0
 62
7
 10
484.6501808207
 20
464.4908136646
 30
0
 40
1.03368516959799
 50
48.31417604520113
 51
90.74733014359943
  0
ARC
  8
0
 62
7
 10
484.6607801826
 20
463.854443332
 30
0
 40
1.670141199085633
 50
90.82617487980042
 51
132.3705328850002
  0
ARC
  8
0
 62
7
 10
485.303046929
 20
463.3551604126
 30
0
 40
2.475701304563179
 50
135.5666528346986
 51
184.2968824449994
  0
ARC
  8
0
 62
7
 10
485.4432438848
 20
464.1446911361
 30
0
 40
3.036763643057761
 50
90.10341873400016
 51
149.2177429709997
  0
ARC
  8
0
 62
7
 10
485.5685204726
 20
465.1344009311
 30
0
 40
2.051220817354701
 50
15.9721768050981
 51
93.65487765999814
  0
ARC
  8
0
 62
7
 10
490.149096734
 20
464.1453894143
 30
0
 40
3.036064674134401
 50
90.09593810760019
 51
149.2252235974013
  0
ARC
  8
0
 62
7
 10
490.3608642167
 20
464.5626166606
 30
0
 40
2.627795961203186
 50
52.88809433419994
 51
94.73354952160187
  0
ARC
  8
0
 62
7
 10
490.4129224302
 20
465.1647381357
 30
0
 40
2.140544190703323
 50
355.6165534207003
 51
44.24198943779889
  0
ARC
  8
0
 62
7
 10
432.2995325176
 20
473.3085278778
 30
0
 40
42.76651655262275
 50
165.9369929551
 51
185.4809873684
  0
ARC
  8
0
 62
7
 10
439.261566193
 20
460.0865931381
 30
0
 40
3.360059871472284
 50
175.9751267778
 51
228.9628960791997
  0
ARC
  8
0
 62
7
 10
438.8703336791
 20
460.2309506157
 30
0
 40
3.235658630152186
 50
235.8835231435003
 51
272.3850623172984
  0
ARC
  8
0
 62
7
 10
438.93162385
 20
460.1239052666
 30
0
 40
3.126671056813474
 50
271.3444767526002
 51
310.2303822473
  0
ARC
  8
0
 62
7
 10
437.7173711223
 20
461.0432108939
 30
0
 40
4.624783142204321
 50
314.3629295986001
 51
4.804289983800281
  0
ARC
  8
0
 62
7
 10
438.3232668076
 20
461.91064489
 30
0
 40
4.031328536202435
 50
353.1603253007001
 51
44.87275669199971
  0
ARC
  8
0
 62
7
 10
439.6152797502
 20
462.82334225
 30
0
 40
2.485909696575567
 50
50.98645367910006
 51
90.9020906519996
  0
ARC
  8
0
 62
7
 10
439.6286070567
 20
461.4059235944
 30
0
 40
3.903372850243645
 50
90.77013196049988
 51
149.7940922309997
  0
ARC
  8
0
 62
7
 10
439.9956058566
 20
461.4448704467
 30
0
 40
5.436114867075353
 50
88.36490321900021
 51
131.8590238722998
  0
ARC
  8
0
 62
7
 10
440.2315129713
 20
462.2397631949
 30
0
 40
4.639712160612287
 50
51.34475783289931
 51
90.99776631890013
  0
ARC
  8
0
 62
7
 10
439.5736985918
 20
461.7970297102
 30
0
 40
5.401552010202988
 50
356.1096351590007
 51
48.82839394219938
  0
ARC
  8
0
 62
7
 10
438.9146570731
 20
461.1908603044
 30
0
 40
6.052894281021001
 50
309.7387284863002
 51
2.269439194300737
  0
ARC
  8
0
 62
7
 10
439.0207898628
 20
461.3935009649
 30
0
 40
6.144498340978497
 50
268.7682144037993
 51
307.7693462501998
  0
ARC
  8
0
 62
7
 10
438.5238365123
 20
461.0334765249
 30
0
 40
5.794552577643174
 50
233.8973317867002
 51
273.6101229106008
  0
ARC
  8
0
 62
7
 10
438.4543640146
 20
460.3044602887
 30
0
 40
5.178082238899284
 50
179.8011176871995
 51
229.7617174097
  0
ARC
  8
0
 62
7
 10
556.2454808534
 20
471.4302476617
 30
0
 40
63.16909462579915
 50
236.2209426319
 51
251.8851636733
  0
ARC
  8
0
 62
7
 10
543.0164231328999
 20
490.0033621746
 30
0
 40
20.53042370220649
 50
190.0404359817999
 51
239.2310183629001
  0
ARC
  8
0
 62
7
 10
462.007176305
 20
466.0108188644
 30
0
 40
104.4518032424655
 50
253.4870853823001
 51
268.588381329
  0
ARC
  8
0
 62
7
 10
462.0233399123
 20
466.0820098394
 30
0
 40
104.5243240048062
 50
233.5066871587
 51
247.1934252031
  0
ARC
  8
0
 62
7
 10
400.5150764908
 20
449.5325577891
 30
0
 40
0.4161552431315851
 50
107.6204790224959
 51
183.3047992650983
  0
ARC
  8
0
 62
7
 10
481.9244750185
 20
398.9476030777
 30
0
 40
34.45986244791605
 50
286.5478668119001
 51
306.8854817445999
  0
ARC
  8
0
 62
7
 10
549.9734262976
 20
485.0629974837
 30
0
 40
10.04087324267869
 50
287.8214801981001
 51
0.06467799360037826
  0
ARC
  8
0
 62
7
 10
549.9658681294
 20
395.4801177454
 30
0
 40
10.04842795860528
 50
359.9561315651004
 51
68.91000397649971
  0
ARC
  8
0
 62
7
 10
519.3448534356
 20
416.4347224421
 30
0
 40
3.060412697349765
 50
54.47347314989895
 51
179.8485237351998
  0
ARC
  8
0
 62
7
 10
371.9987428495
 20
439.952806906
 30
0
 40
29.57922198384334
 50
63.12385336630008
 51
90.59439203179997
  0
ARC
  8
0
 62
7
 10
386.7411021616
 20
469.0008528635
 30
0
 40
2.995745194389261
 50
242.8326658205992
 51
4.233519236399586
  0
ARC
  8
0
 62
7
 10
489.7911819096028
 20
372.4152313935009
 30
0
 40
6.785857860712619
 50
286.406758164975
 51
286.6826801800754
  0
ARC
  8
0
 62
7
 10
550.0142957058
 20
374.8079205641
 30
0
 40
10
 50
0
 51
55.40771131250038
  0
ARC
  8
0
 62
7
 10
521.2867437384
 20
400.6910055697
 30
0
 40
5.002328027556326
 50
55.18794661930035
 51
179.7834669681
  0
ARC
  8
0
 62
7
 10
527.7207933655
 20
487.313330621
 30
0
 40
5.000090454698826
 50
190.2450327903998
 51
299.8242605657997
  0
ARC
  8
0
 62
7
 10
550.0142957058
 20
505.8535115861
 30
0
 40
10.00000000000002
 50
299.8187173092002
 51
0
  0
ARC
  8
0
 62
7
 10
371.685657441
 20
489.5588963943
 30
0
 40
20
 50
270
 51
342.9665898339001
  0
ARC
  8
0
 62
7
 10
525.0142957058
 20
691.3592209478001
 30
0
 40
1.000000000000028
 50
281.8696152433996
 51
0
  0
ARC
  8
0
 62
7
 10
550.0145566836
 20
742.5442774585
 30
0
 40
9.999739117565387
 50
269.8669745552002
 51
359.9582217304998
  0
ARC
  8
0
 62
7
 10
550.0145636325
 20
646.5507671436
 30
0
 40
9.999732166218999
 50
0.04175960240013392
 51
90.02446231769986
  0
ARC
  8
0
 62
7
 10
357.6110970088062
 20
662.5480364729179
 30
0
 40
2.596801354265586
 50
117.7789981764357
 51
180.0113806776363
  0
ARC
  8
0
 62
7
 10
357.6136524198618
 20
726.5431037840251
 30
0
 40
2.599360466727018
 50
179.9026418146582
 51
242.205241697259
  0
ARC
  8
0
 62
7
 10
400.5142957058
 20
707.7475206695
 30
0
 40
1
 50
90
 51
180
  0
ARC
  8
0
 62
7
 10
412.9618537958
 20
706.2475206695
 30
0
 40
2.500000000000138
 50
359.9805469364963
 51
90
  0
ARC
  8
0
 62
7
 10
412.9618537958
 20
706.2475206695
 30
0
 40
2.5
 50
270
 51
359.9805469403003
  0
ARC
  8
0
 62
7
 10
411.5142957058
 20
694.5475206695001
 30
0
 40
2.5
 50
270
 51
90
  0
ARC
  8
0
 62
7
 10
412.9620669729
 20
682.8475206695
 30
0
 40
2.5
 50
270
 51
90
  0
ARC
  8
0
 62
7
 10
400.5142957058
 20
681.3475206695
 30
0
 40
1
 50
180
 51
270
  0
ARC
  8
0
 62
7
 10
462.0142957058
 20
694.5475206695001
 30
0
 40
48.00000000000009
 50
167.2758504679001
 51
180
  0
ARC
  8
0
 62
7
 10
462.0142957058001
 20
694.547520669499
 30
0
 40
48
 50
180
 51
192.7232172347987
  0
ARC
  8
0
 62
7
 10
405.6972467774
 20
713.7475206695
 30
0
 40
5
 50
270
 51
341.1743730240874
  0
ARC
  8
0
 62
7
 10
405.6972467774
 20
675.3475206695
 30
0
 40
5.000000000029187
 50
18.82562697591262
 51
90
  0
ARC
  8
0
 62
7
 10
462.0142957058
 20
694.5475206695001
 30
0
 40
54.50000000000279
 50
198.8256269759131
 51
353.6794527795999
  0
ARC
  8
0
 62
7
 10
519.411126516
 20
694.311971704
 30
0
 40
6.649798002590227
 50
225.8278073583998
 51
240.1015506627005
  0
ARC
  8
0
 62
7
 10
517.4290776410001
 20
696.1445024997
 30
0
 40
4.62263943557545
 50
106.7807750872
 51
125.5307679151001
  0
ARC
  8
0
 62
7
 10
462.0142957057987
 20
694.5475206695003
 30
0
 40
54.50000000000143
 50
6.321823192786143
 51
161.1743730240868
  0
ARC
  8
0
 62
7
 10
462.0142957058
 20
694.5475206695001
 30
0
 40
48.00000000000003
 50
194.1079746503
 51
165.8930700372999
  0
ARC
  8
0
 62
7
 10
493.2490775739711
 20
706.0144976457359
 30
0
 40
1.009601431862156
 50
100.3063864434002
 51
181.7115294857844
  0
ARC
  8
0
 62
7
 10
493.3440598111438
 20
708.1941529969113
 30
0
 40
1.255690474331431
 50
84.77835783546409
 51
130.2727899403725
  0
ARC
  8
0
 62
7
 10
430.3939585448221
 20
704.4662019673415
 30
0
 40
3.356929711748686
 50
260.2105580485685
 51
305.3664949079704
  0
ARC
  8
0
 62
7
 10
430.3119552186822
 20
700.3417628995891
 30
0
 40
3.701733932917387
 50
56.83558807923349
 51
97.58735896683393
  0
ARC
  8
0
 62
7
 10
429.2642925216654
 20
700.7726288590561
 30
0
 40
3.286331404320878
 50
80.20832522787791
 51
125.7270095026771
  0
ARC
  8
0
 62
7
 10
429.3440548966871
 20
704.742990317712
 30
0
 40
3.616716110853497
 50
236.4519099072065
 51
277.6127553592076
  0
ARC
  8
0
 62
7
 10
430.3005869808357
 20
703.94694597431
 30
0
 40
3.828179061287815
 50
262.8361724072609
 51
312.272296860058
  0
ARC
  8
0
 62
7
 10
429.285761624
 20
703.6643201686001
 30
0
 40
3.556508799995406
 50
225.8083420025999
 51
278.6912764830996
  0
ARC
  8
0
 62
7
 10
430.372812235634
 20
701.45060817152
 30
0
 40
3.61204115715088
 50
46.1391312002114
 51
98.7523995312137
  0
ARC
  8
0
 62
7
 10
429.3579304482693
 20
701.2794657795056
 30
0
 40
3.769941116347804
 50
82.91093427651188
 51
132.5894472372124
  0
ARC
  8
0
 62
7
 10
493.3587073933
 20
695.1037731524
 30
0
 40
4.525298717452071
 50
225.5629225584995
 51
276.6676931464005
  0
ARC
  8
0
 62
7
 10
494.5430245176839
 20
694.8379238881304
 30
0
 40
4.279862848182887
 50
261.1441412966256
 51
316.1438545892293
  0
ARC
  8
0
 62
7
 10
493.3677086772232
 20
694.1796960576692
 30
0
 40
5.126239279263493
 50
223.1227611196262
 51
275.7819756521257
  0
ARC
  8
0
 62
7
 10
494.4578785408395
 20
694.1460628865942
 30
0
 40
5.098907654369395
 50
263.5393244016684
 51
317.1069716418691
  0
ARC
  8
0
 62
7
 10
494.4553968263367
 20
690.3766474406202
 30
0
 40
4.524768115831705
 50
45.45904067005084
 51
97.25297064035141
  0
ARC
  8
0
 62
7
 10
493.2452957051366
 20
690.7020561902144
 30
0
 40
4.211885228922972
 50
81.27585963476209
 51
136.493517386464
  0
ARC
  8
0
 62
7
 10
494.5354919950926
 20
691.5377862474387
 30
0
 40
4.900450084059895
 50
41.71556440315157
 51
97.63813819345066
  0
ARC
  8
0
 62
7
 10
493.3284909000525
 20
691.3992243494446
 30
0
 40
5.026339239906209
 50
83.65308928643128
 51
137.4421753136313
  0
ARC
  8
0
 62
7
 10
495.3178409488918
 20
679.5704649896786
 30
0
 40
1.998041209650305
 50
180.287441916446
 51
242.561675552978
  0
ARC
  8
0
 62
7
 10
495.2394701266344
 20
679.4100342465363
 30
0
 40
3.017258927709259
 50
85.53263709595109
 51
137.5815247161141
  0
ARC
  8
0
 62
7
 10
495.7340902128336
 20
678.4992952095815
 30
0
 40
2.533724078857088
 50
44.97294950697479
 51
95.88077215727299
  0
ARC
  8
0
 62
7
 10
525.0141788301
 20
697.7293556572
 30
0
 40
1.000119915906879
 50
0.001584450702663897
 51
78.57016200149856
  0
ARC
  8
0
 62
7
 10
330.5142957058
 20
751.5475206695001
 30
0
 40
14.99999999999993
 50
159.1569987014156
 51
159.2584952502433
  0
ARC
  8
0
 62
7
 10
323.0142942312702
 20
729.0435867129572
 30
0
 40
30.00000409713055
 50
1.267447926768117e-005
 51
20.79223763617915
  0
ARC
  8
0
 62
7
 10
338.0142978266025
 20
729.0436027616188
 30
0
 40
30.00000212080366
 50
179.9864866059533
 51
180.0135133940467
  0
ARC
  8
0
 62
7
 10
330.5142899837
 20
755.6105438246
 30
0
 40
5.966919661389845
 50
65.66985544860012
 51
114.3301445513994
  0
ARC
  8
0
 62
7
 10
323.0142957058
 20
660.0514469675001
 30
0
 40
30.00000000000012
 50
339.2077750383
 51
0
  0
ARC
  8
0
 62
7
 10
330.5142957058
 20
637.5475206695001
 30
0
 40
15.00000000000007
 50
339.173698497683
 51
339.2418388893105
  0
ARC
  8
0
 62
7
 10
338.0142978289569
 20
660.0514385722349
 30
0
 40
30.00000212117797
 50
180.0134973504433
 51
200.79220892697
  0
ARC
  8
0
 62
7
 10
330.5142899837
 20
633.4844975145001
 30
0
 40
5.966919661389821
 50
245.6698554486006
 51
294.3301445513998
  0
ARC
  8
0
 62
7
 10
521.0142957058
 20
694.5475206695001
 30
0
 40
5.00000000000013
 50
81.37307344130052
 51
86.16574451789958
  0
ARC
  8
0
 62
7
 10
518.5079397735
 20
705.2581779762001
 30
0
 40
2.999999999999949
 50
190.7353193568
 51
283.1705569646007
  0
ARC
  8
0
 62
7
 10
521.0142957056937
 20
694.54752066955
 30
0
 40
7.999999999969821
 50
256.8294430353997
 51
103.1705569646001
  0
ARC
  8
0
 62
7
 10
518.5079397735
 20
683.8368633629
 30
0
 40
3.000000000000057
 50
76.82944303539931
 51
169.2646806432
  0
ARC
  8
0
 62
7
 10
521.0142957058
 20
694.5475206695001
 30
0
 40
5.249999999999977
 50
265.4191361209996
 51
299.9481417547002
  0
ARC
  8
0
 62
7
 10
521.0142957058
 20
694.5475206695001
 30
0
 40
5.24999999999996
 50
342.2472098380994
 51
17.75279016190057
  0
ARC
  8
0
 62
7
 10
398.3184600909972
 20
728.1159660512099
 30
0
 40
10.00000000000721
 50
332.2102484831572
 51
59.45798196495898
  0
ARC
  8
0
 62
7
 10
428.4458503240996
 20
758.2433562842356
 30
0
 40
10.00000000002516
 50
210.54201803468
 51
297.7897515164814
  0
ARC
  8
0
 62
7
 10
495.5827410874505
 20
758.2433562841832
 30
0
 40
9.999999999955342
 50
242.2102484836324
 51
329.4579819654335
  0
ARC
  8
0
 62
7
 10
525.7101313205119
 20
728.1159660512403
 30
0
 40
10.00000000002945
 50
120.5420180351722
 51
207.7897515169727
  0
ARC
  8
0
 62
7
 10
462.0142957059106
 20
694.5475206695155
 30
0
 40
61.99999999988843
 50
7.029987932198363
 51
27.78975151679846
  0
ARC
  8
0
 62
7
 10
462.0142957058
 20
694.5475206695001
 30
0
 40
62.00000000000011
 50
62.21024848319999
 51
117.7897515167999
  0
ARC
  8
0
 62
7
 10
409.4982023967
 20
747.0636139786
 30
0
 40
12.00000000000005
 50
30.54201803499963
 51
239.4579819650019
  0
ARC
  8
0
 62
7
 10
514.5303890148
 20
747.0636139786
 30
0
 40
12.00000000000011
 50
300.5420180350001
 51
149.4579819649998
  0
ARC
  8
0
 62
7
 10
462.0142957055518
 20
694.5475206700477
 30
0
 40
61.99999999960689
 50
152.2102484836204
 51
163.5439456587106
  0
ARC
  8
0
 62
7
 10
525.7101313205
 20
660.9790752878
 30
0
 40
9.999999999994421
 50
152.2102484832313
 51
239.4579819648696
  0
ARC
  8
0
 62
7
 10
514.5303890147976
 20
642.0314273604975
 30
0
 40
11.99999999999673
 50
210.5420180349958
 51
59.45798196486591
  0
ARC
  8
0
 62
7
 10
495.5827410874404
 20
630.8516850547879
 30
0
 40
10.00000000002951
 50
30.54201803517278
 51
117.7897515168706
  0
ARC
  8
0
 62
7
 10
462.0142957057932
 20
694.5475206695002
 30
0
 40
61.99999999998968
 50
242.2102484832363
 51
297.7897515167037
  0
ARC
  8
0
 62
7
 10
428.44585032409
 20
630.8516850547971
 30
0
 40
10.00000000000796
 50
62.21024848319307
 51
149.4579819649589
  0
ARC
  8
0
 62
7
 10
409.4982023967
 20
642.0314273605
 30
0
 40
11.99999999996636
 50
120.5420180351308
 51
329.4579819650017
  0
ARC
  8
0
 62
7
 10
398.318460091
 20
660.9790752878
 30
0
 40
10.00000000000583
 50
300.5420180351299
 51
27.7897515167317
  0
ARC
  8
0
 62
7
 10
462.0142957058
 20
694.5475206695001
 30
0
 40
61.99999999999903
 50
332.2102484832314
 51
352.9700120677999
  0
ARC
  8
0
 62
7
 10
462.0142957058187
 20
694.5475206694542
 30
0
 40
62.00000000000495
 50
196.4560541767056
 51
207.789751516686
  0
ARC
  8
0
 62
7
 10
462.0142957058
 20
566.5475206695001
 30
0
 40
200
 50
90
 51
106.2208728136
  0
ARC
  8
0
 62
7
 10
448.1117594134025
 20
765.1925458082457
 30
0
 40
10.00000064029741
 50
225.0000031157192
 51
281.1332164985201
  0
ARC
  8
0
 62
7
 10
475.9168313409
 20
765.1925452850001
 30
0
 40
9.999999999999949
 50
258.8667866172001
 51
315
  0
ARC
  8
0
 62
7
 10
402.2899288192
 20
717.5475206695001
 30
0
 40
2.000000000000064
 50
338.938182398299
 51
90
  0
ARC
  8
0
 62
7
 10
590.0142957058
 20
694.5475206695001
 30
0
 40
200.0000000000003
 50
163.7791271864
 51
196.2208728136
  0
ARC
  8
0
 62
7
 10
532.6593208445394
 20
708.4500569618474
 30
0
 40
10.00000064039902
 50
135.0000031158961
 51
191.1332164986962
  0
ARC
  8
0
 62
7
 10
334.0142957058
 20
694.5475206695001
 30
0
 40
200.0000000000001
 50
343.7791271864
 51
16.22087281359999
  0
ARC
  8
0
 62
7
 10
532.6593208444458
 20
680.6449843772028
 30
0
 40
10.00000064029759
 50
168.8667835014827
 51
224.9999968842817
  0
ARC
  8
0
 62
7
 10
402.2899288192
 20
671.5475206695001
 30
0
 40
2
 50
270
 51
21.06181760160052
  0
ARC
  8
0
 62
7
 10
462.0142957058
 20
822.5475206695001
 30
0
 40
200
 50
270
 51
286.2208728136
  0
ARC
  8
0
 62
7
 10
475.9168319980976
 20
623.9024955308544
 30
0
 40
10.00000064029729
 50
45.00000311571989
 51
101.1332164985205
  0
ARC
  8
0
 62
7
 10
448.1117600706
 20
623.9024960541
 30
0
 40
10.00000000000006
 50
78.86678661720019
 51
134.9999999999998
  0
ARC
  8
0
 62
7
 10
687.4649165952
 20
555.0588963943
 30
0
 40
1.5
 50
179.9242394590281
 51
180.0757605409719
  0
ARC
  8
0
 62
7
 10
737.1095789503
 20
551.6054976248
 30
0
 40
1.96068799970086
 50
85.05760694219408
 51
114.4000345123348
  0
ARC
  8
0
 62
7
 10
745.3892031926
 20
555.575405191
 30
0
 40
0.9835452186806113
 50
1.165080935068512
 51
89.38673144109906
  0
ARC
  8
0
 62
7
 10
735.4606190892
 20
555.5628594048
 30
0
 40
0.9960349956285732
 50
90.04668740239933
 51
180.1913599060014
  0
ARC
  8
0
 62
7
 10
728.7649165952
 20
558.5588963943
 30
0
 40
2.5
 50
0
 51
179.9999603834046
  0
ARC
  8
0
 62
7
 10
752.1649165952
 20
558.5588963943
 30
0
 40
2.500000000000143
 50
3.9616595354552e-005
 51
180
  0
ARC
  8
0
 62
7
 10
740.4649165952
 20
558.5588963943
 30
0
 40
2.5
 50
0
 51
180
  0
ARC
  8
0
 62
7
 10
797.6622586694
 20
536.1594316464
 30
0
 40
14.39997724074834
 50
90.48319793270004
 51
109.7730350337999
  0
ARC
  8
0
 62
7
 10
788.1622580436
 20
536.1594316464
 30
0
 40
14.39997724074834
 50
90.48319793270004
 51
109.7730350337999
  0
ARC
  8
0
 62
7
 10
693.0104509729
 20
536.1594680542
 30
0
 40
14.39994081164926
 50
90.48318847890013
 51
109.7730600451
  0
ARC
  8
0
 62
7
 10
683.510450347
 20
536.1594680542
 30
0
 40
14.39994081164926
 50
90.48318847890013
 51
109.7730600451
  0
ARC
  8
0
 62
7
 10
740.4649165952
 20
440.0588963943
 30
0
 40
93.00000000000007
 50
300.6592623053999
 51
239.3407376947
  0
ARC
  8
0
 62
7
 10
743.6359524061001
 20
555.5686050093
 30
0
 40
0.9903383186084418
 50
359.4673625686999
 51
89.42853884139862
  0
ARC
  8
0
 62
7
 10
737.2874285085001
 20
555.5694606958
 30
0
 40
0.9894924419840501
 50
90.62605119100297
 51
180.6447710234
  0
CIRCLE
  8
0
 62
2
  6
DASHDOT
 10
740.4649165952001
 20
440.0588963944
 30
0
 40
71.5
  0
CIRCLE
  8
0
 62
7
 10
385.9498973482
 20
470.9932396327
 30
0
 40
1.25
  0
CIRCLE
  8
0
 62
7
 10
330.5142957058
 20
751.5475206695001
 30
0
 40
6
  0
CIRCLE
  8
0
 62
7
 10
330.5142957058
 20
637.5475206695001
 30
0
 40
6.000000000000114
  0
CIRCLE
  8
0
 62
7
 10
740.4649165952
 20
440.0588963943
 30
0
 40
50.00000000000011
  0
CIRCLE
  8
0
 62
7
 10
740.4649165952
 20
440.0588963943
 30
0
 40
42.49999999999989
  0
CIRCLE
  8
0
 62
7
 10
740.4649165952
 20
440.0588963943
 30
0
 40
52.00000000000011
  0
CIRCLE
  8
0
 62
7
 10
740.4649165952
 20
440.0588963943
 30
0
 40
41.99999999999989
  0
CIRCLE
  8
0
 62
7
 10
740.4649165952
 20
440.0588963943
 30
0
 40
41.49999999999989
  0
CIRCLE
  8
0
 62
7
 10
740.4649165952
 20
440.0588963943
 30
0
 40
33.99999999999989
  0
CIRCLE
  8
0
 62
7
 10
740.4649165952
 20
440.0588963943
 30
0
 40
33.49999999999989
  0
CIRCLE
  8
0
 62
7
 10
740.4649165952
 20
440.0588963943
 30
0
 40
32.99999999999989
  0
CIRCLE
  8
0
 62
7
 10
740.4649165952
 20
440.0588963943
 30
0
 40
27.00000000000011
  0
CIRCLE
  8
0
 62
7
 10
740.4649165952
 20
440.0588963943
 30
0
 40
25.00000000000011
  0
CIRCLE
  8
0
 62
7
 10
791.3146193711
 20
490.3237720791
 30
0
 40
9.500000000000227
  0
CIRCLE
  8
0
 62
7
 10
791.3146193711
 20
389.7940207096
 30
0
 40
9.500000000000114
  0
CIRCLE
  8
0
 62
7
 10
689.6152138193
 20
490.3237720791
 30
0
 40
9.500000000000114
  0
CIRCLE
  8
0
 62
7
 10
689.6152138193
 20
389.7940207096
 30
0
 40
9.5
  0
CIRCLE
  8
0
 62
7
 10
330.5142957058
 20
751.5475206695001
 30
0
 40
9.499999999999943
  0
CIRCLE
  8
0
 62
7
 10
330.5142942267
 20
637.5475206695001
 30
0
 40
9.499999999999991
  0
CIRCLE
  8
0
 62
7
 10
409.6883938979
 20
642.2216188617
 30
0
 40
9.499999999999943
  0
CIRCLE
  8
0
 62
7
 10
514.3401975136
 20
746.8734224773
 30
0
 40
9.500000000000091
  0
CIRCLE
  8
0
 62
7
 10
409.6883938979
 20
746.8734224773
 30
0
 40
9.499999999999943
  0
CIRCLE
  8
0
 62
7
 10
514.3401975136
 20
642.2216188617
 30
0
 40
9.500000000000091
  0
LINE
  8
1
 62
2
 10
842.2819994992912
 20
502.6439092064
 30
0
 11
833.0693978253911
 21
502.6439092064
 31
0
  0
LINE
  8
1
 62
2
 10
833.0693978253911
 20
502.6439092064
 30
0
 11
800.6092450804
 21
492.2884432790781
 31
0
  0
LINE
  8
1
 62
2
 10
803.3972671576692
 20
494.0778934232952
 30
0
 11
800.6092450804
 21
492.2884432790781
 31
0
  0
LINE
  8
1
 62
2
 10
803.9184680977355
 20
492.4441415241412
 30
0
 11
800.6092450804
 21
492.2884432790781
 31
0
  0
LINE
  8
1
 62
2
 10
499.1683269529
 20
352.949771009
 30
0
 11
484.6985987123
 21
352.949771009
 31
0
  0
LINE
  8
1
 62
2
 10
484.6985987123
 20
352.949771009
 30
0
 11
468.1137329692
 21
408.1333786288
 31
0
  0
LINE
  8
1
 62
2
 10
469.8559175427001
 20
405.3155795171107
 30
0
 11
468.1137329692
 21
408.1333786288
 31
0
  0
LINE
  8
1
 62
2
 10
468.2136095120878
 20
404.8220007285658
 30
0
 11
468.1137329692
 21
408.1333786288
 31
0
  0
DIMENSION
  8
1
  6
CONTINUOUS
 62
2
  2
*D0
  3
DMST_1
 10
599.0142957058
 20
787.5475228749
 30
0
 11
596.7142957058001
 21
694.5475206695501
 31
0
 12
0
 22
0
 32
0
 70
128
 13
575.0142937388
 23
601.5475184642
 33
0
 14
575.0142937388
 24
787.5475228749
 34
0
 50
90
 53
0
  0
DIMENSION
  8
1
  6
CONTINUOUS
 62
2
  2
*D1
  3
DMST_2
 10
577.0142977918999
 20
317.8621748647001
 30
0
 11
297.0143003251
 21
320.4621748647001
 31
0
 12
0
 22
0
 32
0
 70
128
 13
17.0143028583
 23
390.0588956493
 33
0
 14
577.0142977919001
 24
390.0588956493
 34
0
 53
0
  0
DIMENSION
  8
1
  6
CONTINUOUS
 62
2
  2
*D2
  3
DMST_2
 10
577.0142977918999
 20
327.5856386431001
 30
0
 11
454.51429674885
 21
330.1856386431001
 31
0
 12
0
 22
0
 32
0
 70
128
 13
332.0142957058
 23
403.5588963943
 33
0
 14
577.0142977919001
 24
390.0588956493
 34
0
 53
0
  0
DIMENSION
  8
1
  6
CONTINUOUS
 62
2
  2
*D3
  3
DMST_2
 10
462.0142957058
 20
335.8621748647001
 30
0
 11
397.0142957058
 21
338.4621748647001
 31
0
 12
0
 22
0
 32
0
 70
128
 13
332.0142957058
 23
403.5588963943
 33
0
 14
462.0142957058
 24
342.3878602573
 34
0
 53
0
  0
DIMENSION
  8
1
  6
CONTINUOUS
 62
2
  2
*D4
  3
DMST_2
 10
329.0142957058
 20
327.5856386431001
 30
0
 11
173.01429928205
 21
330.1856386431001
 31
0
 12
0
 22
0
 32
0
 70
128
 13
17.0143028583
 23
390.0588956493
 33
0
 14
329.0142957058
 24
403.8088963943
 34
0
 53
0
  0
DIMENSION
  8
1
  6
CONTINUOUS
 62
2
  2
*D5
  3
DMST_2
 10
577.0142977919001
 20
335.8621748647001
 30
0
 11
519.51429674885
 21
338.4621748647001
 31
0
 12
0
 22
0
 32
0
 70
128
 13
462.0142957058
 23
342.3878602573
 33
0
 14
577.0142977919001
 24
390.0588956493
 34
0
 53
0
  0
DIMENSION
  8
1
  6
CONTINUOUS
 62
2
  2
*D6
  3
DMST_2
 10
587.0142957058
 20
360.0588981825
 30
0
 11
584.4142957058
 21
400.0588972884
 31
0
 12
0
 22
0
 32
0
 70
128
 13
583.4410676481
 23
440.0588963943
 33
0
 14
502.0142948117
 24
360.0588981825
 34
0
 50
90
 53
0
  0
DIMENSION
  8
1
  6
CONTINUOUS
 62
2
  2
*D7
  3
DMST_2
 10
599.0142957058
 20
561.0588957387
 30
0
 11
596.4142957058
 21
460.5588969606
 31
0
 12
0
 22
0
 32
0
 70
128
 13
502.0142948117
 23
360.0588981825
 33
0
 14
412.9638774974754
 24
561.0588957387
 34
0
 50
90
 53
0
  0
DIMENSION
  8
1
  6
CONTINUOUS
 62
2
  2
*D8
  3
DMST_3
 10
692.2146376569364
 20
453.1703639849157
 30
0
 11
864.440603720678
 21
409.0641905256867
 31
0
 12
0
 22
0
 32
0
 70
131
  1
D3
 15
788.7151955334635
 25
426.9474288036842
 35
0
 40
80.75367004477351
 53
0
  0
DIMENSION
  8
1
  6
CONTINUOUS
 62
2
  2
*D9
  3
DMST_3
 10
669.9184647779296
 20
428.420677630623
 30
0
 11
869.7752120013375
 21
464.026671708244
 31
0
 12
0
 22
0
 32
0
 70
131
  1
D2
 15
811.0113684124706
 25
451.697115158177
 35
0
 40
62.97577796285005
 53
0
  0
DIMENSION
  8
1
  6
CONTINUOUS
 62
2
  2
*D10
  3
DMST_3
 10
655.7618219495865
 20
401.6611652444486
 30
0
 11
871.8363508102084
 21
502.4670649963435
 31
0
 12
0
 22
0
 32
0
 70
131
  1
D1
 15
825.1680112408134
 25
478.4566275441514
 35
0
 40
54.92698866035948
 53
0
  0
ENDSEC
  0
EOF
