  0
SECTION
  2
HEADER
  9
$ACADVER
  1
AC1015
  9
$ACADMAINTVER
 70
     6
  9
$DWGCODEPAGE
  3
ANSI_1252
  9
$INSBASE
 10
0.0
 20
0.0
 30
0.0
  9
$EXTMIN
 10
1020.190593160057
 20
273.8583804669723
 30
0.0
  9
$EXTMAX
 10
1171.30437180535
 20
549.456774105472
 30
0.0
  9
$LIMMIN
 10
0.0
 20
0.0
  9
$LIMMAX
 10
12.0
 20
9.0
  9
$ORTHOMODE
 70
     0
  9
$REGENMODE
 70
     1
  9
$FILLMODE
 70
     1
  9
$QTEXTMODE
 70
     0
  9
$MIRRTEXT
 70
     1
  9
$LTSCALE
 40
1.0
  9
$ATTMODE
 70
     1
  9
$TEXTSIZE
 40
0.2
  9
$TRACEWID
 40
0.05
  9
$TEXTSTYLE
  7
Standard
  9
$CLAYER
  8
0
  9
$CELTYPE
  6
ByLayer
  9
$CECOLOR
 62
   256
  9
$CELTSCALE
 40
1.0
  9
$DISPSILH
 70
     0
  9
$DIMSCALE
 40
1.0
  9
$DIMASZ
 40
0.18
  9
$DIMEXO
 40
0.0625
  9
$DIMDLI
 40
0.38
  9
$DIMRND
 40
0.0
  9
$DIMDLE
 40
0.0
  9
$DIMEXE
 40
0.18
  9
$DIMTP
 40
0.0
  9
$DIMTM
 40
0.0
  9
$DIMTXT
 40
0.18
  9
$DIMCEN
 40
0.09
  9
$DIMTSZ
 40
0.0
  9
$DIMTOL
 70
     0
  9
$DIMLIM
 70
     0
  9
$DIMTIH
 70
     1
  9
$DIMTOH
 70
     1
  9
$DIMSE1
 70
     0
  9
$DIMSE2
 70
     0
  9
$DIMTAD
 70
     0
  9
$DIMZIN
 70
     0
  9
$DIMBLK
  1

  9
$DIMASO
 70
     1
  9
$DIMSHO
 70
     1
  9
$DIMPOST
  1

  9
$DIMAPOST
  1

  9
$DIMALT
 70
     0
  9
$DIMALTD
 70
     2
  9
$DIMALTF
 40
25.4
  9
$DIMLFAC
 40
1.0
  9
$DIMTOFL
 70
     0
  9
$DIMTVP
 40
0.0
  9
$DIMTIX
 70
     0
  9
$DIMSOXD
 70
     0
  9
$DIMSAH
 70
     0
  9
$DIMBLK1
  1

  9
$DIMBLK2
  1

  9
$DIMSTYLE
  2
Standard
  9
$DIMCLRD
 70
     0
  9
$DIMCLRE
 70
     0
  9
$DIMCLRT
 70
     0
  9
$DIMTFAC
 40
1.0
  9
$DIMGAP
 40
0.09
  9
$DIMJUST
 70
     0
  9
$DIMSD1
 70
     0
  9
$DIMSD2
 70
     0
  9
$DIMTOLJ
 70
     1
  9
$DIMTZIN
 70
     0
  9
$DIMALTZ
 70
     0
  9
$DIMALTTZ
 70
     0
  9
$DIMUPT
 70
     0
  9
$DIMDEC
 70
     4
  9
$DIMTDEC
 70
     4
  9
$DIMALTU
 70
     2
  9
$DIMALTTD
 70
     2
  9
$DIMTXSTY
  7
Standard
  9
$DIMAUNIT
 70
     0
  9
$DIMADEC
 70
     0
  9
$DIMALTRND
 40
0.0
  9
$DIMAZIN
 70
     0
  9
$DIMDSEP
 70
    46
  9
$DIMATFIT
 70
     3
  9
$DIMFRAC
 70
     0
  9
$DIMLDRBLK
  1

  9
$DIMLUNIT
 70
     2
  9
$DIMLWD
 70
    -2
  9
$DIMLWE
 70
    -2
  9
$DIMTMOVE
 70
     0
  9
$LUNITS
 70
     2
  9
$LUPREC
 70
     4
  9
$SKETCHINC
 40
0.1
  9
$FILLETRAD
 40
0.5
  9
$AUNITS
 70
     0
  9
$AUPREC
 70
     0
  9
$MENU
  1
.
  9
$ELEVATION
 40
0.0
  9
$PELEVATION
 40
0.0
  9
$THICKNESS
 40
0.0
  9
$LIMCHECK
 70
     0
  9
$CHAMFERA
 40
0.5
  9
$CHAMFERB
 40
0.5
  9
$CHAMFERC
 40
1.0
  9
$CHAMFERD
 40
0.0
  9
$SKPOLY
 70
     0
  9
$TDCREATE
 40
2456911.484833819
  9
$TDUCREATE
 40
2456911.109833819
  9
$TDUPDATE
 40
2456911.484833831
  9
$TDUUPDATE
 40
2456911.109833831
  9
$TDINDWG
 40
0.0000000116
  9
$TDUSRTIMER
 40
0.0000000116
  9
$USRTIMER
 70
     1
  9
$ANGBASE
 50
0.0
  9
$ANGDIR
 70
     0
  9
$PDMODE
 70
     0
  9
$PDSIZE
 40
0.0
  9
$PLINEWID
 40
0.0
  9
$SPLFRAME
 70
     0
  9
$SPLINETYPE
 70
     6
  9
$SPLINESEGS
 70
     8
  9
$HANDSEED
  5
57B
  9
$SURFTAB1
 70
     6
  9
$SURFTAB2
 70
     6
  9
$SURFTYPE
 70
     6
  9
$SURFU
 70
     6
  9
$SURFV
 70
     6
  9
$UCSBASE
  2

  9
$UCSNAME
  2

  9
$UCSORG
 10
0.0
 20
0.0
 30
0.0
  9
$UCSXDIR
 10
1.0
 20
0.0
 30
0.0
  9
$UCSYDIR
 10
0.0
 20
1.0
 30
0.0
  9
$UCSORTHOREF
  2

  9
$UCSORTHOVIEW
 70
     0
  9
$UCSORGTOP
 10
0.0
 20
0.0
 30
0.0
  9
$UCSORGBOTTOM
 10
0.0
 20
0.0
 30
0.0
  9
$UCSORGLEFT
 10
0.0
 20
0.0
 30
0.0
  9
$UCSORGRIGHT
 10
0.0
 20
0.0
 30
0.0
  9
$UCSORGFRONT
 10
0.0
 20
0.0
 30
0.0
  9
$UCSORGBACK
 10
0.0
 20
0.0
 30
0.0
  9
$PUCSBASE
  2

  9
$PUCSNAME
  2

  9
$PUCSORG
 10
0.0
 20
0.0
 30
0.0
  9
$PUCSXDIR
 10
1.0
 20
0.0
 30
0.0
  9
$PUCSYDIR
 10
0.0
 20
1.0
 30
0.0
  9
$PUCSORTHOREF
  2

  9
$PUCSORTHOVIEW
 70
     0
  9
$PUCSORGTOP
 10
0.0
 20
0.0
 30
0.0
  9
$PUCSORGBOTTOM
 10
0.0
 20
0.0
 30
0.0
  9
$PUCSORGLEFT
 10
0.0
 20
0.0
 30
0.0
  9
$PUCSORGRIGHT
 10
0.0
 20
0.0
 30
0.0
  9
$PUCSORGFRONT
 10
0.0
 20
0.0
 30
0.0
  9
$PUCSORGBACK
 10
0.0
 20
0.0
 30
0.0
  9
$USERI1
 70
     0
  9
$USERI2
 70
     0
  9
$USERI3
 70
     0
  9
$USERI4
 70
     0
  9
$USERI5
 70
     0
  9
$USERR1
 40
16.0
  9
$USERR2
 40
0.0
  9
$USERR3
 40
0.0
  9
$USERR4
 40
0.0
  9
$USERR5
 40
0.0
  9
$WORLDVIEW
 70
     1
  9
$SHADEDGE
 70
     3
  9
$SHADEDIF
 70
    70
  9
$TILEMODE
 70
     1
  9
$MAXACTVP
 70
    64
  9
$PINSBASE
 10
0.0
 20
0.0
 30
0.0
  9
$PLIMCHECK
 70
     0
  9
$PEXTMIN
 10
1.00000000000000E+20
 20
1.00000000000000E+20
 30
1.00000000000000E+20
  9
$PEXTMAX
 10
-1.00000000000000E+20
 20
-1.00000000000000E+20
 30
-1.00000000000000E+20
  9
$PLIMMIN
 10
0.0
 20
0.0
  9
$PLIMMAX
 10
12.0
 20
9.0
  9
$UNITMODE
 70
     0
  9
$VISRETAIN
 70
     1
  9
$PLINEGEN
 70
     0
  9
$PSLTSCALE
 70
     1
  9
$TREEDEPTH
 70
  3020
  9
$CMLSTYLE
  2
Standard
  9
$CMLJUST
 70
     0
  9
$CMLSCALE
 40
1.0
  9
$PROXYGRAPHICS
 70
     1
  9
$MEASUREMENT
 70
     1
  9
$CELWEIGHT
370
    -1
  9
$ENDCAPS
280
     0
  9
$JOINSTYLE
280
     0
  9
$LWDISPLAY
290
     0
  9
$INSUNITS
 70
     1
  9
$HYPERLINKBASE
  1

  9
$STYLESHEET
  1

  9
$XEDIT
290
     1
  9
$CEPSNTYPE
380
     0
  9
$PSTYLEMODE
290
     1
  9
$FINGERPRINTGUID
  2
{01C2DBFA-1B42-44AC-9380-89AEB70A2635}
  9
$VERSIONGUID
  2
{FAEB1C32-E019-11D5-929B-00C0DF256EC4}
  9
$EXTNAMES
290
     1
  9
$PSVPSCALE
 40
0.0
  9
$OLESTARTUP
290
     0
  0
ENDSEC
  0
SECTION
  2
CLASSES
  0
CLASS
  1
ACDBDICTIONARYWDFLT
  2
AcDbDictionaryWithDefault
  3
ObjectDBX Classes
 90
        0
280
     0
281
     0
  0
CLASS
  1
VISUALSTYLE
  2
AcDbVisualStyle
  3
ObjectDBX Classes
 90
     4095
280
     0
281
     0
  0
CLASS
  1

  2
exOdDbCircle
  3

 90
        0
280
     0
281
     1
  0
CLASS
  1
ACDBPLACEHOLDER
  2
AcDbPlaceHolder
  3
ObjectDBX Classes
 90
        0
280
     0
281
     0
  0
CLASS
  1
LAYOUT
  2
AcDbLayout
  3
ObjectDBX Classes
 90
        0
280
     0
281
     0
  0
ENDSEC
  0
SECTION
  2
TABLES
  0
TABLE
  2
VPORT
  5
8
330
0
100
AcDbSymbolTable
 70
     1
  0
VPORT
  5
29
330
8
100
AcDbSymbolTableRecord
100
AcDbViewportTableRecord
  2
*Active
 70
     0
 10
0.0
 20
0.0
 11
1.0
 21
1.0
 12
1095.747482482704
 22
411.6575772862221
 13
0.0
 23
0.0
 14
0.5
 24
0.5
 15
0.5
 25
0.5
 16
0.0
 26
0.0
 36
1.0
 17
0.0
 27
0.0
 37
0.0
 40
303.1582330023498
 41
1.60267857142857
 42
50.0
 43
0.0
 44
0.0
 50
0.0
 51
0.0
 71
     0
 72
   100
 73
     1
 74
     3
 75
     0
 76
     0
 77
     0
 78
     0
281
     0
 65
     1
110
0.0
120
0.0
130
0.0
111
1.0
121
0.0
131
0.0
112
0.0
122
1.0
132
0.0
 79
     0
146
0.0
  0
ENDTAB
  0
TABLE
  2
LTYPE
  5
5
330
0
100
AcDbSymbolTable
 70
     8
  0
LTYPE
  5
14
330
5
100
AcDbSymbolTableRecord
100
AcDbLinetypeTableRecord
  2
ByBlock
 70
     0
  3

 72
    65
 73
     0
 40
0.0
  0
LTYPE
  5
15
330
5
100
AcDbSymbolTableRecord
100
AcDbLinetypeTableRecord
  2
ByLayer
 70
     0
  3

 72
    65
 73
     0
 40
0.0
  0
LTYPE
  5
16
330
5
100
AcDbSymbolTableRecord
100
AcDbLinetypeTableRecord
  2
Continuous
 70
     0
  3
Solid line
 72
    65
 73
     0
 40
0.0
  0
LTYPE
  5
3B
330
5
100
AcDbSymbolTableRecord
100
AcDbLinetypeTableRecord
  2
DASHED
 70
     0
  3
Dashed
 72
    65
 73
     2
 40
15.0
 49
7.0
 74
     0
 49
-8.0
 74
     0
  0
LTYPE
  5
3C
330
5
100
AcDbSymbolTableRecord
100
AcDbLinetypeTableRecord
  2
DOTTED
 70
     0
  3
Dotted
 72
    65
 73
     2
 40
1.0
 49
0.0
 74
     0
 49
-1.0
 74
     0
  0
LTYPE
  5
3D
330
5
100
AcDbSymbolTableRecord
100
AcDbLinetypeTableRecord
  2
DOT_CENTER
 70
     0
  3
Dot_Center
 72
    65
 73
     4
 40
14.0
 49
12.0
 74
     0
 49
-1.0
 74
     0
 49
0.0
 74
     0
 49
-1.0
 74
     0
  0
LTYPE
  5
3E
330
5
100
AcDbSymbolTableRecord
100
AcDbLinetypeTableRecord
  2
LONG_DASHED
 70
     0
  3
Long_Dashed
 72
    65
 73
     2
 40
15.0
 49
10.0
 74
     0
 49
-5.0
 74
     0
  0
LTYPE
  5
3F
330
5
100
AcDbSymbolTableRecord
100
AcDbLinetypeTableRecord
  2
DASH_CENTER
 70
     0
  3
Dash_Center
 72
    65
 73
     4
 40
14.0
 49
11.0
 74
     0
 49
-1.0
 74
     0
 49
1.0
 74
     0
 49
-1.0
 74
     0
  0
LTYPE
  5
40
330
5
100
AcDbSymbolTableRecord
100
AcDbLinetypeTableRecord
  2
PHANTOM
 70
     0
  3
Phantom
 72
    65
 73
     6
 40
13.0
 49
10.0
 74
     0
 49
-1.0
 74
     0
 49
0.0
 74
     0
 49
-1.0
 74
     0
 49
0.0
 74
     0
 49
-1.0
 74
     0
  0
LTYPE
  5
41
330
5
100
AcDbSymbolTableRecord
100
AcDbLinetypeTableRecord
  2
CENTER_DASH_DASH
 70
     0
  3
Center_Dash_Dash
 72
    65
 73
     6
 40
14.0
 49
9.0
 74
     0
 49
-1.0
 74
     0
 49
1.0
 74
     0
 49
-1.0
 74
     0
 49
1.0
 74
     0
 49
-1.0
 74
     0
  0
ENDTAB
  0
TABLE
  2
LAYER
  5
2
330
0
100
AcDbSymbolTable
 70
     2
  0
LAYER
  5
10
330
2
100
AcDbSymbolTableRecord
100
AcDbLayerTableRecord
  2
0
 70
     0
 62
     7
  6
Continuous
370
    -3
390
F
  0
LAYER
  5
42
330
2
100
AcDbSymbolTableRecord
100
AcDbLayerTableRecord
  2
1
 70
     0
 62
     7
  6
Continuous
370
    -3
390
F
  0
ENDTAB
  0
TABLE
  2
STYLE
  5
3
330
0
100
AcDbSymbolTable
 70
     3
  0
STYLE
  5
11
330
3
100
AcDbSymbolTableRecord
100
AcDbTextStyleTableRecord
  2
Standard
 70
     0
 40
0.0
 41
1.0
 50
0.0
 71
     0
 42
0.2
  3
txt
  4

  0
STYLE
  5
52F
330
3
100
AcDbSymbolTableRecord
100
AcDbTextStyleTableRecord
  2
CONVERTER_11
 70
     0
 40
0.0
 41
0.9
 50
15.0
 71
     0
 42
0.2
  3
txt.shx
  4

  0
STYLE
  5
574
330
3
100
AcDbSymbolTableRecord
100
AcDbTextStyleTableRecord
  2
CONVERTER_12
 70
     0
 40
0.0
 41
0.72
 50
0.0
 71
     0
 42
0.2
  3
txt.shx
  4

  0
ENDTAB
  0
TABLE
  2
VIEW
  5
6
330
0
100
AcDbSymbolTable
 70
     0
  0
ENDTAB
  0
TABLE
  2
UCS
  5
7
330
0
100
AcDbSymbolTable
 70
     0
  0
ENDTAB
  0
TABLE
  2
APPID
  5
9
330
0
100
AcDbSymbolTable
 70
     1
  0
APPID
  5
12
330
9
100
AcDbSymbolTableRecord
100
AcDbRegAppTableRecord
  2
ACAD
 70
     0
  0
ENDTAB
  0
TABLE
  2
DIMSTYLE
  5
A
330
0
100
AcDbSymbolTable
 70
     6
100
AcDbDimStyleTable
  0
DIMSTYLE
105
27
330
A
100
AcDbSymbolTableRecord
100
AcDbDimStyleTableRecord
  2
Standard
 70
     0
340
11
  0
DIMSTYLE
105
539
102
{ACAD_REACTORS
330
53A
102
}
330
A
100
AcDbSymbolTableRecord
100
AcDbDimStyleTableRecord
  2
ME10_DIM_10
 70
     0
  3
(<>)
 41
2.5
 42
0.5
 44
1.0
 73
     0
 74
     0
 77
     1
 78
     8
140
2.5
147
0.8
172
     1
173
     1
176
     2
177
     2
178
     2
271
     0
340
52F
343
533
344
533
  0
DIMSTYLE
105
546
102
{ACAD_REACTORS
330
547
102
}
330
A
100
AcDbSymbolTableRecord
100
AcDbDimStyleTableRecord
  2
ME10_DIM_11
 70
     0
 41
2.5
 42
0.5
 44
1.0
 73
     0
 74
     0
 77
     1
 78
     8
140
2.5
147
0.8
172
     1
173
     1
176
     2
177
     2
178
     2
271
     2
340
52F
343
533
344
533
  0
DIMSTYLE
105
553
102
{ACAD_REACTORS
330
554
102
}
330
A
100
AcDbSymbolTableRecord
100
AcDbDimStyleTableRecord
  2
ME10_DIM_12
 70
     0
 41
2.5
 42
0.5
 44
1.0
 73
     0
 74
     0
 77
     1
 78
     8
140
2.5
147
0.8
172
     1
173
     1
176
     2
177
     2
178
     2
271
     2
340
52F
343
533
344
533
  0
DIMSTYLE
105
560
102
{ACAD_REACTORS
330
561
102
}
330
A
100
AcDbSymbolTableRecord
100
AcDbDimStyleTableRecord
  2
ME10_DIM_13
 70
     0
 41
2.5
 42
0.5
 44
1.0
 73
     0
 74
     0
 77
     1
 78
     8
140
2.5
147
0.8
172
     1
173
     1
176
     2
177
     2
178
     2
271
     2
340
52F
343
533
344
533
  0
DIMSTYLE
105
56D
102
{ACAD_REACTORS
330
56E
102
}
330
A
100
AcDbSymbolTableRecord
100
AcDbDimStyleTableRecord
  2
ME10_DIM_14
 70
     0
 41
3.2
 42
0.5
 44
1.5
 73
     0
 74
     0
 77
     1
 78
     8
140
3.2
147
1.0
172
     1
173
     1
176
     2
177
     2
178
     2
271
     2
340
52F
343
533
344
533
  0
ENDTAB
  0
TABLE
  2
BLOCK_RECORD
  5
1
330
0
100
AcDbSymbolTable
 70
     8
  0
BLOCK_RECORD
  5
1F
330
1
100
AcDbSymbolTableRecord
100
AcDbBlockTableRecord
  2
*Model_Space
340
22
  0
BLOCK_RECORD
  5
1B
330
1
100
AcDbSymbolTableRecord
100
AcDbBlockTableRecord
  2
*Paper_Space
340
1E
  0
BLOCK_RECORD
  5
23
330
1
100
AcDbSymbolTableRecord
100
AcDbBlockTableRecord
  2
*Paper_Space0
340
26
  0
BLOCK_RECORD
  5
527
330
1
100
AcDbSymbolTableRecord
100
AcDbBlockTableRecord
  2
*D1
340
0
  0
BLOCK_RECORD
  5
533
330
1
100
AcDbSymbolTableRecord
100
AcDbBlockTableRecord
  2
_OPEN30
340
0
  0
BLOCK_RECORD
  5
53B
330
1
100
AcDbSymbolTableRecord
100
AcDbBlockTableRecord
  2
*D3
340
0
  0
BLOCK_RECORD
  5
548
330
1
100
AcDbSymbolTableRecord
100
AcDbBlockTableRecord
  2
*D4
340
0
  0
BLOCK_RECORD
  5
555
330
1
100
AcDbSymbolTableRecord
100
AcDbBlockTableRecord
  2
*D5
340
0
  0
BLOCK_RECORD
  5
562
330
1
100
AcDbSymbolTableRecord
100
AcDbBlockTableRecord
  2
*D6
340
0
  0
BLOCK_RECORD
  5
56F
330
1
100
AcDbSymbolTableRecord
100
AcDbBlockTableRecord
  2
*D7
340
0
102
{BLKREFS
331
578
102
}
  0
ENDTAB
  0
ENDSEC
  0
SECTION
  2
BLOCKS
  0
BLOCK
  5
20
330
1F
100
AcDbEntity
  8
0
100
AcDbBlockBegin
  2
*Model_Space
 70
     0
 10
0.0
 20
0.0
 30
0.0
  3
*Model_Space
  1

  0
ENDBLK
  5
21
330
1F
100
AcDbEntity
  8
0
100
AcDbBlockEnd
  0
BLOCK
  5
1C
330
1B
100
AcDbEntity
 67
     1
  8
0
100
AcDbBlockBegin
  2
*Paper_Space
 70
     0
 10
0.0
 20
0.0
 30
0.0
  3
*Paper_Space
  1

  0
ENDBLK
  5
1D
330
1B
100
AcDbEntity
 67
     1
  8
0
100
AcDbBlockEnd
  0
BLOCK
  5
24
330
23
100
AcDbEntity
  8
0
100
AcDbBlockBegin
  2
*Paper_Space0
 70
     0
 10
0.0
 20
0.0
 30
0.0
  3
*Paper_Space0
  1

  0
ENDBLK
  5
25
330
23
100
AcDbEntity
  8
0
100
AcDbBlockEnd
  0
BLOCK
  5
531
330
527
100
AcDbEntity
  8
0
100
AcDbBlockBegin
  2
*D1
 70
     1
 10
0.0
 20
0.0
 30
0.0
  3
*D1
  1

  0
LINE
  5
528
330
527
100
AcDbEntity
  8
1
  6
Continuous
 62
     2
100
AcDbLine
 10
1170.30437180535
 20
348.8583804669723
 30
0.0
 11
1170.30437180535
 21
440.3583804669723
 31
0.0
  0
LINE
  5
529
330
527
100
AcDbEntity
  8
1
  6
Continuous
 62
     2
100
AcDbLine
 10
1127.924223948822
 20
348.8583804669723
 30
0.0
 11
1171.30437180535
 21
348.8583804669723
 31
0.0
  0
LINE
  5
52A
330
527
100
AcDbEntity
  8
1
  6
Continuous
 62
     2
100
AcDbLine
 10
1069.185173558933
 20
440.3583804669723
 30
0.0
 11
1171.30437180535
 21
440.3583804669723
 31
0.0
  0
LINE
  5
52B
330
527
100
AcDbEntity
  8
1
 62
     2
100
AcDbLine
 10
1170.30437180535
 20
440.3583804669723
 30
0.0
 11
1170.974244786428
 21
437.8583804669723
 31
0.0
  0
LINE
  5
52C
330
527
100
AcDbEntity
  8
1
 62
     2
100
AcDbLine
 10
1170.30437180535
 20
440.3583804669723
 30
0.0
 11
1169.634498824272
 21
437.8583804669723
 31
0.0
  0
LINE
  5
52D
330
527
100
AcDbEntity
  8
1
 62
     2
100
AcDbLine
 10
1170.30437180535
 20
348.8583804669723
 30
0.0
 11
1169.634498824272
 21
351.3583804669723
 31
0.0
  0
LINE
  5
52E
330
527
100
AcDbEntity
  8
1
 62
     2
100
AcDbLine
 10
1170.30437180535
 20
348.8583804669723
 30
0.0
 11
1170.974244786428
 21
351.3583804669723
 31
0.0
  0
MTEXT
  5
530
330
527
100
AcDbEntity
  8
1
 62
     2
100
AcDbMText
 10
1169.50437180535
 20
391.0946740629575
 30
0.0
 40
2.5
 41
0.0
 71
     7
 72
     1
  1
\C2;(\C2;92\C2;)
  7
CONVERTER_11
 11
0.0
 21
1.0
 31
0.0
 73
     1
 44
0.45454545454545
  0
ENDBLK
  5
532
330
527
100
AcDbEntity
  8
0
100
AcDbBlockEnd
  0
BLOCK
  5
534
330
533
100
AcDbEntity
  8
0
100
AcDbBlockBegin
  2
_OPEN30
 70
     0
 10
0.0
 20
0.0
 30
0.0
  3
_OPEN30
  1

  0
LINE
  5
536
330
533
100
AcDbEntity
  8
0
  6
ByBlock
 62
     0
370
    -2
100
AcDbLine
 10
-1.0
 20
0.267949
 30
0.0
 11
0.0
 21
0.0
 31
0.0
  0
LINE
  5
537
330
533
100
AcDbEntity
  8
0
  6
ByBlock
 62
     0
370
    -2
100
AcDbLine
 10
0.0
 20
0.0
 30
0.0
 11
-1.0
 21
-0.267949
 31
0.0
  0
LINE
  5
538
330
533
100
AcDbEntity
  8
0
  6
ByBlock
 62
     0
370
    -2
100
AcDbLine
 10
0.0
 20
0.0
 30
0.0
 11
-1.0
 21
0.0
 31
0.0
  0
ENDBLK
  5
535
330
533
100
AcDbEntity
  8
0
100
AcDbBlockEnd
  0
BLOCK
  5
544
330
53B
100
AcDbEntity
  8
0
100
AcDbBlockBegin
  2
*D3
 70
     1
 10
0.0
 20
0.0
 30
0.0
  3
*D3
  1

  0
LINE
  5
53C
330
53B
100
AcDbEntity
  8
1
  6
Continuous
 62
     2
100
AcDbLine
 10
1170.30437180535
 20
457.117615855979
 30
0.0
 11
1170.30437180535
 21
546.117615855979
 31
0.0
  0
LINE
  5
53D
330
53B
100
AcDbEntity
  8
1
  6
Continuous
 62
     2
100
AcDbLine
 10
1106.185173558933
 20
457.117615855979
 30
0.0
 11
1171.30437180535
 21
457.117615855979
 31
0.0
  0
LINE
  5
53E
330
53B
100
AcDbEntity
  8
1
  6
Continuous
 62
     2
100
AcDbLine
 10
1106.185173558933
 20
546.117615855979
 30
0.0
 11
1171.30437180535
 21
546.117615855979
 31
0.0
  0
LINE
  5
53F
330
53B
100
AcDbEntity
  8
1
 62
     2
100
AcDbLine
 10
1170.30437180535
 20
546.117615855979
 30
0.0
 11
1170.974244786428
 21
543.617615855979
 31
0.0
  0
LINE
  5
540
330
53B
100
AcDbEntity
  8
1
 62
     2
100
AcDbLine
 10
1170.30437180535
 20
546.117615855979
 30
0.0
 11
1169.634498824272
 21
543.617615855979
 31
0.0
  0
LINE
  5
541
330
53B
100
AcDbEntity
  8
1
 62
     2
100
AcDbLine
 10
1170.30437180535
 20
457.117615855979
 30
0.0
 11
1169.634498824272
 21
459.617615855979
 31
0.0
  0
LINE
  5
542
330
53B
100
AcDbEntity
  8
1
 62
     2
100
AcDbLine
 10
1170.30437180535
 20
457.117615855979
 30
0.0
 11
1170.974244786428
 21
459.617615855979
 31
0.0
  0
MTEXT
  5
543
330
53B
100
AcDbEntity
  8
1
 62
     2
100
AcDbMText
 10
1169.50437180535
 20
500.7218923741311
 30
0.0
 40
2.5
 41
0.0
 71
     7
 72
     1
  1
89
  7
CONVERTER_11
 11
0.0
 21
1.0
 31
0.0
 73
     1
 44
0.45454545454545
  0
ENDBLK
  5
545
330
53B
100
AcDbEntity
  8
0
100
AcDbBlockEnd
  0
BLOCK
  5
551
330
548
100
AcDbEntity
  8
0
100
AcDbBlockBegin
  2
*D4
 70
     1
 10
0.0
 20
0.0
 30
0.0
  3
*D4
  1

  0
LINE
  5
549
330
548
100
AcDbEntity
  8
1
  6
Continuous
 62
     2
100
AcDbLine
 10
1053.685173558933
 20
331.415394295723
 30
0.0
 11
1153.685173558933
 21
331.415394295723
 31
0.0
  0
LINE
  5
54A
330
548
100
AcDbEntity
  8
1
  6
Continuous
 62
     2
100
AcDbLine
 10
1053.685173558933
 20
359.9583804669724
 30
0.0
 11
1053.685173558933
 21
330.415394295723
 31
0.0
  0
LINE
  5
54B
330
548
100
AcDbEntity
  8
1
  6
Continuous
 62
     2
100
AcDbLine
 10
1153.685173558933
 20
359.9583804669724
 30
0.0
 11
1153.685173558933
 21
330.415394295723
 31
0.0
  0
LINE
  5
54C
330
548
100
AcDbEntity
  8
1
 62
     2
100
AcDbLine
 10
1053.685173558933
 20
331.415394295723
 30
0.0
 11
1056.185173558933
 21
332.0852672768008
 31
0.0
  0
LINE
  5
54D
330
548
100
AcDbEntity
  8
1
 62
     2
100
AcDbLine
 10
1053.685173558933
 20
331.415394295723
 30
0.0
 11
1056.185173558933
 21
330.7455213146452
 31
0.0
  0
LINE
  5
54E
330
548
100
AcDbEntity
  8
1
 62
     2
100
AcDbLine
 10
1153.685173558933
 20
331.415394295723
 30
0.0
 11
1151.185173558933
 21
330.7455213146452
 31
0.0
  0
LINE
  5
54F
330
548
100
AcDbEntity
  8
1
 62
     2
100
AcDbLine
 10
1153.685173558933
 20
331.415394295723
 30
0.0
 11
1151.185173558933
 21
332.0852672768008
 31
0.0
  0
MTEXT
  5
550
330
548
100
AcDbEntity
  8
1
 62
     2
100
AcDbMText
 10
1100.725237068394
 20
332.215394295723
 30
0.0
 40
2.5
 41
0.0
 71
     7
 72
     1
  1
100
  7
CONVERTER_11
 11
0.9999999999970619
 21
2.424068405545306E-6
 31
0.0
 73
     1
 44
0.45454545454545
  0
ENDBLK
  5
552
330
548
100
AcDbEntity
  8
0
100
AcDbBlockEnd
  0
BLOCK
  5
55E
330
555
100
AcDbEntity
  8
0
100
AcDbBlockBegin
  2
*D5
 70
     1
 10
0.0
 20
0.0
 30
0.0
  3
*D5
  1

  0
LINE
  5
556
330
555
100
AcDbEntity
  8
1
  6
Continuous
 62
     2
100
AcDbLine
 10
1163.110286356428
 20
348.8583804669723
 30
0.0
 11
1163.110286356428
 21
371.8583804669723
 31
0.0
  0
LINE
  5
557
330
555
100
AcDbEntity
  8
1
  6
Continuous
 62
     2
100
AcDbLine
 10
1127.924223948821
 20
348.8583804669723
 30
0.0
 11
1164.110286356428
 21
348.8583804669723
 31
0.0
  0
LINE
  5
558
330
555
100
AcDbEntity
  8
1
  6
Continuous
 62
     2
100
AcDbLine
 10
1157.83634742825
 20
371.8583804669723
 30
0.0
 11
1164.110286356428
 21
371.8583804669723
 31
0.0
  0
LINE
  5
559
330
555
100
AcDbEntity
  8
1
 62
     2
100
AcDbLine
 10
1163.110286356428
 20
348.8583804669723
 30
0.0
 11
1162.44041337535
 21
351.3583804669723
 31
0.0
  0
LINE
  5
55A
330
555
100
AcDbEntity
  8
1
 62
     2
100
AcDbLine
 10
1163.110286356428
 20
348.8583804669723
 30
0.0
 11
1163.780159337506
 21
351.3583804669723
 31
0.0
  0
LINE
  5
55B
330
555
100
AcDbEntity
  8
1
 62
     2
100
AcDbLine
 10
1163.110286356428
 20
371.8583804669723
 30
0.0
 11
1163.780159337506
 21
369.3583804669723
 31
0.0
  0
LINE
  5
55C
330
555
100
AcDbEntity
  8
1
 62
     2
100
AcDbLine
 10
1163.110286356428
 20
371.8583804669723
 30
0.0
 11
1162.44041337535
 21
369.3583804669723
 31
0.0
  0
MTEXT
  5
55D
330
555
100
AcDbEntity
  8
1
 62
     2
100
AcDbMText
 10
1162.310286356428
 20
358.1484439764334
 30
0.0
 40
2.5
 41
0.0
 71
     7
 72
     1
  1
23
  7
CONVERTER_11
 11
0.0
 21
1.0
 31
0.0
 73
     1
 44
0.45454545454545
  0
ENDBLK
  5
55F
330
555
100
AcDbEntity
  8
0
100
AcDbBlockEnd
  0
BLOCK
  5
56B
330
562
100
AcDbEntity
  8
0
100
AcDbBlockBegin
  2
*D6
 70
     1
 10
0.0
 20
0.0
 30
0.0
  3
*D6
  1

  0
LINE
  5
563
330
562
100
AcDbEntity
  8
1
  6
Continuous
 62
     2
100
AcDbLine
 10
1053.685173558933
 20
348.8583804669723
 30
0.0
 11
1064.685173558933
 21
348.8583804669723
 31
0.0
  0
LINE
  5
564
330
562
100
AcDbEntity
  8
1
  6
Continuous
 62
     2
100
AcDbLine
 10
1053.685173558933
 20
359.9583804669724
 30
0.0
 11
1053.685173558933
 21
347.3583804669723
 31
0.0
  0
LINE
  5
565
330
562
100
AcDbEntity
  8
1
  6
Continuous
 62
     2
100
AcDbLine
 10
1064.685173558933
 20
358.4583804669724
 30
0.0
 11
1064.685173558933
 21
347.3583804669723
 31
0.0
  0
LINE
  5
566
330
562
100
AcDbEntity
  8
1
 62
     2
100
AcDbLine
 10
1053.685173558933
 20
348.8583804669723
 30
0.0
 11
1056.885173558933
 21
349.7158178827519
 31
0.0
  0
LINE
  5
567
330
562
100
AcDbEntity
  8
1
 62
     2
100
AcDbLine
 10
1053.685173558933
 20
348.8583804669723
 30
0.0
 11
1056.885173558933
 21
348.0009430511927
 31
0.0
  0
LINE
  5
568
330
562
100
AcDbEntity
  8
1
 62
     2
100
AcDbLine
 10
1064.685173558933
 20
348.8583804669723
 30
0.0
 11
1061.485173558933
 21
348.0009430511927
 31
0.0
  0
LINE
  5
569
330
562
100
AcDbEntity
  8
1
 62
     2
100
AcDbLine
 10
1064.685173558933
 20
348.8583804669723
 30
0.0
 11
1061.485173558933
 21
349.7158178827519
 31
0.0
  0
MTEXT
  5
56A
330
562
100
AcDbEntity
  8
1
 62
     2
100
AcDbMText
 10
1057.316454851043
 20
349.8583804669723
 30
0.0
 40
3.2
 41
0.0
 71
     7
 72
     1
  1
11
  7
CONVERTER_11
 11
0.9999999999970619
 21
2.424068405545306E-6
 31
0.0
 73
     1
 44
0.45454545454545
  0
ENDBLK
  5
56C
330
562
100
AcDbEntity
  8
0
100
AcDbBlockEnd
  0
BLOCK
  5
576
330
56F
100
AcDbEntity
  8
0
100
AcDbBlockBegin
  2
*D7
 70
     1
 10
0.0
 20
0.0
 30
0.0
  3
*D7
  1

  0
LINE
  5
570
330
56F
100
AcDbEntity
  8
1
  6
Continuous
 62
     2
100
AcDbLine
 10
1059.932616223909
 20
384.7680479401466
 30
0.0
 11
1056.830593160057
 21
396.494600964318
 31
0.0
  0
LINE
  5
571
330
56F
100
AcDbEntity
  8
1
  6
Continuous
 62
     2
100
AcDbLine
 10
1056.830593160057
 20
396.494600964318
 30
0.0
 11
1020.190593160057
 21
396.494600964318
 31
0.0
  0
LINE
  5
572
330
56F
100
AcDbEntity
  8
1
 62
     2
100
AcDbLine
 10
1059.932616223909
 20
384.7680479401466
 30
0.0
 11
1058.388298227836
 21
387.4627191361415
 31
0.0
  0
LINE
  5
573
330
56F
100
AcDbEntity
  8
1
 62
     2
100
AcDbLine
 10
1059.932616223909
 20
384.7680479401466
 30
0.0
 11
1059.942533205785
 21
387.8738606487611
 31
0.0
  0
MTEXT
  5
575
330
56F
100
AcDbEntity
  8
1
 62
     2
100
AcDbMText
 10
1020.190593160057
 20
397.294600964318
 30
0.0
 40
3.0
 41
0.0
 71
     7
 72
     1
  1
                 
  7
CONVERTER_12
 11
0.9999999999970619
 21
2.424068405545306E-6
 31
0.0
 73
     1
 44
0.45454545454545
  0
ENDBLK
  5
577
330
56F
100
AcDbEntity
  8
0
100
AcDbBlockEnd
  0
ENDSEC
  0
SECTION
  2
ENTITIES
  0
LINE
  5
43
330
1F
100
AcDbEntity
  8
1
  6
Continuous
 62
     2
100
AcDbLine
 10
1139.6875
 20
274.4833804669723
 30
0.0
 11
1144.9375
 21
274.4833804669723
 31
0.0
  0
LINE
  5
44
330
1F
100
AcDbEntity
  8
1
  6
Continuous
 62
     2
100
AcDbLine
 10
1142.4375
 20
283.6083804669723
 30
0.0
 11
1142.4375
 21
274.4833804669723
 31
0.0
  0
LINE
  5
45
330
1F
100
AcDbEntity
  8
1
  6
Continuous
 62
     2
100
AcDbLine
 10
1140.5625
 20
279.8583804669723
 30
0.0
 11
1144.4375
 21
279.8583804669723
 31
0.0
  0
LINE
  5
46
330
1F
100
AcDbEntity
  8
1
  6
Continuous
 62
     2
100
AcDbLine
 10
1138.8125
 20
279.4833804669723
 30
0.0
 11
1140.1875
 21
277.9833804669723
 31
0.0
  0
LINE
  5
47
330
1F
100
AcDbEntity
  8
1
  6
Continuous
 62
     2
100
AcDbLine
 10
1138.3125
 20
281.7333804669723
 30
0.0
 11
1138.3125
 21
283.6083804669723
 31
0.0
  0
LINE
  5
48
330
1F
100
AcDbEntity
  8
1
  6
Continuous
 62
     2
100
AcDbLine
 10
1139.6875
 20
281.7333804669723
 30
0.0
 11
1136.5625
 21
281.7333804669723
 31
0.0
  0
LINE
  5
49
330
1F
100
AcDbEntity
  8
1
  6
Continuous
 62
     2
100
AcDbLine
 10
1138.5625
 20
280.1083804669723
 30
0.0
 11
1139.6875
 21
281.7333804669723
 31
0.0
  0
LINE
  5
4A
330
1F
100
AcDbEntity
  8
1
  6
Continuous
 62
     2
100
AcDbLine
 10
1137.1875
 20
278.6083804669723
 30
0.0
 11
1138.5625
 21
280.1083804669723
 31
0.0
  0
LINE
  5
4B
330
1F
100
AcDbEntity
  8
1
  6
Continuous
 62
     2
100
AcDbLine
 10
1136.0625
 20
277.6083804669723
 30
0.0
 11
1137.1875
 21
278.6083804669723
 31
0.0
  0
LINE
  5
4C
330
1F
100
AcDbEntity
  8
1
  6
Continuous
 62
     2
100
AcDbLine
 10
1138.3125
 20
274.2333804669723
 30
0.0
 11
1138.3125
 21
279.8583804669723
 31
0.0
  0
LINE
  5
4D
330
1F
100
AcDbEntity
  8
1
  6
Continuous
 62
     2
100
AcDbLine
 10
1130.5625
 20
277.6083804669723
 30
0.0
 11
1127.6875
 21
274.2333804669723
 31
0.0
  0
LINE
  5
4E
330
1F
100
AcDbEntity
  8
1
  6
Continuous
 62
     2
100
AcDbLine
 10
1133.0625
 20
274.8583804669723
 30
0.0
 11
1131.9375
 21
276.1083804669723
 31
0.0
  0
LINE
  5
4F
330
1F
100
AcDbEntity
  8
1
  6
Continuous
 62
     2
100
AcDbLine
 10
1133.8125
 20
273.8583804669723
 30
0.0
 11
1133.0625
 21
274.8583804669723
 31
0.0
  0
LINE
  5
50
330
1F
100
AcDbEntity
  8
1
  6
Continuous
 62
     2
100
AcDbLine
 10
1126.9375
 20
274.2333804669723
 30
0.0
 11
1133.0625
 21
274.8583804669723
 31
0.0
  0
LINE
  5
51
330
1F
100
AcDbEntity
  8
1
  6
Continuous
 62
     2
100
AcDbLine
 10
1127.4375
 20
277.9833804669723
 30
0.0
 11
1133.8125
 21
277.9833804669723
 31
0.0
  0
LINE
  5
52
330
1F
100
AcDbEntity
  8
1
  6
Continuous
 62
     2
100
AcDbLine
 10
1128.5625
 20
279.4833804669723
 30
0.0
 11
1132.4375
 21
279.4833804669723
 31
0.0
  0
LINE
  5
53
330
1F
100
AcDbEntity
  8
1
  6
Continuous
 62
     2
100
AcDbLine
 10
1130.5625
 20
283.6083804669723
 30
0.0
 11
1134.9375
 21
278.8583804669723
 31
0.0
  0
LINE
  5
54
330
1F
100
AcDbEntity
  8
1
  6
Continuous
 62
     2
100
AcDbLine
 10
1130.5625
 20
283.6083804669723
 30
0.0
 11
1126.0625
 21
278.8583804669723
 31
0.0
  0
LINE
  5
55
330
1F
100
AcDbEntity
  8
1
  6
Continuous
 62
     2
100
AcDbLine
 10
1124.0625
 20
274.2333804669723
 30
0.0
 11
1124.9375
 21
275.1083804669723
 31
0.0
  0
LINE
  5
56
330
1F
100
AcDbEntity
  8
1
  6
Continuous
 62
     2
100
AcDbLine
 10
1123.0625
 20
275.4833804669723
 30
0.0
 11
1124.0625
 21
274.2333804669723
 31
0.0
  0
LINE
  5
57
330
1F
100
AcDbEntity
  8
1
  6
Continuous
 62
     2
100
AcDbLine
 10
1121.9375
 20
277.6083804669723
 30
0.0
 11
1123.0625
 21
275.4833804669723
 31
0.0
  0
LINE
  5
58
330
1F
100
AcDbEntity
  8
1
  6
Continuous
 62
     2
100
AcDbLine
 10
1121.3125
 20
280.1083804669723
 30
0.0
 11
1121.9375
 21
277.6083804669723
 31
0.0
  0
LINE
  5
59
330
1F
100
AcDbEntity
  8
1
  6
Continuous
 62
     2
100
AcDbLine
 10
1121.0625
 20
283.8583804669723
 30
0.0
 11
1121.3125
 21
280.1083804669723
 31
0.0
  0
LINE
  5
5A
330
1F
100
AcDbEntity
  8
1
  6
Continuous
 62
     2
100
AcDbLine
 10
1122.6875
 20
282.6083804669723
 30
0.0
 11
1121.9375
 21
283.6083804669723
 31
0.0
  0
LINE
  5
5B
330
1F
100
AcDbEntity
  8
1
  6
Continuous
 62
     2
100
AcDbLine
 10
1116.0625
 20
281.7333804669723
 30
0.0
 11
1124.0625
 21
281.7333804669723
 31
0.0
  0
LINE
  5
5C
330
1F
100
AcDbEntity
  8
1
  6
Continuous
 62
     2
100
AcDbLine
 10
1118.5625
 20
279.2333804669723
 30
0.0
 11
1118.5625
 21
275.7333804669723
 31
0.0
  0
LINE
  5
5D
330
1F
100
AcDbEntity
  8
1
  6
Continuous
 62
     2
100
AcDbLine
 10
1120.5625
 20
279.2333804669723
 30
0.0
 11
1116.5625
 21
279.2333804669723
 31
0.0
  0
LINE
  5
5E
330
1F
100
AcDbEntity
  8
1
  6
Continuous
 62
     2
100
AcDbLine
 10
1116.5625
 20
275.1083804669723
 30
0.0
 11
1120.5625
 21
276.3583804669723
 31
0.0
  0
LINE
  5
5F
330
1F
100
AcDbEntity
  8
1
  6
Continuous
 62
     2
100
AcDbLine
 10
1113.5625
 20
276.3583804669723
 30
0.0
 11
1114.6875
 21
274.2333804669723
 31
0.0
  0
LINE
  5
60
330
1F
100
AcDbEntity
  8
1
  6
Continuous
 62
     2
100
AcDbLine
 10
1112.1875
 20
279.2333804669723
 30
0.0
 11
1113.5625
 21
276.3583804669723
 31
0.0
  0
LINE
  5
61
330
1F
100
AcDbEntity
  8
1
  6
Continuous
 62
     2
100
AcDbLine
 10
1111.3125
 20
276.9833804669723
 30
0.0
 11
1112.1875
 21
279.2333804669723
 31
0.0
  0
LINE
  5
62
330
1F
100
AcDbEntity
  8
1
  6
Continuous
 62
     2
100
AcDbLine
 10
1110.1875
 20
275.4833804669723
 30
0.0
 11
1111.3125
 21
276.9833804669723
 31
0.0
  0
LINE
  5
63
330
1F
100
AcDbEntity
  8
1
  6
Continuous
 62
     2
100
AcDbLine
 10
1109.4375
 20
274.2333804669723
 30
0.0
 11
1110.1875
 21
275.4833804669723
 31
0.0
  0
LINE
  5
64
330
1F
100
AcDbEntity
  8
1
  6
Continuous
 62
     2
100
AcDbLine
 10
1112.1875
 20
283.8583804669723
 30
0.0
 11
1112.1875
 21
273.8583804669723
 31
0.0
  0
LINE
  5
65
330
1F
100
AcDbEntity
  8
1
  6
Continuous
 62
     2
100
AcDbLine
 10
1114.6875
 20
279.2333804669723
 30
0.0
 11
1109.9375
 21
279.2333804669723
 31
0.0
  0
LINE
  5
66
330
1F
100
AcDbEntity
  8
1
  6
Continuous
 62
     2
100
AcDbLine
 10
1110.8125
 20
281.3583804669723
 30
0.0
 11
1114.4375
 21
281.3583804669723
 31
0.0
  0
LINE
  5
67
330
1F
100
AcDbEntity
  8
1
  6
Continuous
 62
     2
100
AcDbLine
 10
1110.8125
 20
281.3583804669723
 30
0.0
 11
1111.0625
 21
282.9833804669723
 31
0.0
  0
LINE
  5
68
330
1F
100
AcDbEntity
  8
1
  6
Continuous
 62
     2
100
AcDbLine
 10
1109.9375
 20
279.8583804669723
 30
0.0
 11
1110.8125
 21
281.3583804669723
 31
0.0
  0
LINE
  5
69
330
1F
100
AcDbEntity
  8
1
  6
Continuous
 62
     2
100
AcDbLine
 10
1108.0625
 20
281.1083804669723
 30
0.0
 11
1109.4375
 21
278.6083804669723
 31
0.0
  0
LINE
  5
6A
330
1F
100
AcDbEntity
  8
1
  6
Continuous
 62
     2
100
AcDbLine
 10
1106.3125
 20
276.7333804669723
 30
0.0
 11
1108.0625
 21
281.1083804669723
 31
0.0
  0
LINE
  5
6B
330
1F
100
AcDbEntity
  8
1
  6
Continuous
 62
     2
100
AcDbLine
 10
1109.4375
 20
281.1083804669723
 30
0.0
 11
1106.5625
 21
281.1083804669723
 31
0.0
  0
LINE
  5
6C
330
1F
100
AcDbEntity
  8
1
  6
Continuous
 62
     2
100
AcDbLine
 10
1108.0625
 20
274.2333804669723
 30
0.0
 11
1108.0625
 21
283.8583804669723
 31
0.0
  0
LINE
  5
6D
330
1F
100
AcDbEntity
  8
1
  6
Continuous
 62
     2
100
AcDbLine
 10
1101.3125
 20
281.7333804669723
 30
0.0
 11
1104.0625
 21
281.7333804669723
 31
0.0
  0
LINE
  5
6E
330
1F
100
AcDbEntity
  8
1
  6
Continuous
 62
     2
100
AcDbLine
 10
1101.3125
 20
280.1083804669723
 30
0.0
 11
1104.0625
 21
280.1083804669723
 31
0.0
  0
LINE
  5
6F
330
1F
100
AcDbEntity
  8
1
  6
Continuous
 62
     2
100
AcDbLine
 10
1101.3125
 20
283.2333804669723
 30
0.0
 11
1101.3125
 21
280.1083804669723
 31
0.0
  0
LINE
  5
70
330
1F
100
AcDbEntity
  8
1
  6
Continuous
 62
     2
100
AcDbLine
 10
1104.0625
 20
283.2333804669723
 30
0.0
 11
1101.3125
 21
283.2333804669723
 31
0.0
  0
LINE
  5
71
330
1F
100
AcDbEntity
  8
1
  6
Continuous
 62
     2
100
AcDbLine
 10
1104.0625
 20
274.4833804669723
 30
0.0
 11
1104.0625
 21
283.2333804669723
 31
0.0
  0
LINE
  5
72
330
1F
100
AcDbEntity
  8
1
  6
Continuous
 62
     2
100
AcDbLine
 10
1103.8125
 20
274.2333804669723
 30
0.0
 11
1104.0625
 21
274.4833804669723
 31
0.0
  0
LINE
  5
73
330
1F
100
AcDbEntity
  8
1
  6
Continuous
 62
     2
100
AcDbLine
 10
1103.0625
 20
274.2333804669723
 30
0.0
 11
1103.8125
 21
274.2333804669723
 31
0.0
  0
LINE
  5
74
330
1F
100
AcDbEntity
  8
1
  6
Continuous
 62
     2
100
AcDbLine
 10
1099.6875
 20
281.7333804669723
 30
0.0
 11
1096.9375
 21
281.7333804669723
 31
0.0
  0
LINE
  5
75
330
1F
100
AcDbEntity
  8
1
  6
Continuous
 62
     2
100
AcDbLine
 10
1099.6875
 20
280.1083804669723
 30
0.0
 11
1096.9375
 21
280.1083804669723
 31
0.0
  0
LINE
  5
76
330
1F
100
AcDbEntity
  8
1
  6
Continuous
 62
     2
100
AcDbLine
 10
1099.6875
 20
283.2333804669723
 30
0.0
 11
1099.6875
 21
280.1083804669723
 31
0.0
  0
LINE
  5
77
330
1F
100
AcDbEntity
  8
1
  6
Continuous
 62
     2
100
AcDbLine
 10
1096.9375
 20
283.2333804669723
 30
0.0
 11
1099.6875
 21
283.2333804669723
 31
0.0
  0
LINE
  5
78
330
1F
100
AcDbEntity
  8
1
  6
Continuous
 62
     2
100
AcDbLine
 10
1096.9375
 20
274.2333804669723
 30
0.0
 11
1096.9375
 21
283.2333804669723
 31
0.0
  0
LINE
  5
79
330
1F
100
AcDbEntity
  8
1
  6
Continuous
 62
     2
100
AcDbLine
 10
1093.8125
 20
279.8583804669723
 30
0.0
 11
1094.9375
 21
278.8583804669723
 31
0.0
  0
LINE
  5
7A
330
1F
100
AcDbEntity
  8
1
  6
Continuous
 62
     2
100
AcDbLine
 10
1091.9375
 20
281.9833804669723
 30
0.0
 11
1093.8125
 21
279.8583804669723
 31
0.0
  0
LINE
  5
7B
330
1F
100
AcDbEntity
  8
1
  6
Continuous
 62
     2
100
AcDbLine
 10
1090.5625
 20
283.8583804669723
 30
0.0
 11
1091.9375
 21
281.9833804669723
 31
0.0
  0
LINE
  5
7C
330
1F
100
AcDbEntity
  8
1
  6
Continuous
 62
     2
100
AcDbLine
 10
1089.0625
 20
281.9833804669723
 30
0.0
 11
1090.5625
 21
283.8583804669723
 31
0.0
  0
LINE
  5
7D
330
1F
100
AcDbEntity
  8
1
  6
Continuous
 62
     2
100
AcDbLine
 10
1087.1875
 20
279.8583804669723
 30
0.0
 11
1089.0625
 21
281.9833804669723
 31
0.0
  0
LINE
  5
7E
330
1F
100
AcDbEntity
  8
1
  6
Continuous
 62
     2
100
AcDbLine
 10
1086.0625
 20
278.8583804669723
 30
0.0
 11
1087.1875
 21
279.8583804669723
 31
0.0
  0
LINE
  5
7F
330
1F
100
AcDbEntity
  8
1
  6
Continuous
 62
     2
100
AcDbLine
 10
1091.9375
 20
275.4833804669723
 30
0.0
 11
1092.4375
 21
276.9833804669723
 31
0.0
  0
LINE
  5
80
330
1F
100
AcDbEntity
  8
1
  6
Continuous
 62
     2
100
AcDbLine
 10
1088.5625
 20
276.9833804669723
 30
0.0
 11
1089.0625
 21
275.4833804669723
 31
0.0
  0
LINE
  5
81
330
1F
100
AcDbEntity
  8
1
  6
Continuous
 62
     2
100
AcDbLine
 10
1093.3125
 20
278.2333804669723
 30
0.0
 11
1087.6875
 21
278.2333804669723
 31
0.0
  0
LINE
  5
82
330
1F
100
AcDbEntity
  8
1
  6
Continuous
 62
     2
100
AcDbLine
 10
1088.5625
 20
280.1083804669723
 30
0.0
 11
1092.4375
 21
280.1083804669723
 31
0.0
  0
LINE
  5
83
330
1F
100
AcDbEntity
  8
1
  6
Continuous
 62
     2
100
AcDbLine
 10
1090.5625
 20
274.2333804669723
 30
0.0
 11
1090.5625
 21
280.1083804669723
 31
0.0
  0
LINE
  5
84
330
1F
100
AcDbEntity
  8
1
  6
Continuous
 62
     2
100
AcDbLine
 10
1086.9375
 20
274.2333804669723
 30
0.0
 11
1093.8125
 21
274.2333804669723
 31
0.0
  0
LINE
  5
85
330
1F
100
AcDbEntity
  8
1
  6
Continuous
 62
     2
100
AcDbLine
 10
1083.0625
 20
276.9833804669723
 30
0.0
 11
1084.4375
 21
278.8583804669723
 31
0.0
  0
LINE
  5
86
330
1F
100
AcDbEntity
  8
1
  6
Continuous
 62
     2
100
AcDbLine
 10
1080.8125
 20
275.7333804669723
 30
0.0
 11
1083.0625
 21
276.9833804669723
 31
0.0
  0
LINE
  5
87
330
1F
100
AcDbEntity
  8
1
  6
Continuous
 62
     2
100
AcDbLine
 10
1080.8125
 20
281.3583804669723
 30
0.0
 11
1080.8125
 21
275.7333804669723
 31
0.0
  0
LINE
  5
88
330
1F
100
AcDbEntity
  8
1
  6
Continuous
 62
     2
100
AcDbLine
 10
1078.5625
 20
278.8583804669723
 30
0.0
 11
1078.8125
 21
281.3583804669723
 31
0.0
  0
LINE
  5
89
330
1F
100
AcDbEntity
  8
1
  6
Continuous
 62
     2
100
AcDbLine
 10
1078.0625
 20
276.9833804669723
 30
0.0
 11
1078.5625
 21
278.8583804669723
 31
0.0
  0
LINE
  5
8A
330
1F
100
AcDbEntity
  8
1
  6
Continuous
 62
     2
100
AcDbLine
 10
1077.1875
 20
275.4833804669723
 30
0.0
 11
1078.0625
 21
276.9833804669723
 31
0.0
  0
LINE
  5
8B
330
1F
100
AcDbEntity
  8
1
  6
Continuous
 62
     2
100
AcDbLine
 10
1070.8125
 20
274.8583804669723
 30
0.0
 11
1072.4375
 21
275.1083804669723
 31
0.0
  0
LINE
  5
8C
330
1F
100
AcDbEntity
  8
1
  6
Continuous
 62
     2
100
AcDbLine
 10
1068.0625
 20
275.1083804669723
 30
0.0
 11
1070.8125
 21
274.8583804669723
 31
0.0
  0
LINE
  5
8D
330
1F
100
AcDbEntity
  8
1
  6
Continuous
 62
     2
100
AcDbLine
 10
1067.6875
 20
276.1083804669723
 30
0.0
 11
1068.0625
 21
275.1083804669723
 31
0.0
  0
LINE
  5
8E
330
1F
100
AcDbEntity
  8
1
  6
Continuous
 62
     2
100
AcDbLine
 10
1067.6875
 20
281.3583804669723
 30
0.0
 11
1067.6875
 21
276.1083804669723
 31
0.0
  0
LINE
  5
8F
330
1F
100
AcDbEntity
  8
1
  6
Continuous
 62
     2
100
AcDbLine
 10
1073.0625
 20
281.9833804669723
 30
0.0
 11
1073.8125
 21
281.1083804669723
 31
0.0
  0
LINE
  5
90
330
1F
100
AcDbEntity
  8
1
  6
Continuous
 62
     2
100
AcDbLine
 10
1073.3125
 20
280.4833804669723
 30
0.0
 11
1072.4375
 21
281.3583804669723
 31
0.0
  0
LINE
  5
91
330
1F
100
AcDbEntity
  8
1
  6
Continuous
 62
     2
100
AcDbLine
 10
1070.1875
 20
278.8583804669723
 30
0.0
 11
1071.9375
 21
279.8583804669723
 31
0.0
  0
LINE
  5
92
330
1F
100
AcDbEntity
  8
1
  6
Continuous
 62
     2
100
AcDbLine
 10
1067.6875
 20
277.9833804669723
 30
0.0
 11
1070.1875
 21
278.8583804669723
 31
0.0
  0
LINE
  5
93
330
1F
100
AcDbEntity
  8
1
  6
Continuous
 62
     2
100
AcDbLine
 10
1061.5625
 20
276.9833804669723
 30
0.0
 11
1063.3125
 21
275.1083804669723
 31
0.0
  0
LINE
  5
94
330
1F
100
AcDbEntity
  8
1
  6
Continuous
 62
     2
100
AcDbLine
 10
1060.1875
 20
278.2333804669723
 30
0.0
 11
1061.5625
 21
276.9833804669723
 31
0.0
  0
LINE
  5
95
330
1F
100
AcDbEntity
  8
1
  6
Continuous
 62
     2
100
AcDbLine
 10
1063.5625
 20
282.6083804669723
 30
0.0
 11
1064.4375
 21
281.7333804669723
 31
0.0
  0
LINE
  5
96
330
1F
100
AcDbEntity
  8
1
  6
Continuous
 62
     2
100
AcDbLine
 10
1063.0625
 20
281.9833804669723
 30
0.0
 11
1063.8125
 21
281.1083804669723
 31
0.0
  0
LINE
  5
97
330
1F
100
AcDbEntity
  8
1
  6
Continuous
 62
     2
100
AcDbLine
 10
1061.9375
 20
281.3583804669723
 30
0.0
 11
1058.3125
 21
281.3583804669723
 31
0.0
  0
LINE
  5
98
330
1F
100
AcDbEntity
  8
1
  6
Continuous
 62
     2
100
AcDbLine
 10
1061.0625
 20
279.4833804669723
 30
0.0
 11
1061.9375
 21
281.3583804669723
 31
0.0
  0
LINE
  5
99
330
1F
100
AcDbEntity
  8
1
  6
Continuous
 62
     2
100
AcDbLine
 10
1059.0625
 20
276.7333804669723
 30
0.0
 11
1061.0625
 21
279.4833804669723
 31
0.0
  0
LINE
  5
9A
330
1F
100
AcDbEntity
  8
1
  6
Continuous
 62
     2
100
AcDbLine
 10
1057.1875
 20
275.1083804669723
 30
0.0
 11
1059.0625
 21
276.7333804669723
 31
0.0
  0
LINE
  5
9B
330
1F
100
AcDbEntity
  8
1
  6
Continuous
 62
     2
100
AcDbLine
 10
1053.8125
 20
281.1083804669723
 30
0.0
 11
1051.3125
 21
278.2333804669723
 31
0.0
  0
LINE
  5
9C
330
1F
100
AcDbEntity
  8
1
  6
Continuous
 62
     2
100
AcDbLine
 10
1047.4375
 20
281.1083804669723
 30
0.0
 11
1053.8125
 21
281.1083804669723
 31
0.0
  0
LINE
  5
9D
330
1F
100
AcDbEntity
  8
1
  6
Continuous
 62
     2
100
AcDbLine
 10
1050.5625
 20
278.2333804669723
 30
0.0
 11
1050.8125
 21
279.8583804669723
 31
0.0
  0
LINE
  5
9E
330
1F
100
AcDbEntity
  8
1
  6
Continuous
 62
     2
100
AcDbLine
 10
1049.9375
 20
276.3583804669723
 30
0.0
 11
1050.5625
 21
278.2333804669723
 31
0.0
  0
LINE
  5
9F
330
1F
100
AcDbEntity
  8
1
  6
Continuous
 62
     2
100
AcDbLine
 10
1048.8125
 20
274.4833804669723
 30
0.0
 11
1049.9375
 21
276.3583804669723
 31
0.0
  0
LINE
  5
A0
330
1F
100
AcDbEntity
  8
1
  6
Continuous
 62
     2
100
AcDbLine
 10
1030.675
 20
299.436164173548
 30
0.0
 11
1030.675
 21
308.436164173548
 31
0.0
  0
LINE
  5
A1
330
1F
100
AcDbEntity
  8
1
  6
Continuous
 62
     2
100
AcDbLine
 10
1030.675
 20
308.436164173548
 30
0.0
 11
1036.975
 21
299.436164173548
 31
0.0
  0
LINE
  5
A2
330
1F
100
AcDbEntity
  8
1
  6
Continuous
 62
     2
100
AcDbLine
 10
1036.975
 20
299.436164173548
 30
0.0
 11
1036.975
 21
308.436164173548
 31
0.0
  0
LINE
  5
A3
330
1F
100
AcDbEntity
  8
1
  6
Continuous
 62
     2
100
AcDbLine
 10
1045.975
 20
308.436164173548
 30
0.0
 11
1039.675
 21
302.136164173548
 31
0.0
  0
LINE
  5
A4
330
1F
100
AcDbEntity
  8
1
  6
Continuous
 62
     2
100
AcDbLine
 10
1041.475
 20
303.936164173548
 30
0.0
 11
1045.975
 21
299.436164173548
 31
0.0
  0
LINE
  5
A5
330
1F
100
AcDbEntity
  8
1
  6
Continuous
 62
     2
100
AcDbLine
 10
1039.675
 20
299.436164173548
 30
0.0
 11
1039.675
 21
308.436164173548
 31
0.0
  0
LINE
  5
A6
330
1F
100
AcDbEntity
  8
1
  6
Continuous
 62
     2
100
AcDbLine
 10
1054.975
 20
305.736164173548
 30
0.0
 11
1054.975
 21
302.136164173548
 31
0.0
  0
LINE
  5
A7
330
1F
100
AcDbEntity
  8
1
  6
Continuous
 62
     2
100
AcDbLine
 10
1054.975
 20
302.136164173548
 30
0.0
 11
1054.75
 21
301.236164173548
 31
0.0
  0
LINE
  5
A8
330
1F
100
AcDbEntity
  8
1
  6
Continuous
 62
     2
100
AcDbLine
 10
1054.75
 20
301.236164173548
 30
0.0
 11
1054.3
 21
300.561164173548
 31
0.0
  0
LINE
  5
A9
330
1F
100
AcDbEntity
  8
1
  6
Continuous
 62
     2
100
AcDbLine
 10
1054.3
 20
300.561164173548
 30
0.0
 11
1053.85
 21
300.111164173548
 31
0.0
  0
LINE
  5
AA
330
1F
100
AcDbEntity
  8
1
  6
Continuous
 62
     2
100
AcDbLine
 10
1053.85
 20
300.111164173548
 30
0.0
 11
1053.175
 21
299.661164173548
 31
0.0
  0
LINE
  5
AB
330
1F
100
AcDbEntity
  8
1
  6
Continuous
 62
     2
100
AcDbLine
 10
1053.175
 20
299.661164173548
 30
0.0
 11
1052.275
 21
299.436164173548
 31
0.0
  0
LINE
  5
AC
330
1F
100
AcDbEntity
  8
1
  6
Continuous
 62
     2
100
AcDbLine
 10
1052.275
 20
299.436164173548
 30
0.0
 11
1048.675
 21
299.436164173548
 31
0.0
  0
LINE
  5
AD
330
1F
100
AcDbEntity
  8
1
  6
Continuous
 62
     2
100
AcDbLine
 10
1048.675
 20
299.436164173548
 30
0.0
 11
1048.675
 21
308.436164173548
 31
0.0
  0
LINE
  5
AE
330
1F
100
AcDbEntity
  8
1
  6
Continuous
 62
     2
100
AcDbLine
 10
1048.675
 20
308.436164173548
 30
0.0
 11
1052.275
 21
308.436164173548
 31
0.0
  0
LINE
  5
AF
330
1F
100
AcDbEntity
  8
1
  6
Continuous
 62
     2
100
AcDbLine
 10
1052.275
 20
308.436164173548
 30
0.0
 11
1053.175
 21
308.211164173548
 31
0.0
  0
LINE
  5
B0
330
1F
100
AcDbEntity
  8
1
  6
Continuous
 62
     2
100
AcDbLine
 10
1053.175
 20
308.211164173548
 30
0.0
 11
1053.85
 21
307.761164173548
 31
0.0
  0
LINE
  5
B1
330
1F
100
AcDbEntity
  8
1
  6
Continuous
 62
     2
100
AcDbLine
 10
1053.85
 20
307.761164173548
 30
0.0
 11
1054.3
 21
307.311164173548
 31
0.0
  0
LINE
  5
B2
330
1F
100
AcDbEntity
  8
1
  6
Continuous
 62
     2
100
AcDbLine
 10
1054.3
 20
307.311164173548
 30
0.0
 11
1054.75
 21
306.636164173548
 31
0.0
  0
LINE
  5
B3
330
1F
100
AcDbEntity
  8
1
  6
Continuous
 62
     2
100
AcDbLine
 10
1054.75
 20
306.636164173548
 30
0.0
 11
1054.975
 21
305.736164173548
 31
0.0
  0
LINE
  5
B4
330
1F
100
AcDbEntity
  8
1
  6
Continuous
 62
     2
100
AcDbLine
 10
1058.8
 20
302.136164173548
 30
0.0
 11
1063.75
 21
302.136164173548
 31
0.0
  0
LINE
  5
B5
330
1F
100
AcDbEntity
  8
1
  6
Continuous
 62
     2
100
AcDbLine
 10
1057.675
 20
299.436164173548
 30
0.0
 11
1061.275
 21
308.436164173548
 31
0.0
  0
LINE
  5
B6
330
1F
100
AcDbEntity
  8
1
  6
Continuous
 62
     2
100
AcDbLine
 10
1061.275
 20
308.436164173548
 30
0.0
 11
1064.875
 21
299.436164173548
 31
0.0
  0
LINE
  5
B7
330
1F
100
AcDbEntity
  8
1
  6
Continuous
 62
     2
100
AcDbLine
 10
1068.075
 20
299.717414173548
 30
0.0
 11
1075.325
 21
299.717414173548
 31
0.0
  0
LINE
  5
B8
330
1F
100
AcDbEntity
  8
1
  6
Continuous
 62
     2
100
AcDbLine
 10
1074.325
 20
301.686164173548
 30
0.0
 11
1068.825
 21
301.686164173548
 31
0.0
  0
LINE
  5
B9
330
1F
100
AcDbEntity
  8
1
  6
Continuous
 62
     2
100
AcDbLine
 10
1068.075
 20
302.811164173548
 30
0.0
 11
1068.825
 21
303.936164173548
 31
0.0
  0
LINE
  5
BA
330
1F
100
AcDbEntity
  8
1
  6
Continuous
 62
     2
100
AcDbLine
 10
1068.825
 20
303.936164173548
 30
0.0
 11
1069.325
 21
305.904914173548
 31
0.0
  0
LINE
  5
BB
330
1F
100
AcDbEntity
  8
1
  6
Continuous
 62
     2
100
AcDbLine
 10
1069.325
 20
305.904914173548
 30
0.0
 11
1069.325
 21
307.873664173548
 31
0.0
  0
LINE
  5
BC
330
1F
100
AcDbEntity
  8
1
  6
Continuous
 62
     2
100
AcDbLine
 10
1071.825
 20
307.873664173548
 30
0.0
 11
1068.075
 21
307.873664173548
 31
0.0
  0
LINE
  5
BD
330
1F
100
AcDbEntity
  8
1
  6
Continuous
 62
     2
100
AcDbLine
 10
1067.825
 20
305.904914173548
 30
0.0
 11
1072.075
 21
305.904914173548
 31
0.0
  0
LINE
  5
BE
330
1F
100
AcDbEntity
  8
1
  6
Continuous
 62
     2
100
AcDbLine
 10
1070.575
 20
307.873664173548
 30
0.0
 11
1070.575
 21
303.092414173548
 31
0.0
  0
LINE
  5
BF
330
1F
100
AcDbEntity
  8
1
  6
Continuous
 62
     2
100
AcDbLine
 10
1073.075
 20
304.217414173548
 30
0.0
 11
1073.075
 21
307.873664173548
 31
0.0
  0
LINE
  5
C0
330
1F
100
AcDbEntity
  8
1
  6
Continuous
 62
     2
100
AcDbLine
 10
1074.825
 20
308.154914173548
 30
0.0
 11
1074.825
 21
303.092414173548
 31
0.0
  0
LINE
  5
C1
330
1F
100
AcDbEntity
  8
1
  6
Continuous
 62
     2
100
AcDbLine
 10
1074.825
 20
303.092414173548
 30
0.0
 11
1074.075
 21
303.092414173548
 31
0.0
  0
LINE
  5
C2
330
1F
100
AcDbEntity
  8
1
  6
Continuous
 62
     2
100
AcDbLine
 10
1071.825
 20
303.092414173548
 30
0.0
 11
1071.825
 21
299.717414173548
 31
0.0
  0
LINE
  5
C3
330
1F
100
AcDbEntity
  8
1
  6
Continuous
 62
     2
100
AcDbLine
 10
1076.575
 20
305.736164173548
 30
0.0
 11
1079.275
 21
308.436164173548
 31
0.0
  0
LINE
  5
C4
330
1F
100
AcDbEntity
  8
1
  6
Continuous
 62
     2
100
AcDbLine
 10
1079.275
 20
308.436164173548
 30
0.0
 11
1079.275
 21
299.436164173548
 31
0.0
  0
LINE
  5
C5
330
1F
100
AcDbEntity
  8
1
  6
Continuous
 62
     2
100
AcDbLine
 10
1083.325
 20
304.836164173548
 30
0.0
 11
1085.575
 21
304.836164173548
 31
0.0
  0
LINE
  5
C6
330
1F
100
AcDbEntity
  8
1
  6
Continuous
 62
     2
100
AcDbLine
 10
1081.975
 20
308.436164173548
 30
0.0
 11
1085.35
 21
308.436164173548
 31
0.0
  0
LINE
  5
C7
330
1F
100
AcDbEntity
  8
1
  6
Continuous
 62
     2
100
AcDbLine
 10
1085.35
 20
308.436164173548
 30
0.0
 11
1086.475
 21
308.211164173548
 31
0.0
  0
LINE
  5
C8
330
1F
100
AcDbEntity
  8
1
  6
Continuous
 62
     2
100
AcDbLine
 10
1086.475
 20
308.211164173548
 30
0.0
 11
1087.15
 21
307.761164173548
 31
0.0
  0
LINE
  5
C9
330
1F
100
AcDbEntity
  8
1
  6
Continuous
 62
     2
100
AcDbLine
 10
1087.15
 20
307.761164173548
 30
0.0
 11
1087.375
 21
307.086164173548
 31
0.0
  0
LINE
  5
CA
330
1F
100
AcDbEntity
  8
1
  6
Continuous
 62
     2
100
AcDbLine
 10
1087.375
 20
307.086164173548
 30
0.0
 11
1087.375
 21
306.411164173548
 31
0.0
  0
LINE
  5
CB
330
1F
100
AcDbEntity
  8
1
  6
Continuous
 62
     2
100
AcDbLine
 10
1087.375
 20
306.411164173548
 30
0.0
 11
1087.15
 21
305.736164173548
 31
0.0
  0
LINE
  5
CC
330
1F
100
AcDbEntity
  8
1
  6
Continuous
 62
     2
100
AcDbLine
 10
1087.15
 20
305.736164173548
 30
0.0
 11
1086.7
 21
305.286164173548
 31
0.0
  0
LINE
  5
CD
330
1F
100
AcDbEntity
  8
1
  6
Continuous
 62
     2
100
AcDbLine
 10
1086.7
 20
305.286164173548
 30
0.0
 11
1086.25
 21
305.061164173548
 31
0.0
  0
LINE
  5
CE
330
1F
100
AcDbEntity
  8
1
  6
Continuous
 62
     2
100
AcDbLine
 10
1086.25
 20
305.061164173548
 30
0.0
 11
1085.575
 21
304.836164173548
 31
0.0
  0
LINE
  5
CF
330
1F
100
AcDbEntity
  8
1
  6
Continuous
 62
     2
100
AcDbLine
 10
1085.575
 20
304.836164173548
 30
0.0
 11
1086.475
 21
304.611164173548
 31
0.0
  0
LINE
  5
D0
330
1F
100
AcDbEntity
  8
1
  6
Continuous
 62
     2
100
AcDbLine
 10
1086.475
 20
304.611164173548
 30
0.0
 11
1086.925
 21
304.161164173548
 31
0.0
  0
LINE
  5
D1
330
1F
100
AcDbEntity
  8
1
  6
Continuous
 62
     2
100
AcDbLine
 10
1086.925
 20
304.161164173548
 30
0.0
 11
1087.15
 21
303.711164173548
 31
0.0
  0
LINE
  5
D2
330
1F
100
AcDbEntity
  8
1
  6
Continuous
 62
     2
100
AcDbLine
 10
1087.15
 20
303.711164173548
 30
0.0
 11
1087.375
 21
302.811164173548
 31
0.0
  0
LINE
  5
D3
330
1F
100
AcDbEntity
  8
1
  6
Continuous
 62
     2
100
AcDbLine
 10
1087.375
 20
302.811164173548
 30
0.0
 11
1087.375
 21
301.686164173548
 31
0.0
  0
LINE
  5
D4
330
1F
100
AcDbEntity
  8
1
  6
Continuous
 62
     2
100
AcDbLine
 10
1087.375
 20
301.686164173548
 30
0.0
 11
1087.15
 21
300.786164173548
 31
0.0
  0
LINE
  5
D5
330
1F
100
AcDbEntity
  8
1
  6
Continuous
 62
     2
100
AcDbLine
 10
1087.15
 20
300.786164173548
 30
0.0
 11
1086.7
 21
300.111164173548
 31
0.0
  0
LINE
  5
D6
330
1F
100
AcDbEntity
  8
1
  6
Continuous
 62
     2
100
AcDbLine
 10
1086.7
 20
300.111164173548
 30
0.0
 11
1086.025
 21
299.661164173548
 31
0.0
  0
LINE
  5
D7
330
1F
100
AcDbEntity
  8
1
  6
Continuous
 62
     2
100
AcDbLine
 10
1086.025
 20
299.661164173548
 30
0.0
 11
1085.35
 21
299.436164173548
 31
0.0
  0
LINE
  5
D8
330
1F
100
AcDbEntity
  8
1
  6
Continuous
 62
     2
100
AcDbLine
 10
1085.35
 20
299.436164173548
 30
0.0
 11
1081.975
 21
299.436164173548
 31
0.0
  0
LINE
  5
D9
330
1F
100
AcDbEntity
  8
1
  6
Continuous
 62
     2
100
AcDbLine
 10
1090.075
 20
299.436164173548
 30
0.0
 11
1090.075
 21
305.736164173548
 31
0.0
  0
LINE
  5
DA
330
1F
100
AcDbEntity
  8
1
  6
Continuous
 62
     2
100
AcDbLine
 10
1090.075
 20
305.736164173548
 30
0.0
 11
1095.025
 21
305.736164173548
 31
0.0
  0
LINE
  5
DB
330
1F
100
AcDbEntity
  8
1
  6
Continuous
 62
     2
100
AcDbLine
 10
1095.025
 20
305.736164173548
 30
0.0
 11
1095.7
 21
305.511164173548
 31
0.0
  0
LINE
  5
DC
330
1F
100
AcDbEntity
  8
1
  6
Continuous
 62
     2
100
AcDbLine
 10
1095.7
 20
305.511164173548
 30
0.0
 11
1096.15
 21
305.061164173548
 31
0.0
  0
LINE
  5
DD
330
1F
100
AcDbEntity
  8
1
  6
Continuous
 62
     2
100
AcDbLine
 10
1096.15
 20
305.061164173548
 30
0.0
 11
1096.375
 21
304.611164173548
 31
0.0
  0
LINE
  5
DE
330
1F
100
AcDbEntity
  8
1
  6
Continuous
 62
     2
100
AcDbLine
 10
1096.375
 20
304.611164173548
 30
0.0
 11
1096.375
 21
299.436164173548
 31
0.0
  0
LINE
  5
DF
330
1F
100
AcDbEntity
  8
1
  6
Continuous
 62
     2
100
AcDbLine
 10
1093.225
 20
305.736164173548
 30
0.0
 11
1093.225
 21
299.436164173548
 31
0.0
  0
LINE
  5
E0
330
1F
100
AcDbEntity
  8
1
  6
Continuous
 62
     2
100
AcDbLine
 10
1099.075
 20
299.436164173548
 30
0.0
 11
1099.075
 21
305.736164173548
 31
0.0
  0
LINE
  5
E1
330
1F
100
AcDbEntity
  8
1
  6
Continuous
 62
     2
100
AcDbLine
 10
1099.075
 20
305.736164173548
 30
0.0
 11
1104.025
 21
305.736164173548
 31
0.0
  0
LINE
  5
E2
330
1F
100
AcDbEntity
  8
1
  6
Continuous
 62
     2
100
AcDbLine
 10
1104.025
 20
305.736164173548
 30
0.0
 11
1104.7
 21
305.511164173548
 31
0.0
  0
LINE
  5
E3
330
1F
100
AcDbEntity
  8
1
  6
Continuous
 62
     2
100
AcDbLine
 10
1104.7
 20
305.511164173548
 30
0.0
 11
1105.15
 21
305.061164173548
 31
0.0
  0
LINE
  5
E4
330
1F
100
AcDbEntity
  8
1
  6
Continuous
 62
     2
100
AcDbLine
 10
1105.15
 20
305.061164173548
 30
0.0
 11
1105.375
 21
304.611164173548
 31
0.0
  0
LINE
  5
E5
330
1F
100
AcDbEntity
  8
1
  6
Continuous
 62
     2
100
AcDbLine
 10
1105.375
 20
304.611164173548
 30
0.0
 11
1105.375
 21
299.436164173548
 31
0.0
  0
LINE
  5
E6
330
1F
100
AcDbEntity
  8
1
  6
Continuous
 62
     2
100
AcDbLine
 10
1102.225
 20
305.736164173548
 30
0.0
 11
1102.225
 21
299.436164173548
 31
0.0
  0
LINE
  5
E7
330
1F
100
AcDbEntity
  8
1
  6
Continuous
 62
     2
100
AcDbLine
 10
1117.575
 20
299.998664173548
 30
0.0
 11
1119.075
 21
301.967414173548
 31
0.0
  0
LINE
  5
E8
330
1F
100
AcDbEntity
  8
1
  6
Continuous
 62
     2
100
AcDbLine
 10
1119.075
 20
301.967414173548
 30
0.0
 11
1120.075
 21
303.654914173548
 31
0.0
  0
LINE
  5
E9
330
1F
100
AcDbEntity
  8
1
  6
Continuous
 62
     2
100
AcDbLine
 10
1120.075
 20
303.654914173548
 30
0.0
 11
1120.575
 21
304.779914173548
 31
0.0
  0
LINE
  5
EA
330
1F
100
AcDbEntity
  8
1
  6
Continuous
 62
     2
100
AcDbLine
 10
1120.575
 20
304.779914173548
 30
0.0
 11
1121.075
 21
306.467414173548
 31
0.0
  0
LINE
  5
EB
330
1F
100
AcDbEntity
  8
1
  6
Continuous
 62
     2
100
AcDbLine
 10
1121.075
 20
306.467414173548
 30
0.0
 11
1118.825
 21
306.467414173548
 31
0.0
  0
LINE
  5
EC
330
1F
100
AcDbEntity
  8
1
  6
Continuous
 62
     2
100
AcDbLine
 10
1119.325
 20
308.436164173548
 30
0.0
 11
1118.825
 21
306.748664173548
 31
0.0
  0
LINE
  5
ED
330
1F
100
AcDbEntity
  8
1
  6
Continuous
 62
     2
100
AcDbLine
 10
1118.825
 20
306.748664173548
 30
0.0
 11
1118.075
 21
305.061164173548
 31
0.0
  0
LINE
  5
EE
330
1F
100
AcDbEntity
  8
1
  6
Continuous
 62
     2
100
AcDbLine
 10
1118.075
 20
305.061164173548
 30
0.0
 11
1117.075
 21
303.654914173548
 31
0.0
  0
LINE
  5
EF
330
1F
100
AcDbEntity
  8
1
  6
Continuous
 62
     2
100
AcDbLine
 10
1118.075
 20
304.779914173548
 30
0.0
 11
1119.825
 21
303.373664173548
 31
0.0
  0
LINE
  5
F0
330
1F
100
AcDbEntity
  8
1
  6
Continuous
 62
     2
100
AcDbLine
 10
1122.325
 20
308.436164173548
 30
0.0
 11
1122.325
 21
299.436164173548
 31
0.0
  0
LINE
  5
F1
330
1F
100
AcDbEntity
  8
1
  6
Continuous
 62
     2
100
AcDbLine
 10
1121.825
 20
306.186164173548
 30
0.0
 11
1123.825
 21
304.217414173548
 31
0.0
  0
LINE
  5
F2
330
1F
100
AcDbEntity
  8
1
  6
Continuous
 62
     2
100
AcDbLine
 10
1123.825
 20
304.217414173548
 30
0.0
 11
1125.075
 21
302.811164173548
 31
0.0
  0
LINE
  5
F3
330
1F
100
AcDbEntity
  8
1
  6
Continuous
 62
     2
100
AcDbLine
 10
1127.075
 20
299.436164173548
 30
0.0
 11
1127.075
 21
304.217414173548
 31
0.0
  0
LINE
  5
F4
330
1F
100
AcDbEntity
  8
1
  6
Continuous
 62
     2
100
AcDbLine
 10
1127.075
 20
304.217414173548
 30
0.0
 11
1129.825
 21
304.217414173548
 31
0.0
  0
LINE
  5
F5
330
1F
100
AcDbEntity
  8
1
  6
Continuous
 62
     2
100
AcDbLine
 10
1129.825
 20
302.811164173548
 30
0.0
 11
1127.075
 21
302.811164173548
 31
0.0
  0
LINE
  5
F6
330
1F
100
AcDbEntity
  8
1
  6
Continuous
 62
     2
100
AcDbLine
 10
1127.075
 20
301.404914173548
 30
0.0
 11
1129.825
 21
301.404914173548
 31
0.0
  0
LINE
  5
F7
330
1F
100
AcDbEntity
  8
1
  6
Continuous
 62
     2
100
AcDbLine
 10
1129.825
 20
299.998664173548
 30
0.0
 11
1127.075
 21
299.998664173548
 31
0.0
  0
LINE
  5
F8
330
1F
100
AcDbEntity
  8
1
  6
Continuous
 62
     2
100
AcDbLine
 10
1128.575
 20
299.998664173548
 30
0.0
 11
1128.575
 21
304.217414173548
 31
0.0
  0
LINE
  5
F9
330
1F
100
AcDbEntity
  8
1
  6
Continuous
 62
     2
100
AcDbLine
 10
1128.575
 20
304.217414173548
 30
0.0
 11
1128.825
 21
304.779914173548
 31
0.0
  0
LINE
  5
FA
330
1F
100
AcDbEntity
  8
1
  6
Continuous
 62
     2
100
AcDbLine
 10
1130.075
 20
305.623664173548
 30
0.0
 11
1126.325
 21
305.623664173548
 31
0.0
  0
LINE
  5
FB
330
1F
100
AcDbEntity
  8
1
  6
Continuous
 62
     2
100
AcDbLine
 10
1126.075
 20
302.811164173548
 30
0.0
 11
1127.325
 21
304.498664173548
 31
0.0
  0
LINE
  5
FC
330
1F
100
AcDbEntity
  8
1
  6
Continuous
 62
     2
100
AcDbLine
 10
1127.325
 20
304.498664173548
 30
0.0
 11
1128.325
 21
307.029914173548
 31
0.0
  0
LINE
  5
FD
330
1F
100
AcDbEntity
  8
1
  6
Continuous
 62
     2
100
AcDbLine
 10
1129.825
 20
307.029914173548
 30
0.0
 11
1127.325
 21
307.029914173548
 31
0.0
  0
LINE
  5
FE
330
1F
100
AcDbEntity
  8
1
  6
Continuous
 62
     2
100
AcDbLine
 10
1126.325
 20
306.186164173548
 30
0.0
 11
1127.075
 21
307.029914173548
 31
0.0
  0
LINE
  5
FF
330
1F
100
AcDbEntity
  8
1
  6
Continuous
 62
     2
100
AcDbLine
 10
1127.075
 20
307.029914173548
 30
0.0
 11
1127.575
 21
308.154914173548
 31
0.0
  0
LINE
  5
100
330
1F
100
AcDbEntity
  8
1
  6
Continuous
 62
     2
100
AcDbLine
 10
1130.575
 20
307.592414173548
 30
0.0
 11
1130.575
 21
302.529914173548
 31
0.0
  0
LINE
  5
101
330
1F
100
AcDbEntity
  8
1
  6
Continuous
 62
     2
100
AcDbLine
 10
1130.575
 20
302.529914173548
 30
0.0
 11
1133.075
 21
302.529914173548
 31
0.0
  0
LINE
  5
102
330
1F
100
AcDbEntity
  8
1
  6
Continuous
 62
     2
100
AcDbLine
 10
1133.075
 20
302.529914173548
 30
0.0
 11
1133.075
 21
307.592414173548
 31
0.0
  0
LINE
  5
103
330
1F
100
AcDbEntity
  8
1
  6
Continuous
 62
     2
100
AcDbLine
 10
1133.075
 20
307.592414173548
 30
0.0
 11
1130.575
 21
307.592414173548
 31
0.0
  0
LINE
  5
104
330
1F
100
AcDbEntity
  8
1
  6
Continuous
 62
     2
100
AcDbLine
 10
1130.575
 20
305.904914173548
 30
0.0
 11
1133.075
 21
305.904914173548
 31
0.0
  0
LINE
  5
105
330
1F
100
AcDbEntity
  8
1
  6
Continuous
 62
     2
100
AcDbLine
 10
1133.075
 20
304.217414173548
 30
0.0
 11
1130.575
 21
304.217414173548
 31
0.0
  0
LINE
  5
106
330
1F
100
AcDbEntity
  8
1
  6
Continuous
 62
     2
100
AcDbLine
 10
1131.325
 20
302.529914173548
 30
0.0
 11
1131.075
 21
301.686164173548
 31
0.0
  0
LINE
  5
107
330
1F
100
AcDbEntity
  8
1
  6
Continuous
 62
     2
100
AcDbLine
 10
1131.075
 20
301.686164173548
 30
0.0
 11
1130.575
 21
300.279914173548
 31
0.0
  0
LINE
  5
108
330
1F
100
AcDbEntity
  8
1
  6
Continuous
 62
     2
100
AcDbLine
 10
1130.575
 20
300.279914173548
 30
0.0
 11
1129.825
 21
299.436164173548
 31
0.0
  0
LINE
  5
109
330
1F
100
AcDbEntity
  8
1
  6
Continuous
 62
     2
100
AcDbLine
 10
1132.075
 20
302.529914173548
 30
0.0
 11
1132.075
 21
299.998664173548
 31
0.0
  0
LINE
  5
10A
330
1F
100
AcDbEntity
  8
1
  6
Continuous
 62
     2
100
AcDbLine
 10
1132.075
 20
299.998664173548
 30
0.0
 11
1132.825
 21
299.436164173548
 31
0.0
  0
LINE
  5
10B
330
1F
100
AcDbEntity
  8
1
  6
Continuous
 62
     2
100
AcDbLine
 10
1132.825
 20
299.436164173548
 30
0.0
 11
1133.825
 21
299.436164173548
 31
0.0
  0
LINE
  5
10C
330
1F
100
AcDbEntity
  8
1
  6
Continuous
 62
     2
100
AcDbLine
 10
1133.825
 20
299.436164173548
 30
0.0
 11
1134.075
 21
299.998664173548
 31
0.0
  0
LINE
  5
10D
330
1F
100
AcDbEntity
  8
1
  6
Continuous
 62
     2
100
AcDbLine
 10
1135.825
 20
305.623664173548
 30
0.0
 11
1142.575
 21
305.623664173548
 31
0.0
  0
LINE
  5
10E
330
1F
100
AcDbEntity
  8
1
  6
Continuous
 62
     2
100
AcDbLine
 10
1140.575
 20
307.873664173548
 30
0.0
 11
1140.575
 21
299.717414173548
 31
0.0
  0
LINE
  5
10F
330
1F
100
AcDbEntity
  8
1
  6
Continuous
 62
     2
100
AcDbLine
 10
1140.575
 20
299.717414173548
 30
0.0
 11
1139.325
 21
299.717414173548
 31
0.0
  0
LINE
  5
110
330
1F
100
AcDbEntity
  8
1
  6
Continuous
 62
     2
100
AcDbLine
 10
1138.575
 20
302.811164173548
 30
0.0
 11
1137.575
 21
304.217414173548
 31
0.0
  0
LINE
  5
111
330
1F
100
AcDbEntity
  8
1
  6
Continuous
 62
     2
100
AcDbLine
 10
1144.325
 20
299.436164173548
 30
0.0
 11
1145.575
 21
303.092414173548
 31
0.0
  0
LINE
  5
112
330
1F
100
AcDbEntity
  8
1
  6
Continuous
 62
     2
100
AcDbLine
 10
1144.825
 20
304.498664173548
 30
0.0
 11
1144.075
 21
305.342414173548
 31
0.0
  0
LINE
  5
113
330
1F
100
AcDbEntity
  8
1
  6
Continuous
 62
     2
100
AcDbLine
 10
1144.825
 20
307.873664173548
 30
0.0
 11
1145.575
 21
306.748664173548
 31
0.0
  0
LINE
  5
114
330
1F
100
AcDbEntity
  8
1
  6
Continuous
 62
     2
100
AcDbLine
 10
1146.825
 20
305.904914173548
 30
0.0
 11
1151.575
 21
305.904914173548
 31
0.0
  0
LINE
  5
115
330
1F
100
AcDbEntity
  8
1
  6
Continuous
 62
     2
100
AcDbLine
 10
1149.075
 20
308.154914173548
 30
0.0
 11
1149.075
 21
303.654914173548
 31
0.0
  0
LINE
  5
116
330
1F
100
AcDbEntity
  8
1
  6
Continuous
 62
     2
100
AcDbLine
 10
1146.075
 20
303.654914173548
 30
0.0
 11
1151.825
 21
303.654914173548
 31
0.0
  0
LINE
  5
117
330
1F
100
AcDbEntity
  8
1
  6
Continuous
 62
     2
100
AcDbLine
 10
1148.825
 20
303.654914173548
 30
0.0
 11
1147.575
 21
299.998664173548
 31
0.0
  0
LINE
  5
118
330
1F
100
AcDbEntity
  8
1
  6
Continuous
 62
     2
100
AcDbLine
 10
1146.575
 20
299.717414173548
 30
0.0
 11
1150.825
 21
300.561164173548
 31
0.0
  0
LINE
  5
119
330
1F
100
AcDbEntity
  8
1
  6
Continuous
 62
     2
100
AcDbLine
 10
1150.075
 20
301.967414173548
 30
0.0
 11
1151.575
 21
299.436164173548
 31
0.0
  0
LINE
  5
11A
330
1F
100
AcDbEntity
  8
1
  6
Continuous
 62
     2
100
AcDbLine
 10
1153.825
 20
299.717414173548
 30
0.0
 11
1160.325
 21
299.717414173548
 31
0.0
  0
LINE
  5
11B
330
1F
100
AcDbEntity
  8
1
  6
Continuous
 62
     2
100
AcDbLine
 10
1160.325
 20
299.717414173548
 30
0.0
 11
1160.325
 21
307.873664173548
 31
0.0
  0
LINE
  5
11C
330
1F
100
AcDbEntity
  8
1
  6
Continuous
 62
     2
100
AcDbLine
 10
1160.325
 20
307.873664173548
 30
0.0
 11
1153.825
 21
307.873664173548
 31
0.0
  0
LINE
  5
11D
330
1F
100
AcDbEntity
  8
1
  6
Continuous
 62
     2
100
AcDbLine
 10
1153.825
 20
307.873664173548
 30
0.0
 11
1153.825
 21
299.717414173548
 31
0.0
  0
LINE
  5
11E
330
1F
100
AcDbEntity
  8
1
  6
Continuous
 62
     2
100
AcDbLine
 10
1155.075
 20
300.842414173548
 30
0.0
 11
1156.325
 21
301.686164173548
 31
0.0
  0
LINE
  5
11F
330
1F
100
AcDbEntity
  8
1
  6
Continuous
 62
     2
100
AcDbLine
 10
1156.325
 20
301.686164173548
 30
0.0
 11
1157.075
 21
302.529914173548
 31
0.0
  0
LINE
  5
120
330
1F
100
AcDbEntity
  8
1
  6
Continuous
 62
     2
100
AcDbLine
 10
1157.075
 20
302.529914173548
 30
0.0
 11
1158.575
 21
304.779914173548
 31
0.0
  0
LINE
  5
121
330
1F
100
AcDbEntity
  8
1
  6
Continuous
 62
     2
100
AcDbLine
 10
1158.575
 20
304.779914173548
 30
0.0
 11
1159.325
 21
306.467414173548
 31
0.0
  0
LINE
  5
122
330
1F
100
AcDbEntity
  8
1
  6
Continuous
 62
     2
100
AcDbLine
 10
1157.075
 20
305.342414173548
 30
0.0
 11
1156.575
 21
306.748664173548
 31
0.0
  0
LINE
  5
123
330
1F
100
AcDbEntity
  8
1
  6
Continuous
 62
     2
100
AcDbLine
 10
1155.825
 20
305.061164173548
 30
0.0
 11
1155.075
 21
306.467414173548
 31
0.0
  0
LINE
  5
124
330
1F
100
AcDbEntity
  8
1
  6
Continuous
 62
     2
100
AcDbLine
 10
1156.325
 20
303.936164173548
 30
0.0
 11
1157.325
 21
303.092414173548
 31
0.0
  0
LINE
  5
125
330
1F
100
AcDbEntity
  8
1
  6
Continuous
 62
     2
100
AcDbLine
 10
1157.325
 20
303.092414173548
 30
0.0
 11
1158.075
 21
302.248664173548
 31
0.0
  0
LINE
  5
126
330
1F
100
AcDbEntity
  8
1
  6
Continuous
 62
     2
100
AcDbLine
 10
1158.075
 20
302.248664173548
 30
0.0
 11
1158.575
 21
301.404914173548
 31
0.0
  0
LINE
  5
127
330
1F
100
AcDbEntity
  8
1
  6
Continuous
 62
     7
100
AcDbLine
 10
1125.884625975467
 20
505.369898045057
 30
0.0
 11
1126.184625975467
 21
505.059898045057
 31
0.0
  0
LINE
  5
128
330
1F
100
AcDbEntity
  8
1
  6
Continuous
 62
     7
100
AcDbLine
 10
1125.684625975467
 20
505.757398045057
 30
0.0
 11
1125.884625975467
 21
505.369898045057
 31
0.0
  0
LINE
  5
129
330
1F
100
AcDbEntity
  8
1
  6
Continuous
 62
     7
100
AcDbLine
 10
1125.684625975467
 20
506.067398045057
 30
0.0
 11
1125.684625975467
 21
505.757398045057
 31
0.0
  0
LINE
  5
12A
330
1F
100
AcDbEntity
  8
1
  6
Continuous
 62
     7
100
AcDbLine
 10
1125.884625975467
 20
506.609898045057
 30
0.0
 11
1125.684625975467
 21
506.067398045057
 31
0.0
  0
LINE
  5
12B
330
1F
100
AcDbEntity
  8
1
  6
Continuous
 62
     7
100
AcDbLine
 10
1126.284625975467
 20
507.074898045057
 30
0.0
 11
1125.884625975467
 21
506.609898045057
 31
0.0
  0
LINE
  5
12C
330
1F
100
AcDbEntity
  8
1
  6
Continuous
 62
     7
100
AcDbLine
 10
1126.684625975467
 20
507.307398045057
 30
0.0
 11
1126.284625975467
 21
507.074898045057
 31
0.0
  0
LINE
  5
12D
330
1F
100
AcDbEntity
  8
1
  6
Continuous
 62
     7
100
AcDbLine
 10
1127.284625975467
 20
507.539898045057
 30
0.0
 11
1126.684625975467
 21
507.307398045057
 31
0.0
  0
LINE
  5
12E
330
1F
100
AcDbEntity
  8
1
  6
Continuous
 62
     7
100
AcDbLine
 10
1128.084625975467
 20
507.617398045057
 30
0.0
 11
1127.284625975467
 21
507.539898045057
 31
0.0
  0
LINE
  5
12F
330
1F
100
AcDbEntity
  8
1
  6
Continuous
 62
     7
100
AcDbLine
 10
1131.684625975467
 20
507.617398045057
 30
0.0
 11
1128.084625975467
 21
507.617398045057
 31
0.0
  0
LINE
  5
130
330
1F
100
AcDbEntity
  8
1
  6
Continuous
 62
     7
100
AcDbLine
 10
1131.684625975467
 20
506.764898045057
 30
0.0
 11
1131.684625975467
 21
507.617398045057
 31
0.0
  0
LINE
  5
131
330
1F
100
AcDbEntity
  8
1
  6
Continuous
 62
     7
100
AcDbLine
 10
1127.984625975467
 20
506.764898045057
 30
0.0
 11
1131.684625975467
 21
506.764898045057
 31
0.0
  0
LINE
  5
132
330
1F
100
AcDbEntity
  8
1
  6
Continuous
 62
     7
100
AcDbLine
 10
1127.584625975467
 20
506.687398045057
 30
0.0
 11
1127.984625975467
 21
506.764898045057
 31
0.0
  0
LINE
  5
133
330
1F
100
AcDbEntity
  8
1
  6
Continuous
 62
     7
100
AcDbLine
 10
1127.084625975467
 20
506.454898045057
 30
0.0
 11
1127.584625975467
 21
506.687398045057
 31
0.0
  0
LINE
  5
134
330
1F
100
AcDbEntity
  8
1
  6
Continuous
 62
     7
100
AcDbLine
 10
1126.784625975467
 20
506.222398045057
 30
0.0
 11
1127.084625975467
 21
506.454898045057
 31
0.0
  0
LINE
  5
135
330
1F
100
AcDbEntity
  8
1
  6
Continuous
 62
     7
100
AcDbLine
 10
1126.684625975467
 20
505.834898045057
 30
0.0
 11
1126.784625975467
 21
506.222398045057
 31
0.0
  0
LINE
  5
136
330
1F
100
AcDbEntity
  8
1
  6
Continuous
 62
     7
100
AcDbLine
 10
1126.784625975467
 20
505.524898045057
 30
0.0
 11
1126.684625975467
 21
505.834898045057
 31
0.0
  0
LINE
  5
137
330
1F
100
AcDbEntity
  8
1
  6
Continuous
 62
     7
100
AcDbLine
 10
1127.084625975467
 20
505.214898045057
 30
0.0
 11
1126.784625975467
 21
505.524898045057
 31
0.0
  0
LINE
  5
138
330
1F
100
AcDbEntity
  8
1
  6
Continuous
 62
     7
100
AcDbLine
 10
1127.584625975467
 20
505.059898045057
 30
0.0
 11
1127.084625975467
 21
505.214898045057
 31
0.0
  0
LINE
  5
139
330
1F
100
AcDbEntity
  8
1
  6
Continuous
 62
     7
100
AcDbLine
 10
1131.684625975467
 20
505.059898045057
 30
0.0
 11
1127.584625975467
 21
505.059898045057
 31
0.0
  0
LINE
  5
13A
330
1F
100
AcDbEntity
  8
1
  6
Continuous
 62
     7
100
AcDbLine
 10
1131.684625975467
 20
504.207398045057
 30
0.0
 11
1131.684625975467
 21
505.059898045057
 31
0.0
  0
LINE
  5
13B
330
1F
100
AcDbEntity
  8
1
  6
Continuous
 62
     7
100
AcDbLine
 10
1127.984625975467
 20
504.207398045057
 30
0.0
 11
1131.684625975467
 21
504.207398045057
 31
0.0
  0
LINE
  5
13C
330
1F
100
AcDbEntity
  8
1
  6
Continuous
 62
     7
100
AcDbLine
 10
1127.584625975467
 20
504.129898045057
 30
0.0
 11
1127.984625975467
 21
504.207398045057
 31
0.0
  0
LINE
  5
13D
330
1F
100
AcDbEntity
  8
1
  6
Continuous
 62
     7
100
AcDbLine
 10
1127.084625975467
 20
503.897398045057
 30
0.0
 11
1127.584625975467
 21
504.129898045057
 31
0.0
  0
LINE
  5
13E
330
1F
100
AcDbEntity
  8
1
  6
Continuous
 62
     7
100
AcDbLine
 10
1126.784625975467
 20
503.664898045057
 30
0.0
 11
1127.084625975467
 21
503.897398045057
 31
0.0
  0
LINE
  5
13F
330
1F
100
AcDbEntity
  8
1
  6
Continuous
 62
     7
100
AcDbLine
 10
1126.684625975467
 20
503.277398045057
 30
0.0
 11
1126.784625975467
 21
503.664898045057
 31
0.0
  0
LINE
  5
140
330
1F
100
AcDbEntity
  8
1
  6
Continuous
 62
     7
100
AcDbLine
 10
1126.784625975467
 20
502.967398045057
 30
0.0
 11
1126.684625975467
 21
503.277398045057
 31
0.0
  0
LINE
  5
141
330
1F
100
AcDbEntity
  8
1
  6
Continuous
 62
     7
100
AcDbLine
 10
1127.084625975467
 20
502.657398045057
 30
0.0
 11
1126.784625975467
 21
502.967398045057
 31
0.0
  0
LINE
  5
142
330
1F
100
AcDbEntity
  8
1
  6
Continuous
 62
     7
100
AcDbLine
 10
1127.584625975467
 20
502.502398045057
 30
0.0
 11
1127.084625975467
 21
502.657398045057
 31
0.0
  0
LINE
  5
143
330
1F
100
AcDbEntity
  8
1
  6
Continuous
 62
     7
100
AcDbLine
 10
1131.684625975467
 20
502.502398045057
 30
0.0
 11
1127.584625975467
 21
502.502398045057
 31
0.0
  0
LINE
  5
144
330
1F
100
AcDbEntity
  8
1
  6
Continuous
 62
     7
100
AcDbLine
 10
1131.684625975467
 20
501.649898045057
 30
0.0
 11
1131.684625975467
 21
502.502398045057
 31
0.0
  0
LINE
  5
145
330
1F
100
AcDbEntity
  8
1
  6
Continuous
 62
     7
100
AcDbLine
 10
1125.784625975467
 20
501.649898045057
 30
0.0
 11
1131.684625975467
 21
501.649898045057
 31
0.0
  0
LINE
  5
146
330
1F
100
AcDbEntity
  8
1
  6
Continuous
 62
     7
100
AcDbLine
 10
1125.784625975467
 20
502.502398045057
 30
0.0
 11
1125.784625975467
 21
501.649898045057
 31
0.0
  0
LINE
  5
147
330
1F
100
AcDbEntity
  8
1
  6
Continuous
 62
     7
100
AcDbLine
 10
1126.284625975467
 20
502.502398045057
 30
0.0
 11
1125.784625975467
 21
502.502398045057
 31
0.0
  0
LINE
  5
148
330
1F
100
AcDbEntity
  8
1
  6
Continuous
 62
     7
100
AcDbLine
 10
1125.884625975467
 20
502.734898045057
 30
0.0
 11
1126.284625975467
 21
502.502398045057
 31
0.0
  0
LINE
  5
149
330
1F
100
AcDbEntity
  8
1
  6
Continuous
 62
     7
100
AcDbLine
 10
1125.684625975467
 20
503.199898045057
 30
0.0
 11
1125.884625975467
 21
502.734898045057
 31
0.0
  0
LINE
  5
14A
330
1F
100
AcDbEntity
  8
1
  6
Continuous
 62
     7
100
AcDbLine
 10
1125.684625975467
 20
503.509898045057
 30
0.0
 11
1125.684625975467
 21
503.199898045057
 31
0.0
  0
LINE
  5
14B
330
1F
100
AcDbEntity
  8
1
  6
Continuous
 62
     7
100
AcDbLine
 10
1125.884625975467
 20
504.052398045057
 30
0.0
 11
1125.684625975467
 21
503.509898045057
 31
0.0
  0
LINE
  5
14C
330
1F
100
AcDbEntity
  8
1
  6
Continuous
 62
     7
100
AcDbLine
 10
1126.284625975467
 20
504.517398045057
 30
0.0
 11
1125.884625975467
 21
504.052398045057
 31
0.0
  0
LINE
  5
14D
330
1F
100
AcDbEntity
  8
1
  6
Continuous
 62
     7
100
AcDbLine
 10
1126.684625975467
 20
504.827398045057
 30
0.0
 11
1126.284625975467
 21
504.517398045057
 31
0.0
  0
LINE
  5
14E
330
1F
100
AcDbEntity
  8
1
  6
Continuous
 62
     7
100
AcDbLine
 10
1126.184625975467
 20
505.059898045057
 30
0.0
 11
1126.684625975467
 21
504.827398045057
 31
0.0
  0
LINE
  5
14F
330
1F
100
AcDbEntity
  8
1
  6
Continuous
 62
     7
100
AcDbLine
 10
1125.929551187117
 20
513.403305013526
 30
0.0
 11
1126.229551187117
 21
513.0933050135261
 31
0.0
  0
LINE
  5
150
330
1F
100
AcDbEntity
  8
1
  6
Continuous
 62
     7
100
AcDbLine
 10
1125.729551187117
 20
513.7908050135261
 30
0.0
 11
1125.929551187117
 21
513.403305013526
 31
0.0
  0
LINE
  5
151
330
1F
100
AcDbEntity
  8
1
  6
Continuous
 62
     7
100
AcDbLine
 10
1125.729551187117
 20
514.100805013526
 30
0.0
 11
1125.729551187117
 21
513.7908050135261
 31
0.0
  0
LINE
  5
152
330
1F
100
AcDbEntity
  8
1
  6
Continuous
 62
     7
100
AcDbLine
 10
1125.929551187117
 20
514.6433050135261
 30
0.0
 11
1125.729551187117
 21
514.100805013526
 31
0.0
  0
LINE
  5
153
330
1F
100
AcDbEntity
  8
1
  6
Continuous
 62
     7
100
AcDbLine
 10
1126.329551187117
 20
515.1083050135261
 30
0.0
 11
1125.929551187117
 21
514.6433050135261
 31
0.0
  0
LINE
  5
154
330
1F
100
AcDbEntity
  8
1
  6
Continuous
 62
     7
100
AcDbLine
 10
1126.729551187117
 20
515.340805013526
 30
0.0
 11
1126.329551187117
 21
515.1083050135261
 31
0.0
  0
LINE
  5
155
330
1F
100
AcDbEntity
  8
1
  6
Continuous
 62
     7
100
AcDbLine
 10
1127.329551187117
 20
515.5733050135261
 30
0.0
 11
1126.729551187117
 21
515.340805013526
 31
0.0
  0
LINE
  5
156
330
1F
100
AcDbEntity
  8
1
  6
Continuous
 62
     7
100
AcDbLine
 10
1128.129551187117
 20
515.6508050135261
 30
0.0
 11
1127.329551187117
 21
515.5733050135261
 31
0.0
  0
LINE
  5
157
330
1F
100
AcDbEntity
  8
1
  6
Continuous
 62
     7
100
AcDbLine
 10
1131.729551187117
 20
515.6508050135261
 30
0.0
 11
1128.129551187117
 21
515.6508050135261
 31
0.0
  0
LINE
  5
158
330
1F
100
AcDbEntity
  8
1
  6
Continuous
 62
     7
100
AcDbLine
 10
1131.729551187117
 20
514.798305013526
 30
0.0
 11
1131.729551187117
 21
515.6508050135261
 31
0.0
  0
LINE
  5
159
330
1F
100
AcDbEntity
  8
1
  6
Continuous
 62
     7
100
AcDbLine
 10
1128.029551187117
 20
514.798305013526
 30
0.0
 11
1131.729551187117
 21
514.798305013526
 31
0.0
  0
LINE
  5
15A
330
1F
100
AcDbEntity
  8
1
  6
Continuous
 62
     7
100
AcDbLine
 10
1127.629551187117
 20
514.720805013526
 30
0.0
 11
1128.029551187117
 21
514.798305013526
 31
0.0
  0
LINE
  5
15B
330
1F
100
AcDbEntity
  8
1
  6
Continuous
 62
     7
100
AcDbLine
 10
1127.129551187117
 20
514.4883050135261
 30
0.0
 11
1127.629551187117
 21
514.720805013526
 31
0.0
  0
LINE
  5
15C
330
1F
100
AcDbEntity
  8
1
  6
Continuous
 62
     7
100
AcDbLine
 10
1126.829551187117
 20
514.2558050135261
 30
0.0
 11
1127.129551187117
 21
514.4883050135261
 31
0.0
  0
LINE
  5
15D
330
1F
100
AcDbEntity
  8
1
  6
Continuous
 62
     7
100
AcDbLine
 10
1126.729551187117
 20
513.8683050135261
 30
0.0
 11
1126.829551187117
 21
514.2558050135261
 31
0.0
  0
LINE
  5
15E
330
1F
100
AcDbEntity
  8
1
  6
Continuous
 62
     7
100
AcDbLine
 10
1126.829551187117
 20
513.5583050135261
 30
0.0
 11
1126.729551187117
 21
513.8683050135261
 31
0.0
  0
LINE
  5
15F
330
1F
100
AcDbEntity
  8
1
  6
Continuous
 62
     7
100
AcDbLine
 10
1127.129551187117
 20
513.2483050135261
 30
0.0
 11
1126.829551187117
 21
513.5583050135261
 31
0.0
  0
LINE
  5
160
330
1F
100
AcDbEntity
  8
1
  6
Continuous
 62
     7
100
AcDbLine
 10
1127.629551187117
 20
513.0933050135261
 30
0.0
 11
1127.129551187117
 21
513.2483050135261
 31
0.0
  0
LINE
  5
161
330
1F
100
AcDbEntity
  8
1
  6
Continuous
 62
     7
100
AcDbLine
 10
1131.729551187117
 20
513.0933050135261
 30
0.0
 11
1127.629551187117
 21
513.0933050135261
 31
0.0
  0
LINE
  5
162
330
1F
100
AcDbEntity
  8
1
  6
Continuous
 62
     7
100
AcDbLine
 10
1131.729551187117
 20
512.240805013526
 30
0.0
 11
1131.729551187117
 21
513.0933050135261
 31
0.0
  0
LINE
  5
163
330
1F
100
AcDbEntity
  8
1
  6
Continuous
 62
     7
100
AcDbLine
 10
1128.029551187117
 20
512.240805013526
 30
0.0
 11
1131.729551187117
 21
512.240805013526
 31
0.0
  0
LINE
  5
164
330
1F
100
AcDbEntity
  8
1
  6
Continuous
 62
     7
100
AcDbLine
 10
1127.629551187117
 20
512.163305013526
 30
0.0
 11
1128.029551187117
 21
512.240805013526
 31
0.0
  0
LINE
  5
165
330
1F
100
AcDbEntity
  8
1
  6
Continuous
 62
     7
100
AcDbLine
 10
1127.129551187117
 20
511.9308050135261
 30
0.0
 11
1127.629551187117
 21
512.163305013526
 31
0.0
  0
LINE
  5
166
330
1F
100
AcDbEntity
  8
1
  6
Continuous
 62
     7
100
AcDbLine
 10
1126.829551187117
 20
511.6983050135261
 30
0.0
 11
1127.129551187117
 21
511.9308050135261
 31
0.0
  0
LINE
  5
167
330
1F
100
AcDbEntity
  8
1
  6
Continuous
 62
     7
100
AcDbLine
 10
1126.729551187117
 20
511.3108050135261
 30
0.0
 11
1126.829551187117
 21
511.6983050135261
 31
0.0
  0
LINE
  5
168
330
1F
100
AcDbEntity
  8
1
  6
Continuous
 62
     7
100
AcDbLine
 10
1126.829551187117
 20
511.0008050135261
 30
0.0
 11
1126.729551187117
 21
511.3108050135261
 31
0.0
  0
LINE
  5
169
330
1F
100
AcDbEntity
  8
1
  6
Continuous
 62
     7
100
AcDbLine
 10
1127.129551187117
 20
510.6908050135261
 30
0.0
 11
1126.829551187117
 21
511.0008050135261
 31
0.0
  0
LINE
  5
16A
330
1F
100
AcDbEntity
  8
1
  6
Continuous
 62
     7
100
AcDbLine
 10
1127.629551187117
 20
510.5358050135261
 30
0.0
 11
1127.129551187117
 21
510.6908050135261
 31
0.0
  0
LINE
  5
16B
330
1F
100
AcDbEntity
  8
1
  6
Continuous
 62
     7
100
AcDbLine
 10
1131.729551187117
 20
510.5358050135261
 30
0.0
 11
1127.629551187117
 21
510.5358050135261
 31
0.0
  0
LINE
  5
16C
330
1F
100
AcDbEntity
  8
1
  6
Continuous
 62
     7
100
AcDbLine
 10
1131.729551187117
 20
509.6833050135261
 30
0.0
 11
1131.729551187117
 21
510.5358050135261
 31
0.0
  0
LINE
  5
16D
330
1F
100
AcDbEntity
  8
1
  6
Continuous
 62
     7
100
AcDbLine
 10
1125.829551187117
 20
509.6833050135261
 30
0.0
 11
1131.729551187117
 21
509.6833050135261
 31
0.0
  0
LINE
  5
16E
330
1F
100
AcDbEntity
  8
1
  6
Continuous
 62
     7
100
AcDbLine
 10
1125.829551187117
 20
510.5358050135261
 30
0.0
 11
1125.829551187117
 21
509.6833050135261
 31
0.0
  0
LINE
  5
16F
330
1F
100
AcDbEntity
  8
1
  6
Continuous
 62
     7
100
AcDbLine
 10
1126.329551187117
 20
510.5358050135261
 30
0.0
 11
1125.829551187117
 21
510.5358050135261
 31
0.0
  0
LINE
  5
170
330
1F
100
AcDbEntity
  8
1
  6
Continuous
 62
     7
100
AcDbLine
 10
1125.929551187117
 20
510.7683050135261
 30
0.0
 11
1126.329551187117
 21
510.5358050135261
 31
0.0
  0
LINE
  5
171
330
1F
100
AcDbEntity
  8
1
  6
Continuous
 62
     7
100
AcDbLine
 10
1125.729551187117
 20
511.2333050135261
 30
0.0
 11
1125.929551187117
 21
510.7683050135261
 31
0.0
  0
LINE
  5
172
330
1F
100
AcDbEntity
  8
1
  6
Continuous
 62
     7
100
AcDbLine
 10
1125.729551187117
 20
511.5433050135261
 30
0.0
 11
1125.729551187117
 21
511.2333050135261
 31
0.0
  0
LINE
  5
173
330
1F
100
AcDbEntity
  8
1
  6
Continuous
 62
     7
100
AcDbLine
 10
1125.929551187117
 20
512.085805013526
 30
0.0
 11
1125.729551187117
 21
511.5433050135261
 31
0.0
  0
LINE
  5
174
330
1F
100
AcDbEntity
  8
1
  6
Continuous
 62
     7
100
AcDbLine
 10
1126.329551187117
 20
512.5508050135261
 30
0.0
 11
1125.929551187117
 21
512.085805013526
 31
0.0
  0
LINE
  5
175
330
1F
100
AcDbEntity
  8
1
  6
Continuous
 62
     7
100
AcDbLine
 10
1126.729551187117
 20
512.860805013526
 30
0.0
 11
1126.329551187117
 21
512.5508050135261
 31
0.0
  0
LINE
  5
176
330
1F
100
AcDbEntity
  8
1
  6
Continuous
 62
     7
100
AcDbLine
 10
1126.229551187117
 20
513.0933050135261
 30
0.0
 11
1126.729551187117
 21
512.860805013526
 31
0.0
  0
LINE
  5
177
330
1F
100
AcDbEntity
  8
1
  6
Continuous
 62
     2
100
AcDbLine
 10
1142.003148510774
 20
341.1633220739759
 30
0.0
 11
1144.103148510774
 21
341.1633220739759
 31
0.0
  0
LINE
  5
178
330
1F
100
AcDbEntity
  8
1
  6
Continuous
 62
     2
100
AcDbLine
 10
1142.003148510774
 20
344.1633220739759
 30
0.0
 11
1142.003148510774
 21
341.1633220739759
 31
0.0
  0
LINE
  5
179
330
1F
100
AcDbEntity
  8
1
  6
Continuous
 62
     2
100
AcDbLine
 10
1144.103148510774
 20
344.1633220739759
 30
0.0
 11
1142.003148510774
 21
344.1633220739759
 31
0.0
  0
LINE
  5
17A
330
1F
100
AcDbEntity
  8
1
  6
Continuous
 62
     2
100
AcDbLine
 10
1143.803148510774
 20
342.8133220739759
 30
0.0
 11
1142.003148510774
 21
342.8133220739759
 31
0.0
  0
LINE
  5
17B
330
1F
100
AcDbEntity
  8
1
  6
Continuous
 62
     2
100
AcDbLine
 10
1137.428148510774
 20
341.1633220739759
 30
0.0
 11
1137.090648510774
 21
341.3508220739759
 31
0.0
  0
LINE
  5
17C
330
1F
100
AcDbEntity
  8
1
  6
Continuous
 62
     2
100
AcDbLine
 10
1137.578148510774
 20
341.2758220739759
 30
0.0
 11
1137.428148510774
 21
341.1633220739759
 31
0.0
  0
LINE
  5
17D
330
1F
100
AcDbEntity
  8
1
  6
Continuous
 62
     2
100
AcDbLine
 10
1137.840648510774
 20
341.7258220739759
 30
0.0
 11
1137.578148510774
 21
341.2758220739759
 31
0.0
  0
LINE
  5
17E
330
1F
100
AcDbEntity
  8
1
  6
Continuous
 62
     2
100
AcDbLine
 10
1137.990648510774
 20
342.2883220739759
 30
0.0
 11
1137.840648510774
 21
341.7258220739759
 31
0.0
  0
LINE
  5
17F
330
1F
100
AcDbEntity
  8
1
  6
Continuous
 62
     2
100
AcDbLine
 10
1136.828148510774
 20
342.2883220739759
 30
0.0
 11
1137.990648510774
 21
342.2883220739759
 31
0.0
  0
LINE
  5
180
330
1F
100
AcDbEntity
  8
1
  6
Continuous
 62
     2
100
AcDbLine
 10
1137.015648510774
 20
342.8508220739759
 30
0.0
 11
1136.753148510774
 21
341.9133220739759
 31
0.0
  0
LINE
  5
181
330
1F
100
AcDbEntity
  8
1
  6
Continuous
 62
     2
100
AcDbLine
 10
1136.078148510774
 20
342.8508220739759
 30
0.0
 11
1138.515648510774
 21
342.8508220739759
 31
0.0
  0
LINE
  5
182
330
1F
100
AcDbEntity
  8
1
  6
Continuous
 62
     2
100
AcDbLine
 10
1137.990648510774
 20
343.9758220739759
 30
0.0
 11
1136.678148510774
 21
343.9758220739759
 31
0.0
  0
LINE
  5
183
330
1F
100
AcDbEntity
  8
1
  6
Continuous
 62
     2
100
AcDbLine
 10
1137.990648510774
 20
343.3383220739759
 30
0.0
 11
1137.990648510774
 21
343.9758220739759
 31
0.0
  0
LINE
  5
184
330
1F
100
AcDbEntity
  8
1
  6
Continuous
 62
     2
100
AcDbLine
 10
1136.678148510774
 20
343.3383220739759
 30
0.0
 11
1137.990648510774
 21
343.3383220739759
 31
0.0
  0
LINE
  5
185
330
1F
100
AcDbEntity
  8
1
  6
Continuous
 62
     2
100
AcDbLine
 10
1136.678148510774
 20
343.9758220739759
 30
0.0
 11
1136.678148510774
 21
343.3383220739759
 31
0.0
  0
LINE
  5
186
330
1F
100
AcDbEntity
  8
1
  6
Continuous
 62
     2
100
AcDbLine
 10
1135.515648510774
 20
341.3508220739759
 30
0.0
 11
1135.515648510774
 21
341.6508220739759
 31
0.0
  0
LINE
  5
187
330
1F
100
AcDbEntity
  8
1
  6
Continuous
 62
     2
100
AcDbLine
 10
1134.353148510774
 20
341.3508220739759
 30
0.0
 11
1135.515648510774
 21
341.3508220739759
 31
0.0
  0
LINE
  5
188
330
1F
100
AcDbEntity
  8
1
  6
Continuous
 62
     2
100
AcDbLine
 10
1134.353148510774
 20
342.7758220739759
 30
0.0
 11
1134.353148510774
 21
341.3508220739759
 31
0.0
  0
LINE
  5
189
330
1F
100
AcDbEntity
  8
1
  6
Continuous
 62
     2
100
AcDbLine
 10
1135.253148510774
 20
342.7758220739759
 30
0.0
 11
1134.353148510774
 21
342.7758220739759
 31
0.0
  0
LINE
  5
18A
330
1F
100
AcDbEntity
  8
1
  6
Continuous
 62
     2
100
AcDbLine
 10
1135.253148510774
 20
343.7133220739759
 30
0.0
 11
1135.253148510774
 21
342.7758220739759
 31
0.0
  0
LINE
  5
18B
330
1F
100
AcDbEntity
  8
1
  6
Continuous
 62
     2
100
AcDbLine
 10
1134.353148510774
 20
343.7133220739759
 30
0.0
 11
1135.253148510774
 21
343.7133220739759
 31
0.0
  0
LINE
  5
18C
330
1F
100
AcDbEntity
  8
1
  6
Continuous
 62
     2
100
AcDbLine
 10
1133.078148510774
 20
343.7883220739759
 30
0.0
 11
1133.828148510774
 21
343.7883220739759
 31
0.0
  0
LINE
  5
18D
330
1F
100
AcDbEntity
  8
1
  6
Continuous
 62
     2
100
AcDbLine
 10
1133.003148510774
 20
343.3383220739759
 30
0.0
 11
1134.090648510774
 21
343.3383220739759
 31
0.0
  0
LINE
  5
18E
330
1F
100
AcDbEntity
  8
1
  6
Continuous
 62
     2
100
AcDbLine
 10
1133.828148510774
 20
342.9633220739759
 30
0.0
 11
1133.153148510774
 21
342.9633220739759
 31
0.0
  0
LINE
  5
18F
330
1F
100
AcDbEntity
  8
1
  6
Continuous
 62
     2
100
AcDbLine
 10
1133.153148510774
 20
342.4758220739759
 30
0.0
 11
1133.828148510774
 21
342.4758220739759
 31
0.0
  0
LINE
  5
190
330
1F
100
AcDbEntity
  8
1
  6
Continuous
 62
     2
100
AcDbLine
 10
1133.828148510774
 20
341.3508220739759
 30
0.0
 11
1133.153148510774
 21
341.3508220739759
 31
0.0
  0
LINE
  5
191
330
1F
100
AcDbEntity
  8
1
  6
Continuous
 62
     2
100
AcDbLine
 10
1133.828148510774
 20
342.1008220739759
 30
0.0
 11
1133.828148510774
 21
341.3508220739759
 31
0.0
  0
LINE
  5
192
330
1F
100
AcDbEntity
  8
1
  6
Continuous
 62
     2
100
AcDbLine
 10
1133.153148510774
 20
342.1008220739759
 30
0.0
 11
1133.828148510774
 21
342.1008220739759
 31
0.0
  0
LINE
  5
193
330
1F
100
AcDbEntity
  8
1
  6
Continuous
 62
     2
100
AcDbLine
 10
1133.153148510774
 20
341.3508220739759
 30
0.0
 11
1133.153148510774
 21
342.1008220739759
 31
0.0
  0
LINE
  5
194
330
1F
100
AcDbEntity
  8
1
  6
Continuous
 62
     2
100
AcDbLine
 10
1132.178148510774
 20
344.1633220739759
 30
0.0
 11
1132.178148510774
 21
341.1633220739759
 31
0.0
  0
LINE
  5
195
330
1F
100
AcDbEntity
  8
1
  6
Continuous
 62
     2
100
AcDbLine
 10
1131.765648510774
 20
343.6008220739759
 30
0.0
 11
1131.503148510774
 21
343.9758220739759
 31
0.0
  0
LINE
  5
196
330
1F
100
AcDbEntity
  8
1
  6
Continuous
 62
     2
100
AcDbLine
 10
1131.765648510774
 20
342.8508220739759
 30
0.0
 11
1131.503148510774
 21
343.2258220739759
 31
0.0
  0
LINE
  5
197
330
1F
100
AcDbEntity
  8
1
  6
Continuous
 62
     2
100
AcDbLine
 10
1131.240648510774
 20
342.2133220739759
 30
0.0
 11
1132.665648510774
 21
342.4758220739759
 31
0.0
  0
LINE
  5
198
330
1F
100
AcDbEntity
  8
1
  6
Continuous
 62
     2
100
AcDbLine
 10
1130.903148510774
 20
342.6633220739759
 30
0.0
 11
1131.090648510774
 21
342.2883220739759
 31
0.0
  0
LINE
  5
199
330
1F
100
AcDbEntity
  8
1
  6
Continuous
 62
     2
100
AcDbLine
 10
1130.678148510774
 20
344.0883220739759
 30
0.0
 11
1130.678148510774
 21
341.2758220739759
 31
0.0
  0
LINE
  5
19A
330
1F
100
AcDbEntity
  8
1
  6
Continuous
 62
     2
100
AcDbLine
 10
1130.903148510774
 20
343.5258220739759
 30
0.0
 11
1131.090648510774
 21
343.9008220739759
 31
0.0
  0
LINE
  5
19B
330
1F
100
AcDbEntity
  8
1
  6
Continuous
 62
     2
100
AcDbLine
 10
1130.153148510774
 20
343.7883220739759
 30
0.0
 11
1130.415648510774
 21
343.4133220739759
 31
0.0
  0
LINE
  5
19C
330
1F
100
AcDbEntity
  8
1
  6
Continuous
 62
     2
100
AcDbLine
 10
1131.240648510774
 20
343.0383220739759
 30
0.0
 11
1130.078148510774
 21
343.0383220739759
 31
0.0
  0
LINE
  5
19D
330
1F
100
AcDbEntity
  8
1
  6
Continuous
 62
     2
100
AcDbLine
 10
1130.340648510774
 20
342.2133220739759
 30
0.0
 11
1130.678148510774
 21
343.0383220739759
 31
0.0
  0
LINE
  5
19E
330
1F
100
AcDbEntity
  8
1
  6
Continuous
 62
     2
100
AcDbLine
 10
1130.078148510774
 20
341.7258220739759
 30
0.0
 11
1130.340648510774
 21
342.2133220739759
 31
0.0
  0
LINE
  5
19F
330
1F
100
AcDbEntity
  8
1
  6
Continuous
 62
     2
100
AcDbLine
 10
1129.178148510774
 20
341.3508220739759
 30
0.0
 11
1128.915648510774
 21
341.3508220739759
 31
0.0
  0
LINE
  5
1A0
330
1F
100
AcDbEntity
  8
1
  6
Continuous
 62
     2
100
AcDbLine
 10
1129.103148510774
 20
344.0883220739759
 30
0.0
 11
1129.178148510774
 21
341.3508220739759
 31
0.0
  0
LINE
  5
1A1
330
1F
100
AcDbEntity
  8
1
  6
Continuous
 62
     2
100
AcDbLine
 10
1129.590648510774
 20
343.2258220739759
 30
0.0
 11
1128.353148510774
 21
343.2258220739759
 31
0.0
  0
LINE
  5
1A2
330
1F
100
AcDbEntity
  8
1
  6
Continuous
 62
     2
100
AcDbLine
 10
1128.653148510774
 20
342.2883220739759
 30
0.0
 11
1129.103148510774
 21
343.1508220739759
 31
0.0
  0
LINE
  5
1A3
330
1F
100
AcDbEntity
  8
1
  6
Continuous
 62
     2
100
AcDbLine
 10
1128.165648510774
 20
341.7258220739759
 30
0.0
 11
1128.653148510774
 21
342.2883220739759
 31
0.0
  0
LINE
  5
1A4
330
1F
100
AcDbEntity
  8
1
  6
Continuous
 62
     2
100
AcDbLine
 10
1127.678148510774
 20
343.2258220739759
 30
0.0
 11
1128.090648510774
 21
342.5883220739759
 31
0.0
  0
LINE
  5
1A5
330
1F
100
AcDbEntity
  8
1
  6
Continuous
 62
     2
100
AcDbLine
 10
1127.415648510774
 20
342.6633220739759
 30
0.0
 11
1127.678148510774
 21
343.2258220739759
 31
0.0
  0
LINE
  5
1A6
330
1F
100
AcDbEntity
  8
1
  6
Continuous
 62
     2
100
AcDbLine
 10
1127.078148510774
 20
342.1008220739759
 30
0.0
 11
1127.415648510774
 21
342.6633220739759
 31
0.0
  0
LINE
  5
1A7
330
1F
100
AcDbEntity
  8
1
  6
Continuous
 62
     2
100
AcDbLine
 10
1128.090648510774
 20
343.3383220739759
 30
0.0
 11
1127.153148510774
 21
343.3383220739759
 31
0.0
  0
LINE
  5
1A8
330
1F
100
AcDbEntity
  8
1
  6
Continuous
 62
     2
100
AcDbLine
 10
1127.678148510774
 20
341.1633220739759
 30
0.0
 11
1127.678148510774
 21
344.1633220739759
 31
0.0
  0
LINE
  5
1A9
330
1F
100
AcDbEntity
  8
1
  6
Continuous
 62
     2
100
AcDbLine
 10
1071.870077917603
 20
343.3453158587389
 30
0.0
 11
1074.532577917603
 21
343.3453158587389
 31
0.0
  0
LINE
  5
1AA
330
1F
100
AcDbEntity
  8
1
  6
Continuous
 62
     2
100
AcDbLine
 10
1072.357577917603
 20
343.9828158587389
 30
0.0
 11
1072.357577917603
 21
343.3453158587389
 31
0.0
  0
LINE
  5
1AB
330
1F
100
AcDbEntity
  8
1
  6
Continuous
 62
     2
100
AcDbLine
 10
1072.357577917603
 20
344.0953158587389
 30
0.0
 11
1074.045077917603
 21
344.0953158587389
 31
0.0
  0
LINE
  5
1AC
330
1F
100
AcDbEntity
  8
1
  6
Continuous
 62
     2
100
AcDbLine
 10
1073.220077917603
 20
344.8453158587389
 30
0.0
 11
1073.220077917603
 21
342.2953158587389
 31
0.0
  0
LINE
  5
1AD
330
1F
100
AcDbEntity
  8
1
  6
Continuous
 62
     2
100
AcDbLine
 10
1072.470077917603
 20
344.8453158587389
 30
0.0
 11
1074.120077917603
 21
344.8453158587389
 31
0.0
  0
LINE
  5
1AE
330
1F
100
AcDbEntity
  8
1
  6
Continuous
 62
     2
100
AcDbLine
 10
1072.282577917603
 20
344.6578158587389
 30
0.0
 11
1072.020077917603
 21
344.3578158587389
 31
0.0
  0
LINE
  5
1AF
330
1F
100
AcDbEntity
  8
1
  6
Continuous
 62
     2
100
AcDbLine
 10
1072.545077917603
 20
345.0328158587389
 30
0.0
 11
1072.282577917603
 21
344.6578158587389
 31
0.0
  0
LINE
  5
1B0
330
1F
100
AcDbEntity
  8
1
  6
Continuous
 62
     2
100
AcDbLine
 10
1072.695077917603
 20
345.2953158587389
 30
0.0
 11
1072.545077917603
 21
345.0328158587389
 31
0.0
  0
LINE
  5
1B1
330
1F
100
AcDbEntity
  8
1
  6
Continuous
 62
     2
100
AcDbLine
 10
1069.020077917603
 20
342.5953158587389
 30
0.0
 11
1068.945077917603
 21
342.4828158587389
 31
0.0
  0
LINE
  5
1B2
330
1F
100
AcDbEntity
  8
1
  6
Continuous
 62
     2
100
AcDbLine
 10
1069.470077917603
 20
344.8453158587389
 30
0.0
 11
1069.207577917603
 21
345.2203158587389
 31
0.0
  0
LINE
  5
1B3
330
1F
100
AcDbEntity
  8
1
  6
Continuous
 62
     2
100
AcDbLine
 10
1069.957577917603
 20
344.7328158587389
 30
0.0
 11
1069.770077917603
 21
344.4703158587389
 31
0.0
  0
LINE
  5
1B4
330
1F
100
AcDbEntity
  8
1
  6
Continuous
 62
     2
100
AcDbLine
 10
1070.107577917603
 20
345.2203158587389
 30
0.0
 11
1069.957577917603
 21
344.7328158587389
 31
0.0
  0
LINE
  5
1B5
330
1F
100
AcDbEntity
  8
1
  6
Continuous
 62
     2
100
AcDbLine
 10
1071.195077917603
 20
344.7328158587389
 30
0.0
 11
1069.957577917603
 21
344.7328158587389
 31
0.0
  0
LINE
  5
1B6
330
1F
100
AcDbEntity
  8
1
  6
Continuous
 62
     2
100
AcDbLine
 10
1070.520077917603
 20
344.0953158587389
 30
0.0
 11
1070.520077917603
 21
345.2953158587389
 31
0.0
  0
LINE
  5
1B7
330
1F
100
AcDbEntity
  8
1
  6
Continuous
 62
     2
100
AcDbLine
 10
1071.382577917603
 20
344.0953158587389
 30
0.0
 11
1069.770077917603
 21
344.0953158587389
 31
0.0
  0
LINE
  5
1B8
330
1F
100
AcDbEntity
  8
1
  6
Continuous
 62
     2
100
AcDbLine
 10
1070.107577917603
 20
342.9703158587389
 30
0.0
 11
1071.045077917603
 21
342.9703158587389
 31
0.0
  0
LINE
  5
1B9
330
1F
100
AcDbEntity
  8
1
  6
Continuous
 62
     2
100
AcDbLine
 10
1070.107577917603
 20
343.7203158587389
 30
0.0
 11
1070.107577917603
 21
342.9703158587389
 31
0.0
  0
LINE
  5
1BA
330
1F
100
AcDbEntity
  8
1
  6
Continuous
 62
     2
100
AcDbLine
 10
1071.045077917603
 20
343.7203158587389
 30
0.0
 11
1070.107577917603
 21
343.7203158587389
 31
0.0
  0
LINE
  5
1BB
330
1F
100
AcDbEntity
  8
1
  6
Continuous
 62
     2
100
AcDbLine
 10
1071.045077917603
 20
342.9703158587389
 30
0.0
 11
1071.045077917603
 21
343.7203158587389
 31
0.0
  0
LINE
  5
1BC
330
1F
100
AcDbEntity
  8
1
  6
Continuous
 62
     2
100
AcDbLine
 10
1069.770077917603
 20
342.4828158587389
 30
0.0
 11
1071.457577917603
 21
342.4828158587389
 31
0.0
  0
LINE
  5
1BD
330
1F
100
AcDbEntity
  8
1
  6
Continuous
 62
     2
100
AcDbLine
 10
1069.620077917603
 20
342.5953158587389
 30
0.0
 11
1069.770077917603
 21
342.4828158587389
 31
0.0
  0
LINE
  5
1BE
330
1F
100
AcDbEntity
  8
1
  6
Continuous
 62
     2
100
AcDbLine
 10
1069.470077917603
 20
342.9703158587389
 30
0.0
 11
1069.620077917603
 21
342.5953158587389
 31
0.0
  0
LINE
  5
1BF
330
1F
100
AcDbEntity
  8
1
  6
Continuous
 62
     2
100
AcDbLine
 10
1069.470077917603
 20
343.9828158587389
 30
0.0
 11
1068.945077917603
 21
343.9828158587389
 31
0.0
  0
LINE
  5
1C0
330
1F
100
AcDbEntity
  8
1
  6
Continuous
 62
     2
100
AcDbLine
 10
1069.470077917603
 20
342.9703158587389
 30
0.0
 11
1069.470077917603
 21
343.9828158587389
 31
0.0
  0
LINE
  5
1C1
330
1F
100
AcDbEntity
  8
1
  6
Continuous
 62
     2
100
AcDbLine
 10
1069.020077917603
 20
342.5953158587389
 30
0.0
 11
1069.470077917603
 21
342.9703158587389
 31
0.0
  0
LINE
  5
1C2
330
1F
100
AcDbEntity
  8
1
  6
Continuous
 62
     2
100
AcDbLine
 10
1067.857577917603
 20
342.6703158587389
 30
0.0
 11
1067.707577917603
 21
343.1578158587389
 31
0.0
  0
LINE
  5
1C3
330
1F
100
AcDbEntity
  8
1
  6
Continuous
 62
     2
100
AcDbLine
 10
1068.195077917603
 20
342.2953158587389
 30
0.0
 11
1067.857577917603
 21
342.2953158587389
 31
0.0
  0
LINE
  5
1C4
330
1F
100
AcDbEntity
  8
1
  6
Continuous
 62
     2
100
AcDbLine
 10
1068.195077917603
 20
343.7953158587389
 30
0.0
 11
1068.195077917603
 21
342.2953158587389
 31
0.0
  0
LINE
  5
1C5
330
1F
100
AcDbEntity
  8
1
  6
Continuous
 62
     2
100
AcDbLine
 10
1068.382577917603
 20
344.3578158587389
 30
0.0
 11
1067.220077917603
 21
344.3578158587389
 31
0.0
  0
LINE
  5
1C6
330
1F
100
AcDbEntity
  8
1
  6
Continuous
 62
     2
100
AcDbLine
 10
1067.107577917603
 20
344.8453158587389
 30
0.0
 11
1068.382577917603
 21
344.8453158587389
 31
0.0
  0
LINE
  5
1C7
330
1F
100
AcDbEntity
  8
1
  6
Continuous
 62
     2
100
AcDbLine
 10
1067.632577917603
 20
343.9828158587389
 30
0.0
 11
1067.707577917603
 21
345.1078158587389
 31
0.0
  0
LINE
  5
1C8
330
1F
100
AcDbEntity
  8
1
  6
Continuous
 62
     2
100
AcDbLine
 10
1067.370077917603
 20
343.0453158587389
 30
0.0
 11
1067.632577917603
 21
343.9828158587389
 31
0.0
  0
LINE
  5
1C9
330
1F
100
AcDbEntity
  8
1
  6
Continuous
 62
     2
100
AcDbLine
 10
1067.032577917603
 20
342.4828158587389
 30
0.0
 11
1067.370077917603
 21
343.0453158587389
 31
0.0
  0
LINE
  5
1CA
330
1F
100
AcDbEntity
  8
1
  6
Continuous
 62
     2
100
AcDbLine
 10
1068.532577917603
 20
343.4203158587389
 30
0.0
 11
1067.107577917603
 21
343.4203158587389
 31
0.0
  0
LINE
  5
1CB
330
1F
100
AcDbEntity
  8
1
  6
Continuous
 62
     2
100
AcDbLine
 10
1067.032577917603
 20
343.9828158587389
 30
0.0
 11
1068.532577917603
 21
343.9828158587389
 31
0.0
  0
LINE
  5
1CC
330
1F
100
AcDbEntity
  8
1
  6
Continuous
 62
     2
100
AcDbLine
 10
1066.545077917603
 20
342.5953158587389
 30
0.0
 11
1066.545077917603
 21
344.0953158587389
 31
0.0
  0
LINE
  5
1CD
330
1F
100
AcDbEntity
  8
1
  6
Continuous
 62
     2
100
AcDbLine
 10
1066.132577917603
 20
343.3453158587389
 30
0.0
 11
1066.282577917603
 21
342.8578158587389
 31
0.0
  0
LINE
  5
1CE
330
1F
100
AcDbEntity
  8
1
  6
Continuous
 62
     2
100
AcDbLine
 10
1066.207577917603
 20
344.4703158587389
 30
0.0
 11
1065.870077917603
 21
343.7953158587389
 31
0.0
  0
LINE
  5
1CF
330
1F
100
AcDbEntity
  8
1
  6
Continuous
 62
     2
100
AcDbLine
 10
1066.545077917603
 20
345.1078158587389
 30
0.0
 11
1066.207577917603
 21
344.4703158587389
 31
0.0
  0
LINE
  5
1D0
330
1F
100
AcDbEntity
  8
1
  6
Continuous
 62
     2
100
AcDbLine
 10
1067.032577917603
 20
344.5453158587389
 30
0.0
 11
1066.545077917603
 21
345.1078158587389
 31
0.0
  0
LINE
  5
1D1
330
1F
100
AcDbEntity
  8
1
  6
Continuous
 62
     2
100
AcDbLine
 10
1066.207577917603
 20
344.0953158587389
 30
0.0
 11
1066.957577917603
 21
344.0953158587389
 31
0.0
  0
LINE
  5
1D2
330
1F
100
AcDbEntity
  8
1
  6
Continuous
 62
     2
100
AcDbLine
 10
1066.957577917603
 20
343.6078158587389
 30
0.0
 11
1066.132577917603
 21
343.6078158587389
 31
0.0
  0
LINE
  5
1D3
330
1F
100
AcDbEntity
  8
1
  6
Continuous
 62
     2
100
AcDbLine
 10
1066.770077917603
 20
342.8578158587389
 30
0.0
 11
1066.882577917603
 21
343.3453158587389
 31
0.0
  0
LINE
  5
1D4
330
1F
100
AcDbEntity
  8
1
  6
Continuous
 62
     2
100
AcDbLine
 10
1066.020077917603
 20
342.4078158587389
 30
0.0
 11
1066.957577917603
 21
342.7828158587389
 31
0.0
  0
LINE
  5
1D5
330
1F
100
AcDbEntity
  8
1
  6
Continuous
 62
     7
100
AcDbLine
 10
1121.745173558933
 20
352.4221545162089
 30
0.0
 11
1121.745173558933
 21
351.5471545162089
 31
0.0
  0
LINE
  5
1D6
330
1F
100
AcDbEntity
  8
1
  6
Continuous
 62
     7
100
AcDbLine
 10
1118.455173558933
 20
352.4221545162089
 30
0.0
 11
1121.745173558933
 21
352.4221545162089
 31
0.0
  0
LINE
  5
1D7
330
1F
100
AcDbEntity
  8
1
  6
Continuous
 62
     7
100
AcDbLine
 10
1118.455173558933
 20
354.6971545162089
 30
0.0
 11
1118.455173558933
 21
352.4221545162089
 31
0.0
  0
LINE
  5
1D8
330
1F
100
AcDbEntity
  8
1
  6
Continuous
 62
     7
100
AcDbLine
 10
1121.395173558933
 20
354.6971545162089
 30
0.0
 11
1118.455173558933
 21
354.6971545162089
 31
0.0
  0
LINE
  5
1D9
330
1F
100
AcDbEntity
  8
1
  6
Continuous
 62
     7
100
AcDbLine
 10
1121.395173558933
 20
355.5721545162089
 30
0.0
 11
1121.395173558933
 21
354.6971545162089
 31
0.0
  0
LINE
  5
1DA
330
1F
100
AcDbEntity
  8
1
  6
Continuous
 62
     7
100
AcDbLine
 10
1118.455173558933
 20
355.5721545162089
 30
0.0
 11
1121.395173558933
 21
355.5721545162089
 31
0.0
  0
LINE
  5
1DB
330
1F
100
AcDbEntity
  8
1
  6
Continuous
 62
     7
100
AcDbLine
 10
1118.455173558933
 20
357.6721545162089
 30
0.0
 11
1118.455173558933
 21
355.5721545162089
 31
0.0
  0
LINE
  5
1DC
330
1F
100
AcDbEntity
  8
1
  6
Continuous
 62
     7
100
AcDbLine
 10
1121.675173558933
 20
357.6721545162089
 30
0.0
 11
1118.455173558933
 21
357.6721545162089
 31
0.0
  0
LINE
  5
1DD
330
1F
100
AcDbEntity
  8
1
  6
Continuous
 62
     7
100
AcDbLine
 10
1121.675173558933
 20
358.5471545162089
 30
0.0
 11
1121.675173558933
 21
357.6721545162089
 31
0.0
  0
LINE
  5
1DE
330
1F
100
AcDbEntity
  8
1
  6
Continuous
 62
     7
100
AcDbLine
 10
1117.685173558933
 20
358.5471545162089
 30
0.0
 11
1121.675173558933
 21
358.5471545162089
 31
0.0
  0
LINE
  5
1DF
330
1F
100
AcDbEntity
  8
1
  6
Continuous
 62
     7
100
AcDbLine
 10
1117.685173558933
 20
351.5471545162089
 30
0.0
 11
1117.685173558933
 21
358.5471545162089
 31
0.0
  0
LINE
  5
1E0
330
1F
100
AcDbEntity
  8
1
  6
Continuous
 62
     7
100
AcDbLine
 10
1121.745173558933
 20
351.5471545162089
 30
0.0
 11
1117.685173558933
 21
351.5471545162089
 31
0.0
  0
LINE
  5
1E1
330
1F
100
AcDbEntity
  8
1
  6
Continuous
 62
     2
100
AcDbLine
 10
1052.581996385864
 20
393.636164173548
 30
0.0
 11
1052.581996385864
 21
392.436164173548
 31
0.0
  0
LINE
  5
1E2
330
1F
100
AcDbEntity
  8
1
  6
Continuous
 62
     2
100
AcDbLine
 10
1051.231996385864
 20
393.036164173548
 30
0.0
 11
1053.031996385864
 21
393.036164173548
 31
0.0
  0
LINE
  5
1E3
330
1F
100
AcDbEntity
  8
1
  6
Continuous
 62
     2
100
AcDbLine
 10
1052.581996385864
 20
395.436164173548
 30
0.0
 11
1051.231996385864
 21
393.036164173548
 31
0.0
  0
LINE
  5
1E4
330
1F
100
AcDbEntity
  8
1
  6
Continuous
 62
     2
100
AcDbLine
 10
1050.331996385864
 20
395.436164173548
 30
0.0
 11
1050.331996385864
 21
392.436164173548
 31
0.0
  0
LINE
  5
1E5
330
1F
100
AcDbEntity
  8
1
  6
Continuous
 62
     2
100
AcDbLine
 10
1049.431996385864
 20
394.536164173548
 30
0.0
 11
1050.331996385864
 21
395.436164173548
 31
0.0
  0
LINE
  5
1E6
330
1F
100
AcDbEntity
  8
1
  6
Continuous
 62
     2
100
AcDbLine
 10
1047.781996385864
 20
395.248664173548
 30
0.0
 11
1047.781996385864
 21
392.623664173548
 31
0.0
  0
LINE
  5
1E7
330
1F
100
AcDbEntity
  8
1
  6
Continuous
 62
     2
100
AcDbLine
 10
1048.831996385864
 20
392.623664173548
 30
0.0
 11
1048.831996385864
 21
394.611164173548
 31
0.0
  0
LINE
  5
1E8
330
1F
100
AcDbEntity
  8
1
  6
Continuous
 62
     2
100
AcDbLine
 10
1046.694496385864
 20
392.623664173548
 30
0.0
 11
1048.831996385864
 21
392.623664173548
 31
0.0
  0
LINE
  5
1E9
330
1F
100
AcDbEntity
  8
1
  6
Continuous
 62
     2
100
AcDbLine
 10
1046.694496385864
 20
394.611164173548
 30
0.0
 11
1046.694496385864
 21
392.623664173548
 31
0.0
  0
LINE
  5
1EA
330
1F
100
AcDbEntity
  8
1
  6
Continuous
 62
     2
100
AcDbLine
 10
1036.831996385864
 20
395.211164173548
 30
0.0
 11
1037.056996385864
 21
395.361164173548
 31
0.0
  0
LINE
  5
1EB
330
1F
100
AcDbEntity
  8
1
  6
Continuous
 62
     2
100
AcDbLine
 10
1036.681996385864
 20
394.986164173548
 30
0.0
 11
1036.831996385864
 21
395.211164173548
 31
0.0
  0
LINE
  5
1EC
330
1F
100
AcDbEntity
  8
1
  6
Continuous
 62
     2
100
AcDbLine
 10
1036.681996385864
 20
394.686164173548
 30
0.0
 11
1036.681996385864
 21
394.986164173548
 31
0.0
  0
LINE
  5
1ED
330
1F
100
AcDbEntity
  8
1
  6
Continuous
 62
     2
100
AcDbLine
 10
1036.831996385864
 20
394.461164173548
 30
0.0
 11
1036.681996385864
 21
394.686164173548
 31
0.0
  0
LINE
  5
1EE
330
1F
100
AcDbEntity
  8
1
  6
Continuous
 62
     2
100
AcDbLine
 10
1037.056996385864
 20
394.311164173548
 30
0.0
 11
1036.831996385864
 21
394.461164173548
 31
0.0
  0
LINE
  5
1EF
330
1F
100
AcDbEntity
  8
1
  6
Continuous
 62
     2
100
AcDbLine
 10
1037.281996385864
 20
394.236164173548
 30
0.0
 11
1037.056996385864
 21
394.311164173548
 31
0.0
  0
LINE
  5
1F0
330
1F
100
AcDbEntity
  8
1
  6
Continuous
 62
     2
100
AcDbLine
 10
1037.581996385864
 20
394.236164173548
 30
0.0
 11
1037.281996385864
 21
394.236164173548
 31
0.0
  0
LINE
  5
1F1
330
1F
100
AcDbEntity
  8
1
  6
Continuous
 62
     2
100
AcDbLine
 10
1037.806996385864
 20
394.311164173548
 30
0.0
 11
1037.581996385864
 21
394.236164173548
 31
0.0
  0
LINE
  5
1F2
330
1F
100
AcDbEntity
  8
1
  6
Continuous
 62
     2
100
AcDbLine
 10
1038.031996385864
 20
394.461164173548
 30
0.0
 11
1037.806996385864
 21
394.311164173548
 31
0.0
  0
LINE
  5
1F3
330
1F
100
AcDbEntity
  8
1
  6
Continuous
 62
     2
100
AcDbLine
 10
1038.181996385864
 20
394.686164173548
 30
0.0
 11
1038.031996385864
 21
394.461164173548
 31
0.0
  0
LINE
  5
1F4
330
1F
100
AcDbEntity
  8
1
  6
Continuous
 62
     2
100
AcDbLine
 10
1038.181996385864
 20
394.986164173548
 30
0.0
 11
1038.181996385864
 21
394.686164173548
 31
0.0
  0
LINE
  5
1F5
330
1F
100
AcDbEntity
  8
1
  6
Continuous
 62
     2
100
AcDbLine
 10
1038.031996385864
 20
395.211164173548
 30
0.0
 11
1038.181996385864
 21
394.986164173548
 31
0.0
  0
LINE
  5
1F6
330
1F
100
AcDbEntity
  8
1
  6
Continuous
 62
     2
100
AcDbLine
 10
1037.806996385864
 20
395.361164173548
 30
0.0
 11
1038.031996385864
 21
395.211164173548
 31
0.0
  0
LINE
  5
1F7
330
1F
100
AcDbEntity
  8
1
  6
Continuous
 62
     2
100
AcDbLine
 10
1037.581996385864
 20
395.436164173548
 30
0.0
 11
1037.806996385864
 21
395.361164173548
 31
0.0
  0
LINE
  5
1F8
330
1F
100
AcDbEntity
  8
1
  6
Continuous
 62
     2
100
AcDbLine
 10
1037.281996385864
 20
395.436164173548
 30
0.0
 11
1037.581996385864
 21
395.436164173548
 31
0.0
  0
LINE
  5
1F9
330
1F
100
AcDbEntity
  8
1
  6
Continuous
 62
     2
100
AcDbLine
 10
1037.056996385864
 20
395.361164173548
 30
0.0
 11
1037.281996385864
 21
395.436164173548
 31
0.0
  0
LINE
  5
1FA
330
1F
100
AcDbEntity
  8
1
  6
Continuous
 62
     2
100
AcDbLine
 10
1037.956996385864
 20
394.086164173548
 30
0.0
 11
1037.581996385864
 21
394.236164173548
 31
0.0
  0
LINE
  5
1FB
330
1F
100
AcDbEntity
  8
1
  6
Continuous
 62
     2
100
AcDbLine
 10
1038.181996385864
 20
393.861164173548
 30
0.0
 11
1037.956996385864
 21
394.086164173548
 31
0.0
  0
LINE
  5
1FC
330
1F
100
AcDbEntity
  8
1
  6
Continuous
 62
     2
100
AcDbLine
 10
1038.331996385864
 20
393.561164173548
 30
0.0
 11
1038.181996385864
 21
393.861164173548
 31
0.0
  0
LINE
  5
1FD
330
1F
100
AcDbEntity
  8
1
  6
Continuous
 62
     2
100
AcDbLine
 10
1038.331996385864
 20
393.111164173548
 30
0.0
 11
1038.331996385864
 21
393.561164173548
 31
0.0
  0
LINE
  5
1FE
330
1F
100
AcDbEntity
  8
1
  6
Continuous
 62
     2
100
AcDbLine
 10
1038.181996385864
 20
392.811164173548
 30
0.0
 11
1038.331996385864
 21
393.111164173548
 31
0.0
  0
LINE
  5
1FF
330
1F
100
AcDbEntity
  8
1
  6
Continuous
 62
     2
100
AcDbLine
 10
1037.956996385864
 20
392.586164173548
 30
0.0
 11
1038.181996385864
 21
392.811164173548
 31
0.0
  0
LINE
  5
200
330
1F
100
AcDbEntity
  8
1
  6
Continuous
 62
     2
100
AcDbLine
 10
1037.656996385864
 20
392.436164173548
 30
0.0
 11
1037.956996385864
 21
392.586164173548
 31
0.0
  0
LINE
  5
201
330
1F
100
AcDbEntity
  8
1
  6
Continuous
 62
     2
100
AcDbLine
 10
1037.206996385864
 20
392.436164173548
 30
0.0
 11
1037.656996385864
 21
392.436164173548
 31
0.0
  0
LINE
  5
202
330
1F
100
AcDbEntity
  8
1
  6
Continuous
 62
     2
100
AcDbLine
 10
1036.906996385864
 20
392.586164173548
 30
0.0
 11
1037.206996385864
 21
392.436164173548
 31
0.0
  0
LINE
  5
203
330
1F
100
AcDbEntity
  8
1
  6
Continuous
 62
     2
100
AcDbLine
 10
1036.681996385864
 20
392.811164173548
 30
0.0
 11
1036.906996385864
 21
392.586164173548
 31
0.0
  0
LINE
  5
204
330
1F
100
AcDbEntity
  8
1
  6
Continuous
 62
     2
100
AcDbLine
 10
1036.531996385864
 20
393.111164173548
 30
0.0
 11
1036.681996385864
 21
392.811164173548
 31
0.0
  0
LINE
  5
205
330
1F
100
AcDbEntity
  8
1
  6
Continuous
 62
     2
100
AcDbLine
 10
1036.531996385864
 20
393.561164173548
 30
0.0
 11
1036.531996385864
 21
393.111164173548
 31
0.0
  0
LINE
  5
206
330
1F
100
AcDbEntity
  8
1
  6
Continuous
 62
     2
100
AcDbLine
 10
1036.681996385864
 20
393.861164173548
 30
0.0
 11
1036.531996385864
 21
393.561164173548
 31
0.0
  0
LINE
  5
207
330
1F
100
AcDbEntity
  8
1
  6
Continuous
 62
     2
100
AcDbLine
 10
1036.906996385864
 20
394.086164173548
 30
0.0
 11
1036.681996385864
 21
393.861164173548
 31
0.0
  0
LINE
  5
208
330
1F
100
AcDbEntity
  8
1
  6
Continuous
 62
     2
100
AcDbLine
 10
1037.281996385864
 20
394.236164173548
 30
0.0
 11
1036.906996385864
 21
394.086164173548
 31
0.0
  0
LINE
  5
209
330
1F
100
AcDbEntity
  8
1
  6
Continuous
 62
     2
100
AcDbLine
 10
1035.706996385864
 20
392.586164173548
 30
0.0
 11
1035.706996385864
 21
392.511164173548
 31
0.0
  0
LINE
  5
20A
330
1F
100
AcDbEntity
  8
1
  6
Continuous
 62
     2
100
AcDbLine
 10
1035.631996385864
 20
392.586164173548
 30
0.0
 11
1035.706996385864
 21
392.586164173548
 31
0.0
  0
LINE
  5
20B
330
1F
100
AcDbEntity
  8
1
  6
Continuous
 62
     2
100
AcDbLine
 10
1035.631996385864
 20
392.511164173548
 30
0.0
 11
1035.631996385864
 21
392.586164173548
 31
0.0
  0
LINE
  5
20C
330
1F
100
AcDbEntity
  8
1
  6
Continuous
 62
     2
100
AcDbLine
 10
1035.706996385864
 20
392.511164173548
 30
0.0
 11
1035.631996385864
 21
392.511164173548
 31
0.0
  0
LINE
  5
20D
330
1F
100
AcDbEntity
  8
1
  6
Continuous
 62
     2
100
AcDbLine
 10
1035.781996385864
 20
392.661164173548
 30
0.0
 11
1035.781996385864
 21
392.436164173548
 31
0.0
  0
LINE
  5
20E
330
1F
100
AcDbEntity
  8
1
  6
Continuous
 62
     2
100
AcDbLine
 10
1035.556996385864
 20
392.661164173548
 30
0.0
 11
1035.781996385864
 21
392.661164173548
 31
0.0
  0
LINE
  5
20F
330
1F
100
AcDbEntity
  8
1
  6
Continuous
 62
     2
100
AcDbLine
 10
1035.556996385864
 20
392.436164173548
 30
0.0
 11
1035.556996385864
 21
392.661164173548
 31
0.0
  0
LINE
  5
210
330
1F
100
AcDbEntity
  8
1
  6
Continuous
 62
     2
100
AcDbLine
 10
1035.781996385864
 20
392.436164173548
 30
0.0
 11
1035.556996385864
 21
392.436164173548
 31
0.0
  0
LINE
  5
211
330
1F
100
AcDbEntity
  8
1
  6
Continuous
 62
     2
100
AcDbLine
 10
1033.981996385864
 20
392.436164173548
 30
0.0
 11
1032.856996385864
 21
392.436164173548
 31
0.0
  0
LINE
  5
212
330
1F
100
AcDbEntity
  8
1
  6
Continuous
 62
     2
100
AcDbLine
 10
1034.206996385864
 20
392.511164173548
 30
0.0
 11
1033.981996385864
 21
392.436164173548
 31
0.0
  0
LINE
  5
213
330
1F
100
AcDbEntity
  8
1
  6
Continuous
 62
     2
100
AcDbLine
 10
1034.431996385864
 20
392.661164173548
 30
0.0
 11
1034.206996385864
 21
392.511164173548
 31
0.0
  0
LINE
  5
214
330
1F
100
AcDbEntity
  8
1
  6
Continuous
 62
     2
100
AcDbLine
 10
1034.581996385864
 20
392.886164173548
 30
0.0
 11
1034.431996385864
 21
392.661164173548
 31
0.0
  0
LINE
  5
215
330
1F
100
AcDbEntity
  8
1
  6
Continuous
 62
     2
100
AcDbLine
 10
1034.656996385864
 20
393.186164173548
 30
0.0
 11
1034.581996385864
 21
392.886164173548
 31
0.0
  0
LINE
  5
216
330
1F
100
AcDbEntity
  8
1
  6
Continuous
 62
     2
100
AcDbLine
 10
1034.656996385864
 20
393.636164173548
 30
0.0
 11
1034.656996385864
 21
393.186164173548
 31
0.0
  0
LINE
  5
217
330
1F
100
AcDbEntity
  8
1
  6
Continuous
 62
     2
100
AcDbLine
 10
1034.581996385864
 20
393.936164173548
 30
0.0
 11
1034.656996385864
 21
393.636164173548
 31
0.0
  0
LINE
  5
218
330
1F
100
AcDbEntity
  8
1
  6
Continuous
 62
     2
100
AcDbLine
 10
1034.356996385864
 20
394.161164173548
 30
0.0
 11
1034.581996385864
 21
393.936164173548
 31
0.0
  0
LINE
  5
219
330
1F
100
AcDbEntity
  8
1
  6
Continuous
 62
     2
100
AcDbLine
 10
1033.981996385864
 20
394.236164173548
 30
0.0
 11
1034.356996385864
 21
394.161164173548
 31
0.0
  0
LINE
  5
21A
330
1F
100
AcDbEntity
  8
1
  6
Continuous
 62
     2
100
AcDbLine
 10
1032.856996385864
 20
394.236164173548
 30
0.0
 11
1033.981996385864
 21
394.236164173548
 31
0.0
  0
LINE
  5
21B
330
1F
100
AcDbEntity
  8
1
  6
Continuous
 62
     2
100
AcDbLine
 10
1032.856996385864
 20
395.436164173548
 30
0.0
 11
1032.856996385864
 21
394.236164173548
 31
0.0
  0
LINE
  5
21C
330
1F
100
AcDbEntity
  8
1
  6
Continuous
 62
     2
100
AcDbLine
 10
1034.506996385864
 20
395.436164173548
 30
0.0
 11
1032.856996385864
 21
395.436164173548
 31
0.0
  0
LINE
  5
21D
330
1F
100
AcDbEntity
  8
1
  6
Continuous
 62
     2
100
AcDbLine
 10
1030.156996385864
 20
392.436164173548
 30
0.0
 11
1031.956996385864
 21
392.436164173548
 31
0.0
  0
LINE
  5
21E
330
1F
100
AcDbEntity
  8
1
  6
Continuous
 62
     2
100
AcDbLine
 10
1031.806996385864
 20
394.386164173548
 30
0.0
 11
1030.156996385864
 21
392.436164173548
 31
0.0
  0
LINE
  5
21F
330
1F
100
AcDbEntity
  8
1
  6
Continuous
 62
     2
100
AcDbLine
 10
1031.956996385864
 20
394.686164173548
 30
0.0
 11
1031.806996385864
 21
394.386164173548
 31
0.0
  0
LINE
  5
220
330
1F
100
AcDbEntity
  8
1
  6
Continuous
 62
     2
100
AcDbLine
 10
1031.956996385864
 20
394.986164173548
 30
0.0
 11
1031.956996385864
 21
394.686164173548
 31
0.0
  0
LINE
  5
221
330
1F
100
AcDbEntity
  8
1
  6
Continuous
 62
     2
100
AcDbLine
 10
1031.806996385864
 20
395.211164173548
 30
0.0
 11
1031.956996385864
 21
394.986164173548
 31
0.0
  0
LINE
  5
222
330
1F
100
AcDbEntity
  8
1
  6
Continuous
 62
     2
100
AcDbLine
 10
1031.581996385864
 20
395.361164173548
 30
0.0
 11
1031.806996385864
 21
395.211164173548
 31
0.0
  0
LINE
  5
223
330
1F
100
AcDbEntity
  8
1
  6
Continuous
 62
     2
100
AcDbLine
 10
1031.281996385864
 20
395.436164173548
 30
0.0
 11
1031.581996385864
 21
395.361164173548
 31
0.0
  0
LINE
  5
224
330
1F
100
AcDbEntity
  8
1
  6
Continuous
 62
     2
100
AcDbLine
 10
1030.831996385864
 20
395.436164173548
 30
0.0
 11
1031.281996385864
 21
395.436164173548
 31
0.0
  0
LINE
  5
225
330
1F
100
AcDbEntity
  8
1
  6
Continuous
 62
     2
100
AcDbLine
 10
1030.531996385864
 20
395.361164173548
 30
0.0
 11
1030.831996385864
 21
395.436164173548
 31
0.0
  0
LINE
  5
226
330
1F
100
AcDbEntity
  8
1
  6
Continuous
 62
     2
100
AcDbLine
 10
1030.306996385864
 20
395.211164173548
 30
0.0
 11
1030.531996385864
 21
395.361164173548
 31
0.0
  0
LINE
  5
227
330
1F
100
AcDbEntity
  8
1
  6
Continuous
 62
     2
100
AcDbLine
 10
1030.156996385864
 20
394.986164173548
 30
0.0
 11
1030.306996385864
 21
395.211164173548
 31
0.0
  0
LINE
  5
228
330
1F
100
AcDbEntity
  8
1
  6
Continuous
 62
     2
100
AcDbLine
 10
1026.331996385864
 20
394.798664173548
 30
0.0
 11
1027.156996385864
 21
394.798664173548
 31
0.0
  0
LINE
  5
229
330
1F
100
AcDbEntity
  8
1
  6
Continuous
 62
     2
100
AcDbLine
 10
1026.331996385864
 20
394.311164173548
 30
0.0
 11
1027.156996385864
 21
394.311164173548
 31
0.0
  0
LINE
  5
22A
330
1F
100
AcDbEntity
  8
1
  6
Continuous
 62
     2
100
AcDbLine
 10
1026.331996385864
 20
395.248664173548
 30
0.0
 11
1026.331996385864
 21
394.311164173548
 31
0.0
  0
LINE
  5
22B
330
1F
100
AcDbEntity
  8
1
  6
Continuous
 62
     2
100
AcDbLine
 10
1027.156996385864
 20
395.248664173548
 30
0.0
 11
1026.331996385864
 21
395.248664173548
 31
0.0
  0
LINE
  5
22C
330
1F
100
AcDbEntity
  8
1
  6
Continuous
 62
     2
100
AcDbLine
 10
1027.156996385864
 20
392.623664173548
 30
0.0
 11
1027.156996385864
 21
395.248664173548
 31
0.0
  0
LINE
  5
22D
330
1F
100
AcDbEntity
  8
1
  6
Continuous
 62
     2
100
AcDbLine
 10
1027.081996385864
 20
392.548664173548
 30
0.0
 11
1027.156996385864
 21
392.623664173548
 31
0.0
  0
LINE
  5
22E
330
1F
100
AcDbEntity
  8
1
  6
Continuous
 62
     2
100
AcDbLine
 10
1026.856996385864
 20
392.548664173548
 30
0.0
 11
1027.081996385864
 21
392.548664173548
 31
0.0
  0
LINE
  5
22F
330
1F
100
AcDbEntity
  8
1
  6
Continuous
 62
     2
100
AcDbLine
 10
1025.844496385864
 20
394.798664173548
 30
0.0
 11
1025.019496385864
 21
394.798664173548
 31
0.0
  0
LINE
  5
230
330
1F
100
AcDbEntity
  8
1
  6
Continuous
 62
     2
100
AcDbLine
 10
1025.844496385864
 20
394.311164173548
 30
0.0
 11
1025.019496385864
 21
394.311164173548
 31
0.0
  0
LINE
  5
231
330
1F
100
AcDbEntity
  8
1
  6
Continuous
 62
     2
100
AcDbLine
 10
1025.844496385864
 20
395.248664173548
 30
0.0
 11
1025.844496385864
 21
394.311164173548
 31
0.0
  0
LINE
  5
232
330
1F
100
AcDbEntity
  8
1
  6
Continuous
 62
     2
100
AcDbLine
 10
1025.019496385864
 20
395.248664173548
 30
0.0
 11
1025.844496385864
 21
395.248664173548
 31
0.0
  0
LINE
  5
233
330
1F
100
AcDbEntity
  8
1
  6
Continuous
 62
     2
100
AcDbLine
 10
1025.019496385864
 20
392.548664173548
 30
0.0
 11
1025.019496385864
 21
395.248664173548
 31
0.0
  0
LINE
  5
234
330
1F
100
AcDbEntity
  8
1
  6
Continuous
 62
     2
100
AcDbLine
 10
1024.081996385864
 20
394.236164173548
 30
0.0
 11
1024.419496385864
 21
393.936164173548
 31
0.0
  0
LINE
  5
235
330
1F
100
AcDbEntity
  8
1
  6
Continuous
 62
     2
100
AcDbLine
 10
1023.519496385864
 20
394.873664173548
 30
0.0
 11
1024.081996385864
 21
394.236164173548
 31
0.0
  0
LINE
  5
236
330
1F
100
AcDbEntity
  8
1
  6
Continuous
 62
     2
100
AcDbLine
 10
1023.106996385864
 20
395.436164173548
 30
0.0
 11
1023.519496385864
 21
394.873664173548
 31
0.0
  0
LINE
  5
237
330
1F
100
AcDbEntity
  8
1
  6
Continuous
 62
     2
100
AcDbLine
 10
1022.656996385864
 20
394.873664173548
 30
0.0
 11
1023.106996385864
 21
395.436164173548
 31
0.0
  0
LINE
  5
238
330
1F
100
AcDbEntity
  8
1
  6
Continuous
 62
     2
100
AcDbLine
 10
1022.094496385864
 20
394.236164173548
 30
0.0
 11
1022.656996385864
 21
394.873664173548
 31
0.0
  0
LINE
  5
239
330
1F
100
AcDbEntity
  8
1
  6
Continuous
 62
     2
100
AcDbLine
 10
1021.756996385864
 20
393.936164173548
 30
0.0
 11
1022.094496385864
 21
394.236164173548
 31
0.0
  0
LINE
  5
23A
330
1F
100
AcDbEntity
  8
1
  6
Continuous
 62
     2
100
AcDbLine
 10
1023.519496385864
 20
392.923664173548
 30
0.0
 11
1023.669496385864
 21
393.373664173548
 31
0.0
  0
LINE
  5
23B
330
1F
100
AcDbEntity
  8
1
  6
Continuous
 62
     2
100
AcDbLine
 10
1022.506996385864
 20
393.373664173548
 30
0.0
 11
1022.656996385864
 21
392.923664173548
 31
0.0
  0
LINE
  5
23C
330
1F
100
AcDbEntity
  8
1
  6
Continuous
 62
     2
100
AcDbLine
 10
1023.931996385864
 20
393.748664173548
 30
0.0
 11
1022.244496385864
 21
393.748664173548
 31
0.0
  0
LINE
  5
23D
330
1F
100
AcDbEntity
  8
1
  6
Continuous
 62
     2
100
AcDbLine
 10
1022.506996385864
 20
394.311164173548
 30
0.0
 11
1023.669496385864
 21
394.311164173548
 31
0.0
  0
LINE
  5
23E
330
1F
100
AcDbEntity
  8
1
  6
Continuous
 62
     2
100
AcDbLine
 10
1023.106996385864
 20
392.548664173548
 30
0.0
 11
1023.106996385864
 21
394.311164173548
 31
0.0
  0
LINE
  5
23F
330
1F
100
AcDbEntity
  8
1
  6
Continuous
 62
     2
100
AcDbLine
 10
1022.019496385864
 20
392.548664173548
 30
0.0
 11
1024.081996385864
 21
392.548664173548
 31
0.0
  0
LINE
  5
240
330
1F
100
AcDbEntity
  8
1
  6
Continuous
 62
     2
100
AcDbLine
 10
1052.431996385864
 20
398.636164173548
 30
0.0
 11
1052.431996385864
 21
397.436164173548
 31
0.0
  0
LINE
  5
241
330
1F
100
AcDbEntity
  8
1
  6
Continuous
 62
     2
100
AcDbLine
 10
1051.081996385864
 20
398.036164173548
 30
0.0
 11
1052.881996385864
 21
398.036164173548
 31
0.0
  0
LINE
  5
242
330
1F
100
AcDbEntity
  8
1
  6
Continuous
 62
     2
100
AcDbLine
 10
1052.431996385864
 20
400.436164173548
 30
0.0
 11
1051.081996385864
 21
398.036164173548
 31
0.0
  0
LINE
  5
243
330
1F
100
AcDbEntity
  8
1
  6
Continuous
 62
     2
100
AcDbLine
 10
1050.181996385864
 20
400.436164173548
 30
0.0
 11
1050.181996385864
 21
397.436164173548
 31
0.0
  0
LINE
  5
244
330
1F
100
AcDbEntity
  8
1
  6
Continuous
 62
     2
100
AcDbLine
 10
1049.281996385864
 20
399.536164173548
 30
0.0
 11
1050.181996385864
 21
400.436164173548
 31
0.0
  0
LINE
  5
245
330
1F
100
AcDbEntity
  8
1
  6
Continuous
 62
     2
100
AcDbLine
 10
1047.631996385864
 20
400.248664173548
 30
0.0
 11
1047.631996385864
 21
397.623664173548
 31
0.0
  0
LINE
  5
246
330
1F
100
AcDbEntity
  8
1
  6
Continuous
 62
     2
100
AcDbLine
 10
1048.681996385864
 20
397.623664173548
 30
0.0
 11
1048.681996385864
 21
399.611164173548
 31
0.0
  0
LINE
  5
247
330
1F
100
AcDbEntity
  8
1
  6
Continuous
 62
     2
100
AcDbLine
 10
1046.544496385864
 20
397.623664173548
 30
0.0
 11
1048.681996385864
 21
397.623664173548
 31
0.0
  0
LINE
  5
248
330
1F
100
AcDbEntity
  8
1
  6
Continuous
 62
     2
100
AcDbLine
 10
1046.544496385864
 20
399.611164173548
 30
0.0
 11
1046.544496385864
 21
397.623664173548
 31
0.0
  0
LINE
  5
249
330
1F
100
AcDbEntity
  8
1
  6
Continuous
 62
     2
100
AcDbLine
 10
1042.981996385864
 20
400.436164173548
 30
0.0
 11
1042.981996385864
 21
397.436164173548
 31
0.0
  0
LINE
  5
24A
330
1F
100
AcDbEntity
  8
1
  6
Continuous
 62
     2
100
AcDbLine
 10
1042.081996385864
 20
399.536164173548
 30
0.0
 11
1042.981996385864
 21
400.436164173548
 31
0.0
  0
LINE
  5
24B
330
1F
100
AcDbEntity
  8
1
  6
Continuous
 62
     2
100
AcDbLine
 10
1040.731996385864
 20
398.636164173548
 30
0.0
 11
1040.731996385864
 21
397.436164173548
 31
0.0
  0
LINE
  5
24C
330
1F
100
AcDbEntity
  8
1
  6
Continuous
 62
     2
100
AcDbLine
 10
1039.381996385864
 20
398.036164173548
 30
0.0
 11
1041.181996385864
 21
398.036164173548
 31
0.0
  0
LINE
  5
24D
330
1F
100
AcDbEntity
  8
1
  6
Continuous
 62
     2
100
AcDbLine
 10
1040.731996385864
 20
400.436164173548
 30
0.0
 11
1039.381996385864
 21
398.036164173548
 31
0.0
  0
LINE
  5
24E
330
1F
100
AcDbEntity
  8
1
  6
Continuous
 62
     2
100
AcDbLine
 10
1038.031996385864
 20
398.636164173548
 30
0.0
 11
1038.031996385864
 21
397.436164173548
 31
0.0
  0
LINE
  5
24F
330
1F
100
AcDbEntity
  8
1
  6
Continuous
 62
     2
100
AcDbLine
 10
1036.681996385864
 20
398.036164173548
 30
0.0
 11
1038.481996385864
 21
398.036164173548
 31
0.0
  0
LINE
  5
250
330
1F
100
AcDbEntity
  8
1
  6
Continuous
 62
     2
100
AcDbLine
 10
1038.031996385864
 20
400.436164173548
 30
0.0
 11
1036.681996385864
 21
398.036164173548
 31
0.0
  0
LINE
  5
251
330
1F
100
AcDbEntity
  8
1
  6
Continuous
 62
     2
100
AcDbLine
 10
1035.856996385864
 20
397.586164173548
 30
0.0
 11
1035.856996385864
 21
397.511164173548
 31
0.0
  0
LINE
  5
252
330
1F
100
AcDbEntity
  8
1
  6
Continuous
 62
     2
100
AcDbLine
 10
1035.781996385864
 20
397.586164173548
 30
0.0
 11
1035.856996385864
 21
397.586164173548
 31
0.0
  0
LINE
  5
253
330
1F
100
AcDbEntity
  8
1
  6
Continuous
 62
     2
100
AcDbLine
 10
1035.781996385864
 20
397.511164173548
 30
0.0
 11
1035.781996385864
 21
397.586164173548
 31
0.0
  0
LINE
  5
254
330
1F
100
AcDbEntity
  8
1
  6
Continuous
 62
     2
100
AcDbLine
 10
1035.856996385864
 20
397.511164173548
 30
0.0
 11
1035.781996385864
 21
397.511164173548
 31
0.0
  0
LINE
  5
255
330
1F
100
AcDbEntity
  8
1
  6
Continuous
 62
     2
100
AcDbLine
 10
1035.931996385864
 20
397.661164173548
 30
0.0
 11
1035.931996385864
 21
397.436164173548
 31
0.0
  0
LINE
  5
256
330
1F
100
AcDbEntity
  8
1
  6
Continuous
 62
     2
100
AcDbLine
 10
1035.706996385864
 20
397.661164173548
 30
0.0
 11
1035.931996385864
 21
397.661164173548
 31
0.0
  0
LINE
  5
257
330
1F
100
AcDbEntity
  8
1
  6
Continuous
 62
     2
100
AcDbLine
 10
1035.706996385864
 20
397.436164173548
 30
0.0
 11
1035.706996385864
 21
397.661164173548
 31
0.0
  0
LINE
  5
258
330
1F
100
AcDbEntity
  8
1
  6
Continuous
 62
     2
100
AcDbLine
 10
1035.931996385864
 20
397.436164173548
 30
0.0
 11
1035.706996385864
 21
397.436164173548
 31
0.0
  0
LINE
  5
259
330
1F
100
AcDbEntity
  8
1
  6
Continuous
 62
     2
100
AcDbLine
 10
1033.531996385864
 20
399.761164173548
 30
0.0
 11
1034.356996385864
 21
400.436164173548
 31
0.0
  0
LINE
  5
25A
330
1F
100
AcDbEntity
  8
1
  6
Continuous
 62
     2
100
AcDbLine
 10
1033.231996385864
 20
399.386164173548
 30
0.0
 11
1033.531996385864
 21
399.761164173548
 31
0.0
  0
LINE
  5
25B
330
1F
100
AcDbEntity
  8
1
  6
Continuous
 62
     2
100
AcDbLine
 10
1033.081996385864
 20
399.086164173548
 30
0.0
 11
1033.231996385864
 21
399.386164173548
 31
0.0
  0
LINE
  5
25C
330
1F
100
AcDbEntity
  8
1
  6
Continuous
 62
     2
100
AcDbLine
 10
1033.006996385864
 20
398.486164173548
 30
0.0
 11
1033.081996385864
 21
399.086164173548
 31
0.0
  0
LINE
  5
25D
330
1F
100
AcDbEntity
  8
1
  6
Continuous
 62
     2
100
AcDbLine
 10
1033.006996385864
 20
398.186164173548
 30
0.0
 11
1033.006996385864
 21
398.486164173548
 31
0.0
  0
LINE
  5
25E
330
1F
100
AcDbEntity
  8
1
  6
Continuous
 62
     2
100
AcDbLine
 10
1033.081996385864
 20
397.886164173548
 30
0.0
 11
1033.006996385864
 21
398.186164173548
 31
0.0
  0
LINE
  5
25F
330
1F
100
AcDbEntity
  8
1
  6
Continuous
 62
     2
100
AcDbLine
 10
1033.231996385864
 20
397.661164173548
 30
0.0
 11
1033.081996385864
 21
397.886164173548
 31
0.0
  0
LINE
  5
260
330
1F
100
AcDbEntity
  8
1
  6
Continuous
 62
     2
100
AcDbLine
 10
1033.456996385864
 20
397.511164173548
 30
0.0
 11
1033.231996385864
 21
397.661164173548
 31
0.0
  0
LINE
  5
261
330
1F
100
AcDbEntity
  8
1
  6
Continuous
 62
     2
100
AcDbLine
 10
1033.681996385864
 20
397.436164173548
 30
0.0
 11
1033.456996385864
 21
397.511164173548
 31
0.0
  0
LINE
  5
262
330
1F
100
AcDbEntity
  8
1
  6
Continuous
 62
     2
100
AcDbLine
 10
1034.131996385864
 20
397.436164173548
 30
0.0
 11
1033.681996385864
 21
397.436164173548
 31
0.0
  0
LINE
  5
263
330
1F
100
AcDbEntity
  8
1
  6
Continuous
 62
     2
100
AcDbLine
 10
1034.356996385864
 20
397.511164173548
 30
0.0
 11
1034.131996385864
 21
397.436164173548
 31
0.0
  0
LINE
  5
264
330
1F
100
AcDbEntity
  8
1
  6
Continuous
 62
     2
100
AcDbLine
 10
1034.581996385864
 20
397.661164173548
 30
0.0
 11
1034.356996385864
 21
397.511164173548
 31
0.0
  0
LINE
  5
265
330
1F
100
AcDbEntity
  8
1
  6
Continuous
 62
     2
100
AcDbLine
 10
1034.731996385864
 20
397.886164173548
 30
0.0
 11
1034.581996385864
 21
397.661164173548
 31
0.0
  0
LINE
  5
266
330
1F
100
AcDbEntity
  8
1
  6
Continuous
 62
     2
100
AcDbLine
 10
1034.806996385864
 20
398.186164173548
 30
0.0
 11
1034.731996385864
 21
397.886164173548
 31
0.0
  0
LINE
  5
267
330
1F
100
AcDbEntity
  8
1
  6
Continuous
 62
     2
100
AcDbLine
 10
1034.806996385864
 20
398.486164173548
 30
0.0
 11
1034.806996385864
 21
398.186164173548
 31
0.0
  0
LINE
  5
268
330
1F
100
AcDbEntity
  8
1
  6
Continuous
 62
     2
100
AcDbLine
 10
1034.731996385864
 20
398.786164173548
 30
0.0
 11
1034.806996385864
 21
398.486164173548
 31
0.0
  0
LINE
  5
269
330
1F
100
AcDbEntity
  8
1
  6
Continuous
 62
     2
100
AcDbLine
 10
1034.581996385864
 20
399.011164173548
 30
0.0
 11
1034.731996385864
 21
398.786164173548
 31
0.0
  0
LINE
  5
26A
330
1F
100
AcDbEntity
  8
1
  6
Continuous
 62
     2
100
AcDbLine
 10
1034.356996385864
 20
399.161164173548
 30
0.0
 11
1034.581996385864
 21
399.011164173548
 31
0.0
  0
LINE
  5
26B
330
1F
100
AcDbEntity
  8
1
  6
Continuous
 62
     2
100
AcDbLine
 10
1034.131996385864
 20
399.236164173548
 30
0.0
 11
1034.356996385864
 21
399.161164173548
 31
0.0
  0
LINE
  5
26C
330
1F
100
AcDbEntity
  8
1
  6
Continuous
 62
     2
100
AcDbLine
 10
1033.681996385864
 20
399.236164173548
 30
0.0
 11
1034.131996385864
 21
399.236164173548
 31
0.0
  0
LINE
  5
26D
330
1F
100
AcDbEntity
  8
1
  6
Continuous
 62
     2
100
AcDbLine
 10
1033.456996385864
 20
399.161164173548
 30
0.0
 11
1033.681996385864
 21
399.236164173548
 31
0.0
  0
LINE
  5
26E
330
1F
100
AcDbEntity
  8
1
  6
Continuous
 62
     2
100
AcDbLine
 10
1033.231996385864
 20
399.011164173548
 30
0.0
 11
1033.456996385864
 21
399.161164173548
 31
0.0
  0
LINE
  5
26F
330
1F
100
AcDbEntity
  8
1
  6
Continuous
 62
     2
100
AcDbLine
 10
1033.081996385864
 20
398.786164173548
 30
0.0
 11
1033.231996385864
 21
399.011164173548
 31
0.0
  0
LINE
  5
270
330
1F
100
AcDbEntity
  8
1
  6
Continuous
 62
     2
100
AcDbLine
 10
1033.006996385864
 20
398.486164173548
 30
0.0
 11
1033.081996385864
 21
398.786164173548
 31
0.0
  0
LINE
  5
271
330
1F
100
AcDbEntity
  8
1
  6
Continuous
 62
     2
100
AcDbLine
 10
1030.306996385864
 20
397.436164173548
 30
0.0
 11
1032.106996385864
 21
397.436164173548
 31
0.0
  0
LINE
  5
272
330
1F
100
AcDbEntity
  8
1
  6
Continuous
 62
     2
100
AcDbLine
 10
1031.956996385864
 20
399.386164173548
 30
0.0
 11
1030.306996385864
 21
397.436164173548
 31
0.0
  0
LINE
  5
273
330
1F
100
AcDbEntity
  8
1
  6
Continuous
 62
     2
100
AcDbLine
 10
1032.106996385864
 20
399.686164173548
 30
0.0
 11
1031.956996385864
 21
399.386164173548
 31
0.0
  0
LINE
  5
274
330
1F
100
AcDbEntity
  8
1
  6
Continuous
 62
     2
100
AcDbLine
 10
1032.106996385864
 20
399.986164173548
 30
0.0
 11
1032.106996385864
 21
399.686164173548
 31
0.0
  0
LINE
  5
275
330
1F
100
AcDbEntity
  8
1
  6
Continuous
 62
     2
100
AcDbLine
 10
1031.956996385864
 20
400.211164173548
 30
0.0
 11
1032.106996385864
 21
399.986164173548
 31
0.0
  0
LINE
  5
276
330
1F
100
AcDbEntity
  8
1
  6
Continuous
 62
     2
100
AcDbLine
 10
1031.731996385864
 20
400.361164173548
 30
0.0
 11
1031.956996385864
 21
400.211164173548
 31
0.0
  0
LINE
  5
277
330
1F
100
AcDbEntity
  8
1
  6
Continuous
 62
     2
100
AcDbLine
 10
1031.431996385864
 20
400.436164173548
 30
0.0
 11
1031.731996385864
 21
400.361164173548
 31
0.0
  0
LINE
  5
278
330
1F
100
AcDbEntity
  8
1
  6
Continuous
 62
     2
100
AcDbLine
 10
1030.981996385864
 20
400.436164173548
 30
0.0
 11
1031.431996385864
 21
400.436164173548
 31
0.0
  0
LINE
  5
279
330
1F
100
AcDbEntity
  8
1
  6
Continuous
 62
     2
100
AcDbLine
 10
1030.681996385864
 20
400.361164173548
 30
0.0
 11
1030.981996385864
 21
400.436164173548
 31
0.0
  0
LINE
  5
27A
330
1F
100
AcDbEntity
  8
1
  6
Continuous
 62
     2
100
AcDbLine
 10
1030.456996385864
 20
400.211164173548
 30
0.0
 11
1030.681996385864
 21
400.361164173548
 31
0.0
  0
LINE
  5
27B
330
1F
100
AcDbEntity
  8
1
  6
Continuous
 62
     2
100
AcDbLine
 10
1030.306996385864
 20
399.986164173548
 30
0.0
 11
1030.456996385864
 21
400.211164173548
 31
0.0
  0
LINE
  5
27C
330
1F
100
AcDbEntity
  8
1
  6
Continuous
 62
     2
100
AcDbLine
 10
1027.156996385864
 20
398.373664173548
 30
0.0
 11
1027.569496385864
 21
397.923664173548
 31
0.0
  0
LINE
  5
27D
330
1F
100
AcDbEntity
  8
1
  6
Continuous
 62
     2
100
AcDbLine
 10
1026.819496385864
 20
398.936164173548
 30
0.0
 11
1027.156996385864
 21
398.373664173548
 31
0.0
  0
LINE
  5
27E
330
1F
100
AcDbEntity
  8
1
  6
Continuous
 62
     2
100
AcDbLine
 10
1026.556996385864
 20
399.611164173548
 30
0.0
 11
1026.819496385864
 21
398.936164173548
 31
0.0
  0
LINE
  5
27F
330
1F
100
AcDbEntity
  8
1
  6
Continuous
 62
     2
100
AcDbLine
 10
1027.306996385864
 20
399.686164173548
 30
0.0
 11
1026.744496385864
 21
399.236164173548
 31
0.0
  0
LINE
  5
280
330
1F
100
AcDbEntity
  8
1
  6
Continuous
 62
     2
100
AcDbLine
 10
1026.331996385864
 20
397.436164173548
 30
0.0
 11
1026.069496385864
 21
397.548664173548
 31
0.0
  0
LINE
  5
281
330
1F
100
AcDbEntity
  8
1
  6
Continuous
 62
     2
100
AcDbLine
 10
1026.331996385864
 20
400.361164173548
 30
0.0
 11
1026.331996385864
 21
397.436164173548
 31
0.0
  0
LINE
  5
282
330
1F
100
AcDbEntity
  8
1
  6
Continuous
 62
     2
100
AcDbLine
 10
1025.919496385864
 20
399.423664173548
 30
0.0
 11
1025.056996385864
 21
399.423664173548
 31
0.0
  0
LINE
  5
283
330
1F
100
AcDbEntity
  8
1
  6
Continuous
 62
     2
100
AcDbLine
 10
1025.731996385864
 20
398.861164173548
 30
0.0
 11
1025.919496385864
 21
399.423664173548
 31
0.0
  0
LINE
  5
284
330
1F
100
AcDbEntity
  8
1
  6
Continuous
 62
     2
100
AcDbLine
 10
1025.394496385864
 20
398.298664173548
 30
0.0
 11
1025.731996385864
 21
398.861164173548
 31
0.0
  0
LINE
  5
285
330
1F
100
AcDbEntity
  8
1
  6
Continuous
 62
     2
100
AcDbLine
 10
1025.056996385864
 20
397.923664173548
 30
0.0
 11
1025.394496385864
 21
398.298664173548
 31
0.0
  0
LINE
  5
286
330
1F
100
AcDbEntity
  8
1
  6
Continuous
 62
     2
100
AcDbLine
 10
1023.144496385864
 20
400.436164173548
 30
0.0
 11
1023.144496385864
 21
397.548664173548
 31
0.0
  0
LINE
  5
287
330
1F
100
AcDbEntity
  8
1
  6
Continuous
 62
     2
100
AcDbLine
 10
1024.156996385864
 20
399.311164173548
 30
0.0
 11
1023.144496385864
 21
399.311164173548
 31
0.0
  0
LINE
  5
288
330
1F
100
AcDbEntity
  8
1
  6
Continuous
 62
     2
100
AcDbLine
 10
1021.906996385864
 20
397.548664173548
 30
0.0
 11
1024.569496385864
 21
397.548664173548
 31
0.0
  0
LINE
  5
289
330
1F
100
AcDbEntity
  8
1
  6
Continuous
 62
     2
100
AcDbLine
 10
1079.801327917603
 20
336.9522134249568
 30
0.0
 11
1079.613827917603
 21
336.6522134249568
 31
0.0
  0
LINE
  5
28A
330
1F
100
AcDbEntity
  8
1
  6
Continuous
 62
     2
100
AcDbLine
 10
1079.951327917603
 20
337.4022134249568
 30
0.0
 11
1079.801327917603
 21
336.9522134249568
 31
0.0
  0
LINE
  5
28B
330
1F
100
AcDbEntity
  8
1
  6
Continuous
 62
     2
100
AcDbLine
 10
1079.951327917603
 20
338.9022134249568
 30
0.0
 11
1079.951327917603
 21
337.4022134249568
 31
0.0
  0
LINE
  5
28C
330
1F
100
AcDbEntity
  8
1
  6
Continuous
 62
     2
100
AcDbLine
 10
1079.801327917603
 20
339.3897134249568
 30
0.0
 11
1079.951327917603
 21
338.9022134249568
 31
0.0
  0
LINE
  5
28D
330
1F
100
AcDbEntity
  8
1
  6
Continuous
 62
     2
100
AcDbLine
 10
1079.613827917603
 20
339.6522134249568
 30
0.0
 11
1079.801327917603
 21
339.3897134249568
 31
0.0
  0
LINE
  5
28E
330
1F
100
AcDbEntity
  8
1
  6
Continuous
 62
     2
100
AcDbLine
 10
1077.626327917603
 20
336.7647134249568
 30
0.0
 11
1077.363827917603
 21
336.7647134249568
 31
0.0
  0
LINE
  5
28F
330
1F
100
AcDbEntity
  8
1
  6
Continuous
 62
     2
100
AcDbLine
 10
1077.701327917603
 20
336.9522134249568
 30
0.0
 11
1077.626327917603
 21
336.7647134249568
 31
0.0
  0
LINE
  5
290
330
1F
100
AcDbEntity
  8
1
  6
Continuous
 62
     2
100
AcDbLine
 10
1077.701327917603
 20
338.5272134249568
 30
0.0
 11
1077.701327917603
 21
336.9522134249568
 31
0.0
  0
LINE
  5
291
330
1F
100
AcDbEntity
  8
1
  6
Continuous
 62
     2
100
AcDbLine
 10
1077.101327917603
 20
338.5272134249568
 30
0.0
 11
1078.113827917603
 21
338.5272134249568
 31
0.0
  0
LINE
  5
292
330
1F
100
AcDbEntity
  8
1
  6
Continuous
 62
     2
100
AcDbLine
 10
1077.213827917603
 20
339.2772134249568
 30
0.0
 11
1077.963827917603
 21
339.2772134249568
 31
0.0
  0
LINE
  5
293
330
1F
100
AcDbEntity
  8
1
  6
Continuous
 62
     2
100
AcDbLine
 10
1076.801327917603
 20
338.2647134249568
 30
0.0
 11
1076.801327917603
 21
336.7647134249568
 31
0.0
  0
LINE
  5
294
330
1F
100
AcDbEntity
  8
1
  6
Continuous
 62
     2
100
AcDbLine
 10
1076.613827917603
 20
337.9647134249568
 30
0.0
 11
1076.351327917603
 21
337.7022134249568
 31
0.0
  0
LINE
  5
295
330
1F
100
AcDbEntity
  8
1
  6
Continuous
 62
     2
100
AcDbLine
 10
1076.876327917603
 20
338.4522134249568
 30
0.0
 11
1076.613827917603
 21
337.9647134249568
 31
0.0
  0
LINE
  5
296
330
1F
100
AcDbEntity
  8
1
  6
Continuous
 62
     2
100
AcDbLine
 10
1077.101327917603
 20
338.9022134249568
 30
0.0
 11
1076.876327917603
 21
338.4522134249568
 31
0.0
  0
LINE
  5
297
330
1F
100
AcDbEntity
  8
1
  6
Continuous
 62
     2
100
AcDbLine
 10
1076.951327917603
 20
339.4647134249568
 30
0.0
 11
1076.538827917603
 21
338.8272134249568
 31
0.0
  0
LINE
  5
298
330
1F
100
AcDbEntity
  8
1
  6
Continuous
 62
     2
100
AcDbLine
 10
1076.051327917603
 20
338.8272134249568
 30
0.0
 11
1076.351327917603
 21
338.0772134249568
 31
0.0
  0
LINE
  5
299
330
1F
100
AcDbEntity
  8
1
  6
Continuous
 62
     2
100
AcDbLine
 10
1075.601327917603
 20
337.7772134249568
 30
0.0
 11
1075.526327917603
 21
337.5897134249568
 31
0.0
  0
LINE
  5
29A
330
1F
100
AcDbEntity
  8
1
  6
Continuous
 62
     2
100
AcDbLine
 10
1075.788827917603
 20
338.0772134249568
 30
0.0
 11
1075.601327917603
 21
337.7772134249568
 31
0.0
  0
LINE
  5
29B
330
1F
100
AcDbEntity
  8
1
  6
Continuous
 62
     2
100
AcDbLine
 10
1076.051327917603
 20
338.8272134249568
 30
0.0
 11
1075.788827917603
 21
338.0772134249568
 31
0.0
  0
LINE
  5
29C
330
1F
100
AcDbEntity
  8
1
  6
Continuous
 62
     2
100
AcDbLine
 10
1076.051327917603
 20
339.5772134249568
 30
0.0
 11
1076.051327917603
 21
336.7647134249568
 31
0.0
  0
LINE
  5
29D
330
1F
100
AcDbEntity
  8
1
  6
Continuous
 62
     2
100
AcDbLine
 10
1075.601327917603
 20
338.8272134249568
 30
0.0
 11
1076.463827917603
 21
338.8272134249568
 31
0.0
  0
LINE
  5
29E
330
1F
100
AcDbEntity
  8
1
  6
Continuous
 62
     2
100
AcDbLine
 10
1072.713827917603
 20
336.6522134249568
 30
0.0
 11
1074.851327917603
 21
336.6522134249568
 31
0.0
  0
LINE
  5
29F
330
1F
100
AcDbEntity
  8
1
  6
Continuous
 62
     2
100
AcDbLine
 10
1072.788827917603
 20
337.2147134249568
 30
0.0
 11
1072.713827917603
 21
336.6522134249568
 31
0.0
  0
LINE
  5
2A0
330
1F
100
AcDbEntity
  8
1
  6
Continuous
 62
     2
100
AcDbLine
 10
1072.863827917603
 20
337.4022134249568
 30
0.0
 11
1072.788827917603
 21
337.2147134249568
 31
0.0
  0
LINE
  5
2A1
330
1F
100
AcDbEntity
  8
1
  6
Continuous
 62
     2
100
AcDbLine
 10
1073.126327917603
 20
337.5897134249568
 30
0.0
 11
1072.863827917603
 21
337.4022134249568
 31
0.0
  0
LINE
  5
2A2
330
1F
100
AcDbEntity
  8
1
  6
Continuous
 62
     2
100
AcDbLine
 10
1074.438827917603
 20
337.7772134249568
 30
0.0
 11
1073.126327917603
 21
337.5897134249568
 31
0.0
  0
LINE
  5
2A3
330
1F
100
AcDbEntity
  8
1
  6
Continuous
 62
     2
100
AcDbLine
 10
1074.776327917603
 20
337.9647134249568
 30
0.0
 11
1074.438827917603
 21
337.7772134249568
 31
0.0
  0
LINE
  5
2A4
330
1F
100
AcDbEntity
  8
1
  6
Continuous
 62
     2
100
AcDbLine
 10
1074.851327917603
 20
338.1522134249568
 30
0.0
 11
1074.776327917603
 21
337.9647134249568
 31
0.0
  0
LINE
  5
2A5
330
1F
100
AcDbEntity
  8
1
  6
Continuous
 62
     2
100
AcDbLine
 10
1074.851327917603
 20
338.6397134249568
 30
0.0
 11
1074.851327917603
 21
338.1522134249568
 31
0.0
  0
LINE
  5
2A6
330
1F
100
AcDbEntity
  8
1
  6
Continuous
 62
     2
100
AcDbLine
 10
1074.776327917603
 20
338.8272134249568
 30
0.0
 11
1074.851327917603
 21
338.6397134249568
 31
0.0
  0
LINE
  5
2A7
330
1F
100
AcDbEntity
  8
1
  6
Continuous
 62
     2
100
AcDbLine
 10
1074.438827917603
 20
339.0147134249568
 30
0.0
 11
1074.776327917603
 21
338.8272134249568
 31
0.0
  0
LINE
  5
2A8
330
1F
100
AcDbEntity
  8
1
  6
Continuous
 62
     2
100
AcDbLine
 10
1074.101327917603
 20
339.0897134249568
 30
0.0
 11
1074.438827917603
 21
339.0147134249568
 31
0.0
  0
LINE
  5
2A9
330
1F
100
AcDbEntity
  8
1
  6
Continuous
 62
     2
100
AcDbLine
 10
1073.538827917603
 20
339.0897134249568
 30
0.0
 11
1074.101327917603
 21
339.0897134249568
 31
0.0
  0
LINE
  5
2AA
330
1F
100
AcDbEntity
  8
1
  6
Continuous
 62
     2
100
AcDbLine
 10
1073.201327917603
 20
339.0147134249568
 30
0.0
 11
1073.538827917603
 21
339.0897134249568
 31
0.0
  0
LINE
  5
2AB
330
1F
100
AcDbEntity
  8
1
  6
Continuous
 62
     2
100
AcDbLine
 10
1072.863827917603
 20
338.8272134249568
 30
0.0
 11
1073.201327917603
 21
339.0147134249568
 31
0.0
  0
LINE
  5
2AC
330
1F
100
AcDbEntity
  8
1
  6
Continuous
 62
     2
100
AcDbLine
 10
1072.788827917603
 20
338.6397134249568
 30
0.0
 11
1072.863827917603
 21
338.8272134249568
 31
0.0
  0
LINE
  5
2AD
330
1F
100
AcDbEntity
  8
1
  6
Continuous
 62
     2
100
AcDbLine
 10
1071.213827917603
 20
338.6397134249568
 30
0.0
 11
1071.701327917603
 21
338.0772134249568
 31
0.0
  0
LINE
  5
2AE
330
1F
100
AcDbEntity
  8
1
  6
Continuous
 62
     2
100
AcDbLine
 10
1072.038827917603
 20
339.2772134249568
 30
0.0
 11
1069.526327917603
 21
339.2772134249568
 31
0.0
  0
LINE
  5
2AF
330
1F
100
AcDbEntity
  8
1
  6
Continuous
 62
     2
100
AcDbLine
 10
1070.801327917603
 20
336.6522134249568
 30
0.0
 11
1070.801327917603
 21
339.2772134249568
 31
0.0
  0
LINE
  5
2B0
330
1F
100
AcDbEntity
  8
1
  6
Continuous
 62
     2
100
AcDbLine
 10
1067.276327917603
 20
337.2147134249568
 30
0.0
 11
1068.626327917603
 21
337.2147134249568
 31
0.0
  0
LINE
  5
2B1
330
1F
100
AcDbEntity
  8
1
  6
Continuous
 62
     2
100
AcDbLine
 10
1068.626327917603
 20
336.7647134249568
 30
0.0
 11
1068.626327917603
 21
337.7022134249568
 31
0.0
  0
LINE
  5
2B2
330
1F
100
AcDbEntity
  8
1
  6
Continuous
 62
     2
100
AcDbLine
 10
1067.276327917603
 20
336.7647134249568
 30
0.0
 11
1068.626327917603
 21
336.7647134249568
 31
0.0
  0
LINE
  5
2B3
330
1F
100
AcDbEntity
  8
1
  6
Continuous
 62
     2
100
AcDbLine
 10
1067.276327917603
 20
337.7022134249568
 30
0.0
 11
1067.276327917603
 21
336.7647134249568
 31
0.0
  0
LINE
  5
2B4
330
1F
100
AcDbEntity
  8
1
  6
Continuous
 62
     2
100
AcDbLine
 10
1068.626327917603
 20
337.7022134249568
 30
0.0
 11
1067.276327917603
 21
337.7022134249568
 31
0.0
  0
LINE
  5
2B5
330
1F
100
AcDbEntity
  8
1
  6
Continuous
 62
     2
100
AcDbLine
 10
1068.701327917603
 20
338.5272134249568
 30
0.0
 11
1069.113827917603
 21
338.0772134249568
 31
0.0
  0
LINE
  5
2B6
330
1F
100
AcDbEntity
  8
1
  6
Continuous
 62
     2
100
AcDbLine
 10
1068.438827917603
 20
338.9022134249568
 30
0.0
 11
1068.701327917603
 21
338.5272134249568
 31
0.0
  0
LINE
  5
2B7
330
1F
100
AcDbEntity
  8
1
  6
Continuous
 62
     2
100
AcDbLine
 10
1068.438827917603
 20
339.3897134249568
 30
0.0
 11
1068.438827917603
 21
337.9647134249568
 31
0.0
  0
LINE
  5
2B8
330
1F
100
AcDbEntity
  8
1
  6
Continuous
 62
     2
100
AcDbLine
 10
1068.026327917603
 20
338.2647134249568
 30
0.0
 11
1068.438827917603
 21
338.9022134249568
 31
0.0
  0
LINE
  5
2B9
330
1F
100
AcDbEntity
  8
1
  6
Continuous
 62
     2
100
AcDbLine
 10
1067.801327917603
 20
338.0772134249568
 30
0.0
 11
1068.026327917603
 21
338.2647134249568
 31
0.0
  0
LINE
  5
2BA
330
1F
100
AcDbEntity
  8
1
  6
Continuous
 62
     2
100
AcDbLine
 10
1067.538827917603
 20
338.6397134249568
 30
0.0
 11
1067.801327917603
 21
338.3397134249568
 31
0.0
  0
LINE
  5
2BB
330
1F
100
AcDbEntity
  8
1
  6
Continuous
 62
     2
100
AcDbLine
 10
1067.126327917603
 20
338.4522134249568
 30
0.0
 11
1067.351327917603
 21
338.9022134249568
 31
0.0
  0
LINE
  5
2BC
330
1F
100
AcDbEntity
  8
1
  6
Continuous
 62
     2
100
AcDbLine
 10
1066.863827917603
 20
338.1522134249568
 30
0.0
 11
1067.126327917603
 21
338.4522134249568
 31
0.0
  0
LINE
  5
2BD
330
1F
100
AcDbEntity
  8
1
  6
Continuous
 62
     2
100
AcDbLine
 10
1067.351327917603
 20
339.3897134249568
 30
0.0
 11
1067.351327917603
 21
337.9647134249568
 31
0.0
  0
LINE
  5
2BE
330
1F
100
AcDbEntity
  8
1
  6
Continuous
 62
     2
100
AcDbLine
 10
1067.801327917603
 20
338.9022134249568
 30
0.0
 11
1066.938827917603
 21
338.9022134249568
 31
0.0
  0
LINE
  5
2BF
330
1F
100
AcDbEntity
  8
1
  6
Continuous
 62
     2
100
AcDbLine
 10
1068.963827917603
 20
338.9022134249568
 30
0.0
 11
1067.951327917603
 21
338.9022134249568
 31
0.0
  0
LINE
  5
2C0
330
1F
100
AcDbEntity
  8
1
  6
Continuous
 62
     2
100
AcDbLine
 10
1066.601327917603
 20
339.5772134249568
 30
0.0
 11
1068.963827917603
 21
339.5772134249568
 31
0.0
  0
LINE
  5
2C1
330
1F
100
AcDbEntity
  8
1
  6
Continuous
 62
     2
100
AcDbLine
 10
1066.601327917603
 20
337.9647134249568
 30
0.0
 11
1066.601327917603
 21
339.5772134249568
 31
0.0
  0
LINE
  5
2C2
330
1F
100
AcDbEntity
  8
1
  6
Continuous
 62
     2
100
AcDbLine
 10
1066.526327917603
 20
337.1397134249568
 30
0.0
 11
1066.601327917603
 21
337.9647134249568
 31
0.0
  0
LINE
  5
2C3
330
1F
100
AcDbEntity
  8
1
  6
Continuous
 62
     2
100
AcDbLine
 10
1066.451327917603
 20
336.8397134249568
 30
0.0
 11
1066.526327917603
 21
337.1397134249568
 31
0.0
  0
LINE
  5
2C4
330
1F
100
AcDbEntity
  8
1
  6
Continuous
 62
     2
100
AcDbLine
 10
1065.551327917603
 20
337.7022134249568
 30
0.0
 11
1065.626327917603
 21
337.8897134249568
 31
0.0
  0
LINE
  5
2C5
330
1F
100
AcDbEntity
  8
1
  6
Continuous
 62
     2
100
AcDbLine
 10
1065.101327917603
 20
337.7022134249568
 30
0.0
 11
1065.551327917603
 21
337.7022134249568
 31
0.0
  0
LINE
  5
2C6
330
1F
100
AcDbEntity
  8
1
  6
Continuous
 62
     2
100
AcDbLine
 10
1065.026327917603
 20
337.8897134249568
 30
0.0
 11
1065.101327917603
 21
337.7022134249568
 31
0.0
  0
LINE
  5
2C7
330
1F
100
AcDbEntity
  8
1
  6
Continuous
 62
     2
100
AcDbLine
 10
1065.026327917603
 20
339.3897134249568
 30
0.0
 11
1065.026327917603
 21
337.8897134249568
 31
0.0
  0
LINE
  5
2C8
330
1F
100
AcDbEntity
  8
1
  6
Continuous
 62
     2
100
AcDbLine
 10
1063.526327917603
 20
339.3897134249568
 30
0.0
 11
1066.038827917603
 21
339.3897134249568
 31
0.0
  0
LINE
  5
2C9
330
1F
100
AcDbEntity
  8
1
  6
Continuous
 62
     2
100
AcDbLine
 10
1064.463827917603
 20
338.3397134249568
 30
0.0
 11
1064.463827917603
 21
339.3897134249568
 31
0.0
  0
LINE
  5
2CA
330
1F
100
AcDbEntity
  8
1
  6
Continuous
 62
     2
100
AcDbLine
 10
1064.201327917603
 20
337.7772134249568
 30
0.0
 11
1064.463827917603
 21
338.3397134249568
 31
0.0
  0
LINE
  5
2CB
330
1F
100
AcDbEntity
  8
1
  6
Continuous
 62
     2
100
AcDbLine
 10
1063.938827917603
 20
337.5147134249568
 30
0.0
 11
1064.201327917603
 21
337.7772134249568
 31
0.0
  0
LINE
  5
2CC
330
1F
100
AcDbEntity
  8
1
  6
Continuous
 62
     2
100
AcDbLine
 10
1065.776327917603
 20
336.8397134249568
 30
0.0
 11
1063.788827917603
 21
336.8397134249568
 31
0.0
  0
LINE
  5
2CD
330
1F
100
AcDbEntity
  8
1
  6
Continuous
 62
     2
100
AcDbLine
 10
1065.776327917603
 20
338.6397134249568
 30
0.0
 11
1065.776327917603
 21
336.8397134249568
 31
0.0
  0
LINE
  5
2CE
330
1F
100
AcDbEntity
  8
1
  6
Continuous
 62
     2
100
AcDbLine
 10
1063.788827917603
 20
338.6397134249568
 30
0.0
 11
1065.776327917603
 21
338.6397134249568
 31
0.0
  0
LINE
  5
2CF
330
1F
100
AcDbEntity
  8
1
  6
Continuous
 62
     2
100
AcDbLine
 10
1063.788827917603
 20
336.8397134249568
 30
0.0
 11
1063.788827917603
 21
338.6397134249568
 31
0.0
  0
LINE
  5
2D0
330
1F
100
AcDbEntity
  8
1
  6
Continuous
 62
     2
100
AcDbLine
 10
1061.801327917603
 20
336.9522134249568
 30
0.0
 11
1061.951327917603
 21
336.6522134249568
 31
0.0
  0
LINE
  5
2D1
330
1F
100
AcDbEntity
  8
1
  6
Continuous
 62
     2
100
AcDbLine
 10
1061.613827917603
 20
337.4022134249568
 30
0.0
 11
1061.801327917603
 21
336.9522134249568
 31
0.0
  0
LINE
  5
2D2
330
1F
100
AcDbEntity
  8
1
  6
Continuous
 62
     2
100
AcDbLine
 10
1061.613827917603
 20
338.9022134249568
 30
0.0
 11
1061.613827917603
 21
337.4022134249568
 31
0.0
  0
LINE
  5
2D3
330
1F
100
AcDbEntity
  8
1
  6
Continuous
 62
     2
100
AcDbLine
 10
1061.801327917603
 20
339.3897134249568
 30
0.0
 11
1061.613827917603
 21
338.9022134249568
 31
0.0
  0
LINE
  5
2D4
330
1F
100
AcDbEntity
  8
1
  6
Continuous
 62
     2
100
AcDbLine
 10
1061.951327917603
 20
339.6522134249568
 30
0.0
 11
1061.801327917603
 21
339.3897134249568
 31
0.0
  0
LINE
  5
2D5
330
1F
100
AcDbEntity
  8
1
  6
Continuous
 62
     2
100
AcDbLine
 10
1073.439877031025
 20
471.7551364481896
 30
0.0
 11
1073.777377031025
 21
472.2051364481895
 31
0.0
  0
LINE
  5
2D6
330
1F
100
AcDbEntity
  8
1
  6
Continuous
 62
     2
100
AcDbLine
 10
1073.102377031025
 20
471.7551364481896
 30
0.0
 11
1073.439877031025
 21
471.7551364481896
 31
0.0
  0
LINE
  5
2D7
330
1F
100
AcDbEntity
  8
1
  6
Continuous
 62
     2
100
AcDbLine
 10
1073.027377031025
 20
472.0176364481895
 30
0.0
 11
1073.102377031025
 21
471.7551364481896
 31
0.0
  0
LINE
  5
2D8
330
1F
100
AcDbEntity
  8
1
  6
Continuous
 62
     2
100
AcDbLine
 10
1073.027377031025
 20
472.6926364481896
 30
0.0
 11
1073.027377031025
 21
472.0176364481895
 31
0.0
  0
LINE
  5
2D9
330
1F
100
AcDbEntity
  8
1
  6
Continuous
 62
     2
100
AcDbLine
 10
1072.877377031025
 20
473.0676364481896
 30
0.0
 11
1073.027377031025
 21
472.6926364481896
 31
0.0
  0
LINE
  5
2DA
330
1F
100
AcDbEntity
  8
1
  6
Continuous
 62
     2
100
AcDbLine
 10
1072.539877031025
 20
473.0676364481896
 30
0.0
 11
1072.877377031025
 21
473.0676364481896
 31
0.0
  0
LINE
  5
2DB
330
1F
100
AcDbEntity
  8
1
  6
Continuous
 62
     2
100
AcDbLine
 10
1072.202377031025
 20
472.7676364481895
 30
0.0
 11
1072.539877031025
 21
473.0676364481896
 31
0.0
  0
LINE
  5
2DC
330
1F
100
AcDbEntity
  8
1
  6
Continuous
 62
     2
100
AcDbLine
 10
1071.939877031025
 20
472.3926364481895
 30
0.0
 11
1072.202377031025
 21
472.7676364481895
 31
0.0
  0
LINE
  5
2DD
330
1F
100
AcDbEntity
  8
1
  6
Continuous
 62
     2
100
AcDbLine
 10
1072.539877031025
 20
473.5176364481895
 30
0.0
 11
1072.877377031025
 21
474.0801364481895
 31
0.0
  0
LINE
  5
2DE
330
1F
100
AcDbEntity
  8
1
  6
Continuous
 62
     2
100
AcDbLine
 10
1072.052377031025
 20
472.5801364481895
 30
0.0
 11
1072.539877031025
 21
473.5176364481895
 31
0.0
  0
LINE
  5
2DF
330
1F
100
AcDbEntity
  8
1
  6
Continuous
 62
     2
100
AcDbLine
 10
1071.714877031025
 20
471.7551364481896
 30
0.0
 11
1072.052377031025
 21
472.5801364481895
 31
0.0
  0
LINE
  5
2E0
330
1F
100
AcDbEntity
  8
1
  6
Continuous
 62
     2
100
AcDbLine
 10
1069.877377031025
 20
471.8301364481895
 30
0.0
 11
1070.552377031025
 21
471.8301364481895
 31
0.0
  0
LINE
  5
2E1
330
1F
100
AcDbEntity
  8
1
  6
Continuous
 62
     2
100
AcDbLine
 10
1069.464877031025
 20
471.9426364481896
 30
0.0
 11
1069.877377031025
 21
471.8301364481895
 31
0.0
  0
LINE
  5
2E2
330
1F
100
AcDbEntity
  8
1
  6
Continuous
 62
     2
100
AcDbLine
 10
1069.277377031025
 20
472.6926364481896
 30
0.0
 11
1069.464877031025
 21
471.9426364481896
 31
0.0
  0
LINE
  5
2E3
330
1F
100
AcDbEntity
  8
1
  6
Continuous
 62
     2
100
AcDbLine
 10
1069.277377031025
 20
473.8176364481896
 30
0.0
 11
1069.277377031025
 21
472.6926364481896
 31
0.0
  0
LINE
  5
2E4
330
1F
100
AcDbEntity
  8
1
  6
Continuous
 62
     2
100
AcDbLine
 10
1070.214877031025
 20
473.1426364481895
 30
0.0
 11
1070.214877031025
 21
474.0801364481895
 31
0.0
  0
LINE
  5
2E5
330
1F
100
AcDbEntity
  8
1
  6
Continuous
 62
     2
100
AcDbLine
 10
1070.102377031025
 20
472.5051364481896
 30
0.0
 11
1070.214877031025
 21
473.1426364481895
 31
0.0
  0
LINE
  5
2E6
330
1F
100
AcDbEntity
  8
1
  6
Continuous
 62
     2
100
AcDbLine
 10
1070.439877031025
 20
473.3301364481895
 30
0.0
 11
1070.964877031025
 21
473.3301364481895
 31
0.0
  0
LINE
  5
2E7
330
1F
100
AcDbEntity
  8
1
  6
Continuous
 62
     2
100
AcDbLine
 10
1069.614877031025
 20
473.2551364481896
 30
0.0
 11
1070.439877031025
 21
473.3301364481895
 31
0.0
  0
LINE
  5
2E8
330
1F
100
AcDbEntity
  8
1
  6
Continuous
 62
     2
100
AcDbLine
 10
1068.602377031025
 20
472.9551364481895
 30
0.0
 11
1069.614877031025
 21
473.2551364481896
 31
0.0
  0
LINE
  5
2E9
330
1F
100
AcDbEntity
  8
1
  6
Continuous
 62
     2
100
AcDbLine
 10
1067.027377031025
 20
472.0176364481895
 30
0.0
 11
1067.364877031025
 21
471.7551364481896
 31
0.0
  0
LINE
  5
2EA
330
1F
100
AcDbEntity
  8
1
  6
Continuous
 62
     2
100
AcDbLine
 10
1066.614877031025
 20
472.2051364481895
 30
0.0
 11
1067.027377031025
 21
472.0176364481895
 31
0.0
  0
LINE
  5
2EB
330
1F
100
AcDbEntity
  8
1
  6
Continuous
 62
     2
100
AcDbLine
 10
1066.202377031025
 20
472.1301364481896
 30
0.0
 11
1066.614877031025
 21
472.2051364481895
 31
0.0
  0
LINE
  5
2EC
330
1F
100
AcDbEntity
  8
1
  6
Continuous
 62
     2
100
AcDbLine
 10
1066.052377031025
 20
471.9426364481896
 30
0.0
 11
1066.202377031025
 21
472.1301364481896
 31
0.0
  0
LINE
  5
2ED
330
1F
100
AcDbEntity
  8
1
  6
Continuous
 62
     2
100
AcDbLine
 10
1066.127377031025
 20
471.7551364481896
 30
0.0
 11
1066.052377031025
 21
471.9426364481896
 31
0.0
  0
LINE
  5
2EE
330
1F
100
AcDbEntity
  8
1
  6
Continuous
 62
     2
100
AcDbLine
 10
1066.464877031025
 20
471.6426364481895
 30
0.0
 11
1066.127377031025
 21
471.7551364481896
 31
0.0
  0
LINE
  5
2EF
330
1F
100
AcDbEntity
  8
1
  6
Continuous
 62
     2
100
AcDbLine
 10
1066.802377031025
 20
471.8301364481895
 30
0.0
 11
1066.464877031025
 21
471.6426364481895
 31
0.0
  0
LINE
  5
2F0
330
1F
100
AcDbEntity
  8
1
  6
Continuous
 62
     2
100
AcDbLine
 10
1066.952377031025
 20
472.2051364481895
 30
0.0
 11
1066.802377031025
 21
471.8301364481895
 31
0.0
  0
LINE
  5
2F1
330
1F
100
AcDbEntity
  8
1
  6
Continuous
 62
     2
100
AcDbLine
 10
1066.877377031025
 20
473.5176364481895
 30
0.0
 11
1066.952377031025
 21
472.2051364481895
 31
0.0
  0
LINE
  5
2F2
330
1F
100
AcDbEntity
  8
1
  6
Continuous
 62
     2
100
AcDbLine
 10
1066.877377031025
 20
474.2676364481895
 30
0.0
 11
1066.877377031025
 21
473.5176364481895
 31
0.0
  0
LINE
  5
2F3
330
1F
100
AcDbEntity
  8
1
  6
Continuous
 62
     2
100
AcDbLine
 10
1066.802377031025
 20
473.7051364481895
 30
0.0
 11
1066.277377031025
 21
473.7051364481895
 31
0.0
  0
LINE
  5
2F4
330
1F
100
AcDbEntity
  8
1
  6
Continuous
 62
     2
100
AcDbLine
 10
1067.364877031025
 20
473.8176364481896
 30
0.0
 11
1066.802377031025
 21
473.7051364481895
 31
0.0
  0
LINE
  5
2F5
330
1F
100
AcDbEntity
  8
1
  6
Continuous
 62
     2
100
AcDbLine
 10
1066.802377031025
 20
473.0676364481896
 30
0.0
 11
1067.439877031025
 21
473.2551364481896
 31
0.0
  0
LINE
  5
2F6
330
1F
100
AcDbEntity
  8
1
  6
Continuous
 62
     2
100
AcDbLine
 10
1066.052377031025
 20
473.0676364481896
 30
0.0
 11
1066.802377031025
 21
473.0676364481896
 31
0.0
  0
LINE
  5
2F7
330
1F
100
AcDbEntity
  8
1
  6
Continuous
 62
     2
100
AcDbLine
 10
1064.214877031025
 20
472.1301364481896
 30
0.0
 11
1063.802377031025
 21
471.6426364481895
 31
0.0
  0
LINE
  5
2F8
330
1F
100
AcDbEntity
  8
1
  6
Continuous
 62
     2
100
AcDbLine
 10
1064.364877031025
 20
472.7676364481895
 30
0.0
 11
1064.214877031025
 21
472.1301364481896
 31
0.0
  0
LINE
  5
2F9
330
1F
100
AcDbEntity
  8
1
  6
Continuous
 62
     2
100
AcDbLine
 10
1064.364877031025
 20
473.2551364481896
 30
0.0
 11
1064.364877031025
 21
472.7676364481895
 31
0.0
  0
LINE
  5
2FA
330
1F
100
AcDbEntity
  8
1
  6
Continuous
 62
     2
100
AcDbLine
 10
1064.289877031025
 20
473.8176364481896
 30
0.0
 11
1064.364877031025
 21
473.2551364481896
 31
0.0
  0
LINE
  5
2FB
330
1F
100
AcDbEntity
  8
1
  6
Continuous
 62
     2
100
AcDbLine
 10
1064.102377031025
 20
474.0801364481895
 30
0.0
 11
1064.289877031025
 21
473.8176364481896
 31
0.0
  0
LINE
  5
2FC
330
1F
100
AcDbEntity
  8
1
  6
Continuous
 62
     2
100
AcDbLine
 10
1063.877377031025
 20
474.0801364481895
 30
0.0
 11
1064.102377031025
 21
474.0801364481895
 31
0.0
  0
LINE
  5
2FD
330
1F
100
AcDbEntity
  8
1
  6
Continuous
 62
     2
100
AcDbLine
 10
1063.539877031025
 20
473.8176364481896
 30
0.0
 11
1063.877377031025
 21
474.0801364481895
 31
0.0
  0
LINE
  5
2FE
330
1F
100
AcDbEntity
  8
1
  6
Continuous
 62
     2
100
AcDbLine
 10
1063.352377031025
 20
473.4426364481896
 30
0.0
 11
1063.539877031025
 21
473.8176364481896
 31
0.0
  0
LINE
  5
2FF
330
1F
100
AcDbEntity
  8
1
  6
Continuous
 62
     2
100
AcDbLine
 10
1063.352377031025
 20
473.6301364481896
 30
0.0
 11
1063.464877031025
 21
474.1926364481896
 31
0.0
  0
LINE
  5
300
330
1F
100
AcDbEntity
  8
1
  6
Continuous
 62
     2
100
AcDbLine
 10
1063.352377031025
 20
472.8801364481896
 30
0.0
 11
1063.352377031025
 21
473.6301364481896
 31
0.0
  0
LINE
  5
301
330
1F
100
AcDbEntity
  8
1
  6
Continuous
 62
     2
100
AcDbLine
 10
1063.464877031025
 20
472.5051364481896
 30
0.0
 11
1063.352377031025
 21
472.8801364481896
 31
0.0
  0
LINE
  5
302
330
1F
100
AcDbEntity
  8
1
  6
Continuous
 62
     2
100
AcDbLine
 10
1061.364877031025
 20
471.8301364481895
 30
0.0
 11
1060.952377031025
 21
471.6426364481895
 31
0.0
  0
LINE
  5
303
330
1F
100
AcDbEntity
  8
1
  6
Continuous
 62
     2
100
AcDbLine
 10
1061.702377031025
 20
472.2051364481895
 30
0.0
 11
1061.364877031025
 21
471.8301364481895
 31
0.0
  0
LINE
  5
304
330
1F
100
AcDbEntity
  8
1
  6
Continuous
 62
     2
100
AcDbLine
 10
1061.702377031025
 20
472.6926364481896
 30
0.0
 11
1061.702377031025
 21
472.2051364481895
 31
0.0
  0
LINE
  5
305
330
1F
100
AcDbEntity
  8
1
  6
Continuous
 62
     2
100
AcDbLine
 10
1061.552377031025
 20
472.9551364481895
 30
0.0
 11
1061.702377031025
 21
472.6926364481896
 31
0.0
  0
LINE
  5
306
330
1F
100
AcDbEntity
  8
1
  6
Continuous
 62
     2
100
AcDbLine
 10
1061.102377031025
 20
473.1426364481895
 30
0.0
 11
1061.552377031025
 21
472.9551364481895
 31
0.0
  0
LINE
  5
307
330
1F
100
AcDbEntity
  8
1
  6
Continuous
 62
     2
100
AcDbLine
 10
1060.464877031025
 20
472.9551364481895
 30
0.0
 11
1061.102377031025
 21
473.1426364481895
 31
0.0
  0
LINE
  5
308
330
1F
100
AcDbEntity
  8
1
  6
Continuous
 62
     2
100
AcDbLine
 10
1060.052377031025
 20
472.5801364481895
 30
0.0
 11
1060.464877031025
 21
472.9551364481895
 31
0.0
  0
LINE
  5
309
330
1F
100
AcDbEntity
  8
1
  6
Continuous
 62
     2
100
AcDbLine
 10
1059.864877031025
 20
472.2051364481895
 30
0.0
 11
1060.052377031025
 21
472.5801364481895
 31
0.0
  0
LINE
  5
30A
330
1F
100
AcDbEntity
  8
1
  6
Continuous
 62
     2
100
AcDbLine
 10
1060.052377031025
 20
472.0176364481895
 30
0.0
 11
1059.864877031025
 21
472.2051364481895
 31
0.0
  0
LINE
  5
30B
330
1F
100
AcDbEntity
  8
1
  6
Continuous
 62
     2
100
AcDbLine
 10
1060.802377031025
 20
472.5801364481895
 30
0.0
 11
1060.052377031025
 21
472.0176364481895
 31
0.0
  0
LINE
  5
30C
330
1F
100
AcDbEntity
  8
1
  6
Continuous
 62
     2
100
AcDbLine
 10
1061.214877031025
 20
473.5176364481895
 30
0.0
 11
1060.802377031025
 21
472.5801364481895
 31
0.0
  0
LINE
  5
30D
330
1F
100
AcDbEntity
  8
1
  6
Continuous
 62
     2
100
AcDbLine
 10
1060.877377031025
 20
473.7051364481895
 30
0.0
 11
1061.364877031025
 21
473.8176364481896
 31
0.0
  0
LINE
  5
30E
330
1F
100
AcDbEntity
  8
1
  6
Continuous
 62
     2
100
AcDbLine
 10
1060.127377031025
 20
473.7051364481895
 30
0.0
 11
1060.877377031025
 21
473.7051364481895
 31
0.0
  0
LINE
  5
30F
330
1F
100
AcDbEntity
  8
1
  6
Continuous
 62
     2
100
AcDbLine
 10
1060.614877031025
 20
472.6926364481896
 30
0.0
 11
1060.802377031025
 21
474.1926364481896
 31
0.0
  0
LINE
  5
310
330
1F
100
AcDbEntity
  8
1
  6
Continuous
 62
     2
100
AcDbLine
 10
1060.689877031025
 20
472.1301364481896
 30
0.0
 11
1060.614877031025
 21
472.6926364481896
 31
0.0
  0
LINE
  5
311
330
1F
100
AcDbEntity
  8
1
  6
Continuous
 62
     2
100
AcDbLine
 10
1058.364877031025
 20
472.1301364481896
 30
0.0
 11
1058.777377031025
 21
471.8301364481895
 31
0.0
  0
LINE
  5
312
330
1F
100
AcDbEntity
  8
1
  6
Continuous
 62
     2
100
AcDbLine
 10
1057.952377031025
 20
472.2051364481895
 30
0.0
 11
1058.364877031025
 21
472.1301364481896
 31
0.0
  0
LINE
  5
313
330
1F
100
AcDbEntity
  8
1
  6
Continuous
 62
     2
100
AcDbLine
 10
1057.539877031025
 20
472.1301364481896
 30
0.0
 11
1057.952377031025
 21
472.2051364481895
 31
0.0
  0
LINE
  5
314
330
1F
100
AcDbEntity
  8
1
  6
Continuous
 62
     2
100
AcDbLine
 10
1057.539877031025
 20
471.9426364481896
 30
0.0
 11
1057.539877031025
 21
472.1301364481896
 31
0.0
  0
LINE
  5
315
330
1F
100
AcDbEntity
  8
1
  6
Continuous
 62
     2
100
AcDbLine
 10
1057.802377031025
 20
471.7551364481896
 30
0.0
 11
1057.539877031025
 21
471.9426364481896
 31
0.0
  0
LINE
  5
316
330
1F
100
AcDbEntity
  8
1
  6
Continuous
 62
     2
100
AcDbLine
 10
1058.102377031025
 20
471.8301364481895
 30
0.0
 11
1057.802377031025
 21
471.7551364481896
 31
0.0
  0
LINE
  5
317
330
1F
100
AcDbEntity
  8
1
  6
Continuous
 62
     2
100
AcDbLine
 10
1058.289877031025
 20
472.0176364481895
 30
0.0
 11
1058.102377031025
 21
471.8301364481895
 31
0.0
  0
LINE
  5
318
330
1F
100
AcDbEntity
  8
1
  6
Continuous
 62
     2
100
AcDbLine
 10
1058.364877031025
 20
472.3926364481895
 30
0.0
 11
1058.289877031025
 21
472.0176364481895
 31
0.0
  0
LINE
  5
319
330
1F
100
AcDbEntity
  8
1
  6
Continuous
 62
     2
100
AcDbLine
 10
1058.289877031025
 20
474.0801364481895
 30
0.0
 11
1058.364877031025
 21
472.3926364481895
 31
0.0
  0
LINE
  5
31A
330
1F
100
AcDbEntity
  8
1
  6
Continuous
 62
     2
100
AcDbLine
 10
1058.364877031025
 20
473.5176364481895
 30
0.0
 11
1058.777377031025
 21
473.6301364481896
 31
0.0
  0
LINE
  5
31B
330
1F
100
AcDbEntity
  8
1
  6
Continuous
 62
     2
100
AcDbLine
 10
1057.614877031025
 20
473.4426364481896
 30
0.0
 11
1058.364877031025
 21
473.5176364481895
 31
0.0
  0
LINE
  5
31C
330
1F
100
AcDbEntity
  8
1
  6
Continuous
 62
     2
100
AcDbLine
 10
1056.939877031025
 20
473.2551364481896
 30
0.0
 11
1057.127377031025
 21
474.0801364481895
 31
0.0
  0
LINE
  5
31D
330
1F
100
AcDbEntity
  8
1
  6
Continuous
 62
     2
100
AcDbLine
 10
1056.939877031025
 20
472.3926364481895
 30
0.0
 11
1056.939877031025
 21
473.2551364481896
 31
0.0
  0
LINE
  5
31E
330
1F
100
AcDbEntity
  8
1
  6
Continuous
 62
     2
100
AcDbLine
 10
1057.052377031025
 20
471.7551364481896
 30
0.0
 11
1056.939877031025
 21
472.3926364481895
 31
0.0
  0
LINE
  5
31F
330
1F
100
AcDbEntity
  8
1
  6
Continuous
 62
     2
100
AcDbLine
 10
1054.614877031025
 20
471.7551364481896
 30
0.0
 11
1055.027377031025
 21
471.5676364481896
 31
0.0
  0
LINE
  5
320
330
1F
100
AcDbEntity
  8
1
  6
Continuous
 62
     2
100
AcDbLine
 10
1054.352377031025
 20
472.0176364481895
 30
0.0
 11
1054.614877031025
 21
471.7551364481896
 31
0.0
  0
LINE
  5
321
330
1F
100
AcDbEntity
  8
1
  6
Continuous
 62
     2
100
AcDbLine
 10
1054.277377031025
 20
472.3926364481895
 30
0.0
 11
1054.352377031025
 21
472.0176364481895
 31
0.0
  0
LINE
  5
322
330
1F
100
AcDbEntity
  8
1
  6
Continuous
 62
     2
100
AcDbLine
 10
1054.277377031025
 20
472.6926364481896
 30
0.0
 11
1054.277377031025
 21
472.3926364481895
 31
0.0
  0
LINE
  5
323
330
1F
100
AcDbEntity
  8
1
  6
Continuous
 62
     2
100
AcDbLine
 10
1054.464877031025
 20
473.1426364481895
 30
0.0
 11
1054.277377031025
 21
472.6926364481896
 31
0.0
  0
LINE
  5
324
330
1F
100
AcDbEntity
  8
1
  6
Continuous
 62
     2
100
AcDbLine
 10
1054.689877031025
 20
473.5176364481895
 30
0.0
 11
1054.464877031025
 21
473.1426364481895
 31
0.0
  0
LINE
  5
325
330
1F
100
AcDbEntity
  8
1
  6
Continuous
 62
     2
100
AcDbLine
 10
1055.027377031025
 20
473.7051364481895
 30
0.0
 11
1054.689877031025
 21
473.5176364481895
 31
0.0
  0
LINE
  5
326
330
1F
100
AcDbEntity
  8
1
  6
Continuous
 62
     2
100
AcDbLine
 10
1055.777377031025
 20
474.2676364481895
 30
0.0
 11
1056.039877031025
 21
474.0051364481896
 31
0.0
  0
LINE
  5
327
330
1F
100
AcDbEntity
  8
1
  6
Continuous
 62
     2
100
AcDbLine
 10
1055.852377031025
 20
473.8176364481896
 30
0.0
 11
1055.627377031025
 21
474.0801364481895
 31
0.0
  0
LINE
  5
328
330
1F
100
AcDbEntity
  8
1
  6
Continuous
 62
     2
100
AcDbLine
 10
1054.352377031025
 20
473.6301364481896
 30
0.0
 11
1055.439877031025
 21
473.8176364481896
 31
0.0
  0
LINE
  5
329
330
1F
100
AcDbEntity
  8
1
  6
Continuous
 62
     2
100
AcDbLine
 10
1053.527377031025
 20
473.2551364481896
 30
0.0
 11
1054.352377031025
 21
473.6301364481896
 31
0.0
  0
LINE
  5
32A
330
1F
100
AcDbEntity
  8
1
  6
Continuous
 62
     2
100
AcDbLine
 10
1051.802377031025
 20
474.0801364481895
 30
0.0
 11
1051.802377031025
 21
474.3801364481896
 31
0.0
  0
LINE
  5
32B
330
1F
100
AcDbEntity
  8
1
  6
Continuous
 62
     2
100
AcDbLine
 10
1052.852377031025
 20
474.0801364481895
 30
0.0
 11
1052.852377031025
 21
473.6301364481896
 31
0.0
  0
LINE
  5
32C
330
1F
100
AcDbEntity
  8
1
  6
Continuous
 62
     2
100
AcDbLine
 10
1050.714877031025
 20
474.0801364481895
 30
0.0
 11
1052.852377031025
 21
474.0801364481895
 31
0.0
  0
LINE
  5
32D
330
1F
100
AcDbEntity
  8
1
  6
Continuous
 62
     2
100
AcDbLine
 10
1050.714877031025
 20
473.6301364481896
 30
0.0
 11
1050.714877031025
 21
474.0801364481895
 31
0.0
  0
LINE
  5
32E
330
1F
100
AcDbEntity
  8
1
  6
Continuous
 62
     2
100
AcDbLine
 10
1052.552377031025
 20
473.3301364481895
 30
0.0
 11
1051.052377031025
 21
473.3301364481895
 31
0.0
  0
LINE
  5
32F
330
1F
100
AcDbEntity
  8
1
  6
Continuous
 62
     2
100
AcDbLine
 10
1051.802377031025
 20
471.6426364481895
 30
0.0
 11
1051.802377031025
 21
473.3301364481895
 31
0.0
  0
LINE
  5
330
330
1F
100
AcDbEntity
  8
1
  6
Continuous
 62
     2
100
AcDbLine
 10
1052.627377031025
 20
472.5801364481895
 30
0.0
 11
1051.802377031025
 21
472.5801364481895
 31
0.0
  0
LINE
  5
331
330
1F
100
AcDbEntity
  8
1
  6
Continuous
 62
     2
100
AcDbLine
 10
1051.952377031025
 20
471.5676364481896
 30
0.0
 11
1053.039877031025
 21
471.5676364481896
 31
0.0
  0
LINE
  5
332
330
1F
100
AcDbEntity
  8
1
  6
Continuous
 62
     2
100
AcDbLine
 10
1051.539877031025
 20
471.7551364481896
 30
0.0
 11
1051.952377031025
 21
471.5676364481896
 31
0.0
  0
LINE
  5
333
330
1F
100
AcDbEntity
  8
1
  6
Continuous
 62
     2
100
AcDbLine
 10
1051.277377031025
 20
471.9426364481896
 30
0.0
 11
1051.539877031025
 21
471.7551364481896
 31
0.0
  0
LINE
  5
334
330
1F
100
AcDbEntity
  8
1
  6
Continuous
 62
     2
100
AcDbLine
 10
1051.127377031025
 20
472.2051364481895
 30
0.0
 11
1051.277377031025
 21
471.9426364481896
 31
0.0
  0
LINE
  5
335
330
1F
100
AcDbEntity
  8
1
  6
Continuous
 62
     2
100
AcDbLine
 10
1051.052377031025
 20
472.1301364481896
 30
0.0
 11
1051.352377031025
 21
472.6926364481896
 31
0.0
  0
LINE
  5
336
330
1F
100
AcDbEntity
  8
1
  6
Continuous
 62
     2
100
AcDbLine
 10
1050.789877031025
 20
471.7551364481896
 30
0.0
 11
1051.052377031025
 21
472.1301364481896
 31
0.0
  0
LINE
  5
337
330
1F
100
AcDbEntity
  8
1
  6
Continuous
 62
     2
100
AcDbLine
 10
1050.602377031025
 20
471.5676364481896
 30
0.0
 11
1050.789877031025
 21
471.7551364481896
 31
0.0
  0
LINE
  5
338
330
1F
100
AcDbEntity
  8
1
  6
Continuous
 62
     2
100
AcDbLine
 10
1047.527377031025
 20
473.1426364481895
 30
0.0
 11
1050.039877031025
 21
473.1426364481895
 31
0.0
  0
LINE
  5
339
330
1F
100
AcDbEntity
  8
1
  6
Continuous
 62
     2
100
AcDbLine
 10
1046.364877031025
 20
472.1301364481896
 30
0.0
 11
1046.777377031025
 21
471.8301364481895
 31
0.0
  0
LINE
  5
33A
330
1F
100
AcDbEntity
  8
1
  6
Continuous
 62
     2
100
AcDbLine
 10
1045.952377031025
 20
472.2051364481895
 30
0.0
 11
1046.364877031025
 21
472.1301364481896
 31
0.0
  0
LINE
  5
33B
330
1F
100
AcDbEntity
  8
1
  6
Continuous
 62
     2
100
AcDbLine
 10
1045.539877031025
 20
472.1301364481896
 30
0.0
 11
1045.952377031025
 21
472.2051364481895
 31
0.0
  0
LINE
  5
33C
330
1F
100
AcDbEntity
  8
1
  6
Continuous
 62
     2
100
AcDbLine
 10
1045.539877031025
 20
471.9426364481896
 30
0.0
 11
1045.539877031025
 21
472.1301364481896
 31
0.0
  0
LINE
  5
33D
330
1F
100
AcDbEntity
  8
1
  6
Continuous
 62
     2
100
AcDbLine
 10
1045.802377031025
 20
471.7551364481896
 30
0.0
 11
1045.539877031025
 21
471.9426364481896
 31
0.0
  0
LINE
  5
33E
330
1F
100
AcDbEntity
  8
1
  6
Continuous
 62
     2
100
AcDbLine
 10
1046.102377031025
 20
471.8301364481895
 30
0.0
 11
1045.802377031025
 21
471.7551364481896
 31
0.0
  0
LINE
  5
33F
330
1F
100
AcDbEntity
  8
1
  6
Continuous
 62
     2
100
AcDbLine
 10
1046.289877031025
 20
472.0176364481895
 30
0.0
 11
1046.102377031025
 21
471.8301364481895
 31
0.0
  0
LINE
  5
340
330
1F
100
AcDbEntity
  8
1
  6
Continuous
 62
     2
100
AcDbLine
 10
1046.364877031025
 20
472.3926364481895
 30
0.0
 11
1046.289877031025
 21
472.0176364481895
 31
0.0
  0
LINE
  5
341
330
1F
100
AcDbEntity
  8
1
  6
Continuous
 62
     2
100
AcDbLine
 10
1046.289877031025
 20
474.0801364481895
 30
0.0
 11
1046.364877031025
 21
472.3926364481895
 31
0.0
  0
LINE
  5
342
330
1F
100
AcDbEntity
  8
1
  6
Continuous
 62
     2
100
AcDbLine
 10
1046.364877031025
 20
473.5176364481895
 30
0.0
 11
1046.777377031025
 21
473.6301364481896
 31
0.0
  0
LINE
  5
343
330
1F
100
AcDbEntity
  8
1
  6
Continuous
 62
     2
100
AcDbLine
 10
1045.614877031025
 20
473.4426364481896
 30
0.0
 11
1046.364877031025
 21
473.5176364481895
 31
0.0
  0
LINE
  5
344
330
1F
100
AcDbEntity
  8
1
  6
Continuous
 62
     2
100
AcDbLine
 10
1044.939877031025
 20
473.2551364481896
 30
0.0
 11
1045.127377031025
 21
474.0801364481895
 31
0.0
  0
LINE
  5
345
330
1F
100
AcDbEntity
  8
1
  6
Continuous
 62
     2
100
AcDbLine
 10
1044.939877031025
 20
472.3926364481895
 30
0.0
 11
1044.939877031025
 21
473.2551364481896
 31
0.0
  0
LINE
  5
346
330
1F
100
AcDbEntity
  8
1
  6
Continuous
 62
     2
100
AcDbLine
 10
1045.052377031025
 20
471.7551364481896
 30
0.0
 11
1044.939877031025
 21
472.3926364481895
 31
0.0
  0
LINE
  5
347
330
1F
100
AcDbEntity
  8
1
  6
Continuous
 62
     2
100
AcDbLine
 10
1042.614877031025
 20
471.7551364481896
 30
0.0
 11
1043.214877031025
 21
471.6426364481895
 31
0.0
  0
LINE
  5
348
330
1F
100
AcDbEntity
  8
1
  6
Continuous
 62
     2
100
AcDbLine
 10
1042.277377031025
 20
472.0176364481895
 30
0.0
 11
1042.614877031025
 21
471.7551364481896
 31
0.0
  0
LINE
  5
349
330
1F
100
AcDbEntity
  8
1
  6
Continuous
 62
     2
100
AcDbLine
 10
1042.464877031025
 20
472.3926364481895
 30
0.0
 11
1042.277377031025
 21
472.0176364481895
 31
0.0
  0
LINE
  5
34A
330
1F
100
AcDbEntity
  8
1
  6
Continuous
 62
     2
100
AcDbLine
 10
1042.802377031025
 20
472.5801364481895
 30
0.0
 11
1042.464877031025
 21
472.3926364481895
 31
0.0
  0
LINE
  5
34B
330
1F
100
AcDbEntity
  8
1
  6
Continuous
 62
     2
100
AcDbLine
 10
1043.102377031025
 20
472.5801364481895
 30
0.0
 11
1042.802377031025
 21
472.5801364481895
 31
0.0
  0
LINE
  5
34C
330
1F
100
AcDbEntity
  8
1
  6
Continuous
 62
     2
100
AcDbLine
 10
1043.439877031025
 20
472.5051364481896
 30
0.0
 11
1043.102377031025
 21
472.5801364481895
 31
0.0
  0
LINE
  5
34D
330
1F
100
AcDbEntity
  8
1
  6
Continuous
 62
     2
100
AcDbLine
 10
1042.877377031025
 20
473.6301364481896
 30
0.0
 11
1043.439877031025
 21
472.5051364481896
 31
0.0
  0
LINE
  5
34E
330
1F
100
AcDbEntity
  8
1
  6
Continuous
 62
     2
100
AcDbLine
 10
1042.464877031025
 20
474.2676364481895
 30
0.0
 11
1042.877377031025
 21
473.6301364481896
 31
0.0
  0
LINE
  5
34F
330
1F
100
AcDbEntity
  8
1
  6
Continuous
 62
     2
100
AcDbLine
 10
1042.802377031025
 20
473.8176364481896
 30
0.0
 11
1042.202377031025
 21
473.6301364481896
 31
0.0
  0
LINE
  5
350
330
1F
100
AcDbEntity
  8
1
  6
Continuous
 62
     2
100
AcDbLine
 10
1043.102377031025
 20
474.0051364481896
 30
0.0
 11
1042.802377031025
 21
473.8176364481896
 31
0.0
  0
LINE
  5
351
330
1F
100
AcDbEntity
  8
1
  6
Continuous
 62
     2
100
AcDbLine
 10
1042.952377031025
 20
473.2551364481896
 30
0.0
 11
1043.552377031025
 21
473.5176364481895
 31
0.0
  0
LINE
  5
352
330
1F
100
AcDbEntity
  8
1
  6
Continuous
 62
     2
100
AcDbLine
 10
1042.202377031025
 20
473.0676364481896
 30
0.0
 11
1042.952377031025
 21
473.2551364481896
 31
0.0
  0
LINE
  5
353
330
1F
100
AcDbEntity
  8
1
  6
Continuous
 62
     2
100
AcDbLine
 10
1039.127377031025
 20
473.8176364481896
 30
0.0
 11
1039.539877031025
 21
474.3801364481896
 31
0.0
  0
LINE
  5
354
330
1F
100
AcDbEntity
  8
1
  6
Continuous
 62
     2
100
AcDbLine
 10
1040.102377031025
 20
472.3926364481895
 30
0.0
 11
1039.464877031025
 21
472.3926364481895
 31
0.0
  0
LINE
  5
355
330
1F
100
AcDbEntity
  8
1
  6
Continuous
 62
     2
100
AcDbLine
 10
1040.102377031025
 20
473.1426364481895
 30
0.0
 11
1040.102377031025
 21
472.3926364481895
 31
0.0
  0
LINE
  5
356
330
1F
100
AcDbEntity
  8
1
  6
Continuous
 62
     2
100
AcDbLine
 10
1039.464877031025
 20
473.1426364481895
 30
0.0
 11
1040.102377031025
 21
473.1426364481895
 31
0.0
  0
LINE
  5
357
330
1F
100
AcDbEntity
  8
1
  6
Continuous
 62
     2
100
AcDbLine
 10
1039.464877031025
 20
472.3926364481895
 30
0.0
 11
1039.464877031025
 21
473.1426364481895
 31
0.0
  0
LINE
  5
358
330
1F
100
AcDbEntity
  8
1
  6
Continuous
 62
     2
100
AcDbLine
 10
1040.852377031025
 20
471.5676364481896
 30
0.0
 11
1040.439877031025
 21
471.5676364481896
 31
0.0
  0
LINE
  5
359
330
1F
100
AcDbEntity
  8
1
  6
Continuous
 62
     2
100
AcDbLine
 10
1040.852377031025
 20
473.8176364481896
 30
0.0
 11
1040.852377031025
 21
471.5676364481896
 31
0.0
  0
LINE
  5
35A
330
1F
100
AcDbEntity
  8
1
  6
Continuous
 62
     2
100
AcDbLine
 10
1038.714877031025
 20
473.8176364481896
 30
0.0
 11
1040.852377031025
 21
473.8176364481896
 31
0.0
  0
LINE
  5
35B
330
1F
100
AcDbEntity
  8
1
  6
Continuous
 62
     2
100
AcDbLine
 10
1038.714877031025
 20
471.5676364481896
 30
0.0
 11
1038.714877031025
 21
473.8176364481896
 31
0.0
  0
LINE
  5
35C
330
1F
100
AcDbEntity
  8
1
  6
Continuous
 62
     2
100
AcDbLine
 10
1037.552377031025
 20
472.1301364481896
 30
0.0
 11
1037.102377031025
 21
471.7551364481896
 31
0.0
  0
LINE
  5
35D
330
1F
100
AcDbEntity
  8
1
  6
Continuous
 62
     2
100
AcDbLine
 10
1037.777377031025
 20
472.5801364481895
 30
0.0
 11
1037.552377031025
 21
472.1301364481896
 31
0.0
  0
LINE
  5
35E
330
1F
100
AcDbEntity
  8
1
  6
Continuous
 62
     2
100
AcDbLine
 10
1037.777377031025
 20
473.2551364481896
 30
0.0
 11
1037.777377031025
 21
472.5801364481895
 31
0.0
  0
LINE
  5
35F
330
1F
100
AcDbEntity
  8
1
  6
Continuous
 62
     2
100
AcDbLine
 10
1037.552377031025
 20
473.6301364481896
 30
0.0
 11
1037.777377031025
 21
473.2551364481896
 31
0.0
  0
LINE
  5
360
330
1F
100
AcDbEntity
  8
1
  6
Continuous
 62
     2
100
AcDbLine
 10
1037.214877031025
 20
473.8176364481896
 30
0.0
 11
1037.552377031025
 21
473.6301364481896
 31
0.0
  0
LINE
  5
361
330
1F
100
AcDbEntity
  8
1
  6
Continuous
 62
     2
100
AcDbLine
 10
1036.689877031025
 20
473.8176364481896
 30
0.0
 11
1037.214877031025
 21
473.8176364481896
 31
0.0
  0
LINE
  5
362
330
1F
100
AcDbEntity
  8
1
  6
Continuous
 62
     2
100
AcDbLine
 10
1036.202377031025
 20
473.6301364481896
 30
0.0
 11
1036.689877031025
 21
473.8176364481896
 31
0.0
  0
LINE
  5
363
330
1F
100
AcDbEntity
  8
1
  6
Continuous
 62
     2
100
AcDbLine
 10
1035.864877031025
 20
473.1426364481895
 30
0.0
 11
1036.202377031025
 21
473.6301364481896
 31
0.0
  0
LINE
  5
364
330
1F
100
AcDbEntity
  8
1
  6
Continuous
 62
     2
100
AcDbLine
 10
1035.789877031025
 20
472.5801364481895
 30
0.0
 11
1035.864877031025
 21
473.1426364481895
 31
0.0
  0
LINE
  5
365
330
1F
100
AcDbEntity
  8
1
  6
Continuous
 62
     2
100
AcDbLine
 10
1035.864877031025
 20
472.1301364481896
 30
0.0
 11
1035.789877031025
 21
472.5801364481895
 31
0.0
  0
LINE
  5
366
330
1F
100
AcDbEntity
  8
1
  6
Continuous
 62
     2
100
AcDbLine
 10
1036.202377031025
 20
471.9426364481896
 30
0.0
 11
1035.864877031025
 21
472.1301364481896
 31
0.0
  0
LINE
  5
367
330
1F
100
AcDbEntity
  8
1
  6
Continuous
 62
     2
100
AcDbLine
 10
1036.614877031025
 20
472.8801364481896
 30
0.0
 11
1036.202377031025
 21
471.9426364481896
 31
0.0
  0
LINE
  5
368
330
1F
100
AcDbEntity
  8
1
  6
Continuous
 62
     2
100
AcDbLine
 10
1036.877377031025
 20
473.8176364481896
 30
0.0
 11
1036.614877031025
 21
472.8801364481896
 31
0.0
  0
LINE
  5
369
330
1F
100
AcDbEntity
  8
1
  6
Continuous
 62
     2
100
AcDbLine
 10
1034.439877031025
 20
471.8301364481895
 30
0.0
 11
1034.852377031025
 21
471.9426364481896
 31
0.0
  0
LINE
  5
36A
330
1F
100
AcDbEntity
  8
1
  6
Continuous
 62
     2
100
AcDbLine
 10
1034.027377031025
 20
471.9426364481896
 30
0.0
 11
1034.439877031025
 21
471.8301364481895
 31
0.0
  0
LINE
  5
36B
330
1F
100
AcDbEntity
  8
1
  6
Continuous
 62
     2
100
AcDbLine
 10
1033.877377031025
 20
472.1301364481896
 30
0.0
 11
1034.027377031025
 21
471.9426364481896
 31
0.0
  0
LINE
  5
36C
330
1F
100
AcDbEntity
  8
1
  6
Continuous
 62
     2
100
AcDbLine
 10
1034.364877031025
 20
473.3301364481895
 30
0.0
 11
1034.702377031025
 21
473.2551364481896
 31
0.0
  0
LINE
  5
36D
330
1F
100
AcDbEntity
  8
1
  6
Continuous
 62
     2
100
AcDbLine
 10
1034.102377031025
 20
473.3301364481895
 30
0.0
 11
1034.364877031025
 21
473.3301364481895
 31
0.0
  0
LINE
  5
36E
330
1F
100
AcDbEntity
  8
1
  6
Continuous
 62
     2
100
AcDbLine
 10
1033.464877031025
 20
473.5176364481895
 30
0.0
 11
1032.864877031025
 21
473.4426364481896
 31
0.0
  0
LINE
  5
36F
330
1F
100
AcDbEntity
  8
1
  6
Continuous
 62
     2
100
AcDbLine
 10
1034.027377031025
 20
473.7051364481895
 30
0.0
 11
1033.464877031025
 21
473.5176364481895
 31
0.0
  0
LINE
  5
370
330
1F
100
AcDbEntity
  8
1
  6
Continuous
 62
     2
100
AcDbLine
 10
1033.277377031025
 20
472.7676364481895
 30
0.0
 11
1033.464877031025
 21
474.0051364481896
 31
0.0
  0
LINE
  5
371
330
1F
100
AcDbEntity
  8
1
  6
Continuous
 62
     2
100
AcDbLine
 10
1033.052377031025
 20
471.7551364481896
 30
0.0
 11
1033.277377031025
 21
472.7676364481895
 31
0.0
  0
LINE
  5
372
330
1F
100
AcDbEntity
  8
1
  6
Continuous
 62
     2
100
AcDbLine
 10
1031.777377031025
 20
472.2051364481895
 30
0.0
 11
1031.964877031025
 21
471.9426364481896
 31
0.0
  0
LINE
  5
373
330
1F
100
AcDbEntity
  8
1
  6
Continuous
 62
     2
100
AcDbLine
 10
1031.552377031025
 20
472.5051364481896
 30
0.0
 11
1031.777377031025
 21
472.2051364481895
 31
0.0
  0
LINE
  5
374
330
1F
100
AcDbEntity
  8
1
  6
Continuous
 62
     2
100
AcDbLine
 10
1030.952377031025
 20
473.6301364481896
 30
0.0
 11
1030.689877031025
 21
473.8926364481895
 31
0.0
  0
LINE
  5
375
330
1F
100
AcDbEntity
  8
1
  6
Continuous
 62
     2
100
AcDbLine
 10
1031.027377031025
 20
473.3301364481895
 30
0.0
 11
1030.952377031025
 21
473.6301364481896
 31
0.0
  0
LINE
  5
376
330
1F
100
AcDbEntity
  8
1
  6
Continuous
 62
     2
100
AcDbLine
 10
1030.689877031025
 20
473.1426364481895
 30
0.0
 11
1031.027377031025
 21
473.3301364481895
 31
0.0
  0
LINE
  5
377
330
1F
100
AcDbEntity
  8
1
  6
Continuous
 62
     2
100
AcDbLine
 10
1030.614877031025
 20
472.8801364481896
 30
0.0
 11
1030.689877031025
 21
473.1426364481895
 31
0.0
  0
LINE
  5
378
330
1F
100
AcDbEntity
  8
1
  6
Continuous
 62
     2
100
AcDbLine
 10
1030.952377031025
 20
472.3926364481895
 30
0.0
 11
1030.614877031025
 21
472.8801364481896
 31
0.0
  0
LINE
  5
379
330
1F
100
AcDbEntity
  8
1
  6
Continuous
 62
     2
100
AcDbLine
 10
1031.027377031025
 20
472.0176364481895
 30
0.0
 11
1030.952377031025
 21
472.3926364481895
 31
0.0
  0
LINE
  5
37A
330
1F
100
AcDbEntity
  8
1
  6
Continuous
 62
     2
100
AcDbLine
 10
1030.877377031025
 20
471.8301364481895
 30
0.0
 11
1031.027377031025
 21
472.0176364481895
 31
0.0
  0
LINE
  5
37B
330
1F
100
AcDbEntity
  8
1
  6
Continuous
 62
     2
100
AcDbLine
 10
1030.539877031025
 20
471.8301364481895
 30
0.0
 11
1030.877377031025
 21
471.8301364481895
 31
0.0
  0
LINE
  5
37C
330
1F
100
AcDbEntity
  8
1
  6
Continuous
 62
     2
100
AcDbLine
 10
1029.939877031025
 20
471.9426364481896
 30
0.0
 11
1030.202377031025
 21
472.2051364481895
 31
0.0
  0
LINE
  5
37D
330
1F
100
AcDbEntity
  8
1
  6
Continuous
 62
     2
100
AcDbLine
 10
1029.864877031025
 20
472.1301364481896
 30
0.0
 11
1029.939877031025
 21
471.9426364481896
 31
0.0
  0
LINE
  5
37E
330
1F
100
AcDbEntity
  8
1
  6
Continuous
 62
     2
100
AcDbLine
 10
1029.789877031025
 20
472.3926364481895
 30
0.0
 11
1029.864877031025
 21
472.1301364481896
 31
0.0
  0
LINE
  5
37F
330
1F
100
AcDbEntity
  8
1
  6
Continuous
 62
     7
100
AcDbLine
 10
1100.685173558933
 20
410.8583804669723
 30
0.0
 11
1100.685173558933
 21
420.8583804669723
 31
0.0
  0
LINE
  5
380
330
1F
100
AcDbEntity
  8
1
  6
Continuous
 62
     7
100
AcDbLine
 10
1105.685173558933
 20
409.8583804669723
 30
0.0
 11
1101.685173558933
 21
409.8583804669723
 31
0.0
  0
LINE
  5
381
330
1F
100
AcDbEntity
  8
1
  6
Continuous
 62
     7
100
AcDbLine
 10
1106.685173558933
 20
420.8583804669723
 30
0.0
 11
1106.685173558933
 21
410.8583804669723
 31
0.0
  0
LINE
  5
382
330
1F
100
AcDbEntity
  8
1
  6
Continuous
 62
     7
100
AcDbLine
 10
1101.685173558933
 20
421.8583804669723
 30
0.0
 11
1105.685173558933
 21
421.8583804669723
 31
0.0
  0
LINE
  5
383
330
1F
100
AcDbEntity
  8
1
  6
Continuous
 62
     7
100
AcDbLine
 10
1066.185173558933
 20
423.8583804669723
 30
0.0
 11
1141.185173558933
 21
423.8583804669723
 31
0.0
  0
LINE
  5
384
330
1F
100
AcDbEntity
  8
1
  6
Continuous
 62
     7
100
AcDbLine
 10
1066.185173558933
 20
431.3583804669723
 30
0.0
 11
1144.685173558933
 21
431.3583804669723
 31
0.0
  0
LINE
  5
385
330
1F
100
AcDbEntity
  8
1
  6
Continuous
 62
     7
100
AcDbLine
 10
1141.185173558933
 20
407.8583804669723
 30
0.0
 11
1066.185173558933
 21
407.8583804669723
 31
0.0
  0
LINE
  5
386
330
1F
100
AcDbEntity
  8
1
  6
DASH_CENTER
 62
     2
100
AcDbLine
 10
1062.685173558933
 20
429.4862034361403
 30
0.0
 11
1062.685173558933
 21
426.0520162762028
 31
0.0
  0
LINE
  5
387
330
1F
100
AcDbEntity
  8
1
  6
DASH_CENTER
 62
     2
100
AcDbLine
 10
1060.902853643284
 20
427.8583804669723
 30
0.0
 11
1064.366774025386
 21
427.8583804669723
 31
0.0
  0
LINE
  5
388
330
1F
100
AcDbEntity
  8
1
  6
Continuous
 62
     7
100
AcDbLine
 10
1065.185173558933
 20
422.8583804669723
 30
0.0
 11
1065.185173558933
 21
408.8583804669723
 31
0.0
  0
LINE
  5
389
330
1F
100
AcDbEntity
  8
1
  6
Continuous
 62
     7
100
AcDbLine
 10
1060.185173558933
 20
409.8583804669723
 30
0.0
 11
1064.185173558933
 21
409.8583804669723
 31
0.0
  0
LINE
  5
38A
330
1F
100
AcDbEntity
  8
1
  6
Continuous
 62
     7
100
AcDbLine
 10
1066.685173558933
 20
423.8583804669723
 30
0.0
 11
1066.685173558933
 21
431.3583804669723
 31
0.0
  0
LINE
  5
38B
330
1F
100
AcDbEntity
  8
1
  6
Continuous
 62
     7
100
AcDbLine
 10
1142.185173558933
 20
408.8583804669723
 30
0.0
 11
1142.185173558933
 21
422.8583804669723
 31
0.0
  0
LINE
  5
38C
330
1F
100
AcDbEntity
  8
1
  6
Continuous
 62
     7
100
AcDbLine
 10
1143.185173558933
 20
409.8583804669723
 30
0.0
 11
1147.185173558933
 21
409.8583804669723
 31
0.0
  0
LINE
  5
38D
330
1F
100
AcDbEntity
  8
1
  6
Continuous
 62
     7
100
AcDbLine
 10
1140.685173558933
 20
431.3583804669723
 30
0.0
 11
1140.685173558933
 21
423.8583804669723
 31
0.0
  0
LINE
  5
38E
330
1F
100
AcDbEntity
  8
1
  6
Continuous
 62
     7
100
AcDbLine
 10
1148.185173558933
 20
427.8583804669723
 30
0.0
 11
1148.185173558933
 21
410.8583804669723
 31
0.0
  0
LINE
  5
38F
330
1F
100
AcDbEntity
  8
1
  6
Continuous
 62
     7
100
AcDbLine
 10
1066.185173558933
 20
437.3583804669723
 30
0.0
 11
1066.185173558933
 21
431.3583804669723
 31
0.0
  0
LINE
  5
390
330
1F
100
AcDbEntity
  8
1
  6
Continuous
 62
     2
100
AcDbLine
 10
1066.185173558933
 20
431.3583804669723
 30
0.0
 11
1066.185173558933
 21
427.8583804669723
 31
0.0
  0
LINE
  5
391
330
1F
100
AcDbEntity
  8
1
  6
Continuous
 62
     7
100
AcDbLine
 10
1059.185173558933
 20
439.3583804669723
 30
0.0
 11
1059.185173558933
 21
410.8583804669723
 31
0.0
  0
LINE
  5
392
330
1F
100
AcDbEntity
  8
1
  6
Continuous
 62
     7
100
AcDbLine
 10
1060.185173558933
 20
440.3583804669723
 30
0.0
 11
1068.685173558933
 21
440.3583804669723
 31
0.0
  0
LINE
  5
393
330
1F
100
AcDbEntity
  8
1
  6
Continuous
 62
     7
100
AcDbLine
 10
1141.185173558933
 20
431.3583804669723
 30
0.0
 11
1141.185173558933
 21
436.3583804669723
 31
0.0
  0
LINE
  5
394
330
1F
100
AcDbEntity
  8
1
  6
Continuous
 62
     7
100
AcDbLine
 10
1060.685173558933
 20
437.3583804669723
 30
0.0
 11
1145.185173558933
 21
437.3583804669723
 31
0.0
  0
LINE
  5
395
330
1F
100
AcDbEntity
  8
1
  6
Continuous
 62
     7
100
AcDbLine
 10
1146.185173558933
 20
436.3583804669723
 30
0.0
 11
1146.185173558933
 21
435.3583804669723
 31
0.0
  0
LINE
  5
396
330
1F
100
AcDbEntity
  8
1
  6
Continuous
 62
     7
100
AcDbLine
 10
1146.185173558933
 20
435.3583804669723
 30
0.0
 11
1141.185173558933
 21
435.3583804669723
 31
0.0
  0
LINE
  5
397
330
1F
100
AcDbEntity
  8
1
  6
Continuous
 62
     7
100
AcDbLine
 10
1108.185173558933
 20
474.1176158559792
 30
0.0
 11
1108.185173558933
 21
529.117615855979
 31
0.0
  0
LINE
  5
398
330
1F
100
AcDbEntity
  8
1
  6
Continuous
 62
     7
100
AcDbLine
 10
1118.685173558933
 20
474.1176158559792
 30
0.0
 11
1108.185173558933
 21
474.1176158559792
 31
0.0
  0
LINE
  5
399
330
1F
100
AcDbEntity
  8
1
  6
Continuous
 62
     7
100
AcDbLine
 10
1118.685173558933
 20
529.117615855979
 30
0.0
 11
1118.685173558933
 21
474.1176158559792
 31
0.0
  0
LINE
  5
39A
330
1F
100
AcDbEntity
  8
1
  6
Continuous
 62
     7
100
AcDbLine
 10
1108.185173558933
 20
529.117615855979
 30
0.0
 11
1118.685173558933
 21
529.117615855979
 31
0.0
  0
LINE
  5
39B
330
1F
100
AcDbEntity
  8
1
  6
Continuous
 62
     7
100
AcDbLine
 10
1130.297701804093
 20
493.9284070052324
 30
0.0
 11
1130.297701804093
 21
495.9284070052324
 31
0.0
  0
LINE
  5
39C
330
1F
100
AcDbEntity
  8
1
  6
Continuous
 62
     7
100
AcDbLine
 10
1129.356143448453
 20
491.4894139189667
 30
0.0
 11
1128.794986370644
 21
492.4256915717827
 31
0.0
  0
LINE
  5
39D
330
1F
100
AcDbEntity
  8
1
  6
Continuous
 62
     7
100
AcDbLine
 10
1131.291537954678
 20
493.7528657591193
 30
0.0
 11
1131.291537954678
 21
496.1187727864742
 31
0.0
  0
LINE
  5
39E
330
1F
100
AcDbEntity
  8
1
  6
Continuous
 62
     7
100
AcDbLine
 10
1126.412236202039
 20
494.0568376327072
 30
0.0
 11
1126.412236202039
 21
495.9284070105676
 31
0.0
  0
LINE
  5
39F
330
1F
100
AcDbEntity
  8
1
  6
Continuous
 62
     7
100
AcDbLine
 10
1125.743125639924
 20
494.0568376327072
 30
0.0
 11
1126.412236202039
 21
494.0568376327072
 31
0.0
  0
LINE
  5
3A0
330
1F
100
AcDbEntity
  8
1
  6
Continuous
 62
     7
100
AcDbLine
 10
1122.685173558933
 20
497.3201577519222
 30
0.0
 11
1125.743125639924
 21
494.0568376327072
 31
0.0
  0
LINE
  5
3A1
330
1F
100
AcDbEntity
  8
1
  6
Continuous
 62
     7
100
AcDbLine
 10
1122.685173558933
 20
491.4311224386823
 30
0.0
 11
1122.685173558933
 21
497.3201577519222
 31
0.0
  0
LINE
  5
3A2
330
1F
100
AcDbEntity
  8
1
  6
Continuous
 62
     7
100
AcDbLine
 10
1121.685173558933
 20
491.4311224386823
 30
0.0
 11
1122.685173558933
 21
491.4311224386823
 31
0.0
  0
LINE
  5
3A3
330
1F
100
AcDbEntity
  8
1
  6
Continuous
 62
     7
100
AcDbLine
 10
1123.185173558933
 20
498.4311224386823
 30
0.0
 11
1125.412236202039
 21
495.9284070052324
 31
0.0
  0
LINE
  5
3A4
330
1F
100
AcDbEntity
  8
1
  6
Continuous
 62
     7
100
AcDbLine
 10
1121.685173558933
 20
498.4311224386823
 30
0.0
 11
1123.185173558933
 21
498.4311224386823
 31
0.0
  0
LINE
  5
3A5
330
1F
100
AcDbEntity
  8
1
  6
Continuous
 62
     7
100
AcDbLine
 10
1121.685173558933
 20
491.4311224386823
 30
0.0
 11
1121.685173558933
 21
498.4311224386823
 31
0.0
  0
LINE
  5
3A6
330
1F
100
AcDbEntity
  8
1
  6
Continuous
 62
     7
100
AcDbLine
 10
1124.040116124374
 20
487.1176158559793
 30
0.0
 11
1124.040116124374
 21
488.1176158559793
 31
0.0
  0
LINE
  5
3A7
330
1F
100
AcDbEntity
  8
1
  6
Continuous
 62
     7
100
AcDbLine
 10
1121.685173558933
 20
488.1176158559793
 30
0.0
 11
1124.040116124374
 21
487.1176158559793
 31
0.0
  0
LINE
  5
3A8
330
1F
100
AcDbEntity
  8
1
  6
DASH_CENTER
 62
     7
100
AcDbLine
 10
1131.685173558933
 20
488.1176158559793
 30
0.0
 11
1131.685173558933
 21
489.1176158559792
 31
0.0
  0
LINE
  5
3A9
330
1F
100
AcDbEntity
  8
1
  6
Continuous
 62
     7
100
AcDbLine
 10
1131.685173558933
 20
488.1176158559793
 30
0.0
 11
1124.040116124374
 21
488.1176158559793
 31
0.0
  0
LINE
  5
3AA
330
1F
100
AcDbEntity
  8
1
  6
Continuous
 62
     7
100
AcDbLine
 10
1121.685173558933
 20
488.1176158559793
 30
0.0
 11
1121.685173558933
 21
489.1176158559792
 31
0.0
  0
LINE
  5
3AB
330
1F
100
AcDbEntity
  8
1
  6
Continuous
 62
     7
100
AcDbLine
 10
1131.685173558933
 20
488.1176158559793
 30
0.0
 11
1131.685173558933
 21
489.1176158559792
 31
0.0
  0
LINE
  5
3AC
330
1F
100
AcDbEntity
  8
1
  6
Continuous
 62
     7
100
AcDbLine
 10
1131.685173558933
 20
489.1176158559792
 30
0.0
 11
1121.685173558933
 21
489.1176158559792
 31
0.0
  0
LINE
  5
3AD
330
1F
100
AcDbEntity
  8
1
  6
Continuous
 62
     7
100
AcDbLine
 10
1121.685173558933
 20
489.1176158559792
 30
0.0
 11
1121.685173558933
 21
488.1176158559793
 31
0.0
  0
LINE
  5
3AE
330
1F
100
AcDbEntity
  8
1
  6
Continuous
 62
     7
100
AcDbLine
 10
1124.040116124374
 20
488.1176158559793
 30
0.0
 11
1131.685173558933
 21
488.1176158559793
 31
0.0
  0
LINE
  5
3AF
330
1F
100
AcDbEntity
  8
1
  6
Continuous
 62
     7
100
AcDbLine
 10
1140.951109747361
 20
491.6176158559792
 30
0.0
 11
1144.197517356842
 21
491.6176158559792
 31
0.0
  0
LINE
  5
3B0
330
1F
100
AcDbEntity
  8
1
  6
Continuous
 62
     7
100
AcDbLine
 10
1140.951109747361
 20
511.617615855979
 30
0.0
 11
1144.197517356842
 21
511.617615855979
 31
0.0
  0
LINE
  5
3B1
330
1F
100
AcDbEntity
  8
1
  6
Continuous
 62
     7
100
AcDbLine
 10
1094.945173558933
 20
505.2776158559791
 30
0.0
 11
1096.425173558933
 21
505.2776158559791
 31
0.0
  0
LINE
  5
3B2
330
1F
100
AcDbEntity
  8
1
  6
Continuous
 62
     7
100
AcDbLine
 10
1096.425173558933
 20
505.2776158559791
 30
0.0
 11
1096.425173558933
 21
502.3576158559791
 31
0.0
  0
LINE
  5
3B3
330
1F
100
AcDbEntity
  8
1
  6
Continuous
 62
     7
100
AcDbLine
 10
1096.425173558933
 20
502.3576158559791
 30
0.0
 11
1099.345173558933
 21
502.3576158559791
 31
0.0
  0
LINE
  5
3B4
330
1F
100
AcDbEntity
  8
1
  6
Continuous
 62
     7
100
AcDbLine
 10
1099.345173558933
 20
502.3576158559791
 30
0.0
 11
1099.345173558933
 21
500.8776158559792
 31
0.0
  0
LINE
  5
3B5
330
1F
100
AcDbEntity
  8
1
  6
Continuous
 62
     7
100
AcDbLine
 10
1099.345173558933
 20
500.8776158559792
 30
0.0
 11
1096.425173558933
 21
500.8776158559792
 31
0.0
  0
LINE
  5
3B6
330
1F
100
AcDbEntity
  8
1
  6
Continuous
 62
     7
100
AcDbLine
 10
1096.425173558933
 20
500.8776158559792
 30
0.0
 11
1096.425173558933
 21
497.9576158559791
 31
0.0
  0
LINE
  5
3B7
330
1F
100
AcDbEntity
  8
1
  6
Continuous
 62
     7
100
AcDbLine
 10
1096.425173558933
 20
497.9576158559791
 30
0.0
 11
1094.945173558933
 21
497.9576158559791
 31
0.0
  0
LINE
  5
3B8
330
1F
100
AcDbEntity
  8
1
  6
Continuous
 62
     7
100
AcDbLine
 10
1094.945173558933
 20
497.9576158559791
 30
0.0
 11
1094.945173558933
 21
500.8776158559792
 31
0.0
  0
LINE
  5
3B9
330
1F
100
AcDbEntity
  8
1
  6
Continuous
 62
     7
100
AcDbLine
 10
1094.945173558933
 20
500.8776158559792
 30
0.0
 11
1092.025173558933
 21
500.8776158559792
 31
0.0
  0
LINE
  5
3BA
330
1F
100
AcDbEntity
  8
1
  6
Continuous
 62
     7
100
AcDbLine
 10
1092.025173558933
 20
500.8776158559792
 30
0.0
 11
1092.025173558933
 21
502.3576158559791
 31
0.0
  0
LINE
  5
3BB
330
1F
100
AcDbEntity
  8
1
  6
Continuous
 62
     7
100
AcDbLine
 10
1092.025173558933
 20
502.3576158559791
 30
0.0
 11
1094.945173558933
 21
502.3576158559791
 31
0.0
  0
LINE
  5
3BC
330
1F
100
AcDbEntity
  8
1
  6
Continuous
 62
     7
100
AcDbLine
 10
1094.945173558933
 20
502.3576158559791
 30
0.0
 11
1094.945173558933
 21
505.2776158559791
 31
0.0
  0
LINE
  5
3BD
330
1F
100
AcDbEntity
  8
1
  6
Continuous
 62
     7
100
AcDbLine
 10
1095.685173558933
 20
507.3876158559791
 30
0.0
 11
1090.688206979097
 21
510.2726158559791
 31
0.0
  0
LINE
  5
3BE
330
1F
100
AcDbEntity
  8
1
  6
Continuous
 62
     7
100
AcDbLine
 10
1090.688206979097
 20
510.2726158559791
 30
0.0
 11
1090.688206979097
 21
504.5026158559792
 31
0.0
  0
LINE
  5
3BF
330
1F
100
AcDbEntity
  8
1
  6
Continuous
 62
     7
100
AcDbLine
 10
1090.688206979097
 20
504.5026158559792
 30
0.0
 11
1085.691240399261
 21
501.617615855979
 31
0.0
  0
LINE
  5
3C0
330
1F
100
AcDbEntity
  8
1
  6
Continuous
 62
     7
100
AcDbLine
 10
1085.691240399261
 20
501.617615855979
 30
0.0
 11
1090.688206979097
 21
498.7326158559791
 31
0.0
  0
LINE
  5
3C1
330
1F
100
AcDbEntity
  8
1
  6
Continuous
 62
     7
100
AcDbLine
 10
1090.688206979097
 20
498.7326158559791
 30
0.0
 11
1090.688206979097
 21
492.9626158559791
 31
0.0
  0
LINE
  5
3C2
330
1F
100
AcDbEntity
  8
1
  6
Continuous
 62
     7
100
AcDbLine
 10
1090.688206979097
 20
492.9626158559791
 30
0.0
 11
1095.685173558933
 21
495.8476158559791
 31
0.0
  0
LINE
  5
3C3
330
1F
100
AcDbEntity
  8
1
  6
Continuous
 62
     7
100
AcDbLine
 10
1095.685173558933
 20
495.8476158559791
 30
0.0
 11
1100.682140138769
 21
492.9626158559791
 31
0.0
  0
LINE
  5
3C4
330
1F
100
AcDbEntity
  8
1
  6
Continuous
 62
     7
100
AcDbLine
 10
1100.682140138769
 20
492.9626158559791
 30
0.0
 11
1100.682140138769
 21
498.7326158559791
 31
0.0
  0
LINE
  5
3C5
330
1F
100
AcDbEntity
  8
1
  6
Continuous
 62
     7
100
AcDbLine
 10
1100.682140138769
 20
498.7326158559791
 30
0.0
 11
1105.679106718606
 21
501.617615855979
 31
0.0
  0
LINE
  5
3C6
330
1F
100
AcDbEntity
  8
1
  6
Continuous
 62
     7
100
AcDbLine
 10
1105.679106718606
 20
501.617615855979
 30
0.0
 11
1100.682140138769
 21
504.5026158559792
 31
0.0
  0
LINE
  5
3C7
330
1F
100
AcDbEntity
  8
1
  6
Continuous
 62
     7
100
AcDbLine
 10
1100.682140138769
 20
504.5026158559792
 30
0.0
 11
1100.682140138769
 21
510.2726158559791
 31
0.0
  0
LINE
  5
3C8
330
1F
100
AcDbEntity
  8
1
  6
Continuous
 62
     7
100
AcDbLine
 10
1100.682140138769
 20
510.2726158559791
 30
0.0
 11
1095.685173558933
 21
507.3876158559791
 31
0.0
  0
LINE
  5
3C9
330
1F
100
AcDbEntity
  8
1
  6
Continuous
 62
     7
100
AcDbLine
 10
1095.685173558933
 20
505.8476158559791
 30
0.0
 11
1092.021886100925
 21
507.9626158559791
 31
0.0
  0
LINE
  5
3CA
330
1F
100
AcDbEntity
  8
1
  6
Continuous
 62
     7
100
AcDbLine
 10
1092.021886100925
 20
507.9626158559791
 30
0.0
 11
1092.021886100925
 21
503.7326158559791
 31
0.0
  0
LINE
  5
3CB
330
1F
100
AcDbEntity
  8
1
  6
Continuous
 62
     7
100
AcDbLine
 10
1092.021886100925
 20
503.7326158559791
 30
0.0
 11
1088.358598642917
 21
501.617615855979
 31
0.0
  0
LINE
  5
3CC
330
1F
100
AcDbEntity
  8
1
  6
Continuous
 62
     7
100
AcDbLine
 10
1088.358598642917
 20
501.617615855979
 30
0.0
 11
1092.021886100925
 21
499.5026158559792
 31
0.0
  0
LINE
  5
3CD
330
1F
100
AcDbEntity
  8
1
  6
Continuous
 62
     7
100
AcDbLine
 10
1092.021886100925
 20
499.5026158559792
 30
0.0
 11
1092.021886100925
 21
495.2726158559791
 31
0.0
  0
LINE
  5
3CE
330
1F
100
AcDbEntity
  8
1
  6
Continuous
 62
     7
100
AcDbLine
 10
1092.021886100925
 20
495.2726158559791
 30
0.0
 11
1095.685173558933
 21
497.3876158559791
 31
0.0
  0
LINE
  5
3CF
330
1F
100
AcDbEntity
  8
1
  6
Continuous
 62
     7
100
AcDbLine
 10
1095.685173558933
 20
497.3876158559791
 30
0.0
 11
1099.348461016941
 21
495.2726158559791
 31
0.0
  0
LINE
  5
3D0
330
1F
100
AcDbEntity
  8
1
  6
Continuous
 62
     7
100
AcDbLine
 10
1099.348461016941
 20
495.2726158559791
 30
0.0
 11
1099.348461016941
 21
499.5026158559792
 31
0.0
  0
LINE
  5
3D1
330
1F
100
AcDbEntity
  8
1
  6
Continuous
 62
     7
100
AcDbLine
 10
1099.348461016941
 20
499.5026158559792
 30
0.0
 11
1103.011748474949
 21
501.617615855979
 31
0.0
  0
LINE
  5
3D2
330
1F
100
AcDbEntity
  8
1
  6
Continuous
 62
     7
100
AcDbLine
 10
1103.011748474949
 20
501.617615855979
 30
0.0
 11
1099.348461016941
 21
503.7326158559791
 31
0.0
  0
LINE
  5
3D3
330
1F
100
AcDbEntity
  8
1
  6
Continuous
 62
     7
100
AcDbLine
 10
1099.348461016941
 20
503.7326158559791
 30
0.0
 11
1099.348461016941
 21
507.9626158559791
 31
0.0
  0
LINE
  5
3D4
330
1F
100
AcDbEntity
  8
1
  6
Continuous
 62
     7
100
AcDbLine
 10
1099.348461016941
 20
507.9626158559791
 30
0.0
 11
1095.685173558933
 21
505.8476158559791
 31
0.0
  0
LINE
  5
3D5
330
1F
100
AcDbEntity
  8
1
  6
Continuous
 62
     7
100
AcDbLine
 10
1083.928777677063
 20
518.2909246469649
 30
0.0
 11
1082.611794698022
 21
519.0480586295889
 31
0.0
  0
LINE
  5
3D6
330
1F
100
AcDbEntity
  8
1
  6
Continuous
 62
     7
100
AcDbLine
 10
1079.983631773014
 20
511.4257955894282
 30
0.0
 11
1078.729679593773
 21
512.1481908481842
 31
0.0
  0
LINE
  5
3D7
330
1F
100
AcDbEntity
  8
1
  6
Continuous
 62
     7
100
AcDbLine
 10
1083.398287872212
 20
516.9521979401031
 30
0.0
 11
1082.042194736236
 21
517.7318163658463
 31
0.0
  0
LINE
  5
3D8
330
1F
100
AcDbEntity
  8
1
  6
Continuous
 62
     7
100
AcDbLine
 10
1079.534166012042
 20
513.3293968046312
 30
0.0
 11
1081.091994854723
 21
512.4338004494186
 31
0.0
  0
LINE
  5
3D9
330
1F
100
AcDbEntity
  8
1
  6
Continuous
 62
     7
100
AcDbLine
 10
1079.723597941003
 20
482.726987672251
 30
0.0
 11
1087.453931642074
 21
488.2548498013602
 31
0.0
  0
LINE
  5
3DA
330
1F
100
AcDbEntity
  8
1
  6
Continuous
 62
     7
100
AcDbLine
 10
1086.625052221082
 20
489.4139804693417
 30
0.0
 11
1078.89471852001
 21
483.8861183402325
 31
0.0
  0
LINE
  5
3DB
330
1F
100
AcDbEntity
  8
1
  6
Continuous
 62
     7
100
AcDbLine
 10
1082.887008998301
 20
498.5501463226069
 30
0.0
 11
1073.759852457908
 21
495.528500564324
 31
0.0
  0
LINE
  5
3DC
330
1F
100
AcDbEntity
  8
1
  6
Continuous
 62
     7
100
AcDbLine
 10
1076.220725922935
 20
488.0039716679987
 30
0.0
 11
1085.335890577424
 21
491.0216473802963
 31
0.0
  0
LINE
  5
3DD
330
1F
100
AcDbEntity
  8
1
  6
Continuous
 62
     7
100
AcDbLine
 10
1083.700632111534
 20
508.0341130713922
 30
0.0
 11
1074.155056141423
 21
509.1791832962424
 31
0.0
  0
LINE
  5
3DE
330
1F
100
AcDbEntity
  8
1
  6
Continuous
 62
     7
100
AcDbLine
 10
1073.18506997803
 20
501.3221175801774
 30
0.0
 11
1082.7187177304
 21
500.1784782429984
 31
0.0
  0
LINE
  5
3DF
330
1F
100
AcDbEntity
  8
1
  6
Continuous
 62
     7
100
AcDbLine
 10
1088.921855005875
 20
474.658655984939
 30
0.0
 11
1094.781635332142
 21
482.2653191776728
 31
0.0
  0
LINE
  5
3E0
330
1F
100
AcDbEntity
  8
1
  6
Continuous
 62
     7
100
AcDbLine
 10
1092.750076221111
 20
522.4491067731899
 30
0.0
 11
1088.503011327136
 21
528.3079145890504
 31
0.0
  0
LINE
  5
3E1
330
1F
100
AcDbEntity
  8
1
  6
Continuous
 62
     7
100
AcDbLine
 10
1084.410991243538
 20
525.3201420838379
 30
0.0
 11
1092.750076221111
 21
522.4491067731899
 31
0.0
  0
LINE
  5
3E2
330
1F
100
AcDbEntity
  8
1
  6
Continuous
 62
     7
100
AcDbLine
 10
1088.988967563579
 20
516.5768974358248
 30
0.0
 11
1083.346351977329
 21
524.3608614495399
 31
0.0
  0
LINE
  5
3E3
330
1F
100
AcDbEntity
  8
1
  6
Continuous
 62
     7
100
AcDbLine
 10
1085.530290275633
 20
523.776073867027
 30
0.0
 11
1090.014622722593
 21
517.5899564788883
 31
0.0
  0
LINE
  5
3E4
330
1F
100
AcDbEntity
  8
1
  6
Continuous
 62
     7
100
AcDbLine
 10
1094.102223896645
 20
520.583824850878
 30
0.0
 11
1085.530290275633
 21
523.776073867027
 31
0.0
  0
LINE
  5
3E5
330
1F
100
AcDbEntity
  8
1
  6
Continuous
 62
     7
100
AcDbLine
 10
1089.740058880441
 20
529.0293587303397
 30
0.0
 11
1095.375623415234
 21
521.2551216118839
 31
0.0
  0
LINE
  5
3E6
330
1F
100
AcDbEntity
  8
1
  6
Continuous
 62
     7
100
AcDbLine
 10
1073.834587327042
 20
507.7824099282612
 30
0.0
 11
1077.356517620478
 21
504.8379105366978
 31
0.0
  0
LINE
  5
3E7
330
1F
100
AcDbEntity
  8
1
  6
Continuous
 62
     7
100
AcDbLine
 10
1077.356517620478
 20
504.8379105366978
 30
0.0
 11
1073.213889458039
 21
502.7541737921427
 31
0.0
  0
LINE
  5
3E8
330
1F
100
AcDbEntity
  8
1
  6
Continuous
 62
     7
100
AcDbLine
 10
1083.313092357865
 20
506.6453854133579
 30
0.0
 11
1076.428416775181
 21
507.4712587857105
 31
0.0
  0
LINE
  5
3E9
330
1F
100
AcDbEntity
  8
1
  6
Continuous
 62
     7
100
AcDbLine
 10
1076.428416775181
 20
507.4712587857105
 30
0.0
 11
1079.934865866837
 21
504.5397024070478
 31
0.0
  0
LINE
  5
3EA
330
1F
100
AcDbEntity
  8
1
  6
Continuous
 62
     7
100
AcDbLine
 10
1079.934865866837
 20
504.5397024070478
 30
0.0
 11
1075.773965130471
 21
502.446774580837
 31
0.0
  0
LINE
  5
3EB
330
1F
100
AcDbEntity
  8
1
  6
Continuous
 62
     7
100
AcDbLine
 10
1075.773965130471
 20
502.446774580837
 30
0.0
 11
1082.686028187954
 21
501.617615855979
 31
0.0
  0
LINE
  5
3EC
330
1F
100
AcDbEntity
  8
1
  6
Continuous
 62
     7
100
AcDbLine
 10
1074.06284102132
 20
494.1299643761713
 30
0.0
 11
1078.502148793597
 21
492.9609407828513
 31
0.0
  0
LINE
  5
3ED
330
1F
100
AcDbEntity
  8
1
  6
Continuous
 62
     7
100
AcDbLine
 10
1078.502148793597
 20
492.9609407828513
 30
0.0
 11
1075.637444513584
 21
489.3144635374938
 31
0.0
  0
LINE
  5
3EE
330
1F
100
AcDbEntity
  8
1
  6
Continuous
 62
     7
100
AcDbLine
 10
1083.126295712442
 20
497.1280756864481
 30
0.0
 11
1076.543090343683
 21
494.9504090961041
 31
0.0
  0
LINE
  5
3EF
330
1F
100
AcDbEntity
  8
1
  6
Continuous
 62
     7
100
AcDbLine
 10
1076.543090343683
 20
494.9504090961041
 30
0.0
 11
1080.962884436341
 21
493.7865241309302
 31
0.0
  0
LINE
  5
3F0
330
1F
100
AcDbEntity
  8
1
  6
Continuous
 62
     7
100
AcDbLine
 10
1080.962884436341
 20
493.7865241309302
 30
0.0
 11
1078.085544332236
 21
490.1239627664033
 31
0.0
  0
LINE
  5
3F1
330
1F
100
AcDbEntity
  8
1
  6
Continuous
 62
     7
100
AcDbLine
 10
1078.085544332236
 20
490.1239627664033
 30
0.0
 11
1084.694937916979
 21
492.3102921888804
 31
0.0
  0
LINE
  5
3F2
330
1F
100
AcDbEntity
  8
1
  6
Continuous
 62
     7
100
AcDbLine
 10
1092.071061959366
 20
481.0817299819947
 30
0.0
 11
1090.575395973172
 21
480.8320008952484
 31
0.0
  0
LINE
  5
3F3
330
1F
100
AcDbEntity
  8
1
  6
Continuous
 62
     7
100
AcDbLine
 10
1087.706362400506
 20
475.4158521447497
 30
0.0
 11
1091.006708180301
 21
479.7000773833528
 31
0.0
  0
LINE
  5
3F4
330
1F
100
AcDbEntity
  8
1
  6
Continuous
 62
     7
100
AcDbLine
 10
1091.006708180301
 20
479.7000773833528
 30
0.0
 11
1083.741205276455
 21
478.4869673563297
 31
0.0
  0
LINE
  5
3F5
330
1F
100
AcDbEntity
  8
1
  6
Continuous
 62
     7
100
AcDbLine
 10
1092.071061959366
 20
481.0817299819947
 30
0.0
 11
1093.528344467224
 21
482.9734488855598
 31
0.0
  0
LINE
  5
3F6
330
1F
100
AcDbEntity
  8
1
  6
Continuous
 62
     7
100
AcDbLine
 10
1088.534058378562
 20
487.1277194715646
 30
0.0
 11
1089.403499414463
 21
480.6363310999407
 31
0.0
  0
LINE
  5
3F7
330
1F
100
AcDbEntity
  8
1
  6
Continuous
 62
     7
100
AcDbLine
 10
1089.403499414463
 20
480.6363310999407
 30
0.0
 11
1082.66694646868
 21
479.511539047105
 31
0.0
  0
LINE
  5
3F8
330
1F
100
AcDbEntity
  8
1
  6
Continuous
 62
     7
100
AcDbLine
 10
1090.575395973172
 20
480.8320008952484
 30
0.0
 11
1089.922104280998
 21
485.709583064417
 31
0.0
  0
LINE
  5
3F9
330
1F
100
AcDbEntity
  8
1
  6
Continuous
 62
     7
100
AcDbLine
 10
1060.185173558933
 20
509.367615855979
 30
0.0
 11
1069.586969793925
 21
509.367615855979
 31
0.0
  0
LINE
  5
3FA
330
1F
100
AcDbEntity
  8
1
  6
Continuous
 62
     7
100
AcDbLine
 10
1069.586969793925
 20
504.367615855979
 30
0.0
 11
1059.185173558933
 21
504.367615855979
 31
0.0
  0
LINE
  5
3FB
330
1F
100
AcDbEntity
  8
1
  6
Continuous
 62
     7
100
AcDbLine
 10
1059.185173558933
 20
498.867615855979
 30
0.0
 11
1069.586969793925
 21
498.867615855979
 31
0.0
  0
LINE
  5
3FC
330
1F
100
AcDbEntity
  8
1
  6
Continuous
 62
     7
100
AcDbLine
 10
1059.185173558933
 20
508.367615855979
 30
0.0
 11
1059.185173558933
 21
494.8676158559792
 31
0.0
  0
LINE
  5
3FD
330
1F
100
AcDbEntity
  8
1
  6
Continuous
 62
     7
100
AcDbLine
 10
1069.586969793925
 20
493.8676158559792
 30
0.0
 11
1060.185173558933
 21
493.8676158559792
 31
0.0
  0
LINE
  5
3FE
330
1F
100
AcDbEntity
  8
1
  6
Continuous
 62
     7
100
AcDbLine
 10
1100.685173558933
 20
545.117615855979
 30
0.0
 11
1100.685173558933
 21
540.0005547742015
 31
0.0
  0
LINE
  5
3FF
330
1F
100
AcDbEntity
  8
1
  6
Continuous
 62
     7
100
AcDbLine
 10
1106.685173558933
 20
545.117615855979
 30
0.0
 11
1106.685173558933
 21
540.0005547742015
 31
0.0
  0
LINE
  5
400
330
1F
100
AcDbEntity
  8
1
  6
Continuous
 62
     7
100
AcDbLine
 10
1100.685173558933
 20
463.2346769377565
 30
0.0
 11
1100.685173558933
 21
458.117615855979
 31
0.0
  0
LINE
  5
401
330
1F
100
AcDbEntity
  8
1
  6
Continuous
 62
     7
100
AcDbLine
 10
1106.685173558933
 20
463.2346769377565
 30
0.0
 11
1106.685173558933
 21
458.117615855979
 31
0.0
  0
LINE
  5
402
330
1F
100
AcDbEntity
  8
1
  6
Continuous
 62
     7
100
AcDbLine
 10
1101.685173558933
 20
457.117615855979
 30
0.0
 11
1105.685173558933
 21
457.117615855979
 31
0.0
  0
LINE
  5
403
330
1F
100
AcDbEntity
  8
1
  6
Continuous
 62
     7
100
AcDbLine
 10
1101.685173558933
 20
546.117615855979
 30
0.0
 11
1105.685173558933
 21
546.117615855979
 31
0.0
  0
LINE
  5
404
330
1F
100
AcDbEntity
  8
1
  6
DOT_CENTER
 62
     2
100
AcDbLine
 10
1103.685173558933
 20
440.055213503781
 30
0.0
 11
1103.685173558933
 21
344.8452226814649
 31
0.0
  0
LINE
  5
405
330
1F
100
AcDbEntity
  8
1
  6
Continuous
 62
     2
100
AcDbLine
 10
1055.185173558933
 20
384.7583804669723
 30
0.0
 11
1055.185173558933
 21
358.9583804669724
 31
0.0
  0
LINE
  5
406
330
1F
100
AcDbEntity
  8
1
  6
Continuous
 62
     2
100
AcDbLine
 10
1152.185173558933
 20
384.7583804669723
 30
0.0
 11
1152.185173558933
 21
358.9583804669724
 31
0.0
  0
LINE
  5
407
330
1F
100
AcDbEntity
  8
1
  6
Continuous
 62
     7
100
AcDbLine
 10
1105.185173558933
 20
360.3583804669723
 30
0.0
 11
1105.185173558933
 21
349.2491525744076
 31
0.0
  0
LINE
  5
408
330
1F
100
AcDbEntity
  8
1
  6
Continuous
 62
     7
100
AcDbLine
 10
1102.185173558933
 20
360.3583804669723
 30
0.0
 11
1102.185173558933
 21
349.2491525744076
 31
0.0
  0
LINE
  5
409
330
1F
100
AcDbEntity
  8
1
  6
Continuous
 62
     7
100
AcDbLine
 10
1139.685173558933
 20
407.8583804669723
 30
0.0
 11
1139.685173558933
 21
403.8583804669723
 31
0.0
  0
LINE
  5
40A
330
1F
100
AcDbEntity
  8
1
  6
Continuous
 62
     2
100
AcDbLine
 10
1138.685173558933
 20
407.8583804669723
 30
0.0
 11
1138.685173558933
 21
403.8583804669723
 31
0.0
  0
LINE
  5
40B
330
1F
100
AcDbEntity
  8
1
  6
Continuous
 62
     2
100
AcDbLine
 10
1068.685173558934
 20
407.8583804669723
 30
0.0
 11
1068.685173558933
 21
403.8583804669723
 31
0.0
  0
LINE
  5
40C
330
1F
100
AcDbEntity
  8
1
  6
Continuous
 62
     7
100
AcDbLine
 10
1067.685173558933
 20
407.8583804669723
 30
0.0
 11
1067.685173558933
 21
403.8583804669723
 31
0.0
  0
LINE
  5
40D
330
1F
100
AcDbEntity
  8
1
  6
Continuous
 62
     7
100
AcDbLine
 10
1071.685173558933
 20
401.8583804669723
 30
0.0
 11
1071.685173558933
 21
382.2083804669724
 31
0.0
  0
LINE
  5
40E
330
1F
100
AcDbEntity
  8
1
  6
Continuous
 62
     7
100
AcDbLine
 10
1142.685173558933
 20
384.7583804669723
 30
0.0
 11
1152.185173558933
 21
384.7583804669723
 31
0.0
  0
LINE
  5
40F
330
1F
100
AcDbEntity
  8
1
  6
Continuous
 62
     7
100
AcDbLine
 10
1142.685173558933
 20
358.9583804669724
 30
0.0
 11
1152.185173558933
 21
358.9583804669724
 31
0.0
  0
LINE
  5
410
330
1F
100
AcDbEntity
  8
1
  6
Continuous
 62
     7
100
AcDbLine
 10
1055.185173558933
 20
384.7583804669723
 30
0.0
 11
1064.685173558933
 21
384.7583804669723
 31
0.0
  0
LINE
  5
411
330
1F
100
AcDbEntity
  8
1
  6
Continuous
 62
     7
100
AcDbLine
 10
1055.185173558933
 20
358.9583804669724
 30
0.0
 11
1064.685173558933
 21
358.9583804669724
 31
0.0
  0
LINE
  5
412
330
1F
100
AcDbEntity
  8
1
  6
Continuous
 62
     7
100
AcDbLine
 10
1066.685173558933
 20
380.2083804669724
 30
0.0
 11
1069.685173558933
 21
380.2083804669724
 31
0.0
  0
LINE
  5
413
330
1F
100
AcDbEntity
  8
1
  6
Continuous
 62
     7
100
AcDbLine
 10
1066.685173558933
 20
363.5083804669723
 30
0.0
 11
1070.424223948822
 21
363.5083804669723
 31
0.0
  0
LINE
  5
414
330
1F
100
AcDbEntity
  8
1
  6
Continuous
 62
     7
100
AcDbLine
 10
1136.946123169045
 20
363.5083804669723
 30
0.0
 11
1140.685173558933
 21
363.5083804669723
 31
0.0
  0
LINE
  5
415
330
1F
100
AcDbEntity
  8
1
  6
Continuous
 62
     7
100
AcDbLine
 10
1137.685173558933
 20
380.2083804669724
 30
0.0
 11
1140.685173558933
 21
380.2083804669724
 31
0.0
  0
LINE
  5
416
330
1F
100
AcDbEntity
  8
1
  6
Continuous
 62
     7
100
AcDbLine
 10
1135.685173558933
 20
401.8583804669723
 30
0.0
 11
1135.685173558933
 21
382.2083804669724
 31
0.0
  0
LINE
  5
417
330
1F
100
AcDbEntity
  8
1
  6
Continuous
 62
     7
100
AcDbLine
 10
1067.685173558933
 20
403.8583804669723
 30
0.0
 11
1139.685173558933
 21
403.8583804669723
 31
0.0
  0
LINE
  5
418
330
1F
100
AcDbEntity
  8
1
  6
Continuous
 62
     2
100
AcDbLine
 10
1142.685173558933
 20
383.7583804669723
 30
0.0
 11
1153.185173558933
 21
383.7583804669723
 31
0.0
  0
LINE
  5
419
330
1F
100
AcDbEntity
  8
1
  6
Continuous
 62
     7
100
AcDbLine
 10
1153.685173558933
 20
383.2583804669723
 30
0.0
 11
1153.685173558933
 21
360.4583804669724
 31
0.0
  0
LINE
  5
41A
330
1F
100
AcDbEntity
  8
1
  6
Continuous
 62
     2
100
AcDbLine
 10
1142.685173558933
 20
359.9583804669724
 30
0.0
 11
1153.185173558933
 21
359.9583804669724
 31
0.0
  0
LINE
  5
41B
330
1F
100
AcDbEntity
  8
1
  6
Continuous
 62
     7
100
AcDbLine
 10
1142.685173558933
 20
384.7583804669723
 30
0.0
 11
1142.685173558933
 21
358.9583804669724
 31
0.0
  0
LINE
  5
41C
330
1F
100
AcDbEntity
  8
1
  6
Continuous
 62
     7
100
AcDbLine
 10
1064.685173558933
 20
384.7583804669723
 30
0.0
 11
1064.685173558933
 21
358.9583804669724
 31
0.0
  0
LINE
  5
41D
330
1F
100
AcDbEntity
  8
1
  6
Continuous
 62
     7
100
AcDbLine
 10
1072.228804960291
 20
362.3706376055586
 30
0.0
 11
1072.304753762181
 21
362.2116876130326
 31
0.0
  0
LINE
  5
41E
330
1F
100
AcDbEntity
  8
1
  6
Continuous
 62
     7
100
AcDbLine
 10
1129.228804960291
 20
349.9961233283861
 30
0.0
 11
1135.065593355686
 21
362.2116876130326
 31
0.0
  0
LINE
  5
41F
330
1F
100
AcDbEntity
  8
1
  6
Continuous
 62
     7
100
AcDbLine
 10
1053.685173558933
 20
360.4583804669724
 30
0.0
 11
1053.685173558933
 21
383.2583804669723
 31
0.0
  0
LINE
  5
420
330
1F
100
AcDbEntity
  8
1
  6
Continuous
 62
     2
100
AcDbLine
 10
1054.185173558933
 20
383.7583804669723
 30
0.0
 11
1064.685173558933
 21
383.7583804669723
 31
0.0
  0
LINE
  5
421
330
1F
100
AcDbEntity
  8
1
  6
Continuous
 62
     2
100
AcDbLine
 10
1054.185173558933
 20
359.9583804669724
 30
0.0
 11
1064.685173558933
 21
359.9583804669724
 31
0.0
  0
LINE
  5
422
330
1F
100
AcDbEntity
  8
1
  6
Continuous
 62
     7
100
AcDbLine
 10
1055.185173558933
 20
384.7583804669723
 30
0.0
 11
1053.685173558933
 21
383.2583804669723
 31
0.0
  0
LINE
  5
423
330
1F
100
AcDbEntity
  8
1
  6
Continuous
 62
     7
100
AcDbLine
 10
1055.185173558933
 20
358.9583804669724
 30
0.0
 11
1053.685173558933
 21
360.4583804669724
 31
0.0
  0
LINE
  5
424
330
1F
100
AcDbEntity
  8
1
  6
Continuous
 62
     7
100
AcDbLine
 10
1153.685173558933
 20
360.4583804669724
 30
0.0
 11
1152.185173558933
 21
358.9583804669724
 31
0.0
  0
LINE
  5
425
330
1F
100
AcDbEntity
  8
1
  6
Continuous
 62
     7
100
AcDbLine
 10
1152.185173558933
 20
384.7583804669723
 30
0.0
 11
1153.685173558933
 21
383.2583804669723
 31
0.0
  0
LINE
  5
426
330
1F
100
AcDbEntity
  8
1
  6
Continuous
 62
     7
100
AcDbLine
 10
1127.424223948822
 20
348.8583804669723
 30
0.0
 11
1079.946123169045
 21
348.8583804669723
 31
0.0
  0
LINE
  5
427
330
1F
100
AcDbEntity
  8
1
  6
Continuous
 62
     7
100
AcDbLine
 10
1133.712157597083
 20
361.3583804669723
 30
0.0
 11
1073.658189520783
 21
361.3583804669723
 31
0.0
  0
LINE
  5
428
330
1F
100
AcDbEntity
  8
1
  6
Continuous
 62
     7
100
AcDbLine
 10
1135.065593355686
 20
362.2116876130326
 30
0.0
 11
1135.141542157575
 21
362.3706376055586
 31
0.0
  0
LINE
  5
429
330
1F
100
AcDbEntity
  8
1
  6
Continuous
 62
     7
100
AcDbLine
 10
1112.185173558933
 20
356.3583804669723
 30
0.0
 11
1112.185173558933
 21
353.8250014724811
 31
0.0
  0
LINE
  5
42A
330
1F
100
AcDbEntity
  8
1
  6
Continuous
 62
     7
100
AcDbLine
 10
1111.03993279272
 20
352.0168569394705
 30
0.0
 11
1104.967312409613
 21
349.1461636674564
 31
0.0
  0
LINE
  5
42B
330
1F
100
AcDbEntity
  8
1
  6
Continuous
 62
     7
100
AcDbLine
 10
1102.403034708253
 20
349.1461636674564
 30
0.0
 11
1096.330414325146
 21
352.0168569394705
 31
0.0
  0
LINE
  5
42C
330
1F
100
AcDbEntity
  8
1
  6
Continuous
 62
     7
100
AcDbLine
 10
1095.185173558933
 20
353.8250014724811
 30
0.0
 11
1095.185173558933
 21
356.3583804669723
 31
0.0
  0
LINE
  5
42D
330
1F
100
AcDbEntity
  8
1
  6
Continuous
 62
     7
100
AcDbLine
 10
1072.304753762181
 20
362.2116876130326
 30
0.0
 11
1078.141542157575
 21
349.9961233283861
 31
0.0
  0
LINE
  5
42E
330
1F
100
AcDbEntity
  8
1
  6
DOT_CENTER
 62
     2
100
AcDbLine
 10
1140.394639470625
 20
495.617615855979
 30
0.0
 11
1157.451431756348
 21
495.617615855979
 31
0.0
  0
LINE
  5
42F
330
1F
100
AcDbEntity
  8
1
  6
DOT_CENTER
 62
     2
100
AcDbLine
 10
1050.633676181111
 20
495.617615855979
 30
0.0
 11
1069.447047329528
 21
495.617615855979
 31
0.0
  0
LINE
  5
430
330
1F
100
AcDbEntity
  8
1
  6
Continuous
 62
     2
100
AcDbLine
 10
1054.185173558933
 20
483.717615855979
 30
0.0
 11
1064.685173558933
 21
483.717615855979
 31
0.0
  0
LINE
  5
431
330
1F
100
AcDbEntity
  8
1
  6
Continuous
 62
     2
100
AcDbLine
 10
1054.185173558933
 20
507.5176158559791
 30
0.0
 11
1059.185173558933
 21
507.5176158559791
 31
0.0
  0
LINE
  5
432
330
1F
100
AcDbEntity
  8
1
  6
Continuous
 62
     7
100
AcDbLine
 10
1055.185173558933
 20
508.5176158559791
 30
0.0
 11
1053.685173558933
 21
507.0176158559791
 31
0.0
  0
LINE
  5
433
330
1F
100
AcDbEntity
  8
1
  6
Continuous
 62
     7
100
AcDbLine
 10
1055.185173558933
 20
482.717615855979
 30
0.0
 11
1053.685173558933
 21
484.217615855979
 31
0.0
  0
LINE
  5
434
330
1F
100
AcDbEntity
  8
1
  6
Continuous
 62
     7
100
AcDbLine
 10
1053.685173558933
 20
507.0176158559791
 30
0.0
 11
1053.685173558933
 21
484.217615855979
 31
0.0
  0
LINE
  5
435
330
1F
100
AcDbEntity
  8
1
  6
Continuous
 62
     7
100
AcDbLine
 10
1055.185173558933
 20
482.717615855979
 30
0.0
 11
1064.685173558933
 21
482.717615855979
 31
0.0
  0
LINE
  5
436
330
1F
100
AcDbEntity
  8
1
  6
Continuous
 62
     7
100
AcDbLine
 10
1055.185173558933
 20
508.5176158559791
 30
0.0
 11
1059.196487562269
 21
508.5176158559791
 31
0.0
  0
LINE
  5
437
330
1F
100
AcDbEntity
  8
1
  6
Continuous
 62
     7
100
AcDbLine
 10
1064.685173558933
 20
482.717615855979
 30
0.0
 11
1064.685173558933
 21
493.867615855979
 31
0.0
  0
LINE
  5
438
330
1F
100
AcDbEntity
  8
1
  6
Continuous
 62
     7
100
AcDbLine
 10
1153.685173558933
 20
484.217615855979
 30
0.0
 11
1152.185173558933
 21
482.717615855979
 31
0.0
  0
LINE
  5
439
330
1F
100
AcDbEntity
  8
1
  6
Continuous
 62
     7
100
AcDbLine
 10
1152.185173558933
 20
508.5176158559791
 30
0.0
 11
1153.685173558933
 21
507.0176158559791
 31
0.0
  0
LINE
  5
43A
330
1F
100
AcDbEntity
  8
1
  6
Continuous
 62
     2
100
AcDbLine
 10
1142.685173558933
 20
483.717615855979
 30
0.0
 11
1153.185173558933
 21
483.717615855979
 31
0.0
  0
LINE
  5
43B
330
1F
100
AcDbEntity
  8
1
  6
Continuous
 62
     7
100
AcDbLine
 10
1153.685173558933
 20
507.0176158559791
 30
0.0
 11
1153.685173558933
 21
484.217615855979
 31
0.0
  0
LINE
  5
43C
330
1F
100
AcDbEntity
  8
1
  6
Continuous
 62
     7
100
AcDbLine
 10
1142.685173558933
 20
482.717615855979
 30
0.0
 11
1142.685173558933
 21
491.6176158559791
 31
0.0
  0
LINE
  5
43D
330
1F
100
AcDbEntity
  8
1
  6
Continuous
 62
     7
100
AcDbLine
 10
1142.685173558933
 20
482.717615855979
 30
0.0
 11
1152.185173558933
 21
482.717615855979
 31
0.0
  0
LINE
  5
43E
330
1F
100
AcDbEntity
  8
1
  6
Continuous
 62
     7
100
AcDbLine
 10
1140.182796252023
 20
484.2005955495649
 30
0.0
 11
1137.6406400564
 21
483.4716439905918
 31
0.0
  0
LINE
  5
43F
330
1F
100
AcDbEntity
  8
1
  6
Continuous
 62
     7
100
AcDbLine
 10
1069.729707061466
 20
483.4716439905918
 30
0.0
 11
1067.187550865843
 21
484.2005955495649
 31
0.0
  0
LINE
  5
440
330
1F
100
AcDbEntity
  8
1
  6
DOT_CENTER
 62
     2
100
AcDbLine
 10
1050.473396482172
 20
501.617615855979
 30
0.0
 11
1158.270157786063
 21
501.617615855979
 31
0.0
  0
LINE
  5
441
330
1F
100
AcDbEntity
  8
1
  6
DOT_CENTER
 62
     2
100
AcDbLine
 10
1103.685173558933
 20
549.456774105472
 30
0.0
 11
1103.685173558933
 21
453.8614796951389
 31
0.0
  0
LINE
  5
442
330
1F
100
AcDbEntity
  8
1
  6
Continuous
 62
     7
100
AcDbLine
 10
1101.685173558933
 20
546.117615855979
 30
0.0
 11
1105.685173558933
 21
546.117615855979
 31
0.0
  0
LINE
  5
443
330
1F
100
AcDbEntity
  8
1
  6
Continuous
 62
     7
100
AcDbLine
 10
1101.685173558933
 20
457.117615855979
 30
0.0
 11
1105.685173558933
 21
457.117615855979
 31
0.0
  0
LINE
  5
444
330
1F
100
AcDbEntity
  8
1
  6
Continuous
 62
     7
100
AcDbLine
 10
1106.685173558933
 20
463.2346769377565
 30
0.0
 11
1106.685173558933
 21
458.117615855979
 31
0.0
  0
LINE
  5
445
330
1F
100
AcDbEntity
  8
1
  6
Continuous
 62
     7
100
AcDbLine
 10
1100.685173558933
 20
463.2346769377565
 30
0.0
 11
1100.685173558933
 21
458.117615855979
 31
0.0
  0
LINE
  5
446
330
1F
100
AcDbEntity
  8
1
  6
Continuous
 62
     7
100
AcDbLine
 10
1106.685173558933
 20
545.117615855979
 30
0.0
 11
1106.685173558933
 21
540.0005547742015
 31
0.0
  0
LINE
  5
447
330
1F
100
AcDbEntity
  8
1
  6
Continuous
 62
     7
100
AcDbLine
 10
1100.685173558933
 20
545.117615855979
 30
0.0
 11
1100.685173558933
 21
540.0005547742015
 31
0.0
  0
LINE
  5
448
330
1F
100
AcDbEntity
  8
1
  6
Continuous
 62
     7
100
AcDbLine
 10
1148.185173558933
 20
503.617615855979
 30
0.0
 11
1148.185173558933
 21
499.617615855979
 31
0.0
  0
LINE
  5
449
330
1F
100
AcDbEntity
  8
1
  6
DOT_CENTER
 62
     2
100
AcDbLine
 10
1062.685173558933
 20
511.5787586366561
 30
0.0
 11
1062.685173558933
 21
490.831577185917
 31
0.0
  0
LINE
  5
44A
330
1F
100
AcDbEntity
  8
1
  6
DOT_CENTER
 62
     2
100
AcDbLine
 10
1049.749559824264
 20
371.8583804669723
 30
0.0
 11
1157.336347428251
 21
371.8583804669723
 31
0.0
  0
LINE
  5
44B
330
1F
100
AcDbEntity
  8
1
  6
Continuous
 62
     7
100
AcDbLine
 10
1087.685173558933
 20
391.5785652940499
 30
0.0
 11
1087.685173558933
 21
383.8583804669723
 31
0.0
  0
LINE
  5
44C
330
1F
100
AcDbEntity
  8
1
  6
Continuous
 62
     7
100
AcDbLine
 10
1088.685173558933
 20
393.8583804669723
 30
0.0
 11
1087.685173558933
 21
393.8583804669723
 31
0.0
  0
LINE
  5
44D
330
1F
100
AcDbEntity
  8
1
  6
Continuous
 62
     7
100
AcDbLine
 10
1088.685173558933
 20
383.8583804669723
 30
0.0
 11
1088.685173558933
 21
393.8583804669723
 31
0.0
  0
LINE
  5
44E
330
1F
100
AcDbEntity
  8
1
  6
Continuous
 62
     7
100
AcDbLine
 10
1087.685173558933
 20
383.8583804669723
 30
0.0
 11
1088.685173558933
 21
383.8583804669723
 31
0.0
  0
LINE
  5
44F
330
1F
100
AcDbEntity
  8
1
  6
Continuous
 62
     7
100
AcDbLine
 10
1087.685173558933
 20
393.8583804669723
 30
0.0
 11
1088.685173558933
 21
393.8583804669723
 31
0.0
  0
LINE
  5
450
330
1F
100
AcDbEntity
  8
1
  6
Continuous
 62
     7
100
AcDbLine
 10
1087.685173558933
 20
383.8583804669723
 30
0.0
 11
1087.685173558933
 21
391.5785652940499
 31
0.0
  0
LINE
  5
451
330
1F
100
AcDbEntity
  8
1
  6
DOT_CENTER
 62
     7
100
AcDbLine
 10
1087.685173558933
 20
383.8583804669723
 30
0.0
 11
1088.685173558933
 21
383.8583804669723
 31
0.0
  0
LINE
  5
452
330
1F
100
AcDbEntity
  8
1
  6
Continuous
 62
     7
100
AcDbLine
 10
1087.685173558933
 20
393.8583804669723
 30
0.0
 11
1086.685173558933
 21
391.5785652940499
 31
0.0
  0
LINE
  5
453
330
1F
100
AcDbEntity
  8
1
  6
Continuous
 62
     7
100
AcDbLine
 10
1086.685173558933
 20
391.5785652940499
 30
0.0
 11
1087.685173558933
 21
391.5785652940499
 31
0.0
  0
LINE
  5
454
330
1F
100
AcDbEntity
  8
1
  6
Continuous
 62
     7
100
AcDbLine
 10
1120.685173558933
 20
383.8583804669723
 30
0.0
 11
1119.685173558933
 21
383.8583804669723
 31
0.0
  0
LINE
  5
455
330
1F
100
AcDbEntity
  8
1
  6
Continuous
 62
     7
100
AcDbLine
 10
1119.685173558933
 20
383.8583804669723
 30
0.0
 11
1119.685173558933
 21
388.9833804669723
 31
0.0
  0
LINE
  5
456
330
1F
100
AcDbEntity
  8
1
  6
Continuous
 62
     7
100
AcDbLine
 10
1117.935173558933
 20
388.9833804669723
 30
0.0
 11
1117.935173558933
 21
383.8583804669723
 31
0.0
  0
LINE
  5
457
330
1F
100
AcDbEntity
  8
1
  6
Continuous
 62
     7
100
AcDbLine
 10
1117.935173558933
 20
383.8583804669723
 30
0.0
 11
1116.935173558933
 21
383.8583804669723
 31
0.0
  0
LINE
  5
458
330
1F
100
AcDbEntity
  8
1
  6
Continuous
 62
     7
100
AcDbLine
 10
1116.935173558933
 20
383.8583804669723
 30
0.0
 11
1116.935173558933
 21
388.9833804669723
 31
0.0
  0
LINE
  5
459
330
1F
100
AcDbEntity
  8
1
  6
Continuous
 62
     7
100
AcDbLine
 10
1115.185173558933
 20
388.9833804669723
 30
0.0
 11
1115.185173558933
 21
383.8583804669723
 31
0.0
  0
LINE
  5
45A
330
1F
100
AcDbEntity
  8
1
  6
Continuous
 62
     7
100
AcDbLine
 10
1115.185173558933
 20
383.8583804669723
 30
0.0
 11
1114.185173558933
 21
383.8583804669723
 31
0.0
  0
LINE
  5
45B
330
1F
100
AcDbEntity
  8
1
  6
Continuous
 62
     7
100
AcDbLine
 10
1114.185173558933
 20
383.8583804669723
 30
0.0
 11
1114.185173558933
 21
388.9833804669723
 31
0.0
  0
LINE
  5
45C
330
1F
100
AcDbEntity
  8
1
  6
Continuous
 62
     7
100
AcDbLine
 10
1113.685173558933
 20
389.7739498820144
 30
0.0
 11
1113.685173558933
 21
390.8204977740597
 31
0.0
  0
LINE
  5
45D
330
1F
100
AcDbEntity
  8
1
  6
Continuous
 62
     7
100
AcDbLine
 10
1120.685173558933
 20
388.9833804669723
 30
0.0
 11
1120.685173558933
 21
383.8583804669723
 31
0.0
  0
LINE
  5
45E
330
1F
100
AcDbEntity
  8
1
  6
Continuous
 62
     7
100
AcDbLine
 10
1111.685173558933
 20
383.8583804669723
 30
0.0
 11
1110.685173558933
 21
383.8583804669723
 31
0.0
  0
LINE
  5
45F
330
1F
100
AcDbEntity
  8
1
  6
Continuous
 62
     7
100
AcDbLine
 10
1110.685173558933
 20
383.8583804669723
 30
0.0
 11
1110.685173558933
 21
388.9833804669723
 31
0.0
  0
LINE
  5
460
330
1F
100
AcDbEntity
  8
1
  6
Continuous
 62
     7
100
AcDbLine
 10
1108.935173558933
 20
388.9833804669723
 30
0.0
 11
1108.935173558933
 21
383.8583804669723
 31
0.0
  0
LINE
  5
461
330
1F
100
AcDbEntity
  8
1
  6
Continuous
 62
     7
100
AcDbLine
 10
1108.935173558933
 20
383.8583804669723
 30
0.0
 11
1107.935173558933
 21
383.8583804669723
 31
0.0
  0
LINE
  5
462
330
1F
100
AcDbEntity
  8
1
  6
Continuous
 62
     7
100
AcDbLine
 10
1107.935173558933
 20
383.8583804669723
 30
0.0
 11
1107.935173558933
 21
388.9833804669723
 31
0.0
  0
LINE
  5
463
330
1F
100
AcDbEntity
  8
1
  6
Continuous
 62
     7
100
AcDbLine
 10
1106.185173558933
 20
388.9833804669723
 30
0.0
 11
1106.185173558933
 21
383.8583804669723
 31
0.0
  0
LINE
  5
464
330
1F
100
AcDbEntity
  8
1
  6
Continuous
 62
     7
100
AcDbLine
 10
1106.185173558933
 20
383.8583804669723
 30
0.0
 11
1105.185173558933
 21
383.8583804669723
 31
0.0
  0
LINE
  5
465
330
1F
100
AcDbEntity
  8
1
  6
Continuous
 62
     7
100
AcDbLine
 10
1105.185173558933
 20
383.8583804669723
 30
0.0
 11
1105.185173558933
 21
388.9833804669723
 31
0.0
  0
LINE
  5
466
330
1F
100
AcDbEntity
  8
1
  6
Continuous
 62
     7
100
AcDbLine
 10
1104.685173558933
 20
389.7739498820144
 30
0.0
 11
1104.685173558933
 21
390.8204977740597
 31
0.0
  0
LINE
  5
467
330
1F
100
AcDbEntity
  8
1
  6
Continuous
 62
     7
100
AcDbLine
 10
1111.685173558933
 20
388.9833804669723
 30
0.0
 11
1111.685173558933
 21
383.8583804669723
 31
0.0
  0
LINE
  5
468
330
1F
100
AcDbEntity
  8
1
  6
Continuous
 62
     7
100
AcDbLine
 10
1095.435173558933
 20
393.8583804669723
 30
0.0
 11
1097.935173558933
 21
393.8583804669723
 31
0.0
  0
LINE
  5
469
330
1F
100
AcDbEntity
  8
1
  6
Continuous
 62
     7
100
AcDbLine
 10
1097.935173558933
 20
383.8583804669723
 30
0.0
 11
1095.435173558933
 21
383.8583804669723
 31
0.0
  0
LINE
  5
46A
330
1F
100
AcDbEntity
  8
1
  6
Continuous
 62
     7
100
AcDbLine
 10
1095.435173558933
 20
384.8583804669723
 30
0.0
 11
1097.935173558933
 21
384.8583804669723
 31
0.0
  0
LINE
  5
46B
330
1F
100
AcDbEntity
  8
1
  6
Continuous
 62
     7
100
AcDbLine
 10
1097.935173558933
 20
388.3583804669723
 30
0.0
 11
1096.685173558933
 21
388.3583804669723
 31
0.0
  0
LINE
  5
46C
330
1F
100
AcDbEntity
  8
1
  6
Continuous
 62
     7
100
AcDbLine
 10
1096.685173558933
 20
388.3583804669723
 30
0.0
 11
1096.685173558933
 21
389.3583804669723
 31
0.0
  0
LINE
  5
46D
330
1F
100
AcDbEntity
  8
1
  6
Continuous
 62
     7
100
AcDbLine
 10
1096.685173558933
 20
389.3583804669723
 30
0.0
 11
1097.935173558933
 21
389.3583804669723
 31
0.0
  0
LINE
  5
46E
330
1F
100
AcDbEntity
  8
1
  6
Continuous
 62
     7
100
AcDbLine
 10
1097.935173558933
 20
392.8583804669723
 30
0.0
 11
1095.435173558933
 21
392.8583804669723
 31
0.0
  0
LINE
  5
46F
330
1F
100
AcDbEntity
  8
1
  6
Continuous
 62
     7
100
AcDbLine
 10
1092.685173558933
 20
391.1083804669723
 30
0.0
 11
1093.685173558933
 21
391.1083804669723
 31
0.0
  0
LINE
  5
470
330
1F
100
AcDbEntity
  8
1
  6
Continuous
 62
     7
100
AcDbLine
 10
1092.685173558933
 20
386.6083804669723
 30
0.0
 11
1093.685173558933
 21
386.6083804669723
 31
0.0
  0
LINE
  5
471
330
1F
100
AcDbEntity
  8
1
  6
Continuous
 62
     7
100
AcDbLine
 10
1086.685173558933
 20
372.8583804669723
 30
0.0
 11
1086.685173558933
 21
370.8583804669723
 31
0.0
  0
LINE
  5
472
330
1F
100
AcDbEntity
  8
1
  6
Continuous
 62
     7
100
AcDbLine
 10
1086.685173558933
 20
372.8583804669723
 30
0.0
 11
1113.685173558933
 21
372.8583804669723
 31
0.0
  0
LINE
  5
473
330
1F
100
AcDbEntity
  8
1
  6
Continuous
 62
     7
100
AcDbLine
 10
1086.685173558933
 20
370.8583804669723
 30
0.0
 11
1113.685173558933
 21
370.8583804669723
 31
0.0
  0
LINE
  5
474
330
1F
100
AcDbEntity
  8
1
  6
Continuous
 62
     7
100
AcDbLine
 10
1120.685173558933
 20
371.8583804669723
 30
0.0
 11
1113.685173558933
 21
375.3583804669723
 31
0.0
  0
LINE
  5
475
330
1F
100
AcDbEntity
  8
1
  6
Continuous
 62
     7
100
AcDbLine
 10
1120.685173558933
 20
371.8583804669723
 30
0.0
 11
1113.685173558933
 21
368.3583804669723
 31
0.0
  0
LINE
  5
476
330
1F
100
AcDbEntity
  8
1
  6
Continuous
 62
     7
100
AcDbLine
 10
1113.685173558933
 20
375.3583804669723
 30
0.0
 11
1113.685173558933
 21
372.8583804669723
 31
0.0
  0
LINE
  5
477
330
1F
100
AcDbEntity
  8
1
  6
Continuous
 62
     7
100
AcDbLine
 10
1113.685173558933
 20
368.3583804669723
 30
0.0
 11
1113.685173558933
 21
370.8583804669723
 31
0.0
  0
LINE
  5
478
330
1F
100
AcDbEntity
  8
1
  6
Continuous
 62
     7
100
AcDbLine
 10
1086.685173558933
 20
375.3583804669723
 30
0.0
 11
1104.685173558933
 21
375.3583804669723
 31
0.0
  0
LINE
  5
479
330
1F
100
AcDbEntity
  8
1
  6
Continuous
 62
     7
100
AcDbLine
 10
1086.685173558933
 20
368.3583804669723
 30
0.0
 11
1104.685173558933
 21
368.3583804669723
 31
0.0
  0
LINE
  5
47A
330
1F
100
AcDbEntity
  8
1
  6
Continuous
 62
     7
100
AcDbLine
 10
1088.113744987505
 20
370.8583804669723
 30
0.0
 11
1086.685173558933
 21
368.3583804669723
 31
0.0
  0
LINE
  5
47B
330
1F
100
AcDbEntity
  8
1
  6
Continuous
 62
     7
100
AcDbLine
 10
1088.113744987505
 20
372.8583804669723
 30
0.0
 11
1086.685173558933
 21
375.3583804669723
 31
0.0
  0
LINE
  5
47C
330
1F
100
AcDbEntity
  8
1
  6
Continuous
 62
     7
100
AcDbLine
 10
1106.113744987505
 20
370.8583804669723
 30
0.0
 11
1104.685173558933
 21
368.3583804669723
 31
0.0
  0
LINE
  5
47D
330
1F
100
AcDbEntity
  8
1
  6
Continuous
 62
     7
100
AcDbLine
 10
1106.113744987505
 20
372.8583804669723
 30
0.0
 11
1104.685173558933
 21
375.3583804669723
 31
0.0
  0
LINE
  5
47E
330
1F
100
AcDbEntity
  8
1
  6
Continuous
 62
     2
100
AcDbLine
 10
1152.185173558933
 20
508.5176158559791
 30
0.0
 11
1152.185173558933
 21
482.717615855979
 31
0.0
  0
LINE
  5
47F
330
1F
100
AcDbEntity
  8
1
  6
Continuous
 62
     2
100
AcDbLine
 10
1055.185173558933
 20
508.5176158559791
 30
0.0
 11
1055.185173558933
 21
482.717615855979
 31
0.0
  0
LINE
  5
480
330
1F
100
AcDbEntity
  8
1
  6
Continuous
 62
     7
100
AcDbLine
 10
1145.621315489253
 20
508.5176158559791
 30
0.0
 11
1152.185173558933
 21
508.5176158559791
 31
0.0
  0
LINE
  5
481
330
1F
100
AcDbEntity
  8
1
  6
Continuous
 62
     2
100
AcDbLine
 10
1145.773651792293
 20
507.5176158559791
 30
0.0
 11
1153.185173558933
 21
507.5176158559791
 31
0.0
  0
LINE
  5
482
330
1F
100
AcDbEntity
  8
1
  6
Continuous
 62
     7
100
AcDbLine
 10
1146.079158981396
 20
504.617615855979
 30
0.0
 11
1147.185173558933
 21
504.617615855979
 31
0.0
  0
LINE
  5
483
330
1F
100
AcDbEntity
  8
1
  6
Continuous
 62
     7
100
AcDbLine
 10
1146.079158981396
 20
498.617615855979
 30
0.0
 11
1147.185173558933
 21
498.617615855979
 31
0.0
  0
LINE
  5
484
330
1F
100
AcDbEntity
  8
1
  6
PHANTOM
 62
     2
100
AcDbLine
 10
1080.593551274523
 20
358.5471545162089
 30
0.0
 11
1090.593551274523
 21
358.5471545162089
 31
0.0
  0
LINE
  5
485
330
1F
100
AcDbEntity
  8
1
  6
PHANTOM
 62
     2
100
AcDbLine
 10
1090.593551274523
 20
358.5471545162089
 30
0.0
 11
1090.593551274523
 21
351.5471545162089
 31
0.0
  0
LINE
  5
486
330
1F
100
AcDbEntity
  8
1
  6
PHANTOM
 62
     2
100
AcDbLine
 10
1090.593551274523
 20
351.5471545162089
 30
0.0
 11
1080.593551274523
 21
351.5471545162089
 31
0.0
  0
LINE
  5
487
330
1F
100
AcDbEntity
  8
1
  6
PHANTOM
 62
     2
100
AcDbLine
 10
1080.593551274523
 20
351.5471545162089
 30
0.0
 11
1080.593551274523
 21
358.5471545162089
 31
0.0
  0
ARC
  5
488
330
1F
100
AcDbEntity
  8
1
  6
Continuous
 62
     7
100
AcDbCircle
 10
1042.173202079469
 20
432.5456402303653
 30
0.0
 40
24.540707641709
100
AcDbArc
 50
313.8850967660004
 51
347.1281597334693
  0
ARC
  5
489
330
1F
100
AcDbEntity
  8
1
  6
Continuous
 62
     2
100
AcDbCircle
 10
1042.173202079469
 20
432.5456402303653
 30
0.0
 40
24.54070764170847
100
AcDbArc
 50
347.1281597334693
 51
357.2269936731653
  0
ARC
  5
48A
330
1F
100
AcDbEntity
  8
1
  6
Continuous
 62
     7
100
AcDbCircle
 10
1062.685173558933
 20
427.8583804669723
 30
0.0
 40
3.5
100
AcDbArc
 50
180.0
 51
0.0
  0
ARC
  5
48B
330
1F
100
AcDbEntity
  8
1
  6
Continuous
 62
     7
100
AcDbCircle
 10
1128.354969003066
 20
495.9282082253944
 30
0.0
 40
1.942732811196752
100
AcDbArc
 50
0.0058624869672
 51
180.0058626443168
  0
ARC
  5
48C
330
1F
100
AcDbEntity
  8
1
  6
Continuous
 62
     7
100
AcDbCircle
 10
1128.794986370644
 20
493.9284070052324
 30
0.0
 40
1.50271543344968
100
AcDbArc
 50
270.0
 51
0.0
  0
ARC
  5
48D
330
1F
100
AcDbEntity
  8
1
  6
Continuous
 62
     7
100
AcDbCircle
 10
1128.794986370644
 20
493.9284070052324
 30
0.0
 40
2.5027154334496
100
AcDbArc
 50
282.9569738704683
 51
355.9779535784734
  0
ARC
  5
48E
330
1F
100
AcDbEntity
  8
1
  6
Continuous
 62
     7
100
AcDbCircle
 10
1128.354969003066
 20
495.9284070052324
 30
0.0
 40
2.942732801026981
100
AcDbArc
 50
3.70906172284979
 51
180.0
  0
ARC
  5
48F
330
1F
100
AcDbEntity
  8
1
  6
Continuous
 62
     7
100
AcDbCircle
 10
1103.685173558933
 20
501.617615855979
 30
0.0
 40
42.50000000000027
100
AcDbArc
 50
347.4748892433582
 51
12.5251107566422
  0
ARC
  5
490
330
1F
100
AcDbEntity
  8
1
  6
Continuous
 62
     7
100
AcDbCircle
 10
1103.685173558933
 20
501.617615855979
 30
0.0
 40
37.50000000000027
100
AcDbArc
 50
194.2903286905218
 51
342.8501502073263
  0
ARC
  5
491
330
1F
100
AcDbEntity
  8
1
  6
Continuous
 62
     7
100
AcDbCircle
 10
1082.254544953744
 20
514.6881993880506
 30
0.0
 40
2.536500996892932
100
AcDbArc
 50
242.7207140490467
 51
63.19768219958024
  0
ARC
  5
492
330
1F
100
AcDbEntity
  8
1
  6
Continuous
 62
     7
100
AcDbCircle
 10
1080.886795825115
 20
515.474426028102
 30
0.0
 40
2.535893881999141
100
AcDbArc
 50
62.8952951979552
 51
237.7649586501204
  0
ARC
  5
493
330
1F
100
AcDbEntity
  8
1
  6
Continuous
 62
     7
100
AcDbCircle
 10
1082.244114895912
 20
514.6929083660393
 30
0.0
 40
3.972884323007928
100
AcDbArc
 50
235.3210221661453
 51
64.91007180298477
  0
ARC
  5
494
330
1F
100
AcDbEntity
  8
1
  6
Continuous
 62
     7
100
AcDbCircle
 10
1080.892787313721
 20
515.4731912854177
 30
0.0
 40
3.966694204965058
100
AcDbArc
 50
64.31900348006008
 51
236.9536376728272
  0
ARC
  5
495
330
1F
100
AcDbEntity
  8
1
  6
Continuous
 62
     7
100
AcDbCircle
 10
1105.061096583564
 20
501.7214326579827
 30
0.0
 40
31.6666666666668
100
AcDbArc
 50
214.2788073663784
 51
216.8573350389548
  0
ARC
  5
496
330
1F
100
AcDbEntity
  8
1
  6
Continuous
 62
     7
100
AcDbCircle
 10
1105.061096583564
 20
501.7214326579827
 30
0.0
 40
22.16666666666623
100
AcDbArc
 50
213.7261038784978
 51
217.4100385268364
  0
ARC
  5
497
330
1F
100
AcDbEntity
  8
1
  6
Continuous
 62
     7
100
AcDbCircle
 10
1104.851637995597
 20
501.4011603952879
 30
0.0
 40
22.1666666666674
100
AcDbArc
 50
179.440503092305
 51
183.1619593476657
  0
ARC
  5
498
330
1F
100
AcDbEntity
  8
1
  6
Continuous
 62
     7
100
AcDbCircle
 10
1104.851637995597
 20
501.4011603952879
 30
0.0
 40
31.66666666666745
100
AcDbArc
 50
177.5511927259958
 51
180.1430155076668
  0
ARC
  5
499
330
1F
100
AcDbEntity
  8
1
  6
Continuous
 62
     7
100
AcDbCircle
 10
1105.053567241199
 20
501.9083465911552
 30
0.0
 40
31.66666666666692
100
AcDbArc
 50
236.7833426845276
 51
239.374630145353
  0
ARC
  5
49A
330
1F
100
AcDbEntity
  8
1
  6
Continuous
 62
     7
100
AcDbCircle
 10
1105.053567241199
 20
501.9083465911552
 30
0.0
 40
22.16666666666672
100
AcDbArc
 50
238.6721177299924
 51
242.3935739853514
  0
ARC
  5
49B
330
1F
100
AcDbEntity
  8
1
  6
Continuous
 62
     7
100
AcDbCircle
 10
1105.070617959179
 20
501.3210253970065
 30
0.0
 40
31.66666666666665
100
AcDbArc
 50
118.9550243718603
 51
121.5463118326857
  0
ARC
  5
49C
330
1F
100
AcDbEntity
  8
1
  6
Continuous
 62
     7
100
AcDbCircle
 10
1105.070617959179
 20
501.3210253970065
 30
0.0
 40
31.66666666666654
100
AcDbArc
 50
130.7234973641142
 51
133.316621593486
  0
ARC
  5
49D
330
1F
100
AcDbEntity
  8
1
  6
Continuous
 62
     7
100
AcDbCircle
 10
1105.070617959179
 20
501.3210253970065
 30
0.0
 40
22.1666666666668
100
AcDbArc
 50
132.7825517332656
 51
136.5094578103607
  0
ARC
  5
49E
330
1F
100
AcDbEntity
  8
1
  6
Continuous
 62
     7
100
AcDbCircle
 10
1105.070617959179
 20
501.3210253970065
 30
0.0
 40
22.16666666666659
100
AcDbArc
 50
115.9360805318624
 51
119.657536787222
  0
ARC
  5
49F
330
1F
100
AcDbEntity
  8
1
  6
Continuous
 62
     7
100
AcDbCircle
 10
1104.851637995597
 20
501.4011603952879
 30
0.0
 40
31.66666666666659
100
AcDbArc
 50
165.781418286041
 51
168.3745425154122
  0
ARC
  5
4A0
330
1F
100
AcDbEntity
  8
1
  6
Continuous
 62
     7
100
AcDbCircle
 10
1105.172268637498
 20
501.2937788810139
 30
0.0
 40
22.50473905872033
100
AcDbArc
 50
162.571985680123
 51
166.2433226375045
  0
ARC
  5
4A1
330
1F
100
AcDbEntity
  8
1
  6
Continuous
 62
     7
100
AcDbCircle
 10
1104.852138492846
 20
501.5324598329533
 30
0.0
 40
22.16666666666694
100
AcDbArc
 50
204.5846785057864
 51
208.3054520854645
  0
ARC
  5
4A2
330
1F
100
AcDbEntity
  8
1
  6
Continuous
 62
     7
100
AcDbCircle
 10
1104.852138492846
 20
501.5324598329533
 30
0.0
 40
31.666666666667
100
AcDbArc
 50
202.6953681394777
 51
205.2909727874134
  0
ARC
  5
4A3
330
1F
100
AcDbEntity
  8
1
  6
Continuous
 62
     7
100
AcDbCircle
 10
1104.852138492846
 20
501.5324598329533
 30
0.0
 40
31.66666666666645
100
AcDbArc
 50
190.9293665245511
 51
193.5187179288939
  0
ARC
  5
4A4
330
1F
100
AcDbEntity
  8
1
  6
Continuous
 62
     7
100
AcDbCircle
 10
1105.188012782784
 20
501.5714887900518
 30
0.0
 40
22.50473905872062
100
AcDbArc
 50
187.7154620145573
 51
191.3874980509867
  0
ARC
  5
4A5
330
1F
100
AcDbEntity
  8
1
  6
Continuous
 62
     7
100
AcDbCircle
 10
1105.053567241199
 20
501.9083465911552
 30
0.0
 40
31.66666666666715
100
AcDbArc
 50
225.013032923728
 51
227.699268469437
  0
ARC
  5
4A6
330
1F
100
AcDbEntity
  8
1
  6
Continuous
 62
     7
100
AcDbCircle
 10
1105.053567241199
 20
501.9083465911552
 30
0.0
 40
22.16666666666697
100
AcDbArc
 50
221.820196706853
 51
226.9510927821493
  0
ARC
  5
4A7
330
1F
100
AcDbEntity
  8
1
  6
Continuous
 62
     7
100
AcDbCircle
 10
1069.586969793925
 20
506.867615855979
 30
0.0
 40
2.5
100
AcDbArc
 50
270.0
 51
90.0
  0
ARC
  5
4A8
330
1F
100
AcDbEntity
  8
1
  6
Continuous
 62
     7
100
AcDbCircle
 10
1069.586969793925
 20
496.3676158559792
 30
0.0
 40
2.5
100
AcDbArc
 50
270.0
 51
90.0
  0
ARC
  5
4A9
330
1F
100
AcDbEntity
  8
1
  6
Continuous
 62
     7
100
AcDbCircle
 10
1103.685173558933
 20
501.617615855979
 30
0.0
 40
31.99999999999977
100
AcDbArc
 50
171.2470709231173
 51
188.7529290768824
  0
ARC
  5
4AA
330
1F
100
AcDbEntity
  8
1
  6
Continuous
 62
     7
100
AcDbCircle
 10
1103.685173558933
 20
501.617615855979
 30
0.0
 40
37.49999999999929
100
AcDbArc
 50
17.14984979267398
 51
165.7096713094781
  0
ARC
  5
4AB
330
1F
100
AcDbEntity
  8
1
  6
Continuous
 62
     7
100
AcDbCircle
 10
1103.685173558933
 20
501.617615855979
 30
0.0
 40
38.49999999999967
100
AcDbArc
 50
191.7453154210498
 51
344.9413670510788
  0
ARC
  5
4AC
330
1F
100
AcDbEntity
  8
1
  6
Continuous
 62
     7
100
AcDbCircle
 10
1103.685173558933
 20
501.617615855979
 30
0.0
 40
38.4999999999995
100
AcDbArc
 50
15.05863294892159
 51
168.2546845789502
  0
ARC
  5
4AD
330
1F
100
AcDbEntity
  8
1
  6
Continuous
 62
     7
100
AcDbCircle
 10
1103.685173558933
 20
501.617615855979
 30
0.0
 40
34.00000000000047
100
AcDbArc
 50
192.8515887204595
 51
167.14841127954
  0
ARC
  5
4AE
330
1F
100
AcDbEntity
  8
1
  6
Continuous
 62
     2
100
AcDbCircle
 10
1138.147518215008
 20
368.6492398712261
 30
0.0
 40
11.83543912573886
100
AcDbArc
 50
109.0147901852289
 51
124.0918220534328
  0
ARC
  5
4AF
330
1F
100
AcDbEntity
  8
1
  6
Continuous
 62
     2
100
AcDbCircle
 10
1138.195672670888
 20
375.3494953916758
 30
0.0
 40
12.18798916073348
100
AcDbArc
 50
249.667204362851
 51
252.7597218320948
  0
ARC
  5
4B0
330
1F
100
AcDbEntity
  8
1
  6
Continuous
 62
     2
100
AcDbCircle
 10
1137.572525766874
 20
373.6678692096484
 30
0.0
 40
10.3946184015033
100
AcDbArc
 50
243.9214509500316
 51
249.6672043628517
  0
ARC
  5
4B1
330
1F
100
AcDbEntity
  8
1
  6
Continuous
 62
     2
100
AcDbCircle
 10
1138.021958879432
 20
374.5861463666591
 30
0.0
 40
11.41697991278523
100
AcDbArc
 50
239.6607532064124
 51
243.9214509500284
  0
ARC
  5
4B2
330
1F
100
AcDbEntity
  8
1
  6
Continuous
 62
     2
100
AcDbCircle
 10
1137.09539398715
 20
373.0030110454374
 30
0.0
 40
9.58262990667709
100
AcDbArc
 50
234.5841157564288
 51
239.6607532064127
  0
ARC
  5
4B3
330
1F
100
AcDbEntity
  8
1
  6
Continuous
 62
     2
100
AcDbCircle
 10
1137.624107014734
 20
373.7465459168025
 30
0.0
 40
10.49497938493251
100
AcDbArc
 50
230.0738078235191
 51
234.5841157564328
  0
ARC
  5
4B4
330
1F
100
AcDbEntity
  8
1
  6
Continuous
 62
     2
100
AcDbCircle
 10
1136.566955942058
 20
372.4833812992397
 30
0.0
 40
8.847814171142023
100
AcDbArc
 50
224.7234831680801
 51
230.073807823515
  0
ARC
  5
4B5
330
1F
100
AcDbEntity
  8
1
  6
Continuous
 62
     2
100
AcDbCircle
 10
1137.077897836115
 20
372.9894150991456
 30
0.0
 40
9.566932955314785
100
AcDbArc
 50
219.9162957430004
 51
224.723483168082
  0
ARC
  5
4B6
330
1F
100
AcDbEntity
  8
1
  6
Continuous
 62
     2
100
AcDbCircle
 10
1135.779217735355
 20
371.9029222496347
 30
0.0
 40
7.87370033214986
100
AcDbArc
 50
168.5446513134855
 51
219.9162957429986
  0
ARC
  5
4B7
330
1F
100
AcDbEntity
  8
1
  6
Continuous
 62
     2
100
AcDbCircle
 10
1133.620963518357
 20
372.3402727349277
 30
0.0
 40
5.671579374487594
100
AcDbArc
 50
157.7130770954841
 51
168.5446513134842
  0
ARC
  5
4B8
330
1F
100
AcDbEntity
  8
1
  6
Continuous
 62
     2
100
AcDbCircle
 10
1142.714494058548
 20
368.6131684367958
 30
0.0
 40
15.49927514381984
100
AcDbArc
 50
154.848995859378
 51
157.7130770954853
  0
ARC
  5
4B9
330
1F
100
AcDbEntity
  8
1
  6
Continuous
 62
     2
100
AcDbCircle
 10
1133.880322392786
 20
372.7609905543361
 30
0.0
 40
5.739817303400576
100
AcDbArc
 50
145.4826396249716
 51
154.848995859378
  0
ARC
  5
4BA
330
1F
100
AcDbEntity
  8
1
  6
Continuous
 62
     2
100
AcDbCircle
 10
1143.946862831596
 20
365.8379571986445
 30
0.0
 40
17.95716673976452
100
AcDbArc
 50
142.9357743080945
 51
145.4826396249753
  0
ARC
  5
4BB
330
1F
100
AcDbEntity
  8
1
  6
Continuous
 62
     2
100
AcDbCircle
 10
1134.522773890029
 20
372.9560941901799
 30
0.0
 40
6.146945462886037
100
AcDbArc
 50
133.9524546417724
 51
142.9357743080912
  0
ARC
  5
4BC
330
1F
100
AcDbEntity
  8
1
  6
Continuous
 62
     2
100
AcDbCircle
 10
1145.14352832754
 20
361.939701201119
 30
0.0
 40
21.44927663533615
100
AcDbArc
 50
131.746114295414
 51
133.9524546417767
  0
ARC
  5
4BD
330
1F
100
AcDbEntity
  8
1
  6
Continuous
 62
     2
100
AcDbCircle
 10
1134.981558308296
 20
373.3267810899035
 30
0.0
 40
6.187192142529478
100
AcDbArc
 50
124.0918220534275
 51
131.7461142954098
  0
ARC
  5
4BE
330
1F
100
AcDbEntity
  8
1
  6
Continuous
 62
     2
100
AcDbCircle
 10
1069.222828902859
 20
368.6492398712261
 30
0.0
 40
11.83543912573836
100
AcDbArc
 50
55.90817794657082
 51
70.98520981477526
  0
ARC
  5
4BF
330
1F
100
AcDbEntity
  8
1
  6
Continuous
 62
     2
100
AcDbCircle
 10
1069.174674446978
 20
375.3494953916758
 30
0.0
 40
12.18798916073357
100
AcDbArc
 50
287.2402781679052
 51
290.3327956371489
  0
ARC
  5
4C0
330
1F
100
AcDbEntity
  8
1
  6
Continuous
 62
     2
100
AcDbCircle
 10
1069.797821350992
 20
373.6678692096484
 30
0.0
 40
10.39461840150318
100
AcDbArc
 50
290.3327956371483
 51
296.0785490499683
  0
ARC
  5
4C1
330
1F
100
AcDbEntity
  8
1
  6
Continuous
 62
     2
100
AcDbCircle
 10
1069.348388238434
 20
374.5861463666591
 30
0.0
 40
11.41697991278554
100
AcDbArc
 50
296.0785490499716
 51
300.3392467935876
  0
ARC
  5
4C2
330
1F
100
AcDbEntity
  8
1
  6
Continuous
 62
     2
100
AcDbCircle
 10
1070.274953130717
 20
373.0030110454374
 30
0.0
 40
9.582629906676472
100
AcDbArc
 50
300.3392467935826
 51
305.4158842435668
  0
ARC
  5
4C3
330
1F
100
AcDbEntity
  8
1
  6
Continuous
 62
     2
100
AcDbCircle
 10
1069.746240103132
 20
373.7465459168025
 30
0.0
 40
10.49497938493253
100
AcDbArc
 50
305.4158842435672
 51
309.9261921764809
  0
ARC
  5
4C4
330
1F
100
AcDbEntity
  8
1
  6
Continuous
 62
     2
100
AcDbCircle
 10
1070.803391175808
 20
372.4833812992397
 30
0.0
 40
8.847814171141732
100
AcDbArc
 50
309.926192176485
 51
315.2765168319199
  0
ARC
  5
4C5
330
1F
100
AcDbEntity
  8
1
  6
Continuous
 62
     2
100
AcDbCircle
 10
1070.292449281751
 20
372.9894150991456
 30
0.0
 40
9.566932955314524
100
AcDbArc
 50
315.276516831918
 51
320.0837042569996
  0
ARC
  5
4C6
330
1F
100
AcDbEntity
  8
1
  6
Continuous
 62
     2
100
AcDbCircle
 10
1071.591129382512
 20
371.9029222496347
 30
0.0
 40
7.873700332149579
100
AcDbArc
 50
320.0837042569971
 51
11.45534868651579
  0
ARC
  5
4C7
330
1F
100
AcDbEntity
  8
1
  6
Continuous
 62
     2
100
AcDbCircle
 10
1073.749383599509
 20
372.3402727349277
 30
0.0
 40
5.67157937448765
100
AcDbArc
 50
11.45534868651576
 51
22.28692290451593
  0
ARC
  5
4C8
330
1F
100
AcDbEntity
  8
1
  6
Continuous
 62
     2
100
AcDbCircle
 10
1064.655853059318
 20
368.6131684367958
 30
0.0
 40
15.49927514381933
100
AcDbArc
 50
22.28692290451473
 51
25.15100414062205
  0
ARC
  5
4C9
330
1F
100
AcDbEntity
  8
1
  6
Continuous
 62
     2
100
AcDbCircle
 10
1073.49002472508
 20
372.7609905543361
 30
0.0
 40
5.739817303401066
100
AcDbArc
 50
25.151004140622
 51
34.51736037502842
  0
ARC
  5
4CA
330
1F
100
AcDbEntity
  8
1
  6
Continuous
 62
     2
100
AcDbCircle
 10
1063.42348428627
 20
365.8379571986445
 30
0.0
 40
17.9571667397643
100
AcDbArc
 50
34.51736037502469
 51
37.06422569190552
  0
ARC
  5
4CB
330
1F
100
AcDbEntity
  8
1
  6
Continuous
 62
     2
100
AcDbCircle
 10
1072.847573227837
 20
372.9560941901799
 30
0.0
 40
6.146945462886102
100
AcDbArc
 50
37.06422569190878
 51
46.04754535822763
  0
ARC
  5
4CC
330
1F
100
AcDbEntity
  8
1
  6
Continuous
 62
     2
100
AcDbCircle
 10
1062.226818790326
 20
361.939701201119
 30
0.0
 40
21.44927663533624
100
AcDbArc
 50
46.0475453582233
 51
48.25388570458415
  0
ARC
  5
4CD
330
1F
100
AcDbEntity
  8
1
  6
Continuous
 62
     2
100
AcDbCircle
 10
1072.38878880957
 20
373.3267810899035
 30
0.0
 40
6.187192142529897
100
AcDbArc
 50
48.25388570458395
 51
55.90817794657254
  0
ARC
  5
4CE
330
1F
100
AcDbEntity
  8
1
  6
Continuous
 62
     7
100
AcDbCircle
 10
1106.185173558933
 20
360.3583804669723
 30
0.0
 40
1.0
100
AcDbArc
 50
90.0
 51
180.0
  0
ARC
  5
4CF
330
1F
100
AcDbEntity
  8
1
  6
Continuous
 62
     7
100
AcDbCircle
 10
1101.185173558933
 20
360.3583804669723
 30
0.0
 40
1.0
100
AcDbArc
 50
0.0
 51
90.0
  0
ARC
  5
4D0
330
1F
100
AcDbEntity
  8
1
  6
Continuous
 62
     7
100
AcDbCircle
 10
1140.734070963657
 20
482.2780721576883
 30
0.0
 40
2.000000000000039
100
AcDbArc
 50
12.69563295526799
 51
105.9999999999954
  0
ARC
  5
4D1
330
1F
100
AcDbEntity
  8
1
  6
Continuous
 62
     7
100
AcDbCircle
 10
1066.636276154209
 20
482.2780721576883
 30
0.0
 40
1.999999999999925
100
AcDbArc
 50
74.00000000000459
 51
167.304367044732
  0
ARC
  5
4D2
330
1F
100
AcDbEntity
  8
1
  6
Continuous
 62
     7
100
AcDbCircle
 10
1103.685173558933
 20
501.617615855979
 30
0.0
 40
38.4999999999995
100
AcDbArc
 50
15.05863294892159
 51
168.2546845789502
  0
ARC
  5
4D3
330
1F
100
AcDbEntity
  8
1
  6
Continuous
 62
     7
100
AcDbCircle
 10
1118.810173558933
 20
388.9833804669723
 30
0.0
 40
0.875
100
AcDbArc
 50
0.0
 51
180.0
  0
ARC
  5
4D4
330
1F
100
AcDbEntity
  8
1
  6
Continuous
 62
     7
100
AcDbCircle
 10
1116.060173558933
 20
388.9833804669723
 30
0.0
 40
0.875
100
AcDbArc
 50
0.0
 51
180.0
  0
ARC
  5
4D5
330
1F
100
AcDbEntity
  8
1
  6
Continuous
 62
     7
100
AcDbCircle
 10
1113.310173558933
 20
388.9833804669723
 30
0.0
 40
0.875
100
AcDbArc
 50
0.0
 51
64.62306647484824
  0
ARC
  5
4D6
330
1F
100
AcDbEntity
  8
1
  6
Continuous
 62
     7
100
AcDbCircle
 10
1113.310173558933
 20
388.9833804669723
 30
0.0
 40
1.875000000000001
100
AcDbArc
 50
42.83342806606731
 51
78.4630409671846
  0
ARC
  5
4D7
330
1F
100
AcDbEntity
  8
1
  6
Continuous
 62
     7
100
AcDbCircle
 10
1116.060173558933
 20
388.9833804669723
 30
0.0
 40
1.875000000000001
100
AcDbArc
 50
42.83342806606731
 51
137.1665719339327
  0
ARC
  5
4D8
330
1F
100
AcDbEntity
  8
1
  6
Continuous
 62
     7
100
AcDbCircle
 10
1118.810173558933
 20
388.9833804669723
 30
0.0
 40
1.875
100
AcDbArc
 50
0.0
 51
137.1665719339327
  0
ARC
  5
4D9
330
1F
100
AcDbEntity
  8
1
  6
Continuous
 62
     7
100
AcDbCircle
 10
1109.810173558933
 20
388.9833804669723
 30
0.0
 40
0.875
100
AcDbArc
 50
0.0
 51
180.0
  0
ARC
  5
4DA
330
1F
100
AcDbEntity
  8
1
  6
Continuous
 62
     7
100
AcDbCircle
 10
1107.060173558933
 20
388.9833804669723
 30
0.0
 40
0.875
100
AcDbArc
 50
0.0
 51
180.0
  0
ARC
  5
4DB
330
1F
100
AcDbEntity
  8
1
  6
Continuous
 62
     7
100
AcDbCircle
 10
1104.310173558933
 20
388.9833804669723
 30
0.0
 40
0.875
100
AcDbArc
 50
0.0
 51
64.62306647484824
  0
ARC
  5
4DC
330
1F
100
AcDbEntity
  8
1
  6
Continuous
 62
     7
100
AcDbCircle
 10
1104.310173558933
 20
388.9833804669723
 30
0.0
 40
1.875000000000001
100
AcDbArc
 50
42.83342806606731
 51
78.4630409671846
  0
ARC
  5
4DD
330
1F
100
AcDbEntity
  8
1
  6
Continuous
 62
     7
100
AcDbCircle
 10
1107.060173558933
 20
388.9833804669723
 30
0.0
 40
1.875000000000001
100
AcDbArc
 50
42.83342806606731
 51
137.1665719339327
  0
ARC
  5
4DE
330
1F
100
AcDbEntity
  8
1
  6
Continuous
 62
     7
100
AcDbCircle
 10
1109.810173558933
 20
388.9833804669723
 30
0.0
 40
1.875
100
AcDbArc
 50
0.0
 51
137.1665719339327
  0
ARC
  5
4DF
330
1F
100
AcDbEntity
  8
1
  6
Continuous
 62
     7
100
AcDbCircle
 10
1095.435173558933
 20
391.1083804669723
 30
0.0
 40
2.75
100
AcDbArc
 50
90.0
 51
180.0
  0
ARC
  5
4E0
330
1F
100
AcDbEntity
  8
1
  6
Continuous
 62
     7
100
AcDbCircle
 10
1097.935173558933
 20
391.1083804669723
 30
0.0
 40
2.749999999999892
100
AcDbArc
 50
305.0968012275814
 51
90.0
  0
ARC
  5
4E1
330
1F
100
AcDbEntity
  8
1
  6
Continuous
 62
     7
100
AcDbCircle
 10
1097.935173558933
 20
386.6083804669723
 30
0.0
 40
2.75
100
AcDbArc
 50
270.0
 51
54.90319877241863
  0
ARC
  5
4E2
330
1F
100
AcDbEntity
  8
1
  6
Continuous
 62
     7
100
AcDbCircle
 10
1095.435173558933
 20
386.6083804669723
 30
0.0
 40
2.75
100
AcDbArc
 50
180.0
 51
270.0
  0
ARC
  5
4E3
330
1F
100
AcDbEntity
  8
1
  6
Continuous
 62
     7
100
AcDbCircle
 10
1095.435173558933
 20
386.6083804669723
 30
0.0
 40
1.75
100
AcDbArc
 50
180.0
 51
270.0
  0
ARC
  5
4E4
330
1F
100
AcDbEntity
  8
1
  6
Continuous
 62
     7
100
AcDbCircle
 10
1097.935173558933
 20
386.6083804669723
 30
0.0
 40
1.75
100
AcDbArc
 50
270.0
 51
90.0
  0
ARC
  5
4E5
330
1F
100
AcDbEntity
  8
1
  6
Continuous
 62
     7
100
AcDbCircle
 10
1097.935173558933
 20
391.1083804669723
 30
0.0
 40
1.75
100
AcDbArc
 50
270.0
 51
90.0
  0
ARC
  5
4E6
330
1F
100
AcDbEntity
  8
1
  6
Continuous
 62
     7
100
AcDbCircle
 10
1095.435173558933
 20
391.1083804669723
 30
0.0
 40
1.75
100
AcDbArc
 50
90.0
 51
180.0
  0
ARC
  5
4E7
330
1F
100
AcDbEntity
  8
1
  6
Continuous
 62
     7
100
AcDbCircle
 10
1103.685173558933
 20
501.617615855979
 30
0.0
 40
38.49999999999967
100
AcDbArc
 50
191.7453154210498
 51
344.9413670510788
  0
CIRCLE
  5
4E8
330
1F
100
AcDbEntity
  8
1
  6
Continuous
 62
     7
100
AcDbCircle
 10
1062.685173558933
 20
427.8583804669723
 30
0.0
 40
1.349999999999909
  0
CIRCLE
  5
4E9
330
1F
100
AcDbEntity
  8
1
  6
Continuous
 62
     1
100
AcDbCircle
 10
1059.935173558933
 20
384.7583804669723
 30
0.0
 40
0.0099999999999909
  0
ARC
  5
4EA
330
1F
100
AcDbEntity
  8
1
  6
Continuous
 62
     7
100
AcDbCircle
 10
1105.685173558933
 20
410.8583804669723
 30
0.0
 40
1.0
100
AcDbArc
 50
270.0
 51
0.0
  0
ARC
  5
4EB
330
1F
100
AcDbEntity
  8
1
  6
Continuous
 62
     7
100
AcDbCircle
 10
1101.685173558933
 20
410.8583804669723
 30
0.0
 40
1.0
100
AcDbArc
 50
180.0
 51
270.0
  0
ARC
  5
4EC
330
1F
100
AcDbEntity
  8
1
  6
Continuous
 62
     7
100
AcDbCircle
 10
1101.685173558933
 20
420.8583804669723
 30
0.0
 40
1.0
100
AcDbArc
 50
90.0
 51
180.0
  0
ARC
  5
4ED
330
1F
100
AcDbEntity
  8
1
  6
Continuous
 62
     7
100
AcDbCircle
 10
1105.685173558933
 20
420.8583804669723
 30
0.0
 40
1.0
100
AcDbArc
 50
0.0
 51
90.0
  0
ARC
  5
4EE
330
1F
100
AcDbEntity
  8
1
  6
Continuous
 62
     7
100
AcDbCircle
 10
1066.185173558933
 20
422.8583804669723
 30
0.0
 40
1.0
100
AcDbArc
 50
90.0
 51
180.0
  0
ARC
  5
4EF
330
1F
100
AcDbEntity
  8
1
  6
Continuous
 62
     7
100
AcDbCircle
 10
1060.185173558933
 20
410.8583804669723
 30
0.0
 40
1.0
100
AcDbArc
 50
180.0
 51
270.0
  0
ARC
  5
4F0
330
1F
100
AcDbEntity
  8
1
  6
Continuous
 62
     7
100
AcDbCircle
 10
1064.185173558933
 20
408.8583804669723
 30
0.0
 40
1.0
100
AcDbArc
 50
0.0
 51
90.0
  0
ARC
  5
4F1
330
1F
100
AcDbEntity
  8
1
  6
Continuous
 62
     7
100
AcDbCircle
 10
1066.185173558933
 20
408.8583804669723
 30
0.0
 40
1.0
100
AcDbArc
 50
180.0
 51
270.0
  0
ARC
  5
4F2
330
1F
100
AcDbEntity
  8
1
  6
Continuous
 62
     7
100
AcDbCircle
 10
1141.185173558933
 20
422.8583804669723
 30
0.0
 40
1.0
100
AcDbArc
 50
0.0
 51
90.0
  0
ARC
  5
4F3
330
1F
100
AcDbEntity
  8
1
  6
Continuous
 62
     7
100
AcDbCircle
 10
1147.185173558933
 20
410.8583804669723
 30
0.0
 40
1.0
100
AcDbArc
 50
270.0
 51
0.0
  0
ARC
  5
4F4
330
1F
100
AcDbEntity
  8
1
  6
Continuous
 62
     7
100
AcDbCircle
 10
1143.185173558933
 20
408.8583804669723
 30
0.0
 40
1.0
100
AcDbArc
 50
90.0
 51
180.0
  0
ARC
  5
4F5
330
1F
100
AcDbEntity
  8
1
  6
Continuous
 62
     7
100
AcDbCircle
 10
1141.185173558933
 20
408.8583804669723
 30
0.0
 40
1.0
100
AcDbArc
 50
270.0
 51
0.0
  0
ARC
  5
4F6
330
1F
100
AcDbEntity
  8
1
  6
Continuous
 62
     7
100
AcDbCircle
 10
1144.685173558933
 20
427.8583804669723
 30
0.0
 40
3.5
100
AcDbArc
 50
0.0
 51
90.0
  0
ARC
  5
4F7
330
1F
100
AcDbEntity
  8
1
  6
Continuous
 62
     7
100
AcDbCircle
 10
1068.685173558933
 20
437.3583804669723
 30
0.0
 40
3.0
100
AcDbArc
 50
0.0
 51
90.0
  0
ARC
  5
4F8
330
1F
100
AcDbEntity
  8
1
  6
Continuous
 62
     7
100
AcDbCircle
 10
1060.185173558933
 20
439.3583804669723
 30
0.0
 40
1.0
100
AcDbArc
 50
90.0
 51
180.0
  0
ARC
  5
4F9
330
1F
100
AcDbEntity
  8
1
  6
Continuous
 62
     7
100
AcDbCircle
 10
1140.185173558933
 20
436.3583804669723
 30
0.0
 40
1.0
100
AcDbArc
 50
0.0
 51
90.0
  0
ARC
  5
4FA
330
1F
100
AcDbEntity
  8
1
  6
Continuous
 62
     7
100
AcDbCircle
 10
1145.185173558933
 20
436.3583804669723
 30
0.0
 40
1.0
100
AcDbArc
 50
0.0
 51
90.0
  0
ARC
  5
4FB
330
1F
100
AcDbEntity
  8
1
  6
Continuous
 62
     7
100
AcDbCircle
 10
1060.685173558933
 20
435.8583804669723
 30
0.0
 40
1.5
100
AcDbArc
 50
90.0
 51
180.0
  0
ARC
  5
4FC
330
1F
100
AcDbEntity
  8
1
  6
Continuous
 62
     7
100
AcDbCircle
 10
1144.197517356842
 20
492.6176158559792
 30
0.0
 40
1.0
100
AcDbArc
 50
270.0
 51
347.4748892433677
  0
ARC
  5
4FD
330
1F
100
AcDbEntity
  8
1
  6
Continuous
 62
     7
100
AcDbCircle
 10
1144.197517356842
 20
510.617615855979
 30
0.0
 40
1.000000000000738
100
AcDbArc
 50
12.52511075664181
 51
90.0
  0
ARC
  5
4FE
330
1F
100
AcDbEntity
  8
1
  6
Continuous
 62
     7
100
AcDbCircle
 10
1140.951109747361
 20
490.1176158559792
 30
0.0
 40
1.5
100
AcDbArc
 50
90.0
 51
162.8501502073357
  0
ARC
  5
4FF
330
1F
100
AcDbEntity
  8
1
  6
Continuous
 62
     7
100
AcDbCircle
 10
1140.951109747361
 20
513.117615855979
 30
0.0
 40
1.500000000000541
100
AcDbArc
 50
197.1498497926644
 51
270.0
  0
ARC
  5
500
330
1F
100
AcDbEntity
  8
1
  6
Continuous
 62
     7
100
AcDbCircle
 10
1060.185173558933
 20
508.367615855979
 30
0.0
 40
1.0
100
AcDbArc
 50
90.0
 51
180.0
  0
ARC
  5
501
330
1F
100
AcDbEntity
  8
1
  6
Continuous
 62
     7
100
AcDbCircle
 10
1060.185173558933
 20
494.8676158559792
 30
0.0
 40
1.0
100
AcDbArc
 50
180.0
 51
270.0
  0
ARC
  5
502
330
1F
100
AcDbEntity
  8
1
  6
Continuous
 62
     7
100
AcDbCircle
 10
1065.407405860176
 20
491.8676158559792
 30
0.0
 40
1.999999999999834
100
AcDbArc
 50
14.29032869051849
 51
90.0
  0
ARC
  5
503
330
1F
100
AcDbEntity
  8
1
  6
Continuous
 62
     7
100
AcDbCircle
 10
1065.407405860176
 20
511.367615855979
 30
0.0
 40
2.0
100
AcDbArc
 50
270.0
 51
345.7096713094784
  0
ARC
  5
504
330
1F
100
AcDbEntity
  8
1
  6
Continuous
 62
     7
100
AcDbCircle
 10
1105.685173558933
 20
458.117615855979
 30
0.0
 40
1.0
100
AcDbArc
 50
270.0
 51
0.0
  0
ARC
  5
505
330
1F
100
AcDbEntity
  8
1
  6
Continuous
 62
     7
100
AcDbCircle
 10
1101.685173558933
 20
458.117615855979
 30
0.0
 40
1.0
100
AcDbArc
 50
180.0
 51
270.0
  0
ARC
  5
506
330
1F
100
AcDbEntity
  8
1
  6
Continuous
 62
     7
100
AcDbCircle
 10
1101.685173558933
 20
545.117615855979
 30
0.0
 40
1.0
100
AcDbArc
 50
90.0
 51
180.0
  0
ARC
  5
507
330
1F
100
AcDbEntity
  8
1
  6
Continuous
 62
     7
100
AcDbCircle
 10
1105.685173558933
 20
545.117615855979
 30
0.0
 40
1.0
100
AcDbArc
 50
0.0
 51
90.0
  0
ARC
  5
508
330
1F
100
AcDbEntity
  8
1
  6
Continuous
 62
     7
100
AcDbCircle
 10
1069.685173558933
 20
382.2083804669724
 30
0.0
 40
2.0
100
AcDbArc
 50
270.0
 51
0.0
  0
ARC
  5
509
330
1F
100
AcDbEntity
  8
1
  6
Continuous
 62
     7
100
AcDbCircle
 10
1066.685173558933
 20
382.2083804669724
 30
0.0
 40
2.0
100
AcDbArc
 50
180.0
 51
270.0
  0
ARC
  5
50A
330
1F
100
AcDbEntity
  8
1
  6
Continuous
 62
     7
100
AcDbCircle
 10
1066.685173558933
 20
361.5083804669723
 30
0.0
 40
2.0
100
AcDbArc
 50
90.0
 51
180.0
  0
ARC
  5
50B
330
1F
100
AcDbEntity
  8
1
  6
Continuous
 62
     7
100
AcDbCircle
 10
1070.424223948822
 20
361.5083804669723
 30
0.0
 40
1.999999999999427
100
AcDbArc
 50
25.53920332487016
 51
90.0
  0
ARC
  5
50C
330
1F
100
AcDbEntity
  8
1
  6
Continuous
 62
     7
100
AcDbCircle
 10
1136.946123169045
 20
361.5083804669723
 30
0.0
 40
2.0
100
AcDbArc
 50
90.0
 51
154.4607966751411
  0
ARC
  5
50D
330
1F
100
AcDbEntity
  8
1
  6
Continuous
 62
     7
100
AcDbCircle
 10
1140.685173558933
 20
361.5083804669723
 30
0.0
 40
2.0
100
AcDbArc
 50
0.0
 51
90.0
  0
ARC
  5
50E
330
1F
100
AcDbEntity
  8
1
  6
Continuous
 62
     7
100
AcDbCircle
 10
1137.685173558933
 20
382.2083804669724
 30
0.0
 40
2.0
100
AcDbArc
 50
180.0
 51
270.0
  0
ARC
  5
50F
330
1F
100
AcDbEntity
  8
1
  6
Continuous
 62
     7
100
AcDbCircle
 10
1140.685173558933
 20
382.2083804669724
 30
0.0
 40
2.0
100
AcDbArc
 50
270.0
 51
0.0
  0
ARC
  5
510
330
1F
100
AcDbEntity
  8
1
  6
Continuous
 62
     7
100
AcDbCircle
 10
1137.685173558933
 20
401.8583804669723
 30
0.0
 40
2.0
100
AcDbArc
 50
90.0
 51
180.0
  0
ARC
  5
511
330
1F
100
AcDbEntity
  8
1
  6
Continuous
 62
     7
100
AcDbCircle
 10
1069.685173558933
 20
401.8583804669723
 30
0.0
 40
2.0
100
AcDbArc
 50
0.0
 51
90.0
  0
ARC
  5
512
330
1F
100
AcDbEntity
  8
1
  6
Continuous
 62
     7
100
AcDbCircle
 10
1127.424223948822
 20
350.8583804669723
 30
0.0
 40
2.0
100
AcDbArc
 50
270.0
 51
334.4607966751328
  0
ARC
  5
513
330
1F
100
AcDbEntity
  8
1
  6
Continuous
 62
     7
100
AcDbCircle
 10
1079.946123169045
 20
350.8583804669723
 30
0.0
 40
2.000000000000199
100
AcDbArc
 50
205.539203324856
 51
270.0
  0
ARC
  5
514
330
1F
100
AcDbEntity
  8
1
  6
Continuous
 62
     7
100
AcDbCircle
 10
1117.185173558933
 20
356.3583804669723
 30
0.0
 40
5.0
100
AcDbArc
 50
90.0
 51
180.0
  0
ARC
  5
515
330
1F
100
AcDbEntity
  8
1
  6
Continuous
 62
     7
100
AcDbCircle
 10
1090.185173558933
 20
356.3583804669723
 30
0.0
 40
5.0
100
AcDbArc
 50
0.0
 51
90.0
  0
ARC
  5
516
330
1F
100
AcDbEntity
  8
1
  6
Continuous
 62
     7
100
AcDbCircle
 10
1097.185173558933
 20
353.8250014724811
 30
0.0
 40
2.0
100
AcDbArc
 50
180.0
 51
244.6986213745755
  0
ARC
  5
517
330
1F
100
AcDbEntity
  8
1
  6
Continuous
 62
     7
100
AcDbCircle
 10
1110.185173558933
 20
353.8250014724811
 30
0.0
 40
2.000000000000123
100
AcDbArc
 50
295.3013786254245
 51
0.0
  0
ARC
  5
518
330
1F
100
AcDbEntity
  8
1
  6
Continuous
 62
     7
100
AcDbCircle
 10
1103.685173558933
 20
351.8583804669723
 30
0.0
 40
2.999999999999865
100
AcDbArc
 50
244.6986213745846
 51
295.3013786254154
  0
ARC
  5
519
330
1F
100
AcDbEntity
  8
1
  6
Continuous
 62
     7
100
AcDbCircle
 10
1073.658189520783
 20
362.8583804669723
 30
0.0
 40
1.499999999999751
100
AcDbArc
 50
205.5392033248644
 51
270.0
  0
ARC
  5
51A
330
1F
100
AcDbEntity
  8
1
  6
Continuous
 62
     7
100
AcDbCircle
 10
1133.712157597083
 20
362.8583804669723
 30
0.0
 40
1.5
100
AcDbArc
 50
270.0
 51
334.4607966751505
  0
ARC
  5
51B
330
1F
100
AcDbEntity
  8
1
  6
Continuous
 62
     7
100
AcDbCircle
 10
1105.685173558933
 20
545.117615855979
 30
0.0
 40
1.0
100
AcDbArc
 50
0.0
 51
90.0
  0
ARC
  5
51C
330
1F
100
AcDbEntity
  8
1
  6
Continuous
 62
     7
100
AcDbCircle
 10
1101.685173558933
 20
545.117615855979
 30
0.0
 40
1.0
100
AcDbArc
 50
90.0
 51
180.0
  0
ARC
  5
51D
330
1F
100
AcDbEntity
  8
1
  6
Continuous
 62
     7
100
AcDbCircle
 10
1101.685173558933
 20
458.117615855979
 30
0.0
 40
1.0
100
AcDbArc
 50
180.0
 51
270.0
  0
ARC
  5
51E
330
1F
100
AcDbEntity
  8
1
  6
Continuous
 62
     7
100
AcDbCircle
 10
1105.685173558933
 20
458.117615855979
 30
0.0
 40
1.0
100
AcDbArc
 50
270.0
 51
0.0
  0
ARC
  5
51F
330
1F
100
AcDbEntity
  8
1
  6
Continuous
 62
     7
100
AcDbCircle
 10
1147.185173558933
 20
499.617615855979
 30
0.0
 40
1.0
100
AcDbArc
 50
270.0
 51
0.0
  0
ARC
  5
520
330
1F
100
AcDbEntity
  8
1
  6
Continuous
 62
     7
100
AcDbCircle
 10
1147.185173558933
 20
503.617615855979
 30
0.0
 40
1.0
100
AcDbArc
 50
0.0
 51
90.0
  0
LINE
  5
521
330
1F
100
AcDbEntity
  8
1
 62
     2
100
AcDbLine
 10
1120.542627354854
 20
350.7471545162089
 30
0.0
 11
1122.612138774316
 21
348.4312759761646
 31
0.0
  0
LINE
  5
522
330
1F
100
AcDbEntity
  8
1
 62
     2
100
AcDbLine
 10
1120.542627354854
 20
350.7471545162089
 30
0.0
 11
1121.176937547508
 21
347.7067891587204
 31
0.0
  0
LEADER
  5
523
330
1F
100
AcDbEntity
  8
1
  6
Continuous
 62
     2
100
AcDbLeader
  3
Standard
 71
     0
 76
     3
 10
1120.542627354854
 20
350.7471545162089
 30
0.0
 10
1125.877638297923
 20
340.1785505524589
 30
0.0
 10
1145.953889013334
 20
340.1785505524589
 30
0.0
  0
LINE
  5
524
330
1F
100
AcDbEntity
  8
1
 62
     2
100
AcDbLine
 10
1084.873053343864
 20
351.5471545162089
 30
0.0
 11
1084.291685419526
 21
348.4962231397157
 31
0.0
  0
LINE
  5
525
330
1F
100
AcDbEntity
  8
1
 62
     2
100
AcDbLine
 10
1084.873053343864
 20
351.5471545162089
 30
0.0
 11
1082.844108264195
 21
349.1956544011318
 31
0.0
  0
LEADER
  5
526
330
1F
100
AcDbEntity
  8
1
  6
Continuous
 62
     2
100
AcDbLeader
  3
Standard
 71
     0
 76
     3
 10
1084.873053343864
 20
351.5471545162089
 30
0.0
 10
1079.764269062463
 20
340.9737646418478
 30
0.0
 10
1060.533876993424
 20
340.9737646418478
 30
0.0
  0
DIMENSION
  5
53A
330
1F
100
AcDbEntity
  8
1
100
AcDbDimension
  2
*D1
 10
1170.30437180535
 20
440.3583804669723
 30
0.0
 11
1168.25437180535
 21
395.3546105534964
 31
0.0
 70
    32
  1
<>
 71
     5
 42
-1.0
 53
90.0
  3
ME10_DIM_10
100
AcDbAlignedDimension
 13
1127.424223948822
 23
348.8583804669723
 33
0.0
 14
1068.685173558933
 24
440.3583804669723
 34
0.0
 50
90.0
100
AcDbRotatedDimension
  0
DIMENSION
  5
547
330
1F
100
AcDbEntity
  8
1
100
AcDbDimension
  2
*D3
 10
1170.30437180535
 20
546.117615855979
 30
0.0
 11
1168.25437180535
 21
502.93182886467
 31
0.0
 70
    32
  1
<>
 71
     5
 42
-1.0
 53
90.0
  3
ME10_DIM_11
100
AcDbAlignedDimension
 13
1105.685173558933
 23
457.117615855979
 33
0.0
 14
1105.685173558933
 24
546.117615855979
 34
0.0
 50
90.0
100
AcDbRotatedDimension
  0
DIMENSION
  5
554
330
1F
100
AcDbEntity
  8
1
100
AcDbDimension
  2
*D4
 10
1053.685173558933
 20
331.415394295723
 30
0.0
 11
1103.685173558933
 21
333.465394295723
 31
0.0
 70
    32
  1
<>
 71
     5
 42
-1.0
 53
0.00013888888889
  3
ME10_DIM_12
100
AcDbAlignedDimension
 13
1153.685173558933
 23
360.4583804669724
 33
0.0
 14
1053.685173558933
 24
360.4583804669724
 34
0.0
100
AcDbRotatedDimension
  0
DIMENSION
  5
561
330
1F
100
AcDbEntity
  8
1
100
AcDbDimension
  2
*D5
 10
1163.110286356428
 20
348.8583804669723
 30
0.0
 11
1161.060286356428
 21
360.3583804669723
 31
0.0
 70
    32
  1
<>
 71
     5
 42
-1.0
 53
90.0
  3
ME10_DIM_13
100
AcDbAlignedDimension
 13
1157.336347428251
 23
371.8583804669723
 33
0.0
 14
1127.424223948822
 24
348.8583804669723
 34
0.0
 50
90.0
100
AcDbRotatedDimension
  0
DIMENSION
  5
56E
330
1F
100
AcDbEntity
  8
1
100
AcDbDimension
  2
*D6
 10
1053.685173558933
 20
348.8583804669723
 30
0.0
 11
1059.185173558933
 21
351.4583804669723
 31
0.0
 70
    32
  1
<>
 71
     5
 42
-1.0
 53
0.00013888888889
  3
ME10_DIM_14
100
AcDbAlignedDimension
 13
1064.685173558933
 23
358.9583804669724
 33
0.0
 14
1053.685173558933
 24
360.4583804669724
 34
0.0
100
AcDbRotatedDimension
  0
INSERT
  5
578
330
1F
100
AcDbEntity
  8
1
100
AcDbBlockReference
  2
*D7
 10
0.0
 20
0.0
 30
0.0
  0
ENDSEC
  0
SECTION
  2
OBJECTS
  0
DICTIONARY
  5
C
330
0
100
AcDbDictionary
281
     1
  3
ACAD_GROUP
350
D
  3
ACAD_LAYOUT
350
1A
  3
ACAD_MLEADERSTYLE
350
57A
  3
ACAD_MLINESTYLE
350
17
  3
ACAD_PLOTSETTINGS
350
19
  3
ACAD_PLOTSTYLENAME
350
E
  3
ACAD_TABLESTYLE
350
579
  3
ACAD_VISUALSTYLE
350
2A
  0
DICTIONARY
  5
D
102
{ACAD_REACTORS
330
C
102
}
330
C
100
AcDbDictionary
281
     1
  0
DICTIONARY
  5
1A
102
{ACAD_REACTORS
330
C
102
}
330
C
100
AcDbDictionary
281
     1
  3
Layout1
350
1E
  3
Layout2
350
26
  3
Model
350
22
  0
DICTIONARY
  5
57A
102
{ACAD_REACTORS
330
C
102
}
330
C
100
AcDbDictionary
281
     1
  0
DICTIONARY
  5
17
102
{ACAD_REACTORS
330
C
102
}
330
C
100
AcDbDictionary
281
     1
  3
Standard
350
18
  0
DICTIONARY
  5
19
102
{ACAD_REACTORS
330
C
102
}
330
C
100
AcDbDictionary
281
     1
  0
ACDBDICTIONARYWDFLT
  5
E
102
{ACAD_REACTORS
330
C
102
}
330
C
100
AcDbDictionary
281
     1
  3
Normal
350
F
100
AcDbDictionaryWithDefault
340
F
  0
DICTIONARY
  5
579
102
{ACAD_REACTORS
330
C
102
}
330
C
100
AcDbDictionary
281
     1
  0
DICTIONARY
  5
2A
102
{ACAD_REACTORS
330
C
102
}
330
C
100
AcDbDictionary
281
     1
  3
2dWireframe
350
2F
  3
3D Hidden
350
31
  3
3dWireframe
350
30
  3
Basic
350
32
  3
Brighten
350
36
  3
ColorChange
350
3A
  3
Conceptual
350
34
  3
Dim
350
35
  3
Facepattern
350
39
  3
Flat
350
2B
  3
FlatWithEdges
350
2C
  3
Gouraud
350
2D
  3
GouraudWithEdges
350
2E
  3
Linepattern
350
38
  3
Realistic
350
33
  3
Thicken
350
37
  0
LAYOUT
  5
1E
102
{ACAD_REACTORS
330
1A
102
}
330
1A
100
AcDbPlotSettings
  1

  2
none_device
  4

  6

 40
0.0
 41
0.0
 42
0.0
 43
0.0
 44
0.0
 45
0.0
 46
0.0
 47
0.0
 48
0.0
 49
0.0
140
0.0
141
0.0
142
1.0
143
1.0
 70
   688
 72
     0
 73
     0
 74
     5
  7

 75
    16
147
1.0
148
0.0
149
0.0
100
AcDbLayout
  1
Layout1
 70
     1
 71
     1
 10
0.0
 20
0.0
 11
12.0
 21
9.0
 12
0.0
 22
0.0
 32
0.0
 14
1.00000000000000E+20
 24
1.00000000000000E+20
 34
1.00000000000000E+20
 15
-1.00000000000000E+20
 25
-1.00000000000000E+20
 35
-1.00000000000000E+20
146
0.0
 13
0.0
 23
0.0
 33
0.0
 16
1.0
 26
0.0
 36
0.0
 17
0.0
 27
1.0
 37
0.0
 76
     0
330
1B
  0
LAYOUT
  5
26
102
{ACAD_REACTORS
330
1A
102
}
330
1A
100
AcDbPlotSettings
  1

  2
none_device
  4

  6

 40
0.0
 41
0.0
 42
0.0
 43
0.0
 44
0.0
 45
0.0
 46
0.0
 47
0.0
 48
0.0
 49
0.0
140
0.0
141
0.0
142
1.0
143
1.0
 70
   688
 72
     0
 73
     0
 74
     5
  7

 75
    16
147
1.0
148
0.0
149
0.0
100
AcDbLayout
  1
Layout2
 70
     1
 71
     2
 10
0.0
 20
0.0
 11
0.0
 21
0.0
 12
0.0
 22
0.0
 32
0.0
 14
0.0
 24
0.0
 34
0.0
 15
0.0
 25
0.0
 35
0.0
146
0.0
 13
0.0
 23
0.0
 33
0.0
 16
1.0
 26
0.0
 36
0.0
 17
0.0
 27
1.0
 37
0.0
 76
     0
330
23
  0
LAYOUT
  5
22
102
{ACAD_REACTORS
330
1A
102
}
330
1A
100
AcDbPlotSettings
  1

  2
none_device
  4

  6

 40
0.0
 41
0.0
 42
0.0
 43
0.0
 44
0.0
 45
0.0
 46
0.0
 47
0.0
 48
0.0
 49
0.0
140
0.0
141
0.0
142
1.0
143
1.0
 70
  1712
 72
     0
 73
     0
 74
     0
  7

 75
     0
147
1.0
148
0.0
149
0.0
100
AcDbLayout
  1
Model
 70
     1
 71
     0
 10
0.0
 20
0.0
 11
12.0
 21
9.0
 12
0.0
 22
0.0
 32
0.0
 14
1020.190593160057
 24
273.8583804669723
 34
0.0
 15
1171.30437180535
 25
549.456774105472
 35
0.0
146
0.0
 13
0.0
 23
0.0
 33
0.0
 16
1.0
 26
0.0
 36
0.0
 17
0.0
 27
1.0
 37
0.0
 76
     0
330
1F
331
29
  0
MLINESTYLE
  5
18
102
{ACAD_REACTORS
330
17
102
}
330
17
100
AcDbMlineStyle
  2
Standard
 70
     0
  3

 62
   256
 51
90.0
 52
90.0
 71
     2
 49
0.5
 62
   256
  6
BYLAYER
 49
-0.5
 62
   256
  6
BYLAYER
  0
ACDBPLACEHOLDER
  5
F
102
{ACAD_REACTORS
330
E
102
}
330
E
  0
VISUALSTYLE
  5
2F
102
{ACAD_REACTORS
330
2A
102
}
330
2A
100
AcDbVisualStyle
  2
2dWireframe
 70
     4
 71
     0
 72
     2
 73
     0
 90
        0
 40
-0.6
 41
-30.0
 62
     5
 63
     7
 74
     1
 91
        4
 64
     7
 65
   257
 75
     1
175
     1
 42
1.0
 92
        0
 66
   257
 43
1.0
 76
     1
 77
     6
 78
     2
 67
     7
 79
     5
170
     0
171
     0
290
     0
174
     0
 93
        1
 44
0.0
173
     0
291
     0
 45
0.0
1001
ACAD
1000
AcDbSavedByObjectVersion
1070
     0
  0
VISUALSTYLE
  5
31
102
{ACAD_REACTORS
330
2A
102
}
330
2A
100
AcDbVisualStyle
  2
3D Hidden
 70
     6
 71
     1
 72
     2
 73
     2
 90
        0
 40
-0.6
 41
-30.0
 62
     5
 63
     7
 74
     2
 91
        2
 64
     7
 65
   257
 75
     2
175
     1
 42
40.0
 92
        0
 66
   257
 43
1.0
 76
     1
 77
     6
 78
     2
 67
     7
 79
     3
170
     0
171
     0
290
     0
174
     0
 93
        1
 44
0.0
173
     0
291
     0
 45
0.0
1001
ACAD
1000
AcDbSavedByObjectVersion
1070
     0
  0
VISUALSTYLE
  5
30
102
{ACAD_REACTORS
330
2A
102
}
330
2A
100
AcDbVisualStyle
  2
3dWireframe
 70
     5
 71
     0
 72
     2
 73
     0
 90
        0
 40
-0.6
 41
-30.0
 62
     5
 63
     7
 74
     1
 91
        4
 64
     7
 65
   257
 75
     1
175
     1
 42
1.0
 92
        0
 66
   257
 43
1.0
 76
     1
 77
     6
 78
     2
 67
     7
 79
     5
170
     0
171
     0
290
     0
174
     0
 93
        1
 44
0.0
173
     0
291
     0
 45
0.0
1001
ACAD
1000
AcDbSavedByObjectVersion
1070
     0
  0
VISUALSTYLE
  5
32
102
{ACAD_REACTORS
330
2A
102
}
330
2A
100
AcDbVisualStyle
  2
Basic
 70
     7
 71
     1
 72
     0
 73
     1
 90
        0
 40
-0.6
 41
-30.0
 62
     5
 63
     7
 74
     0
 91
        4
 64
     7
 65
   257
 75
     1
175
     1
 42
1.0
 92
        8
 66
     7
 43
1.0
 76
     1
 77
     6
 78
     2
 67
     7
 79
     5
170
     0
171
     0
290
     0
174
     0
 93
        1
 44
0.0
173
     0
291
     1
 45
0.0
1001
ACAD
1000
AcDbSavedByObjectVersion
1070
     0
  0
VISUALSTYLE
  5
36
102
{ACAD_REACTORS
330
2A
102
}
330
2A
100
AcDbVisualStyle
  2
Brighten
 70
    12
 71
     2
 72
     2
 73
     0
 90
        0
 40
-0.6
 41
-30.0
 62
     5
 63
     7
 74
     1
 91
        4
 64
     7
 65
   257
 75
     1
175
     1
 42
1.0
 92
        8
 66
     7
 43
1.0
 76
     1
 77
     6
 78
     2
 67
     7
 79
     5
170
     0
171
     0
290
     0
174
     0
 93
        1
 44
50.0
173
     0
291
     1
 45
0.0
1001
ACAD
1000
AcDbSavedByObjectVersion
1070
     0
  0
VISUALSTYLE
  5
3A
102
{ACAD_REACTORS
330
2A
102
}
330
2A
100
AcDbVisualStyle
  2
ColorChange
 70
    16
 71
     2
 72
     2
 73
     3
 90
        0
 40
-0.6
 41
-30.0
 62
     5
 63
     8
 74
     1
 91
        4
 64
     7
 65
   257
 75
     1
175
     1
 42
1.0
 92
        8
 66
     8
 43
1.0
 76
     1
 77
     6
 78
     2
 67
     7
 79
     5
170
     0
171
     0
290
     0
174
     0
 93
        1
 44
0.0
173
     0
291
     1
 45
0.0
1001
ACAD
1000
AcDbSavedByObjectVersion
1070
     0
  0
VISUALSTYLE
  5
34
102
{ACAD_REACTORS
330
2A
102
}
330
2A
100
AcDbVisualStyle
  2
Conceptual
 70
     9
 71
     3
 72
     2
 73
     0
 90
        0
 40
-0.6
 41
-30.0
 62
     5
 63
     7
 74
     2
 91
        2
 64
     7
 65
   257
 75
     1
175
     1
 42
40.0
 92
        8
 66
     7
 43
1.0
 76
     1
 77
     6
 78
     2
 67
     7
 79
     3
170
     0
171
     0
290
     0
174
     0
 93
        1
 44
0.0
173
     0
291
     0
 45
0.0
1001
ACAD
1000
AcDbSavedByObjectVersion
1070
     0
  0
VISUALSTYLE
  5
35
102
{ACAD_REACTORS
330
2A
102
}
330
2A
100
AcDbVisualStyle
  2
Dim
 70
    11
 71
     2
 72
     2
 73
     0
 90
        0
 40
-0.6
 41
-30.0
 62
     5
 63
     7
 74
     1
 91
        4
 64
     7
 65
   257
 75
     1
175
     1
 42
1.0
 92
        8
 66
     7
 43
1.0
 76
     1
 77
     6
 78
     2
 67
     7
 79
     5
170
     0
171
     0
290
     0
174
     0
 93
        1
 44
-50.0
173
     0
291
     1
 45
0.0
1001
ACAD
1000
AcDbSavedByObjectVersion
1070
     0
  0
VISUALSTYLE
  5
39
102
{ACAD_REACTORS
330
2A
102
}
330
2A
100
AcDbVisualStyle
  2
Facepattern
 70
    15
 71
     2
 72
     2
 73
     0
 90
        0
 40
-0.6
 41
-30.0
 62
     5
 63
     7
 74
     1
 91
        4
 64
     7
 65
   257
 75
     1
175
     1
 42
1.0
 92
        8
 66
     7
 43
1.0
 76
     1
 77
     6
 78
     2
 67
     7
 79
     5
170
     0
171
     0
290
     0
174
     0
 93
        1
 44
0.0
173
     0
291
     1
 45
0.0
1001
ACAD
1000
AcDbSavedByObjectVersion
1070
     0
  0
VISUALSTYLE
  5
2B
102
{ACAD_REACTORS
330
2A
102
}
330
2A
100
AcDbVisualStyle
  2
Flat
 70
     0
 71
     2
 72
     1
 73
     1
 90
        2
 40
-0.6
 41
30.0
 62
     5
 63
     7
 74
     0
 91
        4
 64
     7
 65
   257
 75
     1
175
     1
 42
1.0
 92
        8
 66
     7
 43
1.0
 76
     1
 77
     6
 78
     2
 67
     7
 79
     5
170
     0
171
     0
290
     0
174
     0
 93
       13
 44
0.0
173
     0
291
     1
 45
0.0
1001
ACAD
1000
AcDbSavedByObjectVersion
1070
     0
  0
VISUALSTYLE
  5
2C
102
{ACAD_REACTORS
330
2A
102
}
330
2A
100
AcDbVisualStyle
  2
FlatWithEdges
 70
     1
 71
     2
 72
     1
 73
     1
 90
        2
 40
-0.6
 41
30.0
 62
     5
 63
     7
 74
     1
 91
        4
 64
     7
 65
   257
 75
     1
175
     1
 42
1.0
 92
        0
 66
   257
 43
1.0
 76
     1
 77
     6
 78
     2
 67
     7
 79
     5
170
     0
171
     0
290
     0
174
     0
 93
       13
 44
0.0
173
     0
291
     1
 45
0.0
1001
ACAD
1000
AcDbSavedByObjectVersion
1070
     0
  0
VISUALSTYLE
  5
2D
102
{ACAD_REACTORS
330
2A
102
}
330
2A
100
AcDbVisualStyle
  2
Gouraud
 70
     2
 71
     2
 72
     2
 73
     1
 90
        2
 40
-0.6
 41
30.0
 62
     5
 63
     7
 74
     0
 91
        4
 64
     7
 65
   257
 75
     1
175
     1
 42
1.0
 92
        0
 66
     7
 43
1.0
 76
     1
 77
     6
 78
     2
 67
     7
 79
     5
170
     0
171
     0
290
     0
174
     0
 93
       13
 44
0.0
173
     0
291
     1
 45
0.0
1001
ACAD
1000
AcDbSavedByObjectVersion
1070
     0
  0
VISUALSTYLE
  5
2E
102
{ACAD_REACTORS
330
2A
102
}
330
2A
100
AcDbVisualStyle
  2
GouraudWithEdges
 70
     3
 71
     2
 72
     2
 73
     1
 90
        2
 40
-0.6
 41
30.0
 62
     5
 63
     7
 74
     1
 91
        4
 64
     7
 65
   257
 75
     1
175
     1
 42
1.0
 92
        0
 66
   257
 43
1.0
 76
     1
 77
     6
 78
     2
 67
     7
 79
     5
170
     0
171
     0
290
     0
174
     0
 93
       13
 44
0.0
173
     0
291
     1
 45
0.0
1001
ACAD
1000
AcDbSavedByObjectVersion
1070
     0
  0
VISUALSTYLE
  5
38
102
{ACAD_REACTORS
330
2A
102
}
330
2A
100
AcDbVisualStyle
  2
Linepattern
 70
    14
 71
     2
 72
     2
 73
     0
 90
        0
 40
-0.6
 41
-30.0
 62
     5
 63
     7
 74
     1
 91
        4
 64
     7
 65
   257
 75
     7
175
     7
 42
1.0
 92
        8
 66
     7
 43
1.0
 76
     1
 77
     6
 78
     2
 67
     7
 79
     5
170
     0
171
     0
290
     0
174
     0
 93
        1
 44
0.0
173
     0
291
     1
 45
0.0
1001
ACAD
1000
AcDbSavedByObjectVersion
1070
     0
  0
VISUALSTYLE
  5
33
102
{ACAD_REACTORS
330
2A
102
}
330
2A
100
AcDbVisualStyle
  2
Realistic
 70
     8
 71
     2
 72
     2
 73
     0
 90
        0
 40
-0.6
 41
-30.0
 62
     5
 63
     7
 74
     1
 91
        0
 64
     7
 65
   257
 75
     1
175
     1
 42
1.0
 92
        8
 66
     8
 43
1.0
 76
     1
 77
     6
 78
     2
 67
     7
 79
     5
170
     0
171
     0
290
     0
174
     0
 93
       13
 44
0.0
173
     0
291
     0
 45
0.0
1001
ACAD
1000
AcDbSavedByObjectVersion
1070
     0
  0
VISUALSTYLE
  5
37
102
{ACAD_REACTORS
330
2A
102
}
330
2A
100
AcDbVisualStyle
  2
Thicken
 70
    13
 71
     2
 72
     2
 73
     0
 90
        0
 40
-0.6
 41
-30.0
 62
     5
 63
     7
 74
     1
 91
        4
 64
     7
 65
   257
 75
     1
175
     1
 42
1.0
 92
       12
 66
     7
 43
1.0
 76
     1
 77
     6
 78
     2
 67
     7
 79
     5
170
     0
171
     0
290
     0
174
     0
 93
        1
 44
0.0
173
     0
291
     1
 45
0.0
1001
ACAD
1000
AcDbSavedByObjectVersion
1070
     0
  0
ENDSEC
  0
EOF
