  0
SECTION
  2
HEADER
  9
$ACADVER
  1
AC1015
  9
$ACADMAINTVER
 70
     6
  9
$DWGCODEPAGE
  3
ANSI_1252
  9
$INSBASE
 10
0.0
 20
0.0
 30
0.0
  9
$EXTMIN
 10
26.43428122917544
 20
-0.15925416331717
 30
0.0
  9
$EXTMAX
 10
183.1915453387753
 20
276.0994427975888
 30
0.0
  9
$LIMMIN
 10
0.0
 20
0.0
  9
$LIMMAX
 10
12.0
 20
9.0
  9
$ORTHOMODE
 70
     0
  9
$REGENMODE
 70
     1
  9
$FILLMODE
 70
     1
  9
$QTEXTMODE
 70
     0
  9
$MIRRTEXT
 70
     1
  9
$LTSCALE
 40
1.0
  9
$ATTMODE
 70
     1
  9
$TEXTSIZE
 40
0.2
  9
$TRACEWID
 40
0.05
  9
$TEXTSTYLE
  7
Standard
  9
$CLAYER
  8
0
  9
$CELTYPE
  6
ByLayer
  9
$CECOLOR
 62
   256
  9
$CELTSCALE
 40
1.0
  9
$DISPSILH
 70
     0
  9
$DIMSCALE
 40
1.0
  9
$DIMASZ
 40
0.18
  9
$DIMEXO
 40
0.0625
  9
$DIMDLI
 40
0.38
  9
$DIMRND
 40
0.0
  9
$DIMDLE
 40
0.0
  9
$DIMEXE
 40
0.18
  9
$DIMTP
 40
0.0
  9
$DIMTM
 40
0.0
  9
$DIMTXT
 40
0.18
  9
$DIMCEN
 40
0.09
  9
$DIMTSZ
 40
0.0
  9
$DIMTOL
 70
     0
  9
$DIMLIM
 70
     0
  9
$DIMTIH
 70
     1
  9
$DIMTOH
 70
     1
  9
$DIMSE1
 70
     0
  9
$DIMSE2
 70
     0
  9
$DIMTAD
 70
     0
  9
$DIMZIN
 70
     0
  9
$DIMBLK
  1

  9
$DIMASO
 70
     1
  9
$DIMSHO
 70
     1
  9
$DIMPOST
  1

  9
$DIMAPOST
  1

  9
$DIMALT
 70
     0
  9
$DIMALTD
 70
     2
  9
$DIMALTF
 40
25.4
  9
$DIMLFAC
 40
1.0
  9
$DIMTOFL
 70
     0
  9
$DIMTVP
 40
0.0
  9
$DIMTIX
 70
     0
  9
$DIMSOXD
 70
     0
  9
$DIMSAH
 70
     0
  9
$DIMBLK1
  1

  9
$DIMBLK2
  1

  9
$DIMSTYLE
  2
Standard
  9
$DIMCLRD
 70
     0
  9
$DIMCLRE
 70
     0
  9
$DIMCLRT
 70
     0
  9
$DIMTFAC
 40
1.0
  9
$DIMGAP
 40
0.09
  9
$DIMJUST
 70
     0
  9
$DIMSD1
 70
     0
  9
$DIMSD2
 70
     0
  9
$DIMTOLJ
 70
     1
  9
$DIMTZIN
 70
     0
  9
$DIMALTZ
 70
     0
  9
$DIMALTTZ
 70
     0
  9
$DIMUPT
 70
     0
  9
$DIMDEC
 70
     4
  9
$DIMTDEC
 70
     4
  9
$DIMALTU
 70
     2
  9
$DIMALTTD
 70
     2
  9
$DIMTXSTY
  7
Standard
  9
$DIMAUNIT
 70
     0
  9
$DIMADEC
 70
     0
  9
$DIMALTRND
 40
0.0
  9
$DIMAZIN
 70
     0
  9
$DIMDSEP
 70
    46
  9
$DIMATFIT
 70
     3
  9
$DIMFRAC
 70
     0
  9
$DIMLDRBLK
  1

  9
$DIMLUNIT
 70
     2
  9
$DIMLWD
 70
    -2
  9
$DIMLWE
 70
    -2
  9
$DIMTMOVE
 70
     0
  9
$LUNITS
 70
     2
  9
$LUPREC
 70
     4
  9
$SKETCHINC
 40
0.1
  9
$FILLETRAD
 40
0.5
  9
$AUNITS
 70
     0
  9
$AUPREC
 70
     0
  9
$MENU
  1
.
  9
$ELEVATION
 40
0.0
  9
$PELEVATION
 40
0.0
  9
$THICKNESS
 40
0.0
  9
$LIMCHECK
 70
     0
  9
$CHAMFERA
 40
0.5
  9
$CHAMFERB
 40
0.5
  9
$CHAMFERC
 40
1.0
  9
$CHAMFERD
 40
0.0
  9
$SKPOLY
 70
     0
  9
$TDCREATE
 40
2457052.570287859
  9
$TDUCREATE
 40
2457052.195287859
  9
$TDUPDATE
 40
2457052.57028787
  9
$TDUUPDATE
 40
2457052.19528787
  9
$TDINDWG
 40
0.0000000116
  9
$TDUSRTIMER
 40
0.0000000116
  9
$USRTIMER
 70
     1
  9
$ANGBASE
 50
0.0
  9
$ANGDIR
 70
     0
  9
$PDMODE
 70
     0
  9
$PDSIZE
 40
0.0
  9
$PLINEWID
 40
0.0
  9
$SPLFRAME
 70
     0
  9
$SPLINETYPE
 70
     6
  9
$SPLINESEGS
 70
     8
  9
$HANDSEED
  5
562
  9
$SURFTAB1
 70
     6
  9
$SURFTAB2
 70
     6
  9
$SURFTYPE
 70
     6
  9
$SURFU
 70
     6
  9
$SURFV
 70
     6
  9
$UCSBASE
  2

  9
$UCSNAME
  2

  9
$UCSORG
 10
0.0
 20
0.0
 30
0.0
  9
$UCSXDIR
 10
1.0
 20
0.0
 30
0.0
  9
$UCSYDIR
 10
0.0
 20
1.0
 30
0.0
  9
$UCSORTHOREF
  2

  9
$UCSORTHOVIEW
 70
     0
  9
$UCSORGTOP
 10
0.0
 20
0.0
 30
0.0
  9
$UCSORGBOTTOM
 10
0.0
 20
0.0
 30
0.0
  9
$UCSORGLEFT
 10
0.0
 20
0.0
 30
0.0
  9
$UCSORGRIGHT
 10
0.0
 20
0.0
 30
0.0
  9
$UCSORGFRONT
 10
0.0
 20
0.0
 30
0.0
  9
$UCSORGBACK
 10
0.0
 20
0.0
 30
0.0
  9
$PUCSBASE
  2

  9
$PUCSNAME
  2

  9
$PUCSORG
 10
0.0
 20
0.0
 30
0.0
  9
$PUCSXDIR
 10
1.0
 20
0.0
 30
0.0
  9
$PUCSYDIR
 10
0.0
 20
1.0
 30
0.0
  9
$PUCSORTHOREF
  2

  9
$PUCSORTHOVIEW
 70
     0
  9
$PUCSORGTOP
 10
0.0
 20
0.0
 30
0.0
  9
$PUCSORGBOTTOM
 10
0.0
 20
0.0
 30
0.0
  9
$PUCSORGLEFT
 10
0.0
 20
0.0
 30
0.0
  9
$PUCSORGRIGHT
 10
0.0
 20
0.0
 30
0.0
  9
$PUCSORGFRONT
 10
0.0
 20
0.0
 30
0.0
  9
$PUCSORGBACK
 10
0.0
 20
0.0
 30
0.0
  9
$USERI1
 70
     0
  9
$USERI2
 70
     0
  9
$USERI3
 70
     0
  9
$USERI4
 70
     0
  9
$USERI5
 70
     0
  9
$USERR1
 40
16.0
  9
$USERR2
 40
0.0
  9
$USERR3
 40
0.0
  9
$USERR4
 40
0.0
  9
$USERR5
 40
0.0
  9
$WORLDVIEW
 70
     1
  9
$SHADEDGE
 70
     3
  9
$SHADEDIF
 70
    70
  9
$TILEMODE
 70
     1
  9
$MAXACTVP
 70
    64
  9
$PINSBASE
 10
0.0
 20
0.0
 30
0.0
  9
$PLIMCHECK
 70
     0
  9
$PEXTMIN
 10
1.00000000000000E+20
 20
1.00000000000000E+20
 30
1.00000000000000E+20
  9
$PEXTMAX
 10
-1.00000000000000E+20
 20
-1.00000000000000E+20
 30
-1.00000000000000E+20
  9
$PLIMMIN
 10
0.0
 20
0.0
  9
$PLIMMAX
 10
12.0
 20
9.0
  9
$UNITMODE
 70
     0
  9
$VISRETAIN
 70
     1
  9
$PLINEGEN
 70
     0
  9
$PSLTSCALE
 70
     1
  9
$TREEDEPTH
 70
  3020
  9
$CMLSTYLE
  2
Standard
  9
$CMLJUST
 70
     0
  9
$CMLSCALE
 40
1.0
  9
$PROXYGRAPHICS
 70
     1
  9
$MEASUREMENT
 70
     1
  9
$CELWEIGHT
370
    -1
  9
$ENDCAPS
280
     0
  9
$JOINSTYLE
280
     0
  9
$LWDISPLAY
290
     0
  9
$INSUNITS
 70
     1
  9
$HYPERLINKBASE
  1

  9
$STYLESHEET
  1

  9
$XEDIT
290
     1
  9
$CEPSNTYPE
380
     0
  9
$PSTYLEMODE
290
     1
  9
$FINGERPRINTGUID
  2
{5C408429-7543-4D96-9677-18ADCBBDB0CB}
  9
$VERSIONGUID
  2
{FAEB1C32-E019-11D5-929B-00C0DF256EC4}
  9
$EXTNAMES
290
     1
  9
$PSVPSCALE
 40
0.0
  9
$OLESTARTUP
290
     0
  0
ENDSEC
  0
SECTION
  2
CLASSES
  0
CLASS
  1
ACDBDICTIONARYWDFLT
  2
AcDbDictionaryWithDefault
  3
ObjectDBX Classes
 90
        0
280
     0
281
     0
  0
CLASS
  1
VISUALSTYLE
  2
AcDbVisualStyle
  3
ObjectDBX Classes
 90
     4095
280
     0
281
     0
  0
CLASS
  1

  2
exOdDbCircle
  3

 90
        0
280
     0
281
     1
  0
CLASS
  1
ACDBPLACEHOLDER
  2
AcDbPlaceHolder
  3
ObjectDBX Classes
 90
        0
280
     0
281
     0
  0
CLASS
  1
LAYOUT
  2
AcDbLayout
  3
ObjectDBX Classes
 90
        0
280
     0
281
     0
  0
ENDSEC
  0
SECTION
  2
TABLES
  0
TABLE
  2
VPORT
  5
8
330
0
100
AcDbSymbolTable
 70
     1
  0
VPORT
  5
29
330
8
100
AcDbSymbolTableRecord
100
AcDbViewportTableRecord
  2
*Active
 70
     0
 10
0.0
 20
0.0
 11
1.0
 21
1.0
 12
104.8129132839754
 22
137.9700943171358
 13
0.0
 23
0.0
 14
0.5
 24
0.5
 15
0.5
 25
0.5
 16
0.0
 26
0.0
 36
1.0
 17
0.0
 27
0.0
 37
0.0
 40
303.8845666569965
 41
1.60267857142857
 42
50.0
 43
0.0
 44
0.0
 50
0.0
 51
0.0
 71
     0
 72
   100
 73
     1
 74
     3
 75
     0
 76
     0
 77
     0
 78
     0
281
     0
 65
     1
110
0.0
120
0.0
130
0.0
111
1.0
121
0.0
131
0.0
112
0.0
122
1.0
132
0.0
 79
     0
146
0.0
  0
ENDTAB
  0
TABLE
  2
LTYPE
  5
5
330
0
100
AcDbSymbolTable
 70
     8
  0
LTYPE
  5
14
330
5
100
AcDbSymbolTableRecord
100
AcDbLinetypeTableRecord
  2
ByBlock
 70
     0
  3

 72
    65
 73
     0
 40
0.0
  0
LTYPE
  5
15
330
5
100
AcDbSymbolTableRecord
100
AcDbLinetypeTableRecord
  2
ByLayer
 70
     0
  3

 72
    65
 73
     0
 40
0.0
  0
LTYPE
  5
16
330
5
100
AcDbSymbolTableRecord
100
AcDbLinetypeTableRecord
  2
Continuous
 70
     0
  3
Solid line
 72
    65
 73
     0
 40
0.0
  0
LTYPE
  5
3B
330
5
100
AcDbSymbolTableRecord
100
AcDbLinetypeTableRecord
  2
DASHED
 70
     0
  3
Dashed
 72
    65
 73
     2
 40
15.0
 49
7.0
 74
     0
 49
-8.0
 74
     0
  0
LTYPE
  5
3C
330
5
100
AcDbSymbolTableRecord
100
AcDbLinetypeTableRecord
  2
DOTTED
 70
     0
  3
Dotted
 72
    65
 73
     2
 40
1.0
 49
0.0
 74
     0
 49
-1.0
 74
     0
  0
LTYPE
  5
3D
330
5
100
AcDbSymbolTableRecord
100
AcDbLinetypeTableRecord
  2
DOT_CENTER
 70
     0
  3
Dot_Center
 72
    65
 73
     4
 40
14.0
 49
12.0
 74
     0
 49
-1.0
 74
     0
 49
0.0
 74
     0
 49
-1.0
 74
     0
  0
LTYPE
  5
3E
330
5
100
AcDbSymbolTableRecord
100
AcDbLinetypeTableRecord
  2
LONG_DASHED
 70
     0
  3
Long_Dashed
 72
    65
 73
     2
 40
15.0
 49
10.0
 74
     0
 49
-5.0
 74
     0
  0
LTYPE
  5
3F
330
5
100
AcDbSymbolTableRecord
100
AcDbLinetypeTableRecord
  2
DASH_CENTER
 70
     0
  3
Dash_Center
 72
    65
 73
     4
 40
14.0
 49
11.0
 74
     0
 49
-1.0
 74
     0
 49
1.0
 74
     0
 49
-1.0
 74
     0
  0
LTYPE
  5
40
330
5
100
AcDbSymbolTableRecord
100
AcDbLinetypeTableRecord
  2
PHANTOM
 70
     0
  3
Phantom
 72
    65
 73
     6
 40
13.0
 49
10.0
 74
     0
 49
-1.0
 74
     0
 49
0.0
 74
     0
 49
-1.0
 74
     0
 49
0.0
 74
     0
 49
-1.0
 74
     0
  0
LTYPE
  5
41
330
5
100
AcDbSymbolTableRecord
100
AcDbLinetypeTableRecord
  2
CENTER_DASH_DASH
 70
     0
  3
Center_Dash_Dash
 72
    65
 73
     6
 40
14.0
 49
9.0
 74
     0
 49
-1.0
 74
     0
 49
1.0
 74
     0
 49
-1.0
 74
     0
 49
1.0
 74
     0
 49
-1.0
 74
     0
  0
ENDTAB
  0
TABLE
  2
LAYER
  5
2
330
0
100
AcDbSymbolTable
 70
     2
  0
LAYER
  5
10
330
2
100
AcDbSymbolTableRecord
100
AcDbLayerTableRecord
  2
0
 70
     0
 62
     7
  6
Continuous
370
    -3
390
F
  0
LAYER
  5
42
330
2
100
AcDbSymbolTableRecord
100
AcDbLayerTableRecord
  2
1
 70
     0
 62
     7
  6
Continuous
370
    -3
390
F
  0
ENDTAB
  0
TABLE
  2
STYLE
  5
3
330
0
100
AcDbSymbolTable
 70
     2
  0
STYLE
  5
11
330
3
100
AcDbSymbolTableRecord
100
AcDbTextStyleTableRecord
  2
Standard
 70
     0
 40
0.0
 41
1.0
 50
0.0
 71
     0
 42
0.2
  3
txt
  4

  0
STYLE
  5
520
330
3
100
AcDbSymbolTableRecord
100
AcDbTextStyleTableRecord
  2
CONVERTER_11
 70
     0
 40
0.0
 41
0.9
 50
10.0
 71
     0
 42
0.2
  3
txt.shx
  4

  0
ENDTAB
  0
TABLE
  2
VIEW
  5
6
330
0
100
AcDbSymbolTable
 70
     0
  0
ENDTAB
  0
TABLE
  2
UCS
  5
7
330
0
100
AcDbSymbolTable
 70
     0
  0
ENDTAB
  0
TABLE
  2
APPID
  5
9
330
0
100
AcDbSymbolTable
 70
     1
  0
APPID
  5
12
330
9
100
AcDbSymbolTableRecord
100
AcDbRegAppTableRecord
  2
ACAD
 70
     0
  0
ENDTAB
  0
TABLE
  2
DIMSTYLE
  5
A
330
0
100
AcDbSymbolTable
 70
     6
100
AcDbDimStyleTable
  0
DIMSTYLE
105
27
330
A
100
AcDbSymbolTableRecord
100
AcDbDimStyleTableRecord
  2
Standard
 70
     0
340
11
  0
DIMSTYLE
105
52A
102
{ACAD_REACTORS
330
52B
102
}
330
A
100
AcDbSymbolTableRecord
100
AcDbDimStyleTableRecord
  2
ME10_DIM_10
 70
     0
 41
3.0
 42
1.0
 44
1.0
 73
     0
 74
     0
 77
     1
 78
     8
140
3.0
147
1.0
172
     1
173
     1
176
     2
177
     2
178
     2
271
     2
340
520
343
524
344
524
  0
DIMSTYLE
105
537
102
{ACAD_REACTORS
330
538
102
}
330
A
100
AcDbSymbolTableRecord
100
AcDbDimStyleTableRecord
  2
ME10_DIM_11
 70
     0
 41
3.0
 42
1.0
 44
1.0
 73
     0
 74
     0
 77
     1
 78
     8
140
3.0
147
1.0
172
     1
173
     1
176
     2
177
     2
178
     2
271
     2
340
520
343
524
344
524
  0
DIMSTYLE
105
544
102
{ACAD_REACTORS
330
545
102
}
330
A
100
AcDbSymbolTableRecord
100
AcDbDimStyleTableRecord
  2
ME10_DIM_12
 70
     0
  3
(<>)
 41
3.0
 42
1.0
 44
1.0
 73
     0
 74
     0
 77
     1
 78
     8
140
3.0
147
1.0
172
     1
173
     1
176
     2
177
     2
178
     2
271
     0
340
520
343
524
344
524
  0
DIMSTYLE
105
551
102
{ACAD_REACTORS
330
552
102
}
330
A
100
AcDbSymbolTableRecord
100
AcDbDimStyleTableRecord
  2
ME10_DIM_13
 70
     0
 41
3.0
 42
1.0
 44
1.0
 73
     0
 74
     0
 77
     1
 78
     8
140
3.0
147
1.0
172
     1
173
     1
176
     2
177
     2
178
     2
271
     2
340
520
343
524
344
524
  0
DIMSTYLE
105
55E
102
{ACAD_REACTORS
330
55F
102
}
330
A
100
AcDbSymbolTableRecord
100
AcDbDimStyleTableRecord
  2
ME10_DIM_14
 70
     0
 41
3.0
 42
1.0
 44
1.0
 73
     0
 74
     0
 77
     1
 78
     8
140
3.0
147
1.0
172
     1
173
     1
176
     2
177
     2
178
     2
271
     2
340
520
343
524
344
524
  0
ENDTAB
  0
TABLE
  2
BLOCK_RECORD
  5
1
330
0
100
AcDbSymbolTable
 70
     7
  0
BLOCK_RECORD
  5
1F
330
1
100
AcDbSymbolTableRecord
100
AcDbBlockTableRecord
  2
*Model_Space
340
22
  0
BLOCK_RECORD
  5
1B
330
1
100
AcDbSymbolTableRecord
100
AcDbBlockTableRecord
  2
*Paper_Space
340
1E
  0
BLOCK_RECORD
  5
23
330
1
100
AcDbSymbolTableRecord
100
AcDbBlockTableRecord
  2
*Paper_Space0
340
26
  0
BLOCK_RECORD
  5
518
330
1
100
AcDbSymbolTableRecord
100
AcDbBlockTableRecord
  2
*D1
340
0
  0
BLOCK_RECORD
  5
524
330
1
100
AcDbSymbolTableRecord
100
AcDbBlockTableRecord
  2
_OPEN30
340
0
  0
BLOCK_RECORD
  5
52C
330
1
100
AcDbSymbolTableRecord
100
AcDbBlockTableRecord
  2
*D3
340
0
  0
BLOCK_RECORD
  5
539
330
1
100
AcDbSymbolTableRecord
100
AcDbBlockTableRecord
  2
*D4
340
0
  0
BLOCK_RECORD
  5
546
330
1
100
AcDbSymbolTableRecord
100
AcDbBlockTableRecord
  2
*D5
340
0
  0
BLOCK_RECORD
  5
553
330
1
100
AcDbSymbolTableRecord
100
AcDbBlockTableRecord
  2
*D6
340
0
  0
ENDTAB
  0
ENDSEC
  0
SECTION
  2
BLOCKS
  0
BLOCK
  5
20
330
1F
100
AcDbEntity
  8
0
100
AcDbBlockBegin
  2
*Model_Space
 70
     0
 10
0.0
 20
0.0
 30
0.0
  3
*Model_Space
  1

  0
ENDBLK
  5
21
330
1F
100
AcDbEntity
  8
0
100
AcDbBlockEnd
  0
BLOCK
  5
1C
330
1B
100
AcDbEntity
 67
     1
  8
0
100
AcDbBlockBegin
  2
*Paper_Space
 70
     0
 10
0.0
 20
0.0
 30
0.0
  3
*Paper_Space
  1

  0
ENDBLK
  5
1D
330
1B
100
AcDbEntity
 67
     1
  8
0
100
AcDbBlockEnd
  0
BLOCK
  5
24
330
23
100
AcDbEntity
  8
0
100
AcDbBlockBegin
  2
*Paper_Space0
 70
     0
 10
0.0
 20
0.0
 30
0.0
  3
*Paper_Space0
  1

  0
ENDBLK
  5
25
330
23
100
AcDbEntity
  8
0
100
AcDbBlockEnd
  0
BLOCK
  5
522
330
518
100
AcDbEntity
  8
0
100
AcDbBlockBegin
  2
*D1
 70
     1
 10
0.0
 20
0.0
 30
0.0
  3
*D1
  1

  0
LINE
  5
519
330
518
100
AcDbEntity
  8
1
  6
Continuous
 62
     2
100
AcDbLine
 10
182.1915453387753
 20
271.9994425302712
 30
0.0
 11
182.1915453387753
 21
189.9994427975894
 31
0.0
  0
LINE
  5
51A
330
518
100
AcDbEntity
  8
1
  6
Continuous
 62
     2
100
AcDbLine
 10
107.1642405057785
 20
189.9994427975894
 30
0.0
 11
183.1915453387753
 21
189.9994427975894
 31
0.0
  0
LINE
  5
51B
330
518
100
AcDbEntity
  8
1
  6
Continuous
 62
     2
100
AcDbLine
 10
107.1595586145784
 20
271.9994425302712
 30
0.0
 11
183.1915453387753
 21
271.9994425302712
 31
0.0
  0
LINE
  5
51C
330
518
100
AcDbEntity
  8
1
 62
     2
100
AcDbLine
 10
182.1915453387753
 20
271.9994425302712
 30
0.0
 11
182.9953929160687
 21
268.9994425302712
 31
0.0
  0
LINE
  5
51D
330
518
100
AcDbEntity
  8
1
 62
     2
100
AcDbLine
 10
182.1915453387753
 20
271.9994425302712
 30
0.0
 11
181.3876977614819
 21
268.9994425302712
 31
0.0
  0
LINE
  5
51E
330
518
100
AcDbEntity
  8
1
 62
     2
100
AcDbLine
 10
182.1915453387753
 20
189.9994427975894
 30
0.0
 11
181.3876977614819
 21
192.9994427975894
 31
0.0
  0
LINE
  5
51F
330
518
100
AcDbEntity
  8
1
 62
     2
100
AcDbLine
 10
182.1915453387753
 20
189.9994427975894
 30
0.0
 11
182.9953929160687
 21
192.9994427975894
 31
0.0
  0
MTEXT
  5
521
330
518
100
AcDbEntity
  8
1
 62
     2
100
AcDbMText
 10
181.1915453387753
 20
228.5860132309768
 30
0.0
 40
3.0
 41
0.0
 71
     7
 72
     1
  1
82
  7
CONVERTER_11
 11
0.0
 21
1.0
 31
0.0
 73
     1
 44
0.60024009603842
  0
ENDBLK
  5
523
330
518
100
AcDbEntity
  8
0
100
AcDbBlockEnd
  0
BLOCK
  5
525
330
524
100
AcDbEntity
  8
0
100
AcDbBlockBegin
  2
_OPEN30
 70
     0
 10
0.0
 20
0.0
 30
0.0
  3
_OPEN30
  1

  0
LINE
  5
527
330
524
100
AcDbEntity
  8
0
  6
ByBlock
 62
     0
370
    -2
100
AcDbLine
 10
-1.0
 20
0.267949
 30
0.0
 11
0.0
 21
0.0
 31
0.0
  0
LINE
  5
528
330
524
100
AcDbEntity
  8
0
  6
ByBlock
 62
     0
370
    -2
100
AcDbLine
 10
0.0
 20
0.0
 30
0.0
 11
-1.0
 21
-0.267949
 31
0.0
  0
LINE
  5
529
330
524
100
AcDbEntity
  8
0
  6
ByBlock
 62
     0
370
    -2
100
AcDbLine
 10
0.0
 20
0.0
 30
0.0
 11
-1.0
 21
0.0
 31
0.0
  0
ENDBLK
  5
526
330
524
100
AcDbEntity
  8
0
100
AcDbBlockEnd
  0
BLOCK
  5
535
330
52C
100
AcDbEntity
  8
0
100
AcDbBlockBegin
  2
*D3
 70
     1
 10
0.0
 20
0.0
 30
0.0
  3
*D3
  1

  0
LINE
  5
52D
330
52C
100
AcDbEntity
  8
1
  6
Continuous
 62
     2
100
AcDbLine
 10
170.0053553069654
 20
97.3407440187828
 30
0.0
 11
170.0053553069654
 21
74.34074583668286
 31
0.0
  0
LINE
  5
52E
330
52C
100
AcDbEntity
  8
1
  6
Continuous
 62
     2
100
AcDbLine
 10
161.0877611870317
 20
97.3407440187828
 30
0.0
 11
171.0053553069654
 21
97.3407440187828
 31
0.0
  0
LINE
  5
52F
330
52C
100
AcDbEntity
  8
1
  6
Continuous
 62
     2
100
AcDbLine
 10
130.4011879729785
 20
74.34074583668286
 30
0.0
 11
171.0053553069654
 21
74.34074583668286
 31
0.0
  0
LINE
  5
530
330
52C
100
AcDbEntity
  8
1
 62
     2
100
AcDbLine
 10
170.0053553069654
 20
97.3407440187828
 30
0.0
 11
170.8092028842588
 21
94.3407440187828
 31
0.0
  0
LINE
  5
531
330
52C
100
AcDbEntity
  8
1
 62
     2
100
AcDbLine
 10
170.0053553069654
 20
97.3407440187828
 30
0.0
 11
169.201507729672
 21
94.3407440187828
 31
0.0
  0
LINE
  5
532
330
52C
100
AcDbEntity
  8
1
 62
     2
100
AcDbLine
 10
170.0053553069654
 20
74.34074583668286
 30
0.0
 11
169.201507729672
 21
77.34074583668286
 31
0.0
  0
LINE
  5
533
330
52C
100
AcDbEntity
  8
1
 62
     2
100
AcDbLine
 10
170.0053553069654
 20
74.34074583668286
 30
0.0
 11
170.8092028842588
 21
77.34074583668286
 31
0.0
  0
MTEXT
  5
534
330
52C
100
AcDbEntity
  8
1
 62
     2
100
AcDbMText
 10
169.0053553069654
 20
84.1994341947938
 30
0.0
 40
3.0
 41
0.0
 71
     7
 72
     1
  1
23
  7
CONVERTER_11
 11
0.0
 21
1.0
 31
0.0
 73
     1
 44
0.60024009603842
  0
ENDBLK
  5
536
330
52C
100
AcDbEntity
  8
0
100
AcDbBlockEnd
  0
BLOCK
  5
542
330
539
100
AcDbEntity
  8
0
100
AcDbBlockBegin
  2
*D4
 70
     1
 10
0.0
 20
0.0
 30
0.0
  3
*D4
  1

  0
LINE
  5
53A
330
539
100
AcDbEntity
  8
1
  6
Continuous
 62
     2
100
AcDbLine
 10
181.7486792840755
 20
168.8907577053826
 30
0.0
 11
181.7486792840755
 21
74.34074583668277
 31
0.0
  0
LINE
  5
53B
330
539
100
AcDbEntity
  8
1
  6
Continuous
 62
     2
100
AcDbLine
 10
130.4011879729783
 20
74.34074583668277
 30
0.0
 11
182.7486792840755
 21
74.34074583668277
 31
0.0
  0
LINE
  5
53C
330
539
100
AcDbEntity
  8
1
  6
Continuous
 62
     2
100
AcDbLine
 10
105.6595606969786
 20
168.8907577053826
 30
0.0
 11
182.7486792840755
 21
168.8907577053826
 31
0.0
  0
LINE
  5
53D
330
539
100
AcDbEntity
  8
1
 62
     2
100
AcDbLine
 10
181.7486792840755
 20
168.8907577053826
 30
0.0
 11
182.5525268613689
 21
165.8907577053826
 31
0.0
  0
LINE
  5
53E
330
539
100
AcDbEntity
  8
1
 62
     2
100
AcDbLine
 10
181.7486792840755
 20
168.8907577053826
 30
0.0
 11
180.9448317067821
 21
165.8907577053826
 31
0.0
  0
LINE
  5
53F
330
539
100
AcDbEntity
  8
1
 62
     2
100
AcDbLine
 10
181.7486792840755
 20
74.34074583668277
 30
0.0
 11
180.9448317067821
 21
77.34074583668277
 31
0.0
  0
LINE
  5
540
330
539
100
AcDbEntity
  8
1
 62
     2
100
AcDbLine
 10
181.7486792840755
 20
74.34074583668277
 30
0.0
 11
182.5525268613689
 21
77.34074583668277
 31
0.0
  0
MTEXT
  5
541
330
539
100
AcDbEntity
  8
1
 62
     2
100
AcDbMText
 10
180.7486792840755
 20
118.6277631504694
 30
0.0
 40
3.0
 41
0.0
 71
     7
 72
     1
  1
\C2;(\C2;95\C2;)
  7
CONVERTER_11
 11
0.0
 21
1.0
 31
0.0
 73
     1
 44
0.60024009603842
  0
ENDBLK
  5
543
330
539
100
AcDbEntity
  8
0
100
AcDbBlockEnd
  0
BLOCK
  5
54F
330
546
100
AcDbEntity
  8
0
100
AcDbBlockBegin
  2
*D5
 70
     1
 10
0.0
 20
0.0
 30
0.0
  3
*D5
  1

  0
LINE
  5
547
330
546
100
AcDbEntity
  8
1
  6
Continuous
 62
     2
100
AcDbLine
 10
56.15955926657853
 20
75.45715486442754
 30
0.0
 11
66.15955904297834
 21
75.45715486442754
 31
0.0
  0
LINE
  5
548
330
546
100
AcDbEntity
  8
1
  6
Continuous
 62
     2
100
AcDbLine
 10
56.15955926657853
 20
84.12074503328273
 30
0.0
 11
56.15955926657853
 21
74.45715486442754
 31
0.0
  0
LINE
  5
549
330
546
100
AcDbEntity
  8
1
  6
Continuous
 62
     2
100
AcDbLine
 10
66.15955904297834
 20
83.12074300668274
 30
0.0
 11
66.15955904297834
 21
74.45715486442754
 31
0.0
  0
LINE
  5
54A
330
546
100
AcDbEntity
  8
1
 62
     2
100
AcDbLine
 10
56.15955926657853
 20
75.45715486442754
 30
0.0
 11
59.15955926657853
 21
76.2610024417209
 31
0.0
  0
LINE
  5
54B
330
546
100
AcDbEntity
  8
1
 62
     2
100
AcDbLine
 10
56.15955926657853
 20
75.45715486442754
 30
0.0
 11
59.15955926657853
 21
74.65330728713417
 31
0.0
  0
LINE
  5
54C
330
546
100
AcDbEntity
  8
1
 62
     2
100
AcDbLine
 10
66.15955904297834
 20
75.45715486442754
 30
0.0
 11
63.15955904297834
 21
74.65330728713417
 31
0.0
  0
LINE
  5
54D
330
546
100
AcDbEntity
  8
1
 62
     2
100
AcDbLine
 10
66.15955904297834
 20
75.45715486442754
 30
0.0
 11
63.15955904297834
 21
76.2610024417209
 31
0.0
  0
MTEXT
  5
54E
330
546
100
AcDbEntity
  8
1
 62
     2
100
AcDbMText
 10
59.37289378829274
 20
76.45715486442754
 30
0.0
 40
3.0
 41
0.0
 71
     7
 72
     1
  1
10
  7
CONVERTER_11
 11
0.9999999999970619
 21
2.424068405545306E-6
 31
0.0
 73
     1
 44
0.60024009603842
  0
ENDBLK
  5
550
330
546
100
AcDbEntity
  8
0
100
AcDbBlockEnd
  0
BLOCK
  5
55C
330
553
100
AcDbEntity
  8
0
100
AcDbBlockBegin
  2
*D6
 70
     1
 10
0.0
 20
0.0
 30
0.0
  3
*D6
  1

  0
LINE
  5
554
330
553
100
AcDbEntity
  8
1
  6
Continuous
 62
     2
100
AcDbLine
 10
56.15955926657853
 20
57.19261805726853
 30
0.0
 11
156.1595607565787
 21
57.19261805726853
 31
0.0
  0
LINE
  5
555
330
553
100
AcDbEntity
  8
1
  6
Continuous
 62
     2
100
AcDbLine
 10
56.15955926657853
 20
84.12074503328273
 30
0.0
 11
56.15955926657853
 21
56.19261805726853
 31
0.0
  0
LINE
  5
556
330
553
100
AcDbEntity
  8
1
  6
Continuous
 62
     2
100
AcDbLine
 10
156.1595607565787
 20
84.12074503328273
 30
0.0
 11
156.1595607565787
 21
56.19261805726853
 31
0.0
  0
LINE
  5
557
330
553
100
AcDbEntity
  8
1
 62
     2
100
AcDbLine
 10
56.15955926657853
 20
57.19261805726853
 30
0.0
 11
59.15955926657853
 21
57.9964656345619
 31
0.0
  0
LINE
  5
558
330
553
100
AcDbEntity
  8
1
 62
     2
100
AcDbLine
 10
56.15955926657853
 20
57.19261805726853
 30
0.0
 11
59.15955926657853
 21
56.38877047997516
 31
0.0
  0
LINE
  5
559
330
553
100
AcDbEntity
  8
1
 62
     2
100
AcDbLine
 10
156.1595607565787
 20
57.19261805726853
 30
0.0
 11
153.1595607565787
 21
56.38877047997516
 31
0.0
  0
LINE
  5
55A
330
553
100
AcDbEntity
  8
1
 62
     2
100
AcDbLine
 10
156.1595607565787
 20
57.19261805726853
 30
0.0
 11
153.1595607565787
 21
57.9964656345619
 31
0.0
  0
MTEXT
  5
55B
330
553
100
AcDbEntity
  8
1
 62
     2
100
AcDbMText
 10
101.9745164097428
 20
58.19261805726853
 30
0.0
 40
3.0
 41
0.0
 71
     7
 72
     1
  1
100
  7
CONVERTER_11
 11
0.9999999999970619
 21
2.424068405545306E-6
 31
0.0
 73
     1
 44
0.60024009603842
  0
ENDBLK
  5
55D
330
553
100
AcDbEntity
  8
0
100
AcDbBlockEnd
  0
ENDSEC
  0
SECTION
  2
ENTITIES
  0
POINT
  5
43
330
1F
100
AcDbEntity
  8
1
 62
     3
 60
     1
100
AcDbPoint
 10
117.3382860887784
 20
217.6131285621895
 30
0.0
  0
POINT
  5
44
330
1F
100
AcDbEntity
  8
1
 62
     3
 60
     1
100
AcDbPoint
 10
113.3381999801784
 20
219.0690408403895
 30
0.0
  0
POINT
  5
45
330
1F
100
AcDbEntity
  8
1
 62
     3
 60
     1
100
AcDbPoint
 10
116.587774663114
 20
239.7803823017334
 30
0.0
  0
LINE
  5
46
330
1F
100
AcDbEntity
  8
1
  6
Continuous
 62
     2
100
AcDbLine
 10
145.9283086145784
 20
0.40324583668283
 30
0.0
 11
150.6533086145784
 21
0.40324583668283
 31
0.0
  0
LINE
  5
47
330
1F
100
AcDbEntity
  8
1
  6
Continuous
 62
     2
100
AcDbLine
 10
148.4033086145784
 20
8.61574583668283
 30
0.0
 11
148.4033086145784
 21
0.40324583668283
 31
0.0
  0
LINE
  5
48
330
1F
100
AcDbEntity
  8
1
  6
Continuous
 62
     2
100
AcDbLine
 10
146.7158086145784
 20
5.24074583668283
 30
0.0
 11
150.2033086145784
 21
5.24074583668283
 31
0.0
  0
LINE
  5
49
330
1F
100
AcDbEntity
  8
1
  6
Continuous
 62
     2
100
AcDbLine
 10
145.1408086145784
 20
4.90324583668283
 30
0.0
 11
146.3783086145784
 21
3.55324583668283
 31
0.0
  0
LINE
  5
4A
330
1F
100
AcDbEntity
  8
1
  6
Continuous
 62
     2
100
AcDbLine
 10
144.6908086145784
 20
6.92824583668283
 30
0.0
 11
144.6908086145784
 21
8.61574583668283
 31
0.0
  0
LINE
  5
4B
330
1F
100
AcDbEntity
  8
1
  6
Continuous
 62
     2
100
AcDbLine
 10
145.9283086145784
 20
6.92824583668283
 30
0.0
 11
143.1158086145784
 21
6.92824583668283
 31
0.0
  0
LINE
  5
4C
330
1F
100
AcDbEntity
  8
1
  6
Continuous
 62
     2
100
AcDbLine
 10
144.9158086145784
 20
5.46574583668283
 30
0.0
 11
145.9283086145784
 21
6.92824583668283
 31
0.0
  0
LINE
  5
4D
330
1F
100
AcDbEntity
  8
1
  6
Continuous
 62
     2
100
AcDbLine
 10
143.6783086145784
 20
4.11574583668283
 30
0.0
 11
144.9158086145784
 21
5.46574583668283
 31
0.0
  0
LINE
  5
4E
330
1F
100
AcDbEntity
  8
1
  6
Continuous
 62
     2
100
AcDbLine
 10
142.6658086145784
 20
3.21574583668283
 30
0.0
 11
143.6783086145784
 21
4.11574583668283
 31
0.0
  0
LINE
  5
4F
330
1F
100
AcDbEntity
  8
1
  6
Continuous
 62
     2
100
AcDbLine
 10
144.6908086145784
 20
0.17824583668283
 30
0.0
 11
144.6908086145784
 21
5.24074583668283
 31
0.0
  0
LINE
  5
50
330
1F
100
AcDbEntity
  8
1
  6
Continuous
 62
     2
100
AcDbLine
 10
137.7158086145784
 20
3.21574583668283
 30
0.0
 11
135.1283086145784
 21
0.17824583668283
 31
0.0
  0
LINE
  5
51
330
1F
100
AcDbEntity
  8
1
  6
Continuous
 62
     2
100
AcDbLine
 10
139.9658086145784
 20
0.74074583668283
 30
0.0
 11
138.9533086145784
 21
1.86574583668283
 31
0.0
  0
LINE
  5
52
330
1F
100
AcDbEntity
  8
1
  6
Continuous
 62
     2
100
AcDbLine
 10
140.6408086145784
 20
-0.15925416331717
 30
0.0
 11
139.9658086145784
 21
0.74074583668283
 31
0.0
  0
LINE
  5
53
330
1F
100
AcDbEntity
  8
1
  6
Continuous
 62
     2
100
AcDbLine
 10
134.4533086145784
 20
0.17824583668283
 30
0.0
 11
139.9658086145784
 21
0.74074583668283
 31
0.0
  0
LINE
  5
54
330
1F
100
AcDbEntity
  8
1
  6
Continuous
 62
     2
100
AcDbLine
 10
134.9033086145784
 20
3.55324583668283
 30
0.0
 11
140.6408086145784
 21
3.55324583668283
 31
0.0
  0
LINE
  5
55
330
1F
100
AcDbEntity
  8
1
  6
Continuous
 62
     2
100
AcDbLine
 10
135.9158086145784
 20
4.90324583668283
 30
0.0
 11
139.4033086145784
 21
4.90324583668283
 31
0.0
  0
LINE
  5
56
330
1F
100
AcDbEntity
  8
1
  6
Continuous
 62
     2
100
AcDbLine
 10
137.7158086145784
 20
8.61574583668283
 30
0.0
 11
141.6533086145784
 21
4.34074583668283
 31
0.0
  0
LINE
  5
57
330
1F
100
AcDbEntity
  8
1
  6
Continuous
 62
     2
100
AcDbLine
 10
137.7158086145784
 20
8.61574583668283
 30
0.0
 11
133.6658086145784
 21
4.34074583668283
 31
0.0
  0
LINE
  5
58
330
1F
100
AcDbEntity
  8
1
  6
Continuous
 62
     2
100
AcDbLine
 10
131.8658086145784
 20
0.17824583668283
 30
0.0
 11
132.6533086145784
 21
0.96574583668283
 31
0.0
  0
LINE
  5
59
330
1F
100
AcDbEntity
  8
1
  6
Continuous
 62
     2
100
AcDbLine
 10
130.9658086145784
 20
1.30324583668283
 30
0.0
 11
131.8658086145784
 21
0.17824583668283
 31
0.0
  0
LINE
  5
5A
330
1F
100
AcDbEntity
  8
1
  6
Continuous
 62
     2
100
AcDbLine
 10
129.9533086145784
 20
3.21574583668283
 30
0.0
 11
130.9658086145784
 21
1.30324583668283
 31
0.0
  0
LINE
  5
5B
330
1F
100
AcDbEntity
  8
1
  6
Continuous
 62
     2
100
AcDbLine
 10
129.3908086145784
 20
5.46574583668283
 30
0.0
 11
129.9533086145784
 21
3.21574583668283
 31
0.0
  0
LINE
  5
5C
330
1F
100
AcDbEntity
  8
1
  6
Continuous
 62
     2
100
AcDbLine
 10
129.1658086145784
 20
8.84074583668283
 30
0.0
 11
129.3908086145784
 21
5.46574583668283
 31
0.0
  0
LINE
  5
5D
330
1F
100
AcDbEntity
  8
1
  6
Continuous
 62
     2
100
AcDbLine
 10
130.6283086145784
 20
7.71574583668283
 30
0.0
 11
129.9533086145784
 21
8.61574583668283
 31
0.0
  0
LINE
  5
5E
330
1F
100
AcDbEntity
  8
1
  6
Continuous
 62
     2
100
AcDbLine
 10
124.6658086145784
 20
6.92824583668283
 30
0.0
 11
131.8658086145784
 21
6.92824583668283
 31
0.0
  0
LINE
  5
5F
330
1F
100
AcDbEntity
  8
1
  6
Continuous
 62
     2
100
AcDbLine
 10
126.9158086145784
 20
4.67824583668283
 30
0.0
 11
126.9158086145784
 21
1.52824583668283
 31
0.0
  0
LINE
  5
60
330
1F
100
AcDbEntity
  8
1
  6
Continuous
 62
     2
100
AcDbLine
 10
128.7158086145784
 20
4.67824583668283
 30
0.0
 11
125.1158086145784
 21
4.67824583668283
 31
0.0
  0
LINE
  5
61
330
1F
100
AcDbEntity
  8
1
  6
Continuous
 62
     2
100
AcDbLine
 10
125.1158086145784
 20
0.96574583668283
 30
0.0
 11
128.7158086145784
 21
2.09074583668283
 31
0.0
  0
LINE
  5
62
330
1F
100
AcDbEntity
  8
1
  6
Continuous
 62
     2
100
AcDbLine
 10
122.4158086145784
 20
2.09074583668283
 30
0.0
 11
123.4283086145784
 21
0.17824583668283
 31
0.0
  0
LINE
  5
63
330
1F
100
AcDbEntity
  8
1
  6
Continuous
 62
     2
100
AcDbLine
 10
121.1783086145784
 20
4.67824583668283
 30
0.0
 11
122.4158086145784
 21
2.09074583668283
 31
0.0
  0
LINE
  5
64
330
1F
100
AcDbEntity
  8
1
  6
Continuous
 62
     2
100
AcDbLine
 10
120.3908086145784
 20
2.65324583668283
 30
0.0
 11
121.1783086145784
 21
4.67824583668283
 31
0.0
  0
LINE
  5
65
330
1F
100
AcDbEntity
  8
1
  6
Continuous
 62
     2
100
AcDbLine
 10
119.3783086145784
 20
1.30324583668283
 30
0.0
 11
120.3908086145784
 21
2.65324583668283
 31
0.0
  0
LINE
  5
66
330
1F
100
AcDbEntity
  8
1
  6
Continuous
 62
     2
100
AcDbLine
 10
118.7033086145784
 20
0.17824583668283
 30
0.0
 11
119.3783086145784
 21
1.30324583668283
 31
0.0
  0
LINE
  5
67
330
1F
100
AcDbEntity
  8
1
  6
Continuous
 62
     2
100
AcDbLine
 10
121.1783086145784
 20
8.84074583668283
 30
0.0
 11
121.1783086145784
 21
-0.15925416331717
 31
0.0
  0
LINE
  5
68
330
1F
100
AcDbEntity
  8
1
  6
Continuous
 62
     2
100
AcDbLine
 10
123.4283086145784
 20
4.67824583668283
 30
0.0
 11
119.1533086145784
 21
4.67824583668283
 31
0.0
  0
LINE
  5
69
330
1F
100
AcDbEntity
  8
1
  6
Continuous
 62
     2
100
AcDbLine
 10
119.9408086145784
 20
6.59074583668283
 30
0.0
 11
123.2033086145784
 21
6.59074583668283
 31
0.0
  0
LINE
  5
6A
330
1F
100
AcDbEntity
  8
1
  6
Continuous
 62
     2
100
AcDbLine
 10
119.9408086145784
 20
6.59074583668283
 30
0.0
 11
120.1658086145784
 21
8.05324583668283
 31
0.0
  0
LINE
  5
6B
330
1F
100
AcDbEntity
  8
1
  6
Continuous
 62
     2
100
AcDbLine
 10
119.1533086145784
 20
5.24074583668283
 30
0.0
 11
119.9408086145784
 21
6.59074583668283
 31
0.0
  0
LINE
  5
6C
330
1F
100
AcDbEntity
  8
1
  6
Continuous
 62
     2
100
AcDbLine
 10
117.4658086145784
 20
6.36574583668283
 30
0.0
 11
118.7033086145784
 21
4.11574583668283
 31
0.0
  0
LINE
  5
6D
330
1F
100
AcDbEntity
  8
1
  6
Continuous
 62
     2
100
AcDbLine
 10
115.8908086145784
 20
2.42824583668283
 30
0.0
 11
117.4658086145784
 21
6.36574583668283
 31
0.0
  0
LINE
  5
6E
330
1F
100
AcDbEntity
  8
1
  6
Continuous
 62
     2
100
AcDbLine
 10
118.7033086145784
 20
6.36574583668283
 30
0.0
 11
116.1158086145784
 21
6.36574583668283
 31
0.0
  0
LINE
  5
6F
330
1F
100
AcDbEntity
  8
1
  6
Continuous
 62
     2
100
AcDbLine
 10
117.4658086145784
 20
0.17824583668283
 30
0.0
 11
117.4658086145784
 21
8.84074583668283
 31
0.0
  0
LINE
  5
70
330
1F
100
AcDbEntity
  8
1
  6
Continuous
 62
     2
100
AcDbLine
 10
111.3908086145784
 20
6.92824583668283
 30
0.0
 11
113.8658086145784
 21
6.92824583668283
 31
0.0
  0
LINE
  5
71
330
1F
100
AcDbEntity
  8
1
  6
Continuous
 62
     2
100
AcDbLine
 10
111.3908086145784
 20
5.46574583668283
 30
0.0
 11
113.8658086145784
 21
5.46574583668283
 31
0.0
  0
LINE
  5
72
330
1F
100
AcDbEntity
  8
1
  6
Continuous
 62
     2
100
AcDbLine
 10
111.3908086145784
 20
8.27824583668283
 30
0.0
 11
111.3908086145784
 21
5.46574583668283
 31
0.0
  0
LINE
  5
73
330
1F
100
AcDbEntity
  8
1
  6
Continuous
 62
     2
100
AcDbLine
 10
113.8658086145784
 20
8.27824583668283
 30
0.0
 11
111.3908086145784
 21
8.27824583668283
 31
0.0
  0
LINE
  5
74
330
1F
100
AcDbEntity
  8
1
  6
Continuous
 62
     2
100
AcDbLine
 10
113.8658086145784
 20
0.40324583668283
 30
0.0
 11
113.8658086145784
 21
8.27824583668283
 31
0.0
  0
LINE
  5
75
330
1F
100
AcDbEntity
  8
1
  6
Continuous
 62
     2
100
AcDbLine
 10
113.6408086145784
 20
0.17824583668283
 30
0.0
 11
113.8658086145784
 21
0.40324583668283
 31
0.0
  0
LINE
  5
76
330
1F
100
AcDbEntity
  8
1
  6
Continuous
 62
     2
100
AcDbLine
 10
112.9658086145784
 20
0.17824583668283
 30
0.0
 11
113.6408086145784
 21
0.17824583668283
 31
0.0
  0
LINE
  5
77
330
1F
100
AcDbEntity
  8
1
  6
Continuous
 62
     2
100
AcDbLine
 10
109.9283086145784
 20
6.92824583668283
 30
0.0
 11
107.4533086145784
 21
6.92824583668283
 31
0.0
  0
LINE
  5
78
330
1F
100
AcDbEntity
  8
1
  6
Continuous
 62
     2
100
AcDbLine
 10
109.9283086145784
 20
5.46574583668283
 30
0.0
 11
107.4533086145784
 21
5.46574583668283
 31
0.0
  0
LINE
  5
79
330
1F
100
AcDbEntity
  8
1
  6
Continuous
 62
     2
100
AcDbLine
 10
109.9283086145784
 20
8.27824583668283
 30
0.0
 11
109.9283086145784
 21
5.46574583668283
 31
0.0
  0
LINE
  5
7A
330
1F
100
AcDbEntity
  8
1
  6
Continuous
 62
     2
100
AcDbLine
 10
107.4533086145784
 20
8.27824583668283
 30
0.0
 11
109.9283086145784
 21
8.27824583668283
 31
0.0
  0
LINE
  5
7B
330
1F
100
AcDbEntity
  8
1
  6
Continuous
 62
     2
100
AcDbLine
 10
107.4533086145784
 20
0.17824583668283
 30
0.0
 11
107.4533086145784
 21
8.27824583668283
 31
0.0
  0
LINE
  5
7C
330
1F
100
AcDbEntity
  8
1
  6
Continuous
 62
     2
100
AcDbLine
 10
104.6408086145784
 20
5.24074583668283
 30
0.0
 11
105.6533086145784
 21
4.34074583668283
 31
0.0
  0
LINE
  5
7D
330
1F
100
AcDbEntity
  8
1
  6
Continuous
 62
     2
100
AcDbLine
 10
102.9533086145784
 20
7.15324583668283
 30
0.0
 11
104.6408086145784
 21
5.24074583668283
 31
0.0
  0
LINE
  5
7E
330
1F
100
AcDbEntity
  8
1
  6
Continuous
 62
     2
100
AcDbLine
 10
101.7158086145784
 20
8.84074583668283
 30
0.0
 11
102.9533086145784
 21
7.15324583668283
 31
0.0
  0
LINE
  5
7F
330
1F
100
AcDbEntity
  8
1
  6
Continuous
 62
     2
100
AcDbLine
 10
100.3658086145784
 20
7.15324583668283
 30
0.0
 11
101.7158086145784
 21
8.84074583668283
 31
0.0
  0
LINE
  5
80
330
1F
100
AcDbEntity
  8
1
  6
Continuous
 62
     2
100
AcDbLine
 10
98.67830861457837
 20
5.24074583668283
 30
0.0
 11
100.3658086145784
 21
7.15324583668283
 31
0.0
  0
LINE
  5
81
330
1F
100
AcDbEntity
  8
1
  6
Continuous
 62
     2
100
AcDbLine
 10
97.66580861457837
 20
4.34074583668283
 30
0.0
 11
98.67830861457837
 21
5.24074583668283
 31
0.0
  0
LINE
  5
82
330
1F
100
AcDbEntity
  8
1
  6
Continuous
 62
     2
100
AcDbLine
 10
102.9533086145784
 20
1.30324583668283
 30
0.0
 11
103.4033086145784
 21
2.65324583668283
 31
0.0
  0
LINE
  5
83
330
1F
100
AcDbEntity
  8
1
  6
Continuous
 62
     2
100
AcDbLine
 10
99.91580861457837
 20
2.65324583668283
 30
0.0
 11
100.3658086145784
 21
1.30324583668283
 31
0.0
  0
LINE
  5
84
330
1F
100
AcDbEntity
  8
1
  6
Continuous
 62
     2
100
AcDbLine
 10
104.1908086145784
 20
3.77824583668283
 30
0.0
 11
99.12830861457837
 21
3.77824583668283
 31
0.0
  0
LINE
  5
85
330
1F
100
AcDbEntity
  8
1
  6
Continuous
 62
     2
100
AcDbLine
 10
99.91580861457837
 20
5.46574583668283
 30
0.0
 11
103.4033086145784
 21
5.46574583668283
 31
0.0
  0
LINE
  5
86
330
1F
100
AcDbEntity
  8
1
  6
Continuous
 62
     2
100
AcDbLine
 10
101.7158086145784
 20
0.17824583668283
 30
0.0
 11
101.7158086145784
 21
5.46574583668283
 31
0.0
  0
LINE
  5
87
330
1F
100
AcDbEntity
  8
1
  6
Continuous
 62
     2
100
AcDbLine
 10
98.45330861457836
 20
0.17824583668283
 30
0.0
 11
104.6408086145784
 21
0.17824583668283
 31
0.0
  0
LINE
  5
88
330
1F
100
AcDbEntity
  8
1
  6
Continuous
 62
     2
100
AcDbLine
 10
94.96580861457836
 20
2.65324583668283
 30
0.0
 11
96.20330861457836
 21
4.34074583668283
 31
0.0
  0
LINE
  5
89
330
1F
100
AcDbEntity
  8
1
  6
Continuous
 62
     2
100
AcDbLine
 10
92.94080861457837
 20
1.52824583668283
 30
0.0
 11
94.96580861457836
 21
2.65324583668283
 31
0.0
  0
LINE
  5
8A
330
1F
100
AcDbEntity
  8
1
  6
Continuous
 62
     2
100
AcDbLine
 10
92.94080861457837
 20
6.59074583668283
 30
0.0
 11
92.94080861457837
 21
1.52824583668283
 31
0.0
  0
LINE
  5
8B
330
1F
100
AcDbEntity
  8
1
  6
Continuous
 62
     2
100
AcDbLine
 10
90.91580861457837
 20
4.34074583668283
 30
0.0
 11
91.14080861457836
 21
6.59074583668283
 31
0.0
  0
LINE
  5
8C
330
1F
100
AcDbEntity
  8
1
  6
Continuous
 62
     2
100
AcDbLine
 10
90.46580861457836
 20
2.65324583668283
 30
0.0
 11
90.91580861457837
 21
4.34074583668283
 31
0.0
  0
LINE
  5
8D
330
1F
100
AcDbEntity
  8
1
  6
Continuous
 62
     2
100
AcDbLine
 10
89.67830861457837
 20
1.30324583668283
 30
0.0
 11
90.46580861457836
 21
2.65324583668283
 31
0.0
  0
LINE
  5
8E
330
1F
100
AcDbEntity
  8
1
  6
Continuous
 62
     2
100
AcDbLine
 10
83.94080861457837
 20
0.74074583668283
 30
0.0
 11
85.40330861457836
 21
0.96574583668283
 31
0.0
  0
LINE
  5
8F
330
1F
100
AcDbEntity
  8
1
  6
Continuous
 62
     2
100
AcDbLine
 10
81.46580861457836
 20
0.96574583668283
 30
0.0
 11
83.94080861457837
 21
0.74074583668283
 31
0.0
  0
LINE
  5
90
330
1F
100
AcDbEntity
  8
1
  6
Continuous
 62
     2
100
AcDbLine
 10
81.12830861457837
 20
1.86574583668283
 30
0.0
 11
81.46580861457836
 21
0.96574583668283
 31
0.0
  0
LINE
  5
91
330
1F
100
AcDbEntity
  8
1
  6
Continuous
 62
     2
100
AcDbLine
 10
81.12830861457837
 20
6.59074583668283
 30
0.0
 11
81.12830861457837
 21
1.86574583668283
 31
0.0
  0
LINE
  5
92
330
1F
100
AcDbEntity
  8
1
  6
Continuous
 62
     2
100
AcDbLine
 10
85.96580861457836
 20
7.15324583668283
 30
0.0
 11
86.64080861457836
 21
6.36574583668283
 31
0.0
  0
LINE
  5
93
330
1F
100
AcDbEntity
  8
1
  6
Continuous
 62
     2
100
AcDbLine
 10
86.19080861457837
 20
5.80324583668283
 30
0.0
 11
85.40330861457836
 21
6.59074583668283
 31
0.0
  0
LINE
  5
94
330
1F
100
AcDbEntity
  8
1
  6
Continuous
 62
     2
100
AcDbLine
 10
83.37830861457837
 20
4.34074583668283
 30
0.0
 11
84.95330861457836
 21
5.24074583668283
 31
0.0
  0
LINE
  5
95
330
1F
100
AcDbEntity
  8
1
  6
Continuous
 62
     2
100
AcDbLine
 10
81.12830861457837
 20
3.55324583668283
 30
0.0
 11
83.37830861457837
 21
4.34074583668283
 31
0.0
  0
LINE
  5
96
330
1F
100
AcDbEntity
  8
1
  6
Continuous
 62
     2
100
AcDbLine
 10
75.61580861457837
 20
2.65324583668283
 30
0.0
 11
77.19080861457837
 21
0.96574583668283
 31
0.0
  0
LINE
  5
97
330
1F
100
AcDbEntity
  8
1
  6
Continuous
 62
     2
100
AcDbLine
 10
74.37830861457837
 20
3.77824583668283
 30
0.0
 11
75.61580861457837
 21
2.65324583668283
 31
0.0
  0
LINE
  5
98
330
1F
100
AcDbEntity
  8
1
  6
Continuous
 62
     2
100
AcDbLine
 10
77.41580861457837
 20
7.71574583668283
 30
0.0
 11
78.20330861457836
 21
6.92824583668283
 31
0.0
  0
LINE
  5
99
330
1F
100
AcDbEntity
  8
1
  6
Continuous
 62
     2
100
AcDbLine
 10
76.96580861457836
 20
7.15324583668283
 30
0.0
 11
77.64080861457836
 21
6.36574583668283
 31
0.0
  0
LINE
  5
9A
330
1F
100
AcDbEntity
  8
1
  6
Continuous
 62
     2
100
AcDbLine
 10
75.95330861457836
 20
6.59074583668283
 30
0.0
 11
72.69080861457837
 21
6.59074583668283
 31
0.0
  0
LINE
  5
9B
330
1F
100
AcDbEntity
  8
1
  6
Continuous
 62
     2
100
AcDbLine
 10
75.16580861457837
 20
4.90324583668283
 30
0.0
 11
75.95330861457836
 21
6.59074583668283
 31
0.0
  0
LINE
  5
9C
330
1F
100
AcDbEntity
  8
1
  6
Continuous
 62
     2
100
AcDbLine
 10
73.36580861457837
 20
2.42824583668283
 30
0.0
 11
75.16580861457837
 21
4.90324583668283
 31
0.0
  0
LINE
  5
9D
330
1F
100
AcDbEntity
  8
1
  6
Continuous
 62
     2
100
AcDbLine
 10
71.67830861457837
 20
0.96574583668283
 30
0.0
 11
73.36580861457837
 21
2.42824583668283
 31
0.0
  0
LINE
  5
9E
330
1F
100
AcDbEntity
  8
1
  6
Continuous
 62
     2
100
AcDbLine
 10
68.64080861457838
 20
6.36574583668283
 30
0.0
 11
66.39080861457838
 21
3.77824583668283
 31
0.0
  0
LINE
  5
9F
330
1F
100
AcDbEntity
  8
1
  6
Continuous
 62
     2
100
AcDbLine
 10
62.90330861457837
 20
6.36574583668283
 30
0.0
 11
68.64080861457838
 21
6.36574583668283
 31
0.0
  0
LINE
  5
A0
330
1F
100
AcDbEntity
  8
1
  6
Continuous
 62
     2
100
AcDbLine
 10
65.71580861457838
 20
3.77824583668283
 30
0.0
 11
65.94080861457837
 21
5.24074583668283
 31
0.0
  0
LINE
  5
A1
330
1F
100
AcDbEntity
  8
1
  6
Continuous
 62
     2
100
AcDbLine
 10
65.15330861457838
 20
2.09074583668283
 30
0.0
 11
65.71580861457838
 21
3.77824583668283
 31
0.0
  0
LINE
  5
A2
330
1F
100
AcDbEntity
  8
1
  6
Continuous
 62
     2
100
AcDbLine
 10
64.14080861457838
 20
0.40324583668283
 30
0.0
 11
65.15330861457838
 21
2.09074583668283
 31
0.0
  0
LINE
  5
A3
330
1F
100
AcDbEntity
  8
1
  6
Continuous
 62
     2
100
AcDbLine
 10
168.7095586145784
 20
27.65324583668283
 30
0.0
 11
169.2720586145784
 21
26.86574583668283
 31
0.0
  0
LINE
  5
A4
330
1F
100
AcDbEntity
  8
1
  6
Continuous
 62
     2
100
AcDbLine
 10
168.0345586145784
 20
28.55324583668283
 30
0.0
 11
168.7095586145784
 21
27.65324583668283
 31
0.0
  0
LINE
  5
A5
330
1F
100
AcDbEntity
  8
1
  6
Continuous
 62
     2
100
AcDbLine
 10
167.0220586145784
 20
29.34074583668283
 30
0.0
 11
168.0345586145784
 21
28.55324583668283
 31
0.0
  0
LINE
  5
A6
330
1F
100
AcDbEntity
  8
1
  6
Continuous
 62
     2
100
AcDbLine
 10
166.4595586145784
 20
30.46574583668283
 30
0.0
 11
165.7845586145784
 21
31.92824583668283
 31
0.0
  0
LINE
  5
A7
330
1F
100
AcDbEntity
  8
1
  6
Continuous
 62
     2
100
AcDbLine
 10
167.8095586145784
 20
30.80324583668283
 30
0.0
 11
167.2470586145784
 21
32.15324583668283
 31
0.0
  0
LINE
  5
A8
330
1F
100
AcDbEntity
  8
1
  6
Continuous
 62
     2
100
AcDbLine
 10
169.2720586145784
 20
30.24074583668283
 30
0.0
 11
170.0595586145784
 21
31.92824583668283
 31
0.0
  0
LINE
  5
A9
330
1F
100
AcDbEntity
  8
1
  6
Continuous
 62
     2
100
AcDbLine
 10
167.8095586145784
 20
27.99074583668283
 30
0.0
 11
169.2720586145784
 21
30.24074583668283
 31
0.0
  0
LINE
  5
AA
330
1F
100
AcDbEntity
  8
1
  6
Continuous
 62
     2
100
AcDbLine
 10
167.0220586145784
 20
27.09074583668283
 30
0.0
 11
167.8095586145784
 21
27.99074583668283
 31
0.0
  0
LINE
  5
AB
330
1F
100
AcDbEntity
  8
1
  6
Continuous
 62
     2
100
AcDbLine
 10
165.7845586145784
 20
26.30324583668283
 30
0.0
 11
167.0220586145784
 21
27.09074583668283
 31
0.0
  0
LINE
  5
AC
330
1F
100
AcDbEntity
  8
1
  6
Continuous
 62
     2
100
AcDbLine
 10
164.5470586145784
 20
33.27824583668283
 30
0.0
 11
164.5470586145784
 21
25.17824583668283
 31
0.0
  0
LINE
  5
AD
330
1F
100
AcDbEntity
  8
1
  6
Continuous
 62
     2
100
AcDbLine
 10
170.9595586145784
 20
33.27824583668283
 30
0.0
 11
164.5470586145784
 21
33.27824583668283
 31
0.0
  0
LINE
  5
AE
330
1F
100
AcDbEntity
  8
1
  6
Continuous
 62
     2
100
AcDbLine
 10
170.9595586145784
 20
25.17824583668283
 30
0.0
 11
170.9595586145784
 21
33.27824583668283
 31
0.0
  0
LINE
  5
AF
330
1F
100
AcDbEntity
  8
1
  6
Continuous
 62
     2
100
AcDbLine
 10
164.5470586145784
 20
25.17824583668283
 30
0.0
 11
170.9595586145784
 21
25.17824583668283
 31
0.0
  0
LINE
  5
B0
330
1F
100
AcDbEntity
  8
1
  6
Continuous
 62
     2
100
AcDbLine
 10
160.7220586145784
 20
27.42824583668283
 30
0.0
 11
162.2970586145784
 21
24.84074583668283
 31
0.0
  0
LINE
  5
B1
330
1F
100
AcDbEntity
  8
1
  6
Continuous
 62
     2
100
AcDbLine
 10
157.2345586145784
 20
25.17824583668283
 30
0.0
 11
161.5095586145784
 21
25.96574583668283
 31
0.0
  0
LINE
  5
B2
330
1F
100
AcDbEntity
  8
1
  6
Continuous
 62
     2
100
AcDbLine
 10
159.4845586145784
 20
29.11574583668283
 30
0.0
 11
158.2470586145784
 21
25.40324583668283
 31
0.0
  0
LINE
  5
B3
330
1F
100
AcDbEntity
  8
1
  6
Continuous
 62
     2
100
AcDbLine
 10
156.7845586145784
 20
29.11574583668283
 30
0.0
 11
162.5220586145784
 21
29.11574583668283
 31
0.0
  0
LINE
  5
B4
330
1F
100
AcDbEntity
  8
1
  6
Continuous
 62
     2
100
AcDbLine
 10
159.7095586145784
 20
33.61574583668283
 30
0.0
 11
159.7095586145784
 21
29.11574583668283
 31
0.0
  0
LINE
  5
B5
330
1F
100
AcDbEntity
  8
1
  6
Continuous
 62
     2
100
AcDbLine
 10
157.4595586145784
 20
31.36574583668283
 30
0.0
 11
162.2970586145784
 21
31.36574583668283
 31
0.0
  0
LINE
  5
B6
330
1F
100
AcDbEntity
  8
1
  6
Continuous
 62
     2
100
AcDbLine
 10
155.5470586145784
 20
33.27824583668283
 30
0.0
 11
156.2220586145784
 21
32.15324583668283
 31
0.0
  0
LINE
  5
B7
330
1F
100
AcDbEntity
  8
1
  6
Continuous
 62
     2
100
AcDbLine
 10
155.5470586145784
 20
29.90324583668283
 30
0.0
 11
154.7595586145784
 21
30.80324583668283
 31
0.0
  0
LINE
  5
B8
330
1F
100
AcDbEntity
  8
1
  6
Continuous
 62
     2
100
AcDbLine
 10
154.9845586145784
 20
24.84074583668283
 30
0.0
 11
156.2220586145784
 21
28.55324583668283
 31
0.0
  0
LINE
  5
B9
330
1F
100
AcDbEntity
  8
1
  6
Continuous
 62
     2
100
AcDbLine
 10
149.2470586145784
 20
28.21574583668283
 30
0.0
 11
148.2345586145784
 21
29.67824583668283
 31
0.0
  0
LINE
  5
BA
330
1F
100
AcDbEntity
  8
1
  6
Continuous
 62
     2
100
AcDbLine
 10
151.2720586145784
 20
25.17824583668283
 30
0.0
 11
150.0345586145784
 21
25.17824583668283
 31
0.0
  0
LINE
  5
BB
330
1F
100
AcDbEntity
  8
1
  6
Continuous
 62
     2
100
AcDbLine
 10
151.2720586145784
 20
33.27824583668283
 30
0.0
 11
151.2720586145784
 21
25.17824583668283
 31
0.0
  0
LINE
  5
BC
330
1F
100
AcDbEntity
  8
1
  6
Continuous
 62
     2
100
AcDbLine
 10
146.5470586145784
 20
31.02824583668283
 30
0.0
 11
153.2970586145784
 21
31.02824583668283
 31
0.0
  0
LINE
  5
BD
330
1F
100
AcDbEntity
  8
1
  6
Continuous
 62
     2
100
AcDbLine
 10
144.5220586145784
 20
24.84074583668283
 30
0.0
 11
144.7470586145784
 21
25.40324583668283
 31
0.0
  0
LINE
  5
BE
330
1F
100
AcDbEntity
  8
1
  6
Continuous
 62
     2
100
AcDbLine
 10
143.5095586145784
 20
24.84074583668283
 30
0.0
 11
144.5220586145784
 21
24.84074583668283
 31
0.0
  0
LINE
  5
BF
330
1F
100
AcDbEntity
  8
1
  6
Continuous
 62
     2
100
AcDbLine
 10
142.7220586145784
 20
25.40324583668283
 30
0.0
 11
143.5095586145784
 21
24.84074583668283
 31
0.0
  0
LINE
  5
C0
330
1F
100
AcDbEntity
  8
1
  6
Continuous
 62
     2
100
AcDbLine
 10
142.7220586145784
 20
27.99074583668283
 30
0.0
 11
142.7220586145784
 21
25.40324583668283
 31
0.0
  0
LINE
  5
C1
330
1F
100
AcDbEntity
  8
1
  6
Continuous
 62
     2
100
AcDbLine
 10
141.2595586145784
 20
25.74074583668283
 30
0.0
 11
140.4720586145784
 21
24.84074583668283
 31
0.0
  0
LINE
  5
C2
330
1F
100
AcDbEntity
  8
1
  6
Continuous
 62
     2
100
AcDbLine
 10
141.7095586145784
 20
27.09074583668283
 30
0.0
 11
141.2595586145784
 21
25.74074583668283
 31
0.0
  0
LINE
  5
C3
330
1F
100
AcDbEntity
  8
1
  6
Continuous
 62
     2
100
AcDbLine
 10
142.0470586145784
 20
27.99074583668283
 30
0.0
 11
141.7095586145784
 21
27.09074583668283
 31
0.0
  0
LINE
  5
C4
330
1F
100
AcDbEntity
  8
1
  6
Continuous
 62
     2
100
AcDbLine
 10
143.7345586145784
 20
29.67824583668283
 30
0.0
 11
141.2595586145784
 21
29.67824583668283
 31
0.0
  0
LINE
  5
C5
330
1F
100
AcDbEntity
  8
1
  6
Continuous
 62
     2
100
AcDbLine
 10
141.2595586145784
 20
31.36574583668283
 30
0.0
 11
143.7345586145784
 21
31.36574583668283
 31
0.0
  0
LINE
  5
C6
330
1F
100
AcDbEntity
  8
1
  6
Continuous
 62
     2
100
AcDbLine
 10
143.7345586145784
 20
33.05324583668283
 30
0.0
 11
141.2595586145784
 21
33.05324583668283
 31
0.0
  0
LINE
  5
C7
330
1F
100
AcDbEntity
  8
1
  6
Continuous
 62
     2
100
AcDbLine
 10
143.7345586145784
 20
27.99074583668283
 30
0.0
 11
143.7345586145784
 21
33.05324583668283
 31
0.0
  0
LINE
  5
C8
330
1F
100
AcDbEntity
  8
1
  6
Continuous
 62
     2
100
AcDbLine
 10
141.2595586145784
 20
27.99074583668283
 30
0.0
 11
143.7345586145784
 21
27.99074583668283
 31
0.0
  0
LINE
  5
C9
330
1F
100
AcDbEntity
  8
1
  6
Continuous
 62
     2
100
AcDbLine
 10
141.2595586145784
 20
33.05324583668283
 30
0.0
 11
141.2595586145784
 21
27.99074583668283
 31
0.0
  0
LINE
  5
CA
330
1F
100
AcDbEntity
  8
1
  6
Continuous
 62
     2
100
AcDbLine
 10
137.7720586145784
 20
32.49074583668283
 30
0.0
 11
138.2220586145784
 21
33.61574583668283
 31
0.0
  0
LINE
  5
CB
330
1F
100
AcDbEntity
  8
1
  6
Continuous
 62
     2
100
AcDbLine
 10
136.9845586145784
 20
31.59074583668283
 30
0.0
 11
137.7720586145784
 21
32.49074583668283
 31
0.0
  0
LINE
  5
CC
330
1F
100
AcDbEntity
  8
1
  6
Continuous
 62
     2
100
AcDbLine
 10
140.4720586145784
 20
32.49074583668283
 30
0.0
 11
137.9970586145784
 21
32.49074583668283
 31
0.0
  0
LINE
  5
CD
330
1F
100
AcDbEntity
  8
1
  6
Continuous
 62
     2
100
AcDbLine
 10
137.9970586145784
 20
29.90324583668283
 30
0.0
 11
139.0095586145784
 21
32.49074583668283
 31
0.0
  0
LINE
  5
CE
330
1F
100
AcDbEntity
  8
1
  6
Continuous
 62
     2
100
AcDbLine
 10
136.7595586145784
 20
28.21574583668283
 30
0.0
 11
137.9970586145784
 21
29.90324583668283
 31
0.0
  0
LINE
  5
CF
330
1F
100
AcDbEntity
  8
1
  6
Continuous
 62
     2
100
AcDbLine
 10
140.8095586145784
 20
31.02824583668283
 30
0.0
 11
136.9845586145784
 21
31.02824583668283
 31
0.0
  0
LINE
  5
D0
330
1F
100
AcDbEntity
  8
1
  6
Continuous
 62
     2
100
AcDbLine
 10
139.2345586145784
 20
29.67824583668283
 30
0.0
 11
139.4595586145784
 21
30.24074583668283
 31
0.0
  0
LINE
  5
D1
330
1F
100
AcDbEntity
  8
1
  6
Continuous
 62
     2
100
AcDbLine
 10
139.2345586145784
 20
25.40324583668283
 30
0.0
 11
139.2345586145784
 21
29.67824583668283
 31
0.0
  0
LINE
  5
D2
330
1F
100
AcDbEntity
  8
1
  6
Continuous
 62
     2
100
AcDbLine
 10
140.4720586145784
 20
25.40324583668283
 30
0.0
 11
137.7720586145784
 21
25.40324583668283
 31
0.0
  0
LINE
  5
D3
330
1F
100
AcDbEntity
  8
1
  6
Continuous
 62
     2
100
AcDbLine
 10
137.7720586145784
 20
26.86574583668283
 30
0.0
 11
140.4720586145784
 21
26.86574583668283
 31
0.0
  0
LINE
  5
D4
330
1F
100
AcDbEntity
  8
1
  6
Continuous
 62
     2
100
AcDbLine
 10
140.4720586145784
 20
28.21574583668283
 30
0.0
 11
137.7720586145784
 21
28.21574583668283
 31
0.0
  0
LINE
  5
D5
330
1F
100
AcDbEntity
  8
1
  6
Continuous
 62
     2
100
AcDbLine
 10
137.7720586145784
 20
29.67824583668283
 30
0.0
 11
140.4720586145784
 21
29.67824583668283
 31
0.0
  0
LINE
  5
D6
330
1F
100
AcDbEntity
  8
1
  6
Continuous
 62
     2
100
AcDbLine
 10
137.7720586145784
 20
24.84074583668283
 30
0.0
 11
137.7720586145784
 21
29.67824583668283
 31
0.0
  0
LINE
  5
D7
330
1F
100
AcDbEntity
  8
1
  6
Continuous
 62
     2
100
AcDbLine
 10
134.5095586145784
 20
29.67824583668283
 30
0.0
 11
135.7470586145784
 21
28.21574583668283
 31
0.0
  0
LINE
  5
D8
330
1F
100
AcDbEntity
  8
1
  6
Continuous
 62
     2
100
AcDbLine
 10
132.4845586145784
 20
31.59074583668283
 30
0.0
 11
134.5095586145784
 21
29.67824583668283
 31
0.0
  0
LINE
  5
D9
330
1F
100
AcDbEntity
  8
1
  6
Continuous
 62
     2
100
AcDbLine
 10
133.0470586145784
 20
33.84074583668283
 30
0.0
 11
133.0470586145784
 21
24.84074583668283
 31
0.0
  0
LINE
  5
DA
330
1F
100
AcDbEntity
  8
1
  6
Continuous
 62
     2
100
AcDbLine
 10
128.7720586145784
 20
30.24074583668283
 30
0.0
 11
130.4595586145784
 21
28.77824583668283
 31
0.0
  0
LINE
  5
DB
330
1F
100
AcDbEntity
  8
1
  6
Continuous
 62
     2
100
AcDbLine
 10
128.7720586145784
 20
30.46574583668283
 30
0.0
 11
127.7595586145784
 21
29.11574583668283
 31
0.0
  0
LINE
  5
DC
330
1F
100
AcDbEntity
  8
1
  6
Continuous
 62
     2
100
AcDbLine
 10
129.5595586145784
 20
32.15324583668283
 30
0.0
 11
128.7720586145784
 21
30.46574583668283
 31
0.0
  0
LINE
  5
DD
330
1F
100
AcDbEntity
  8
1
  6
Continuous
 62
     2
100
AcDbLine
 10
130.0095586145784
 20
33.84074583668283
 30
0.0
 11
129.5595586145784
 21
32.15324583668283
 31
0.0
  0
LINE
  5
DE
330
1F
100
AcDbEntity
  8
1
  6
Continuous
 62
     2
100
AcDbLine
 10
131.8095586145784
 20
31.92824583668283
 30
0.0
 11
129.5595586145784
 21
31.92824583668283
 31
0.0
  0
LINE
  5
DF
330
1F
100
AcDbEntity
  8
1
  6
Continuous
 62
     2
100
AcDbLine
 10
131.2470586145784
 20
30.24074583668283
 30
0.0
 11
131.8095586145784
 21
31.92824583668283
 31
0.0
  0
LINE
  5
E0
330
1F
100
AcDbEntity
  8
1
  6
Continuous
 62
     2
100
AcDbLine
 10
130.7970586145784
 20
29.11574583668283
 30
0.0
 11
131.2470586145784
 21
30.24074583668283
 31
0.0
  0
LINE
  5
E1
330
1F
100
AcDbEntity
  8
1
  6
Continuous
 62
     2
100
AcDbLine
 10
129.7845586145784
 20
27.42824583668283
 30
0.0
 11
130.7970586145784
 21
29.11574583668283
 31
0.0
  0
LINE
  5
E2
330
1F
100
AcDbEntity
  8
1
  6
Continuous
 62
     2
100
AcDbLine
 10
128.2095586145784
 20
25.40324583668283
 30
0.0
 11
129.7845586145784
 21
27.42824583668283
 31
0.0
  0
LINE
  5
E3
330
1F
100
AcDbEntity
  8
1
  6
Continuous
 62
     2
100
AcDbLine
 10
112.9095586145784
 20
31.14074583668283
 30
0.0
 11
112.9095586145784
 21
24.84074583668283
 31
0.0
  0
LINE
  5
E4
330
1F
100
AcDbEntity
  8
1
  6
Continuous
 62
     2
100
AcDbLine
 10
116.0595586145784
 20
30.01574583668283
 30
0.0
 11
116.0595586145784
 21
24.84074583668283
 31
0.0
  0
LINE
  5
E5
330
1F
100
AcDbEntity
  8
1
  6
Continuous
 62
     2
100
AcDbLine
 10
115.8345586145784
 20
30.46574583668283
 30
0.0
 11
116.0595586145784
 21
30.01574583668283
 31
0.0
  0
LINE
  5
E6
330
1F
100
AcDbEntity
  8
1
  6
Continuous
 62
     2
100
AcDbLine
 10
115.3845586145784
 20
30.91574583668283
 30
0.0
 11
115.8345586145784
 21
30.46574583668283
 31
0.0
  0
LINE
  5
E7
330
1F
100
AcDbEntity
  8
1
  6
Continuous
 62
     2
100
AcDbLine
 10
114.7095586145784
 20
31.14074583668283
 30
0.0
 11
115.3845586145784
 21
30.91574583668283
 31
0.0
  0
LINE
  5
E8
330
1F
100
AcDbEntity
  8
1
  6
Continuous
 62
     2
100
AcDbLine
 10
109.7595586145784
 20
31.14074583668283
 30
0.0
 11
114.7095586145784
 21
31.14074583668283
 31
0.0
  0
LINE
  5
E9
330
1F
100
AcDbEntity
  8
1
  6
Continuous
 62
     2
100
AcDbLine
 10
109.7595586145784
 20
24.84074583668283
 30
0.0
 11
109.7595586145784
 21
31.14074583668283
 31
0.0
  0
LINE
  5
EA
330
1F
100
AcDbEntity
  8
1
  6
Continuous
 62
     2
100
AcDbLine
 10
103.9095586145784
 20
31.14074583668283
 30
0.0
 11
103.9095586145784
 21
24.84074583668283
 31
0.0
  0
LINE
  5
EB
330
1F
100
AcDbEntity
  8
1
  6
Continuous
 62
     2
100
AcDbLine
 10
107.0595586145784
 20
30.01574583668283
 30
0.0
 11
107.0595586145784
 21
24.84074583668283
 31
0.0
  0
LINE
  5
EC
330
1F
100
AcDbEntity
  8
1
  6
Continuous
 62
     2
100
AcDbLine
 10
106.8345586145784
 20
30.46574583668283
 30
0.0
 11
107.0595586145784
 21
30.01574583668283
 31
0.0
  0
LINE
  5
ED
330
1F
100
AcDbEntity
  8
1
  6
Continuous
 62
     2
100
AcDbLine
 10
106.3845586145784
 20
30.91574583668283
 30
0.0
 11
106.8345586145784
 21
30.46574583668283
 31
0.0
  0
LINE
  5
EE
330
1F
100
AcDbEntity
  8
1
  6
Continuous
 62
     2
100
AcDbLine
 10
105.7095586145784
 20
31.14074583668283
 30
0.0
 11
106.3845586145784
 21
30.91574583668283
 31
0.0
  0
LINE
  5
EF
330
1F
100
AcDbEntity
  8
1
  6
Continuous
 62
     2
100
AcDbLine
 10
100.7595586145784
 20
31.14074583668283
 30
0.0
 11
105.7095586145784
 21
31.14074583668283
 31
0.0
  0
LINE
  5
F0
330
1F
100
AcDbEntity
  8
1
  6
Continuous
 62
     2
100
AcDbLine
 10
100.7595586145784
 20
24.84074583668283
 30
0.0
 11
100.7595586145784
 21
31.14074583668283
 31
0.0
  0
LINE
  5
F1
330
1F
100
AcDbEntity
  8
1
  6
Continuous
 62
     2
100
AcDbLine
 10
96.03455861457837
 20
24.84074583668283
 30
0.0
 11
92.65955861457837
 21
24.84074583668283
 31
0.0
  0
LINE
  5
F2
330
1F
100
AcDbEntity
  8
1
  6
Continuous
 62
     2
100
AcDbLine
 10
96.70955861457837
 20
25.06574583668283
 30
0.0
 11
96.03455861457837
 21
24.84074583668283
 31
0.0
  0
LINE
  5
F3
330
1F
100
AcDbEntity
  8
1
  6
Continuous
 62
     2
100
AcDbLine
 10
97.38455861457837
 20
25.51574583668283
 30
0.0
 11
96.70955861457837
 21
25.06574583668283
 31
0.0
  0
LINE
  5
F4
330
1F
100
AcDbEntity
  8
1
  6
Continuous
 62
     2
100
AcDbLine
 10
97.83455861457837
 20
26.19074583668283
 30
0.0
 11
97.38455861457837
 21
25.51574583668283
 31
0.0
  0
LINE
  5
F5
330
1F
100
AcDbEntity
  8
1
  6
Continuous
 62
     2
100
AcDbLine
 10
98.05955861457838
 20
27.09074583668283
 30
0.0
 11
97.83455861457837
 21
26.19074583668283
 31
0.0
  0
LINE
  5
F6
330
1F
100
AcDbEntity
  8
1
  6
Continuous
 62
     2
100
AcDbLine
 10
98.05955861457838
 20
28.21574583668283
 30
0.0
 11
98.05955861457838
 21
27.09074583668283
 31
0.0
  0
LINE
  5
F7
330
1F
100
AcDbEntity
  8
1
  6
Continuous
 62
     2
100
AcDbLine
 10
97.83455861457837
 20
29.11574583668283
 30
0.0
 11
98.05955861457838
 21
28.21574583668283
 31
0.0
  0
LINE
  5
F8
330
1F
100
AcDbEntity
  8
1
  6
Continuous
 62
     2
100
AcDbLine
 10
97.60955861457838
 20
29.56574583668283
 30
0.0
 11
97.83455861457837
 21
29.11574583668283
 31
0.0
  0
LINE
  5
F9
330
1F
100
AcDbEntity
  8
1
  6
Continuous
 62
     2
100
AcDbLine
 10
97.15955861457837
 20
30.01574583668283
 30
0.0
 11
97.60955861457838
 21
29.56574583668283
 31
0.0
  0
LINE
  5
FA
330
1F
100
AcDbEntity
  8
1
  6
Continuous
 62
     2
100
AcDbLine
 10
96.25955861457837
 20
30.24074583668283
 30
0.0
 11
97.15955861457837
 21
30.01574583668283
 31
0.0
  0
LINE
  5
FB
330
1F
100
AcDbEntity
  8
1
  6
Continuous
 62
     2
100
AcDbLine
 10
96.93455861457838
 20
30.46574583668283
 30
0.0
 11
96.25955861457837
 21
30.24074583668283
 31
0.0
  0
LINE
  5
FC
330
1F
100
AcDbEntity
  8
1
  6
Continuous
 62
     2
100
AcDbLine
 10
97.38455861457837
 20
30.69074583668283
 30
0.0
 11
96.93455861457838
 21
30.46574583668283
 31
0.0
  0
LINE
  5
FD
330
1F
100
AcDbEntity
  8
1
  6
Continuous
 62
     2
100
AcDbLine
 10
97.83455861457837
 20
31.14074583668283
 30
0.0
 11
97.38455861457837
 21
30.69074583668283
 31
0.0
  0
LINE
  5
FE
330
1F
100
AcDbEntity
  8
1
  6
Continuous
 62
     2
100
AcDbLine
 10
98.05955861457838
 20
31.81574583668283
 30
0.0
 11
97.83455861457837
 21
31.14074583668283
 31
0.0
  0
LINE
  5
FF
330
1F
100
AcDbEntity
  8
1
  6
Continuous
 62
     2
100
AcDbLine
 10
98.05955861457838
 20
32.49074583668283
 30
0.0
 11
98.05955861457838
 21
31.81574583668283
 31
0.0
  0
LINE
  5
100
330
1F
100
AcDbEntity
  8
1
  6
Continuous
 62
     2
100
AcDbLine
 10
97.83455861457837
 20
33.16574583668283
 30
0.0
 11
98.05955861457838
 21
32.49074583668283
 31
0.0
  0
LINE
  5
101
330
1F
100
AcDbEntity
  8
1
  6
Continuous
 62
     2
100
AcDbLine
 10
97.15955861457837
 20
33.61574583668283
 30
0.0
 11
97.83455861457837
 21
33.16574583668283
 31
0.0
  0
LINE
  5
102
330
1F
100
AcDbEntity
  8
1
  6
Continuous
 62
     2
100
AcDbLine
 10
96.03455861457837
 20
33.84074583668283
 30
0.0
 11
97.15955861457837
 21
33.61574583668283
 31
0.0
  0
LINE
  5
103
330
1F
100
AcDbEntity
  8
1
  6
Continuous
 62
     2
100
AcDbLine
 10
92.65955861457837
 20
33.84074583668283
 30
0.0
 11
96.03455861457837
 21
33.84074583668283
 31
0.0
  0
LINE
  5
104
330
1F
100
AcDbEntity
  8
1
  6
Continuous
 62
     2
100
AcDbLine
 10
94.00955861457837
 20
30.24074583668283
 30
0.0
 11
96.25955861457837
 21
30.24074583668283
 31
0.0
  0
LINE
  5
105
330
1F
100
AcDbEntity
  8
1
  6
Continuous
 62
     2
100
AcDbLine
 10
89.95955861457837
 20
33.84074583668283
 30
0.0
 11
89.95955861457837
 21
24.84074583668283
 31
0.0
  0
LINE
  5
106
330
1F
100
AcDbEntity
  8
1
  6
Continuous
 62
     2
100
AcDbLine
 10
87.25955861457837
 20
31.14074583668283
 30
0.0
 11
89.95955861457837
 21
33.84074583668283
 31
0.0
  0
LINE
  5
107
330
1F
100
AcDbEntity
  8
1
  6
Continuous
 62
     2
100
AcDbLine
 10
82.53455861457837
 20
28.55324583668283
 30
0.0
 11
82.53455861457837
 21
25.17824583668283
 31
0.0
  0
LINE
  5
108
330
1F
100
AcDbEntity
  8
1
  6
Continuous
 62
     2
100
AcDbLine
 10
85.45955861457837
 20
28.55324583668283
 30
0.0
 11
84.78455861457837
 21
28.55324583668283
 31
0.0
  0
LINE
  5
109
330
1F
100
AcDbEntity
  8
1
  6
Continuous
 62
     2
100
AcDbLine
 10
85.45955861457837
 20
33.61574583668283
 30
0.0
 11
85.45955861457837
 21
28.55324583668283
 31
0.0
  0
LINE
  5
10A
330
1F
100
AcDbEntity
  8
1
  6
Continuous
 62
     2
100
AcDbLine
 10
83.77205861457837
 20
29.67824583668283
 30
0.0
 11
83.77205861457837
 21
33.27824583668283
 31
0.0
  0
LINE
  5
10B
330
1F
100
AcDbEntity
  8
1
  6
Continuous
 62
     2
100
AcDbLine
 10
81.29705861457836
 20
33.27824583668283
 30
0.0
 11
81.29705861457836
 21
28.55324583668283
 31
0.0
  0
LINE
  5
10C
330
1F
100
AcDbEntity
  8
1
  6
Continuous
 62
     2
100
AcDbLine
 10
78.48455861457836
 20
31.36574583668283
 30
0.0
 11
82.75955861457837
 21
31.36574583668283
 31
0.0
  0
LINE
  5
10D
330
1F
100
AcDbEntity
  8
1
  6
Continuous
 62
     2
100
AcDbLine
 10
82.53455861457837
 20
33.27824583668283
 30
0.0
 11
78.70955861457837
 21
33.27824583668283
 31
0.0
  0
LINE
  5
10E
330
1F
100
AcDbEntity
  8
1
  6
Continuous
 62
     2
100
AcDbLine
 10
80.05955861457836
 20
31.36574583668283
 30
0.0
 11
80.05955861457836
 21
33.27824583668283
 31
0.0
  0
LINE
  5
10F
330
1F
100
AcDbEntity
  8
1
  6
Continuous
 62
     2
100
AcDbLine
 10
79.49705861457836
 20
29.34074583668283
 30
0.0
 11
80.05955861457836
 21
31.36574583668283
 31
0.0
  0
LINE
  5
110
330
1F
100
AcDbEntity
  8
1
  6
Continuous
 62
     2
100
AcDbLine
 10
78.70955861457837
 20
28.21574583668283
 30
0.0
 11
79.49705861457836
 21
29.34074583668283
 31
0.0
  0
LINE
  5
111
330
1F
100
AcDbEntity
  8
1
  6
Continuous
 62
     2
100
AcDbLine
 10
85.00955861457837
 20
27.09074583668283
 30
0.0
 11
79.49705861457836
 21
27.09074583668283
 31
0.0
  0
LINE
  5
112
330
1F
100
AcDbEntity
  8
1
  6
Continuous
 62
     2
100
AcDbLine
 10
78.70955861457837
 20
25.17824583668283
 30
0.0
 11
86.02205861457837
 21
25.17824583668283
 31
0.0
  0
LINE
  5
113
330
1F
100
AcDbEntity
  8
1
  6
Continuous
 62
     2
100
AcDbLine
 10
71.95955861457837
 20
33.84074583668283
 30
0.0
 11
75.55955861457838
 21
24.84074583668283
 31
0.0
  0
LINE
  5
114
330
1F
100
AcDbEntity
  8
1
  6
Continuous
 62
     2
100
AcDbLine
 10
68.35955861457838
 20
24.84074583668283
 30
0.0
 11
71.95955861457837
 21
33.84074583668283
 31
0.0
  0
LINE
  5
115
330
1F
100
AcDbEntity
  8
1
  6
Continuous
 62
     2
100
AcDbLine
 10
69.48455861457838
 20
27.54074583668283
 30
0.0
 11
74.43455861457838
 21
27.54074583668283
 31
0.0
  0
LINE
  5
116
330
1F
100
AcDbEntity
  8
1
  6
Continuous
 62
     2
100
AcDbLine
 10
65.43455861457838
 20
32.04074583668283
 30
0.0
 11
65.65955861457837
 21
31.14074583668283
 31
0.0
  0
LINE
  5
117
330
1F
100
AcDbEntity
  8
1
  6
Continuous
 62
     2
100
AcDbLine
 10
64.98455861457838
 20
32.71574583668283
 30
0.0
 11
65.43455861457838
 21
32.04074583668283
 31
0.0
  0
LINE
  5
118
330
1F
100
AcDbEntity
  8
1
  6
Continuous
 62
     2
100
AcDbLine
 10
64.53455861457837
 20
33.16574583668283
 30
0.0
 11
64.98455861457838
 21
32.71574583668283
 31
0.0
  0
LINE
  5
119
330
1F
100
AcDbEntity
  8
1
  6
Continuous
 62
     2
100
AcDbLine
 10
63.85955861457838
 20
33.61574583668283
 30
0.0
 11
64.53455861457837
 21
33.16574583668283
 31
0.0
  0
LINE
  5
11A
330
1F
100
AcDbEntity
  8
1
  6
Continuous
 62
     2
100
AcDbLine
 10
62.95955861457838
 20
33.84074583668283
 30
0.0
 11
63.85955861457838
 21
33.61574583668283
 31
0.0
  0
LINE
  5
11B
330
1F
100
AcDbEntity
  8
1
  6
Continuous
 62
     2
100
AcDbLine
 10
59.35955861457838
 20
33.84074583668283
 30
0.0
 11
62.95955861457838
 21
33.84074583668283
 31
0.0
  0
LINE
  5
11C
330
1F
100
AcDbEntity
  8
1
  6
Continuous
 62
     2
100
AcDbLine
 10
59.35955861457838
 20
24.84074583668283
 30
0.0
 11
59.35955861457838
 21
33.84074583668283
 31
0.0
  0
LINE
  5
11D
330
1F
100
AcDbEntity
  8
1
  6
Continuous
 62
     2
100
AcDbLine
 10
62.95955861457838
 20
24.84074583668283
 30
0.0
 11
59.35955861457838
 21
24.84074583668283
 31
0.0
  0
LINE
  5
11E
330
1F
100
AcDbEntity
  8
1
  6
Continuous
 62
     2
100
AcDbLine
 10
63.85955861457838
 20
25.06574583668283
 30
0.0
 11
62.95955861457838
 21
24.84074583668283
 31
0.0
  0
LINE
  5
11F
330
1F
100
AcDbEntity
  8
1
  6
Continuous
 62
     2
100
AcDbLine
 10
64.53455861457837
 20
25.51574583668283
 30
0.0
 11
63.85955861457838
 21
25.06574583668283
 31
0.0
  0
LINE
  5
120
330
1F
100
AcDbEntity
  8
1
  6
Continuous
 62
     2
100
AcDbLine
 10
64.98455861457838
 20
25.96574583668283
 30
0.0
 11
64.53455861457837
 21
25.51574583668283
 31
0.0
  0
LINE
  5
121
330
1F
100
AcDbEntity
  8
1
  6
Continuous
 62
     2
100
AcDbLine
 10
65.43455861457838
 20
26.64074583668283
 30
0.0
 11
64.98455861457838
 21
25.96574583668283
 31
0.0
  0
LINE
  5
122
330
1F
100
AcDbEntity
  8
1
  6
Continuous
 62
     2
100
AcDbLine
 10
65.65955861457837
 20
27.54074583668283
 30
0.0
 11
65.43455861457838
 21
26.64074583668283
 31
0.0
  0
LINE
  5
123
330
1F
100
AcDbEntity
  8
1
  6
Continuous
 62
     2
100
AcDbLine
 10
65.65955861457837
 20
31.14074583668283
 30
0.0
 11
65.65955861457837
 21
27.54074583668283
 31
0.0
  0
LINE
  5
124
330
1F
100
AcDbEntity
  8
1
  6
Continuous
 62
     2
100
AcDbLine
 10
50.35955861457838
 20
24.84074583668283
 30
0.0
 11
50.35955861457838
 21
33.84074583668283
 31
0.0
  0
LINE
  5
125
330
1F
100
AcDbEntity
  8
1
  6
Continuous
 62
     2
100
AcDbLine
 10
52.15955861457837
 20
29.34074583668283
 30
0.0
 11
56.65955861457837
 21
24.84074583668283
 31
0.0
  0
LINE
  5
126
330
1F
100
AcDbEntity
  8
1
  6
Continuous
 62
     2
100
AcDbLine
 10
56.65955861457837
 20
33.84074583668283
 30
0.0
 11
50.35955861457838
 21
27.54074583668283
 31
0.0
  0
LINE
  5
127
330
1F
100
AcDbEntity
  8
1
  6
Continuous
 62
     2
100
AcDbLine
 10
41.35955861457838
 20
24.84074583668283
 30
0.0
 11
41.35955861457838
 21
33.84074583668283
 31
0.0
  0
LINE
  5
128
330
1F
100
AcDbEntity
  8
1
  6
Continuous
 62
     2
100
AcDbLine
 10
43.15955861457837
 20
29.34074583668283
 30
0.0
 11
47.65955861457837
 21
24.84074583668283
 31
0.0
  0
LINE
  5
129
330
1F
100
AcDbEntity
  8
1
  6
Continuous
 62
     2
100
AcDbLine
 10
47.65955861457837
 20
33.84074583668283
 30
0.0
 11
41.35955861457838
 21
27.54074583668283
 31
0.0
  0
LINE
  5
12A
330
1F
100
AcDbEntity
  8
1
  6
Continuous
 62
     7
100
AcDbLine
 10
113.5390806641783
 20
243.9005836581894
 30
0.0
 11
116.2018596521584
 21
241.2378046701695
 31
0.0
  0
LINE
  5
12B
330
1F
100
AcDbEntity
  8
1
  6
Continuous
 62
     7
100
AcDbLine
 10
113.2413748345005
 20
239.3544747441654
 30
0.0
 11
115.8441329195784
 21
236.9273635641894
 31
0.0
  0
LINE
  5
12C
330
1F
100
AcDbEntity
  8
1
  6
Continuous
 62
     7
100
AcDbLine
 10
114.7732194923783
 20
241.0383474643895
 30
0.0
 11
115.4042842703509
 21
240.7440762557061
 31
0.0
  0
LINE
  5
12D
330
1F
100
AcDbEntity
  8
1
  6
Continuous
 62
     7
100
AcDbLine
 10
114.1392905675784
 20
239.6788856577894
 30
0.0
 11
114.7714085012724
 21
239.3841251847125
 31
0.0
  0
LINE
  5
12E
330
1F
100
AcDbEntity
  8
1
  6
Continuous
 62
     7
100
AcDbLine
 10
113.3381999801784
 20
219.0690408403895
 30
0.0
 11
117.3382860887784
 21
217.6131285621895
 31
0.0
  0
LINE
  5
12F
330
1F
100
AcDbEntity
  8
1
  6
Continuous
 62
     7
100
AcDbLine
 10
116.587774663114
 20
239.7803823017334
 30
0.0
 11
116.5892322586101
 21
218.6357618603341
 31
0.0
  0
LINE
  5
130
330
1F
100
AcDbEntity
  8
1
  6
Continuous
 62
     7
100
AcDbLine
 10
113.4430412613783
 20
233.2129011493894
 30
0.0
 11
116.2905005360537
 21
231.8851081401888
 31
0.0
  0
LINE
  5
131
330
1F
100
AcDbEntity
  8
1
  6
Continuous
 62
     7
100
AcDbLine
 10
113.4430412613783
 20
223.9574448767894
 30
0.0
 11
116.5782860887784
 21
220.5953033251174
 31
0.0
  0
LINE
  5
132
330
1F
100
AcDbEntity
  8
1
  6
Continuous
 62
     7
100
AcDbLine
 10
112.8381994033784
 20
224.2394861397895
 30
0.0
 11
115.6329534757783
 21
221.2424798877894
 31
0.0
  0
LINE
  5
133
330
1F
100
AcDbEntity
  8
1
  6
Continuous
 62
     7
100
AcDbLine
 10
113.4430412613783
 20
223.9574448767894
 30
0.0
 11
116.2541621112374
 21
222.6465973799193
 31
0.0
  0
LINE
  5
134
330
1F
100
AcDbEntity
  8
1
  6
Continuous
 62
     7
100
AcDbLine
 10
116.5711252399624
 20
223.3263270029362
 30
0.0
 11
113.4430412613783
 21
226.6807892457894
 31
0.0
  0
LINE
  5
135
330
1F
100
AcDbEntity
  8
1
  6
Continuous
 62
     7
100
AcDbLine
 10
113.1551636763784
 20
224.9192169291894
 30
0.0
 11
115.9662846887784
 21
223.6083693433895
 31
0.0
  0
LINE
  5
136
330
1F
100
AcDbEntity
  8
1
  6
Continuous
 62
     7
100
AcDbLine
 10
112.8381994033784
 20
226.9628305085894
 30
0.0
 11
115.9662846887784
 21
223.6083693433895
 31
0.0
  0
LINE
  5
137
330
1F
100
AcDbEntity
  8
1
  6
Continuous
 62
     7
100
AcDbLine
 10
113.4430412613783
 20
226.6807892457894
 30
0.0
 11
116.2713222206349
 21
225.3619389066554
 31
0.0
  0
LINE
  5
138
330
1F
100
AcDbEntity
  8
1
  6
Continuous
 62
     7
100
AcDbLine
 10
116.5782860887784
 20
226.0500603467774
 30
0.0
 11
113.7136277223783
 21
228.4537962851894
 31
0.0
  0
LINE
  5
139
330
1F
100
AcDbEntity
  8
1
  6
Continuous
 62
     7
100
AcDbLine
 10
113.1551620029784
 20
227.6425614119895
 30
0.0
 11
115.7128599907783
 21
226.4498880091894
 31
0.0
  0
LINE
  5
13A
330
1F
100
AcDbEntity
  8
1
  6
Continuous
 62
     7
100
AcDbLine
 10
112.8381994033784
 20
228.8620141781894
 30
0.0
 11
115.7128599907783
 21
226.4498880091894
 31
0.0
  0
LINE
  5
13B
330
1F
100
AcDbEntity
  8
1
  6
Continuous
 62
     7
100
AcDbLine
 10
113.7136277223783
 20
228.4537962851894
 30
0.0
 11
116.2713221764927
 21
227.2611224281921
 31
0.0
  0
LINE
  5
13C
330
1F
100
AcDbEntity
  8
1
  6
Continuous
 62
     7
100
AcDbLine
 10
113.1551636763784
 20
229.5417450041894
 30
0.0
 11
115.7128606403785
 21
228.3490716227895
 31
0.0
  0
LINE
  5
13D
330
1F
100
AcDbEntity
  8
1
  6
Continuous
 62
     7
100
AcDbLine
 10
112.8381994033784
 20
230.7611977313895
 30
0.0
 11
115.7128606403785
 21
228.3490716227895
 31
0.0
  0
LINE
  5
13E
330
1F
100
AcDbEntity
  8
1
  6
Continuous
 62
     7
100
AcDbLine
 10
113.7136277223783
 20
230.3529798383894
 30
0.0
 11
116.5782860887784
 21
227.9492440739701
 31
0.0
  0
LINE
  5
13F
330
1F
100
AcDbEntity
  8
1
  6
Continuous
 62
     7
100
AcDbLine
 10
113.7136277223783
 20
230.3529798383894
 30
0.0
 11
116.2713222172166
 21
229.1603061319248
 31
0.0
  0
LINE
  5
140
330
1F
100
AcDbEntity
  8
1
  6
Continuous
 62
     7
100
AcDbLine
 10
113.1551620029784
 20
231.4409286345895
 30
0.0
 11
115.9834463695784
 21
230.1220787411894
 31
0.0
  0
LINE
  5
141
330
1F
100
AcDbEntity
  8
1
  6
Continuous
 62
     7
100
AcDbLine
 10
113.4430412613783
 20
233.2129011493894
 30
0.0
 11
116.5782860887784
 21
229.8507601198521
 31
0.0
  0
LINE
  5
142
330
1F
100
AcDbEntity
  8
1
  6
Continuous
 62
     7
100
AcDbLine
 10
112.8381999801784
 20
233.4949425547895
 30
0.0
 11
115.9834463695784
 21
230.1220787411894
 31
0.0
  0
LINE
  5
143
330
1F
100
AcDbEntity
  8
1
  6
Continuous
 62
     7
100
AcDbLine
 10
113.1359854511784
 20
234.1836163483895
 30
0.0
 11
115.7128592941064
 21
232.9820006009664
 31
0.0
  0
LINE
  5
144
330
1F
100
AcDbEntity
  8
1
  6
Continuous
 62
     7
100
AcDbLine
 10
112.8381994033784
 20
235.3941261399895
 30
0.0
 11
115.7128592941064
 21
232.9820006009664
 31
0.0
  0
LINE
  5
145
330
1F
100
AcDbEntity
  8
1
  6
Continuous
 62
     7
100
AcDbLine
 10
113.6406492853785
 20
235.0471442197894
 30
0.0
 11
116.5782860887784
 21
232.5821724818964
 31
0.0
  0
LINE
  5
146
330
1F
100
AcDbEntity
  8
1
  6
Continuous
 62
     7
100
AcDbLine
 10
113.6406492853785
 20
235.0471442197894
 30
0.0
 11
116.2906192570307
 21
233.9012859267882
 31
0.0
  0
LINE
  5
147
330
1F
100
AcDbEntity
  8
1
  6
Continuous
 62
     7
100
AcDbLine
 10
113.6406477889784
 20
237.0630475593894
 30
0.0
 11
116.5782860887784
 21
234.5980758367706
 31
0.0
  0
LINE
  5
148
330
1F
100
AcDbEntity
  8
1
  6
Continuous
 62
     7
100
AcDbLine
 10
116.5782860887784
 20
236.6155878251144
 30
0.0
 11
114.7068492587389
 21
238.4870241918969
 31
0.0
  0
LINE
  5
149
330
1F
100
AcDbEntity
  8
1
  6
Continuous
 62
     7
100
AcDbLine
 10
113.6406477889784
 20
237.0630475593894
 30
0.0
 11
116.2906193815187
 21
235.9171894410855
 31
0.0
  0
LINE
  5
14A
330
1F
100
AcDbEntity
  8
1
  6
Continuous
 62
     7
100
AcDbLine
 10
113.1358669951783
 20
236.0825260171894
 30
0.0
 11
115.7858390771785
 21
234.9366670105895
 31
0.0
  0
LINE
  5
14B
330
1F
100
AcDbEntity
  8
1
  6
Continuous
 62
     7
100
AcDbLine
 10
112.8381994033784
 20
237.4100292663895
 30
0.0
 11
115.7858390771785
 21
234.9366670105895
 31
0.0
  0
LINE
  5
14C
330
1F
100
AcDbEntity
  8
1
  6
Continuous
 62
     7
100
AcDbLine
 10
113.1358669951783
 20
238.0984292435894
 30
0.0
 11
115.8441329195784
 21
236.9273635641894
 31
0.0
  0
LINE
  5
14D
330
1F
100
AcDbEntity
  8
1
  6
Continuous
 62
     7
100
AcDbLine
 10
116.5006611609333
 20
239.5432171057785
 30
0.0
 11
116.3950065953334
 21
239.3166401589785
 31
0.0
  0
LINE
  5
14E
330
1F
100
AcDbEntity
  8
1
  6
Continuous
 62
     7
100
AcDbLine
 10
114.6043459436272
 20
242.0261554534066
 30
0.0
 11
115.1325982475785
 21
241.9330103885895
 31
0.0
  0
LINE
  5
14F
330
1F
100
AcDbEntity
  8
1
  6
Continuous
 62
     7
100
AcDbLine
 10
112.8381994033784
 20
244.2274092327896
 30
0.0
 11
115.1325982475785
 21
241.9330103885895
 31
0.0
  0
LINE
  5
150
330
1F
100
AcDbEntity
  8
1
  6
Continuous
 62
     7
100
AcDbLine
 10
113.5390806641783
 20
243.9005836581894
 30
0.0
 11
116.2714084397692
 21
242.6264781314969
 31
0.0
  0
LINE
  5
151
330
1F
100
AcDbEntity
  8
1
  6
Continuous
 62
     7
100
AcDbLine
 10
113.5714184903784
 20
246.1195633377895
 30
0.0
 11
116.5782860887784
 21
243.3156136516966
 31
0.0
  0
LINE
  5
152
330
1F
100
AcDbEntity
  8
1
  6
Continuous
 62
     7
100
AcDbLine
 10
116.0589326583784
 20
244.9596159723894
 30
0.0
 11
113.5714184903784
 21
246.1195633377895
 31
0.0
  0
LINE
  5
153
330
1F
100
AcDbEntity
  8
1
  6
Continuous
 62
     7
100
AcDbLine
 10
116.5882852339785
 20
246.7363935146443
 30
0.0
 11
116.0589326583784
 21
244.9596159723894
 31
0.0
  0
LINE
  5
154
330
1F
100
AcDbEntity
  8
1
  6
Continuous
 62
     7
100
AcDbLine
 10
115.8551555537783
 20
243.6481144841894
 30
0.0
 11
113.1551620029784
 21
244.9071396705895
 31
0.0
  0
LINE
  5
155
330
1F
100
AcDbEntity
  8
1
  6
Continuous
 62
     7
100
AcDbLine
 10
112.8381999801784
 20
246.4614694063894
 30
0.0
 11
115.8551555537783
 21
243.6481144841894
 31
0.0
  0
LINE
  5
156
330
1F
100
AcDbEntity
  8
1
  6
Continuous
 62
     7
100
AcDbLine
 10
113.1551636763784
 20
247.1412002467894
 30
0.0
 11
115.5882860887784
 21
246.0066166325894
 31
0.0
  0
LINE
  5
157
330
1F
100
AcDbEntity
  8
1
  6
Continuous
 62
     7
100
AcDbLine
 10
116.5882860887784
 20
249.3631285621896
 30
0.0
 11
115.5882860887784
 21
246.0066166325894
 31
0.0
  0
LINE
  5
158
330
1F
100
AcDbEntity
  8
1
  6
Continuous
 62
     7
100
AcDbLine
 10
113.1551620029784
 20
244.9071396705895
 30
0.0
 11
112.8381994033784
 21
244.2274092327896
 31
0.0
  0
LINE
  5
159
330
1F
100
AcDbEntity
  8
1
  6
Continuous
 62
     7
100
AcDbLine
 10
113.1551636763784
 20
247.1412002467894
 30
0.0
 11
112.8381999801784
 21
246.4614694063894
 31
0.0
  0
LINE
  5
15A
330
1F
100
AcDbEntity
  8
1
  6
Continuous
 62
     7
100
AcDbLine
 10
113.1358669951783
 20
238.0984292435894
 30
0.0
 11
112.8381994033784
 21
237.4100292663895
 31
0.0
  0
LINE
  5
15B
330
1F
100
AcDbEntity
  8
1
  6
Continuous
 62
     7
100
AcDbLine
 10
113.1359854511784
 20
234.1836163483895
 30
0.0
 11
112.8381999801784
 21
233.4949425547895
 31
0.0
  0
LINE
  5
15C
330
1F
100
AcDbEntity
  8
1
  6
Continuous
 62
     7
100
AcDbLine
 10
113.1358669951783
 20
236.0825260171894
 30
0.0
 11
112.8381994033784
 21
235.3941261399895
 31
0.0
  0
LINE
  5
15D
330
1F
100
AcDbEntity
  8
1
  6
Continuous
 62
     7
100
AcDbLine
 10
113.1551636763784
 20
229.5417450041894
 30
0.0
 11
112.8381994033784
 21
228.8620141781894
 31
0.0
  0
LINE
  5
15E
330
1F
100
AcDbEntity
  8
1
  6
Continuous
 62
     7
100
AcDbLine
 10
113.1551620029784
 20
231.4409286345895
 30
0.0
 11
112.8381994033784
 21
230.7611977313895
 31
0.0
  0
LINE
  5
15F
330
1F
100
AcDbEntity
  8
1
  6
Continuous
 62
     7
100
AcDbLine
 10
113.1551620029784
 20
227.6425614119895
 30
0.0
 11
112.8381994033784
 21
226.9628305085894
 31
0.0
  0
LINE
  5
160
330
1F
100
AcDbEntity
  8
1
  6
Continuous
 62
     7
100
AcDbLine
 10
113.1551636763784
 20
224.9192169291894
 30
0.0
 11
112.8381994033784
 21
224.2394861397895
 31
0.0
  0
LINE
  5
161
330
1F
100
AcDbEntity
  8
1
  6
Continuous
 62
     7
100
AcDbLine
 10
109.3382854425784
 20
219.8108163293894
 30
0.0
 11
109.3382860887784
 21
217.2748899161923
 31
0.0
  0
LINE
  5
162
330
1F
100
AcDbEntity
  8
1
  6
Continuous
 62
     7
100
AcDbLine
 10
110.0092959070635
 20
220.2806629804254
 30
0.0
 11
112.3381999801784
 21
219.4330110745895
 31
0.0
  0
LINE
  5
163
330
1F
100
AcDbEntity
  8
0
  6
Continuous
 62
     7
100
AcDbLine
 10
110.3382874691783
 20
216.9109199759894
 30
0.0
 11
110.3382874691783
 21
219.0967424403895
 31
0.0
  0
LINE
  5
164
330
1F
100
AcDbEntity
  8
1
  6
Continuous
 62
     7
100
AcDbLine
 10
116.5892322586101
 20
218.6357618603341
 30
0.0
 11
117.3382860887784
 21
218.3631285621895
 31
0.0
  0
LINE
  5
165
330
1F
100
AcDbEntity
  8
1
  6
Continuous
 62
     7
100
AcDbLine
 10
115.6329534757783
 20
221.2424798877894
 30
0.0
 11
113.1117686244637
 21
220.0668316903656
 31
0.0
  0
LINE
  5
166
330
1F
100
AcDbEntity
  8
1
  6
Continuous
 62
     7
100
AcDbLine
 10
110.0849751793785
 20
223.6740243253894
 30
0.0
 11
113.1117686244637
 21
220.0668316903656
 31
0.0
  0
LINE
  5
167
330
1F
100
AcDbEntity
  8
1
  6
Continuous
 62
     7
100
AcDbLine
 10
110.0849751793785
 20
223.6740243253894
 30
0.0
 11
109.3189288341785
 21
223.0312366601895
 31
0.0
  0
LINE
  5
168
330
1F
100
AcDbEntity
  8
1
  6
Continuous
 62
     7
100
AcDbLine
 10
109.3189288341785
 20
223.0312366601895
 30
0.0
 11
112.3381999801784
 21
219.4330110745895
 31
0.0
  0
LINE
  5
169
330
1F
100
AcDbEntity
  8
1
  6
Continuous
 62
     7
100
AcDbLine
 10
116.3382860887784
 20
214.7270987965895
 30
0.0
 11
117.3382860887784
 21
214.3631285621895
 31
0.0
  0
LINE
  5
16A
330
1F
100
AcDbEntity
  8
1
  6
Continuous
 62
     7
100
AcDbLine
 10
109.3382860887784
 20
217.2748899161923
 30
0.0
 11
110.3382874691783
 21
216.9109199759894
 31
0.0
  0
LINE
  5
16B
330
1F
100
AcDbEntity
  8
1
  6
Continuous
 62
     7
100
AcDbLine
 10
110.3382874691783
 20
219.0967424403895
 30
0.0
 11
116.3382860887784
 21
216.9129210239894
 31
0.0
  0
LINE
  5
16C
330
1F
100
AcDbEntity
  8
1
  6
Continuous
 62
     7
100
AcDbLine
 10
132.4142422937784
 20
237.4946334031895
 30
0.0
 11
128.6642384195784
 21
235.3295696531895
 31
0.0
  0
LINE
  5
16D
330
1F
100
AcDbEntity
  8
1
  6
Continuous
 62
     7
100
AcDbLine
 10
124.9142419957784
 20
237.4946334031895
 30
0.0
 11
128.6642384195784
 21
235.3295696531895
 31
0.0
  0
LINE
  5
16E
330
1F
100
AcDbEntity
  8
1
  6
Continuous
 62
     7
100
AcDbLine
 10
125.9142440223784
 20
235.7625824961895
 30
0.0
 11
128.6642384195784
 21
234.1748693589895
 31
0.0
  0
LINE
  5
16F
330
1F
100
AcDbEntity
  8
1
  6
Continuous
 62
     7
100
AcDbLine
 10
131.4142402673783
 20
235.7625824961895
 30
0.0
 11
128.6642384195784
 21
234.1748693589895
 31
0.0
  0
LINE
  5
170
330
1F
100
AcDbEntity
  8
1
  6
Continuous
 62
     7
100
AcDbLine
 10
131.4142402673783
 20
229.4117295541894
 30
0.0
 11
134.1642421149784
 21
230.9994428515894
 31
0.0
  0
LINE
  5
171
330
1F
100
AcDbEntity
  8
1
  6
Continuous
 62
     7
100
AcDbLine
 10
131.4142402673783
 20
232.5871559887895
 30
0.0
 11
134.1642421149784
 21
230.9994428515894
 31
0.0
  0
LINE
  5
172
330
1F
100
AcDbEntity
  8
1
  6
Continuous
 62
     7
100
AcDbLine
 10
121.1642381215784
 20
230.9994428515894
 30
0.0
 11
124.9142419957784
 21
233.1645063687896
 31
0.0
  0
LINE
  5
173
330
1F
100
AcDbEntity
  8
1
  6
Continuous
 62
     7
100
AcDbLine
 10
136.1642387175784
 20
230.9994428515894
 30
0.0
 11
132.4142422937784
 21
228.8343792761895
 31
0.0
  0
LINE
  5
174
330
1F
100
AcDbEntity
  8
1
  6
Continuous
 62
     7
100
AcDbLine
 10
132.4142422937784
 20
233.1645063687896
 30
0.0
 11
136.1642387175784
 21
230.9994428515894
 31
0.0
  0
LINE
  5
175
330
1F
100
AcDbEntity
  8
1
  6
Continuous
 62
     7
100
AcDbLine
 10
125.9142440223784
 20
229.4117295541894
 30
0.0
 11
123.1642421745785
 21
230.9994428515894
 31
0.0
  0
LINE
  5
176
330
1F
100
AcDbEntity
  8
1
  6
Continuous
 62
     7
100
AcDbLine
 10
125.9142440223784
 20
232.5871559887895
 30
0.0
 11
123.1642421745785
 21
230.9994428515894
 31
0.0
  0
LINE
  5
177
330
1F
100
AcDbEntity
  8
1
  6
Continuous
 62
     7
100
AcDbLine
 10
128.6642384195784
 20
227.8240163441895
 30
0.0
 11
131.4142402673783
 21
226.2363029741894
 31
0.0
  0
LINE
  5
178
330
1F
100
AcDbEntity
  8
1
  6
Continuous
 62
     7
100
AcDbLine
 10
125.9142440223784
 20
226.2363029741894
 30
0.0
 11
128.6642384195784
 21
227.8240163441895
 31
0.0
  0
LINE
  5
179
330
1F
100
AcDbEntity
  8
1
  6
Continuous
 62
     7
100
AcDbLine
 10
128.6642384195784
 20
226.6693158171894
 30
0.0
 11
132.4142422937784
 21
224.5042523001894
 31
0.0
  0
LINE
  5
17A
330
1F
100
AcDbEntity
  8
1
  6
Continuous
 62
     7
100
AcDbLine
 10
124.9142419957784
 20
224.5042523001894
 30
0.0
 11
128.6642384195784
 21
226.6693158171894
 31
0.0
  0
LINE
  5
17B
330
1F
100
AcDbEntity
  8
1
  6
Continuous
 62
     7
100
AcDbLine
 10
121.1642381215784
 20
230.9994428515894
 30
0.0
 11
124.9142419957784
 21
228.8343792761895
 31
0.0
  0
LINE
  5
17C
330
1F
100
AcDbEntity
  8
0
  6
Continuous
 62
     7
100
AcDbLine
 10
142.1595621871784
 20
105.8407426180827
 30
0.0
 11
140.0389897366564
 21
105.8407426180827
 31
0.0
  0
LINE
  5
17D
330
1F
100
AcDbEntity
  8
1
  6
Continuous
 62
     7
100
AcDbLine
 10
70.1595680805683
 20
88.84074541948763
 30
0.0
 11
72.28194885137827
 21
88.8407156172828
 31
0.0
  0
LINE
  5
17E
330
1F
100
AcDbEntity
  8
0
  6
Continuous
 62
     7
100
AcDbLine
 10
67.15955920697843
 20
85.85302534728271
 30
0.0
 11
67.18059964657846
 21
86.27287301448274
 31
0.0
  0
LINE
  5
17F
330
1F
100
AcDbEntity
  8
0
  6
Continuous
 62
     7
100
AcDbLine
 10
67.18059964657846
 20
86.27287301448274
 30
0.0
 11
67.19197704580097
 21
86.40049296519541
 31
0.0
  0
LINE
  5
180
330
1F
100
AcDbEntity
  8
1
  6
Continuous
 62
     2
100
AcDbLine
 10
74.82248397445433
 20
69.00570513463241
 30
0.0
 11
77.48498397445432
 21
69.00570513463241
 31
0.0
  0
LINE
  5
181
330
1F
100
AcDbEntity
  8
1
  6
Continuous
 62
     2
100
AcDbLine
 10
75.30998397445433
 20
69.64320513463241
 30
0.0
 11
75.30998397445433
 21
69.00570513463241
 31
0.0
  0
LINE
  5
182
330
1F
100
AcDbEntity
  8
1
  6
Continuous
 62
     2
100
AcDbLine
 10
75.30998397445433
 20
69.75570513463241
 30
0.0
 11
76.99748397445433
 21
69.75570513463241
 31
0.0
  0
LINE
  5
183
330
1F
100
AcDbEntity
  8
1
  6
Continuous
 62
     2
100
AcDbLine
 10
76.17248397445432
 20
70.50570513463241
 30
0.0
 11
76.17248397445432
 21
67.95570513463241
 31
0.0
  0
LINE
  5
184
330
1F
100
AcDbEntity
  8
1
  6
Continuous
 62
     2
100
AcDbLine
 10
75.42248397445432
 20
70.50570513463241
 30
0.0
 11
77.07248397445433
 21
70.50570513463241
 31
0.0
  0
LINE
  5
185
330
1F
100
AcDbEntity
  8
1
  6
Continuous
 62
     2
100
AcDbLine
 10
75.23498397445432
 20
70.31820513463241
 30
0.0
 11
74.97248397445433
 21
70.01820513463241
 31
0.0
  0
LINE
  5
186
330
1F
100
AcDbEntity
  8
1
  6
Continuous
 62
     2
100
AcDbLine
 10
75.49748397445433
 20
70.69320513463241
 30
0.0
 11
75.23498397445432
 21
70.31820513463241
 31
0.0
  0
LINE
  5
187
330
1F
100
AcDbEntity
  8
1
  6
Continuous
 62
     2
100
AcDbLine
 10
75.64748397445433
 20
70.95570513463241
 30
0.0
 11
75.49748397445433
 21
70.69320513463241
 31
0.0
  0
LINE
  5
188
330
1F
100
AcDbEntity
  8
1
  6
Continuous
 62
     2
100
AcDbLine
 10
71.97248397445433
 20
68.25570513463241
 30
0.0
 11
71.89748397445433
 21
68.14320513463241
 31
0.0
  0
LINE
  5
189
330
1F
100
AcDbEntity
  8
1
  6
Continuous
 62
     2
100
AcDbLine
 10
72.42248397445432
 20
70.50570513463241
 30
0.0
 11
72.15998397445433
 21
70.88070513463241
 31
0.0
  0
LINE
  5
18A
330
1F
100
AcDbEntity
  8
1
  6
Continuous
 62
     2
100
AcDbLine
 10
72.90998397445433
 20
70.39320513463241
 30
0.0
 11
72.72248397445433
 21
70.13070513463241
 31
0.0
  0
LINE
  5
18B
330
1F
100
AcDbEntity
  8
1
  6
Continuous
 62
     2
100
AcDbLine
 10
73.05998397445433
 20
70.88070513463241
 30
0.0
 11
72.90998397445433
 21
70.39320513463241
 31
0.0
  0
LINE
  5
18C
330
1F
100
AcDbEntity
  8
1
  6
Continuous
 62
     2
100
AcDbLine
 10
74.14748397445433
 20
70.39320513463241
 30
0.0
 11
72.90998397445433
 21
70.39320513463241
 31
0.0
  0
LINE
  5
18D
330
1F
100
AcDbEntity
  8
1
  6
Continuous
 62
     2
100
AcDbLine
 10
73.47248397445433
 20
69.75570513463241
 30
0.0
 11
73.47248397445433
 21
70.95570513463241
 31
0.0
  0
LINE
  5
18E
330
1F
100
AcDbEntity
  8
1
  6
Continuous
 62
     2
100
AcDbLine
 10
74.33498397445433
 20
69.75570513463241
 30
0.0
 11
72.72248397445433
 21
69.75570513463241
 31
0.0
  0
LINE
  5
18F
330
1F
100
AcDbEntity
  8
1
  6
Continuous
 62
     2
100
AcDbLine
 10
73.05998397445433
 20
68.63070513463241
 30
0.0
 11
73.99748397445433
 21
68.63070513463241
 31
0.0
  0
LINE
  5
190
330
1F
100
AcDbEntity
  8
1
  6
Continuous
 62
     2
100
AcDbLine
 10
73.05998397445433
 20
69.38070513463241
 30
0.0
 11
73.05998397445433
 21
68.63070513463241
 31
0.0
  0
LINE
  5
191
330
1F
100
AcDbEntity
  8
1
  6
Continuous
 62
     2
100
AcDbLine
 10
73.99748397445433
 20
69.38070513463241
 30
0.0
 11
73.05998397445433
 21
69.38070513463241
 31
0.0
  0
LINE
  5
192
330
1F
100
AcDbEntity
  8
1
  6
Continuous
 62
     2
100
AcDbLine
 10
73.99748397445433
 20
68.63070513463241
 30
0.0
 11
73.99748397445433
 21
69.38070513463241
 31
0.0
  0
LINE
  5
193
330
1F
100
AcDbEntity
  8
1
  6
Continuous
 62
     2
100
AcDbLine
 10
72.72248397445433
 20
68.14320513463241
 30
0.0
 11
74.40998397445433
 21
68.14320513463241
 31
0.0
  0
LINE
  5
194
330
1F
100
AcDbEntity
  8
1
  6
Continuous
 62
     2
100
AcDbLine
 10
72.57248397445433
 20
68.25570513463241
 30
0.0
 11
72.72248397445433
 21
68.14320513463241
 31
0.0
  0
LINE
  5
195
330
1F
100
AcDbEntity
  8
1
  6
Continuous
 62
     2
100
AcDbLine
 10
72.42248397445432
 20
68.63070513463241
 30
0.0
 11
72.57248397445433
 21
68.25570513463241
 31
0.0
  0
LINE
  5
196
330
1F
100
AcDbEntity
  8
1
  6
Continuous
 62
     2
100
AcDbLine
 10
72.42248397445432
 20
69.64320513463241
 30
0.0
 11
71.89748397445433
 21
69.64320513463241
 31
0.0
  0
LINE
  5
197
330
1F
100
AcDbEntity
  8
1
  6
Continuous
 62
     2
100
AcDbLine
 10
72.42248397445432
 20
68.63070513463241
 30
0.0
 11
72.42248397445432
 21
69.64320513463241
 31
0.0
  0
LINE
  5
198
330
1F
100
AcDbEntity
  8
1
  6
Continuous
 62
     2
100
AcDbLine
 10
71.97248397445433
 20
68.25570513463241
 30
0.0
 11
72.42248397445432
 21
68.63070513463241
 31
0.0
  0
LINE
  5
199
330
1F
100
AcDbEntity
  8
1
  6
Continuous
 62
     2
100
AcDbLine
 10
70.80998397445433
 20
68.33070513463241
 30
0.0
 11
70.65998397445433
 21
68.81820513463241
 31
0.0
  0
LINE
  5
19A
330
1F
100
AcDbEntity
  8
1
  6
Continuous
 62
     2
100
AcDbLine
 10
71.14748397445433
 20
67.95570513463241
 30
0.0
 11
70.80998397445433
 21
67.95570513463241
 31
0.0
  0
LINE
  5
19B
330
1F
100
AcDbEntity
  8
1
  6
Continuous
 62
     2
100
AcDbLine
 10
71.14748397445433
 20
69.45570513463241
 30
0.0
 11
71.14748397445433
 21
67.95570513463241
 31
0.0
  0
LINE
  5
19C
330
1F
100
AcDbEntity
  8
1
  6
Continuous
 62
     2
100
AcDbLine
 10
71.33498397445433
 20
70.01820513463241
 30
0.0
 11
70.17248397445432
 21
70.01820513463241
 31
0.0
  0
LINE
  5
19D
330
1F
100
AcDbEntity
  8
1
  6
Continuous
 62
     2
100
AcDbLine
 10
70.05998397445433
 20
70.50570513463241
 30
0.0
 11
71.33498397445433
 21
70.50570513463241
 31
0.0
  0
LINE
  5
19E
330
1F
100
AcDbEntity
  8
1
  6
Continuous
 62
     2
100
AcDbLine
 10
70.58498397445433
 20
69.64320513463241
 30
0.0
 11
70.65998397445433
 21
70.76820513463241
 31
0.0
  0
LINE
  5
19F
330
1F
100
AcDbEntity
  8
1
  6
Continuous
 62
     2
100
AcDbLine
 10
70.32248397445433
 20
68.70570513463241
 30
0.0
 11
70.58498397445433
 21
69.64320513463241
 31
0.0
  0
LINE
  5
1A0
330
1F
100
AcDbEntity
  8
1
  6
Continuous
 62
     2
100
AcDbLine
 10
69.98498397445432
 20
68.14320513463241
 30
0.0
 11
70.32248397445433
 21
68.70570513463241
 31
0.0
  0
LINE
  5
1A1
330
1F
100
AcDbEntity
  8
1
  6
Continuous
 62
     2
100
AcDbLine
 10
71.48498397445432
 20
69.08070513463241
 30
0.0
 11
70.05998397445433
 21
69.08070513463241
 31
0.0
  0
LINE
  5
1A2
330
1F
100
AcDbEntity
  8
1
  6
Continuous
 62
     2
100
AcDbLine
 10
69.98498397445432
 20
69.64320513463241
 30
0.0
 11
71.48498397445432
 21
69.64320513463241
 31
0.0
  0
LINE
  5
1A3
330
1F
100
AcDbEntity
  8
1
  6
Continuous
 62
     2
100
AcDbLine
 10
69.49748397445433
 20
68.25570513463241
 30
0.0
 11
69.49748397445433
 21
69.75570513463241
 31
0.0
  0
LINE
  5
1A4
330
1F
100
AcDbEntity
  8
1
  6
Continuous
 62
     2
100
AcDbLine
 10
69.08498397445433
 20
69.00570513463241
 30
0.0
 11
69.23498397445432
 21
68.51820513463241
 31
0.0
  0
LINE
  5
1A5
330
1F
100
AcDbEntity
  8
1
  6
Continuous
 62
     2
100
AcDbLine
 10
69.15998397445433
 20
70.13070513463241
 30
0.0
 11
68.82248397445433
 21
69.45570513463241
 31
0.0
  0
LINE
  5
1A6
330
1F
100
AcDbEntity
  8
1
  6
Continuous
 62
     2
100
AcDbLine
 10
69.49748397445433
 20
70.76820513463241
 30
0.0
 11
69.15998397445433
 21
70.13070513463241
 31
0.0
  0
LINE
  5
1A7
330
1F
100
AcDbEntity
  8
1
  6
Continuous
 62
     2
100
AcDbLine
 10
69.98498397445432
 20
70.20570513463241
 30
0.0
 11
69.49748397445433
 21
70.76820513463241
 31
0.0
  0
LINE
  5
1A8
330
1F
100
AcDbEntity
  8
1
  6
Continuous
 62
     2
100
AcDbLine
 10
69.15998397445433
 20
69.75570513463241
 30
0.0
 11
69.90998397445433
 21
69.75570513463241
 31
0.0
  0
LINE
  5
1A9
330
1F
100
AcDbEntity
  8
1
  6
Continuous
 62
     2
100
AcDbLine
 10
69.90998397445433
 20
69.26820513463241
 30
0.0
 11
69.08498397445433
 21
69.26820513463241
 31
0.0
  0
LINE
  5
1AA
330
1F
100
AcDbEntity
  8
1
  6
Continuous
 62
     2
100
AcDbLine
 10
69.72248397445433
 20
68.51820513463241
 30
0.0
 11
69.83498397445433
 21
69.00570513463241
 31
0.0
  0
LINE
  5
1AB
330
1F
100
AcDbEntity
  8
1
  6
Continuous
 62
     2
100
AcDbLine
 10
68.97248397445433
 20
68.06820513463241
 30
0.0
 11
69.90998397445433
 21
68.44320513463241
 31
0.0
  0
LINE
  5
1AC
330
1F
100
AcDbEntity
  8
1
  6
Continuous
 62
     2
100
AcDbLine
 10
82.75373397445432
 20
62.61260270085045
 30
0.0
 11
82.56623397445432
 21
62.31260270085045
 31
0.0
  0
LINE
  5
1AD
330
1F
100
AcDbEntity
  8
1
  6
Continuous
 62
     2
100
AcDbLine
 10
82.90373397445433
 20
63.06260270085045
 30
0.0
 11
82.75373397445432
 21
62.61260270085045
 31
0.0
  0
LINE
  5
1AE
330
1F
100
AcDbEntity
  8
1
  6
Continuous
 62
     2
100
AcDbLine
 10
82.90373397445433
 20
64.56260270085045
 30
0.0
 11
82.90373397445433
 21
63.06260270085045
 31
0.0
  0
LINE
  5
1AF
330
1F
100
AcDbEntity
  8
1
  6
Continuous
 62
     2
100
AcDbLine
 10
82.75373397445432
 20
65.05010270085045
 30
0.0
 11
82.90373397445433
 21
64.56260270085045
 31
0.0
  0
LINE
  5
1B0
330
1F
100
AcDbEntity
  8
1
  6
Continuous
 62
     2
100
AcDbLine
 10
82.56623397445432
 20
65.31260270085045
 30
0.0
 11
82.75373397445432
 21
65.05010270085045
 31
0.0
  0
LINE
  5
1B1
330
1F
100
AcDbEntity
  8
1
  6
Continuous
 62
     2
100
AcDbLine
 10
80.57873397445432
 20
62.42510270085045
 30
0.0
 11
80.31623397445432
 21
62.42510270085045
 31
0.0
  0
LINE
  5
1B2
330
1F
100
AcDbEntity
  8
1
  6
Continuous
 62
     2
100
AcDbLine
 10
80.65373397445433
 20
62.61260270085045
 30
0.0
 11
80.57873397445432
 21
62.42510270085045
 31
0.0
  0
LINE
  5
1B3
330
1F
100
AcDbEntity
  8
1
  6
Continuous
 62
     2
100
AcDbLine
 10
80.65373397445433
 20
64.18760270085045
 30
0.0
 11
80.65373397445433
 21
62.61260270085045
 31
0.0
  0
LINE
  5
1B4
330
1F
100
AcDbEntity
  8
1
  6
Continuous
 62
     2
100
AcDbLine
 10
80.05373397445433
 20
64.18760270085045
 30
0.0
 11
81.06623397445432
 21
64.18760270085045
 31
0.0
  0
LINE
  5
1B5
330
1F
100
AcDbEntity
  8
1
  6
Continuous
 62
     2
100
AcDbLine
 10
80.16623397445433
 20
64.93760270085045
 30
0.0
 11
80.91623397445433
 21
64.93760270085045
 31
0.0
  0
LINE
  5
1B6
330
1F
100
AcDbEntity
  8
1
  6
Continuous
 62
     2
100
AcDbLine
 10
79.75373397445432
 20
63.92510270085045
 30
0.0
 11
79.75373397445432
 21
62.42510270085045
 31
0.0
  0
LINE
  5
1B7
330
1F
100
AcDbEntity
  8
1
  6
Continuous
 62
     2
100
AcDbLine
 10
79.56623397445432
 20
63.62510270085045
 30
0.0
 11
79.30373397445433
 21
63.36260270085045
 31
0.0
  0
LINE
  5
1B8
330
1F
100
AcDbEntity
  8
1
  6
Continuous
 62
     2
100
AcDbLine
 10
79.82873397445432
 20
64.11260270085045
 30
0.0
 11
79.56623397445432
 21
63.62510270085045
 31
0.0
  0
LINE
  5
1B9
330
1F
100
AcDbEntity
  8
1
  6
Continuous
 62
     2
100
AcDbLine
 10
80.05373397445433
 20
64.56260270085045
 30
0.0
 11
79.82873397445432
 21
64.11260270085045
 31
0.0
  0
LINE
  5
1BA
330
1F
100
AcDbEntity
  8
1
  6
Continuous
 62
     2
100
AcDbLine
 10
79.90373397445433
 20
65.12510270085045
 30
0.0
 11
79.49123397445433
 21
64.48760270085045
 31
0.0
  0
LINE
  5
1BB
330
1F
100
AcDbEntity
  8
1
  6
Continuous
 62
     2
100
AcDbLine
 10
79.00373397445432
 20
64.48760270085045
 30
0.0
 11
79.30373397445433
 21
63.73760270085045
 31
0.0
  0
LINE
  5
1BC
330
1F
100
AcDbEntity
  8
1
  6
Continuous
 62
     2
100
AcDbLine
 10
78.55373397445433
 20
63.43760270085045
 30
0.0
 11
78.47873397445433
 21
63.25010270085045
 31
0.0
  0
LINE
  5
1BD
330
1F
100
AcDbEntity
  8
1
  6
Continuous
 62
     2
100
AcDbLine
 10
78.74123397445433
 20
63.73760270085045
 30
0.0
 11
78.55373397445433
 21
63.43760270085045
 31
0.0
  0
LINE
  5
1BE
330
1F
100
AcDbEntity
  8
1
  6
Continuous
 62
     2
100
AcDbLine
 10
79.00373397445432
 20
64.48760270085045
 30
0.0
 11
78.74123397445433
 21
63.73760270085045
 31
0.0
  0
LINE
  5
1BF
330
1F
100
AcDbEntity
  8
1
  6
Continuous
 62
     2
100
AcDbLine
 10
79.00373397445432
 20
65.23760270085045
 30
0.0
 11
79.00373397445432
 21
62.42510270085045
 31
0.0
  0
LINE
  5
1C0
330
1F
100
AcDbEntity
  8
1
  6
Continuous
 62
     2
100
AcDbLine
 10
78.55373397445433
 20
64.48760270085045
 30
0.0
 11
79.41623397445433
 21
64.48760270085045
 31
0.0
  0
LINE
  5
1C1
330
1F
100
AcDbEntity
  8
1
  6
Continuous
 62
     2
100
AcDbLine
 10
75.66623397445433
 20
62.31260270085045
 30
0.0
 11
77.80373397445433
 21
62.31260270085045
 31
0.0
  0
LINE
  5
1C2
330
1F
100
AcDbEntity
  8
1
  6
Continuous
 62
     2
100
AcDbLine
 10
75.74123397445433
 20
62.87510270085045
 30
0.0
 11
75.66623397445433
 21
62.31260270085045
 31
0.0
  0
LINE
  5
1C3
330
1F
100
AcDbEntity
  8
1
  6
Continuous
 62
     2
100
AcDbLine
 10
75.81623397445432
 20
63.06260270085045
 30
0.0
 11
75.74123397445433
 21
62.87510270085045
 31
0.0
  0
LINE
  5
1C4
330
1F
100
AcDbEntity
  8
1
  6
Continuous
 62
     2
100
AcDbLine
 10
76.07873397445432
 20
63.25010270085045
 30
0.0
 11
75.81623397445432
 21
63.06260270085045
 31
0.0
  0
LINE
  5
1C5
330
1F
100
AcDbEntity
  8
1
  6
Continuous
 62
     2
100
AcDbLine
 10
77.39123397445432
 20
63.43760270085045
 30
0.0
 11
76.07873397445432
 21
63.25010270085045
 31
0.0
  0
LINE
  5
1C6
330
1F
100
AcDbEntity
  8
1
  6
Continuous
 62
     2
100
AcDbLine
 10
77.72873397445433
 20
63.62510270085045
 30
0.0
 11
77.39123397445432
 21
63.43760270085045
 31
0.0
  0
LINE
  5
1C7
330
1F
100
AcDbEntity
  8
1
  6
Continuous
 62
     2
100
AcDbLine
 10
77.80373397445433
 20
63.81260270085045
 30
0.0
 11
77.72873397445433
 21
63.62510270085045
 31
0.0
  0
LINE
  5
1C8
330
1F
100
AcDbEntity
  8
1
  6
Continuous
 62
     2
100
AcDbLine
 10
77.80373397445433
 20
64.30010270085045
 30
0.0
 11
77.80373397445433
 21
63.81260270085045
 31
0.0
  0
LINE
  5
1C9
330
1F
100
AcDbEntity
  8
1
  6
Continuous
 62
     2
100
AcDbLine
 10
77.72873397445433
 20
64.48760270085045
 30
0.0
 11
77.80373397445433
 21
64.30010270085045
 31
0.0
  0
LINE
  5
1CA
330
1F
100
AcDbEntity
  8
1
  6
Continuous
 62
     2
100
AcDbLine
 10
77.39123397445432
 20
64.67510270085045
 30
0.0
 11
77.72873397445433
 21
64.48760270085045
 31
0.0
  0
LINE
  5
1CB
330
1F
100
AcDbEntity
  8
1
  6
Continuous
 62
     2
100
AcDbLine
 10
77.05373397445433
 20
64.75010270085045
 30
0.0
 11
77.39123397445432
 21
64.67510270085045
 31
0.0
  0
LINE
  5
1CC
330
1F
100
AcDbEntity
  8
1
  6
Continuous
 62
     2
100
AcDbLine
 10
76.49123397445433
 20
64.75010270085045
 30
0.0
 11
77.05373397445433
 21
64.75010270085045
 31
0.0
  0
LINE
  5
1CD
330
1F
100
AcDbEntity
  8
1
  6
Continuous
 62
     2
100
AcDbLine
 10
76.15373397445433
 20
64.67510270085045
 30
0.0
 11
76.49123397445433
 21
64.75010270085045
 31
0.0
  0
LINE
  5
1CE
330
1F
100
AcDbEntity
  8
1
  6
Continuous
 62
     2
100
AcDbLine
 10
75.81623397445432
 20
64.48760270085045
 30
0.0
 11
76.15373397445433
 21
64.67510270085045
 31
0.0
  0
LINE
  5
1CF
330
1F
100
AcDbEntity
  8
1
  6
Continuous
 62
     2
100
AcDbLine
 10
75.74123397445433
 20
64.30010270085045
 30
0.0
 11
75.81623397445432
 21
64.48760270085045
 31
0.0
  0
LINE
  5
1D0
330
1F
100
AcDbEntity
  8
1
  6
Continuous
 62
     2
100
AcDbLine
 10
74.16623397445433
 20
64.30010270085045
 30
0.0
 11
74.65373397445433
 21
63.73760270085045
 31
0.0
  0
LINE
  5
1D1
330
1F
100
AcDbEntity
  8
1
  6
Continuous
 62
     2
100
AcDbLine
 10
74.99123397445433
 20
64.93760270085045
 30
0.0
 11
72.47873397445433
 21
64.93760270085045
 31
0.0
  0
LINE
  5
1D2
330
1F
100
AcDbEntity
  8
1
  6
Continuous
 62
     2
100
AcDbLine
 10
73.75373397445432
 20
62.31260270085045
 30
0.0
 11
73.75373397445432
 21
64.93760270085045
 31
0.0
  0
LINE
  5
1D3
330
1F
100
AcDbEntity
  8
1
  6
Continuous
 62
     2
100
AcDbLine
 10
70.22873397445433
 20
62.87510270085045
 30
0.0
 11
71.57873397445432
 21
62.87510270085045
 31
0.0
  0
LINE
  5
1D4
330
1F
100
AcDbEntity
  8
1
  6
Continuous
 62
     2
100
AcDbLine
 10
71.57873397445432
 20
62.42510270085045
 30
0.0
 11
71.57873397445432
 21
63.36260270085045
 31
0.0
  0
LINE
  5
1D5
330
1F
100
AcDbEntity
  8
1
  6
Continuous
 62
     2
100
AcDbLine
 10
70.22873397445433
 20
62.42510270085045
 30
0.0
 11
71.57873397445432
 21
62.42510270085045
 31
0.0
  0
LINE
  5
1D6
330
1F
100
AcDbEntity
  8
1
  6
Continuous
 62
     2
100
AcDbLine
 10
70.22873397445433
 20
63.36260270085045
 30
0.0
 11
70.22873397445433
 21
62.42510270085045
 31
0.0
  0
LINE
  5
1D7
330
1F
100
AcDbEntity
  8
1
  6
Continuous
 62
     2
100
AcDbLine
 10
71.57873397445432
 20
63.36260270085045
 30
0.0
 11
70.22873397445433
 21
63.36260270085045
 31
0.0
  0
LINE
  5
1D8
330
1F
100
AcDbEntity
  8
1
  6
Continuous
 62
     2
100
AcDbLine
 10
71.65373397445433
 20
64.18760270085045
 30
0.0
 11
72.06623397445432
 21
63.73760270085045
 31
0.0
  0
LINE
  5
1D9
330
1F
100
AcDbEntity
  8
1
  6
Continuous
 62
     2
100
AcDbLine
 10
71.39123397445432
 20
64.56260270085045
 30
0.0
 11
71.65373397445433
 21
64.18760270085045
 31
0.0
  0
LINE
  5
1DA
330
1F
100
AcDbEntity
  8
1
  6
Continuous
 62
     2
100
AcDbLine
 10
71.39123397445432
 20
65.05010270085045
 30
0.0
 11
71.39123397445432
 21
63.62510270085045
 31
0.0
  0
LINE
  5
1DB
330
1F
100
AcDbEntity
  8
1
  6
Continuous
 62
     2
100
AcDbLine
 10
70.97873397445433
 20
63.92510270085045
 30
0.0
 11
71.39123397445432
 21
64.56260270085045
 31
0.0
  0
LINE
  5
1DC
330
1F
100
AcDbEntity
  8
1
  6
Continuous
 62
     2
100
AcDbLine
 10
70.75373397445432
 20
63.73760270085045
 30
0.0
 11
70.97873397445433
 21
63.92510270085045
 31
0.0
  0
LINE
  5
1DD
330
1F
100
AcDbEntity
  8
1
  6
Continuous
 62
     2
100
AcDbLine
 10
70.49123397445433
 20
64.30010270085045
 30
0.0
 11
70.75373397445432
 21
64.00010270085045
 31
0.0
  0
LINE
  5
1DE
330
1F
100
AcDbEntity
  8
1
  6
Continuous
 62
     2
100
AcDbLine
 10
70.07873397445432
 20
64.11260270085045
 30
0.0
 11
70.30373397445433
 21
64.56260270085045
 31
0.0
  0
LINE
  5
1DF
330
1F
100
AcDbEntity
  8
1
  6
Continuous
 62
     2
100
AcDbLine
 10
69.81623397445432
 20
63.81260270085045
 30
0.0
 11
70.07873397445432
 21
64.11260270085045
 31
0.0
  0
LINE
  5
1E0
330
1F
100
AcDbEntity
  8
1
  6
Continuous
 62
     2
100
AcDbLine
 10
70.30373397445433
 20
65.05010270085045
 30
0.0
 11
70.30373397445433
 21
63.62510270085045
 31
0.0
  0
LINE
  5
1E1
330
1F
100
AcDbEntity
  8
1
  6
Continuous
 62
     2
100
AcDbLine
 10
70.75373397445432
 20
64.56260270085045
 30
0.0
 11
69.89123397445432
 21
64.56260270085045
 31
0.0
  0
LINE
  5
1E2
330
1F
100
AcDbEntity
  8
1
  6
Continuous
 62
     2
100
AcDbLine
 10
71.91623397445433
 20
64.56260270085045
 30
0.0
 11
70.90373397445433
 21
64.56260270085045
 31
0.0
  0
LINE
  5
1E3
330
1F
100
AcDbEntity
  8
1
  6
Continuous
 62
     2
100
AcDbLine
 10
69.55373397445433
 20
65.23760270085045
 30
0.0
 11
71.91623397445433
 21
65.23760270085045
 31
0.0
  0
LINE
  5
1E4
330
1F
100
AcDbEntity
  8
1
  6
Continuous
 62
     2
100
AcDbLine
 10
69.55373397445433
 20
63.62510270085045
 30
0.0
 11
69.55373397445433
 21
65.23760270085045
 31
0.0
  0
LINE
  5
1E5
330
1F
100
AcDbEntity
  8
1
  6
Continuous
 62
     2
100
AcDbLine
 10
69.47873397445433
 20
62.80010270085045
 30
0.0
 11
69.55373397445433
 21
63.62510270085045
 31
0.0
  0
LINE
  5
1E6
330
1F
100
AcDbEntity
  8
1
  6
Continuous
 62
     2
100
AcDbLine
 10
69.40373397445433
 20
62.50010270085045
 30
0.0
 11
69.47873397445433
 21
62.80010270085045
 31
0.0
  0
LINE
  5
1E7
330
1F
100
AcDbEntity
  8
1
  6
Continuous
 62
     2
100
AcDbLine
 10
68.50373397445432
 20
63.36260270085045
 30
0.0
 11
68.57873397445432
 21
63.55010270085045
 31
0.0
  0
LINE
  5
1E8
330
1F
100
AcDbEntity
  8
1
  6
Continuous
 62
     2
100
AcDbLine
 10
68.05373397445433
 20
63.36260270085045
 30
0.0
 11
68.50373397445432
 21
63.36260270085045
 31
0.0
  0
LINE
  5
1E9
330
1F
100
AcDbEntity
  8
1
  6
Continuous
 62
     2
100
AcDbLine
 10
67.97873397445433
 20
63.55010270085045
 30
0.0
 11
68.05373397445433
 21
63.36260270085045
 31
0.0
  0
LINE
  5
1EA
330
1F
100
AcDbEntity
  8
1
  6
Continuous
 62
     2
100
AcDbLine
 10
67.97873397445433
 20
65.05010270085045
 30
0.0
 11
67.97873397445433
 21
63.55010270085045
 31
0.0
  0
LINE
  5
1EB
330
1F
100
AcDbEntity
  8
1
  6
Continuous
 62
     2
100
AcDbLine
 10
66.47873397445433
 20
65.05010270085045
 30
0.0
 11
68.99123397445433
 21
65.05010270085045
 31
0.0
  0
LINE
  5
1EC
330
1F
100
AcDbEntity
  8
1
  6
Continuous
 62
     2
100
AcDbLine
 10
67.41623397445433
 20
64.00010270085045
 30
0.0
 11
67.41623397445433
 21
65.05010270085045
 31
0.0
  0
LINE
  5
1ED
330
1F
100
AcDbEntity
  8
1
  6
Continuous
 62
     2
100
AcDbLine
 10
67.15373397445433
 20
63.43760270085045
 30
0.0
 11
67.41623397445433
 21
64.00010270085045
 31
0.0
  0
LINE
  5
1EE
330
1F
100
AcDbEntity
  8
1
  6
Continuous
 62
     2
100
AcDbLine
 10
66.89123397445432
 20
63.17510270085045
 30
0.0
 11
67.15373397445433
 21
63.43760270085045
 31
0.0
  0
LINE
  5
1EF
330
1F
100
AcDbEntity
  8
1
  6
Continuous
 62
     2
100
AcDbLine
 10
68.72873397445433
 20
62.50010270085045
 30
0.0
 11
66.74123397445433
 21
62.50010270085045
 31
0.0
  0
LINE
  5
1F0
330
1F
100
AcDbEntity
  8
1
  6
Continuous
 62
     2
100
AcDbLine
 10
68.72873397445433
 20
64.30010270085045
 30
0.0
 11
68.72873397445433
 21
62.50010270085045
 31
0.0
  0
LINE
  5
1F1
330
1F
100
AcDbEntity
  8
1
  6
Continuous
 62
     2
100
AcDbLine
 10
66.74123397445433
 20
64.30010270085045
 30
0.0
 11
68.72873397445433
 21
64.30010270085045
 31
0.0
  0
LINE
  5
1F2
330
1F
100
AcDbEntity
  8
1
  6
Continuous
 62
     2
100
AcDbLine
 10
66.74123397445433
 20
62.50010270085045
 30
0.0
 11
66.74123397445433
 21
64.30010270085045
 31
0.0
  0
LINE
  5
1F3
330
1F
100
AcDbEntity
  8
1
  6
Continuous
 62
     2
100
AcDbLine
 10
64.75373397445432
 20
62.61260270085045
 30
0.0
 11
64.90373397445433
 21
62.31260270085045
 31
0.0
  0
LINE
  5
1F4
330
1F
100
AcDbEntity
  8
1
  6
Continuous
 62
     2
100
AcDbLine
 10
64.56623397445432
 20
63.06260270085045
 30
0.0
 11
64.75373397445432
 21
62.61260270085045
 31
0.0
  0
LINE
  5
1F5
330
1F
100
AcDbEntity
  8
1
  6
Continuous
 62
     2
100
AcDbLine
 10
64.56623397445432
 20
64.56260270085045
 30
0.0
 11
64.56623397445432
 21
63.06260270085045
 31
0.0
  0
LINE
  5
1F6
330
1F
100
AcDbEntity
  8
1
  6
Continuous
 62
     2
100
AcDbLine
 10
64.75373397445432
 20
65.05010270085045
 30
0.0
 11
64.56623397445432
 21
64.56260270085045
 31
0.0
  0
LINE
  5
1F7
330
1F
100
AcDbEntity
  8
1
  6
Continuous
 62
     2
100
AcDbLine
 10
64.90373397445433
 20
65.31260270085045
 30
0.0
 11
64.75373397445432
 21
65.05010270085045
 31
0.0
  0
LINE
  5
1F8
330
1F
100
AcDbEntity
  8
1
  6
Continuous
 62
     2
100
AcDbLine
 10
57.56944661854946
 20
123.2809419991705
 30
0.0
 11
57.56944661854946
 21
122.0809419991705
 31
0.0
  0
LINE
  5
1F9
330
1F
100
AcDbEntity
  8
1
  6
Continuous
 62
     2
100
AcDbLine
 10
56.21944661854946
 20
122.6809419991705
 30
0.0
 11
58.01944661854945
 21
122.6809419991705
 31
0.0
  0
LINE
  5
1FA
330
1F
100
AcDbEntity
  8
1
  6
Continuous
 62
     2
100
AcDbLine
 10
57.56944661854946
 20
125.0809419991705
 30
0.0
 11
56.21944661854946
 21
122.6809419991705
 31
0.0
  0
LINE
  5
1FB
330
1F
100
AcDbEntity
  8
1
  6
Continuous
 62
     2
100
AcDbLine
 10
55.31944661854946
 20
125.0809419991705
 30
0.0
 11
55.31944661854946
 21
122.0809419991705
 31
0.0
  0
LINE
  5
1FC
330
1F
100
AcDbEntity
  8
1
  6
Continuous
 62
     2
100
AcDbLine
 10
54.41944661854946
 20
124.1809419991705
 30
0.0
 11
55.31944661854946
 21
125.0809419991705
 31
0.0
  0
LINE
  5
1FD
330
1F
100
AcDbEntity
  8
1
  6
Continuous
 62
     2
100
AcDbLine
 10
52.76944661854946
 20
124.8934419991705
 30
0.0
 11
52.76944661854946
 21
122.2684419991705
 31
0.0
  0
LINE
  5
1FE
330
1F
100
AcDbEntity
  8
1
  6
Continuous
 62
     2
100
AcDbLine
 10
53.81944661854946
 20
122.2684419991705
 30
0.0
 11
53.81944661854946
 21
124.2559419991705
 31
0.0
  0
LINE
  5
1FF
330
1F
100
AcDbEntity
  8
1
  6
Continuous
 62
     2
100
AcDbLine
 10
51.68194661854946
 20
122.2684419991705
 30
0.0
 11
53.81944661854946
 21
122.2684419991705
 31
0.0
  0
LINE
  5
200
330
1F
100
AcDbEntity
  8
1
  6
Continuous
 62
     2
100
AcDbLine
 10
51.68194661854946
 20
124.2559419991705
 30
0.0
 11
51.68194661854946
 21
122.2684419991705
 31
0.0
  0
LINE
  5
201
330
1F
100
AcDbEntity
  8
1
  6
Continuous
 62
     2
100
AcDbLine
 10
48.11944661854945
 20
125.0809419991705
 30
0.0
 11
48.11944661854945
 21
122.0809419991705
 31
0.0
  0
LINE
  5
202
330
1F
100
AcDbEntity
  8
1
  6
Continuous
 62
     2
100
AcDbLine
 10
47.21944661854946
 20
124.1809419991705
 30
0.0
 11
48.11944661854945
 21
125.0809419991705
 31
0.0
  0
LINE
  5
203
330
1F
100
AcDbEntity
  8
1
  6
Continuous
 62
     2
100
AcDbLine
 10
45.86944661854946
 20
123.2809419991705
 30
0.0
 11
45.86944661854946
 21
122.0809419991705
 31
0.0
  0
LINE
  5
204
330
1F
100
AcDbEntity
  8
1
  6
Continuous
 62
     2
100
AcDbLine
 10
44.51944661854946
 20
122.6809419991705
 30
0.0
 11
46.31944661854946
 21
122.6809419991705
 31
0.0
  0
LINE
  5
205
330
1F
100
AcDbEntity
  8
1
  6
Continuous
 62
     2
100
AcDbLine
 10
45.86944661854946
 20
125.0809419991705
 30
0.0
 11
44.51944661854946
 21
122.6809419991705
 31
0.0
  0
LINE
  5
206
330
1F
100
AcDbEntity
  8
1
  6
Continuous
 62
     2
100
AcDbLine
 10
43.16944661854946
 20
123.2809419991705
 30
0.0
 11
43.16944661854946
 21
122.0809419991705
 31
0.0
  0
LINE
  5
207
330
1F
100
AcDbEntity
  8
1
  6
Continuous
 62
     2
100
AcDbLine
 10
41.81944661854946
 20
122.6809419991705
 30
0.0
 11
43.61944661854945
 21
122.6809419991705
 31
0.0
  0
LINE
  5
208
330
1F
100
AcDbEntity
  8
1
  6
Continuous
 62
     2
100
AcDbLine
 10
43.16944661854946
 20
125.0809419991705
 30
0.0
 11
41.81944661854946
 21
122.6809419991705
 31
0.0
  0
LINE
  5
209
330
1F
100
AcDbEntity
  8
1
  6
Continuous
 62
     2
100
AcDbLine
 10
40.99444661854945
 20
122.2309419991705
 30
0.0
 11
40.99444661854945
 21
122.1559419991705
 31
0.0
  0
LINE
  5
20A
330
1F
100
AcDbEntity
  8
1
  6
Continuous
 62
     2
100
AcDbLine
 10
40.91944661854946
 20
122.2309419991705
 30
0.0
 11
40.99444661854945
 21
122.2309419991705
 31
0.0
  0
LINE
  5
20B
330
1F
100
AcDbEntity
  8
1
  6
Continuous
 62
     2
100
AcDbLine
 10
40.91944661854946
 20
122.1559419991705
 30
0.0
 11
40.91944661854946
 21
122.2309419991705
 31
0.0
  0
LINE
  5
20C
330
1F
100
AcDbEntity
  8
1
  6
Continuous
 62
     2
100
AcDbLine
 10
40.99444661854945
 20
122.1559419991705
 30
0.0
 11
40.91944661854946
 21
122.1559419991705
 31
0.0
  0
LINE
  5
20D
330
1F
100
AcDbEntity
  8
1
  6
Continuous
 62
     2
100
AcDbLine
 10
41.06944661854946
 20
122.3059419991705
 30
0.0
 11
41.06944661854946
 21
122.0809419991705
 31
0.0
  0
LINE
  5
20E
330
1F
100
AcDbEntity
  8
1
  6
Continuous
 62
     2
100
AcDbLine
 10
40.84444661854946
 20
122.3059419991705
 30
0.0
 11
41.06944661854946
 21
122.3059419991705
 31
0.0
  0
LINE
  5
20F
330
1F
100
AcDbEntity
  8
1
  6
Continuous
 62
     2
100
AcDbLine
 10
40.84444661854946
 20
122.0809419991705
 30
0.0
 11
40.84444661854946
 21
122.3059419991705
 31
0.0
  0
LINE
  5
210
330
1F
100
AcDbEntity
  8
1
  6
Continuous
 62
     2
100
AcDbLine
 10
41.06944661854946
 20
122.0809419991705
 30
0.0
 11
40.84444661854946
 21
122.0809419991705
 31
0.0
  0
LINE
  5
211
330
1F
100
AcDbEntity
  8
1
  6
Continuous
 62
     2
100
AcDbLine
 10
38.66944661854946
 20
124.4059419991705
 30
0.0
 11
39.49444661854946
 21
125.0809419991705
 31
0.0
  0
LINE
  5
212
330
1F
100
AcDbEntity
  8
1
  6
Continuous
 62
     2
100
AcDbLine
 10
38.36944661854946
 20
124.0309419991705
 30
0.0
 11
38.66944661854946
 21
124.4059419991705
 31
0.0
  0
LINE
  5
213
330
1F
100
AcDbEntity
  8
1
  6
Continuous
 62
     2
100
AcDbLine
 10
38.21944661854946
 20
123.7309419991705
 30
0.0
 11
38.36944661854946
 21
124.0309419991705
 31
0.0
  0
LINE
  5
214
330
1F
100
AcDbEntity
  8
1
  6
Continuous
 62
     2
100
AcDbLine
 10
38.14444661854946
 20
123.1309419991705
 30
0.0
 11
38.21944661854946
 21
123.7309419991705
 31
0.0
  0
LINE
  5
215
330
1F
100
AcDbEntity
  8
1
  6
Continuous
 62
     2
100
AcDbLine
 10
38.14444661854946
 20
122.8309419991705
 30
0.0
 11
38.14444661854946
 21
123.1309419991705
 31
0.0
  0
LINE
  5
216
330
1F
100
AcDbEntity
  8
1
  6
Continuous
 62
     2
100
AcDbLine
 10
38.21944661854946
 20
122.5309419991705
 30
0.0
 11
38.14444661854946
 21
122.8309419991705
 31
0.0
  0
LINE
  5
217
330
1F
100
AcDbEntity
  8
1
  6
Continuous
 62
     2
100
AcDbLine
 10
38.36944661854946
 20
122.3059419991705
 30
0.0
 11
38.21944661854946
 21
122.5309419991705
 31
0.0
  0
LINE
  5
218
330
1F
100
AcDbEntity
  8
1
  6
Continuous
 62
     2
100
AcDbLine
 10
38.59444661854946
 20
122.1559419991705
 30
0.0
 11
38.36944661854946
 21
122.3059419991705
 31
0.0
  0
LINE
  5
219
330
1F
100
AcDbEntity
  8
1
  6
Continuous
 62
     2
100
AcDbLine
 10
38.81944661854946
 20
122.0809419991705
 30
0.0
 11
38.59444661854946
 21
122.1559419991705
 31
0.0
  0
LINE
  5
21A
330
1F
100
AcDbEntity
  8
1
  6
Continuous
 62
     2
100
AcDbLine
 10
39.26944661854946
 20
122.0809419991705
 30
0.0
 11
38.81944661854946
 21
122.0809419991705
 31
0.0
  0
LINE
  5
21B
330
1F
100
AcDbEntity
  8
1
  6
Continuous
 62
     2
100
AcDbLine
 10
39.49444661854946
 20
122.1559419991705
 30
0.0
 11
39.26944661854946
 21
122.0809419991705
 31
0.0
  0
LINE
  5
21C
330
1F
100
AcDbEntity
  8
1
  6
Continuous
 62
     2
100
AcDbLine
 10
39.71944661854946
 20
122.3059419991705
 30
0.0
 11
39.49444661854946
 21
122.1559419991705
 31
0.0
  0
LINE
  5
21D
330
1F
100
AcDbEntity
  8
1
  6
Continuous
 62
     2
100
AcDbLine
 10
39.86944661854946
 20
122.5309419991705
 30
0.0
 11
39.71944661854946
 21
122.3059419991705
 31
0.0
  0
LINE
  5
21E
330
1F
100
AcDbEntity
  8
1
  6
Continuous
 62
     2
100
AcDbLine
 10
39.94444661854946
 20
122.8309419991705
 30
0.0
 11
39.86944661854946
 21
122.5309419991705
 31
0.0
  0
LINE
  5
21F
330
1F
100
AcDbEntity
  8
1
  6
Continuous
 62
     2
100
AcDbLine
 10
39.94444661854946
 20
123.1309419991705
 30
0.0
 11
39.94444661854946
 21
122.8309419991705
 31
0.0
  0
LINE
  5
220
330
1F
100
AcDbEntity
  8
1
  6
Continuous
 62
     2
100
AcDbLine
 10
39.86944661854946
 20
123.4309419991705
 30
0.0
 11
39.94444661854946
 21
123.1309419991705
 31
0.0
  0
LINE
  5
221
330
1F
100
AcDbEntity
  8
1
  6
Continuous
 62
     2
100
AcDbLine
 10
39.71944661854946
 20
123.6559419991705
 30
0.0
 11
39.86944661854946
 21
123.4309419991705
 31
0.0
  0
LINE
  5
222
330
1F
100
AcDbEntity
  8
1
  6
Continuous
 62
     2
100
AcDbLine
 10
39.49444661854946
 20
123.8059419991705
 30
0.0
 11
39.71944661854946
 21
123.6559419991705
 31
0.0
  0
LINE
  5
223
330
1F
100
AcDbEntity
  8
1
  6
Continuous
 62
     2
100
AcDbLine
 10
39.26944661854946
 20
123.8809419991705
 30
0.0
 11
39.49444661854946
 21
123.8059419991705
 31
0.0
  0
LINE
  5
224
330
1F
100
AcDbEntity
  8
1
  6
Continuous
 62
     2
100
AcDbLine
 10
38.81944661854946
 20
123.8809419991705
 30
0.0
 11
39.26944661854946
 21
123.8809419991705
 31
0.0
  0
LINE
  5
225
330
1F
100
AcDbEntity
  8
1
  6
Continuous
 62
     2
100
AcDbLine
 10
38.59444661854946
 20
123.8059419991705
 30
0.0
 11
38.81944661854946
 21
123.8809419991705
 31
0.0
  0
LINE
  5
226
330
1F
100
AcDbEntity
  8
1
  6
Continuous
 62
     2
100
AcDbLine
 10
38.36944661854946
 20
123.6559419991705
 30
0.0
 11
38.59444661854946
 21
123.8059419991705
 31
0.0
  0
LINE
  5
227
330
1F
100
AcDbEntity
  8
1
  6
Continuous
 62
     2
100
AcDbLine
 10
38.21944661854946
 20
123.4309419991705
 30
0.0
 11
38.36944661854946
 21
123.6559419991705
 31
0.0
  0
LINE
  5
228
330
1F
100
AcDbEntity
  8
1
  6
Continuous
 62
     2
100
AcDbLine
 10
38.14444661854946
 20
123.1309419991705
 30
0.0
 11
38.21944661854946
 21
123.4309419991705
 31
0.0
  0
LINE
  5
229
330
1F
100
AcDbEntity
  8
1
  6
Continuous
 62
     2
100
AcDbLine
 10
35.44444661854946
 20
122.0809419991705
 30
0.0
 11
37.24444661854945
 21
122.0809419991705
 31
0.0
  0
LINE
  5
22A
330
1F
100
AcDbEntity
  8
1
  6
Continuous
 62
     2
100
AcDbLine
 10
37.09444661854946
 20
124.0309419991705
 30
0.0
 11
35.44444661854946
 21
122.0809419991705
 31
0.0
  0
LINE
  5
22B
330
1F
100
AcDbEntity
  8
1
  6
Continuous
 62
     2
100
AcDbLine
 10
37.24444661854945
 20
124.3309419991705
 30
0.0
 11
37.09444661854946
 21
124.0309419991705
 31
0.0
  0
LINE
  5
22C
330
1F
100
AcDbEntity
  8
1
  6
Continuous
 62
     2
100
AcDbLine
 10
37.24444661854945
 20
124.6309419991705
 30
0.0
 11
37.24444661854945
 21
124.3309419991705
 31
0.0
  0
LINE
  5
22D
330
1F
100
AcDbEntity
  8
1
  6
Continuous
 62
     2
100
AcDbLine
 10
37.09444661854946
 20
124.8559419991705
 30
0.0
 11
37.24444661854945
 21
124.6309419991705
 31
0.0
  0
LINE
  5
22E
330
1F
100
AcDbEntity
  8
1
  6
Continuous
 62
     2
100
AcDbLine
 10
36.86944661854945
 20
125.0059419991705
 30
0.0
 11
37.09444661854946
 21
124.8559419991705
 31
0.0
  0
LINE
  5
22F
330
1F
100
AcDbEntity
  8
1
  6
Continuous
 62
     2
100
AcDbLine
 10
36.56944661854946
 20
125.0809419991705
 30
0.0
 11
36.86944661854945
 21
125.0059419991705
 31
0.0
  0
LINE
  5
230
330
1F
100
AcDbEntity
  8
1
  6
Continuous
 62
     2
100
AcDbLine
 10
36.11944661854945
 20
125.0809419991705
 30
0.0
 11
36.56944661854946
 21
125.0809419991705
 31
0.0
  0
LINE
  5
231
330
1F
100
AcDbEntity
  8
1
  6
Continuous
 62
     2
100
AcDbLine
 10
35.81944661854946
 20
125.0059419991705
 30
0.0
 11
36.11944661854945
 21
125.0809419991705
 31
0.0
  0
LINE
  5
232
330
1F
100
AcDbEntity
  8
1
  6
Continuous
 62
     2
100
AcDbLine
 10
35.59444661854946
 20
124.8559419991705
 30
0.0
 11
35.81944661854946
 21
125.0059419991705
 31
0.0
  0
LINE
  5
233
330
1F
100
AcDbEntity
  8
1
  6
Continuous
 62
     2
100
AcDbLine
 10
35.44444661854946
 20
124.6309419991705
 30
0.0
 11
35.59444661854946
 21
124.8559419991705
 31
0.0
  0
LINE
  5
234
330
1F
100
AcDbEntity
  8
1
  6
Continuous
 62
     2
100
AcDbLine
 10
32.29444661854946
 20
123.0184419991705
 30
0.0
 11
32.70694661854946
 21
122.5684419991705
 31
0.0
  0
LINE
  5
235
330
1F
100
AcDbEntity
  8
1
  6
Continuous
 62
     2
100
AcDbLine
 10
31.95694661854946
 20
123.5809419991705
 30
0.0
 11
32.29444661854946
 21
123.0184419991705
 31
0.0
  0
LINE
  5
236
330
1F
100
AcDbEntity
  8
1
  6
Continuous
 62
     2
100
AcDbLine
 10
31.69444661854946
 20
124.2559419991705
 30
0.0
 11
31.95694661854946
 21
123.5809419991705
 31
0.0
  0
LINE
  5
237
330
1F
100
AcDbEntity
  8
1
  6
Continuous
 62
     2
100
AcDbLine
 10
32.44444661854946
 20
124.3309419991705
 30
0.0
 11
31.88194661854946
 21
123.8809419991705
 31
0.0
  0
LINE
  5
238
330
1F
100
AcDbEntity
  8
1
  6
Continuous
 62
     2
100
AcDbLine
 10
31.46944661854946
 20
122.0809419991705
 30
0.0
 11
31.20694661854946
 21
122.1934419991705
 31
0.0
  0
LINE
  5
239
330
1F
100
AcDbEntity
  8
1
  6
Continuous
 62
     2
100
AcDbLine
 10
31.46944661854946
 20
125.0059419991705
 30
0.0
 11
31.46944661854946
 21
122.0809419991705
 31
0.0
  0
LINE
  5
23A
330
1F
100
AcDbEntity
  8
1
  6
Continuous
 62
     2
100
AcDbLine
 10
31.05694661854946
 20
124.0684419991705
 30
0.0
 11
30.19444661854946
 21
124.0684419991705
 31
0.0
  0
LINE
  5
23B
330
1F
100
AcDbEntity
  8
1
  6
Continuous
 62
     2
100
AcDbLine
 10
30.86944661854946
 20
123.5059419991705
 30
0.0
 11
31.05694661854946
 21
124.0684419991705
 31
0.0
  0
LINE
  5
23C
330
1F
100
AcDbEntity
  8
1
  6
Continuous
 62
     2
100
AcDbLine
 10
30.53194661854946
 20
122.9434419991705
 30
0.0
 11
30.86944661854946
 21
123.5059419991705
 31
0.0
  0
LINE
  5
23D
330
1F
100
AcDbEntity
  8
1
  6
Continuous
 62
     2
100
AcDbLine
 10
30.19444661854946
 20
122.5684419991705
 30
0.0
 11
30.53194661854946
 21
122.9434419991705
 31
0.0
  0
LINE
  5
23E
330
1F
100
AcDbEntity
  8
1
  6
Continuous
 62
     2
100
AcDbLine
 10
28.28194661854946
 20
125.0809419991705
 30
0.0
 11
28.28194661854946
 21
122.1934419991705
 31
0.0
  0
LINE
  5
23F
330
1F
100
AcDbEntity
  8
1
  6
Continuous
 62
     2
100
AcDbLine
 10
29.29444661854946
 20
123.9559419991705
 30
0.0
 11
28.28194661854946
 21
123.9559419991705
 31
0.0
  0
LINE
  5
240
330
1F
100
AcDbEntity
  8
1
  6
Continuous
 62
     2
100
AcDbLine
 10
27.04444661854946
 20
122.1934419991705
 30
0.0
 11
29.70694661854946
 21
122.1934419991705
 31
0.0
  0
LINE
  5
241
330
1F
100
AcDbEntity
  8
1
  6
Continuous
 62
     2
100
AcDbLine
 10
57.71944661854946
 20
118.2809419991705
 30
0.0
 11
57.71944661854946
 21
117.0809419991705
 31
0.0
  0
LINE
  5
242
330
1F
100
AcDbEntity
  8
1
  6
Continuous
 62
     2
100
AcDbLine
 10
56.36944661854945
 20
117.6809419991705
 30
0.0
 11
58.16944661854945
 21
117.6809419991705
 31
0.0
  0
LINE
  5
243
330
1F
100
AcDbEntity
  8
1
  6
Continuous
 62
     2
100
AcDbLine
 10
57.71944661854946
 20
120.0809419991705
 30
0.0
 11
56.36944661854945
 21
117.6809419991705
 31
0.0
  0
LINE
  5
244
330
1F
100
AcDbEntity
  8
1
  6
Continuous
 62
     2
100
AcDbLine
 10
55.46944661854945
 20
120.0809419991705
 30
0.0
 11
55.46944661854945
 21
117.0809419991705
 31
0.0
  0
LINE
  5
245
330
1F
100
AcDbEntity
  8
1
  6
Continuous
 62
     2
100
AcDbLine
 10
54.56944661854945
 20
119.1809419991705
 30
0.0
 11
55.46944661854945
 21
120.0809419991705
 31
0.0
  0
LINE
  5
246
330
1F
100
AcDbEntity
  8
1
  6
Continuous
 62
     2
100
AcDbLine
 10
52.91944661854945
 20
119.8934419991705
 30
0.0
 11
52.91944661854945
 21
117.2684419991705
 31
0.0
  0
LINE
  5
247
330
1F
100
AcDbEntity
  8
1
  6
Continuous
 62
     2
100
AcDbLine
 10
53.96944661854945
 20
117.2684419991705
 30
0.0
 11
53.96944661854945
 21
119.2559419991705
 31
0.0
  0
LINE
  5
248
330
1F
100
AcDbEntity
  8
1
  6
Continuous
 62
     2
100
AcDbLine
 10
51.83194661854945
 20
117.2684419991705
 30
0.0
 11
53.96944661854945
 21
117.2684419991705
 31
0.0
  0
LINE
  5
249
330
1F
100
AcDbEntity
  8
1
  6
Continuous
 62
     2
100
AcDbLine
 10
51.83194661854945
 20
119.2559419991705
 30
0.0
 11
51.83194661854945
 21
117.2684419991705
 31
0.0
  0
LINE
  5
24A
330
1F
100
AcDbEntity
  8
1
  6
Continuous
 62
     2
100
AcDbLine
 10
41.96944661854946
 20
119.8559419991705
 30
0.0
 11
42.19444661854946
 21
120.0059419991705
 31
0.0
  0
LINE
  5
24B
330
1F
100
AcDbEntity
  8
1
  6
Continuous
 62
     2
100
AcDbLine
 10
41.81944661854946
 20
119.6309419991705
 30
0.0
 11
41.96944661854946
 21
119.8559419991705
 31
0.0
  0
LINE
  5
24C
330
1F
100
AcDbEntity
  8
1
  6
Continuous
 62
     2
100
AcDbLine
 10
41.81944661854946
 20
119.3309419991705
 30
0.0
 11
41.81944661854946
 21
119.6309419991705
 31
0.0
  0
LINE
  5
24D
330
1F
100
AcDbEntity
  8
1
  6
Continuous
 62
     2
100
AcDbLine
 10
41.96944661854946
 20
119.1059419991705
 30
0.0
 11
41.81944661854946
 21
119.3309419991705
 31
0.0
  0
LINE
  5
24E
330
1F
100
AcDbEntity
  8
1
  6
Continuous
 62
     2
100
AcDbLine
 10
42.19444661854946
 20
118.9559419991705
 30
0.0
 11
41.96944661854946
 21
119.1059419991705
 31
0.0
  0
LINE
  5
24F
330
1F
100
AcDbEntity
  8
1
  6
Continuous
 62
     2
100
AcDbLine
 10
42.41944661854946
 20
118.8809419991705
 30
0.0
 11
42.19444661854946
 21
118.9559419991705
 31
0.0
  0
LINE
  5
250
330
1F
100
AcDbEntity
  8
1
  6
Continuous
 62
     2
100
AcDbLine
 10
42.71944661854946
 20
118.8809419991705
 30
0.0
 11
42.41944661854946
 21
118.8809419991705
 31
0.0
  0
LINE
  5
251
330
1F
100
AcDbEntity
  8
1
  6
Continuous
 62
     2
100
AcDbLine
 10
42.94444661854946
 20
118.9559419991705
 30
0.0
 11
42.71944661854946
 21
118.8809419991705
 31
0.0
  0
LINE
  5
252
330
1F
100
AcDbEntity
  8
1
  6
Continuous
 62
     2
100
AcDbLine
 10
43.16944661854946
 20
119.1059419991705
 30
0.0
 11
42.94444661854946
 21
118.9559419991705
 31
0.0
  0
LINE
  5
253
330
1F
100
AcDbEntity
  8
1
  6
Continuous
 62
     2
100
AcDbLine
 10
43.31944661854946
 20
119.3309419991705
 30
0.0
 11
43.16944661854946
 21
119.1059419991705
 31
0.0
  0
LINE
  5
254
330
1F
100
AcDbEntity
  8
1
  6
Continuous
 62
     2
100
AcDbLine
 10
43.31944661854946
 20
119.6309419991705
 30
0.0
 11
43.31944661854946
 21
119.3309419991705
 31
0.0
  0
LINE
  5
255
330
1F
100
AcDbEntity
  8
1
  6
Continuous
 62
     2
100
AcDbLine
 10
43.16944661854946
 20
119.8559419991705
 30
0.0
 11
43.31944661854946
 21
119.6309419991705
 31
0.0
  0
LINE
  5
256
330
1F
100
AcDbEntity
  8
1
  6
Continuous
 62
     2
100
AcDbLine
 10
42.94444661854946
 20
120.0059419991705
 30
0.0
 11
43.16944661854946
 21
119.8559419991705
 31
0.0
  0
LINE
  5
257
330
1F
100
AcDbEntity
  8
1
  6
Continuous
 62
     2
100
AcDbLine
 10
42.71944661854946
 20
120.0809419991705
 30
0.0
 11
42.94444661854946
 21
120.0059419991705
 31
0.0
  0
LINE
  5
258
330
1F
100
AcDbEntity
  8
1
  6
Continuous
 62
     2
100
AcDbLine
 10
42.41944661854946
 20
120.0809419991705
 30
0.0
 11
42.71944661854946
 21
120.0809419991705
 31
0.0
  0
LINE
  5
259
330
1F
100
AcDbEntity
  8
1
  6
Continuous
 62
     2
100
AcDbLine
 10
42.19444661854946
 20
120.0059419991705
 30
0.0
 11
42.41944661854946
 21
120.0809419991705
 31
0.0
  0
LINE
  5
25A
330
1F
100
AcDbEntity
  8
1
  6
Continuous
 62
     2
100
AcDbLine
 10
43.09444661854946
 20
118.7309419991705
 30
0.0
 11
42.71944661854946
 21
118.8809419991705
 31
0.0
  0
LINE
  5
25B
330
1F
100
AcDbEntity
  8
1
  6
Continuous
 62
     2
100
AcDbLine
 10
43.31944661854946
 20
118.5059419991705
 30
0.0
 11
43.09444661854946
 21
118.7309419991705
 31
0.0
  0
LINE
  5
25C
330
1F
100
AcDbEntity
  8
1
  6
Continuous
 62
     2
100
AcDbLine
 10
43.46944661854946
 20
118.2059419991705
 30
0.0
 11
43.31944661854946
 21
118.5059419991705
 31
0.0
  0
LINE
  5
25D
330
1F
100
AcDbEntity
  8
1
  6
Continuous
 62
     2
100
AcDbLine
 10
43.46944661854946
 20
117.7559419991705
 30
0.0
 11
43.46944661854946
 21
118.2059419991705
 31
0.0
  0
LINE
  5
25E
330
1F
100
AcDbEntity
  8
1
  6
Continuous
 62
     2
100
AcDbLine
 10
43.31944661854946
 20
117.4559419991705
 30
0.0
 11
43.46944661854946
 21
117.7559419991705
 31
0.0
  0
LINE
  5
25F
330
1F
100
AcDbEntity
  8
1
  6
Continuous
 62
     2
100
AcDbLine
 10
43.09444661854946
 20
117.2309419991705
 30
0.0
 11
43.31944661854946
 21
117.4559419991705
 31
0.0
  0
LINE
  5
260
330
1F
100
AcDbEntity
  8
1
  6
Continuous
 62
     2
100
AcDbLine
 10
42.79444661854946
 20
117.0809419991705
 30
0.0
 11
43.09444661854946
 21
117.2309419991705
 31
0.0
  0
LINE
  5
261
330
1F
100
AcDbEntity
  8
1
  6
Continuous
 62
     2
100
AcDbLine
 10
42.34444661854946
 20
117.0809419991705
 30
0.0
 11
42.79444661854946
 21
117.0809419991705
 31
0.0
  0
LINE
  5
262
330
1F
100
AcDbEntity
  8
1
  6
Continuous
 62
     2
100
AcDbLine
 10
42.04444661854946
 20
117.2309419991705
 30
0.0
 11
42.34444661854946
 21
117.0809419991705
 31
0.0
  0
LINE
  5
263
330
1F
100
AcDbEntity
  8
1
  6
Continuous
 62
     2
100
AcDbLine
 10
41.81944661854946
 20
117.4559419991705
 30
0.0
 11
42.04444661854946
 21
117.2309419991705
 31
0.0
  0
LINE
  5
264
330
1F
100
AcDbEntity
  8
1
  6
Continuous
 62
     2
100
AcDbLine
 10
41.66944661854946
 20
117.7559419991705
 30
0.0
 11
41.81944661854946
 21
117.4559419991705
 31
0.0
  0
LINE
  5
265
330
1F
100
AcDbEntity
  8
1
  6
Continuous
 62
     2
100
AcDbLine
 10
41.66944661854946
 20
118.2059419991705
 30
0.0
 11
41.66944661854946
 21
117.7559419991705
 31
0.0
  0
LINE
  5
266
330
1F
100
AcDbEntity
  8
1
  6
Continuous
 62
     2
100
AcDbLine
 10
41.81944661854946
 20
118.5059419991705
 30
0.0
 11
41.66944661854946
 21
118.2059419991705
 31
0.0
  0
LINE
  5
267
330
1F
100
AcDbEntity
  8
1
  6
Continuous
 62
     2
100
AcDbLine
 10
42.04444661854946
 20
118.7309419991705
 30
0.0
 11
41.81944661854946
 21
118.5059419991705
 31
0.0
  0
LINE
  5
268
330
1F
100
AcDbEntity
  8
1
  6
Continuous
 62
     2
100
AcDbLine
 10
42.41944661854946
 20
118.8809419991705
 30
0.0
 11
42.04444661854946
 21
118.7309419991705
 31
0.0
  0
LINE
  5
269
330
1F
100
AcDbEntity
  8
1
  6
Continuous
 62
     2
100
AcDbLine
 10
40.84444661854946
 20
117.2309419991705
 30
0.0
 11
40.84444661854946
 21
117.1559419991705
 31
0.0
  0
LINE
  5
26A
330
1F
100
AcDbEntity
  8
1
  6
Continuous
 62
     2
100
AcDbLine
 10
40.76944661854946
 20
117.2309419991705
 30
0.0
 11
40.84444661854946
 21
117.2309419991705
 31
0.0
  0
LINE
  5
26B
330
1F
100
AcDbEntity
  8
1
  6
Continuous
 62
     2
100
AcDbLine
 10
40.76944661854946
 20
117.1559419991705
 30
0.0
 11
40.76944661854946
 21
117.2309419991705
 31
0.0
  0
LINE
  5
26C
330
1F
100
AcDbEntity
  8
1
  6
Continuous
 62
     2
100
AcDbLine
 10
40.84444661854946
 20
117.1559419991705
 30
0.0
 11
40.76944661854946
 21
117.1559419991705
 31
0.0
  0
LINE
  5
26D
330
1F
100
AcDbEntity
  8
1
  6
Continuous
 62
     2
100
AcDbLine
 10
40.91944661854946
 20
117.3059419991705
 30
0.0
 11
40.91944661854946
 21
117.0809419991705
 31
0.0
  0
LINE
  5
26E
330
1F
100
AcDbEntity
  8
1
  6
Continuous
 62
     2
100
AcDbLine
 10
40.69444661854946
 20
117.3059419991705
 30
0.0
 11
40.91944661854946
 21
117.3059419991705
 31
0.0
  0
LINE
  5
26F
330
1F
100
AcDbEntity
  8
1
  6
Continuous
 62
     2
100
AcDbLine
 10
40.69444661854946
 20
117.0809419991705
 30
0.0
 11
40.69444661854946
 21
117.3059419991705
 31
0.0
  0
LINE
  5
270
330
1F
100
AcDbEntity
  8
1
  6
Continuous
 62
     2
100
AcDbLine
 10
40.91944661854946
 20
117.0809419991705
 30
0.0
 11
40.69444661854946
 21
117.0809419991705
 31
0.0
  0
LINE
  5
271
330
1F
100
AcDbEntity
  8
1
  6
Continuous
 62
     2
100
AcDbLine
 10
39.11944661854946
 20
117.0809419991705
 30
0.0
 11
37.99444661854946
 21
117.0809419991705
 31
0.0
  0
LINE
  5
272
330
1F
100
AcDbEntity
  8
1
  6
Continuous
 62
     2
100
AcDbLine
 10
39.34444661854946
 20
117.1559419991705
 30
0.0
 11
39.11944661854946
 21
117.0809419991705
 31
0.0
  0
LINE
  5
273
330
1F
100
AcDbEntity
  8
1
  6
Continuous
 62
     2
100
AcDbLine
 10
39.56944661854946
 20
117.3059419991705
 30
0.0
 11
39.34444661854946
 21
117.1559419991705
 31
0.0
  0
LINE
  5
274
330
1F
100
AcDbEntity
  8
1
  6
Continuous
 62
     2
100
AcDbLine
 10
39.71944661854946
 20
117.5309419991705
 30
0.0
 11
39.56944661854946
 21
117.3059419991705
 31
0.0
  0
LINE
  5
275
330
1F
100
AcDbEntity
  8
1
  6
Continuous
 62
     2
100
AcDbLine
 10
39.79444661854946
 20
117.8309419991705
 30
0.0
 11
39.71944661854946
 21
117.5309419991705
 31
0.0
  0
LINE
  5
276
330
1F
100
AcDbEntity
  8
1
  6
Continuous
 62
     2
100
AcDbLine
 10
39.79444661854946
 20
118.2809419991705
 30
0.0
 11
39.79444661854946
 21
117.8309419991705
 31
0.0
  0
LINE
  5
277
330
1F
100
AcDbEntity
  8
1
  6
Continuous
 62
     2
100
AcDbLine
 10
39.71944661854946
 20
118.5809419991705
 30
0.0
 11
39.79444661854946
 21
118.2809419991705
 31
0.0
  0
LINE
  5
278
330
1F
100
AcDbEntity
  8
1
  6
Continuous
 62
     2
100
AcDbLine
 10
39.49444661854946
 20
118.8059419991705
 30
0.0
 11
39.71944661854946
 21
118.5809419991705
 31
0.0
  0
LINE
  5
279
330
1F
100
AcDbEntity
  8
1
  6
Continuous
 62
     2
100
AcDbLine
 10
39.11944661854946
 20
118.8809419991705
 30
0.0
 11
39.49444661854946
 21
118.8059419991705
 31
0.0
  0
LINE
  5
27A
330
1F
100
AcDbEntity
  8
1
  6
Continuous
 62
     2
100
AcDbLine
 10
37.99444661854946
 20
118.8809419991705
 30
0.0
 11
39.11944661854946
 21
118.8809419991705
 31
0.0
  0
LINE
  5
27B
330
1F
100
AcDbEntity
  8
1
  6
Continuous
 62
     2
100
AcDbLine
 10
37.99444661854946
 20
120.0809419991705
 30
0.0
 11
37.99444661854946
 21
118.8809419991705
 31
0.0
  0
LINE
  5
27C
330
1F
100
AcDbEntity
  8
1
  6
Continuous
 62
     2
100
AcDbLine
 10
39.64444661854946
 20
120.0809419991705
 30
0.0
 11
37.99444661854946
 21
120.0809419991705
 31
0.0
  0
LINE
  5
27D
330
1F
100
AcDbEntity
  8
1
  6
Continuous
 62
     2
100
AcDbLine
 10
35.29444661854946
 20
117.0809419991705
 30
0.0
 11
37.09444661854946
 21
117.0809419991705
 31
0.0
  0
LINE
  5
27E
330
1F
100
AcDbEntity
  8
1
  6
Continuous
 62
     2
100
AcDbLine
 10
36.94444661854946
 20
119.0309419991705
 30
0.0
 11
35.29444661854946
 21
117.0809419991705
 31
0.0
  0
LINE
  5
27F
330
1F
100
AcDbEntity
  8
1
  6
Continuous
 62
     2
100
AcDbLine
 10
37.09444661854946
 20
119.3309419991705
 30
0.0
 11
36.94444661854946
 21
119.0309419991705
 31
0.0
  0
LINE
  5
280
330
1F
100
AcDbEntity
  8
1
  6
Continuous
 62
     2
100
AcDbLine
 10
37.09444661854946
 20
119.6309419991705
 30
0.0
 11
37.09444661854946
 21
119.3309419991705
 31
0.0
  0
LINE
  5
281
330
1F
100
AcDbEntity
  8
1
  6
Continuous
 62
     2
100
AcDbLine
 10
36.94444661854946
 20
119.8559419991705
 30
0.0
 11
37.09444661854946
 21
119.6309419991705
 31
0.0
  0
LINE
  5
282
330
1F
100
AcDbEntity
  8
1
  6
Continuous
 62
     2
100
AcDbLine
 10
36.71944661854946
 20
120.0059419991705
 30
0.0
 11
36.94444661854946
 21
119.8559419991705
 31
0.0
  0
LINE
  5
283
330
1F
100
AcDbEntity
  8
1
  6
Continuous
 62
     2
100
AcDbLine
 10
36.41944661854946
 20
120.0809419991705
 30
0.0
 11
36.71944661854946
 21
120.0059419991705
 31
0.0
  0
LINE
  5
284
330
1F
100
AcDbEntity
  8
1
  6
Continuous
 62
     2
100
AcDbLine
 10
35.96944661854946
 20
120.0809419991705
 30
0.0
 11
36.41944661854946
 21
120.0809419991705
 31
0.0
  0
LINE
  5
285
330
1F
100
AcDbEntity
  8
1
  6
Continuous
 62
     2
100
AcDbLine
 10
35.66944661854946
 20
120.0059419991705
 30
0.0
 11
35.96944661854946
 21
120.0809419991705
 31
0.0
  0
LINE
  5
286
330
1F
100
AcDbEntity
  8
1
  6
Continuous
 62
     2
100
AcDbLine
 10
35.44444661854946
 20
119.8559419991705
 30
0.0
 11
35.66944661854946
 21
120.0059419991705
 31
0.0
  0
LINE
  5
287
330
1F
100
AcDbEntity
  8
1
  6
Continuous
 62
     2
100
AcDbLine
 10
35.29444661854946
 20
119.6309419991705
 30
0.0
 11
35.44444661854946
 21
119.8559419991705
 31
0.0
  0
LINE
  5
288
330
1F
100
AcDbEntity
  8
1
  6
Continuous
 62
     2
100
AcDbLine
 10
31.46944661854946
 20
119.4434419991705
 30
0.0
 11
32.29444661854946
 21
119.4434419991705
 31
0.0
  0
LINE
  5
289
330
1F
100
AcDbEntity
  8
1
  6
Continuous
 62
     2
100
AcDbLine
 10
31.46944661854946
 20
118.9559419991705
 30
0.0
 11
32.29444661854946
 21
118.9559419991705
 31
0.0
  0
LINE
  5
28A
330
1F
100
AcDbEntity
  8
1
  6
Continuous
 62
     2
100
AcDbLine
 10
31.46944661854946
 20
119.8934419991705
 30
0.0
 11
31.46944661854946
 21
118.9559419991705
 31
0.0
  0
LINE
  5
28B
330
1F
100
AcDbEntity
  8
1
  6
Continuous
 62
     2
100
AcDbLine
 10
32.29444661854946
 20
119.8934419991705
 30
0.0
 11
31.46944661854946
 21
119.8934419991705
 31
0.0
  0
LINE
  5
28C
330
1F
100
AcDbEntity
  8
1
  6
Continuous
 62
     2
100
AcDbLine
 10
32.29444661854946
 20
117.2684419991705
 30
0.0
 11
32.29444661854946
 21
119.8934419991705
 31
0.0
  0
LINE
  5
28D
330
1F
100
AcDbEntity
  8
1
  6
Continuous
 62
     2
100
AcDbLine
 10
32.21944661854946
 20
117.1934419991705
 30
0.0
 11
32.29444661854946
 21
117.2684419991705
 31
0.0
  0
LINE
  5
28E
330
1F
100
AcDbEntity
  8
1
  6
Continuous
 62
     2
100
AcDbLine
 10
31.99444661854945
 20
117.1934419991705
 30
0.0
 11
32.21944661854946
 21
117.1934419991705
 31
0.0
  0
LINE
  5
28F
330
1F
100
AcDbEntity
  8
1
  6
Continuous
 62
     2
100
AcDbLine
 10
30.98194661854945
 20
119.4434419991705
 30
0.0
 11
30.15694661854946
 21
119.4434419991705
 31
0.0
  0
LINE
  5
290
330
1F
100
AcDbEntity
  8
1
  6
Continuous
 62
     2
100
AcDbLine
 10
30.98194661854945
 20
118.9559419991705
 30
0.0
 11
30.15694661854946
 21
118.9559419991705
 31
0.0
  0
LINE
  5
291
330
1F
100
AcDbEntity
  8
1
  6
Continuous
 62
     2
100
AcDbLine
 10
30.98194661854945
 20
119.8934419991705
 30
0.0
 11
30.98194661854945
 21
118.9559419991705
 31
0.0
  0
LINE
  5
292
330
1F
100
AcDbEntity
  8
1
  6
Continuous
 62
     2
100
AcDbLine
 10
30.15694661854946
 20
119.8934419991705
 30
0.0
 11
30.98194661854945
 21
119.8934419991705
 31
0.0
  0
LINE
  5
293
330
1F
100
AcDbEntity
  8
1
  6
Continuous
 62
     2
100
AcDbLine
 10
30.15694661854946
 20
117.1934419991705
 30
0.0
 11
30.15694661854946
 21
119.8934419991705
 31
0.0
  0
LINE
  5
294
330
1F
100
AcDbEntity
  8
1
  6
Continuous
 62
     2
100
AcDbLine
 10
29.21944661854946
 20
118.8809419991705
 30
0.0
 11
29.55694661854945
 21
118.5809419991705
 31
0.0
  0
LINE
  5
295
330
1F
100
AcDbEntity
  8
1
  6
Continuous
 62
     2
100
AcDbLine
 10
28.65694661854946
 20
119.5184419991705
 30
0.0
 11
29.21944661854946
 21
118.8809419991705
 31
0.0
  0
LINE
  5
296
330
1F
100
AcDbEntity
  8
1
  6
Continuous
 62
     2
100
AcDbLine
 10
28.24444661854946
 20
120.0809419991705
 30
0.0
 11
28.65694661854946
 21
119.5184419991705
 31
0.0
  0
LINE
  5
297
330
1F
100
AcDbEntity
  8
1
  6
Continuous
 62
     2
100
AcDbLine
 10
27.79444661854945
 20
119.5184419991705
 30
0.0
 11
28.24444661854946
 21
120.0809419991705
 31
0.0
  0
LINE
  5
298
330
1F
100
AcDbEntity
  8
1
  6
Continuous
 62
     2
100
AcDbLine
 10
27.23194661854945
 20
118.8809419991705
 30
0.0
 11
27.79444661854945
 21
119.5184419991705
 31
0.0
  0
LINE
  5
299
330
1F
100
AcDbEntity
  8
1
  6
Continuous
 62
     2
100
AcDbLine
 10
26.89444661854946
 20
118.5809419991705
 30
0.0
 11
27.23194661854945
 21
118.8809419991705
 31
0.0
  0
LINE
  5
29A
330
1F
100
AcDbEntity
  8
1
  6
Continuous
 62
     2
100
AcDbLine
 10
28.65694661854946
 20
117.5684419991705
 30
0.0
 11
28.80694661854946
 21
118.0184419991705
 31
0.0
  0
LINE
  5
29B
330
1F
100
AcDbEntity
  8
1
  6
Continuous
 62
     2
100
AcDbLine
 10
27.64444661854946
 20
118.0184419991705
 30
0.0
 11
27.79444661854945
 21
117.5684419991705
 31
0.0
  0
LINE
  5
29C
330
1F
100
AcDbEntity
  8
1
  6
Continuous
 62
     2
100
AcDbLine
 10
29.06944661854946
 20
118.3934419991705
 30
0.0
 11
27.38194661854946
 21
118.3934419991705
 31
0.0
  0
LINE
  5
29D
330
1F
100
AcDbEntity
  8
1
  6
Continuous
 62
     2
100
AcDbLine
 10
27.64444661854946
 20
118.9559419991705
 30
0.0
 11
28.80694661854946
 21
118.9559419991705
 31
0.0
  0
LINE
  5
29E
330
1F
100
AcDbEntity
  8
1
  6
Continuous
 62
     2
100
AcDbLine
 10
28.24444661854946
 20
117.1934419991705
 30
0.0
 11
28.24444661854946
 21
118.9559419991705
 31
0.0
  0
LINE
  5
29F
330
1F
100
AcDbEntity
  8
1
  6
Continuous
 62
     2
100
AcDbLine
 10
27.15694661854946
 20
117.1934419991705
 30
0.0
 11
29.21944661854946
 21
117.1934419991705
 31
0.0
  0
LINE
  5
2A0
330
1F
100
AcDbEntity
  8
1
  6
Continuous
 62
     2
100
AcDbLine
 10
145.9451517849754
 20
66.85995914347052
 30
0.0
 11
148.0451517849754
 21
66.85995914347052
 31
0.0
  0
LINE
  5
2A1
330
1F
100
AcDbEntity
  8
1
  6
Continuous
 62
     2
100
AcDbLine
 10
145.9451517849754
 20
69.85995914347052
 30
0.0
 11
145.9451517849754
 21
66.85995914347052
 31
0.0
  0
LINE
  5
2A2
330
1F
100
AcDbEntity
  8
1
  6
Continuous
 62
     2
100
AcDbLine
 10
148.0451517849754
 20
69.85995914347052
 30
0.0
 11
145.9451517849754
 21
69.85995914347052
 31
0.0
  0
LINE
  5
2A3
330
1F
100
AcDbEntity
  8
1
  6
Continuous
 62
     2
100
AcDbLine
 10
147.7451517849754
 20
68.50995914347052
 30
0.0
 11
145.9451517849754
 21
68.50995914347052
 31
0.0
  0
LINE
  5
2A4
330
1F
100
AcDbEntity
  8
1
  6
Continuous
 62
     2
100
AcDbLine
 10
141.3701517849754
 20
66.85995914347052
 30
0.0
 11
141.0326517849754
 21
67.04745914347052
 31
0.0
  0
LINE
  5
2A5
330
1F
100
AcDbEntity
  8
1
  6
Continuous
 62
     2
100
AcDbLine
 10
141.5201517849754
 20
66.97245914347052
 30
0.0
 11
141.3701517849754
 21
66.85995914347052
 31
0.0
  0
LINE
  5
2A6
330
1F
100
AcDbEntity
  8
1
  6
Continuous
 62
     2
100
AcDbLine
 10
141.7826517849754
 20
67.42245914347052
 30
0.0
 11
141.5201517849754
 21
66.97245914347052
 31
0.0
  0
LINE
  5
2A7
330
1F
100
AcDbEntity
  8
1
  6
Continuous
 62
     2
100
AcDbLine
 10
141.9326517849754
 20
67.98495914347052
 30
0.0
 11
141.7826517849754
 21
67.42245914347052
 31
0.0
  0
LINE
  5
2A8
330
1F
100
AcDbEntity
  8
1
  6
Continuous
 62
     2
100
AcDbLine
 10
140.7701517849754
 20
67.98495914347052
 30
0.0
 11
141.9326517849754
 21
67.98495914347052
 31
0.0
  0
LINE
  5
2A9
330
1F
100
AcDbEntity
  8
1
  6
Continuous
 62
     2
100
AcDbLine
 10
140.9576517849754
 20
68.54745914347052
 30
0.0
 11
140.6951517849754
 21
67.60995914347052
 31
0.0
  0
LINE
  5
2AA
330
1F
100
AcDbEntity
  8
1
  6
Continuous
 62
     2
100
AcDbLine
 10
140.0201517849754
 20
68.54745914347052
 30
0.0
 11
142.4576517849754
 21
68.54745914347052
 31
0.0
  0
LINE
  5
2AB
330
1F
100
AcDbEntity
  8
1
  6
Continuous
 62
     2
100
AcDbLine
 10
141.9326517849754
 20
69.67245914347052
 30
0.0
 11
140.6201517849754
 21
69.67245914347052
 31
0.0
  0
LINE
  5
2AC
330
1F
100
AcDbEntity
  8
1
  6
Continuous
 62
     2
100
AcDbLine
 10
141.9326517849754
 20
69.03495914347052
 30
0.0
 11
141.9326517849754
 21
69.67245914347052
 31
0.0
  0
LINE
  5
2AD
330
1F
100
AcDbEntity
  8
1
  6
Continuous
 62
     2
100
AcDbLine
 10
140.6201517849754
 20
69.03495914347052
 30
0.0
 11
141.9326517849754
 21
69.03495914347052
 31
0.0
  0
LINE
  5
2AE
330
1F
100
AcDbEntity
  8
1
  6
Continuous
 62
     2
100
AcDbLine
 10
140.6201517849754
 20
69.67245914347052
 30
0.0
 11
140.6201517849754
 21
69.03495914347052
 31
0.0
  0
LINE
  5
2AF
330
1F
100
AcDbEntity
  8
1
  6
Continuous
 62
     2
100
AcDbLine
 10
139.4576517849754
 20
67.04745914347052
 30
0.0
 11
139.4576517849754
 21
67.34745914347052
 31
0.0
  0
LINE
  5
2B0
330
1F
100
AcDbEntity
  8
1
  6
Continuous
 62
     2
100
AcDbLine
 10
138.2951517849754
 20
67.04745914347052
 30
0.0
 11
139.4576517849754
 21
67.04745914347052
 31
0.0
  0
LINE
  5
2B1
330
1F
100
AcDbEntity
  8
1
  6
Continuous
 62
     2
100
AcDbLine
 10
138.2951517849754
 20
68.47245914347052
 30
0.0
 11
138.2951517849754
 21
67.04745914347052
 31
0.0
  0
LINE
  5
2B2
330
1F
100
AcDbEntity
  8
1
  6
Continuous
 62
     2
100
AcDbLine
 10
139.1951517849754
 20
68.47245914347052
 30
0.0
 11
138.2951517849754
 21
68.47245914347052
 31
0.0
  0
LINE
  5
2B3
330
1F
100
AcDbEntity
  8
1
  6
Continuous
 62
     2
100
AcDbLine
 10
139.1951517849754
 20
69.40995914347052
 30
0.0
 11
139.1951517849754
 21
68.47245914347052
 31
0.0
  0
LINE
  5
2B4
330
1F
100
AcDbEntity
  8
1
  6
Continuous
 62
     2
100
AcDbLine
 10
138.2951517849754
 20
69.40995914347052
 30
0.0
 11
139.1951517849754
 21
69.40995914347052
 31
0.0
  0
LINE
  5
2B5
330
1F
100
AcDbEntity
  8
1
  6
Continuous
 62
     2
100
AcDbLine
 10
137.0201517849754
 20
69.48495914347052
 30
0.0
 11
137.7701517849754
 21
69.48495914347052
 31
0.0
  0
LINE
  5
2B6
330
1F
100
AcDbEntity
  8
1
  6
Continuous
 62
     2
100
AcDbLine
 10
136.9451517849754
 20
69.03495914347052
 30
0.0
 11
138.0326517849754
 21
69.03495914347052
 31
0.0
  0
LINE
  5
2B7
330
1F
100
AcDbEntity
  8
1
  6
Continuous
 62
     2
100
AcDbLine
 10
137.7701517849754
 20
68.65995914347052
 30
0.0
 11
137.0951517849754
 21
68.65995914347052
 31
0.0
  0
LINE
  5
2B8
330
1F
100
AcDbEntity
  8
1
  6
Continuous
 62
     2
100
AcDbLine
 10
137.0951517849754
 20
68.17245914347052
 30
0.0
 11
137.7701517849754
 21
68.17245914347052
 31
0.0
  0
LINE
  5
2B9
330
1F
100
AcDbEntity
  8
1
  6
Continuous
 62
     2
100
AcDbLine
 10
137.7701517849754
 20
67.04745914347052
 30
0.0
 11
137.0951517849754
 21
67.04745914347052
 31
0.0
  0
LINE
  5
2BA
330
1F
100
AcDbEntity
  8
1
  6
Continuous
 62
     2
100
AcDbLine
 10
137.7701517849754
 20
67.79745914347052
 30
0.0
 11
137.7701517849754
 21
67.04745914347052
 31
0.0
  0
LINE
  5
2BB
330
1F
100
AcDbEntity
  8
1
  6
Continuous
 62
     2
100
AcDbLine
 10
137.0951517849754
 20
67.79745914347052
 30
0.0
 11
137.7701517849754
 21
67.79745914347052
 31
0.0
  0
LINE
  5
2BC
330
1F
100
AcDbEntity
  8
1
  6
Continuous
 62
     2
100
AcDbLine
 10
137.0951517849754
 20
67.04745914347052
 30
0.0
 11
137.0951517849754
 21
67.79745914347052
 31
0.0
  0
LINE
  5
2BD
330
1F
100
AcDbEntity
  8
1
  6
Continuous
 62
     2
100
AcDbLine
 10
136.1201517849754
 20
69.85995914347052
 30
0.0
 11
136.1201517849754
 21
66.85995914347052
 31
0.0
  0
LINE
  5
2BE
330
1F
100
AcDbEntity
  8
1
  6
Continuous
 62
     2
100
AcDbLine
 10
135.7076517849754
 20
69.29745914347052
 30
0.0
 11
135.4451517849754
 21
69.67245914347052
 31
0.0
  0
LINE
  5
2BF
330
1F
100
AcDbEntity
  8
1
  6
Continuous
 62
     2
100
AcDbLine
 10
135.7076517849754
 20
68.54745914347052
 30
0.0
 11
135.4451517849754
 21
68.92245914347052
 31
0.0
  0
LINE
  5
2C0
330
1F
100
AcDbEntity
  8
1
  6
Continuous
 62
     2
100
AcDbLine
 10
135.1826517849754
 20
67.90995914347052
 30
0.0
 11
136.6076517849754
 21
68.17245914347052
 31
0.0
  0
LINE
  5
2C1
330
1F
100
AcDbEntity
  8
1
  6
Continuous
 62
     2
100
AcDbLine
 10
134.8451517849754
 20
68.35995914347052
 30
0.0
 11
135.0326517849754
 21
67.98495914347052
 31
0.0
  0
LINE
  5
2C2
330
1F
100
AcDbEntity
  8
1
  6
Continuous
 62
     2
100
AcDbLine
 10
134.6201517849754
 20
69.78495914347052
 30
0.0
 11
134.6201517849754
 21
66.97245914347052
 31
0.0
  0
LINE
  5
2C3
330
1F
100
AcDbEntity
  8
1
  6
Continuous
 62
     2
100
AcDbLine
 10
134.8451517849754
 20
69.22245914347052
 30
0.0
 11
135.0326517849754
 21
69.59745914347052
 31
0.0
  0
LINE
  5
2C4
330
1F
100
AcDbEntity
  8
1
  6
Continuous
 62
     2
100
AcDbLine
 10
134.0951517849754
 20
69.48495914347052
 30
0.0
 11
134.3576517849754
 21
69.10995914347052
 31
0.0
  0
LINE
  5
2C5
330
1F
100
AcDbEntity
  8
1
  6
Continuous
 62
     2
100
AcDbLine
 10
135.1826517849754
 20
68.73495914347052
 30
0.0
 11
134.0201517849754
 21
68.73495914347052
 31
0.0
  0
LINE
  5
2C6
330
1F
100
AcDbEntity
  8
1
  6
Continuous
 62
     2
100
AcDbLine
 10
134.2826517849754
 20
67.90995914347052
 30
0.0
 11
134.6201517849754
 21
68.73495914347052
 31
0.0
  0
LINE
  5
2C7
330
1F
100
AcDbEntity
  8
1
  6
Continuous
 62
     2
100
AcDbLine
 10
134.0201517849754
 20
67.42245914347052
 30
0.0
 11
134.2826517849754
 21
67.90995914347052
 31
0.0
  0
LINE
  5
2C8
330
1F
100
AcDbEntity
  8
1
  6
Continuous
 62
     2
100
AcDbLine
 10
133.1201517849754
 20
67.04745914347052
 30
0.0
 11
132.8576517849754
 21
67.04745914347052
 31
0.0
  0
LINE
  5
2C9
330
1F
100
AcDbEntity
  8
1
  6
Continuous
 62
     2
100
AcDbLine
 10
133.0451517849754
 20
69.78495914347052
 30
0.0
 11
133.1201517849754
 21
67.04745914347052
 31
0.0
  0
LINE
  5
2CA
330
1F
100
AcDbEntity
  8
1
  6
Continuous
 62
     2
100
AcDbLine
 10
133.5326517849754
 20
68.92245914347052
 30
0.0
 11
132.2951517849754
 21
68.92245914347052
 31
0.0
  0
LINE
  5
2CB
330
1F
100
AcDbEntity
  8
1
  6
Continuous
 62
     2
100
AcDbLine
 10
132.5951517849754
 20
67.98495914347052
 30
0.0
 11
133.0451517849754
 21
68.84745914347052
 31
0.0
  0
LINE
  5
2CC
330
1F
100
AcDbEntity
  8
1
  6
Continuous
 62
     2
100
AcDbLine
 10
132.1076517849754
 20
67.42245914347052
 30
0.0
 11
132.5951517849754
 21
67.98495914347052
 31
0.0
  0
LINE
  5
2CD
330
1F
100
AcDbEntity
  8
1
  6
Continuous
 62
     2
100
AcDbLine
 10
131.6201517849754
 20
68.92245914347052
 30
0.0
 11
132.0326517849754
 21
68.28495914347052
 31
0.0
  0
LINE
  5
2CE
330
1F
100
AcDbEntity
  8
1
  6
Continuous
 62
     2
100
AcDbLine
 10
131.3576517849754
 20
68.35995914347052
 30
0.0
 11
131.6201517849754
 21
68.92245914347052
 31
0.0
  0
LINE
  5
2CF
330
1F
100
AcDbEntity
  8
1
  6
Continuous
 62
     2
100
AcDbLine
 10
131.0201517849754
 20
67.79745914347052
 30
0.0
 11
131.3576517849754
 21
68.35995914347052
 31
0.0
  0
LINE
  5
2D0
330
1F
100
AcDbEntity
  8
1
  6
Continuous
 62
     2
100
AcDbLine
 10
132.0326517849754
 20
69.03495914347052
 30
0.0
 11
131.0951517849754
 21
69.03495914347052
 31
0.0
  0
LINE
  5
2D1
330
1F
100
AcDbEntity
  8
1
  6
Continuous
 62
     2
100
AcDbLine
 10
131.6201517849754
 20
66.85995914347052
 30
0.0
 11
131.6201517849754
 21
69.85995914347052
 31
0.0
  0
LINE
  5
2D2
330
1F
100
AcDbEntity
  8
0
  6
Continuous
 62
     7
100
AcDbLine
 10
68.16862858997843
 20
166.3490964429827
 30
0.0
 11
68.42574067577834
 21
166.6383279817826
 31
0.0
  0
LINE
  5
2D3
330
1F
100
AcDbEntity
  8
0
  6
Continuous
 62
     7
100
AcDbLine
 10
68.42574067577834
 20
166.6383279817826
 30
0.0
 11
68.59948914665347
 21
166.8120755212167
 31
0.0
  0
LINE
  5
2D4
330
1F
100
AcDbEntity
  8
0
  6
Continuous
 62
     7
100
AcDbLine
 10
68.05127822044142
 20
166.1907567041247
 30
0.0
 11
68.16862858997843
 21
166.3490964429827
 31
0.0
  0
LINE
  5
2D5
330
1F
100
AcDbEntity
  8
0
  6
Continuous
 62
     7
100
AcDbLine
 10
142.716495393223
 20
240.9994423951894
 30
0.0
 11
144.6642410421785
 21
240.9994423951894
 31
0.0
  0
LINE
  5
2D6
330
1F
100
AcDbEntity
  8
1
  6
Continuous
 62
     7
100
AcDbLine
 10
77.13197424921444
 20
222.9994427043894
 30
0.0
 11
77.13709216957841
 21
222.9994427043894
 31
0.0
  0
LINE
  5
2D7
330
1F
100
AcDbEntity
  8
1
  6
Continuous
 62
     7
100
AcDbLine
 10
68.05595945950631
 20
222.9994427043915
 30
0.0
 11
76.16424005877843
 21
222.9994427043894
 31
0.0
  0
LINE
  5
2D8
330
1F
100
AcDbEntity
  8
1
  6
Continuous
 62
     7
100
AcDbLine
 10
66.65955912497839
 20
145.8769102967242
 30
0.0
 11
145.6595616879787
 21
145.8769102967242
 31
0.0
  0
LINE
  5
2D9
330
1F
100
AcDbEntity
  8
0
  6
Continuous
 62
     7
100
AcDbLine
 10
145.6595616879788
 20
145.876912563849
 30
0.0
 11
145.6595618295785
 21
149.2538882744252
 31
0.0
  0
LINE
  5
2DA
330
1F
100
AcDbEntity
  8
1
  6
Continuous
 62
     7
100
AcDbLine
 10
145.0201948655272
 20
161.3777534988014
 30
0.0
 11
145.1240811513783
 21
161.1907614723828
 31
0.0
  0
LINE
  5
2DB
330
1F
100
AcDbEntity
  8
0
  6
Continuous
 62
     7
100
AcDbLine
 10
145.1247755854104
 20
86.41614753389759
 30
0.0
 11
145.1520282791785
 21
86.06830987368272
 31
0.0
  0
LINE
  5
2DC
330
1F
100
AcDbEntity
  8
0
  6
Continuous
 62
     7
100
AcDbLine
 10
138.1595615315785
 20
87.86059173968272
 30
0.0
 11
138.3701670931785
 21
88.09010687488274
 31
0.0
  0
LINE
  5
2DD
330
1F
100
AcDbEntity
  8
1
  6
DASH_CENTER
 62
     2
100
AcDbLine
 10
106.1642405057785
 20
276.0994427975888
 30
0.0
 11
106.1642405057785
 21
185.8994427975901
 31
0.0
  0
LINE
  5
2DE
330
1F
100
AcDbEntity
  8
1
  6
DASH_CENTER
 62
     2
100
AcDbLine
 10
151.2642405057784
 20
230.9994427975894
 30
0.0
 11
61.06424050577948
 21
230.9994427975894
 31
0.0
  0
LINE
  5
2DF
330
1F
100
AcDbEntity
  8
0
  6
Continuous
 62
     7
100
AcDbLine
 10
94.66424029717837
 20
258.4994424697895
 30
0.0
 11
94.66424029717837
 21
203.4994427677895
 31
0.0
  0
LINE
  5
2E0
330
1F
100
AcDbEntity
  8
1
  6
Continuous
 62
     2
100
AcDbLine
 10
66.15955904297834
 20
212.9409388412894
 30
0.0
 11
56.1595592665783
 21
212.9409388412894
 31
0.0
  0
LINE
  5
2E1
330
1F
100
AcDbEntity
  8
1
  6
Continuous
 62
     2
100
AcDbLine
 10
56.1595592665783
 20
237.0579388412895
 30
0.0
 11
65.6143375997483
 21
237.0579388412895
 31
0.0
  0
LINE
  5
2E2
330
1F
100
AcDbEntity
  8
1
  6
Continuous
 62
     2
100
AcDbLine
 10
156.1595607565785
 20
212.9409388412894
 30
0.0
 11
146.1595628427783
 21
212.9409388412894
 31
0.0
  0
LINE
  5
2E3
330
1F
100
AcDbEntity
  8
1
  6
Continuous
 62
     2
100
AcDbLine
 10
147.6642396712573
 20
237.0579388412895
 30
0.0
 11
156.1595607565785
 21
237.0579388412895
 31
0.0
  0
LINE
  5
2E4
330
1F
100
AcDbEntity
  8
1
  6
DASH_CENTER
 62
     2
100
AcDbLine
 10
53.19469193083728
 20
224.9994425665895
 30
0.0
 11
67.23019764217838
 21
224.9994425665895
 31
0.0
  0
LINE
  5
2E5
330
1F
100
AcDbEntity
  8
1
  6
DASH_CENTER
 62
     2
100
AcDbLine
 10
146.1642440819785
 20
224.9994425665895
 30
0.0
 11
158.4632561540934
 21
224.9994425665895
 31
0.0
  0
LINE
  5
2E6
330
1F
100
AcDbEntity
  8
1
  6
Continuous
 62
     2
100
AcDbLine
 10
66.15955904297834
 20
85.2822440187827
 30
0.0
 11
56.1595592665783
 21
85.28224401878265
 31
0.0
  0
LINE
  5
2E7
330
1F
100
AcDbEntity
  8
1
  6
Continuous
 62
     2
100
AcDbLine
 10
156.1595607565785
 20
85.2822440187827
 30
0.0
 11
146.1595628427783
 21
85.2822440187827
 31
0.0
  0
LINE
  5
2E8
330
1F
100
AcDbEntity
  8
1
  6
Continuous
 62
     2
100
AcDbLine
 10
56.1595592665783
 20
109.3992440187828
 30
0.0
 11
66.15955904297834
 21
109.3992440187828
 31
0.0
  0
LINE
  5
2E9
330
1F
100
AcDbEntity
  8
1
  6
Continuous
 62
     2
100
AcDbLine
 10
146.1595628427783
 20
109.3992440187828
 30
0.0
 11
156.1595607565785
 21
109.3992440187828
 31
0.0
  0
LINE
  5
2EA
330
1F
100
AcDbEntity
  8
1
  6
DASH_CENTER
 62
     2
100
AcDbLine
 10
106.1595586145784
 20
173.5252863032468
 30
0.0
 11
106.1595586145784
 21
68.95713698425743
 31
0.0
  0
LINE
  5
2EB
330
1F
100
AcDbEntity
  8
1
  6
DASH_CENTER
 62
     2
100
AcDbLine
 10
160.0877611870315
 20
97.3407440187828
 30
0.0
 11
50.41608885740243
 21
97.3407440187828
 31
0.0
  0
LINE
  5
2EC
330
1F
100
AcDbEntity
  8
0
  6
Continuous
 62
     7
100
AcDbLine
 10
74.21731021637447
 20
208.6299609955135
 30
0.0
 11
73.97198122377836
 21
208.4581804093895
 31
0.0
  0
LINE
  5
2ED
330
1F
100
AcDbEntity
  8
0
  6
Continuous
 62
     7
100
AcDbLine
 10
73.97198122377836
 20
253.5407048281895
 30
0.0
 11
74.21731021637447
 21
253.3689242418654
 31
0.0
  0
LINE
  5
2EE
330
1F
100
AcDbEntity
  8
0
  6
Continuous
 62
     7
100
AcDbLine
 10
67.46424086777847
 20
225.3940856196826
 30
0.0
 11
67.46424086777847
 21
235.9470621313895
 31
0.0
  0
LINE
  5
2EF
330
1F
100
AcDbEntity
  8
0
  6
Continuous
 62
     7
100
AcDbLine
 10
67.46424086777847
 20
235.9470621313895
 30
0.0
 11
67.46424086783736
 21
236.6047998522795
 31
0.0
  0
LINE
  5
2F0
330
1F
100
AcDbEntity
  8
0
  6
Continuous
 62
     7
100
AcDbLine
 10
76.16424005877843
 20
212.4994423803894
 30
0.0
 11
77.33693909297835
 21
212.4994423803894
 31
0.0
  0
LINE
  5
2F1
330
1F
100
AcDbEntity
  8
0
  6
Continuous
 62
     7
100
AcDbLine
 10
77.14659911037847
 20
214.4994427081895
 30
0.0
 11
76.16424005877843
 21
214.4994427081895
 31
0.0
  0
LINE
  5
2F2
330
1F
100
AcDbEntity
  8
0
  6
Continuous
 62
     7
100
AcDbLine
 10
76.16424005877843
 20
218.4994424325894
 30
0.0
 11
77.14587081617833
 21
218.4994424325894
 31
0.0
  0
LINE
  5
2F3
330
1F
100
AcDbEntity
  8
0
  6
Continuous
 62
     7
100
AcDbLine
 10
77.14731809137834
 20
216.4994430359895
 30
0.0
 11
76.16424005877843
 21
216.4994430359895
 31
0.0
  0
LINE
  5
2F4
330
1F
100
AcDbEntity
  8
0
  6
Continuous
 62
     7
100
AcDbLine
 10
77.14696605157837
 20
243.4994428049895
 30
0.0
 11
76.16424005877843
 21
243.4994428049895
 31
0.0
  0
LINE
  5
2F5
330
1F
100
AcDbEntity
  8
0
  6
Continuous
 62
     7
100
AcDbLine
 10
76.16424005877843
 20
245.4994422015896
 30
0.0
 11
77.14621168017834
 21
245.4994422015896
 31
0.0
  0
LINE
  5
2F6
330
1F
100
AcDbEntity
  8
0
  6
Continuous
 62
     7
100
AcDbLine
 10
77.1477334613785
 20
247.4994425293894
 30
0.0
 11
76.16424005877843
 21
247.4994425293894
 31
0.0
  0
LINE
  5
2F7
330
1F
100
AcDbEntity
  8
0
  6
Continuous
 62
     7
100
AcDbLine
 10
76.16424005877843
 20
249.4994428571895
 30
0.0
 11
77.31986583435581
 21
249.4994428571895
 31
0.0
  0
LINE
  5
2F8
330
1F
100
AcDbEntity
  8
0
  6
Continuous
 62
     7
100
AcDbLine
 10
67.2520660274854
 20
224.2102845203115
 30
0.0
 11
67.23019764217838
 21
224.3368377539894
 31
0.0
  0
LINE
  5
2F9
330
1F
100
AcDbEntity
  8
0
  6
Continuous
 62
     7
100
AcDbLine
 10
67.23019764217838
 20
237.6620479491894
 30
0.0
 11
67.2520660275784
 21
237.7886016485895
 31
0.0
  0
LINE
  5
2FA
330
1F
100
AcDbEntity
  8
0
  6
Continuous
 62
     7
100
AcDbLine
 10
76.16424005877843
 20
222.9994427043894
 30
0.0
 11
76.16424005877843
 21
211.446890840421
 31
0.0
  0
LINE
  5
2FB
330
1F
100
AcDbEntity
  8
0
  6
Continuous
 62
     7
100
AcDbLine
 10
76.16424005877843
 20
238.9994429987894
 30
0.0
 11
68.05595945955403
 21
238.9994429987894
 31
0.0
  0
LINE
  5
2FC
330
1F
100
AcDbEntity
  8
0
  6
Continuous
 62
     7
100
AcDbLine
 10
76.16424005877843
 20
250.5506583121894
 30
0.0
 11
76.16424005877843
 21
238.9994429987894
 31
0.0
  0
LINE
  5
2FD
330
1F
100
AcDbEntity
  8
0
  6
Continuous
 62
     7
100
AcDbLine
 10
125.9142440223784
 20
230.4494428545895
 30
0.0
 11
128.1142440103783
 21
230.4494428545895
 31
0.0
  0
LINE
  5
2FE
330
1F
100
AcDbEntity
  8
0
  6
Continuous
 62
     7
100
AcDbLine
 10
128.1142440103783
 20
230.4494428545895
 30
0.0
 11
128.1142440103783
 21
228.2494427499894
 31
0.0
  0
LINE
  5
2FF
330
1F
100
AcDbEntity
  8
0
  6
Continuous
 62
     7
100
AcDbLine
 10
128.1142440103783
 20
228.2494427499894
 30
0.0
 11
129.2142402791783
 21
228.2494427499894
 31
0.0
  0
LINE
  5
300
330
1F
100
AcDbEntity
  8
0
  6
Continuous
 62
     7
100
AcDbLine
 10
129.2142402791783
 20
230.4494428545895
 30
0.0
 11
129.2142402791783
 21
228.2494427499894
 31
0.0
  0
LINE
  5
301
330
1F
100
AcDbEntity
  8
0
  6
Continuous
 62
     7
100
AcDbLine
 10
129.2142402791783
 20
230.4494428545895
 30
0.0
 11
131.4142402673783
 21
230.4494428545895
 31
0.0
  0
LINE
  5
302
330
1F
100
AcDbEntity
  8
0
  6
Continuous
 62
     7
100
AcDbLine
 10
131.4142402673783
 20
230.4494428545895
 30
0.0
 11
131.4142402673783
 21
231.5494428485895
 31
0.0
  0
LINE
  5
303
330
1F
100
AcDbEntity
  8
0
  6
Continuous
 62
     7
100
AcDbLine
 10
129.2142402791783
 20
231.5494428485895
 30
0.0
 11
131.4142402673783
 21
231.5494428485895
 31
0.0
  0
LINE
  5
304
330
1F
100
AcDbEntity
  8
0
  6
Continuous
 62
     7
100
AcDbLine
 10
129.2142402791783
 20
233.7494426037895
 30
0.0
 11
129.2142402791783
 21
231.5494428485895
 31
0.0
  0
LINE
  5
305
330
1F
100
AcDbEntity
  8
0
  6
Continuous
 62
     7
100
AcDbLine
 10
128.1142440103783
 20
233.7494426037895
 30
0.0
 11
129.2142402791783
 21
233.7494426037895
 31
0.0
  0
LINE
  5
306
330
1F
100
AcDbEntity
  8
0
  6
Continuous
 62
     7
100
AcDbLine
 10
128.1142440103783
 20
233.7494426037895
 30
0.0
 11
128.1142440103783
 21
231.5494428485895
 31
0.0
  0
LINE
  5
307
330
1F
100
AcDbEntity
  8
0
  6
Continuous
 62
     7
100
AcDbLine
 10
125.9142440223784
 20
231.5494428485895
 30
0.0
 11
128.1142440103783
 21
231.5494428485895
 31
0.0
  0
LINE
  5
308
330
1F
100
AcDbEntity
  8
0
  6
Continuous
 62
     7
100
AcDbLine
 10
125.9142440223784
 20
230.4494428545895
 30
0.0
 11
125.9142440223784
 21
231.5494428485895
 31
0.0
  0
LINE
  5
309
330
1F
100
AcDbEntity
  8
0
  6
Continuous
 62
     7
100
AcDbLine
 10
124.9142419957784
 20
237.4946334031895
 30
0.0
 11
124.9142419957784
 21
233.1645063687896
 31
0.0
  0
LINE
  5
30A
330
1F
100
AcDbEntity
  8
0
  6
Continuous
 62
     7
100
AcDbLine
 10
124.9142419957784
 20
228.8343792761895
 30
0.0
 11
124.9142419957784
 21
224.5042523001894
 31
0.0
  0
LINE
  5
30B
330
1F
100
AcDbEntity
  8
0
  6
Continuous
 62
     7
100
AcDbLine
 10
132.4142422937784
 20
228.8343792761895
 30
0.0
 11
132.4142422937784
 21
224.5042523001894
 31
0.0
  0
LINE
  5
30C
330
1F
100
AcDbEntity
  8
0
  6
Continuous
 62
     7
100
AcDbLine
 10
132.4142422937784
 20
237.4946334031895
 30
0.0
 11
132.4142422937784
 21
233.1645063687896
 31
0.0
  0
LINE
  5
30D
330
1F
100
AcDbEntity
  8
0
  6
Continuous
 62
     7
100
AcDbLine
 10
125.9142440223784
 20
232.5871559887895
 30
0.0
 11
125.9142440223784
 21
235.7625824961895
 31
0.0
  0
LINE
  5
30E
330
1F
100
AcDbEntity
  8
0
  6
Continuous
 62
     7
100
AcDbLine
 10
131.4142402673783
 20
235.7625824961895
 30
0.0
 11
131.4142402673783
 21
232.5871559887895
 31
0.0
  0
LINE
  5
30F
330
1F
100
AcDbEntity
  8
0
  6
Continuous
 62
     7
100
AcDbLine
 10
131.4142402673783
 20
229.4117295541894
 30
0.0
 11
131.4142402673783
 21
226.2363029741894
 31
0.0
  0
LINE
  5
310
330
1F
100
AcDbEntity
  8
0
  6
Continuous
 62
     7
100
AcDbLine
 10
125.9142440223784
 20
226.2363029741894
 30
0.0
 11
125.9142440223784
 21
229.4117295541894
 31
0.0
  0
LINE
  5
311
330
1F
100
AcDbEntity
  8
0
  6
Continuous
 62
     7
100
AcDbLine
 10
77.13826300968194
 20
248.1619481559894
 30
0.0
 11
77.13709216957841
 21
238.9994429987894
 31
0.0
  0
LINE
  5
312
330
1F
100
AcDbEntity
  8
0
  6
Continuous
 62
     7
100
AcDbLine
 10
77.13835748250574
 20
213.8369380127895
 30
0.0
 11
77.13709216957841
 21
222.9994427043894
 31
0.0
  0
LINE
  5
313
330
1F
100
AcDbEntity
  8
0
  6
Continuous
 62
     7
100
AcDbLine
 10
75.24741445117843
 20
224.9948413673895
 30
0.0
 11
75.16423958402252
 21
224.9994425665895
 31
0.0
  0
LINE
  5
314
330
1F
100
AcDbEntity
  8
0
  6
Continuous
 62
     7
100
AcDbLine
 10
75.59190135845733
 20
224.9430020902394
 30
0.0
 11
75.24741445117843
 21
224.9948413673895
 31
0.0
  0
LINE
  5
315
330
1F
100
AcDbEntity
  8
0
  6
Continuous
 62
     7
100
AcDbLine
 10
69.16424077397846
 20
224.9994425665895
 30
0.0
 11
70.08026565294745
 21
223.6254050769025
 31
0.0
  0
LINE
  5
316
330
1F
100
AcDbEntity
  8
0
  6
Continuous
 62
     7
100
AcDbLine
 10
75.16423958402252
 20
224.9994425665895
 30
0.0
 11
74.24821535860929
 21
223.6254050769025
 31
0.0
  0
LINE
  5
317
330
1F
100
AcDbEntity
  8
0
  6
Continuous
 62
     7
100
AcDbLine
 10
75.16419808806968
 20
236.9995053806503
 30
0.0
 11
74.24782954435709
 21
238.3740601136104
 31
0.0
  0
LINE
  5
318
330
1F
100
AcDbEntity
  8
0
  6
Continuous
 62
     7
100
AcDbLine
 10
70.05461030097831
 20
238.3349974271894
 30
0.0
 11
69.16424077397846
 21
236.9994426709895
 31
0.0
  0
LINE
  5
319
330
1F
100
AcDbEntity
  8
0
  6
Continuous
 62
     7
100
AcDbLine
 10
147.6642396712643
 20
237.9994428348614
 30
0.0
 11
147.6642396712273
 21
223.9994428684154
 31
0.0
  0
LINE
  5
31A
330
1F
100
AcDbEntity
  8
0
  6
Continuous
 62
     7
100
AcDbLine
 10
144.6642410421785
 20
220.9994428421894
 30
0.0
 11
142.5405946040914
 21
220.9994428423279
 31
0.0
  0
LINE
  5
31B
330
1F
100
AcDbEntity
  8
0
  6
Continuous
 62
     7
100
AcDbLine
 10
68.66424069197842
 20
224.9994425665895
 30
0.0
 11
68.66424069197842
 21
236.9994426709895
 31
0.0
  0
LINE
  5
31C
330
1F
100
AcDbEntity
  8
0
  6
Continuous
 62
     7
100
AcDbLine
 10
68.66424069197842
 20
236.9994426709992
 30
0.0
 11
75.15491921844728
 21
236.9994426709805
 31
0.0
  0
LINE
  5
31D
330
1F
100
AcDbEntity
  8
0
  6
Continuous
 62
     7
100
AcDbLine
 10
75.16423958402252
 20
224.9994425665895
 30
0.0
 11
68.66424069197842
 21
224.9994425665895
 31
0.0
  0
LINE
  5
31E
330
1F
100
AcDbEntity
  8
0
  6
Continuous
 62
     7
100
AcDbLine
 10
104.6642419361783
 20
258.4994424697895
 30
0.0
 11
94.66424029717837
 21
258.4994424697895
 31
0.0
  0
LINE
  5
31F
330
1F
100
AcDbEntity
  8
0
  6
Continuous
 62
     7
100
AcDbLine
 10
104.6642419361783
 20
203.4994427677895
 30
0.0
 11
104.6642419361783
 21
258.4994424697895
 31
0.0
  0
LINE
  5
320
330
1F
100
AcDbEntity
  8
0
  6
Continuous
 62
     7
100
AcDbLine
 10
94.66424029717837
 20
203.4994427677895
 30
0.0
 11
104.6642419361783
 21
203.4994427677895
 31
0.0
  0
LINE
  5
321
330
1F
100
AcDbEntity
  8
0
  6
Continuous
 62
     7
100
AcDbLine
 10
116.5882852339785
 20
240.5720404615602
 30
0.0
 11
116.5882852339785
 21
246.7363935146443
 31
0.0
  0
LINE
  5
322
330
1F
100
AcDbEntity
  8
0
  6
Continuous
 62
     7
100
AcDbLine
 10
112.8438730203784
 20
240.5489439707894
 30
0.0
 11
112.8438730203784
 21
240.2686670985895
 31
0.0
  0
LINE
  5
323
330
1F
100
AcDbEntity
  8
0
  6
Continuous
 62
     7
100
AcDbLine
 10
116.3382847273783
 20
216.9129213881896
 30
0.0
 11
116.3382847273783
 21
214.7270989235895
 31
0.0
  0
LINE
  5
324
330
1F
100
AcDbEntity
  8
0
  6
Continuous
 62
     7
100
AcDbLine
 10
117.3382867539783
 20
214.3631287481895
 30
0.0
 11
117.3382867539783
 21
217.6131288151894
 31
0.0
  0
LINE
  5
325
330
1F
100
AcDbEntity
  8
0
  6
Continuous
 62
     7
100
AcDbLine
 10
117.3382867539783
 20
218.3631284725895
 30
0.0
 11
117.3382867539783
 21
249.3631288971894
 31
0.0
  0
LINE
  5
326
330
1F
100
AcDbEntity
  8
0
  6
Continuous
 62
     7
100
AcDbLine
 10
117.3382867539783
 20
249.3631288971894
 30
0.0
 11
116.5882852339785
 21
249.3631288971894
 31
0.0
  0
LINE
  5
327
330
1F
100
AcDbEntity
  8
0
  6
Continuous
 62
     7
100
AcDbLine
 10
68.63765143237833
 20
213.8141094337895
 30
0.0
 11
68.09052177157832
 21
213.3994445767895
 31
0.0
  0
LINE
  5
328
330
1F
100
AcDbEntity
  8
0
  6
Continuous
 62
     7
100
AcDbLine
 10
68.88835706679221
 20
213.9258223893951
 30
0.0
 11
68.63765143237833
 21
213.8141094337895
 31
0.0
  0
LINE
  5
329
330
1F
100
AcDbEntity
  8
0
  6
Continuous
 62
     7
100
AcDbLine
 10
144.2379560733784
 20
213.3994445767895
 30
0.0
 11
143.453907357918
 21
213.9559470864284
 31
0.0
  0
LINE
  5
32A
330
1F
100
AcDbEntity
  8
0
  6
Continuous
 62
     7
100
AcDbLine
 10
56.16424050577848
 20
237.2194424833895
 30
0.0
 11
56.68480756617828
 21
238.2194426473895
 31
0.0
  0
LINE
  5
32B
330
1F
100
AcDbEntity
  8
0
  6
Continuous
 62
     7
100
AcDbLine
 10
56.16424050577848
 20
212.7794426497895
 30
0.0
 11
56.16424050577848
 21
237.2194424833895
 31
0.0
  0
LINE
  5
32C
330
1F
100
AcDbEntity
  8
0
  6
Continuous
 62
     7
100
AcDbLine
 10
56.68480756617828
 20
211.7794424857895
 30
0.0
 11
56.16424050577848
 21
212.7794426497895
 31
0.0
  0
LINE
  5
32D
330
1F
100
AcDbEntity
  8
0
  6
Continuous
 62
     7
100
AcDbLine
 10
66.1642402821783
 20
211.7794424857895
 30
0.0
 11
66.1642402821783
 21
221.9994430061894
 31
0.0
  0
LINE
  5
32E
330
1F
100
AcDbEntity
  8
0
  6
Continuous
 62
     7
100
AcDbLine
 10
56.68480756617828
 20
211.7794424857895
 30
0.0
 11
56.68480756617828
 21
238.2194426473895
 31
0.0
  0
LINE
  5
32F
330
1F
100
AcDbEntity
  8
0
  6
Continuous
 62
     7
100
AcDbLine
 10
155.6436699295794
 20
238.2194426473895
 30
0.0
 11
156.1642419957793
 21
237.2194424833895
 31
0.0
  0
LINE
  5
330
330
1F
100
AcDbEntity
  8
0
  6
Continuous
 62
     7
100
AcDbLine
 10
156.1642419957793
 20
212.7794426497895
 30
0.0
 11
155.6436699295794
 21
211.7794424857895
 31
0.0
  0
LINE
  5
331
330
1F
100
AcDbEntity
  8
0
  6
Continuous
 62
     7
100
AcDbLine
 10
156.1642419957793
 20
212.7794426497895
 30
0.0
 11
156.1642419957793
 21
237.2194424833895
 31
0.0
  0
LINE
  5
332
330
1F
100
AcDbEntity
  8
0
  6
Continuous
 62
     7
100
AcDbLine
 10
146.1642440819785
 20
221.3986067663896
 30
0.0
 11
146.1642440819785
 21
211.7794424857895
 31
0.0
  0
LINE
  5
333
330
1F
100
AcDbEntity
  8
0
  6
Continuous
 62
     7
100
AcDbLine
 10
155.6436699295794
 20
238.2194426473895
 30
0.0
 11
155.6436699295794
 21
211.7794424857895
 31
0.0
  0
LINE
  5
334
330
1F
100
AcDbEntity
  8
0
  6
Continuous
 62
     7
100
AcDbLine
 10
70.16424093777846
 20
223.3480549049895
 30
0.0
 11
70.16424093777846
 21
223.0630506393895
 31
0.0
  0
LINE
  5
335
330
1F
100
AcDbEntity
  8
0
  6
Continuous
 62
     7
100
AcDbLine
 10
74.16423973077849
 20
222.9994427043894
 30
0.0
 11
74.16423973077849
 21
223.3480549049895
 31
0.0
  0
LINE
  5
336
330
1F
100
AcDbEntity
  8
0
  6
Continuous
 62
     7
100
AcDbLine
 10
70.16424093777846
 20
238.9358345981896
 30
0.0
 11
70.16424093777846
 21
238.6508413860866
 31
0.0
  0
LINE
  5
337
330
1F
100
AcDbEntity
  8
0
  6
Continuous
 62
     7
100
AcDbLine
 10
74.16423973077849
 20
238.6508303325895
 30
0.0
 11
74.16423973077849
 21
238.9994429987894
 31
0.0
  0
LINE
  5
338
330
1F
100
AcDbEntity
  8
0
  6
Continuous
 62
     7
100
AcDbLine
 10
144.2379635239784
 20
213.3994427141896
 30
0.0
 11
146.1642440819785
 21
213.3994427141896
 31
0.0
  0
LINE
  5
339
330
1F
100
AcDbEntity
  8
0
  6
Continuous
 62
     7
100
AcDbLine
 10
66.1642402821783
 20
213.3994427141896
 30
0.0
 11
68.09051990897842
 21
213.3994427141896
 31
0.0
  0
LINE
  5
33A
330
1F
100
AcDbEntity
  8
0
  6
Continuous
 62
     7
100
AcDbLine
 10
65.8049593159783
 20
238.2194426473895
 30
0.0
 11
56.68480756617828
 21
238.2194426473895
 31
0.0
  0
LINE
  5
33B
330
1F
100
AcDbEntity
  8
0
  6
Continuous
 62
     7
100
AcDbLine
 10
56.68480756617828
 20
211.7794424857895
 30
0.0
 11
66.1642402821783
 21
211.7794424857895
 31
0.0
  0
LINE
  5
33C
330
1F
100
AcDbEntity
  8
0
  6
Continuous
 62
     7
100
AcDbLine
 10
155.6436699295794
 20
238.2194426473895
 30
0.0
 11
147.6561622275436
 21
238.2194426473895
 31
0.0
  0
LINE
  5
33D
330
1F
100
AcDbEntity
  8
0
  6
Continuous
 62
     7
100
AcDbLine
 10
146.1642440819785
 20
211.7794424857895
 30
0.0
 11
155.6436699295794
 21
211.7794424857895
 31
0.0
  0
LINE
  5
33E
330
1F
100
AcDbEntity
  8
0
  6
Continuous
 62
     7
100
AcDbLine
 10
116.5782860887784
 20
243.2845793733895
 30
0.0
 11
116.5782860887784
 21
243.3156136516966
 31
0.0
  0
LINE
  5
33F
330
1F
100
AcDbEntity
  8
0
  6
Continuous
 62
     7
100
AcDbLine
 10
116.5782860887784
 20
236.5824620679894
 30
0.0
 11
116.5782860887784
 21
236.6155878251144
 31
0.0
  0
LINE
  5
340
330
1F
100
AcDbEntity
  8
0
  6
Continuous
 62
     7
100
AcDbLine
 10
116.5782860887784
 20
234.5665588415895
 30
0.0
 11
116.5782860887784
 21
234.5980758367706
 31
0.0
  0
LINE
  5
341
330
1F
100
AcDbEntity
  8
0
  6
Continuous
 62
     7
100
AcDbLine
 10
116.5782860887784
 20
232.5506556151894
 30
0.0
 11
116.5782860887784
 21
232.5821724818964
 31
0.0
  0
LINE
  5
342
330
1F
100
AcDbEntity
  8
0
  6
Continuous
 62
     7
100
AcDbLine
 10
116.5782860887784
 20
229.8185922789894
 30
0.0
 11
116.5782860887784
 21
229.8507601198521
 31
0.0
  0
LINE
  5
343
330
1F
100
AcDbEntity
  8
0
  6
Continuous
 62
     7
100
AcDbLine
 10
116.5782860887784
 20
227.9194086627895
 30
0.0
 11
116.5782860887784
 21
227.9492440739701
 31
0.0
  0
LINE
  5
344
330
1F
100
AcDbEntity
  8
0
  6
Continuous
 62
     7
100
AcDbLine
 10
116.5782860887784
 20
226.0202250463895
 30
0.0
 11
116.5782860887784
 21
226.0500603467774
 31
0.0
  0
LINE
  5
345
330
1F
100
AcDbEntity
  8
0
  6
Continuous
 62
     7
100
AcDbLine
 10
116.5782860887784
 20
220.5799178057894
 30
0.0
 11
116.5782860887784
 21
220.5953033251174
 31
0.0
  0
LINE
  5
346
330
1F
100
AcDbEntity
  8
0
  6
Continuous
 62
     7
100
AcDbLine
 10
112.8438727845785
 20
240.2686668711895
 30
0.0
 11
112.8438727845785
 21
240.5489440427975
 31
0.0
  0
LINE
  5
347
330
1F
100
AcDbEntity
  8
0
  6
Continuous
 62
     7
100
AcDbLine
 10
116.2714084397692
 20
242.6264781314969
 30
0.0
 11
116.5782860887784
 21
243.2845793733895
 31
0.0
  0
LINE
  5
348
330
1F
100
AcDbEntity
  8
0
  6
Continuous
 62
     7
100
AcDbLine
 10
117.3382860887784
 20
249.3631285621896
 30
0.0
 11
116.5882860887784
 21
249.3631285621896
 31
0.0
  0
LINE
  5
349
330
1F
100
AcDbEntity
  8
0
  6
Continuous
 62
     7
100
AcDbLine
 10
116.2906193815187
 20
235.9171894410855
 30
0.0
 11
116.5782860887784
 21
236.5824620679894
 31
0.0
  0
LINE
  5
34A
330
1F
100
AcDbEntity
  8
0
  6
Continuous
 62
     7
100
AcDbLine
 10
116.2906192570307
 20
233.9012859267882
 30
0.0
 11
116.5782860887784
 21
234.5665588415895
 31
0.0
  0
LINE
  5
34B
330
1F
100
AcDbEntity
  8
0
  6
Continuous
 62
     7
100
AcDbLine
 10
116.5782860887784
 20
232.5506556151894
 30
0.0
 11
116.2905005360537
 21
231.8851081401888
 31
0.0
  0
LINE
  5
34C
330
1F
100
AcDbEntity
  8
0
  6
Continuous
 62
     7
100
AcDbLine
 10
116.2713222172166
 20
229.1603061319248
 30
0.0
 11
116.5782860887784
 21
229.8185922789894
 31
0.0
  0
LINE
  5
34D
330
1F
100
AcDbEntity
  8
0
  6
Continuous
 62
     7
100
AcDbLine
 10
116.5782860887784
 20
227.9194086627895
 30
0.0
 11
116.2713221764927
 21
227.2611224281921
 31
0.0
  0
LINE
  5
34E
330
1F
100
AcDbEntity
  8
0
  6
Continuous
 62
     7
100
AcDbLine
 10
116.2713222206349
 20
225.3619389066554
 30
0.0
 11
116.5782860887784
 21
226.0202250463895
 31
0.0
  0
LINE
  5
34F
330
1F
100
AcDbEntity
  8
0
  6
Continuous
 62
     7
100
AcDbLine
 10
116.2541621112374
 20
222.6465973799193
 30
0.0
 11
116.5711252399624
 21
223.3263270029362
 31
0.0
  0
LINE
  5
350
330
1F
100
AcDbEntity
  8
0
  6
Continuous
 62
     7
100
AcDbLine
 10
113.3381999801784
 20
219.0690408403895
 30
0.0
 11
116.5782860887784
 21
220.5799178057894
 31
0.0
  0
LINE
  5
351
330
1F
100
AcDbEntity
  8
0
  6
Continuous
 62
     7
100
AcDbLine
 10
117.3382860887784
 20
249.3631285621896
 30
0.0
 11
117.3382860887784
 21
218.3631285621895
 31
0.0
  0
LINE
  5
352
330
1F
100
AcDbEntity
  8
0
  6
Continuous
 62
     7
100
AcDbLine
 10
116.3382860887784
 20
214.7270987965895
 30
0.0
 11
116.3382860887784
 21
216.9129210239894
 31
0.0
  0
LINE
  5
353
330
1F
100
AcDbEntity
  8
0
  6
Continuous
 62
     7
100
AcDbLine
 10
117.3382860887784
 20
214.3631285621895
 30
0.0
 11
117.3382860887784
 21
217.6131285621895
 31
0.0
  0
LINE
  5
354
330
1F
100
AcDbEntity
  8
0
  6
Continuous
 62
     7
100
AcDbLine
 10
70.72081127660512
 20
167.6907522933853
 30
0.0
 11
72.15956002641042
 21
167.6907522933186
 31
0.0
  0
LINE
  5
355
330
1F
100
AcDbEntity
  8
0
  6
Continuous
 62
     7
100
AcDbLine
 10
76.12816086318969
 20
164.1907526509827
 30
0.0
 11
76.65955983277831
 21
164.1907526509827
 31
0.0
  0
LINE
  5
356
330
1F
100
AcDbEntity
  8
0
  6
Continuous
 62
     7
100
AcDbLine
 10
77.65955999657831
 20
163.1907506243827
 30
0.0
 11
77.65955999657831
 21
161.6907550351828
 31
0.0
  0
LINE
  5
357
330
1F
100
AcDbEntity
  8
0
  6
Continuous
 62
     7
100
AcDbLine
 10
76.15955881957848
 20
163.6907560482769
 30
0.0
 11
76.15955881957848
 21
161.6907550351828
 31
0.0
  0
LINE
  5
358
330
1F
100
AcDbEntity
  8
0
  6
Continuous
 62
     7
100
AcDbLine
 10
140.4515538381378
 20
161.1907614723828
 30
0.0
 11
131.4591053889783
 21
161.1907614723828
 31
0.0
  0
LINE
  5
359
330
1F
100
AcDbEntity
  8
0
  6
Continuous
 62
     7
100
AcDbLine
 10
145.1240811513783
 20
161.1907614723828
 30
0.0
 11
141.9097218679783
 21
161.1907614723828
 31
0.0
  0
LINE
  5
35A
330
1F
100
AcDbEntity
  8
0
  6
Continuous
 62
     7
100
AcDbLine
 10
74.62625305799543
 20
161.6907550351828
 30
0.0
 11
144.2956587615709
 21
161.6907550351828
 31
0.0
  0
LINE
  5
35B
330
1F
100
AcDbEntity
  8
0
  6
Continuous
 62
     7
100
AcDbLine
 10
79.83958684077834
 20
161.1907614723828
 30
0.0
 11
74.21262897717838
 21
161.1907614723828
 31
0.0
  0
LINE
  5
35C
330
1F
100
AcDbEntity
  8
0
  6
Continuous
 62
     7
100
AcDbLine
 10
95.11942379357833
 20
161.1907614723828
 30
0.0
 11
82.38770961937848
 21
161.1907614723828
 31
0.0
  0
LINE
  5
35D
330
1F
100
AcDbEntity
  8
0
  6
Continuous
 62
     7
100
AcDbLine
 10
128.8379166291784
 20
161.1907614723828
 30
0.0
 11
115.8875633047785
 21
161.1907614723828
 31
0.0
  0
LINE
  5
35E
330
1F
100
AcDbEntity
  8
0
  6
Continuous
 62
     7
100
AcDbLine
 10
145.5092463659785
 20
150.1907540831959
 30
0.0
 11
145.5092463659785
 21
158.1907553927828
 31
0.0
  0
LINE
  5
35F
330
1F
100
AcDbEntity
  8
0
  6
Continuous
 62
     7
100
AcDbLine
 10
145.5092463659785
 20
158.1907553927828
 30
0.0
 11
143.0359888839785
 21
158.1907553927828
 31
0.0
  0
LINE
  5
360
330
1F
100
AcDbEntity
  8
0
  6
Continuous
 62
     7
100
AcDbLine
 10
143.0359888839785
 20
150.1907540815827
 30
0.0
 11
143.0359888839785
 21
158.1907553927828
 31
0.0
  0
LINE
  5
361
330
1F
100
AcDbEntity
  8
0
  6
Continuous
 62
     7
100
AcDbLine
 10
140.0213200615783
 20
150.1186622635827
 30
0.0
 11
140.0176692771784
 21
150.1907540815827
 31
0.0
  0
LINE
  5
362
330
1F
100
AcDbEntity
  8
0
  6
Continuous
 62
     7
100
AcDbLine
 10
140.0463465617784
 20
149.9902440563826
 30
0.0
 11
140.0213200615783
 21
150.1186622635827
 31
0.0
  0
LINE
  5
363
330
1F
100
AcDbEntity
  8
0
  6
Continuous
 62
     7
100
AcDbLine
 10
140.1203606295783
 20
149.8192830339827
 30
0.0
 11
140.0463465617784
 21
149.9902440563826
 31
0.0
  0
LINE
  5
364
330
1F
100
AcDbEntity
  8
0
  6
Continuous
 62
     7
100
AcDbLine
 10
140.2129489945785
 20
149.6920420185827
 30
0.0
 11
140.1203606295783
 21
149.8192830339827
 31
0.0
  0
LINE
  5
365
330
1F
100
AcDbEntity
  8
0
  6
Continuous
 62
     7
100
AcDbLine
 10
140.4900584387783
 20
149.4760496871827
 30
0.0
 11
140.2129489945785
 21
149.6920420185827
 31
0.0
  0
LINE
  5
366
330
1F
100
AcDbEntity
  8
0
  6
Continuous
 62
     7
100
AcDbLine
 10
140.7396454381783
 20
149.3711604135827
 30
0.0
 11
140.4900584387783
 21
149.4760496871827
 31
0.0
  0
LINE
  5
367
330
1F
100
AcDbEntity
  8
0
  6
Continuous
 62
     7
100
AcDbLine
 10
141.2106264399783
 20
149.2742879645828
 30
0.0
 11
140.7396454381783
 21
149.3711604135827
 31
0.0
  0
LINE
  5
368
330
1F
100
AcDbEntity
  8
0
  6
Continuous
 62
     7
100
AcDbLine
 10
141.6619230079784
 20
149.2538882749828
 30
0.0
 11
141.2106264399783
 21
149.2742879645828
 31
0.0
  0
LINE
  5
369
330
1F
100
AcDbEntity
  8
0
  6
Continuous
 62
     7
100
AcDbLine
 10
141.8302614259783
 20
149.2570920245827
 30
0.0
 11
141.6619230079784
 21
149.2538882749828
 31
0.0
  0
LINE
  5
36A
330
1F
100
AcDbEntity
  8
0
  6
Continuous
 62
     7
100
AcDbLine
 10
142.3077840375784
 20
149.3059827343826
 30
0.0
 11
141.8302614259783
 21
149.2570920245827
 31
0.0
  0
LINE
  5
36B
330
1F
100
AcDbEntity
  8
0
  6
Continuous
 62
     7
100
AcDbLine
 10
142.7452150749784
 20
149.5184285895828
 30
0.0
 11
142.3077840375784
 21
149.3059827343826
 31
0.0
  0
LINE
  5
36C
330
1F
100
AcDbEntity
  8
0
  6
Continuous
 62
     7
100
AcDbLine
 10
142.9253850149785
 20
149.7394277111827
 30
0.0
 11
142.7452150749784
 21
149.5184285895828
 31
0.0
  0
LINE
  5
36D
330
1F
100
AcDbEntity
  8
0
  6
Continuous
 62
     7
100
AcDbLine
 10
142.9972011613784
 20
149.9141438261828
 30
0.0
 11
142.9253850149785
 21
149.7394277111827
 31
0.0
  0
LINE
  5
36E
330
1F
100
AcDbEntity
  8
0
  6
Continuous
 62
     7
100
AcDbLine
 10
143.0272046493783
 20
150.0572396771827
 30
0.0
 11
142.9972011613784
 21
149.9141438261828
 31
0.0
  0
LINE
  5
36F
330
1F
100
AcDbEntity
  8
0
  6
Continuous
 62
     7
100
AcDbLine
 10
143.0359888839785
 20
150.1907540815827
 30
0.0
 11
143.0272046493783
 21
150.0572396771827
 31
0.0
  0
LINE
  5
370
330
1F
100
AcDbEntity
  8
0
  6
Continuous
 62
     7
100
AcDbLine
 10
140.0176692771784
 20
150.1907540815827
 30
0.0
 11
140.0176692771784
 21
158.1907553927828
 31
0.0
  0
LINE
  5
371
330
1F
100
AcDbEntity
  8
0
  6
Continuous
 62
     7
100
AcDbLine
 10
140.0176692771784
 20
158.1907553927828
 30
0.0
 11
133.0984938907784
 21
158.1907553927828
 31
0.0
  0
LINE
  5
372
330
1F
100
AcDbEntity
  8
0
  6
Continuous
 62
     7
100
AcDbLine
 10
133.0984938907784
 20
150.1907540815827
 30
0.0
 11
133.0984938907784
 21
158.1907553927828
 31
0.0
  0
LINE
  5
373
330
1F
100
AcDbEntity
  8
0
  6
Continuous
 62
     7
100
AcDbLine
 10
127.6787552999783
 20
150.1186622635827
 30
0.0
 11
127.6728022861785
 21
150.1907540815827
 31
0.0
  0
LINE
  5
374
330
1F
100
AcDbEntity
  8
0
  6
Continuous
 62
     7
100
AcDbLine
 10
127.7195397781784
 20
149.9902440563826
 30
0.0
 11
127.6787552999783
 21
150.1186622635827
 31
0.0
  0
LINE
  5
375
330
1F
100
AcDbEntity
  8
0
  6
Continuous
 62
     7
100
AcDbLine
 10
127.8404478001785
 20
149.8192830339827
 30
0.0
 11
127.7195397781784
 21
149.9902440563826
 31
0.0
  0
LINE
  5
376
330
1F
100
AcDbEntity
  8
0
  6
Continuous
 62
     7
100
AcDbLine
 10
127.9923576879785
 20
149.6920420185827
 30
0.0
 11
127.8404478001785
 21
149.8192830339827
 31
0.0
  0
LINE
  5
377
330
1F
100
AcDbEntity
  8
0
  6
Continuous
 62
     7
100
AcDbLine
 10
128.4514550137783
 20
149.4760496871827
 30
0.0
 11
127.9923576879785
 21
149.6920420185827
 31
0.0
  0
LINE
  5
378
330
1F
100
AcDbEntity
  8
0
  6
Continuous
 62
     7
100
AcDbLine
 10
128.8709748553783
 20
149.3711604135827
 30
0.0
 11
128.4514550137783
 21
149.4760496871827
 31
0.0
  0
LINE
  5
379
330
1F
100
AcDbEntity
  8
0
  6
Continuous
 62
     7
100
AcDbLine
 10
129.6797353791783
 20
149.2742879645828
 30
0.0
 11
128.8709748553783
 21
149.3711604135827
 31
0.0
  0
LINE
  5
37A
330
1F
100
AcDbEntity
  8
0
  6
Continuous
 62
     7
100
AcDbLine
 10
130.4781842993784
 20
149.2538882749827
 30
0.0
 11
129.6797353791783
 21
149.2742879645828
 31
0.0
  0
LINE
  5
37B
330
1F
100
AcDbEntity
  8
0
  6
Continuous
 62
     7
100
AcDbLine
 10
130.7826895283783
 20
149.2570920245827
 30
0.0
 11
130.4781842993784
 21
149.2538882749827
 31
0.0
  0
LINE
  5
37C
330
1F
100
AcDbEntity
  8
0
  6
Continuous
 62
     7
100
AcDbLine
 10
131.6692937183784
 20
149.3059827343826
 30
0.0
 11
130.7826895283783
 21
149.2570920245827
 31
0.0
  0
LINE
  5
37D
330
1F
100
AcDbEntity
  8
0
  6
Continuous
 62
     7
100
AcDbLine
 10
132.5147781537785
 20
149.5184285895828
 30
0.0
 11
131.6692937183784
 21
149.3059827343826
 31
0.0
  0
LINE
  5
37E
330
1F
100
AcDbEntity
  8
0
  6
Continuous
 62
     7
100
AcDbLine
 10
132.8742314147785
 20
149.7394277111827
 30
0.0
 11
132.5147781537785
 21
149.5184285895828
 31
0.0
  0
LINE
  5
37F
330
1F
100
AcDbEntity
  8
0
  6
Continuous
 62
     7
100
AcDbLine
 10
133.0195177363785
 20
149.9141438261827
 30
0.0
 11
132.8742314147785
 21
149.7394277111827
 31
0.0
  0
LINE
  5
380
330
1F
100
AcDbEntity
  8
0
  6
Continuous
 62
     7
100
AcDbLine
 10
133.0805826949784
 20
150.0572396771827
 30
0.0
 11
133.0195177363785
 21
149.9141438261827
 31
0.0
  0
LINE
  5
381
330
1F
100
AcDbEntity
  8
0
  6
Continuous
 62
     7
100
AcDbLine
 10
133.0984938907784
 20
150.1907540815827
 30
0.0
 11
133.0805826949784
 21
150.0572396771827
 31
0.0
  0
LINE
  5
382
330
1F
100
AcDbEntity
  8
0
  6
Continuous
 62
     7
100
AcDbLine
 10
127.6728022861785
 20
150.1907540815827
 30
0.0
 11
127.6728022861785
 21
158.1907553927828
 31
0.0
  0
LINE
  5
383
330
1F
100
AcDbEntity
  8
0
  6
Continuous
 62
     7
100
AcDbLine
 10
127.6728022861785
 20
158.1907553927828
 30
0.0
 11
117.7082430587784
 21
158.1907553927828
 31
0.0
  0
LINE
  5
384
330
1F
100
AcDbEntity
  8
0
  6
Continuous
 62
     7
100
AcDbLine
 10
110.9804432855783
 20
150.1186622635827
 30
0.0
 11
110.9733987617783
 21
150.1907540815827
 31
0.0
  0
LINE
  5
385
330
1F
100
AcDbEntity
  8
0
  6
Continuous
 62
     7
100
AcDbLine
 10
111.0287304985784
 20
149.9902440563826
 30
0.0
 11
110.9804432855783
 21
150.1186622635827
 31
0.0
  0
LINE
  5
386
330
1F
100
AcDbEntity
  8
0
  6
Continuous
 62
     7
100
AcDbLine
 10
111.1720722185785
 20
149.8192830339829
 30
0.0
 11
111.0287304985784
 21
149.9902440563826
 31
0.0
  0
LINE
  5
387
330
1F
100
AcDbEntity
  8
0
  6
Continuous
 62
     7
100
AcDbLine
 10
111.3525550829784
 20
149.6920420185827
 30
0.0
 11
111.1720722185785
 21
149.8192830339829
 31
0.0
  0
LINE
  5
388
330
1F
100
AcDbEntity
  8
0
  6
Continuous
 62
     7
100
AcDbLine
 10
111.9007129239783
 20
149.4760496871827
 30
0.0
 11
111.3525550829784
 21
149.6920420185827
 31
0.0
  0
LINE
  5
389
330
1F
100
AcDbEntity
  8
0
  6
Continuous
 62
     7
100
AcDbLine
 10
112.4052401649783
 20
149.3711604135827
 30
0.0
 11
111.9007129239783
 21
149.4760496871827
 31
0.0
  0
LINE
  5
38A
330
1F
100
AcDbEntity
  8
0
  6
Continuous
 62
     7
100
AcDbLine
 10
113.3880797791785
 20
149.2742879645828
 30
0.0
 11
112.4052401649783
 21
149.3711604135827
 31
0.0
  0
LINE
  5
38B
330
1F
100
AcDbEntity
  8
0
  6
Continuous
 62
     7
100
AcDbLine
 10
114.3720705079784
 20
149.2538882749827
 30
0.0
 11
113.3880797791785
 21
149.2742879645828
 31
0.0
  0
LINE
  5
38C
330
1F
100
AcDbEntity
  8
0
  6
Continuous
 62
     7
100
AcDbLine
 10
114.7511076199785
 20
149.2570920245829
 30
0.0
 11
114.3720705079784
 21
149.2538882749827
 31
0.0
  0
LINE
  5
38D
330
1F
100
AcDbEntity
  8
0
  6
Continuous
 62
     7
100
AcDbLine
 10
115.8673349785784
 20
149.3059827343826
 30
0.0
 11
114.7511076199785
 21
149.2570920245829
 31
0.0
  0
LINE
  5
38E
330
1F
100
AcDbEntity
  8
0
  6
Continuous
 62
     7
100
AcDbLine
 10
116.9497329759784
 20
149.5184285895828
 30
0.0
 11
115.8673349785784
 21
149.3059827343826
 31
0.0
  0
LINE
  5
38F
330
1F
100
AcDbEntity
  8
0
  6
Continuous
 62
     7
100
AcDbLine
 10
117.4157034623784
 20
149.7394277111828
 30
0.0
 11
116.9497329759784
 21
149.5184285895828
 31
0.0
  0
LINE
  5
390
330
1F
100
AcDbEntity
  8
0
  6
Continuous
 62
     7
100
AcDbLine
 10
117.6050674187784
 20
149.9141438261827
 30
0.0
 11
117.4157034623784
 21
149.7394277111828
 31
0.0
  0
LINE
  5
391
330
1F
100
AcDbEntity
  8
0
  6
Continuous
 62
     7
100
AcDbLine
 10
117.6848296093783
 20
150.0572396771827
 30
0.0
 11
117.6050674187784
 21
149.9141438261827
 31
0.0
  0
LINE
  5
392
330
1F
100
AcDbEntity
  8
0
  6
Continuous
 62
     7
100
AcDbLine
 10
117.7082430587784
 20
150.1907540815827
 30
0.0
 11
117.6848296093783
 21
150.0572396771827
 31
0.0
  0
LINE
  5
393
330
1F
100
AcDbEntity
  8
0
  6
Continuous
 62
     7
100
AcDbLine
 10
93.30632873057834
 20
150.1186622635827
 30
0.0
 11
93.29961575737843
 21
150.1907540815827
 31
0.0
  0
LINE
  5
394
330
1F
100
AcDbEntity
  8
0
  6
Continuous
 62
     7
100
AcDbLine
 10
93.35234351637837
 20
149.9902440563826
 30
0.0
 11
93.30632873057834
 21
150.1186622635827
 31
0.0
  0
LINE
  5
395
330
1F
100
AcDbEntity
  8
0
  6
Continuous
 62
     7
100
AcDbLine
 10
93.48909892317829
 20
149.8192830339829
 30
0.0
 11
93.35234351637837
 21
149.9902440563826
 31
0.0
  0
LINE
  5
396
330
1F
100
AcDbEntity
  8
0
  6
Continuous
 62
     7
100
AcDbLine
 10
93.66162456737834
 20
149.6920420185827
 30
0.0
 11
93.48909892317829
 21
149.8192830339829
 31
0.0
  0
LINE
  5
397
330
1F
100
AcDbEntity
  8
0
  6
Continuous
 62
     7
100
AcDbLine
 10
94.18788887737833
 20
149.4760496871827
 30
0.0
 11
93.66162456737834
 21
149.6920420185827
 31
0.0
  0
LINE
  5
398
330
1F
100
AcDbEntity
  8
0
  6
Continuous
 62
     7
100
AcDbLine
 10
94.67530958537827
 20
149.3711604135827
 30
0.0
 11
94.18788887737833
 21
149.4760496871827
 31
0.0
  0
LINE
  5
399
330
1F
100
AcDbEntity
  8
0
  6
Continuous
 62
     7
100
AcDbLine
 10
95.63328661197829
 20
149.2742879645828
 30
0.0
 11
94.67530958537827
 21
149.3711604135827
 31
0.0
  0
LINE
  5
39A
330
1F
100
AcDbEntity
  8
0
  6
Continuous
 62
     7
100
AcDbLine
 10
96.60364277837834
 20
149.2538882749825
 30
0.0
 11
95.63328661197829
 21
149.2742879645828
 31
0.0
  0
LINE
  5
39B
330
1F
100
AcDbEntity
  8
0
  6
Continuous
 62
     7
100
AcDbLine
 10
96.98048941957836
 20
149.2570920245829
 30
0.0
 11
96.60364277837834
 21
149.2538882749825
 31
0.0
  0
LINE
  5
39C
330
1F
100
AcDbEntity
  8
0
  6
Continuous
 62
     7
100
AcDbLine
 10
98.10040481557849
 20
149.3059827343828
 30
0.0
 11
96.98048941957836
 21
149.2570920245829
 31
0.0
  0
LINE
  5
39D
330
1F
100
AcDbEntity
  8
0
  6
Continuous
 62
     7
100
AcDbLine
 10
99.20062460177837
 20
149.5184285895828
 30
0.0
 11
98.10040481557849
 21
149.3059827343828
 31
0.0
  0
LINE
  5
39E
330
1F
100
AcDbEntity
  8
0
  6
Continuous
 62
     7
100
AcDbLine
 10
99.6788028645783
 20
149.7394277111828
 30
0.0
 11
99.20062460177837
 21
149.5184285895828
 31
0.0
  0
LINE
  5
39F
330
1F
100
AcDbEntity
  8
0
  6
Continuous
 62
     7
100
AcDbLine
 10
99.87390376797839
 20
149.9141438261828
 30
0.0
 11
99.6788028645783
 21
149.7394277111828
 31
0.0
  0
LINE
  5
3A0
330
1F
100
AcDbEntity
  8
0
  6
Continuous
 62
     7
100
AcDbLine
 10
99.95622150777831
 20
150.0572396771827
 30
0.0
 11
99.87390376797839
 21
149.9141438261828
 31
0.0
  0
LINE
  5
3A1
330
1F
100
AcDbEntity
  8
0
  6
Continuous
 62
     7
100
AcDbLine
 10
99.98039864177849
 20
150.1907540815827
 30
0.0
 11
99.95622150777831
 21
150.0572396771827
 31
0.0
  0
LINE
  5
3A2
330
1F
100
AcDbEntity
  8
0
  6
Continuous
 62
     7
100
AcDbLine
 10
93.29961575737843
 20
158.1907553927828
 30
0.0
 11
83.50329063997833
 21
158.1907553927828
 31
0.0
  0
LINE
  5
3A3
330
1F
100
AcDbEntity
  8
0
  6
Continuous
 62
     7
100
AcDbLine
 10
83.50329063997833
 20
150.1907540815827
 30
0.0
 11
83.50329063997833
 21
158.1907553927828
 31
0.0
  0
LINE
  5
3A4
330
1F
100
AcDbEntity
  8
0
  6
Continuous
 62
     7
100
AcDbLine
 10
78.23386192497833
 20
150.1186622635827
 30
0.0
 11
78.22884209637846
 21
150.1907540815827
 31
0.0
  0
LINE
  5
3A5
330
1F
100
AcDbEntity
  8
0
  6
Continuous
 62
     7
100
AcDbLine
 10
78.26829105797833
 20
149.9902440563826
 30
0.0
 11
78.23386192497833
 21
150.1186622635827
 31
0.0
  0
LINE
  5
3A6
330
1F
100
AcDbEntity
  8
0
  6
Continuous
 62
     7
100
AcDbLine
 10
78.37078124457844
 20
149.8192830339827
 30
0.0
 11
78.26829105797833
 21
149.9902440563826
 31
0.0
  0
LINE
  5
3A7
330
1F
100
AcDbEntity
  8
0
  6
Continuous
 62
     7
100
AcDbLine
 10
78.50042693497835
 20
149.6920420185827
 30
0.0
 11
78.37078124457844
 21
149.8192830339827
 31
0.0
  0
LINE
  5
3A8
330
1F
100
AcDbEntity
  8
0
  6
Continuous
 62
     7
100
AcDbLine
 10
78.89827490017842
 20
149.4760496871827
 30
0.0
 11
78.50042693497835
 21
149.6920420185827
 31
0.0
  0
LINE
  5
3A9
330
1F
100
AcDbEntity
  8
0
  6
Continuous
 62
     7
100
AcDbLine
 10
79.26992662417842
 20
149.3711604135827
 30
0.0
 11
78.89827490017842
 21
149.4760496871827
 31
0.0
  0
LINE
  5
3AA
330
1F
100
AcDbEntity
  8
0
  6
Continuous
 62
     7
100
AcDbLine
 10
80.0091378407783
 20
149.2742879645828
 30
0.0
 11
79.26992662417842
 21
149.3711604135827
 31
0.0
  0
LINE
  5
3AB
330
1F
100
AcDbEntity
  8
0
  6
Continuous
 62
     7
100
AcDbLine
 10
80.7694491015784
 20
149.2538882749827
 30
0.0
 11
80.0091378407783
 21
149.2742879645828
 31
0.0
  0
LINE
  5
3AC
330
1F
100
AcDbEntity
  8
0
  6
Continuous
 62
     7
100
AcDbLine
 10
81.06782809077845
 20
149.2570920245829
 30
0.0
 11
80.7694491015784
 21
149.2538882749827
 31
0.0
  0
LINE
  5
3AD
330
1F
100
AcDbEntity
  8
0
  6
Continuous
 62
     7
100
AcDbLine
 10
81.96474388417846
 20
149.3059827343826
 30
0.0
 11
81.06782809077845
 21
149.2570920245829
 31
0.0
  0
LINE
  5
3AE
330
1F
100
AcDbEntity
  8
0
  6
Continuous
 62
     7
100
AcDbLine
 10
82.86008946777838
 20
149.5184285895828
 30
0.0
 11
81.96474388417846
 21
149.3059827343826
 31
0.0
  0
LINE
  5
3AF
330
1F
100
AcDbEntity
  8
0
  6
Continuous
 62
     7
100
AcDbLine
 10
83.25368128897844
 20
149.7394277111828
 30
0.0
 11
82.86008946777838
 21
149.5184285895828
 31
0.0
  0
LINE
  5
3B0
330
1F
100
AcDbEntity
  8
0
  6
Continuous
 62
     7
100
AcDbLine
 10
83.41503292497828
 20
149.9141438261827
 30
0.0
 11
83.25368128897844
 21
149.7394277111828
 31
0.0
  0
LINE
  5
3B1
330
1F
100
AcDbEntity
  8
0
  6
Continuous
 62
     7
100
AcDbLine
 10
83.48324112777846
 20
150.0572396771827
 30
0.0
 11
83.41503292497828
 21
149.9141438261827
 31
0.0
  0
LINE
  5
3B2
330
1F
100
AcDbEntity
  8
0
  6
Continuous
 62
     7
100
AcDbLine
 10
83.50329063997833
 20
150.1907540815827
 30
0.0
 11
83.48324112777846
 21
150.0572396771827
 31
0.0
  0
LINE
  5
3B3
330
1F
100
AcDbEntity
  8
0
  6
Continuous
 62
     7
100
AcDbLine
 10
78.22884209637846
 20
150.1907540815827
 30
0.0
 11
78.22884209637846
 21
158.1907553927828
 31
0.0
  0
LINE
  5
3B4
330
1F
100
AcDbEntity
  8
0
  6
Continuous
 62
     7
100
AcDbLine
 10
78.22884209637846
 20
158.1907553927828
 30
0.0
 11
73.68817329588717
 21
158.1907553927828
 31
0.0
  0
LINE
  5
3B5
330
1F
100
AcDbEntity
  8
0
  6
Continuous
 62
     7
100
AcDbLine
 10
67.24738478837844
 20
164.1726924435826
 30
0.0
 11
67.22551640302436
 21
163.9617665068967
 31
0.0
  0
LINE
  5
3B6
330
1F
100
AcDbEntity
  8
0
  6
Continuous
 62
     7
100
AcDbLine
 10
66.65955912497839
 20
162.9907621399827
 30
0.0
 11
66.97064414797842
 21
162.9907621399827
 31
0.0
  0
LINE
  5
3B7
330
1F
100
AcDbEntity
  8
0
  6
Continuous
 62
     7
100
AcDbLine
 10
93.29961575737843
 20
150.1907540815827
 30
0.0
 11
93.29961575737843
 21
158.1907553927828
 31
0.0
  0
LINE
  5
3B8
330
1F
100
AcDbEntity
  8
0
  6
Continuous
 62
     7
100
AcDbLine
 10
99.98039864177849
 20
150.1907540815827
 30
0.0
 11
99.98039864177849
 21
158.1907553927828
 31
0.0
  0
LINE
  5
3B9
330
1F
100
AcDbEntity
  8
0
  6
Continuous
 62
     7
100
AcDbLine
 10
110.9733987617783
 20
150.1907540815827
 30
0.0
 11
110.9733987617783
 21
158.1907553927828
 31
0.0
  0
LINE
  5
3BA
330
1F
100
AcDbEntity
  8
0
  6
Continuous
 62
     7
100
AcDbLine
 10
117.7082430587784
 20
150.1907540815827
 30
0.0
 11
117.7082430587784
 21
158.1907553927828
 31
0.0
  0
LINE
  5
3BB
330
1F
100
AcDbEntity
  8
0
  6
Continuous
 62
     7
100
AcDbLine
 10
112.6339133845734
 20
161.1907614724947
 30
0.0
 11
98.34695197809447
 21
161.1907614725487
 31
0.0
  0
LINE
  5
3BC
330
1F
100
AcDbEntity
  8
0
  6
Continuous
 62
     7
100
AcDbLine
 10
110.9733987617783
 20
158.1907553927828
 30
0.0
 11
99.98039864177849
 21
158.1907553927828
 31
0.0
  0
LINE
  5
3BD
330
1F
100
AcDbEntity
  8
0
  6
Continuous
 62
     7
100
AcDbLine
 10
65.90955946777831
 20
133.4407611147827
 30
0.0
 11
146.4095596241793
 21
133.4407611147828
 31
0.0
  0
LINE
  5
3BE
330
1F
100
AcDbEntity
  8
0
  6
Continuous
 62
     7
100
AcDbLine
 10
146.8595597909794
 20
126.1907501475827
 30
0.0
 11
65.45955930077844
 21
126.1907501475827
 31
0.0
  0
LINE
  5
3BF
330
1F
100
AcDbEntity
  8
0
  6
Continuous
 62
     7
100
AcDbLine
 10
71.51584010737838
 20
167.7866114633827
 30
0.0
 11
71.13770774713402
 21
167.690752293366
 31
0.0
  0
LINE
  5
3C0
330
1F
100
AcDbEntity
  8
0
  6
Continuous
 62
     7
100
AcDbLine
 10
72.02245657232835
 20
167.8458726232501
 30
0.0
 11
71.51584010737838
 21
167.7866114633827
 31
0.0
  0
LINE
  5
3C1
330
1F
100
AcDbEntity
  8
0
  6
Continuous
 62
     7
100
AcDbLine
 10
147.1619776473731
 20
165.6907631413826
 30
0.0
 11
143.7394135309785
 21
165.6907631413826
 31
0.0
  0
LINE
  5
3C2
330
1F
100
AcDbEntity
  8
0
  6
Continuous
 62
     7
100
AcDbLine
 10
147.6595584319794
 20
166.9761502825827
 30
0.0
 11
147.6595584319794
 21
166.1916708568967
 31
0.0
  0
LINE
  5
3C3
330
1F
100
AcDbEntity
  8
0
  6
Continuous
 62
     7
100
AcDbLine
 10
94.65955905797841
 20
168.8907577053827
 30
0.0
 11
104.6595606969784
 21
168.8907577053827
 31
0.0
  0
LINE
  5
3C4
330
1F
100
AcDbEntity
  8
0
  6
Continuous
 62
     7
100
AcDbLine
 10
81.5672535466033
 20
162.3606367367127
 30
0.0
 11
77.13241168976263
 21
164.9210773829725
 31
0.0
  0
LINE
  5
3C5
330
1F
100
AcDbEntity
  8
0
  6
Continuous
 62
     7
100
AcDbLine
 10
74.15955849157831
 20
86.84074136648275
 30
0.0
 11
80.30041264700549
 21
75.87493530347984
 31
0.0
  0
LINE
  5
3C6
330
1F
100
AcDbEntity
  8
0
  6
Continuous
 62
     7
100
AcDbLine
 10
132.0187057230194
 20
75.8749350125122
 30
0.0
 11
138.1595576685397
 21
86.84074136648275
 31
0.0
  0
LINE
  5
3C7
330
1F
100
AcDbEntity
  8
0
  6
Continuous
 62
     7
100
AcDbLine
 10
114.4774626957783
 20
81.84074612668974
 30
0.0
 11
114.4774626957783
 21
78.23786142488274
 31
0.0
  0
LINE
  5
3C8
330
1F
100
AcDbEntity
  8
0
  6
Continuous
 62
     7
100
AcDbLine
 10
107.9095598327783
 20
78.23786142488274
 30
0.0
 11
114.4774626957783
 21
78.23786142488274
 31
0.0
  0
LINE
  5
3C9
330
1F
100
AcDbEntity
  8
0
  6
Continuous
 62
     7
100
AcDbLine
 10
97.84165732737847
 20
78.23786142488274
 30
0.0
 11
97.84165732744032
 21
81.8407461346988
 31
0.0
  0
LINE
  5
3CA
330
1F
100
AcDbEntity
  8
0
  6
Continuous
 62
     7
100
AcDbLine
 10
97.84165732747007
 20
78.23786142488274
 30
0.0
 11
104.4095601903784
 21
78.23786142488274
 31
0.0
  0
LINE
  5
3CB
330
1F
100
AcDbEntity
  8
0
  6
Continuous
 62
     7
100
AcDbLine
 10
67.15955920697843
 20
85.74074509768275
 30
0.0
 11
67.15955920697843
 21
85.85302534728271
 31
0.0
  0
LINE
  5
3CC
330
1F
100
AcDbEntity
  8
0
  6
Continuous
 62
     7
100
AcDbLine
 10
145.1595608161783
 20
108.9407429398828
 30
0.0
 11
145.1595608161783
 21
108.8284701408827
 31
0.0
  0
LINE
  5
3CD
330
1F
100
AcDbEntity
  8
0
  6
Continuous
 62
     7
100
AcDbLine
 10
145.1595608161783
 20
85.85302534728282
 30
0.0
 11
145.1595608161783
 21
85.74074509768275
 31
0.0
  0
LINE
  5
3CE
330
1F
100
AcDbEntity
  8
0
  6
Continuous
 62
     7
100
AcDbLine
 10
66.15955904297834
 20
84.12074300668274
 30
0.0
 11
66.15955904297834
 21
110.5607450308827
 31
0.0
  0
LINE
  5
3CF
330
1F
100
AcDbEntity
  8
0
  6
Continuous
 62
     7
100
AcDbLine
 10
56.1595592665783
 20
85.12074503328273
 30
0.0
 11
56.1595592665783
 21
109.5607430042827
 31
0.0
  0
LINE
  5
3D0
330
1F
100
AcDbEntity
  8
0
  6
Continuous
 62
     7
100
AcDbLine
 10
56.68012632697833
 20
84.1207430066828
 30
0.0
 11
56.68012632697833
 21
110.5607450308827
 31
0.0
  0
LINE
  5
3D1
330
1F
100
AcDbEntity
  8
0
  6
Continuous
 62
     7
100
AcDbLine
 10
156.1595607565785
 20
85.12074503328273
 30
0.0
 11
156.1595607565785
 21
109.5607430042827
 31
0.0
  0
LINE
  5
3D2
330
1F
100
AcDbEntity
  8
0
  6
Continuous
 62
     7
100
AcDbLine
 10
146.1595628427783
 20
110.5607450308827
 30
0.0
 11
146.1595628427783
 21
84.12074300668274
 31
0.0
  0
LINE
  5
3D3
330
1F
100
AcDbEntity
  8
0
  6
Continuous
 62
     7
100
AcDbLine
 10
155.6389886903785
 20
110.5607450308827
 30
0.0
 11
155.6389886903785
 21
84.12074300668274
 31
0.0
  0
LINE
  5
3D4
330
1F
100
AcDbEntity
  8
0
  6
Continuous
 62
     7
100
AcDbLine
 10
145.1520282791785
 20
86.06830987368272
 30
0.0
 11
145.1595608161783
 21
85.85302534728282
 31
0.0
  0
LINE
  5
3D5
330
1F
100
AcDbEntity
  8
0
  6
Continuous
 62
     7
100
AcDbLine
 10
129.4011879729783
 20
74.3407458366828
 30
0.0
 11
82.91793018757835
 21
74.3407458366828
 31
0.0
  0
LINE
  5
3D6
330
1F
100
AcDbEntity
  8
0
  6
Continuous
 62
     7
100
AcDbLine
 10
104.4095601903784
 20
86.84074136648275
 30
0.0
 11
104.4095601903784
 21
74.84074685008272
 31
0.0
  0
LINE
  5
3D7
330
1F
100
AcDbEntity
  8
0
  6
Continuous
 62
     7
100
AcDbLine
 10
107.9095598327783
 20
86.84074136648275
 30
0.0
 11
107.9095598327783
 21
74.84074685008272
 31
0.0
  0
LINE
  5
3D8
330
1F
100
AcDbEntity
  8
0
  6
Continuous
 62
     7
100
AcDbLine
 10
74.15955849157831
 20
86.84074136648275
 30
0.0
 11
138.1595615315785
 21
86.84074136648275
 31
0.0
  0
LINE
  5
3D9
330
1F
100
AcDbEntity
  8
0
  6
Continuous
 62
     7
100
AcDbLine
 10
68.65955945277847
 20
108.8407412472828
 30
0.0
 11
143.6595577763783
 21
108.8407412472828
 31
0.0
  0
LINE
  5
3DA
330
1F
100
AcDbEntity
  8
0
  6
Continuous
 62
     7
100
AcDbLine
 10
143.6595577763783
 20
108.8407412472828
 30
0.0
 11
143.6595577763783
 21
126.1907501475827
 31
0.0
  0
LINE
  5
3DB
330
1F
100
AcDbEntity
  8
0
  6
Continuous
 62
     7
100
AcDbLine
 10
68.65955945277847
 20
126.1907501475827
 30
0.0
 11
68.65955945277847
 21
108.8407412472828
 31
0.0
  0
LINE
  5
3DC
330
1F
100
AcDbEntity
  8
0
  6
Continuous
 62
     7
100
AcDbLine
 10
66.65955912497839
 20
162.9907621399827
 30
0.0
 11
66.65955912497839
 21
145.8769126193826
 31
0.0
  0
LINE
  5
3DD
330
1F
100
AcDbEntity
  8
0
  6
Continuous
 62
     7
100
AcDbLine
 10
66.61089961028642
 20
145.1810531395825
 30
0.0
 11
65.9582189228704
 21
140.5369887379831
 31
0.0
  0
LINE
  5
3DE
330
1F
100
AcDbEntity
  8
0
  6
Continuous
 62
     7
100
AcDbLine
 10
146.3608996102873
 20
140.5369887379831
 30
0.0
 11
145.7082189228704
 21
145.1810531395825
 31
0.0
  0
LINE
  5
3DF
330
1F
100
AcDbEntity
  8
0
  6
Continuous
 62
     7
100
AcDbLine
 10
65.90955946777831
 20
139.8411227719827
 30
0.0
 11
65.90955946777831
 21
133.4407611147827
 31
0.0
  0
LINE
  5
3E0
330
1F
100
AcDbEntity
  8
0
  6
Continuous
 62
     7
100
AcDbLine
 10
146.4095596241793
 20
133.4407611147828
 30
0.0
 11
146.4095596241793
 21
139.8411227719827
 31
0.0
  0
LINE
  5
3E1
330
1F
100
AcDbEntity
  8
0
  6
Continuous
 62
     7
100
AcDbLine
 10
65.90955946777831
 20
133.4407611147827
 30
0.0
 11
65.24742730137837
 21
132.7786280171828
 31
0.0
  0
LINE
  5
3E2
330
1F
100
AcDbEntity
  8
0
  6
Continuous
 62
     7
100
AcDbLine
 10
147.0716927217784
 20
132.7786280171828
 30
0.0
 11
146.4095596241793
 21
133.4407611147828
 31
0.0
  0
LINE
  5
3E3
330
1F
100
AcDbEntity
  8
0
  6
Continuous
 62
     7
100
AcDbLine
 10
65.15955887917835
 20
132.5664950863827
 30
0.0
 11
65.15955887917835
 21
126.4907552259828
 31
0.0
  0
LINE
  5
3E4
330
1F
100
AcDbEntity
  8
0
  6
Continuous
 62
     7
100
AcDbLine
 10
147.1595574187784
 20
126.4907552259828
 30
0.0
 11
147.1595574187784
 21
132.5664950863827
 31
0.0
  0
LINE
  5
3E5
330
1F
100
AcDbEntity
  8
0
  6
Continuous
 62
     7
100
AcDbLine
 10
140.7305706309785
 20
161.6907550351828
 30
0.0
 11
140.7395277617864
 21
162.7169368992777
 31
0.0
  0
LINE
  5
3E6
330
1F
100
AcDbEntity
  8
0
  6
Continuous
 62
     7
100
AcDbLine
 10
138.1595615315785
 20
86.84074136648275
 30
0.0
 11
138.1595615315785
 21
87.86059173968272
 31
0.0
  0
LINE
  5
3E7
330
1F
100
AcDbEntity
  8
0
  6
Continuous
 62
     7
100
AcDbLine
 10
138.1595615315785
 20
106.8098321856827
 30
0.0
 11
138.1595615315785
 21
108.8407412472828
 31
0.0
  0
LINE
  5
3E8
330
1F
100
AcDbEntity
  8
0
  6
Continuous
 62
     7
100
AcDbLine
 10
74.15955849157831
 20
108.8407412472828
 30
0.0
 11
74.15955849157831
 21
106.8166304595252
 31
0.0
  0
LINE
  5
3E9
330
1F
100
AcDbEntity
  8
0
  6
Continuous
 62
     7
100
AcDbLine
 10
74.15955849157831
 20
87.85054835708274
 30
0.0
 11
74.15955849157831
 21
86.84074136648275
 31
0.0
  0
LINE
  5
3EA
330
1F
100
AcDbEntity
  8
0
  6
Continuous
 62
     7
100
AcDbLine
 10
67.16122583670264
 20
108.9407429398828
 30
0.0
 11
66.15955904297834
 21
108.9407429398828
 31
0.0
  0
LINE
  5
3EB
330
1F
100
AcDbEntity
  8
0
  6
Continuous
 62
     7
100
AcDbLine
 10
66.15955904297834
 20
85.74074509768275
 30
0.0
 11
67.15955920697843
 21
85.74074509768275
 31
0.0
  0
LINE
  5
3EC
330
1F
100
AcDbEntity
  8
0
  6
Continuous
 62
     7
100
AcDbLine
 10
146.1595628427783
 20
108.9407429398828
 30
0.0
 11
145.1595608161783
 21
108.9407429398828
 31
0.0
  0
LINE
  5
3ED
330
1F
100
AcDbEntity
  8
0
  6
Continuous
 62
     7
100
AcDbLine
 10
145.1595608161783
 20
85.74074509768275
 30
0.0
 11
146.1595628427783
 21
85.74074509768275
 31
0.0
  0
LINE
  5
3EE
330
1F
100
AcDbEntity
  8
0
  6
Continuous
 62
     7
100
AcDbLine
 10
56.68012632697833
 20
110.5607450308827
 30
0.0
 11
56.1595592665783
 21
109.5607430042827
 31
0.0
  0
LINE
  5
3EF
330
1F
100
AcDbEntity
  8
0
  6
Continuous
 62
     7
100
AcDbLine
 10
66.15955904297834
 20
110.5607450308827
 30
0.0
 11
56.68012632697833
 21
110.5607450308827
 31
0.0
  0
LINE
  5
3F0
330
1F
100
AcDbEntity
  8
0
  6
Continuous
 62
     7
100
AcDbLine
 10
56.68012632697833
 20
84.1207430066828
 30
0.0
 11
66.15955904297834
 21
84.12074300668274
 31
0.0
  0
LINE
  5
3F1
330
1F
100
AcDbEntity
  8
0
  6
Continuous
 62
     7
100
AcDbLine
 10
56.1595592665783
 20
85.12074503328273
 30
0.0
 11
56.68012632697833
 21
84.1207430066828
 31
0.0
  0
LINE
  5
3F2
330
1F
100
AcDbEntity
  8
0
  6
Continuous
 62
     7
100
AcDbLine
 10
155.6389886903785
 20
84.12074300668274
 30
0.0
 11
156.1595607565785
 21
85.12074503328273
 31
0.0
  0
LINE
  5
3F3
330
1F
100
AcDbEntity
  8
0
  6
Continuous
 62
     7
100
AcDbLine
 10
155.6389886903785
 20
110.5607450308827
 30
0.0
 11
146.1595628427783
 21
110.5607450308827
 31
0.0
  0
LINE
  5
3F4
330
1F
100
AcDbEntity
  8
0
  6
Continuous
 62
     7
100
AcDbLine
 10
146.1595628427783
 20
84.12074300668274
 30
0.0
 11
155.6389886903785
 21
84.12074300668274
 31
0.0
  0
LINE
  5
3F5
330
1F
100
AcDbEntity
  8
0
  6
Continuous
 62
     7
100
AcDbLine
 10
156.1595607565785
 20
109.5607430042827
 30
0.0
 11
155.6389886903785
 21
110.5607450308827
 31
0.0
  0
LINE
  5
3F6
330
1F
100
AcDbEntity
  8
0
  6
Continuous
 62
     7
100
AcDbLine
 10
72.28171086314927
 20
105.8407426180827
 30
0.0
 11
70.15955876737848
 21
105.8407426180857
 31
0.0
  0
LINE
  5
3F7
330
1F
100
AcDbEntity
  8
0
  6
Continuous
 62
     7
100
AcDbLine
 10
140.0466073321784
 20
88.84074541948274
 30
0.0
 11
142.1595621871784
 21
88.84074541948274
 31
0.0
  0
LINE
  5
3F8
330
1F
100
AcDbEntity
  8
0
  6
Continuous
 62
     7
100
AcDbLine
 10
138.3752558397785
 20
106.5855250062828
 30
0.0
 11
138.1595615315785
 21
106.8098321856827
 31
0.0
  0
LINE
  5
3F9
330
1F
100
AcDbEntity
  8
0
  6
Continuous
 62
     7
100
AcDbLine
 10
138.6229801939785
 20
106.3512340488827
 30
0.0
 11
138.3752558397785
 21
106.5855250062828
 31
0.0
  0
LINE
  5
3FA
330
1F
100
AcDbEntity
  8
0
  6
Continuous
 62
     7
100
AcDbLine
 10
138.9894071983783
 20
106.1091944874828
 30
0.0
 11
138.6229801939785
 21
106.3512340488827
 31
0.0
  0
LINE
  5
3FB
330
1F
100
AcDbEntity
  8
0
  6
Continuous
 62
     7
100
AcDbLine
 10
139.4725922511784
 20
105.9181541504829
 30
0.0
 11
138.9894071983783
 21
106.1091944874828
 31
0.0
  0
LINE
  5
3FC
330
1F
100
AcDbEntity
  8
0
  6
Continuous
 62
     7
100
AcDbLine
 10
140.0389897366564
 20
105.8407426180827
 30
0.0
 11
139.4725922511784
 21
105.9181541504829
 31
0.0
  0
LINE
  5
3FD
330
1F
100
AcDbEntity
  8
0
  6
Continuous
 62
     7
100
AcDbLine
 10
73.94339107157839
 20
88.09524777548273
 30
0.0
 11
74.15955849157831
 21
87.85054835708274
 31
0.0
  0
LINE
  5
3FE
330
1F
100
AcDbEntity
  8
0
  6
Continuous
 62
     7
100
AcDbLine
 10
73.69795777077843
 20
88.32834664008271
 30
0.0
 11
73.94339107157839
 21
88.09524777548273
 31
0.0
  0
LINE
  5
3FF
330
1F
100
AcDbEntity
  8
0
  6
Continuous
 62
     7
100
AcDbLine
 10
73.33316244357843
 20
88.57037875088281
 30
0.0
 11
73.69795777077843
 21
88.32834664008271
 31
0.0
  0
LINE
  5
400
330
1F
100
AcDbEntity
  8
0
  6
Continuous
 62
     7
100
AcDbLine
 10
72.84982837917846
 20
88.76244726808284
 30
0.0
 11
73.33316244357843
 21
88.57037875088281
 31
0.0
  0
LINE
  5
401
330
1F
100
AcDbEntity
  8
0
  6
Continuous
 62
     7
100
AcDbLine
 10
72.28194885137827
 20
88.8407156172828
 30
0.0
 11
72.84982837917846
 21
88.76244726808284
 31
0.0
  0
LINE
  5
402
330
1F
100
AcDbEntity
  8
0
  6
Continuous
 62
     7
100
AcDbLine
 10
139.4691128301784
 20
88.76239511388275
 30
0.0
 11
140.0387097167784
 21
88.84071561728274
 31
0.0
  0
LINE
  5
403
330
1F
100
AcDbEntity
  8
0
  6
Continuous
 62
     7
100
AcDbLine
 10
138.9838341641785
 20
88.5693133178828
 30
0.0
 11
139.4691128301784
 21
88.76239511388275
 31
0.0
  0
LINE
  5
404
330
1F
100
AcDbEntity
  8
0
  6
Continuous
 62
     7
100
AcDbLine
 10
138.6170197295785
 20
88.32534405608271
 30
0.0
 11
138.9838341641785
 21
88.5693133178828
 31
0.0
  0
LINE
  5
405
330
1F
100
AcDbEntity
  8
0
  6
Continuous
 62
     7
100
AcDbLine
 10
138.3701670931785
 20
88.09010687488274
 30
0.0
 11
138.6170197295785
 21
88.32534405608271
 31
0.0
  0
LINE
  5
406
330
1F
100
AcDbEntity
  8
1
  6
Continuous
 62
     7
100
AcDbLine
 10
108.5881300431504
 20
119.3407440187828
 30
0.0
 11
107.1595586145784
 21
121.8407440187828
 31
0.0
  0
LINE
  5
407
330
1F
100
AcDbEntity
  8
1
  6
Continuous
 62
     7
100
AcDbLine
 10
108.5881300431504
 20
117.3407440187828
 30
0.0
 11
107.1595586145784
 21
114.8407440187828
 31
0.0
  0
LINE
  5
408
330
1F
100
AcDbEntity
  8
1
  6
Continuous
 62
     7
100
AcDbLine
 10
90.58813004315039
 20
119.3407440187828
 30
0.0
 11
89.15955861457837
 21
121.8407440187828
 31
0.0
  0
LINE
  5
409
330
1F
100
AcDbEntity
  8
1
  6
Continuous
 62
     7
100
AcDbLine
 10
90.58813004315039
 20
117.3407440187828
 30
0.0
 11
89.15955861457837
 21
114.8407440187828
 31
0.0
  0
LINE
  5
40A
330
1F
100
AcDbEntity
  8
1
  6
Continuous
 62
     7
100
AcDbLine
 10
89.15955861457837
 20
114.8407440187828
 30
0.0
 11
107.1595586145784
 21
114.8407440187828
 31
0.0
  0
LINE
  5
40B
330
1F
100
AcDbEntity
  8
1
  6
Continuous
 62
     7
100
AcDbLine
 10
89.15955861457837
 20
121.8407440187828
 30
0.0
 11
107.1595586145784
 21
121.8407440187828
 31
0.0
  0
LINE
  5
40C
330
1F
100
AcDbEntity
  8
1
  6
Continuous
 62
     7
100
AcDbLine
 10
116.1595586145784
 20
114.8407440187828
 30
0.0
 11
116.1595586145784
 21
117.3407440187828
 31
0.0
  0
LINE
  5
40D
330
1F
100
AcDbEntity
  8
1
  6
Continuous
 62
     7
100
AcDbLine
 10
116.1595586145784
 20
121.8407440187828
 30
0.0
 11
116.1595586145784
 21
119.3407440187828
 31
0.0
  0
LINE
  5
40E
330
1F
100
AcDbEntity
  8
1
  6
Continuous
 62
     7
100
AcDbLine
 10
123.1595586145784
 20
118.3407440187828
 30
0.0
 11
116.1595586145784
 21
114.8407440187828
 31
0.0
  0
LINE
  5
40F
330
1F
100
AcDbEntity
  8
1
  6
Continuous
 62
     7
100
AcDbLine
 10
123.1595586145784
 20
118.3407440187828
 30
0.0
 11
116.1595586145784
 21
121.8407440187828
 31
0.0
  0
LINE
  5
410
330
1F
100
AcDbEntity
  8
1
  6
Continuous
 62
     7
100
AcDbLine
 10
89.15955861457837
 20
117.3407440187828
 30
0.0
 11
116.1595586145784
 21
117.3407440187828
 31
0.0
  0
LINE
  5
411
330
1F
100
AcDbEntity
  8
1
  6
Continuous
 62
     7
100
AcDbLine
 10
89.15955861457837
 20
119.3407440187828
 30
0.0
 11
116.1595586145784
 21
119.3407440187828
 31
0.0
  0
LINE
  5
412
330
1F
100
AcDbEntity
  8
1
  6
Continuous
 62
     7
100
AcDbLine
 10
89.15955861457837
 20
119.3407440187828
 30
0.0
 11
89.15955861457837
 21
117.3407440187828
 31
0.0
  0
LINE
  5
413
330
1F
100
AcDbEntity
  8
1
  6
Continuous
 62
     7
100
AcDbLine
 10
95.15955861457837
 20
95.09074401878274
 30
0.0
 11
96.15955861457837
 21
95.09074401878274
 31
0.0
  0
LINE
  5
414
330
1F
100
AcDbEntity
  8
1
  6
Continuous
 62
     7
100
AcDbLine
 10
95.15955861457837
 20
99.59074401878274
 30
0.0
 11
96.15955861457837
 21
99.59074401878274
 31
0.0
  0
LINE
  5
415
330
1F
100
AcDbEntity
  8
1
  6
Continuous
 62
     7
100
AcDbLine
 10
100.4095586145784
 20
101.3407440187828
 30
0.0
 11
97.90955861457837
 21
101.3407440187828
 31
0.0
  0
LINE
  5
416
330
1F
100
AcDbEntity
  8
1
  6
Continuous
 62
     7
100
AcDbLine
 10
99.15955861457837
 20
97.84074401878274
 30
0.0
 11
100.4095586145784
 21
97.84074401878274
 31
0.0
  0
LINE
  5
417
330
1F
100
AcDbEntity
  8
1
  6
Continuous
 62
     7
100
AcDbLine
 10
99.15955861457837
 20
96.8407440187828
 30
0.0
 11
99.15955861457837
 21
97.84074401878274
 31
0.0
  0
LINE
  5
418
330
1F
100
AcDbEntity
  8
1
  6
Continuous
 62
     7
100
AcDbLine
 10
100.4095586145784
 20
96.84074401878274
 30
0.0
 11
99.15955861457837
 21
96.8407440187828
 31
0.0
  0
LINE
  5
419
330
1F
100
AcDbEntity
  8
1
  6
Continuous
 62
     7
100
AcDbLine
 10
97.90955861457837
 20
93.3407440187828
 30
0.0
 11
100.4095586145784
 21
93.34074401878274
 31
0.0
  0
LINE
  5
41A
330
1F
100
AcDbEntity
  8
1
  6
Continuous
 62
     7
100
AcDbLine
 10
100.4095586145784
 20
92.34074401878274
 30
0.0
 11
97.90955861457837
 21
92.34074401878274
 31
0.0
  0
LINE
  5
41B
330
1F
100
AcDbEntity
  8
1
  6
Continuous
 62
     7
100
AcDbLine
 10
97.90955861457837
 20
102.3407440187827
 30
0.0
 11
100.4095586145784
 21
102.3407440187828
 31
0.0
  0
LINE
  5
41C
330
1F
100
AcDbEntity
  8
1
  6
Continuous
 62
     7
100
AcDbLine
 10
114.1595586145784
 20
97.4657440187828
 30
0.0
 11
114.1595586145784
 21
92.3407440187828
 31
0.0
  0
LINE
  5
41D
330
1F
100
AcDbEntity
  8
1
  6
Continuous
 62
     7
100
AcDbLine
 10
107.1595586145784
 20
98.2563134338248
 30
0.0
 11
107.1595586145784
 21
99.3028613258702
 31
0.0
  0
LINE
  5
41E
330
1F
100
AcDbEntity
  8
1
  6
Continuous
 62
     7
100
AcDbLine
 10
107.6595586145784
 20
92.3407440187828
 30
0.0
 11
107.6595586145784
 21
97.4657440187828
 31
0.0
  0
LINE
  5
41F
330
1F
100
AcDbEntity
  8
1
  6
Continuous
 62
     7
100
AcDbLine
 10
108.6595586145784
 20
92.3407440187828
 30
0.0
 11
107.6595586145784
 21
92.3407440187828
 31
0.0
  0
LINE
  5
420
330
1F
100
AcDbEntity
  8
1
  6
Continuous
 62
     7
100
AcDbLine
 10
108.6595586145784
 20
97.4657440187828
 30
0.0
 11
108.6595586145784
 21
92.3407440187828
 31
0.0
  0
LINE
  5
421
330
1F
100
AcDbEntity
  8
1
  6
Continuous
 62
     7
100
AcDbLine
 10
110.4095586145784
 20
92.3407440187828
 30
0.0
 11
110.4095586145784
 21
97.4657440187828
 31
0.0
  0
LINE
  5
422
330
1F
100
AcDbEntity
  8
1
  6
Continuous
 62
     7
100
AcDbLine
 10
111.4095586145784
 20
92.3407440187828
 30
0.0
 11
110.4095586145784
 21
92.3407440187828
 31
0.0
  0
LINE
  5
423
330
1F
100
AcDbEntity
  8
1
  6
Continuous
 62
     7
100
AcDbLine
 10
111.4095586145784
 20
97.4657440187828
 30
0.0
 11
111.4095586145784
 21
92.3407440187828
 31
0.0
  0
LINE
  5
424
330
1F
100
AcDbEntity
  8
1
  6
Continuous
 62
     7
100
AcDbLine
 10
113.1595586145784
 20
92.3407440187828
 30
0.0
 11
113.1595586145784
 21
97.4657440187828
 31
0.0
  0
LINE
  5
425
330
1F
100
AcDbEntity
  8
1
  6
Continuous
 62
     7
100
AcDbLine
 10
114.1595586145784
 20
92.3407440187828
 30
0.0
 11
113.1595586145784
 21
92.3407440187828
 31
0.0
  0
LINE
  5
426
330
1F
100
AcDbEntity
  8
1
  6
Continuous
 62
     7
100
AcDbLine
 10
123.1595586145784
 20
97.4657440187828
 30
0.0
 11
123.1595586145784
 21
92.3407440187828
 31
0.0
  0
LINE
  5
427
330
1F
100
AcDbEntity
  8
1
  6
Continuous
 62
     7
100
AcDbLine
 10
116.1595586145784
 20
98.2563134338248
 30
0.0
 11
116.1595586145784
 21
99.3028613258702
 31
0.0
  0
LINE
  5
428
330
1F
100
AcDbEntity
  8
1
  6
Continuous
 62
     7
100
AcDbLine
 10
116.6595586145784
 20
92.3407440187828
 30
0.0
 11
116.6595586145784
 21
97.4657440187828
 31
0.0
  0
LINE
  5
429
330
1F
100
AcDbEntity
  8
1
  6
Continuous
 62
     7
100
AcDbLine
 10
117.6595586145784
 20
92.3407440187828
 30
0.0
 11
116.6595586145784
 21
92.3407440187828
 31
0.0
  0
LINE
  5
42A
330
1F
100
AcDbEntity
  8
1
  6
Continuous
 62
     7
100
AcDbLine
 10
117.6595586145784
 20
97.4657440187828
 30
0.0
 11
117.6595586145784
 21
92.3407440187828
 31
0.0
  0
LINE
  5
42B
330
1F
100
AcDbEntity
  8
1
  6
Continuous
 62
     7
100
AcDbLine
 10
119.4095586145784
 20
92.3407440187828
 30
0.0
 11
119.4095586145784
 21
97.4657440187828
 31
0.0
  0
LINE
  5
42C
330
1F
100
AcDbEntity
  8
1
  6
Continuous
 62
     7
100
AcDbLine
 10
120.4095586145784
 20
92.3407440187828
 30
0.0
 11
119.4095586145784
 21
92.3407440187828
 31
0.0
  0
LINE
  5
42D
330
1F
100
AcDbEntity
  8
1
  6
Continuous
 62
     7
100
AcDbLine
 10
120.4095586145784
 20
97.4657440187828
 30
0.0
 11
120.4095586145784
 21
92.3407440187828
 31
0.0
  0
LINE
  5
42E
330
1F
100
AcDbEntity
  8
1
  6
Continuous
 62
     7
100
AcDbLine
 10
122.1595586145784
 20
92.3407440187828
 30
0.0
 11
122.1595586145784
 21
97.4657440187828
 31
0.0
  0
LINE
  5
42F
330
1F
100
AcDbEntity
  8
1
  6
Continuous
 62
     7
100
AcDbLine
 10
123.1595586145784
 20
92.3407440187828
 30
0.0
 11
122.1595586145784
 21
92.3407440187828
 31
0.0
  0
LINE
  5
430
330
1F
100
AcDbEntity
  8
1
  6
Continuous
 62
     7
100
AcDbLine
 10
89.15955861457837
 20
100.0609288458603
 30
0.0
 11
90.15955861457837
 21
100.0609288458603
 31
0.0
  0
LINE
  5
431
330
1F
100
AcDbEntity
  8
1
  6
Continuous
 62
     7
100
AcDbLine
 10
90.15955861457837
 20
102.3407440187828
 30
0.0
 11
89.15955861457837
 21
100.0609288458603
 31
0.0
  0
LINE
  5
432
330
1F
100
AcDbEntity
  8
1
  6
DASH_CENTER
 62
     7
100
AcDbLine
 10
90.15955861457837
 20
92.3407440187828
 30
0.0
 11
91.15955861457837
 21
92.3407440187828
 31
0.0
  0
LINE
  5
433
330
1F
100
AcDbEntity
  8
1
  6
Continuous
 62
     7
100
AcDbLine
 10
90.15955861457837
 20
92.3407440187828
 30
0.0
 11
90.15955861457837
 21
100.0609288458603
 31
0.0
  0
LINE
  5
434
330
1F
100
AcDbEntity
  8
1
  6
Continuous
 62
     7
100
AcDbLine
 10
90.15955861457837
 20
102.3407440187828
 30
0.0
 11
91.15955861457837
 21
102.3407440187827
 31
0.0
  0
LINE
  5
435
330
1F
100
AcDbEntity
  8
1
  6
Continuous
 62
     7
100
AcDbLine
 10
90.15955861457837
 20
92.3407440187828
 30
0.0
 11
91.15955861457837
 21
92.3407440187828
 31
0.0
  0
LINE
  5
436
330
1F
100
AcDbEntity
  8
1
  6
Continuous
 62
     7
100
AcDbLine
 10
91.15955861457837
 20
92.3407440187828
 30
0.0
 11
91.15955861457837
 21
102.3407440187827
 31
0.0
  0
LINE
  5
437
330
1F
100
AcDbEntity
  8
1
  6
Continuous
 62
     7
100
AcDbLine
 10
91.15955861457837
 20
102.3407440187827
 30
0.0
 11
90.15955861457837
 21
102.3407440187828
 31
0.0
  0
LINE
  5
438
330
1F
100
AcDbEntity
  8
1
  6
Continuous
 62
     7
100
AcDbLine
 10
90.15955861457837
 20
100.0609288458603
 30
0.0
 11
90.15955861457837
 21
92.3407440187828
 31
0.0
  0
LINE
  5
439
330
1F
100
AcDbEntity
  8
0
  6
Continuous
 62
     7
100
AcDbLine
 10
94.65955905797841
 20
168.5842844404506
 30
0.0
 11
94.65955905797841
 21
168.8907577053827
 31
0.0
  0
LINE
  5
43A
330
1F
100
AcDbEntity
  8
0
  6
Continuous
 62
     7
100
AcDbLine
 10
104.6595606969784
 20
168.6771479627456
 30
0.0
 11
104.6595606969784
 21
168.8907577053827
 31
0.0
  0
LINE
  5
43B
330
1F
100
AcDbEntity
  8
1
  6
Continuous
 62
     7
100
AcDbLine
 10
65.9095592665783
 20
139.8411232331828
 30
0.0
 11
146.4095592665794
 21
139.8411232331828
 31
0.0
  0
LINE
  5
43C
330
1F
100
AcDbEntity
  8
1
  6
Continuous
 62
     7
100
AcDbLine
 10
126.1642405057785
 20
77.89074401878281
 30
0.0
 11
126.1642405057785
 21
77.0907440187828
 31
0.0
  0
LINE
  5
43D
330
1F
100
AcDbEntity
  8
1
  6
Continuous
 62
     7
100
AcDbLine
 10
122.9642405057784
 20
77.89074401878281
 30
0.0
 11
126.1642405057785
 21
77.89074401878281
 31
0.0
  0
LINE
  5
43E
330
1F
100
AcDbEntity
  8
1
  6
Continuous
 62
     7
100
AcDbLine
 10
122.9642405057784
 20
80.19074401878271
 30
0.0
 11
122.9642405057784
 21
77.89074401878281
 31
0.0
  0
LINE
  5
43F
330
1F
100
AcDbEntity
  8
1
  6
Continuous
 62
     7
100
AcDbLine
 10
125.7642405057784
 20
80.19074401878271
 30
0.0
 11
122.9642405057784
 21
80.19074401878271
 31
0.0
  0
LINE
  5
440
330
1F
100
AcDbEntity
  8
1
  6
Continuous
 62
     7
100
AcDbLine
 10
125.7642405057784
 20
80.99074401878283
 30
0.0
 11
125.7642405057784
 21
80.19074401878271
 31
0.0
  0
LINE
  5
441
330
1F
100
AcDbEntity
  8
1
  6
Continuous
 62
     7
100
AcDbLine
 10
122.9642405057784
 20
80.99074401878283
 30
0.0
 11
125.7642405057784
 21
80.99074401878283
 31
0.0
  0
LINE
  5
442
330
1F
100
AcDbEntity
  8
1
  6
Continuous
 62
     7
100
AcDbLine
 10
122.9642405057784
 20
83.29074401878285
 30
0.0
 11
122.9642405057784
 21
80.99074401878283
 31
0.0
  0
LINE
  5
443
330
1F
100
AcDbEntity
  8
1
  6
Continuous
 62
     7
100
AcDbLine
 10
126.1642405057785
 20
83.29074401878285
 30
0.0
 11
122.9642405057784
 21
83.29074401878285
 31
0.0
  0
LINE
  5
444
330
1F
100
AcDbEntity
  8
1
  6
Continuous
 62
     7
100
AcDbLine
 10
126.1642405057785
 20
84.0907440187828
 30
0.0
 11
126.1642405057785
 21
83.29074401878285
 31
0.0
  0
LINE
  5
445
330
1F
100
AcDbEntity
  8
1
  6
Continuous
 62
     7
100
AcDbLine
 10
122.1642405057785
 20
84.0907440187828
 30
0.0
 11
126.1642405057785
 21
84.0907440187828
 31
0.0
  0
LINE
  5
446
330
1F
100
AcDbEntity
  8
1
  6
Continuous
 62
     7
100
AcDbLine
 10
122.1642405057785
 20
77.0907440187828
 30
0.0
 11
122.1642405057785
 21
84.0907440187828
 31
0.0
  0
LINE
  5
447
330
1F
100
AcDbEntity
  8
1
  6
Continuous
 62
     7
100
AcDbLine
 10
126.1642405057785
 20
77.0907440187828
 30
0.0
 11
122.1642405057785
 21
77.0907440187828
 31
0.0
  0
LINE
  5
448
330
1F
100
AcDbEntity
  8
1
  6
PHANTOM
 62
     2
100
AcDbLine
 10
122.1642405057785
 20
84.0907440187828
 30
0.0
 11
122.1642405057785
 21
77.0907440187828
 31
0.0
  0
LINE
  5
449
330
1F
100
AcDbEntity
  8
1
  6
PHANTOM
 62
     2
100
AcDbLine
 10
122.1642405057785
 20
84.0907440187828
 30
0.0
 11
126.1642405057785
 21
84.0907440187828
 31
0.0
  0
LINE
  5
44A
330
1F
100
AcDbEntity
  8
1
  6
PHANTOM
 62
     2
100
AcDbLine
 10
122.1642405057785
 20
77.0907440187828
 30
0.0
 11
126.1642405057785
 21
77.0907440187828
 31
0.0
  0
LINE
  5
44B
330
1F
100
AcDbEntity
  8
1
  6
PHANTOM
 62
     2
100
AcDbLine
 10
93.16424050577848
 20
84.14074401878264
 30
0.0
 11
83.16424050577848
 21
84.14074401878264
 31
0.0
  0
LINE
  5
44C
330
1F
100
AcDbEntity
  8
1
  6
PHANTOM
 62
     2
100
AcDbLine
 10
83.16424050577848
 20
77.14074401878264
 30
0.0
 11
93.16424050577848
 21
77.14074401878264
 31
0.0
  0
LINE
  5
44D
330
1F
100
AcDbEntity
  8
1
  6
PHANTOM
 62
     2
100
AcDbLine
 10
93.16424050577848
 20
77.14074401878264
 30
0.0
 11
93.16424050577848
 21
84.14074401878264
 31
0.0
  0
LINE
  5
44E
330
1F
100
AcDbEntity
  8
1
  6
PHANTOM
 62
     2
100
AcDbLine
 10
83.16424050577848
 20
84.14074401878264
 30
0.0
 11
83.16424050577848
 21
77.14074401878264
 31
0.0
  0
ARC
  5
44F
330
1F
100
AcDbEntity
  8
0
  6
Continuous
 62
     7
100
AcDbCircle
 10
115.1411994803784
 20
240.1771444983895
 30
0.0
 40
1.500000000000283
100
AcDbArc
 50
15.26382342069368
 51
45.0
  0
ARC
  5
450
330
1F
100
AcDbEntity
  8
0
  6
Continuous
 62
     7
100
AcDbCircle
 10
114.0938727845785
 20
240.2686668711895
 30
0.0
 40
1.25
100
AcDbArc
 50
180.0
 51
227.000000000009
  0
ARC
  5
451
330
1F
100
AcDbEntity
  8
0
  6
Continuous
 62
     7
100
AcDbCircle
 10
115.0883721975783
 20
240.0638560249895
 30
0.0
 40
0.7499999999997026
100
AcDbArc
 50
244.9999999999586
 51
65.08861139101587
  0
ARC
  5
452
330
1F
100
AcDbEntity
  8
0
  6
Continuous
 62
     7
100
AcDbCircle
 10
115.0355449147785
 20
239.9505675515895
 30
0.0
 40
1.499999999999876
100
AcDbArc
 50
257.3420354581659
 51
335.0
  0
ARC
  5
453
330
1F
100
AcDbEntity
  8
0
  6
Continuous
 62
     7
100
AcDbCircle
 10
70.15957427417834
 20
108.8407576852828
 30
0.0
 40
3.000015067237228
100
AcDbArc
 50
178.0900781972163
 51
269.9997038434256
  0
ARC
  5
454
330
1F
100
AcDbEntity
  8
0
  6
Continuous
 62
     7
100
AcDbCircle
 10
71.37660608797842
 20
163.6969692983827
 30
0.0
 40
4.156534740821449
100
AcDbArc
 50
143.1324015536928
 51
173.4279896276586
  0
ARC
  5
455
330
1F
100
AcDbEntity
  8
0
  6
Continuous
 62
     7
100
AcDbCircle
 10
74.6642396484356
 20
238.6508317575353
 30
0.0
 40
0.499999917659137
100
AcDbArc
 50
180.0001632867869
 51
213.6104448430135
  0
ARC
  5
456
330
1F
100
AcDbEntity
  8
0
  6
Continuous
 62
     7
100
AcDbCircle
 10
75.12813018817837
 20
222.9989658901895
 30
0.0
 40
1.999641744155708
100
AcDbArc
 50
14.4942759136434
 51
47.97870758628681
  0
ARC
  5
457
330
1F
100
AcDbEntity
  8
0
  6
Continuous
 62
     7
100
AcDbCircle
 10
150.6595169994374
 20
145.8768982903036
 30
0.0
 40
4.999955311478966
100
AcDbArc
 50
179.9998364357559
 51
187.9998364357529
  0
ARC
  5
458
330
1F
100
AcDbEntity
  8
0
  6
Continuous
 62
     7
100
AcDbCircle
 10
106.1642405057785
 20
230.9994427975894
 30
0.0
 40
30.99999999999997
100
AcDbArc
 50
159.5716804844001
 51
168.6508781596686
  0
ARC
  5
459
330
1F
100
AcDbEntity
  8
0
  6
Continuous
 62
     7
100
AcDbCircle
 10
106.1642405057785
 20
230.9994427975894
 30
0.0
 40
31.00000000000025
100
AcDbArc
 50
191.4315296766994
 51
200.282687783999
  0
ARC
  5
45A
330
1F
100
AcDbEntity
  8
0
  6
Continuous
 62
     7
100
AcDbCircle
 10
106.1642405057785
 20
230.9994427975894
 30
0.0
 40
41.0
100
AcDbArc
 50
270.0
 51
346.3376964998009
  0
ARC
  5
45B
330
1F
100
AcDbEntity
  8
0
  6
Continuous
 62
     7
100
AcDbCircle
 10
106.1642405057785
 20
230.9994427975894
 30
0.0
 40
41.00000000000016
100
AcDbArc
 50
90.0065427464997
 51
270.0
  0
ARC
  5
45C
330
1F
100
AcDbEntity
  8
0
  6
Continuous
 62
     7
100
AcDbCircle
 10
106.1642405057785
 20
230.9994427975894
 30
0.0
 40
40.25000000000001
100
AcDbArc
 50
14.32432174952814
 51
345.6756777676897
  0
ARC
  5
45D
330
1F
100
AcDbEntity
  8
0
  6
Continuous
 62
     7
100
AcDbCircle
 10
106.1653200163785
 20
231.0038274447894
 30
0.0
 40
39.50449769113305
100
AcDbArc
 50
251.0005880873756
 51
260.9994490813207
  0
ARC
  5
45E
330
1F
100
AcDbEntity
  8
0
  6
Continuous
 62
     7
100
AcDbCircle
 10
106.1627700643785
 20
231.0063491715894
 30
0.0
 40
39.50703483698337
100
AcDbArc
 50
277.0008964818347
 51
286.9991129968001
  0
ARC
  5
45F
330
1F
100
AcDbEntity
  8
0
  6
Continuous
 62
     7
100
AcDbCircle
 10
106.1674045443783
 20
231.0032091347894
 30
0.0
 40
39.5049002002897
100
AcDbArc
 50
225.0006186346423
 51
234.9993753671314
  0
ARC
  5
460
330
1F
100
AcDbEntity
  8
0
  6
Continuous
 62
     7
100
AcDbCircle
 10
106.1608372895785
 20
231.0037960915894
 30
0.0
 40
39.50550466515886
100
AcDbArc
 50
303.0007026175981
 51
312.9993028468123
  0
ARC
  5
461
330
1F
100
AcDbEntity
  8
0
  6
Continuous
 62
     7
100
AcDbCircle
 10
106.1598719871784
 20
231.0015808189894
 30
0.0
 40
39.50484724686771
100
AcDbArc
 50
329.0006061497006
 51
338.9993767346998
  0
ARC
  5
462
330
1F
100
AcDbEntity
  8
0
  6
Continuous
 62
     7
100
AcDbCircle
 10
106.1608248895784
 20
230.9950732743894
 30
0.0
 40
39.50552472983236
100
AcDbArc
 50
47.00069969887475
 51
56.99929483689947
  0
ARC
  5
463
330
1F
100
AcDbEntity
  8
0
  6
Continuous
 62
     7
100
AcDbCircle
 10
106.1554908673784
 20
230.9951654717895
 30
0.0
 40
39.50970424524098
100
AcDbArc
 50
21.00124341960322
 51
30.99878049090001
  0
ARC
  5
464
330
1F
100
AcDbEntity
  8
0
  6
Continuous
 62
     7
100
AcDbCircle
 10
106.1629152917783
 20
230.9932193065895
 30
0.0
 40
39.50633898945535
100
AcDbArc
 50
73.0007987269305
 51
82.99919179451582
  0
ARC
  5
465
330
1F
100
AcDbEntity
  8
0
  6
Continuous
 62
     7
100
AcDbCircle
 10
106.1673368755785
 20
230.9957431281894
 30
0.0
 40
39.5048049570529
100
AcDbArc
 50
125.0006015470798
 51
134.9993807042559
  0
ARC
  5
466
330
1F
100
AcDbEntity
  8
0
  6
Continuous
 62
     7
100
AcDbCircle
 10
106.1658923911784
 20
230.9928493875895
 30
0.0
 40
39.50677212835511
100
AcDbArc
 50
99.00086889562631
 51
108.9991540938513
  0
ARC
  5
467
330
1F
100
AcDbEntity
  8
0
  6
Continuous
 62
     7
100
AcDbCircle
 10
106.1642405057785
 20
230.9994427975894
 30
0.0
 40
39.49999999999969
100
AcDbArc
 50
234.9999999999999
 51
250.9999999999994
  0
ARC
  5
468
330
1F
100
AcDbEntity
  8
0
  6
Continuous
 62
     7
100
AcDbCircle
 10
73.4128455053783
 20
191.9680087913894
 30
0.0
 40
12.10232354362528
100
AcDbArc
 50
33.47279627800122
 51
42.1006096650699
  0
ARC
  5
469
330
1F
100
AcDbEntity
  8
0
  6
Continuous
 62
     7
100
AcDbCircle
 10
106.1642405057785
 20
230.9994427975894
 30
0.0
 40
39.49999999999997
100
AcDbArc
 50
260.9999999999999
 51
276.9999999999994
  0
ARC
  5
46A
330
1F
100
AcDbEntity
  8
0
  6
Continuous
 62
     7
100
AcDbCircle
 10
93.83779053337844
 20
181.5610263757895
 30
0.0
 40
12.10223678682833
100
AcDbArc
 50
59.4728534009982
 51
68.1007336371993
  0
ARC
  5
46B
330
1F
100
AcDbEntity
  8
0
  6
Continuous
 62
     7
100
AcDbCircle
 10
106.1642405057785
 20
230.9994427975894
 30
0.0
 40
39.49999999999996
100
AcDbArc
 50
286.9999999999997
 51
303.0000000000008
  0
ARC
  5
46C
330
1F
100
AcDbEntity
  8
0
  6
Continuous
 62
     7
100
AcDbCircle
 10
116.7576730277783
 20
181.1618499169895
 30
0.0
 40
12.10131676367171
100
AcDbArc
 50
85.4724871799014
 51
94.1010218107981
  0
ARC
  5
46D
330
1F
100
AcDbEntity
  8
0
  6
Continuous
 62
     7
100
AcDbCircle
 10
106.1642405057785
 20
230.9994427975894
 30
0.0
 40
39.49999999999999
100
AcDbArc
 50
313.0000000000005
 51
329.0000000000007
  0
ARC
  5
46E
330
1F
100
AcDbEntity
  8
0
  6
Continuous
 62
     7
100
AcDbCircle
 10
137.5330201061784
 20
190.8493138887895
 30
0.0
 40
12.10158881210486
100
AcDbArc
 50
111.4725128663009
 51
120.1008578339477
  0
ARC
  5
46F
330
1F
100
AcDbEntity
  8
0
  6
Continuous
 62
     7
100
AcDbCircle
 10
151.9584390497785
 20
208.6639489475895
 30
0.0
 40
12.10108426752935
100
AcDbArc
 50
161.8989790331007
 51
170.5276760328983
  0
ARC
  5
470
330
1F
100
AcDbEntity
  8
0
  6
Continuous
 62
     7
100
AcDbCircle
 10
106.1642405057785
 20
230.9994427975894
 30
0.0
 40
39.49999999999934
100
AcDbArc
 50
339.0000000000002
 51
345.3351463570585
  0
ARC
  5
471
330
1F
100
AcDbEntity
  8
0
  6
Continuous
 62
     7
100
AcDbCircle
 10
151.9590635033783
 20
208.6638237741894
 30
0.0
 40
12.10171586919669
100
AcDbArc
 50
137.472483635599
 51
146.100743225601
  0
ARC
  5
472
330
1F
100
AcDbEntity
  8
0
  6
Continuous
 62
     7
100
AcDbCircle
 10
106.1642405057785
 20
230.9994427975894
 30
0.0
 40
39.49999999999937
100
AcDbArc
 50
14.66485310649473
 51
20.9999999999998
  0
ARC
  5
473
330
1F
100
AcDbEntity
  8
0
  6
Continuous
 62
     7
100
AcDbCircle
 10
106.1642405057785
 20
230.9994427975894
 30
0.0
 40
39.50000000000018
100
AcDbArc
 50
109.0000000000006
 51
125.0
  0
ARC
  5
474
330
1F
100
AcDbEntity
  8
0
  6
Continuous
 62
     7
100
AcDbCircle
 10
106.1642405057785
 20
230.9994427975894
 30
0.0
 40
39.50000000000041
100
AcDbArc
 50
30.99999999999937
 51
46.99999999999952
  0
ARC
  5
475
330
1F
100
AcDbEntity
  8
0
  6
Continuous
 62
     7
100
AcDbCircle
 10
151.9586862751785
 20
253.3349969531894
 30
0.0
 40
12.10133810551848
100
AcDbArc
 50
189.472414636399
 51
198.1009302974332
  0
ARC
  5
476
330
1F
100
AcDbEntity
  8
0
  6
Continuous
 62
     7
100
AcDbCircle
 10
106.1642405057785
 20
230.9994427975894
 30
0.0
 40
39.49999999999974
100
AcDbArc
 50
83.00000000000057
 51
99.00000000000001
  0
ARC
  5
477
330
1F
100
AcDbEntity
  8
0
  6
Continuous
 62
     7
100
AcDbCircle
 10
106.1642405057785
 20
230.9994427975894
 30
0.0
 40
39.50000000000021
100
AcDbArc
 50
56.99999999999942
 51
73.00000000000033
  0
ARC
  5
478
330
1F
100
AcDbEntity
  8
0
  6
Continuous
 62
     7
100
AcDbCircle
 10
137.5326693883783
 20
271.1493880315895
 30
0.0
 40
12.10122368565016
100
AcDbArc
 50
215.4723353309003
 51
224.1009214971586
  0
ARC
  5
479
330
1F
100
AcDbEntity
  8
0
  6
Continuous
 62
     7
100
AcDbCircle
 10
73.8572667517783
 20
208.6220111561894
 30
0.0
 40
0.1999999999995982
100
AcDbArc
 50
214.7084171663504
 51
304.9999999999319
  0
ARC
  5
47A
330
1F
100
AcDbEntity
  8
0
  6
Continuous
 62
     7
100
AcDbCircle
 10
73.8572667517783
 20
253.3768744389895
 30
0.0
 40
0.1999999999998821
100
AcDbArc
 50
55.0000000000588
 51
145.2915828336697
  0
ARC
  5
47B
330
1F
100
AcDbEntity
  8
0
  6
Continuous
 62
     7
100
AcDbCircle
 10
106.1642405057785
 20
230.9994427975894
 30
0.0
 40
39.49999999999063
100
AcDbArc
 50
211.4239064858222
 51
225.0
  0
ARC
  5
47C
330
1F
100
AcDbEntity
  8
0
  6
Continuous
 62
     7
100
AcDbCircle
 10
106.1642405057785
 20
230.9994427975894
 30
0.0
 40
39.50000000000055
100
AcDbArc
 50
135.0000000000001
 51
148.5760935141776
  0
ARC
  5
47D
330
1F
100
AcDbEntity
  8
0
  6
Continuous
 62
     7
100
AcDbCircle
 10
93.83789003497827
 20
280.4377058299895
 30
0.0
 40
12.10205768601294
100
AcDbArc
 50
267.4728373948127
 51
300.5271954399838
  0
ARC
  5
47E
330
1F
100
AcDbEntity
  8
0
  6
Continuous
 62
     7
100
AcDbCircle
 10
137.5332410425783
 20
190.8489465729895
 30
0.0
 40
12.10201739795273
100
AcDbArc
 50
120.1008906159009
 51
144.5272156598937
  0
ARC
  5
47F
330
1F
100
AcDbEntity
  8
0
  6
Continuous
 62
     7
100
AcDbCircle
 10
106.1642405057785
 20
230.9994427975894
 30
0.0
 40
39.00000000000015
100
AcDbArc
 50
310.4441388858997
 51
331.5558611141001
  0
ARC
  5
480
330
1F
100
AcDbEntity
  8
0
  6
Continuous
 62
     7
100
AcDbCircle
 10
151.9592902343793
 20
208.6637097955894
 30
0.0
 40
12.10196763007591
100
AcDbArc
 50
146.1008940216987
 51
161.8991548734014
  0
ARC
  5
481
330
1F
100
AcDbEntity
  8
0
  6
Continuous
 62
     7
100
AcDbCircle
 10
106.1642405057785
 20
230.9994427975894
 30
0.0
 40
38.99999999999959
100
AcDbArc
 50
336.4441388859005
 51
345.1428345229449
  0
ARC
  5
482
330
1F
100
AcDbEntity
  8
0
  6
Continuous
 62
     7
100
AcDbCircle
 10
106.1642405057785
 20
230.9994427975894
 30
0.0
 40
38.9999999999996
100
AcDbArc
 50
14.85716493330123
 51
23.55585120983594
  0
ARC
  5
483
330
1F
100
AcDbEntity
  8
0
  6
Continuous
 62
     7
100
AcDbCircle
 10
151.9591817953783
 20
253.3351225527895
 30
0.0
 40
12.1018481255094
100
AcDbArc
 50
198.1007666253985
 51
222.5274007189812
  0
ARC
  5
484
330
1F
100
AcDbEntity
  8
0
  6
Continuous
 62
     7
100
AcDbCircle
 10
106.1642405057785
 20
230.9994427975894
 30
0.0
 40
39.00000000000006
100
AcDbArc
 50
28.44413888589997
 51
49.55586111410029
  0
ARC
  5
485
330
1F
100
AcDbEntity
  8
0
  6
Continuous
 62
     7
100
AcDbCircle
 10
137.5332771193785
 20
271.1499848405895
 30
0.0
 40
12.10207544025069
100
AcDbArc
 50
224.1009482121023
 51
248.5271644600714
  0
ARC
  5
486
330
1F
100
AcDbEntity
  8
0
  6
Continuous
 62
     7
100
AcDbCircle
 10
106.1642405057785
 20
230.9994427975894
 30
0.0
 40
38.99999999999995
100
AcDbArc
 50
54.44413888590054
 51
75.5558611140999
  0
ARC
  5
487
330
1F
100
AcDbEntity
  8
0
  6
Continuous
 62
     7
100
AcDbCircle
 10
116.7576143001784
 20
280.8373405873895
 30
0.0
 40
12.10161704911686
100
AcDbArc
 50
241.4724242629913
 51
274.5275719104027
  0
ARC
  5
488
330
1F
100
AcDbEntity
  8
0
  6
Continuous
 62
     7
100
AcDbCircle
 10
106.1642405057785
 20
230.9994427975894
 30
0.0
 40
39.00000000000028
100
AcDbArc
 50
80.4441388858998
 51
101.5558611141002
  0
ARC
  5
489
330
1F
100
AcDbEntity
  8
0
  6
Continuous
 62
     7
100
AcDbCircle
 10
106.1642405057785
 20
230.9994427975894
 30
0.0
 40
38.99999999999992
100
AcDbArc
 50
106.4441388858991
 51
127.5558611140999
  0
ARC
  5
48A
330
1F
100
AcDbEntity
  8
0
  6
Continuous
 62
     7
100
AcDbCircle
 10
73.41322967297833
 20
270.0305877145895
 30
0.0
 40
12.10184492778593
100
AcDbArc
 50
293.4726374282951
 51
326.5273341594632
  0
ARC
  5
48B
330
1F
100
AcDbEntity
  8
0
  6
Continuous
 62
     7
100
AcDbCircle
 10
106.1642405057785
 20
230.9994427975894
 30
0.0
 40
38.99999999999978
100
AcDbArc
 50
132.4441388858993
 51
145.0000000000001
  0
ARC
  5
48C
330
1F
100
AcDbEntity
  8
0
  6
Continuous
 62
     7
100
AcDbCircle
 10
71.81796704957833
 20
251.7011720301894
 30
0.0
 40
2.922027561745544
100
AcDbArc
 50
15.77778016489984
 51
34.80266104869739
  0
ARC
  5
48D
330
1F
100
AcDbEntity
  8
0
  6
Continuous
 62
     7
100
AcDbCircle
 10
71.81796704957833
 20
210.2977132071895
 30
0.0
 40
2.922027561745704
100
AcDbArc
 50
325.1973389513022
 51
344.2222198351002
  0
ARC
  5
48E
330
1F
100
AcDbEntity
  8
0
  6
Continuous
 62
     7
100
AcDbCircle
 10
106.1642405057785
 20
230.9994427975894
 30
0.0
 40
39.00000000000042
100
AcDbArc
 50
214.9999999999999
 51
227.5558611141006
  0
ARC
  5
48F
330
1F
100
AcDbEntity
  8
0
  6
Continuous
 62
     7
100
AcDbCircle
 10
73.41316062017836
 20
191.9682241597895
 30
0.0
 40
12.1019453481011
100
AcDbArc
 50
42.10085333289853
 51
66.52726854087656
  0
ARC
  5
490
330
1F
100
AcDbEntity
  8
0
  6
Continuous
 62
     7
100
AcDbCircle
 10
106.1642405057785
 20
230.9994427975894
 30
0.0
 40
38.99999999999933
100
AcDbArc
 50
232.4441388859
 51
253.5558495862422
  0
ARC
  5
491
330
1F
100
AcDbEntity
  8
0
  6
Continuous
 62
     7
100
AcDbCircle
 10
93.83789651657844
 20
181.5612054035894
 30
0.0
 40
12.1020311484483
100
AcDbArc
 50
68.100883066202
 51
92.52718845347052
  0
ARC
  5
492
330
1F
100
AcDbEntity
  8
0
  6
Continuous
 62
     7
100
AcDbCircle
 10
106.1642405057785
 20
230.9994427975894
 30
0.0
 40
39.00000000000022
100
AcDbArc
 50
258.4441351469345
 51
279.5558453089369
  0
ARC
  5
493
330
1F
100
AcDbEntity
  8
0
  6
Continuous
 62
     7
100
AcDbCircle
 10
116.7576498351784
 20
181.1613161753894
 30
0.0
 40
12.10184748003769
100
AcDbArc
 50
94.10073157029996
 51
118.5273645867611
  0
ARC
  5
494
330
1F
100
AcDbEntity
  8
0
  6
Continuous
 62
     7
100
AcDbCircle
 10
106.1642405057785
 20
230.9994427975894
 30
0.0
 40
38.99999999999958
100
AcDbArc
 50
284.4441388859001
 51
305.5558611140995
  0
ARC
  5
495
330
1F
100
AcDbEntity
  8
0
  6
Continuous
 62
     7
100
AcDbCircle
 10
106.1642405057785
 20
230.9994427975894
 30
0.0
 40
39.49999999999999
100
AcDbArc
 50
172.8044497182004
 51
187.1955502817995
  0
ARC
  5
496
330
1F
100
AcDbEntity
  8
0
  6
Continuous
 62
     7
100
AcDbCircle
 10
70.66423839697836
 20
224.9994421763894
 30
0.0
 40
1.99999770499998
100
AcDbArc
 50
179.9999888215781
 51
211.912546442938
  0
ARC
  5
497
330
1F
100
AcDbEntity
  8
0
  6
Continuous
 62
     7
100
AcDbCircle
 10
70.66422529137844
 20
236.9994468083895
 30
0.0
 40
1.999984599503784
100
AcDbArc
 50
148.0873462105857
 51
180.0001185286917
  0
ARC
  5
498
330
1F
100
AcDbEntity
  8
0
  6
Continuous
 62
     7
100
AcDbCircle
 10
106.1649739511784
 20
230.9993325903895
 30
0.0
 40
39.50074153967564
100
AcDbArc
 50
170.2893165844358
 51
172.8044242548996
  0
ARC
  5
499
330
1F
100
AcDbEntity
  8
0
  6
Continuous
 62
     7
100
AcDbCircle
 10
68.94939765077834
 20
236.5646383327894
 30
0.0
 40
1.485699706415892
100
AcDbArc
 50
132.3835984981442
 51
178.4509885180018
  0
ARC
  5
49A
330
1F
100
AcDbEntity
  8
0
  6
Continuous
 62
     7
100
AcDbCircle
 10
106.1653264689785
 20
230.9996055021895
 30
0.0
 40
39.50109784321933
100
AcDbArc
 50
187.1955870902001
 51
189.7106720705483
  0
ARC
  5
49B
330
1F
100
AcDbEntity
  8
0
  6
Continuous
 62
     7
100
AcDbCircle
 10
68.9498436849783
 20
225.4344514269895
 30
0.0
 40
1.48615111239457
100
AcDbArc
 50
181.5564196952626
 51
227.609002781056
  0
ARC
  5
49C
330
1F
100
AcDbEntity
  8
0
  6
Continuous
 62
     7
100
AcDbCircle
 10
70.6642400159783
 20
224.9994413433896
 30
0.0
 40
1.999998638930144
100
AcDbArc
 50
211.9125016679911
 51
270.0000020772902
  0
ARC
  5
49D
330
1F
100
AcDbEntity
  8
0
  6
Continuous
 62
     7
100
AcDbCircle
 10
70.66436117397848
 20
226.0285878207895
 30
0.0
 40
3.200183546952058
100
AcDbArc
 50
211.9137173116931
 51
251.1829662910936
  0
ARC
  5
49E
330
1F
100
AcDbEntity
  8
0
  6
Continuous
 62
     7
100
AcDbCircle
 10
70.66435647457843
 20
235.9703027457895
 30
0.0
 40
3.200176986947086
100
AcDbArc
 50
108.8169848437969
 51
148.0863121211936
  0
ARC
  5
49F
330
1F
100
AcDbEntity
  8
0
  6
Continuous
 62
     7
100
AcDbCircle
 10
70.66424004197847
 20
236.9994448349895
 30
0.0
 40
1.999998163823989
100
AcDbArc
 50
89.99999867051105
 51
148.0875216050916
  0
ARC
  5
4A0
330
1F
100
AcDbEntity
  8
0
  6
Continuous
 62
     7
100
AcDbCircle
 10
69.2744955615783
 20
224.6807229665895
 30
0.0
 40
2.076423259383244
100
AcDbArc
 50
193.0947418564939
 51
234.0666473686035
  0
ARC
  5
4A1
330
1F
100
AcDbEntity
  8
0
  6
Continuous
 62
     7
100
AcDbCircle
 10
106.1644365297784
 20
230.9994910811896
 30
0.0
 40
39.50020131372339
100
AcDbArc
 50
189.8970146150998
 51
199.3473371136009
  0
ARC
  5
4A2
330
1F
100
AcDbEntity
  8
0
  6
Continuous
 62
     7
100
AcDbCircle
 10
106.1644203147785
 20
230.9993973825895
 30
0.0
 40
39.50018494566596
100
AcDbArc
 50
160.6526595097999
 51
170.1029846216523
  0
ARC
  5
4A3
330
1F
100
AcDbEntity
  8
0
  6
Continuous
 62
     7
100
AcDbCircle
 10
69.31072788997835
 20
237.2941074381895
 30
0.0
 40
2.117218266555438
100
AcDbArc
 50
126.3452538517041
 51
166.4933366131866
  0
ARC
  5
4A4
330
1F
100
AcDbEntity
  8
0
  6
Continuous
 62
     7
100
AcDbCircle
 10
74.16442836231604
 20
211.4475593581319
 30
0.0
 40
1.999811808201526
100
AcDbArc
 50
211.4047530615019
 51
359.9808465757018
  0
ARC
  5
4A5
330
1F
100
AcDbEntity
  8
0
  6
Continuous
 62
     7
100
AcDbCircle
 10
106.1643528451784
 20
230.9995084525895
 30
0.0
 40
39.50013003694858
100
AcDbArc
 50
204.9513191139998
 51
211.4239040802004
  0
ARC
  5
4A6
330
1F
100
AcDbEntity
  8
0
  6
Continuous
 62
     7
100
AcDbCircle
 10
106.1642405057785
 20
230.9994427975894
 30
0.0
 40
39.49999999999989
100
AcDbArc
 50
199.3473647700995
 51
204.9513010927004
  0
ARC
  5
4A7
330
1F
100
AcDbEntity
  8
0
  6
Continuous
 62
     7
100
AcDbCircle
 10
106.1642405057785
 20
230.9994427975894
 30
0.0
 40
39.50000000000045
100
AcDbArc
 50
155.0486989072997
 51
160.6526352299003
  0
ARC
  5
4A8
330
1F
100
AcDbEntity
  8
0
  6
Continuous
 62
     7
100
AcDbCircle
 10
74.16424038335401
 20
250.5506580157627
 30
0.0
 40
1.999999675424441
100
AcDbArc
 50
0.00000849200055
 51
148.5761020061966
  0
ARC
  5
4A9
330
1F
100
AcDbEntity
  8
0
  6
Continuous
 62
     7
100
AcDbCircle
 10
106.2951316425783
 20
230.9292941757895
 30
0.0
 40
39.6482675005167
100
AcDbArc
 50
148.5882055112
 51
155.0365825977993
  0
ARC
  5
4AA
330
1F
100
AcDbEntity
  8
0
  6
Continuous
 62
     7
100
AcDbCircle
 10
69.58786232194049
 20
238.6739560065764
 30
0.0
 40
0.5768419146316779
100
AcDbArc
 50
324.0123490354008
 51
357.7034871396888
  0
ARC
  5
4AB
330
1F
100
AcDbEntity
  8
0
  6
Continuous
 62
     7
100
AcDbCircle
 10
74.66424024015078
 20
223.3480536620639
 30
0.0
 40
0.5000005093743188
100
AcDbArc
 50
146.3097900453572
 51
179.9998575713622
  0
ARC
  5
4AC
330
1F
100
AcDbEntity
  8
0
  6
Continuous
 62
     7
100
AcDbCircle
 10
69.66424059990618
 20
223.34805422849
 30
0.0
 40
0.5000003378727371
100
AcDbArc
 50
0.00007752107959
 51
33.69014504710037
  0
ARC
  5
4AD
330
1F
100
AcDbEntity
  8
0
  6
Continuous
 62
     7
100
AcDbCircle
 10
82.16200082814197
 20
213.8378056642795
 30
0.0
 40
5.023643420563833
100
AcDbArc
 50
180.0098957598204
 51
215.3590715021777
  0
ARC
  5
4AE
330
1F
100
AcDbEntity
  8
0
  6
Continuous
 62
     7
100
AcDbCircle
 10
82.16203761253021
 20
248.1609045424581
 30
0.0
 40
5.023774711307098
100
AcDbArc
 50
144.6395432804006
 51
179.9880976646739
  0
ARC
  5
4AF
330
1F
100
AcDbEntity
  8
0
  6
Continuous
 62
     7
100
AcDbCircle
 10
106.3385188345783
 20
230.9996493773895
 30
0.0
 40
34.6721323958431
100
AcDbArc
 50
215.3677854044997
 51
224.4134781707496
  0
ARC
  5
4B0
330
1F
100
AcDbEntity
  8
0
  6
Continuous
 62
     7
100
AcDbCircle
 10
105.4122179427784
 20
230.0957793487895
 30
0.0
 40
33.37791167295444
100
AcDbArc
 50
224.4179632201004
 51
230.2563778296
  0
ARC
  5
4B1
330
1F
100
AcDbEntity
  8
0
  6
Continuous
 62
     7
100
AcDbCircle
 10
106.1642405057785
 20
230.9994427975894
 30
0.0
 40
34.55355942597176
100
AcDbArc
 50
230.2555828818996
 51
338.0682692642195
  0
ARC
  5
4B2
330
1F
100
AcDbEntity
  8
0
  6
Continuous
 62
     7
100
AcDbCircle
 10
106.1393982710589
 20
231.0159985822469
 30
0.0
 40
34.52494743237908
100
AcDbArc
 50
22.27213764328727
 51
129.7302842100875
  0
ARC
  5
4B3
330
1F
100
AcDbEntity
  8
0
  6
Continuous
 62
     7
100
AcDbCircle
 10
105.4086691059783
 20
231.9069774817895
 30
0.0
 40
33.37266722708303
100
AcDbArc
 50
129.7431850243005
 51
135.5825200933623
  0
ARC
  5
4B4
330
1F
100
AcDbEntity
  8
0
  6
Continuous
 62
     7
100
AcDbCircle
 10
106.3385188345783
 20
230.9992358601894
 30
0.0
 40
34.67213239584361
100
AcDbArc
 50
135.586521829199
 51
144.6322145955003
  0
ARC
  5
4B5
330
1F
100
AcDbEntity
  8
0
  6
Continuous
 62
     7
100
AcDbCircle
 10
75.13484264457838
 20
223.0071854331895
 30
0.0
 40
1.989042181021528
100
AcDbArc
 50
47.9638565224545
 51
76.71538885449762
  0
ARC
  5
4B6
330
1F
100
AcDbEntity
  8
0
  6
Continuous
 62
     7
100
AcDbCircle
 10
74.1700503955783
 20
222.8521387445895
 30
0.0
 40
2.965584490671522
100
AcDbArc
 50
2.84711819993865
 51
12.60755917109509
  0
ARC
  5
4B7
330
1F
100
AcDbEntity
  8
0
  6
Continuous
 62
     7
100
AcDbCircle
 10
142.6997324388514
 20
216.0934066069231
 30
0.0
 40
4.908616545785277
100
AcDbArc
 50
91.85786040031874
 51
155.9525446164888
  0
ARC
  5
4B8
330
1F
100
AcDbEntity
  8
0
  6
Continuous
 62
     7
100
AcDbCircle
 10
144.6642410295783
 20
223.9994414839894
 30
0.0
 40
2.999998641799976
100
AcDbArc
 50
270.0000002406462
 51
0.00002644060119
  0
ARC
  5
4B9
330
1F
100
AcDbEntity
  8
0
  6
Continuous
 62
     7
100
AcDbCircle
 10
144.6642413091784
 20
237.9994440331896
 30
0.0
 40
2.999998362086143
100
AcDbArc
 50
359.9999771136049
 51
90.00000509932534
  0
ARC
  5
4BA
330
1F
100
AcDbEntity
  8
0
  6
Continuous
 62
     7
100
AcDbCircle
 10
142.7155704501784
 20
246.0014521777894
 30
0.0
 40
5.00200986811751
100
AcDbArc
 50
202.3277498767029
 51
270.0105948077762
  0
ARC
  5
4BB
330
1F
100
AcDbEntity
  8
0
  6
Continuous
 62
     7
100
AcDbCircle
 10
75.14610309662805
 20
238.9904326136083
 30
0.0
 40
1.991009461466471
100
AcDbArc
 50
270.2537045817033
 51
0.25929500329839
  0
ARC
  5
4BC
330
1F
100
AcDbEntity
  8
0
  6
Continuous
 62
     7
100
AcDbCircle
 10
114.4562572859784
 20
240.3586155091896
 30
0.0
 40
0.7500003808037395
100
AcDbArc
 50
65.0001391522508
 51
244.9997588333741
  0
ARC
  5
4BD
330
1F
100
AcDbEntity
  8
0
  6
Continuous
 62
     7
100
AcDbCircle
 10
114.3438737393783
 20
240.5489430827895
 30
0.0
 40
1.500000719029995
100
AcDbArc
 50
80.00000725731725
 51
179.9999660809185
  0
ARC
  5
4BE
330
1F
100
AcDbEntity
  8
0
  6
Continuous
 62
     7
100
AcDbCircle
 10
109.8382881595785
 20
219.8108129327895
 30
0.0
 40
0.5000027169559729
100
AcDbArc
 50
70.00039673961865
 51
179.9996107804362
  0
ARC
  5
4BF
330
1F
100
AcDbEntity
  8
0
  6
Continuous
 62
     7
100
AcDbCircle
 10
91.48257478777828
 20
219.3893098235895
 30
0.0
 40
24.14677492843679
100
AcDbArc
 50
183.6175429845006
 51
194.3627870091188
  0
ARC
  5
4C0
330
1F
100
AcDbEntity
  8
0
  6
Continuous
 62
     7
100
AcDbCircle
 10
121.2290536911785
 20
219.3152706025894
 30
0.0
 40
23.75725049949122
100
AcDbArc
 50
345.5809761616007
 51
356.0743070034995
  0
ARC
  5
4C1
330
1F
100
AcDbEntity
  8
0
  6
Continuous
 62
     7
100
AcDbCircle
 10
115.1411994803784
 20
240.1771444983895
 30
0.0
 40
1.499999999999918
100
AcDbArc
 50
335.0
 51
344.6622720757567
  0
ARC
  5
4C2
330
1F
100
AcDbEntity
  8
0
  6
Continuous
 62
     7
100
AcDbCircle
 10
70.72088142464982
 20
164.6905716643016
 30
0.0
 40
3.000180629903777
100
AcDbArc
 50
90.00133964830741
 51
134.9984932459047
  0
ARC
  5
4C3
330
1F
100
AcDbEntity
  8
0
  6
Continuous
 62
     7
100
AcDbCircle
 10
79.10090765697828
 20
151.1894403593827
 30
0.0
 40
66.77638701132467
100
AcDbArc
 50
6.01836129985877
 51
8.61379029569563
  0
ARC
  5
4C4
330
1F
100
AcDbEntity
  8
0
  6
Continuous
 62
     7
100
AcDbCircle
 10
76.65955890137829
 20
163.1907515557827
 30
0.0
 40
1.000001095200453
100
AcDbArc
 50
359.9999466347696
 51
89.99994663476805
  0
ARC
  5
4C5
330
1F
100
AcDbEntity
  8
0
  6
Continuous
 62
     7
100
AcDbCircle
 10
131.6920390605783
 20
155.6434073611828
 30
0.0
 40
11.62644311849867
100
AcDbArc
 50
12.65614860925347
 51
28.49828928307639
  0
ARC
  5
4C6
330
1F
100
AcDbEntity
  8
0
  6
Continuous
 62
     7
100
AcDbCircle
 10
72.15934660571297
 20
163.6905400793163
 30
0.0
 40
4.000212219695524
100
AcDbArc
 50
0.00309336337065
 51
89.99694313587412
  0
ARC
  5
4C7
330
1F
100
AcDbEntity
  8
0
  6
Continuous
 62
     7
100
AcDbCircle
 10
134.1423360785784
 20
151.4822611443827
 30
0.0
 40
60.71099383042889
100
AcDbArc
 50
170.7981313785746
 51
172.3811531059999
  0
ARC
  5
4C8
330
1F
100
AcDbEntity
  8
0
  6
Continuous
 62
     7
100
AcDbCircle
 10
71.18753238637828
 20
159.4107835699828
 30
0.0
 40
2.782386333971515
100
AcDbArc
 50
333.9928907339105
 51
2.48604399659858
  0
ARC
  5
4C9
330
1F
100
AcDbEntity
  8
0
  6
Continuous
 62
     7
100
AcDbCircle
 10
152.9957419033794
 20
157.8451430265826
 30
0.0
 40
12.98267372314474
100
AcDbArc
 50
165.0664437600206
 51
178.4745461532995
  0
ARC
  5
4CA
330
1F
100
AcDbEntity
  8
0
  6
Continuous
 62
     7
100
AcDbCircle
 10
86.42994560377838
 20
155.7198881271827
 30
0.0
 40
8.565236936843734
100
AcDbArc
 50
140.3028199993296
 51
163.2332478564086
  0
ARC
  5
4CB
330
1F
100
AcDbEntity
  8
0
  6
Continuous
 62
     7
100
AcDbCircle
 10
124.8813514495785
 20
155.6483361231827
 30
0.0
 40
8.601472294985461
100
AcDbArc
 50
17.19229268844402
 51
40.11753896329351
  0
ARC
  5
4CC
330
1F
100
AcDbEntity
  8
0
  6
Continuous
 62
     7
100
AcDbCircle
 10
75.40873462877835
 20
156.8881399287826
 30
0.0
 40
8.198697705459459
100
AcDbArc
 50
9.14193851081668
 51
31.65432868917287
  0
ARC
  5
4CD
330
1F
100
AcDbEntity
  8
0
  6
Continuous
 62
     7
100
AcDbCircle
 10
135.4645505765784
 20
156.8909201149828
 30
0.0
 40
7.899424863303143
100
AcDbArc
 50
147.0215645472001
 51
170.5290168555626
  0
ARC
  5
4CE
330
1F
100
AcDbEntity
  8
0
  6
Continuous
 62
     7
100
AcDbCircle
 10
130.1485110091785
 20
157.0913614625828
 30
0.0
 40
4.303805068764926
100
AcDbArc
 50
72.27071645150409
 51
107.7292835502221
  0
ARC
  5
4CF
330
1F
100
AcDbEntity
  8
0
  6
Continuous
 62
     7
100
AcDbCircle
 10
141.1806378531785
 20
159.9769180713827
 30
0.0
 40
1.415972917392176
100
AcDbArc
 50
59.00924970421777
 51
120.9907503041376
  0
ARC
  5
4D0
330
1F
100
AcDbEntity
  8
0
  6
Continuous
 62
     7
100
AcDbCircle
 10
74.9098179393784
 20
161.0350896239827
 30
0.0
 40
0.7143571749467643
100
AcDbArc
 50
113.3877161640535
 51
167.4131773648432
  0
ARC
  5
4D1
330
1F
100
AcDbEntity
  8
0
  6
Continuous
 62
     7
100
AcDbCircle
 10
81.11364823017834
 20
157.4071628971827
 30
0.0
 40
3.992349008003539
100
AcDbArc
 50
71.38993753493898
 51
108.610062466001
  0
ARC
  5
4D2
330
1F
100
AcDbEntity
  8
0
  6
Continuous
 62
     7
100
AcDbCircle
 10
147.7807434077784
 20
150.0747129071827
 30
0.0
 40
2.274459136901837
100
AcDbArc
 50
177.0755432425682
 51
201.1547309935118
  0
ARC
  5
4D3
330
1F
100
AcDbEntity
  8
0
  6
Continuous
 62
     7
100
AcDbCircle
 10
65.59889131417845
 20
163.8697761183827
 30
0.0
 40
1.629224174649041
100
AcDbArc
 50
327.3484063521151
 51
3.23679554630467
  0
ARC
  5
4D4
330
1F
100
AcDbEntity
  8
0
  6
Continuous
 62
     7
100
AcDbCircle
 10
96.7331878857783
 20
155.0043931415827
 30
0.0
 40
6.393386244552095
100
AcDbArc
 50
75.37974276862712
 51
104.6202572315209
  0
ARC
  5
4D5
330
1F
100
AcDbEntity
  8
0
  6
Continuous
 62
     7
100
AcDbCircle
 10
100.6632303339784
 20
155.7759282539827
 30
0.0
 40
7.749465126306507
100
AcDbArc
 50
135.6742886002026
 51
161.8435897057159
  0
ARC
  5
4D6
330
1F
100
AcDbEntity
  8
0
  6
Continuous
 62
     7
100
AcDbCircle
 10
110.2777021173783
 20
155.7337004283828
 30
0.0
 40
7.826241612671158
100
AcDbArc
 50
18.29748732021669
 51
44.20897184482229
  0
ARC
  5
4D7
330
1F
100
AcDbEntity
  8
0
  6
Continuous
 62
     7
100
AcDbCircle
 10
114.2607383447785
 20
154.8628450925828
 30
0.0
 40
6.533688480642061
100
AcDbArc
 50
75.58222946399766
 51
104.4177705368149
  0
ARC
  5
4D8
330
1F
100
AcDbEntity
  8
0
  6
Continuous
 62
     7
100
AcDbCircle
 10
92.71639871337834
 20
156.1803380647828
 30
0.0
 40
7.537073224569339
100
AcDbArc
 50
15.47019930828655
 51
41.66471581359927
  0
ARC
  5
4D9
330
1F
100
AcDbEntity
  8
0
  6
Continuous
 62
     7
100
AcDbCircle
 10
118.1199688663785
 20
156.1946555989827
 30
0.0
 40
7.420099638736988
100
AcDbArc
 50
137.6761301506971
 51
164.3944847727005
  0
ARC
  5
4DA
330
1F
100
AcDbEntity
  8
0
  6
Continuous
 62
     7
100
AcDbCircle
 10
147.1595592665794
 20
166.1907572927827
 30
0.0
 40
0.4999999999999717
100
AcDbArc
 50
270.2771271060068
 51
0.10468679434141
  0
ARC
  5
4DB
330
1F
100
AcDbEntity
  8
0
  6
Continuous
 62
     7
100
AcDbCircle
 10
84.06727039557836
 20
166.6907615469827
 30
0.0
 40
5.000006511763267
100
AcDbArc
 50
239.9998201377068
 51
269.9998222930964
  0
ARC
  5
4DC
330
1F
100
AcDbEntity
  8
0
  6
Continuous
 62
     7
100
AcDbCircle
 10
82.91792979162561
 20
77.34074470306426
 30
0.0
 40
2.999998866381504
100
AcDbArc
 50
209.2488229804416
 51
270.0000075621431
  0
ARC
  5
4DD
330
1F
100
AcDbEntity
  8
0
  6
Continuous
 62
     7
100
AcDbCircle
 10
129.4011885551385
 20
77.34074502074893
 30
0.0
 40
2.999999184066183
100
AcDbArc
 50
269.9999888815562
 51
330.7511670942549
  0
ARC
  5
4DE
330
1F
100
AcDbEntity
  8
0
  6
Continuous
 62
     7
100
AcDbCircle
 10
74.30380053757835
 20
145.931359641683
 30
0.0
 40
78.71678875582468
100
AcDbArc
 50
295.2646621066402
 51
300.687610564524
  0
ARC
  5
4DF
330
1F
100
AcDbEntity
  8
0
  6
Continuous
 62
     7
100
AcDbCircle
 10
143.6106546929784
 20
156.4288484816829
 30
0.0
 40
90.60149875559786
100
AcDbArc
 50
239.6574805417015
 51
244.3693396383244
  0
ARC
  5
4E0
330
1F
100
AcDbEntity
  8
0
  6
Continuous
 62
     7
100
AcDbCircle
 10
119.5206445347783
 20
81.7974355432828
 30
0.0
 40
5.043367810090452
100
AcDbArc
 50
89.71592847429604
 51
179.5079589209452
  0
ARC
  5
4E1
330
1F
100
AcDbEntity
  8
0
  6
Continuous
 62
     7
100
AcDbCircle
 10
92.7982507405784
 20
81.79720774848272
 30
0.0
 40
5.043594511008642
100
AcDbArc
 50
0.49460692259965
 51
90.28154788529318
  0
ARC
  5
4E2
330
1F
100
AcDbEntity
  8
0
  6
Continuous
 62
     7
100
AcDbCircle
 10
104.9095592665783
 20
74.84074491148283
 30
0.0
 40
0.5
100
AcDbArc
 50
180.0
 51
270.0
  0
ARC
  5
4E3
330
1F
100
AcDbEntity
  8
0
  6
Continuous
 62
     7
100
AcDbCircle
 10
107.4095592665783
 20
74.84074491148283
 30
0.0
 40
0.5000000000001137
100
AcDbArc
 50
270.0
 51
0.0
  0
ARC
  5
4E4
330
1F
100
AcDbEntity
  8
0
  6
Continuous
 62
     7
100
AcDbCircle
 10
144.2956587615709
 20
160.6956760095095
 30
0.0
 40
0.9950790256733028
100
AcDbArc
 50
43.27105254664716
 51
90.0
  0
ARC
  5
4E5
330
1F
100
AcDbEntity
  8
0
  6
Continuous
 62
     7
100
AcDbCircle
 10
61.65960227653629
 20
145.8769146193961
 30
0.0
 40
4.99995684844275
100
AcDbArc
 50
351.9999770813374
 51
359.9999770813358
  0
ARC
  5
4E6
330
1F
100
AcDbEntity
  8
0
  6
Continuous
 62
     7
100
AcDbCircle
 10
141.4095592665783
 20
139.8411232331828
 30
0.0
 40
5.000000000001108
100
AcDbArc
 50
0.0
 51
7.99999999999796
  0
ARC
  5
4E7
330
1F
100
AcDbEntity
  8
0
  6
Continuous
 62
     7
100
AcDbCircle
 10
70.9095592665783
 20
139.8411232331828
 30
0.0
 40
5.000000000000044
100
AcDbArc
 50
172.0000000000003
 51
180.0
  0
ARC
  5
4E8
330
1F
100
AcDbEntity
  8
0
  6
Continuous
 62
     7
100
AcDbCircle
 10
146.859557970996
 20
132.5664994802084
 30
0.0
 40
0.2999994478145738
100
AcDbArc
 50
359.9991608395621
 51
44.99916083954914
  0
ARC
  5
4E9
330
1F
100
AcDbEntity
  8
0
  6
Continuous
 62
     7
100
AcDbCircle
 10
65.45956018956026
 20
132.5664949834931
 30
0.0
 40
0.3000013103817839
100
AcDbArc
 50
134.9999803496292
 51
179.9999803496196
  0
ARC
  5
4EA
330
1F
100
AcDbEntity
  8
0
  6
Continuous
 62
     7
100
AcDbCircle
 10
146.8595560656783
 20
126.4907515006818
 30
0.0
 40
0.3000013531222209
100
AcDbArc
 50
270.0007114768922
 51
0.00071147687321
  0
ARC
  5
4EB
330
1F
100
AcDbEntity
  8
0
  6
Continuous
 62
     7
100
AcDbCircle
 10
65.45956162917854
 20
126.4907528975827
 30
0.0
 40
0.3000027500092248
100
AcDbArc
 50
179.9995553124138
 51
269.9995553124137
  0
ARC
  5
4EC
330
1F
100
AcDbEntity
  8
0
  6
Continuous
 62
     7
100
AcDbCircle
 10
147.1595679651794
 20
166.9761502825827
 30
0.0
 40
0.4999904667999999
100
AcDbArc
 50
0.0
 51
86.64047429409034
  0
ARC
  5
4ED
330
1F
100
AcDbEntity
  8
0
  6
Continuous
 62
     7
100
AcDbCircle
 10
143.7394164809097
 20
162.6907602170827
 30
0.0
 40
3.000002924301357
100
AcDbArc
 50
90.00005633948098
 51
179.5000563394857
  0
ARC
  5
4EE
330
1F
100
AcDbEntity
  8
0
  6
Continuous
 62
     7
100
AcDbCircle
 10
106.1607661524144
 20
-531.2786411730173
 30
0.0
 40
699.9573912717135
100
AcDbArc
 50
86.6396736757103
 51
89.74186732361031
  0
ARC
  5
4EF
330
1F
100
AcDbEntity
  8
0
  6
Continuous
 62
     7
100
AcDbCircle
 10
106.1595592665783
 20
-531.3212448956174
 30
0.0
 40
699.9999999999995
100
AcDbArc
 50
90.94133015339995
 51
92.79526859167632
  0
ARC
  5
4F0
330
1F
100
AcDbEntity
  8
0
  6
Continuous
 62
     7
100
AcDbCircle
 10
142.3220173273785
 20
86.01394013208272
 30
0.0
 40
2.831470403702054
100
AcDbArc
 50
8.16642762747973
 51
93.28944404030794
  0
ARC
  5
4F1
330
1F
100
AcDbEntity
  8
0
  6
Continuous
 62
     7
100
AcDbCircle
 10
69.99693028217848
 20
86.01395927668273
 30
0.0
 40
2.831460921612539
100
AcDbArc
 50
86.70714469189195
 51
172.1538312212695
  0
ARC
  5
4F2
330
1F
100
AcDbEntity
  8
0
  6
Continuous
 62
     7
100
AcDbCircle
 10
142.1378387495904
 20
108.862579106294
 30
0.0
 40
3.021914570140241
100
AcDbArc
 50
270.4118819316749
 51
359.3532771310184
  0
ARC
  5
4F3
330
1F
100
AcDbEntity
  8
0
  6
Continuous
 62
     7
100
AcDbCircle
 10
71.7688291635784
 20
109.1223165290827
 30
0.0
 40
3.321411593149893
100
AcDbArc
 50
278.8829732664208
 51
316.037405530219
  0
ARC
  5
4F4
330
1F
100
AcDbEntity
  8
1
  6
Continuous
 62
     7
100
AcDbCircle
 10
97.90955861457837
 20
99.59074401878274
 30
0.0
 40
1.750000000000057
100
AcDbArc
 50
90.0
 51
180.0
  0
ARC
  5
4F5
330
1F
100
AcDbEntity
  8
1
  6
Continuous
 62
     7
100
AcDbCircle
 10
100.4095586145784
 20
99.5907440187828
 30
0.0
 40
1.750000000000057
100
AcDbArc
 50
270.0
 51
90.0
  0
ARC
  5
4F6
330
1F
100
AcDbEntity
  8
1
  6
Continuous
 62
     7
100
AcDbCircle
 10
100.4095586145784
 20
95.0907440187828
 30
0.0
 40
1.750000000000057
100
AcDbArc
 50
270.0
 51
90.0
  0
ARC
  5
4F7
330
1F
100
AcDbEntity
  8
1
  6
Continuous
 62
     7
100
AcDbCircle
 10
97.90955861457837
 20
95.09074401878274
 30
0.0
 40
1.75
100
AcDbArc
 50
180.0
 51
270.0
  0
ARC
  5
4F8
330
1F
100
AcDbEntity
  8
1
  6
Continuous
 62
     7
100
AcDbCircle
 10
97.90955861457837
 20
95.09074401878274
 30
0.0
 40
2.75
100
AcDbArc
 50
180.0
 51
270.0
  0
ARC
  5
4F9
330
1F
100
AcDbEntity
  8
1
  6
Continuous
 62
     7
100
AcDbCircle
 10
100.4095586145784
 20
95.0907440187828
 30
0.0
 40
2.750000000000057
100
AcDbArc
 50
270.0
 51
54.90319877241863
  0
ARC
  5
4FA
330
1F
100
AcDbEntity
  8
1
  6
Continuous
 62
     7
100
AcDbCircle
 10
100.4095586145784
 20
99.5907440187828
 30
0.0
 40
2.749999999999892
100
AcDbArc
 50
305.0968012275814
 51
90.0
  0
ARC
  5
4FB
330
1F
100
AcDbEntity
  8
1
  6
Continuous
 62
     7
100
AcDbCircle
 10
97.90955861457837
 20
99.59074401878274
 30
0.0
 40
2.749999999999957
100
AcDbArc
 50
90.0
 51
180.0
  0
ARC
  5
4FC
330
1F
100
AcDbEntity
  8
1
  6
Continuous
 62
     7
100
AcDbCircle
 10
112.2845586145784
 20
97.4657440187828
 30
0.0
 40
1.875
100
AcDbArc
 50
0.0
 51
137.1665719339327
  0
ARC
  5
4FD
330
1F
100
AcDbEntity
  8
1
  6
Continuous
 62
     7
100
AcDbCircle
 10
109.5345586145784
 20
97.4657440187828
 30
0.0
 40
1.875000000000001
100
AcDbArc
 50
42.83342806606731
 51
137.1665719339327
  0
ARC
  5
4FE
330
1F
100
AcDbEntity
  8
1
  6
Continuous
 62
     7
100
AcDbCircle
 10
106.7845586145784
 20
97.4657440187828
 30
0.0
 40
1.875000000000001
100
AcDbArc
 50
42.83342806606731
 51
78.4630409671846
  0
ARC
  5
4FF
330
1F
100
AcDbEntity
  8
1
  6
Continuous
 62
     7
100
AcDbCircle
 10
106.7845586145784
 20
97.4657440187828
 30
0.0
 40
0.875
100
AcDbArc
 50
0.0
 51
64.62306647484505
  0
ARC
  5
500
330
1F
100
AcDbEntity
  8
1
  6
Continuous
 62
     7
100
AcDbCircle
 10
109.5345586145784
 20
97.4657440187828
 30
0.0
 40
0.875
100
AcDbArc
 50
0.0
 51
180.0
  0
ARC
  5
501
330
1F
100
AcDbEntity
  8
1
  6
Continuous
 62
     7
100
AcDbCircle
 10
112.2845586145784
 20
97.4657440187828
 30
0.0
 40
0.875
100
AcDbArc
 50
0.0
 51
180.0
  0
ARC
  5
502
330
1F
100
AcDbEntity
  8
1
  6
Continuous
 62
     7
100
AcDbCircle
 10
121.2845586145784
 20
97.4657440187828
 30
0.0
 40
1.875
100
AcDbArc
 50
0.0
 51
137.1665719339327
  0
ARC
  5
503
330
1F
100
AcDbEntity
  8
1
  6
Continuous
 62
     7
100
AcDbCircle
 10
118.5345586145784
 20
97.4657440187828
 30
0.0
 40
1.875000000000001
100
AcDbArc
 50
42.83342806606731
 51
137.1665719339327
  0
ARC
  5
504
330
1F
100
AcDbEntity
  8
1
  6
Continuous
 62
     7
100
AcDbCircle
 10
115.7845586145784
 20
97.4657440187828
 30
0.0
 40
1.875000000000001
100
AcDbArc
 50
42.83342806606731
 51
78.4630409671846
  0
ARC
  5
505
330
1F
100
AcDbEntity
  8
1
  6
Continuous
 62
     7
100
AcDbCircle
 10
115.7845586145784
 20
97.4657440187828
 30
0.0
 40
0.875
100
AcDbArc
 50
0.0
 51
64.62306647484505
  0
ARC
  5
506
330
1F
100
AcDbEntity
  8
1
  6
Continuous
 62
     7
100
AcDbCircle
 10
118.5345586145784
 20
97.4657440187828
 30
0.0
 40
0.875
100
AcDbArc
 50
0.0
 51
180.0
  0
ARC
  5
507
330
1F
100
AcDbEntity
  8
1
  6
Continuous
 62
     7
100
AcDbCircle
 10
121.2845586145784
 20
97.4657440187828
 30
0.0
 40
0.875
100
AcDbArc
 50
0.0
 51
180.0
  0
ARC
  5
508
330
1F
100
AcDbEntity
  8
0
  6
Continuous
 62
     7
100
AcDbCircle
 10
106.1642405057785
 20
230.9994427975894
 30
0.0
 40
41.00000000000006
100
AcDbArc
 50
13.66230308939955
 51
90.0065427464997
  0
ARC
  5
509
330
1F
100
AcDbEntity
  8
1
  6
Continuous
 62
     7
100
AcDbCircle
 10
106.1595592665744
 20
-531.3212448927693
 30
0.0
 40
699.9999999971518
100
AcDbArc
 50
90.12277664726717
 51
90.9413301704527
  0
ARC
  5
50A
330
1F
100
AcDbEntity
  8
0
  6
Continuous
 62
     7
100
AcDbCircle
 10
106.1595592665783
 20
-531.3212448956174
 30
0.0
 40
700.0
100
AcDbArc
 50
89.74178425019994
 51
90.12277676429994
  0
ARC
  5
50B
330
1F
100
AcDbEntity
  8
1
  6
Continuous
 62
     7
100
AcDbCircle
 10
81.65415942993832
 20
165.3959166359725
 30
0.0
 40
4.546611369137787
100
AcDbArc
 50
143.3098281831363
 51
185.9947915401459
  0
ARC
  5
50C
330
1F
100
AcDbEntity
  8
1
  6
Continuous
 62
     2
100
AcDbCircle
 10
74.06551443815738
 20
97.3852858014452
 30
0.0
 40
7.873700332148967
100
AcDbArc
 50
307.998582249232
 51
56.26283462070481
  0
ARC
  5
50D
330
1F
100
AcDbEntity
  8
1
  6
Continuous
 62
     2
100
AcDbCircle
 10
138.2536027909994
 20
97.3852858014452
 30
0.0
 40
7.87370033214961
100
AcDbArc
 50
123.7371653793022
 51
232.0014177507622
  0
CIRCLE
  5
50E
330
1F
100
AcDbEntity
  8
0
  6
Continuous
 62
     7
100
AcDbCircle
 10
111.3189303365784
 20
225.3616998781895
 30
0.0
 40
0.5
  0
LINE
  5
50F
330
1F
100
AcDbEntity
  8
1
 62
     2
100
AcDbLine
 10
124.4846306290554
 20
76.44379158570354
 30
0.0
 11
126.5541420485174
 21
74.12791304565941
 31
0.0
  0
LINE
  5
510
330
1F
100
AcDbEntity
  8
1
 62
     2
100
AcDbLine
 10
124.4846306290554
 20
76.44379158570354
 30
0.0
 11
125.1189408217094
 21
73.40342622821512
 31
0.0
  0
LEADER
  5
511
330
1F
100
AcDbEntity
  8
1
  6
Continuous
 62
     2
100
AcDbLeader
  3
Standard
 71
     0
 76
     3
 10
124.4846306290554
 20
76.44379158570354
 30
0.0
 10
129.8196415721243
 20
65.8751876219535
 30
0.0
 10
149.8958922875354
 20
65.8751876219535
 30
0.0
  0
LINE
  5
512
330
1F
100
AcDbEntity
  8
1
 62
     2
100
AcDbLine
 10
87.82545940071532
 20
76.4075437921025
 30
0.0
 11
86.71087716407304
 21
73.50859961097692
 31
0.0
  0
LINE
  5
513
330
1F
100
AcDbEntity
  8
1
 62
     2
100
AcDbLine
 10
87.82545940071532
 20
76.4075437921025
 30
0.0
 11
85.41073077861343
 21
74.4542756054158
 31
0.0
  0
LEADER
  5
514
330
1F
100
AcDbEntity
  8
1
  6
Continuous
 62
     2
100
AcDbLeader
  3
Standard
 71
     0
 76
     3
 10
87.82545940071532
 20
76.4075437921025
 30
0.0
 10
80.71667511931446
 20
66.6341539177414
 30
0.0
 10
66.48628305027546
 20
66.6341539177414
 30
0.0
  0
LINE
  5
515
330
1F
100
AcDbEntity
  8
1
 62
     2
100
AcDbLine
 10
62.18888274610549
 20
110.5607450308827
 30
0.0
 11
60.90000063849205
 21
113.3865110934212
 31
0.0
  0
LINE
  5
516
330
1F
100
AcDbEntity
  8
1
 62
     2
100
AcDbLine
 10
62.18888274610549
 20
110.5607450308827
 30
0.0
 11
62.48556112969827
 21
113.6523712799997
 31
0.0
  0
LEADER
  5
517
330
1F
100
AcDbEntity
  8
1
  6
Continuous
 62
     2
100
AcDbLeader
  3
Standard
 71
     0
 76
     3
 10
62.18888274610549
 20
110.5607450308827
 30
0.0
 10
60.43168346898528
 20
121.0404854720316
 30
0.0
 10
26.43428122917544
 20
121.0404854720316
 30
0.0
  0
DIMENSION
  5
52B
330
1F
100
AcDbEntity
  8
1
100
AcDbDimension
  2
*D1
 10
182.1915453387753
 20
271.9994425302712
 30
0.0
 11
179.6915453387753
 21
231.1005037020395
 31
0.0
 70
    32
  1
<>
 71
     5
 42
-1.0
 53
90.0
  3
ME10_DIM_10
100
AcDbAlignedDimension
 13
106.1642405057785
 23
189.9994427975894
 33
0.0
 14
106.1595586145784
 24
271.9994425302712
 34
0.0
 50
90.0
100
AcDbRotatedDimension
  0
DIMENSION
  5
538
330
1F
100
AcDbEntity
  8
1
100
AcDbDimension
  2
*D3
 10
170.0053553069654
 20
97.3407440187828
 30
0.0
 11
167.5053553069654
 21
86.7139246658565
 31
0.0
 70
    32
  1
<>
 71
     5
 42
-1.0
 53
90.0
  3
ME10_DIM_11
100
AcDbAlignedDimension
 13
129.4011879729783
 23
74.3407458366828
 33
0.0
 14
160.0877611870315
 24
97.3407440187828
 34
0.0
 50
90.0
100
AcDbRotatedDimension
  0
DIMENSION
  5
545
330
1F
100
AcDbEntity
  8
1
100
AcDbDimension
  2
*D4
 10
181.7486792840755
 20
168.8907577053826
 30
0.0
 11
179.2486792840755
 21
123.6022536215321
 31
0.0
 70
    32
  1
<>
 71
     5
 42
-1.0
 53
90.0
  3
ME10_DIM_12
100
AcDbAlignedDimension
 13
129.4011879729783
 23
74.3407458366828
 33
0.0
 14
104.6595606969784
 24
168.8907577053827
 34
0.0
 50
90.0
100
AcDbRotatedDimension
  0
DIMENSION
  5
552
330
1F
100
AcDbEntity
  8
1
100
AcDbDimension
  2
*D5
 10
56.15955926657853
 20
75.45715486442754
 30
0.0
 11
61.43738425935544
 21
77.95715486442754
 31
0.0
 70
    32
  1
<>
 71
     5
 42
-1.0
 53
0.00013888888889
  3
ME10_DIM_13
100
AcDbAlignedDimension
 13
66.15955904297834
 23
84.12074300668274
 33
0.0
 14
56.1595592665783
 24
85.12074503328273
 34
0.0
100
AcDbRotatedDimension
  0
DIMENSION
  5
55F
330
1F
100
AcDbEntity
  8
1
100
AcDbDimension
  2
*D6
 10
56.15955926657853
 20
57.19261805726853
 30
0.0
 11
105.3890068808055
 21
59.69261805726853
 31
0.0
 70
    32
  1
<>
 71
     5
 42
-1.0
 53
0.00013888888889
  3
ME10_DIM_14
100
AcDbAlignedDimension
 13
156.1595607565785
 23
85.12074503328273
 33
0.0
 14
56.1595592665783
 24
85.12074503328273
 34
0.0
100
AcDbRotatedDimension
  0
ENDSEC
  0
SECTION
  2
OBJECTS
  0
DICTIONARY
  5
C
330
0
100
AcDbDictionary
281
     1
  3
ACAD_GROUP
350
D
  3
ACAD_LAYOUT
350
1A
  3
ACAD_MLEADERSTYLE
350
561
  3
ACAD_MLINESTYLE
350
17
  3
ACAD_PLOTSETTINGS
350
19
  3
ACAD_PLOTSTYLENAME
350
E
  3
ACAD_TABLESTYLE
350
560
  3
ACAD_VISUALSTYLE
350
2A
  0
DICTIONARY
  5
D
102
{ACAD_REACTORS
330
C
102
}
330
C
100
AcDbDictionary
281
     1
  0
DICTIONARY
  5
1A
102
{ACAD_REACTORS
330
C
102
}
330
C
100
AcDbDictionary
281
     1
  3
Layout1
350
1E
  3
Layout2
350
26
  3
Model
350
22
  0
DICTIONARY
  5
561
102
{ACAD_REACTORS
330
C
102
}
330
C
100
AcDbDictionary
281
     1
  0
DICTIONARY
  5
17
102
{ACAD_REACTORS
330
C
102
}
330
C
100
AcDbDictionary
281
     1
  3
Standard
350
18
  0
DICTIONARY
  5
19
102
{ACAD_REACTORS
330
C
102
}
330
C
100
AcDbDictionary
281
     1
  0
ACDBDICTIONARYWDFLT
  5
E
102
{ACAD_REACTORS
330
C
102
}
330
C
100
AcDbDictionary
281
     1
  3
Normal
350
F
100
AcDbDictionaryWithDefault
340
F
  0
DICTIONARY
  5
560
102
{ACAD_REACTORS
330
C
102
}
330
C
100
AcDbDictionary
281
     1
  0
DICTIONARY
  5
2A
102
{ACAD_REACTORS
330
C
102
}
330
C
100
AcDbDictionary
281
     1
  3
2dWireframe
350
2F
  3
3D Hidden
350
31
  3
3dWireframe
350
30
  3
Basic
350
32
  3
Brighten
350
36
  3
ColorChange
350
3A
  3
Conceptual
350
34
  3
Dim
350
35
  3
Facepattern
350
39
  3
Flat
350
2B
  3
FlatWithEdges
350
2C
  3
Gouraud
350
2D
  3
GouraudWithEdges
350
2E
  3
Linepattern
350
38
  3
Realistic
350
33
  3
Thicken
350
37
  0
LAYOUT
  5
1E
102
{ACAD_REACTORS
330
1A
102
}
330
1A
100
AcDbPlotSettings
  1

  2
none_device
  4

  6

 40
0.0
 41
0.0
 42
0.0
 43
0.0
 44
0.0
 45
0.0
 46
0.0
 47
0.0
 48
0.0
 49
0.0
140
0.0
141
0.0
142
1.0
143
1.0
 70
   688
 72
     0
 73
     0
 74
     5
  7

 75
    16
147
1.0
148
0.0
149
0.0
100
AcDbLayout
  1
Layout1
 70
     1
 71
     1
 10
0.0
 20
0.0
 11
12.0
 21
9.0
 12
0.0
 22
0.0
 32
0.0
 14
1.00000000000000E+20
 24
1.00000000000000E+20
 34
1.00000000000000E+20
 15
-1.00000000000000E+20
 25
-1.00000000000000E+20
 35
-1.00000000000000E+20
146
0.0
 13
0.0
 23
0.0
 33
0.0
 16
1.0
 26
0.0
 36
0.0
 17
0.0
 27
1.0
 37
0.0
 76
     0
330
1B
  0
LAYOUT
  5
26
102
{ACAD_REACTORS
330
1A
102
}
330
1A
100
AcDbPlotSettings
  1

  2
none_device
  4

  6

 40
0.0
 41
0.0
 42
0.0
 43
0.0
 44
0.0
 45
0.0
 46
0.0
 47
0.0
 48
0.0
 49
0.0
140
0.0
141
0.0
142
1.0
143
1.0
 70
   688
 72
     0
 73
     0
 74
     5
  7

 75
    16
147
1.0
148
0.0
149
0.0
100
AcDbLayout
  1
Layout2
 70
     1
 71
     2
 10
0.0
 20
0.0
 11
0.0
 21
0.0
 12
0.0
 22
0.0
 32
0.0
 14
0.0
 24
0.0
 34
0.0
 15
0.0
 25
0.0
 35
0.0
146
0.0
 13
0.0
 23
0.0
 33
0.0
 16
1.0
 26
0.0
 36
0.0
 17
0.0
 27
1.0
 37
0.0
 76
     0
330
23
  0
LAYOUT
  5
22
102
{ACAD_REACTORS
330
1A
102
}
330
1A
100
AcDbPlotSettings
  1

  2
none_device
  4

  6

 40
0.0
 41
0.0
 42
0.0
 43
0.0
 44
0.0
 45
0.0
 46
0.0
 47
0.0
 48
0.0
 49
0.0
140
0.0
141
0.0
142
1.0
143
1.0
 70
  1712
 72
     0
 73
     0
 74
     0
  7

 75
     0
147
1.0
148
0.0
149
0.0
100
AcDbLayout
  1
Model
 70
     1
 71
     0
 10
0.0
 20
0.0
 11
12.0
 21
9.0
 12
0.0
 22
0.0
 32
0.0
 14
26.43428122917544
 24
-0.15925416331717
 34
0.0
 15
183.1915453387753
 25
276.0994427975888
 35
0.0
146
0.0
 13
0.0
 23
0.0
 33
0.0
 16
1.0
 26
0.0
 36
0.0
 17
0.0
 27
1.0
 37
0.0
 76
     0
330
1F
331
29
  0
MLINESTYLE
  5
18
102
{ACAD_REACTORS
330
17
102
}
330
17
100
AcDbMlineStyle
  2
Standard
 70
     0
  3

 62
   256
 51
90.0
 52
90.0
 71
     2
 49
0.5
 62
   256
  6
BYLAYER
 49
-0.5
 62
   256
  6
BYLAYER
  0
ACDBPLACEHOLDER
  5
F
102
{ACAD_REACTORS
330
E
102
}
330
E
  0
VISUALSTYLE
  5
2F
102
{ACAD_REACTORS
330
2A
102
}
330
2A
100
AcDbVisualStyle
  2
2dWireframe
 70
     4
 71
     0
 72
     2
 73
     0
 90
        0
 40
-0.6
 41
-30.0
 62
     5
 63
     7
 74
     1
 91
        4
 64
     7
 65
   257
 75
     1
175
     1
 42
1.0
 92
        0
 66
   257
 43
1.0
 76
     1
 77
     6
 78
     2
 67
     7
 79
     5
170
     0
171
     0
290
     0
174
     0
 93
        1
 44
0.0
173
     0
291
     0
 45
0.0
1001
ACAD
1000
AcDbSavedByObjectVersion
1070
     0
  0
VISUALSTYLE
  5
31
102
{ACAD_REACTORS
330
2A
102
}
330
2A
100
AcDbVisualStyle
  2
3D Hidden
 70
     6
 71
     1
 72
     2
 73
     2
 90
        0
 40
-0.6
 41
-30.0
 62
     5
 63
     7
 74
     2
 91
        2
 64
     7
 65
   257
 75
     2
175
     1
 42
40.0
 92
        0
 66
   257
 43
1.0
 76
     1
 77
     6
 78
     2
 67
     7
 79
     3
170
     0
171
     0
290
     0
174
     0
 93
        1
 44
0.0
173
     0
291
     0
 45
0.0
1001
ACAD
1000
AcDbSavedByObjectVersion
1070
     0
  0
VISUALSTYLE
  5
30
102
{ACAD_REACTORS
330
2A
102
}
330
2A
100
AcDbVisualStyle
  2
3dWireframe
 70
     5
 71
     0
 72
     2
 73
     0
 90
        0
 40
-0.6
 41
-30.0
 62
     5
 63
     7
 74
     1
 91
        4
 64
     7
 65
   257
 75
     1
175
     1
 42
1.0
 92
        0
 66
   257
 43
1.0
 76
     1
 77
     6
 78
     2
 67
     7
 79
     5
170
     0
171
     0
290
     0
174
     0
 93
        1
 44
0.0
173
     0
291
     0
 45
0.0
1001
ACAD
1000
AcDbSavedByObjectVersion
1070
     0
  0
VISUALSTYLE
  5
32
102
{ACAD_REACTORS
330
2A
102
}
330
2A
100
AcDbVisualStyle
  2
Basic
 70
     7
 71
     1
 72
     0
 73
     1
 90
        0
 40
-0.6
 41
-30.0
 62
     5
 63
     7
 74
     0
 91
        4
 64
     7
 65
   257
 75
     1
175
     1
 42
1.0
 92
        8
 66
     7
 43
1.0
 76
     1
 77
     6
 78
     2
 67
     7
 79
     5
170
     0
171
     0
290
     0
174
     0
 93
        1
 44
0.0
173
     0
291
     1
 45
0.0
1001
ACAD
1000
AcDbSavedByObjectVersion
1070
     0
  0
VISUALSTYLE
  5
36
102
{ACAD_REACTORS
330
2A
102
}
330
2A
100
AcDbVisualStyle
  2
Brighten
 70
    12
 71
     2
 72
     2
 73
     0
 90
        0
 40
-0.6
 41
-30.0
 62
     5
 63
     7
 74
     1
 91
        4
 64
     7
 65
   257
 75
     1
175
     1
 42
1.0
 92
        8
 66
     7
 43
1.0
 76
     1
 77
     6
 78
     2
 67
     7
 79
     5
170
     0
171
     0
290
     0
174
     0
 93
        1
 44
50.0
173
     0
291
     1
 45
0.0
1001
ACAD
1000
AcDbSavedByObjectVersion
1070
     0
  0
VISUALSTYLE
  5
3A
102
{ACAD_REACTORS
330
2A
102
}
330
2A
100
AcDbVisualStyle
  2
ColorChange
 70
    16
 71
     2
 72
     2
 73
     3
 90
        0
 40
-0.6
 41
-30.0
 62
     5
 63
     8
 74
     1
 91
        4
 64
     7
 65
   257
 75
     1
175
     1
 42
1.0
 92
        8
 66
     8
 43
1.0
 76
     1
 77
     6
 78
     2
 67
     7
 79
     5
170
     0
171
     0
290
     0
174
     0
 93
        1
 44
0.0
173
     0
291
     1
 45
0.0
1001
ACAD
1000
AcDbSavedByObjectVersion
1070
     0
  0
VISUALSTYLE
  5
34
102
{ACAD_REACTORS
330
2A
102
}
330
2A
100
AcDbVisualStyle
  2
Conceptual
 70
     9
 71
     3
 72
     2
 73
     0
 90
        0
 40
-0.6
 41
-30.0
 62
     5
 63
     7
 74
     2
 91
        2
 64
     7
 65
   257
 75
     1
175
     1
 42
40.0
 92
        8
 66
     7
 43
1.0
 76
     1
 77
     6
 78
     2
 67
     7
 79
     3
170
     0
171
     0
290
     0
174
     0
 93
        1
 44
0.0
173
     0
291
     0
 45
0.0
1001
ACAD
1000
AcDbSavedByObjectVersion
1070
     0
  0
VISUALSTYLE
  5
35
102
{ACAD_REACTORS
330
2A
102
}
330
2A
100
AcDbVisualStyle
  2
Dim
 70
    11
 71
     2
 72
     2
 73
     0
 90
        0
 40
-0.6
 41
-30.0
 62
     5
 63
     7
 74
     1
 91
        4
 64
     7
 65
   257
 75
     1
175
     1
 42
1.0
 92
        8
 66
     7
 43
1.0
 76
     1
 77
     6
 78
     2
 67
     7
 79
     5
170
     0
171
     0
290
     0
174
     0
 93
        1
 44
-50.0
173
     0
291
     1
 45
0.0
1001
ACAD
1000
AcDbSavedByObjectVersion
1070
     0
  0
VISUALSTYLE
  5
39
102
{ACAD_REACTORS
330
2A
102
}
330
2A
100
AcDbVisualStyle
  2
Facepattern
 70
    15
 71
     2
 72
     2
 73
     0
 90
        0
 40
-0.6
 41
-30.0
 62
     5
 63
     7
 74
     1
 91
        4
 64
     7
 65
   257
 75
     1
175
     1
 42
1.0
 92
        8
 66
     7
 43
1.0
 76
     1
 77
     6
 78
     2
 67
     7
 79
     5
170
     0
171
     0
290
     0
174
     0
 93
        1
 44
0.0
173
     0
291
     1
 45
0.0
1001
ACAD
1000
AcDbSavedByObjectVersion
1070
     0
  0
VISUALSTYLE
  5
2B
102
{ACAD_REACTORS
330
2A
102
}
330
2A
100
AcDbVisualStyle
  2
Flat
 70
     0
 71
     2
 72
     1
 73
     1
 90
        2
 40
-0.6
 41
30.0
 62
     5
 63
     7
 74
     0
 91
        4
 64
     7
 65
   257
 75
     1
175
     1
 42
1.0
 92
        8
 66
     7
 43
1.0
 76
     1
 77
     6
 78
     2
 67
     7
 79
     5
170
     0
171
     0
290
     0
174
     0
 93
       13
 44
0.0
173
     0
291
     1
 45
0.0
1001
ACAD
1000
AcDbSavedByObjectVersion
1070
     0
  0
VISUALSTYLE
  5
2C
102
{ACAD_REACTORS
330
2A
102
}
330
2A
100
AcDbVisualStyle
  2
FlatWithEdges
 70
     1
 71
     2
 72
     1
 73
     1
 90
        2
 40
-0.6
 41
30.0
 62
     5
 63
     7
 74
     1
 91
        4
 64
     7
 65
   257
 75
     1
175
     1
 42
1.0
 92
        0
 66
   257
 43
1.0
 76
     1
 77
     6
 78
     2
 67
     7
 79
     5
170
     0
171
     0
290
     0
174
     0
 93
       13
 44
0.0
173
     0
291
     1
 45
0.0
1001
ACAD
1000
AcDbSavedByObjectVersion
1070
     0
  0
VISUALSTYLE
  5
2D
102
{ACAD_REACTORS
330
2A
102
}
330
2A
100
AcDbVisualStyle
  2
Gouraud
 70
     2
 71
     2
 72
     2
 73
     1
 90
        2
 40
-0.6
 41
30.0
 62
     5
 63
     7
 74
     0
 91
        4
 64
     7
 65
   257
 75
     1
175
     1
 42
1.0
 92
        0
 66
     7
 43
1.0
 76
     1
 77
     6
 78
     2
 67
     7
 79
     5
170
     0
171
     0
290
     0
174
     0
 93
       13
 44
0.0
173
     0
291
     1
 45
0.0
1001
ACAD
1000
AcDbSavedByObjectVersion
1070
     0
  0
VISUALSTYLE
  5
2E
102
{ACAD_REACTORS
330
2A
102
}
330
2A
100
AcDbVisualStyle
  2
GouraudWithEdges
 70
     3
 71
     2
 72
     2
 73
     1
 90
        2
 40
-0.6
 41
30.0
 62
     5
 63
     7
 74
     1
 91
        4
 64
     7
 65
   257
 75
     1
175
     1
 42
1.0
 92
        0
 66
   257
 43
1.0
 76
     1
 77
     6
 78
     2
 67
     7
 79
     5
170
     0
171
     0
290
     0
174
     0
 93
       13
 44
0.0
173
     0
291
     1
 45
0.0
1001
ACAD
1000
AcDbSavedByObjectVersion
1070
     0
  0
VISUALSTYLE
  5
38
102
{ACAD_REACTORS
330
2A
102
}
330
2A
100
AcDbVisualStyle
  2
Linepattern
 70
    14
 71
     2
 72
     2
 73
     0
 90
        0
 40
-0.6
 41
-30.0
 62
     5
 63
     7
 74
     1
 91
        4
 64
     7
 65
   257
 75
     7
175
     7
 42
1.0
 92
        8
 66
     7
 43
1.0
 76
     1
 77
     6
 78
     2
 67
     7
 79
     5
170
     0
171
     0
290
     0
174
     0
 93
        1
 44
0.0
173
     0
291
     1
 45
0.0
1001
ACAD
1000
AcDbSavedByObjectVersion
1070
     0
  0
VISUALSTYLE
  5
33
102
{ACAD_REACTORS
330
2A
102
}
330
2A
100
AcDbVisualStyle
  2
Realistic
 70
     8
 71
     2
 72
     2
 73
     0
 90
        0
 40
-0.6
 41
-30.0
 62
     5
 63
     7
 74
     1
 91
        0
 64
     7
 65
   257
 75
     1
175
     1
 42
1.0
 92
        8
 66
     8
 43
1.0
 76
     1
 77
     6
 78
     2
 67
     7
 79
     5
170
     0
171
     0
290
     0
174
     0
 93
       13
 44
0.0
173
     0
291
     0
 45
0.0
1001
ACAD
1000
AcDbSavedByObjectVersion
1070
     0
  0
VISUALSTYLE
  5
37
102
{ACAD_REACTORS
330
2A
102
}
330
2A
100
AcDbVisualStyle
  2
Thicken
 70
    13
 71
     2
 72
     2
 73
     0
 90
        0
 40
-0.6
 41
-30.0
 62
     5
 63
     7
 74
     1
 91
        4
 64
     7
 65
   257
 75
     1
175
     1
 42
1.0
 92
       12
 66
     7
 43
1.0
 76
     1
 77
     6
 78
     2
 67
     7
 79
     5
170
     0
171
     0
290
     0
174
     0
 93
        1
 44
0.0
173
     0
291
     1
 45
0.0
1001
ACAD
1000
AcDbSavedByObjectVersion
1070
     0
  0
ENDSEC
  0
EOF
