  0
SECTION
  2
HEADER
  9
$ACADVER
  1
AC1009
  9
$INSBASE
 10
0
 20
0
  9
$EXTMIN
 10
1521.62633562983
 20
48.63544506536084
  9
$EXTMAX
 10
1743.324994248615
 20
384.7585920148393
  9
$LIMMIN
 10
1521.62633562983
 20
48.63544506536084
  9
$LIMMAX
 10
1743.324994248615
 20
384.7585920148393
  9
$VIEWCTR
 10
10
 20
10
  9
$VIEWSIZE
 40
10
  9
$SNAPMODE
 70
0
  9
$SNAPUNIT
 10
1
 20
1
  9
$SNAPBASE
 10
0
 20
0
  9
$SNAPANG
 50
0
  9
$SNAPSTYLE
 70
0
  9
$SNAPISOPAIR
 70
0
  9
$GRIDMODE
 70
0
  9
$GRIDUNIT
 10
0
 20
0
  9
$ORTHOMODE
 70
0
  9
$REGENMODE
 70
1
  9
$FILLMODE
 70
1
  9
$QTEXTMODE
 70
0
  9
$DRAGMODE
 70
2
  9
$LTSCALE
 40
1
  9
$OSMODE
 70
0
  9
$ATTMODE
 70
1
  9
$TEXTSIZE
 40
3.5
  9
$TRACEWID
 40
0.5
  9
$TEXTSTYLE
  7
STANDARD
  9
$CLAYER
  8
0
  9
$CELTYPE
  6
BYLAYER
  9
$CECOLOR
 62
256
  9
$DIMSCALE
 40
1
  9
$DIMASZ
 40
0.18
  9
$DIMEXO
 40
0.0625
  9
$DIMDLI
 40
0.38
  9
$DIMRND
 40
0
  9
$DIMDLE
 40
0
  9
$DIMEXE
 40
0.18
  9
$DIMTP
 40
0
  9
$DIMTM
 40
0
  9
$DIMTXT
 40
0.18
  9
$DIMCEN
 40
0.09
  9
$DIMTSZ
 40
0
  9
$DIMTOL
 70
0
  9
$DIMLIM
 70
0
  9
$DIMTIH
 70
1
  9
$DIMTOH
 70
1
  9
$DIMSE1
 70
0
  9
$DIMSE2
 70
0
  9
$DIMTAD
 70
0
  9
$DIMZIN
 70
0
  9
$DIMBLK
  1

  9
$DIMASO
 70
1
  9
$DIMSHO
 70
1
  9
$DIMPOST
  1

  9
$DIMAPOST
  1

  9
$DIMALT
 70
0
  9
$DIMALTD
 70
2
  9
$DIMALTF
 40
25.4
  9
$DIMLFAC
 40
1
  9
$DIMTOFL
 70
0
  9
$DIMTVP
 40
0
  9
$DIMTIX
 70
0
  9
$DIMSOXD
 70
0
  9
$DIMSAH
 70
0
  9
$DIMBLK1
  1

  9
$DIMBLK2
  1

  9
$DIMSTYLE
  2
*UNNAMED
  9
$DIMCLRD
 70
0
  9
$DIMCLRE
 70
0
  9
$DIMCLRT
 70
0
  9
$DIMTFAC
 40
1
  9
$DIMGAP
 40
0.09
  9
$LUNITS
 70
2
  9
$LUPREC
 70
4
  9
$AXISMODE
 70
0
  9
$AXISUNIT
 10
0
 20
0
  9
$SKETCHINC
 40
0.1
  9
$FILLETRAD
 40
2
  9
$AUNITS
 70
0
  9
$AUPREC
 70
0
  9
$MENU
  1
ACAD
  9
$ELEVATION
 40
0
  9
$THICKNESS
 40
0
  9
$VIEWDIR
 10
0
 20
0
 30
1
  9
$LIMCHECK
 70
0
  9
$BLIPMODE
 70
1
  9
$CHAMFERA
 40
0
  9
$CHAMFERB
 40
0
  9
$FASTZOOM
 70
1
  9
$SKPOLY
 70
0
  9
$ANGBASE
 50
0
  9
$ANGDIR
 70
0
  9
$PDMODE
 70
0
  9
$PDSIZE
 40
0
  9
$PLINEWID
 40
0
  9
$COORDS
 70
2
  0
ENDSEC
  0
SECTION
  2
TABLES
  0
TABLE
  2
DIMSTYLE
 70
3
  0
DIMSTYLE
  2
DMST_1
 70
0
  3

  4

  5

  6

  7

 40
1
 41
2.5
 42
0.5
 43
7
 44
0.9999999999999998
 45
0
 46
0
 47
0
 48
0
140
2.5
141
0
142
0
143
25.4
144
1
145
0
146
1
147
0.09
 71
0
 72
0
 73
0
 74
0
 75
0
 76
0
 77
1
 78
1
170
0
171
2
172
0
173
0
174
0
175
0
176
2
177
2
178
2
  0
DIMSTYLE
  2
DMST_2
 70
0
  3

  4

  5

  6

  7

 40
1
 41
3.2
 42
0.4999999999999999
 43
7
 44
1.499999999999999
 45
0
 46
0
 47
0
 48
0
140
3.2
141
0
142
0
143
25.4
144
1
145
0
146
1
147
0.09
 71
0
 72
0
 73
0
 74
0
 75
0
 76
0
 77
1
 78
1
170
0
171
2
172
0
173
0
174
0
175
0
176
2
177
2
178
2
  0
DIMSTYLE
  2
DMST_3
 70
0
  3
)
  4

  5

  6

  7

 40
1
 41
3
 42
0.5
 43
7
 44
0.9999999999999998
 45
0
 46
0
 47
0
 48
0
140
3
141
0
142
0
143
25.4
144
1
145
0
146
1
147
0.09
 71
0
 72
0
 73
0
 74
0
 75
0
 76
0
 77
1
 78
1
170
0
171
2
172
0
173
0
174
0
175
0
176
2
177
2
178
2
  0
ENDTAB
  0
TABLE
  2
LTYPE
 70
9
  0
LTYPE
  2
CONTINUOUS
 70
64
  3
Solid line
 72
65
 73
0
 40
0
  0
LTYPE
  2
BORDER
 70
64
  3
__ __ . __ __ .
 72
65
 73
6
 40
15.47935545162072
 49
4.422672986177348
 49
-2.211336493088674
 49
4.422672986177348
 49
-2.211336493088674
 49
0
 49
-2.211336493088674
  0
LTYPE
  2
CENTER
 70
64
  3
____ _ ____ _
 72
65
 73
4
 40
17.69069194470939
 49
11.05668246544337
 49
-2.211336493088674
 49
2.211336493088674
 49
-2.211336493088674
  0
LTYPE
  2
DASHDOT
 70
64
  3
__ . __ . __ .
 72
65
 73
4
 40
8.845345972354696
 49
4.422672986177348
 49
-2.211336493088674
 49
0
 49
-2.211336493088674
  0
LTYPE
  2
DASHED
 70
64
  3
__ __ __ __ __
 72
65
 73
2
 40
6.634009479266022
 49
4.422672986177348
 49
-2.211336493088674
  0
LTYPE
  2
DIVIDE
 70
64
  3
__ . . __ . . 
 72
65
 73
6
 40
11.05668246544337
 49
4.422672986177348
 49
-2.211336493088674
 49
0
 49
-2.211336493088674
 49
0
 49
-2.211336493088674
  0
LTYPE
  2
DOT
 70
64
  3
..............
 72
65
 73
4
 40
4.422672986177348
 49
0
 49
-2.211336493088674
 49
0
 49
-2.211336493088674
  0
LTYPE
  2
HIDDEN
 70
64
  3
_ _ _ _ _ _ _
 72
65
 73
2
 40
3.317004739633011
 49
2.211336493088674
 49
-1.105668246544337
  0
LTYPE
  2
PHANTOM
 70
64
  3
_____ _ _ _____ _ _ 
 72
65
 73
6
 40
22.11336493088674
 49
11.05668246544337
 49
-2.211336493088674
 49
2.211336493088674
 49
-2.211336493088674
 49
2.211336493088674
 49
-2.211336493088674
  0
ENDTAB
  0
TABLE
  2
LAYER
 70
3
  0
LAYER
  2
0
 70
0
 62
7
  6
CONTINUOUS
  0
LAYER
  2
1
 70
0
 62
7
  6
CONTINUOUS
  0
ENDTAB
  0
TABLE
  2
STYLE
 70
4
  0
STYLE
  2
STANDARD
 70
0
 40
0
 41
1
 50
0
 71
0
 42
3.5
  3
txt
  4

  0
STYLE
  2
SIMPLEX
 70
0
 40
0
 41
1
 50
0
 71
0
 42
3.5
  3
simplex
  4

  0
STYLE
  2
COMPLEX
 70
0
 40
0
 41
1
 50
0
 71
0
 42
3.5
  3
complex
  4

  0
STYLE
  2
ITALIC
 70
0
 40
0
 41
1
 50
0
 71
0
 42
3.5
  3
italic
  4

  0
ENDTAB
  0
TABLE
  2
VIEW
 70
0
  0
ENDTAB
  0
ENDSEC
  0
SECTION
  2
BLOCKS
  0
BLOCK
  8
1
  2
*D0
 70
1
 10
0
 20
0
 30
0
  0
LINE
  8
1
 62
2
 10
1531.315336403073
 20
68.3559429355128
 30
0
 11
1721.315336403073
 21
68.3559429355128
 31
0
  0
LINE
  8
1
 62
2
 10
1721.315336403073
 20
103.7968561945643
 30
0
 11
1721.315336403073
 21
67.8559429355128
 31
0
  0
LINE
  8
1
 62
2
 10
1531.315336403073
 20
103.7968561945643
 30
0
 11
1531.315336403073
 21
67.8559429355128
 31
0
  0
LINE
  8
1
 62
2
 10
1531.315336403073
 20
68.3559429355128
 30
0
 11
1533.815336403073
 21
69.0309429355128
 31
0
  0
LINE
  8
1
 62
2
 10
1531.315336403073
 20
68.3559429355128
 30
0
 11
1533.815336403073
 21
67.6809429355128
 31
0
  0
LINE
  8
1
 62
2
 10
1721.315336403073
 20
68.3559429355128
 30
0
 11
1718.815336403073
 21
67.6809429355128
 31
0
  0
LINE
  8
1
 62
2
 10
1721.315336403073
 20
68.3559429355128
 30
0
 11
1718.815336403073
 21
69.0309429355128
 31
0
  0
TEXT
  8
1
 62
2
 10
1623.381649912534
 20
68.4459429355128
 30
0
 40
2.5
  1
190
 41
0.891
 51
15
  0
ENDBLK
  8
0
  0
BLOCK
  8
1
  2
*D1
 70
1
 10
0
 20
0
 30
0
  0
LINE
  8
1
 62
2
 10
1734.257890410281
 20
84.9213561945642
 30
0
 11
1734.257890410281
 21
119.9213561945642
 31
0
  0
LINE
  8
1
 62
2
 10
1731.84202015558
 20
119.9213561945642
 30
0
 11
1734.757890410281
 21
119.9213561945642
 31
0
  0
LINE
  8
1
 62
2
 10
1658.815336403073
 20
84.9213561945642
 30
0
 11
1734.757890410281
 21
84.9213561945642
 31
0
  0
LINE
  8
1
 62
2
 10
1734.257890410281
 20
84.9213561945642
 30
0
 11
1733.582890410281
 21
87.4213561945642
 31
0
  0
LINE
  8
1
 62
2
 10
1734.257890410281
 20
84.9213561945642
 30
0
 11
1734.932890410281
 21
87.4213561945642
 31
0
  0
LINE
  8
1
 62
2
 10
1734.257890410281
 20
119.9213561945642
 30
0
 11
1734.932890410281
 21
117.4213561945642
 31
0
  0
LINE
  8
1
 62
2
 10
1734.257890410281
 20
119.9213561945642
 30
0
 11
1733.582890410281
 21
117.4213561945642
 31
0
  0
TEXT
  8
1
 62
2
 10
1734.167890410281
 20
102.0406821624671
 30
0
 40
2.5
  1
35
 50
90
 41
0.891
 51
15
  0
ENDBLK
  8
0
  0
BLOCK
  8
1
  2
*D2
 70
1
 10
0
 20
0
 30
0
  0
LINE
  8
1
 62
2
 10
1740.246941808895
 20
274.0439027773219
 30
0
 11
1740.246941808895
 21
372.043902777322
 31
0
  0
LINE
  8
1
 62
2
 10
1632.815336403074
 20
372.043902777322
 30
0
 11
1740.746941808895
 21
372.043902777322
 31
0
  0
LINE
  8
1
 62
2
 10
1632.815336403074
 20
274.0439027773219
 30
0
 11
1740.746941808895
 21
274.0439027773219
 31
0
  0
LINE
  8
1
 62
2
 10
1740.246941808895
 20
274.0439027773219
 30
0
 11
1739.571941808895
 21
276.5439027773219
 31
0
  0
LINE
  8
1
 62
2
 10
1740.246941808895
 20
274.0439027773219
 30
0
 11
1740.921941808895
 21
276.5439027773219
 31
0
  0
LINE
  8
1
 62
2
 10
1740.246941808895
 20
372.043902777322
 30
0
 11
1740.921941808895
 21
369.543902777322
 31
0
  0
LINE
  8
1
 62
2
 10
1740.246941808895
 20
372.043902777322
 30
0
 11
1739.571941808895
 21
369.543902777322
 31
0
  0
TEXT
  8
1
 62
2
 10
1740.156941808895
 20
323.462479028453
 30
0
 40
2.5
  1
98
 50
90
 41
0.891
 51
15
  0
ENDBLK
  8
0
  0
BLOCK
  8
1
  2
*D3
 70
1
 10
0
 20
0
 30
0
  0
LINE
  8
1
 62
2
 10
1708.315336403073
 20
147.8700697569373
 30
0
 11
1721.315336403073
 21
147.8700697569373
 31
0
  0
LINE
  8
1
 62
2
 10
1721.315336403073
 20
136.045856194564
 30
0
 11
1721.315336403073
 21
148.3700697569373
 31
0
  0
LINE
  8
1
 62
2
 10
1708.315336403073
 20
136.0458561945641
 30
0
 11
1708.315336403073
 21
148.3700697569373
 31
0
  0
LINE
  8
1
 62
2
 10
1708.315336403073
 20
147.8700697569373
 30
0
 11
1711.515336403073
 21
148.7340697569373
 31
0
  0
LINE
  8
1
 62
2
 10
1708.315336403073
 20
147.8700697569373
 30
0
 11
1711.515336403073
 21
147.0060697569373
 31
0
  0
LINE
  8
1
 62
2
 10
1721.315336403073
 20
147.8700697569373
 30
0
 11
1718.115336403073
 21
147.0060697569373
 31
0
  0
LINE
  8
1
 62
2
 10
1721.315336403073
 20
147.8700697569373
 30
0
 11
1718.115336403073
 21
148.7340697569373
 31
0
  0
TEXT
  8
1
 62
2
 10
1712.485817695183
 20
147.9600697569373
 30
0
 40
3.2
  1
13
 41
0.8910000000000001
 51
15
  0
ENDBLK
  8
0
  0
BLOCK
  8
1
  2
*D4
 70
1
 10
0
 20
0
 30
0
  0
LINE
  8
1
 62
2
 10
1742.521146671322
 20
84.9213561945642
 30
0
 11
1742.521146671322
 21
246.7213569624693
 31
0
  0
LINE
  8
1
 62
2
 10
1663.213450197988
 20
246.7213569624693
 30
0
 11
1743.021146671322
 21
246.7213569624693
 31
0
  0
LINE
  8
1
 62
2
 10
1658.815336403073
 20
84.9213561945642
 30
0
 11
1743.021146671322
 21
84.9213561945642
 31
0
  0
LINE
  8
1
 62
2
 10
1742.521146671322
 20
246.7213569624693
 30
0
 11
1743.331146671322
 21
243.7213569624693
 31
0
  0
LINE
  8
1
 62
2
 10
1742.521146671322
 20
246.7213569624693
 30
0
 11
1741.711146671322
 21
243.7213569624693
 31
0
  0
LINE
  8
1
 62
2
 10
1742.521146671322
 20
84.9213561945642
 30
0
 11
1741.711146671322
 21
87.9213561945642
 31
0
  0
LINE
  8
1
 62
2
 10
1742.521146671322
 20
84.9213561945642
 30
0
 11
1743.331146671322
 21
87.9213561945642
 31
0
  0
TEXT
  8
1
 62
2
 10
1742.431146671322
 20
163.8183278729693
 30
0
 40
3
  1
162
 50
90
 41
0.8910000000000001
 51
15
  0
TEXT
  8
1
 62
2
 10
1742.431146671322
 20
161.0689802956759
 30
0
 40
3
  1
(
 50
90
 41
0.8910000000000001
 51
15
  0
TEXT
  8
1
 62
2
 10
1742.431146671322
 20
172.3591754502627
 30
0
 40
3
  1
)
 50
90
 41
0.8910000000000001
 51
15
  0
ENDBLK
  8
0
  0
ENDSEC
  0
SECTION
  2
ENTITIES
  0
POLYLINE
  8
1
 62
7
 66
1
 70
1
  0
VERTEX
  8
1
 10
1632.410806644753
 20
290.6134030512368
 30
0
 42
0.03571986069740707
  0
VERTEX
  8
1
 10
1632.300992790023
 20
290.4538879453784
 30
0
 42
0.05001447801833622
  0
VERTEX
  8
1
 10
1632.219987920255
 20
290.2781403695288
 30
0
 42
0.04733296127789616
  0
VERTEX
  8
1
 10
1632.188950347463
 20
290.1498563245478
 30
0
 42
0.04357203115123206
  0
VERTEX
  8
1
 10
1632.184118981787
 20
290.059557435372
 30
0
 42
0.05357212706623343
  0
VERTEX
  8
1
 10
1632.195837656054
 20
289.9762092391102
 30
0
 42
0.1094247059508752
  0
VERTEX
  8
1
 10
1632.258157683033
 20
289.8521716439234
 30
0
 42
0.1133878202681519
  0
VERTEX
  8
1
 10
1632.375214869268
 20
289.7656754598563
 30
0
 42
0.07195778157304467
  0
VERTEX
  8
1
 10
1632.492607872146
 20
289.7342782931012
 30
0
 42
0.05145352632461243
  0
VERTEX
  8
1
 10
1632.619550826694
 20
289.7319752472747
 30
0
 42
0.04142594342977372
  0
VERTEX
  8
1
 10
1632.758130248268
 20
289.7552610937855
 30
0
 42
0.05088981411624246
  0
VERTEX
  8
1
 10
1632.97856943777
 20
289.8363582931117
 30
0
 42
0.04203820926467353
  0
VERTEX
  8
1
 10
1633.186742232263
 20
289.959800118117
 30
0
 42
0.03827686564868325
  0
VERTEX
  8
1
 10
1633.374278447973
 20
290.1164060672351
 30
0
 42
0.04264275054674416
  0
VERTEX
  8
1
 10
1633.535752580018
 20
290.3029889932872
 30
0
 42
0.05310791305824163
  0
VERTEX
  8
1
 10
1633.646067058342
 20
290.488666913611
 30
0
 42
0.05427745626931971
  0
VERTEX
  8
1
 10
1633.700564608487
 20
290.6379037914114
 30
0
 42
0.0541823807926159
  0
VERTEX
  8
1
 10
1633.718951207572
 20
290.7483084434824
 30
0
 42
0.04895675331842982
  0
VERTEX
  8
1
 10
1633.716734747604
 20
290.8394823040409
 30
0
 42
0.06590206661271339
  0
VERTEX
  8
1
 10
1633.683806063103
 20
290.9500437733445
 30
0
 42
0.1185715814423421
  0
VERTEX
  8
1
 10
1633.592315244841
 20
291.0585062060719
 30
0
 42
0.1025971211058379
  0
VERTEX
  8
1
 10
1633.471186883591
 20
291.1150072809219
 30
0
 42
0.05839274882744447
  0
VERTEX
  8
1
 10
1633.347977380001
 20
291.130863648829
 30
0
 42
0.04342770515330323
  0
VERTEX
  8
1
 10
1633.214687501192
 20
291.1199624774086
 30
0
 42
0.03505393695983277
  0
VERTEX
  8
1
 10
1633.033679280607
 20
291.0705123783433
 30
0
 42
0.04373616893351794
  0
VERTEX
  8
1
 10
1632.808765834735
 20
290.9610834123039
 30
0
 42
0.04404853925516322
  0
VERTEX
  8
1
 10
1632.594818103278
 20
290.8041065223503
 30
0
 42
0.04130223793405801
  0
VERTEX
  8
1
 10
1632.410806644753
 20
290.6134030512368
 30
0
  0
SEQEND
  8
1
  0
POLYLINE
  8
1
 62
7
 66
1
 70
1
  0
VERTEX
  8
1
 10
1632.410806644752
 20
224.1957709721538
 30
0
 42
0.03571986070037593
  0
VERTEX
  8
1
 10
1632.300992790021
 20
224.0362558662954
 30
0
 42
0.05001447801382646
  0
VERTEX
  8
1
 10
1632.219987920253
 20
223.8605082904458
 30
0
 42
0.04733296127636018
  0
VERTEX
  8
1
 10
1632.188950347461
 20
223.7322242454648
 30
0
 42
0.0435720311562529
  0
VERTEX
  8
1
 10
1632.184118981785
 20
223.6419253562889
 30
0
 42
0.05357212706374585
  0
VERTEX
  8
1
 10
1632.195837656052
 20
223.5585771600271
 30
0
 42
0.1094247059505207
  0
VERTEX
  8
1
 10
1632.258157683032
 20
223.4345395648405
 30
0
 42
0.1133878202697886
  0
VERTEX
  8
1
 10
1632.375214869266
 20
223.3480433807732
 30
0
 42
0.07195778157374148
  0
VERTEX
  8
1
 10
1632.492607872144
 20
223.3166462140182
 30
0
 42
0.05145352632540834
  0
VERTEX
  8
1
 10
1632.619550826693
 20
223.3143431681916
 30
0
 42
0.0414259434281211
  0
VERTEX
  8
1
 10
1632.758130248267
 20
223.3376290147024
 30
0
 42
0.05088981411602207
  0
VERTEX
  8
1
 10
1632.978569437768
 20
223.4187262140287
 30
0
 42
0.04203820926516156
  0
VERTEX
  8
1
 10
1633.186742232261
 20
223.5421680390339
 30
0
 42
0.03827686564855917
  0
VERTEX
  8
1
 10
1633.374278447973
 20
223.698773988152
 30
0
 42
0.04264275054515833
  0
VERTEX
  8
1
 10
1633.535752580017
 20
223.8853569142042
 30
0
 42
0.05310791306081593
  0
VERTEX
  8
1
 10
1633.64606705834
 20
224.071034834528
 30
0
 42
0.05427745626474615
  0
VERTEX
  8
1
 10
1633.700564608485
 20
224.2202717123284
 30
0
 42
0.05418238078658795
  0
VERTEX
  8
1
 10
1633.71895120757
 20
224.3306763643994
 30
0
 42
0.04895675332339951
  0
VERTEX
  8
1
 10
1633.716734747603
 20
224.4218502249579
 30
0
 42
0.06590206660889575
  0
VERTEX
  8
1
 10
1633.683806063101
 20
224.5324116942614
 30
0
 42
0.1185715814413828
  0
VERTEX
  8
1
 10
1633.592315244839
 20
224.6408741269889
 30
0
 42
0.1025971211054258
  0
VERTEX
  8
1
 10
1633.471186883589
 20
224.6973752018388
 30
0
 42
0.05839274882817382
  0
VERTEX
  8
1
 10
1633.34797738
 20
224.7132315697461
 30
0
 42
0.0434277051535793
  0
VERTEX
  8
1
 10
1633.21468750119
 20
224.7023303983256
 30
0
 42
0.03505393696002441
  0
VERTEX
  8
1
 10
1633.033679280606
 20
224.6528802992603
 30
0
 42
0.04373616893341405
  0
VERTEX
  8
1
 10
1632.808765834733
 20
224.543451333221
 30
0
 42
0.04404853925612275
  0
VERTEX
  8
1
 10
1632.594818103276
 20
224.3864744432673
 30
0
 42
0.04130223793718806
  0
VERTEX
  8
1
 10
1632.410806644752
 20
224.1957709721538
 30
0
  0
SEQEND
  8
1
  0
POLYLINE
  8
1
 62
7
 66
1
  0
VERTEX
  8
1
 10
1665.315336403074
 20
323.043902777322
 30
0
 42
-0.000988159865047114
  0
VERTEX
  8
1
 10
1665.248504493686
 20
321.5970100822867
 30
0
 42
-0.007858628445222152
  0
VERTEX
  8
1
 10
1665.170274904718
 20
320.1515205923513
 30
0
 42
-6.381788920299519e-005
  0
VERTEX
  8
1
 10
1665.069249956589
 20
318.7088375126158
 30
0
 42
-0.01184373752834201
  0
VERTEX
  8
1
 10
1664.934031969718
 20
317.2703640481802
 30
0
 42
-0.004055919957293216
  0
VERTEX
  8
1
 10
1664.753223264525
 20
315.8375034041443
 30
0
 42
-0.01492370530601283
  0
VERTEX
  8
1
 10
1664.519463138365
 20
314.4203708812183
 30
0
 42
-0.003800815716982479
  0
VERTEX
  8
1
 10
1664.232533499602
 20
313.0116148727893
 30
0
 42
-0.01392492966854762
  0
VERTEX
  8
1
 10
1663.895557934683
 20
311.6126814683396
 30
0
 42
-0.002837302142432286
  0
VERTEX
  8
1
 10
1663.511660030052
 20
310.2250167573513
 30
0
 42
-0.02049561125432298
  0
VERTEX
  8
1
 10
1662.620680103356
 20
307.5050976456278
 30
0
 42
-0.01004428278790159
  0
VERTEX
  8
1
 10
1661.572528456524
 20
304.862727806967
 30
0
 42
-0.04667480678487793
  0
VERTEX
  8
1
 10
1658.257975938866
 20
298.6635638235921
 30
0
 42
-0.0288977247090932
  0
VERTEX
  8
1
 10
1654.941265973979
 20
294.2280219239454
 30
0
 42
-0.03142982050452216
  0
VERTEX
  8
1
 10
1652.098477961476
 20
291.2530583878843
 30
0
 42
-0.03069653508484259
  0
VERTEX
  8
1
 10
1647.930833391928
 20
287.8558713863002
 30
0
 42
-0.1866489170739137
  0
VERTEX
  8
1
 10
1624.444606476327
 20
281.771820541392
 30
0
 42
-0.04967186749600391
  0
VERTEX
  8
1
 10
1618.108434852833
 20
283.1544058755076
 30
0
 42
-0.03691308997089143
  0
VERTEX
  8
1
 10
1613.25462305804
 20
285.1376416195683
 30
0
 42
-0.03820232382438241
  0
VERTEX
  8
1
 10
1608.699839414221
 20
287.8558713863002
 30
0
 42
-0.03475430443827125
  0
VERTEX
  8
1
 10
1604.532194844672
 20
291.2530583878843
 30
0
 42
-0.0273728882352061
  0
VERTEX
  8
1
 10
1601.689406832169
 20
294.2280219239454
 30
0
 42
-0.04145297279500188
  0
VERTEX
  8
1
 10
1597.63223986323
 20
299.8502907926467
 30
0
 42
-0.0256143596486703
  0
VERTEX
  8
1
 10
1595.644208823942
 20
303.568363183211
 30
0
 42
-0.03862938488787364
  0
VERTEX
  8
1
 10
1593.119012776096
 20
310.2250167573513
 30
0
 42
-0.007729126243580001
  0
VERTEX
  8
1
 10
1592.735114871465
 20
311.6126814683396
 30
0
 42
-0.009032597570343347
  0
VERTEX
  8
1
 10
1592.398139306545
 20
313.0116148727894
 30
0
 42
-0.008692694162459781
  0
VERTEX
  8
1
 10
1592.111209667783
 20
314.4203708812183
 30
0
 42
-0.01003125617247219
  0
VERTEX
  8
1
 10
1591.877449541622
 20
315.8375034041443
 30
0
 42
-0.008947814311971411
  0
VERTEX
  8
1
 10
1591.696640836429
 20
317.2703640481802
 30
0
 42
-0.006951617951664988
  0
VERTEX
  8
1
 10
1591.561422849559
 20
318.7088375126158
 30
0
 42
-0.00495553626241842
  0
VERTEX
  8
1
 10
1591.46039790143
 20
320.1515205923513
 30
0
 42
-0.002966797569154167
  0
VERTEX
  8
1
 10
1591.382168312462
 20
321.5970100822867
 30
0
 42
-0.0009881598653608634
  0
VERTEX
  8
1
 10
1591.315336403074
 20
323.043902777322
 30
0
  0
SEQEND
  8
1
  0
LINE
  8
1
 62
2
 10
1639.251824188941
 20
60.6159068404691
 30
0
 11
1639.362935300052
 21
60.7409068404691
 31
0
  0
LINE
  8
1
 62
2
 10
1639.251824188941
 20
61.3659068404691
 30
0
 11
1638.585157522274
 21
61.3659068404691
 31
0
  0
LINE
  8
1
 62
2
 10
1640.918490855608
 20
58.4909068404691
 30
0
 11
1641.918490855608
 21
58.4909068404691
 31
0
  0
LINE
  8
1
 62
2
 10
1639.807379744497
 20
58.4909068404691
 30
0
 11
1640.918490855608
 21
58.4909068404691
 31
0
  0
LINE
  8
1
 62
2
 10
1640.918490855608
 20
62.1159068404691
 30
0
 11
1640.918490855608
 21
58.4909068404691
 31
0
  0
LINE
  8
1
 62
2
 10
1640.14071307783
 20
60.6159068404691
 30
0
 11
1641.696268633385
 21
60.6159068404691
 31
0
  0
LINE
  8
1
 62
2
 10
1639.474046411163
 20
60.4909068404691
 30
0
 11
1640.029601966719
 21
59.8659068404691
 31
0
  0
LINE
  8
1
 62
2
 10
1639.251824188941
 20
61.3659068404691
 30
0
 11
1639.251824188941
 21
62.1159068404691
 31
0
  0
LINE
  8
1
 62
2
 10
1639.807379744497
 20
61.3659068404691
 30
0
 11
1639.251824188941
 21
61.3659068404691
 31
0
  0
LINE
  8
1
 62
2
 10
1639.362935300052
 20
60.7409068404691
 30
0
 11
1639.807379744497
 21
61.3659068404691
 31
0
  0
LINE
  8
1
 62
2
 10
1638.807379744497
 20
60.1159068404691
 30
0
 11
1639.251824188941
 21
60.6159068404691
 31
0
  0
LINE
  8
1
 62
2
 10
1638.362935300052
 20
59.7409068404691
 30
0
 11
1638.807379744497
 21
60.1159068404691
 31
0
  0
LINE
  8
1
 62
2
 10
1639.251824188941
 20
58.3659068404691
 30
0
 11
1639.251824188941
 21
60.6159068404691
 31
0
  0
LINE
  8
1
 62
2
 10
1636.14071307783
 20
59.7409068404691
 30
0
 11
1635.029601966719
 21
58.3659068404691
 31
0
  0
LINE
  8
1
 62
2
 10
1637.14071307783
 20
58.6159068404691
 30
0
 11
1636.696268633385
 21
59.1159068404691
 31
0
  0
LINE
  8
1
 62
2
 10
1637.474046411163
 20
58.2409068404691
 30
0
 11
1637.14071307783
 21
58.6159068404691
 31
0
  0
LINE
  8
1
 62
2
 10
1634.696268633385
 20
58.3659068404691
 30
0
 11
1637.14071307783
 21
58.6159068404691
 31
0
  0
LINE
  8
1
 62
2
 10
1634.918490855608
 20
59.8659068404691
 30
0
 11
1637.474046411163
 21
59.8659068404691
 31
0
  0
LINE
  8
1
 62
2
 10
1635.362935300052
 20
60.4909068404691
 30
0
 11
1636.918490855608
 21
60.4909068404691
 31
0
  0
LINE
  8
1
 62
2
 10
1636.14071307783
 20
62.1159068404691
 30
0
 11
1637.918490855608
 21
60.2409068404691
 31
0
  0
LINE
  8
1
 62
2
 10
1636.14071307783
 20
62.1159068404691
 30
0
 11
1634.362935300052
 21
60.2409068404691
 31
0
  0
LINE
  8
1
 62
2
 10
1631.362935300052
 20
60.3659068404691
 30
0
 11
1630.585157522274
 21
60.3659068404691
 31
0
  0
LINE
  8
1
 62
2
 10
1631.362935300052
 20
58.9909068404691
 30
0
 11
1632.14071307783
 21
59.2409068404691
 31
0
  0
LINE
  8
1
 62
2
 10
1633.585157522274
 20
58.3659068404691
 30
0
 11
1633.918490855608
 21
58.7409068404691
 31
0
  0
LINE
  8
1
 62
2
 10
1633.14071307783
 20
58.8659068404691
 30
0
 11
1633.585157522274
 21
58.3659068404691
 31
0
  0
LINE
  8
1
 62
2
 10
1632.696268633385
 20
59.7409068404691
 30
0
 11
1633.14071307783
 21
58.8659068404691
 31
0
  0
LINE
  8
1
 62
2
 10
1632.474046411163
 20
60.7409068404691
 30
0
 11
1632.696268633385
 21
59.7409068404691
 31
0
  0
LINE
  8
1
 62
2
 10
1632.362935300052
 20
62.2409068404691
 30
0
 11
1632.474046411163
 21
60.7409068404691
 31
0
  0
LINE
  8
1
 62
2
 10
1633.029601966719
 20
61.7409068404691
 30
0
 11
1632.696268633385
 21
62.1159068404691
 31
0
  0
LINE
  8
1
 62
2
 10
1630.362935300052
 20
61.3659068404691
 30
0
 11
1633.585157522274
 21
61.3659068404691
 31
0
  0
LINE
  8
1
 62
2
 10
1631.362935300052
 20
60.3659068404691
 30
0
 11
1631.362935300052
 21
58.9909068404691
 31
0
  0
LINE
  8
1
 62
2
 10
1632.14071307783
 20
60.3659068404691
 30
0
 11
1631.362935300052
 21
60.3659068404691
 31
0
  0
LINE
  8
1
 62
2
 10
1630.585157522274
 20
58.7409068404691
 30
0
 11
1631.362935300052
 21
58.9909068404691
 31
0
  0
LINE
  8
1
 62
2
 10
1627.14071307783
 20
61.1159068404691
 30
0
 11
1627.14071307783
 21
62.2409068404691
 31
0
  0
LINE
  8
1
 62
2
 10
1627.14071307783
 20
61.1159068404691
 30
0
 11
1626.585157522274
 21
61.1159068404691
 31
0
  0
LINE
  8
1
 62
2
 10
1629.362935300052
 20
59.2409068404691
 30
0
 11
1629.807379744497
 21
58.3659068404691
 31
0
  0
LINE
  8
1
 62
2
 10
1628.807379744497
 20
60.3659068404691
 30
0
 11
1629.362935300052
 21
59.2409068404691
 31
0
  0
LINE
  8
1
 62
2
 10
1628.474046411163
 20
59.4909068404691
 30
0
 11
1628.807379744497
 21
60.3659068404691
 31
0
  0
LINE
  8
1
 62
2
 10
1628.029601966719
 20
58.8659068404691
 30
0
 11
1628.474046411163
 21
59.4909068404691
 31
0
  0
LINE
  8
1
 62
2
 10
1627.696268633385
 20
58.3659068404691
 30
0
 11
1628.029601966719
 21
58.8659068404691
 31
0
  0
LINE
  8
1
 62
2
 10
1628.807379744497
 20
62.2409068404691
 30
0
 11
1628.807379744497
 21
58.2409068404691
 31
0
  0
LINE
  8
1
 62
2
 10
1629.807379744497
 20
60.3659068404691
 30
0
 11
1627.918490855608
 21
60.3659068404691
 31
0
  0
LINE
  8
1
 62
2
 10
1628.251824188941
 20
61.2409068404691
 30
0
 11
1629.696268633385
 21
61.2409068404691
 31
0
  0
LINE
  8
1
 62
2
 10
1628.251824188941
 20
61.2409068404691
 30
0
 11
1628.362935300052
 21
61.8659068404691
 31
0
  0
LINE
  8
1
 62
2
 10
1627.918490855608
 20
60.6159068404691
 30
0
 11
1628.251824188941
 21
61.2409068404691
 31
0
  0
LINE
  8
1
 62
2
 10
1627.14071307783
 20
61.1159068404691
 30
0
 11
1627.696268633385
 21
60.1159068404691
 31
0
  0
LINE
  8
1
 62
2
 10
1626.474046411163
 20
59.3659068404691
 30
0
 11
1627.14071307783
 21
61.1159068404691
 31
0
  0
LINE
  8
1
 62
2
 10
1627.696268633385
 20
61.1159068404691
 30
0
 11
1627.14071307783
 21
61.1159068404691
 31
0
  0
LINE
  8
1
 62
2
 10
1627.14071307783
 20
58.3659068404691
 30
0
 11
1627.14071307783
 21
61.1159068404691
 31
0
  0
LINE
  8
1
 62
2
 10
1622.696268633385
 20
60.7409068404691
 30
0
 11
1622.696268633385
 21
61.3659068404691
 31
0
  0
LINE
  8
1
 62
2
 10
1623.807379744497
 20
61.3659068404691
 30
0
 11
1623.807379744497
 21
60.7409068404691
 31
0
  0
LINE
  8
1
 62
2
 10
1622.696268633385
 20
61.3659068404691
 30
0
 11
1622.696268633385
 21
61.9909068404691
 31
0
  0
LINE
  8
1
 62
2
 10
1625.585157522274
 20
60.7409068404691
 30
0
 11
1625.585157522274
 21
61.3659068404691
 31
0
  0
LINE
  8
1
 62
2
 10
1624.474046411163
 20
61.3659068404691
 30
0
 11
1624.474046411163
 21
60.7409068404691
 31
0
  0
LINE
  8
1
 62
2
 10
1625.585157522274
 20
61.3659068404691
 30
0
 11
1625.585157522274
 21
61.9909068404691
 31
0
  0
LINE
  8
1
 62
2
 10
1622.696268633385
 20
58.4909068404691
 30
0
 11
1622.696268633385
 21
58.3659068404691
 31
0
  0
LINE
  8
1
 62
2
 10
1624.474046411163
 20
61.3659068404691
 30
0
 11
1625.585157522274
 21
61.3659068404691
 31
0
  0
LINE
  8
1
 62
2
 10
1624.474046411163
 20
60.7409068404691
 30
0
 11
1625.585157522274
 21
60.7409068404691
 31
0
  0
LINE
  8
1
 62
2
 10
1624.474046411163
 20
61.9909068404691
 30
0
 11
1624.474046411163
 21
61.3659068404691
 31
0
  0
LINE
  8
1
 62
2
 10
1625.585157522274
 20
61.9909068404691
 30
0
 11
1624.474046411163
 21
61.9909068404691
 31
0
  0
LINE
  8
1
 62
2
 10
1625.585157522274
 20
58.4909068404691
 30
0
 11
1625.585157522274
 21
60.7409068404691
 31
0
  0
LINE
  8
1
 62
2
 10
1625.474046411163
 20
58.3659068404691
 30
0
 11
1625.585157522274
 21
58.4909068404691
 31
0
  0
LINE
  8
1
 62
2
 10
1625.14071307783
 20
58.3659068404691
 30
0
 11
1625.474046411163
 21
58.3659068404691
 31
0
  0
LINE
  8
1
 62
2
 10
1623.807379744497
 20
61.3659068404691
 30
0
 11
1622.696268633385
 21
61.3659068404691
 31
0
  0
LINE
  8
1
 62
2
 10
1623.807379744497
 20
60.7409068404691
 30
0
 11
1622.696268633385
 21
60.7409068404691
 31
0
  0
LINE
  8
1
 62
2
 10
1623.807379744497
 20
61.9909068404691
 30
0
 11
1623.807379744497
 21
61.3659068404691
 31
0
  0
LINE
  8
1
 62
2
 10
1622.696268633385
 20
61.9909068404691
 30
0
 11
1623.807379744497
 21
61.9909068404691
 31
0
  0
LINE
  8
1
 62
2
 10
1622.696268633385
 20
58.4909068404691
 30
0
 11
1622.696268633385
 21
60.7409068404691
 31
0
  0
LINE
  8
1
 62
2
 10
1620.14071307783
 20
58.3659068404691
 30
0
 11
1621.474046411163
 21
58.3659068404691
 31
0
  0
LINE
  8
1
 62
2
 10
1620.14071307783
 20
60.7409068404691
 30
0
 11
1620.918490855608
 21
60.7409068404691
 31
0
  0
LINE
  8
1
 62
2
 10
1621.474046411163
 20
60.6159068404691
 30
0
 11
1621.918490855608
 21
60.2409068404691
 31
0
  0
LINE
  8
1
 62
2
 10
1620.696268633385
 20
61.4909068404691
 30
0
 11
1621.474046411163
 21
60.6159068404691
 31
0
  0
LINE
  8
1
 62
2
 10
1620.14071307783
 20
62.2409068404691
 30
0
 11
1620.696268633385
 21
61.4909068404691
 31
0
  0
LINE
  8
1
 62
2
 10
1619.585157522274
 20
61.4909068404691
 30
0
 11
1620.14071307783
 21
62.2409068404691
 31
0
  0
LINE
  8
1
 62
2
 10
1618.807379744497
 20
60.6159068404691
 30
0
 11
1619.585157522274
 21
61.4909068404691
 31
0
  0
LINE
  8
1
 62
2
 10
1618.362935300052
 20
60.2409068404691
 30
0
 11
1618.807379744497
 21
60.6159068404691
 31
0
  0
LINE
  8
1
 62
2
 10
1620.696268633385
 20
58.8659068404691
 30
0
 11
1620.918490855608
 21
59.4909068404691
 31
0
  0
LINE
  8
1
 62
2
 10
1619.362935300052
 20
59.4909068404691
 30
0
 11
1619.585157522274
 21
58.8659068404691
 31
0
  0
LINE
  8
1
 62
2
 10
1621.251824188941
 20
59.9909068404691
 30
0
 11
1619.029601966719
 21
59.9909068404691
 31
0
  0
LINE
  8
1
 62
2
 10
1619.362935300052
 20
60.7409068404691
 30
0
 11
1620.14071307783
 21
60.7409068404691
 31
0
  0
LINE
  8
1
 62
2
 10
1620.14071307783
 20
58.3659068404691
 30
0
 11
1620.14071307783
 21
60.7409068404691
 31
0
  0
LINE
  8
1
 62
2
 10
1618.696268633385
 20
58.3659068404691
 30
0
 11
1620.14071307783
 21
58.3659068404691
 31
0
  0
LINE
  8
1
 62
2
 10
1617.14071307783
 20
59.4909068404691
 30
0
 11
1617.696268633385
 21
60.2409068404691
 31
0
  0
LINE
  8
1
 62
2
 10
1616.251824188941
 20
58.9909068404691
 30
0
 11
1617.14071307783
 21
59.4909068404691
 31
0
  0
LINE
  8
1
 62
2
 10
1616.251824188941
 20
61.2409068404691
 30
0
 11
1616.251824188941
 21
58.9909068404691
 31
0
  0
LINE
  8
1
 62
2
 10
1615.362935300052
 20
60.2409068404691
 30
0
 11
1615.474046411163
 21
61.2409068404691
 31
0
  0
LINE
  8
1
 62
2
 10
1615.14071307783
 20
59.4909068404691
 30
0
 11
1615.362935300052
 21
60.2409068404691
 31
0
  0
LINE
  8
1
 62
2
 10
1614.807379744497
 20
58.8659068404691
 30
0
 11
1615.14071307783
 21
59.4909068404691
 31
0
  0
LINE
  8
1
 62
2
 10
1611.029601966719
 20
59.8659068404691
 30
0
 11
1611.029601966719
 21
59.1159068404691
 31
0
  0
LINE
  8
1
 62
2
 10
1612.251824188941
 20
58.6159068404691
 30
0
 11
1612.918490855608
 21
58.7409068404691
 31
0
  0
LINE
  8
1
 62
2
 10
1611.14071307783
 20
58.7409068404691
 30
0
 11
1612.251824188941
 21
58.6159068404691
 31
0
  0
LINE
  8
1
 62
2
 10
1611.029601966719
 20
59.1159068404691
 30
0
 11
1611.14071307783
 21
58.7409068404691
 31
0
  0
LINE
  8
1
 62
2
 10
1611.029601966719
 20
61.2409068404691
 30
0
 11
1611.029601966719
 21
59.8659068404691
 31
0
  0
LINE
  8
1
 62
2
 10
1613.14071307783
 20
61.4909068404691
 30
0
 11
1613.474046411163
 21
61.1159068404691
 31
0
  0
LINE
  8
1
 62
2
 10
1613.251824188941
 20
60.8659068404691
 30
0
 11
1612.918490855608
 21
61.2409068404691
 31
0
  0
LINE
  8
1
 62
2
 10
1612.029601966719
 20
60.2409068404691
 30
0
 11
1612.696268633385
 21
60.6159068404691
 31
0
  0
LINE
  8
1
 62
2
 10
1611.029601966719
 20
59.8659068404691
 30
0
 11
1612.029601966719
 21
60.2409068404691
 31
0
  0
LINE
  8
1
 62
2
 10
1608.585157522274
 20
59.4909068404691
 30
0
 11
1609.251824188941
 21
58.7409068404691
 31
0
  0
LINE
  8
1
 62
2
 10
1608.029601966719
 20
59.9909068404691
 30
0
 11
1608.585157522274
 21
59.4909068404691
 31
0
  0
LINE
  8
1
 62
2
 10
1609.362935300052
 20
61.7409068404691
 30
0
 11
1609.696268633385
 21
61.3659068404691
 31
0
  0
LINE
  8
1
 62
2
 10
1609.14071307783
 20
61.4909068404691
 30
0
 11
1609.474046411163
 21
61.1159068404691
 31
0
  0
LINE
  8
1
 62
2
 10
1608.696268633385
 20
61.2409068404691
 30
0
 11
1607.251824188941
 21
61.2409068404691
 31
0
  0
LINE
  8
1
 62
2
 10
1608.362935300052
 20
60.4909068404691
 30
0
 11
1608.696268633385
 21
61.2409068404691
 31
0
  0
LINE
  8
1
 62
2
 10
1607.585157522274
 20
59.3659068404691
 30
0
 11
1608.362935300052
 21
60.4909068404691
 31
0
  0
LINE
  8
1
 62
2
 10
1606.807379744497
 20
58.7409068404691
 30
0
 11
1607.585157522274
 21
59.3659068404691
 31
0
  0
LINE
  8
1
 62
2
 10
1605.474046411163
 20
61.1159068404691
 30
0
 11
1604.474046411163
 21
59.9909068404691
 31
0
  0
LINE
  8
1
 62
2
 10
1602.918490855608
 20
61.1159068404691
 30
0
 11
1605.474046411163
 21
61.1159068404691
 31
0
  0
LINE
  8
1
 62
2
 10
1604.14071307783
 20
59.9909068404691
 30
0
 11
1604.251824188941
 21
60.6159068404691
 31
0
  0
LINE
  8
1
 62
2
 10
1603.918490855608
 20
59.2409068404691
 30
0
 11
1604.14071307783
 21
59.9909068404691
 31
0
  0
LINE
  8
1
 62
2
 10
1603.474046411163
 20
58.4909068404691
 30
0
 11
1603.918490855608
 21
59.2409068404691
 31
0
  0
LINE
  8
1
 62
2
 10
1575.857083914606
 20
112.9360540741407
 30
0
 11
1576.964179854265
 21
115.8378654925329
 31
0
  0
LINE
  8
1
 62
2
 10
1577.45631235529
 20
112.7712751173841
 30
0
 11
1576.964179854265
 21
115.8378654925329
 31
0
  0
LINE
  8
1
 62
2
 10
1573.263930295686
 20
79.92585070506942
 30
0
 11
1576.964179854265
 21
115.8378654925329
 31
0
  0
LINE
  8
1
 62
2
 10
1552.356353848736
 20
79.92585070506942
 30
0
 11
1573.263930295686
 21
79.92585070506942
 31
0
  0
LINE
  8
1
 62
2
 10
1566.953274545083
 20
113.5311335134743
 30
0
 11
1568.44518118552
 21
116.255171968368
 31
0
  0
LINE
  8
1
 62
2
 10
1568.515171362273
 20
113.1501321453257
 30
0
 11
1568.44518118552
 21
116.255171968368
 31
0
  0
LINE
  8
1
 62
2
 10
1562.45057460947
 20
91.6805701055446
 30
0
 11
1568.44518118552
 21
116.255171968368
 31
0
  0
LINE
  8
1
 62
2
 10
1534.31906382377
 20
91.6805701055446
 30
0
 11
1562.45057460947
 21
91.6805701055446
 31
0
  0
LINE
  8
1
 62
2
 10
1536.216475092308
 20
139.3783026239624
 30
0
 11
1537.49060936785
 21
136.5458561945642
 31
0
  0
LINE
  8
1
 62
2
 10
1534.9709535027
 20
138.3617596195108
 30
0
 11
1537.49060936785
 21
136.5458561945642
 31
0
  0
LINE
  8
1
 62
2
 10
1521.62633562983
 20
155.983593071058
 30
0
 11
1537.49060936785
 21
136.5458561945642
 31
0
  0
LINE
  8
1
 62
2
 10
1570.71983138667
 20
155.983593071058
 30
0
 11
1521.62633562983
 21
155.983593071058
 31
0
  0
LINE
  8
1
 62
2
  6
DIVIDE
 10
1563.315336403073
 20
123.3510026501924
 30
0
 11
1573.356394117278
 21
123.3510026501924
 31
0
  0
LINE
  8
1
 62
2
  6
DIVIDE
 10
1573.356394117278
 20
123.3510026501924
 30
0
 11
1573.356394117278
 21
116.4213561945642
 31
0
  0
LINE
  8
1
 62
2
  6
DIVIDE
 10
1573.356394117278
 20
116.4213561945642
 30
0
 11
1563.315336403073
 21
116.4213561945642
 31
0
  0
LINE
  8
1
 62
2
  6
DIVIDE
 10
1563.315336403073
 20
116.4213561945642
 30
0
 11
1563.315336403073
 21
123.3510026501924
 31
0
  0
LINE
  8
1
 62
7
 10
1624.315336403073
 20
164.7213555915702
 30
0
 11
1624.315336403073
 21
174.7213555915702
 31
0
  0
LINE
  8
1
 62
7
 10
1631.315336403073
 20
163.7213555915702
 30
0
 11
1625.315336403073
 21
163.7213555915702
 31
0
  0
LINE
  8
1
 62
7
 10
1632.315336403073
 20
174.7213555915702
 30
0
 11
1632.315336403073
 21
164.7213555915702
 31
0
  0
LINE
  8
1
 62
7
 10
1625.315336403073
 20
175.7213555915702
 30
0
 11
1631.315336403073
 21
175.7213555915702
 31
0
  0
LINE
  8
1
 62
7
 10
1670.815336403073
 20
163.7213555915702
 30
0
 11
1670.815336403073
 21
160.2213555915701
 31
0
  0
LINE
  8
1
 62
7
 10
1670.815336403073
 20
163.7213555915702
 30
0
 11
1676.315336403073
 21
163.7213555915702
 31
0
  0
LINE
  8
1
 62
7
 10
1670.815336403073
 20
175.7213555915702
 30
0
 11
1670.815336403073
 21
163.7213555915702
 31
0
  0
LINE
  8
1
 62
7
 10
1670.815336403073
 20
175.7213555915702
 30
0
 11
1676.315336403073
 21
175.7213555915702
 31
0
  0
LINE
  8
1
 62
7
 10
1677.315336403073
 20
174.7213555915702
 30
0
 11
1677.315336403073
 21
164.7213555915702
 31
0
  0
LINE
  8
1
 62
7
 10
1585.815336403073
 20
177.7213555915701
 30
0
 11
1585.815336403073
 21
160.2213555915701
 31
0
  0
LINE
  8
1
 62
7
 10
1587.815336403073
 20
184.7213555915702
 30
0
 11
1587.815336403073
 21
179.7213555915702
 31
0
  0
LINE
  8
1
 62
7
 10
1670.815336403073
 20
177.7213555915702
 30
0
 11
1670.815336403073
 21
175.7213555915702
 31
0
  0
LINE
  8
1
 62
7
 10
1668.815336403073
 20
184.7213555915702
 30
0
 11
1668.815336403073
 21
179.7213555915702
 31
0
  0
LINE
  8
1
 62
7
 10
1585.815336403073
 20
160.2213555915701
 30
0
 11
1670.815336403073
 21
160.2213555915701
 31
0
  0
LINE
  8
1
 62
7
 10
1670.815336403073
 20
177.7213555915702
 30
0
 11
1585.815336403073
 21
177.7213555915701
 31
0
  0
LINE
  8
1
 62
7
 10
1587.815336403073
 20
184.7213555915702
 30
0
 11
1668.815336403073
 21
184.7213555915702
 31
0
  0
LINE
  8
1
 62
7
 10
1580.315336403073
 20
175.7213555915702
 30
0
 11
1585.815336403073
 21
175.7213555915702
 31
0
  0
LINE
  8
1
 62
7
 10
1579.315336403073
 20
164.7213555915702
 30
0
 11
1579.315336403073
 21
174.7213555915702
 31
0
  0
LINE
  8
1
 62
7
 10
1580.315336403073
 20
163.7213555915702
 30
0
 11
1585.815336403073
 21
163.7213555915702
 31
0
  0
LINE
  8
1
 62
7
 10
1673.137206065103
 20
327.043902777322
 30
0
 11
1677.315336403074
 21
327.043902777322
 31
0
  0
LINE
  8
1
 62
7
 10
1673.137206065103
 20
319.043902777322
 30
0
 11
1677.315336403074
 21
319.043902777322
 31
0
  0
LINE
  8
1
 62
7
 10
1677.315336403074
 20
319.043902777322
 30
0
 11
1677.315336403074
 21
327.043902777322
 31
0
  0
LINE
  8
1
 62
7
 10
1624.315336403074
 20
274.0439027773219
 30
0
 11
1632.315336403074
 21
274.0439027773219
 31
0
  0
LINE
  8
1
 62
7
 10
1632.315336403074
 20
372.043902777322
 30
0
 11
1632.315336403074
 21
367.8657724393519
 31
0
  0
LINE
  8
1
 62
7
 10
1624.315336403074
 20
372.043902777322
 30
0
 11
1624.315336403074
 21
367.8657724393519
 31
0
  0
LINE
  8
1
 62
7
 10
1624.315336403074
 20
372.043902777322
 30
0
 11
1632.315336403074
 21
372.043902777322
 31
0
  0
LINE
  8
1
 62
7
 10
1632.315336403074
 20
278.2220331152921
 30
0
 11
1632.315336403074
 21
274.0439027773219
 31
0
  0
LINE
  8
1
 62
7
 10
1624.315336403074
 20
278.2220331152921
 30
0
 11
1624.315336403074
 21
274.0439027773219
 31
0
  0
LINE
  8
1
 62
7
 10
1579.315336403074
 20
327.043902777322
 30
0
 11
1583.493466741044
 21
327.043902777322
 31
0
  0
LINE
  8
1
 62
7
 10
1579.315336403074
 20
327.043902777322
 30
0
 11
1579.315336403074
 21
319.043902777322
 31
0
  0
LINE
  8
1
 62
7
 10
1579.315336403074
 20
319.043902777322
 30
0
 11
1583.493466741044
 21
319.043902777322
 31
0
  0
LINE
  8
1
 62
7
 10
1574.801846717213
 20
300.6517699463118
 30
0
 11
1575.091243609272
 21
301.6089791391569
 31
0
  0
LINE
  8
1
 62
7
 10
1578.630683488593
 20
299.4941823780771
 30
0
 11
1574.801846717213
 21
300.6517699463118
 31
0
  0
LINE
  8
1
 62
7
 10
1578.630683488593
 20
299.4941823780771
 30
0
 11
1574.801846717213
 21
300.6517699463118
 31
0
  0
LINE
  8
1
 62
7
 10
1578.920080380651
 20
300.4513915709219
 30
0
 11
1578.630683488593
 21
299.4941823780771
 31
0
  0
LINE
  8
1
 62
7
 10
1665.325114614796
 20
349.32469037906
 30
0
 11
1694.845364168621
 21
340.2992542401312
 31
0
  0
LINE
  8
1
 62
7
 10
1563.315336403074
 20
304.124532651016
 30
0
 11
1563.604733295133
 21
305.081741843861
 31
0
  0
LINE
  8
1
 62
7
 10
1567.144173174453
 20
302.9669450827811
 30
0
 11
1563.315336403074
 21
304.124532651016
 31
0
  0
LINE
  8
1
 62
7
 10
1563.604733295133
 20
341.0060637107831
 30
0
 11
1567.433570066512
 21
342.1636512790178
 31
0
  0
LINE
  8
1
 62
7
 10
1567.433570066512
 20
303.9241542756263
 30
0
 11
1567.144173174453
 21
302.9669450827811
 31
0
  0
LINE
  8
1
 62
7
 10
1567.433570066512
 20
342.1636512790178
 30
0
 11
1569.347988452202
 21
342.7424450631352
 31
0
  0
LINE
  8
1
 62
7
 10
1569.058591560143
 20
302.3881512986638
 30
0
 11
1569.347988452202
 21
303.3453604915089
 31
0
  0
LINE
  8
1
 62
7
 10
1572.887428331523
 20
301.2305637304291
 30
0
 11
1569.058591560143
 21
302.3881512986638
 31
0
  0
LINE
  8
1
 62
7
 10
1569.347988452202
 20
342.7424450631352
 30
0
 11
1573.176825223581
 21
343.90003263137
 31
0
  0
LINE
  8
1
 62
7
 10
1573.176825223581
 20
302.1877729232739
 30
0
 11
1572.887428331523
 21
301.2305637304291
 31
0
  0
LINE
  8
1
 62
7
 10
1573.176825223581
 20
343.90003263137
 30
0
 11
1591.339702615696
 21
349.3912881556711
 31
0
  0
LINE
  8
1
 62
7
 10
1705.658240263201
 20
309.0944489320736
 30
0
 11
1665.325114614796
 21
296.763115175584
 31
0
  0
LINE
  8
1
 62
7
 10
1694.845364168621
 20
340.2992542401312
 30
0
 11
1705.658240263201
 21
336.9933566225704
 31
0
  0
LINE
  8
1
 62
7
 10
1709.315336403074
 20
306.419402777322
 30
0
 11
1709.315336403074
 21
339.6684027773222
 31
0
  0
LINE
  8
1
 62
7
 10
1720.315336403074
 20
306.419402777322
 30
0
 11
1720.315336403074
 21
339.6684027773222
 31
0
  0
LINE
  8
1
 62
2
 10
1708.315336403074
 20
307.419402777322
 30
0
 11
1721.315336403074
 21
307.419402777322
 31
0
  0
LINE
  8
1
 62
2
 10
1708.315336403074
 20
338.6684027773222
 30
0
 11
1721.315336403074
 21
338.6684027773222
 31
0
  0
LINE
  8
1
 62
7
 10
1709.315336403074
 20
306.419402777322
 30
0
 11
1708.315336403074
 21
307.419402777322
 31
0
  0
LINE
  8
1
 62
7
 10
1720.315336403074
 20
306.419402777322
 30
0
 11
1721.315336403074
 21
307.419402777322
 31
0
  0
LINE
  8
1
 62
7
 10
1709.315336403074
 20
339.6684027773222
 30
0
 11
1708.315336403074
 21
338.6684027773222
 31
0
  0
LINE
  8
1
 62
7
 10
1720.315336403074
 20
339.6684027773222
 30
0
 11
1721.315336403074
 21
338.6684027773222
 31
0
  0
LINE
  8
1
 62
7
 10
1708.315336403074
 20
307.419402777322
 30
0
 11
1708.315336403074
 21
338.6684027773222
 31
0
  0
LINE
  8
1
 62
7
 10
1721.315336403074
 20
307.419402777322
 30
0
 11
1721.315336403074
 21
338.6684027773222
 31
0
  0
LINE
  8
1
 62
7
 10
1720.315336403074
 20
306.419402777322
 30
0
 11
1709.315336403074
 21
306.419402777322
 31
0
  0
LINE
  8
1
 62
7
 10
1709.315336403074
 20
339.6684027773222
 30
0
 11
1720.315336403074
 21
339.6684027773222
 31
0
  0
LINE
  8
1
 62
7
 10
1546.894130187191
 20
335.9538800919736
 30
0
 11
1560.071352922248
 21
339.9378026597847
 31
0
  0
LINE
  8
1
 62
7
 10
1560.071352922248
 20
339.9378026597847
 30
0
 11
1563.604733295133
 21
341.0060637107831
 31
0
  0
LINE
  8
1
 62
7
 10
1591.339702615696
 20
296.6965173989728
 30
0
 11
1546.894130187191
 21
310.1339254626703
 31
0
  0
LINE
  8
1
 62
7
 10
1544.315336403074
 20
338.6684027773222
 30
0
 11
1544.315336403074
 21
337.8682984776635
 31
0
  0
LINE
  8
1
 62
7
 10
1544.315336403074
 20
337.8682984776635
 30
0
 11
1544.315336403074
 21
307.419402777322
 31
0
  0
LINE
  8
1
 62
7
 10
1532.315336403074
 20
306.419402777322
 30
0
 11
1532.315336403074
 21
339.6684027773222
 31
0
  0
LINE
  8
1
 62
7
 10
1543.315336403074
 20
306.419402777322
 30
0
 11
1543.315336403074
 21
339.6684027773222
 31
0
  0
LINE
  8
1
 62
2
 10
1531.315336403074
 20
307.419402777322
 30
0
 11
1544.315336403074
 21
307.419402777322
 31
0
  0
LINE
  8
1
 62
2
 10
1531.315336403074
 20
338.6684027773222
 30
0
 11
1544.315336403074
 21
338.6684027773222
 31
0
  0
LINE
  8
1
 62
7
 10
1532.315336403074
 20
306.419402777322
 30
0
 11
1531.315336403074
 21
307.419402777322
 31
0
  0
LINE
  8
1
 62
7
 10
1543.315336403074
 20
306.419402777322
 30
0
 11
1544.315336403074
 21
307.419402777322
 31
0
  0
LINE
  8
1
 62
7
 10
1532.315336403074
 20
339.6684027773222
 30
0
 11
1531.315336403074
 21
338.6684027773222
 31
0
  0
LINE
  8
1
 62
7
 10
1544.315336403074
 20
338.6684027773222
 30
0
 11
1543.315336403074
 21
339.6684027773222
 31
0
  0
LINE
  8
1
 62
7
 10
1543.315336403074
 20
339.6684027773222
 30
0
 11
1544.315336403074
 21
338.6684027773222
 31
0
  0
LINE
  8
1
 62
7
 10
1531.315336403074
 20
307.419402777322
 30
0
 11
1531.315336403074
 21
338.6684027773222
 31
0
  0
LINE
  8
1
 62
7
 10
1543.315336403074
 20
306.419402777322
 30
0
 11
1532.315336403074
 21
306.419402777322
 31
0
  0
LINE
  8
1
 62
7
 10
1532.315336403074
 20
339.6684027773222
 30
0
 11
1543.315336403074
 21
339.6684027773222
 31
0
  0
LINE
  8
1
 62
2
  6
DASHDOT
 10
1580.5328790204
 20
119.9213561945642
 30
0
 11
1606.88046123663
 21
119.9213561945642
 31
0
  0
LINE
  8
1
 62
2
  6
DASHDOT
 10
1628.315336403073
 20
105.7076246752293
 30
0
 11
1628.315336403073
 21
79.77903499400217
 31
0
  0
LINE
  8
1
 62
2
  6
DASHDOT
 10
1648.9047518708
 20
119.9213561945642
 30
0
 11
1731.34202015558
 21
119.9213561945642
 31
0
  0
LINE
  8
1
 62
7
 10
1611.315336403074
 20
137.1713561945643
 30
0
 11
1639.315336403073
 21
137.1713561945643
 31
0
  0
LINE
  8
1
 62
7
 10
1611.315336403074
 20
138.6713561945642
 30
0
 11
1611.315336403074
 21
137.1713561945643
 31
0
  0
LINE
  8
1
 62
7
 10
1639.315336403073
 20
141.4213561945643
 30
0
 11
1645.315336403073
 21
137.9213561945642
 31
0
  0
LINE
  8
1
 62
7
 10
1639.315336403073
 20
134.4213561945642
 30
0
 11
1645.315336403073
 21
137.9213561945642
 31
0
  0
LINE
  8
1
 62
7
 10
1639.315336403073
 20
141.4213561945643
 30
0
 11
1639.315336403073
 21
138.6713561945642
 31
0
  0
LINE
  8
1
 62
7
 10
1639.315336403073
 20
138.6713561945642
 30
0
 11
1629.903049643345
 21
138.6713561945642
 31
0
  0
LINE
  8
1
 62
7
 10
1639.315336403073
 20
137.1713561945643
 30
0
 11
1639.315336403073
 21
134.4213561945642
 31
0
  0
LINE
  8
1
 62
7
 10
1612.903049643344
 20
138.6713561945642
 30
0
 11
1611.315336403074
 21
141.4213561945643
 31
0
  0
LINE
  8
1
 62
7
 10
1612.903049643344
 20
138.6713561945642
 30
0
 11
1611.315336403074
 21
138.6713561945642
 31
0
  0
LINE
  8
1
 62
7
 10
1611.315336403074
 20
141.4213561945643
 30
0
 11
1628.315336403073
 21
141.4213561945643
 31
0
  0
LINE
  8
1
 62
7
 10
1628.315336403073
 20
141.4213561945643
 30
0
 11
1629.903049643345
 21
138.6713561945642
 31
0
  0
LINE
  8
1
 62
7
 10
1629.903049643345
 20
138.6713561945642
 30
0
 11
1612.903049643344
 21
138.6713561945642
 31
0
  0
LINE
  8
1
 62
7
 10
1611.315336403074
 20
134.4213561945642
 30
0
 11
1612.903049643344
 21
137.1713561945643
 31
0
  0
LINE
  8
1
 62
7
 10
1628.315336403073
 20
134.4213561945642
 30
0
 11
1611.315336403074
 21
134.4213561945642
 31
0
  0
LINE
  8
1
 62
7
 10
1629.903049643345
 20
137.1713561945643
 30
0
 11
1628.315336403073
 21
134.4213561945642
 31
0
  0
LINE
  8
1
 62
2
 10
1589.397836403073
 20
157.9213561945642
 30
0
 11
1589.397836403073
 21
160.2213555915701
 31
0
  0
LINE
  8
1
 62
7
 10
1667.232836403073
 20
157.9213561945642
 30
0
 11
1588.315336403073
 21
157.9213561945642
 31
0
  0
LINE
  8
1
 62
2
 10
1667.232836403073
 20
160.2213555915701
 30
0
 11
1667.232836403073
 21
157.9213561945642
 31
0
  0
LINE
  8
1
 62
2
  6
DASHDOT
 10
1526.458578164818
 20
119.9213561945642
 30
0
 11
1561.18731424323
 21
119.9213561945642
 31
0
  0
LINE
  8
1
 62
7
 10
1588.315336403073
 20
157.9213561945642
 30
0
 11
1588.315336403073
 21
160.2213555915701
 31
0
  0
LINE
  8
1
 62
7
 10
1590.315336403073
 20
155.9213561945642
 30
0
 11
1590.315336403073
 21
151.5816102324086
 31
0
  0
LINE
  8
1
 62
7
 10
1666.315336403073
 20
155.9213561945642
 30
0
 11
1666.315336403073
 21
151.5816102324086
 31
0
  0
LINE
  8
1
 62
7
 10
1708.315336403073
 20
135.3468499614844
 30
0
 11
1708.315336403073
 21
135.5458561945641
 31
0
  0
LINE
  8
1
 62
7
 10
1678.656799817707
 20
139.6695269262716
 30
0
 11
1706.297775083927
 21
133.4503074913726
 31
0
  0
LINE
  8
1
 62
7
 10
1721.315336403073
 20
135.545856194564
 30
0
 11
1720.315336403073
 21
136.5458561945641
 31
0
  0
LINE
  8
1
 62
7
 10
1709.315336403073
 20
136.5458561945641
 30
0
 11
1708.315336403073
 21
135.5458561945641
 31
0
  0
LINE
  8
1
 62
2
 10
1708.315336403073
 20
135.5458561945641
 30
0
 11
1721.315336403073
 21
135.545856194564
 31
0
  0
LINE
  8
1
 62
7
 10
1673.315336403073
 20
149.9213561945642
 30
0
 11
1667.200187744902
 21
149.9213561945642
 31
0
  0
LINE
  8
1
 62
7
 10
1676.315336403073
 20
142.5963561945644
 30
0
 11
1676.315336403073
 21
146.9213561945642
 31
0
  0
LINE
  8
1
 62
7
 10
1672.876312012829
 20
140.970136682369
 30
0
 11
1678.656799817707
 21
139.6695269262716
 31
0
  0
LINE
  8
1
 62
7
 10
1668.315336403073
 20
157.9213561945642
 30
0
 11
1668.315336403073
 21
160.2213555915701
 31
0
  0
LINE
  8
1
 62
7
 10
1674.960737908975
 20
105.1140253602373
 30
0
 11
1698.315336403073
 21
106.3764360896482
 31
0
  0
LINE
  8
1
 62
7
 10
1698.315336403073
 20
106.3764360896482
 30
0
 11
1661.310405826253
 21
90.17872797826141
 31
0
  0
LINE
  8
1
 62
7
 10
1658.315336403073
 20
85.5983073226742
 30
0
 11
1658.315336403073
 21
84.9213561945642
 31
0
  0
LINE
  8
1
 62
7
 10
1698.315336403073
 20
106.3764360896482
 30
0
 11
1706.207385887043
 21
106.8030333590521
 31
0
  0
LINE
  8
1
 62
7
 10
1721.315336403073
 20
104.2968561945643
 30
0
 11
1721.315336403073
 21
109.9213561945642
 31
0
  0
LINE
  8
1
 62
7
 10
1709.315336403073
 20
103.2968561945643
 30
0
 11
1720.315336403073
 21
103.2968561945643
 31
0
  0
LINE
  8
1
 62
7
 10
1708.315336403073
 20
104.8059488124961
 30
0
 11
1708.315336403073
 21
104.2968561945643
 31
0
  0
LINE
  8
1
 62
7
 10
1721.315336403073
 20
104.2968561945643
 30
0
 11
1720.315336403073
 21
103.2968561945643
 31
0
  0
LINE
  8
1
 62
7
 10
1709.315336403073
 20
103.2968561945643
 30
0
 11
1708.315336403073
 21
104.2968561945643
 31
0
  0
LINE
  8
1
 62
2
 10
1708.315336403073
 20
104.2968561945643
 30
0
 11
1721.315336403073
 21
104.2968561945643
 31
0
  0
LINE
  8
1
 62
7
 10
1544.315336403073
 20
135.5458561945641
 30
0
 11
1544.315336403073
 21
135.3468499614844
 31
0
  0
LINE
  8
1
 62
7
 10
1543.315336403073
 20
136.5458561945641
 30
0
 11
1544.315336403073
 21
135.5458561945641
 31
0
  0
LINE
  8
1
 62
7
 10
1532.315336403073
 20
136.5458561945641
 30
0
 11
1531.315336403073
 21
135.5458561945641
 31
0
  0
LINE
  8
1
 62
2
 10
1531.315336403073
 20
135.5458561945641
 30
0
 11
1544.315336403073
 21
135.5458561945641
 31
0
  0
LINE
  8
1
 62
7
 10
1546.332897722219
 20
133.4503074913726
 30
0
 11
1580.961497769942
 21
137.9632844435744
 31
0
  0
LINE
  8
1
 62
7
 10
1531.315336403073
 20
135.5458561945641
 30
0
 11
1531.315336403073
 21
104.2968561945643
 31
0
  0
LINE
  8
1
 62
7
 10
1532.315336403073
 20
103.2968561945643
 30
0
 11
1543.315336403073
 21
103.2968561945643
 31
0
  0
LINE
  8
1
 62
7
 10
1544.315336403073
 20
104.2968561945643
 30
0
 11
1544.315336403073
 21
104.9213561945642
 31
0
  0
LINE
  8
1
 62
7
 10
1543.315336403073
 20
103.2968561945643
 30
0
 11
1544.315336403073
 21
104.2968561945643
 31
0
  0
LINE
  8
1
 62
7
 10
1531.315336403073
 20
104.2968561945643
 30
0
 11
1532.315336403073
 21
103.2968561945643
 31
0
  0
LINE
  8
1
 62
2
 10
1531.315336403073
 20
104.2968561945643
 30
0
 11
1544.315336403073
 21
104.2968561945643
 31
0
  0
LINE
  8
1
 62
7
 10
1546.315336403073
 20
106.9213561945642
 30
0
 11
1551.567670109505
 21
106.9213561945642
 31
0
  0
LINE
  8
1
 62
7
 10
1598.315336403073
 20
86.0701016413184
 30
0
 11
1598.315336403073
 21
84.9213561945642
 31
0
  0
LINE
  8
1
 62
7
 10
1611.482415123128
 20
84.9213561945642
 30
0
 11
1598.315336403073
 21
84.9213561945642
 31
0
  0
LINE
  8
1
 62
7
 10
1626.815336403073
 20
84.9213561945642
 30
0
 11
1626.815336403073
 21
85.93025944138461
 31
0
  0
LINE
  8
1
 62
7
 10
1626.815336403073
 20
84.9213561945642
 30
0
 11
1611.482415123128
 21
84.9213561945642
 31
0
  0
LINE
  8
1
 62
7
 10
1629.815336403073
 20
85.93018398825031
 30
0
 11
1629.815336403073
 21
84.9213561945642
 31
0
  0
LINE
  8
1
 62
7
 10
1626.815336403073
 20
84.9213561945642
 30
0
 11
1629.815336403073
 21
84.9213561945642
 31
0
  0
LINE
  8
1
 62
7
 10
1629.815336403073
 20
84.9213561945642
 30
0
 11
1658.315336403073
 21
84.9213561945642
 31
0
  0
LINE
  8
1
 62
7
 10
1720.315336403073
 20
136.5458561945641
 30
0
 11
1709.315336403073
 21
136.5458561945641
 31
0
  0
LINE
  8
1
 62
7
 10
1721.315336403073
 20
109.9213561945642
 30
0
 11
1721.315336403073
 21
135.545856194564
 31
0
  0
LINE
  8
1
 62
7
 10
1543.315336403073
 20
136.5458561945641
 30
0
 11
1532.315336403073
 21
136.5458561945641
 31
0
  0
LINE
  8
1
 62
7
 10
1668.315336403073
 20
157.9213561945642
 30
0
 11
1667.232836403073
 21
157.9213561945642
 31
0
  0
LINE
  8
1
 62
7
 10
1532.315336403073
 20
136.5458561945641
 30
0
 11
1532.315336403073
 21
103.2968561945643
 31
0
  0
LINE
  8
1
 62
7
 10
1543.315336403073
 20
136.5458561945641
 30
0
 11
1543.315336403073
 21
103.2968561945643
 31
0
  0
LINE
  8
1
 62
7
 10
1544.315336403073
 20
135.5458561945641
 30
0
 11
1544.315336403073
 21
104.2968561945643
 31
0
  0
LINE
  8
1
 62
7
 10
1708.315336403073
 20
135.5458561945641
 30
0
 11
1708.315336403073
 21
104.2968561945643
 31
0
  0
LINE
  8
1
 62
7
 10
1709.315336403073
 20
136.5458561945641
 30
0
 11
1709.315336403073
 21
103.2968561945643
 31
0
  0
LINE
  8
1
 62
7
 10
1720.315336403073
 20
136.5458561945641
 30
0
 11
1720.315336403073
 21
103.2968561945643
 31
0
  0
LINE
  8
1
 62
7
 10
1593.291196253398
 20
155.9213561945642
 30
0
 11
1662.807945867228
 21
155.9213561945642
 31
0
  0
LINE
  8
1
 62
2
  6
DASHDOT
 10
1628.315336403073
 20
248.306989288337
 30
0
 11
1628.315336403073
 21
126.3077671429633
 31
0
  0
LINE
  8
1
 62
7
 10
1579.253523251018
 20
116.4213561945642
 30
0
 11
1574.631449065114
 21
116.4213561945642
 31
0
  0
LINE
  8
1
 62
7
 10
1574.631449065114
 20
116.4213561945642
 30
0
 11
1574.631449065114
 21
123.3510026501924
 31
0
  0
LINE
  8
1
 62
7
 10
1574.631449065114
 20
123.3510026501924
 30
0
 11
1579.173832316778
 21
123.3510026501924
 31
0
  0
LINE
  8
1
 62
7
 10
1579.173832316778
 20
123.3510026501924
 30
0
 11
1579.173832316778
 21
122.4847968432389
 31
0
  0
LINE
  8
1
 62
7
 10
1579.173832316778
 20
122.4847968432389
 30
0
 11
1575.508049341751
 21
122.4847968432389
 31
0
  0
LINE
  8
1
 62
7
 10
1575.508049341751
 20
122.4847968432389
 30
0
 11
1575.508049341751
 21
120.4059029065504
 31
0
  0
LINE
  8
1
 62
7
 10
1575.508049341751
 20
120.4059029065504
 30
0
 11
1578.855068579819
 21
120.4059029065504
 31
0
  0
LINE
  8
1
 62
7
 10
1578.855068579819
 20
120.4059029065504
 30
0
 11
1578.855068579819
 21
119.5396970995969
 31
0
  0
LINE
  8
1
 62
7
 10
1578.855068579819
 20
119.5396970995969
 30
0
 11
1575.508049341751
 21
119.5396970995969
 31
0
  0
LINE
  8
1
 62
7
 10
1575.508049341751
 20
119.5396970995969
 30
0
 11
1575.508049341751
 21
117.2875620015177
 31
0
  0
LINE
  8
1
 62
7
 10
1575.508049341751
 20
117.2875620015177
 30
0
 11
1579.253523251018
 21
117.2875620015177
 31
0
  0
LINE
  8
1
 62
7
 10
1579.253523251018
 20
117.2875620015177
 30
0
 11
1579.253523251018
 21
116.4213561945642
 31
0
  0
LINE
  8
1
 62
2
  6
DASHDOT
 10
1675.160150228302
 20
146.9213561945642
 30
0
 11
1671.523609963624
 21
146.9213561945642
 31
0
  0
LINE
  8
1
 62
2
  6
DASHDOT
 10
1673.315336403073
 20
148.7799909216804
 30
0
 11
1673.315336403073
 21
144.9867032318014
 31
0
  0
LINE
  8
1
 62
7
 10
1631.074545051147
 20
242.7220167924445
 30
0
 11
1631.074545051147
 21
242.5392042924445
 31
0
  0
LINE
  8
1
 62
7
 10
1631.155795051147
 20
242.7220167924445
 30
0
 11
1631.074545051147
 21
242.7220167924445
 31
0
  0
LINE
  8
1
 62
7
 10
1631.237045051147
 20
242.7423292924445
 30
0
 11
1631.155795051147
 21
242.7220167924445
 31
0
  0
LINE
  8
1
 62
7
 10
1631.297982551147
 20
242.7829542924444
 30
0
 11
1631.237045051147
 21
242.7423292924445
 31
0
  0
LINE
  8
1
 62
7
 10
1631.338607551147
 20
242.8438917924445
 30
0
 11
1631.297982551147
 21
242.7829542924444
 31
0
  0
LINE
  8
1
 62
7
 10
1631.358920051147
 20
242.9048292924445
 30
0
 11
1631.338607551147
 21
242.8438917924445
 31
0
  0
LINE
  8
1
 62
7
 10
1631.358920051147
 20
242.9860792924444
 30
0
 11
1631.358920051147
 21
242.9048292924445
 31
0
  0
LINE
  8
1
 62
7
 10
1631.338607551147
 20
243.0470167924445
 30
0
 11
1631.358920051147
 21
242.9860792924444
 31
0
  0
LINE
  8
1
 62
7
 10
1631.297982551147
 20
243.1079542924445
 30
0
 11
1631.338607551147
 21
243.0470167924445
 31
0
  0
LINE
  8
1
 62
7
 10
1631.237045051147
 20
243.1485792924445
 30
0
 11
1631.297982551147
 21
243.1079542924445
 31
0
  0
LINE
  8
1
 62
7
 10
1631.155795051147
 20
243.1688917924444
 30
0
 11
1631.237045051147
 21
243.1485792924445
 31
0
  0
LINE
  8
1
 62
7
 10
1631.074545051147
 20
243.1688917924444
 30
0
 11
1631.155795051147
 21
243.1688917924444
 31
0
  0
LINE
  8
1
 62
7
 10
1630.993295051147
 20
243.1485792924445
 30
0
 11
1631.074545051147
 21
243.1688917924444
 31
0
  0
LINE
  8
1
 62
7
 10
1630.932357551147
 20
243.1079542924445
 30
0
 11
1630.993295051147
 21
243.1485792924445
 31
0
  0
LINE
  8
1
 62
7
 10
1630.891732551147
 20
243.0470167924445
 30
0
 11
1630.932357551147
 21
243.1079542924445
 31
0
  0
LINE
  8
1
 62
7
 10
1630.871420051147
 20
242.9860792924444
 30
0
 11
1630.891732551147
 21
243.0470167924445
 31
0
  0
LINE
  8
1
 62
7
 10
1630.871420051147
 20
242.9048292924445
 30
0
 11
1630.871420051147
 21
242.9860792924444
 31
0
  0
LINE
  8
1
 62
7
 10
1630.647982551147
 20
242.9048292924445
 30
0
 11
1630.871420051147
 21
242.9048292924445
 31
0
  0
LINE
  8
1
 62
7
 10
1630.647982551147
 20
242.9860792924444
 30
0
 11
1630.647982551147
 21
242.9048292924445
 31
0
  0
LINE
  8
1
 62
7
 10
1630.668295051147
 20
243.0876417924444
 30
0
 11
1630.647982551147
 21
242.9860792924444
 31
0
  0
LINE
  8
1
 62
7
 10
1630.749545051147
 20
243.2095167924445
 30
0
 11
1630.668295051147
 21
243.0876417924444
 31
0
  0
LINE
  8
1
 62
7
 10
1630.830795051147
 20
243.2907667924444
 30
0
 11
1630.749545051147
 21
243.2095167924445
 31
0
  0
LINE
  8
1
 62
7
 10
1630.952670051147
 20
243.3517042924445
 30
0
 11
1630.830795051147
 21
243.2907667924444
 31
0
  0
LINE
  8
1
 62
7
 10
1631.054232551147
 20
243.3720167924444
 30
0
 11
1630.952670051147
 21
243.3517042924445
 31
0
  0
LINE
  8
1
 62
7
 10
1631.176107551147
 20
243.3720167924444
 30
0
 11
1631.054232551147
 21
243.3720167924444
 31
0
  0
LINE
  8
1
 62
7
 10
1631.277670051147
 20
243.3517042924445
 30
0
 11
1631.176107551147
 21
243.3720167924444
 31
0
  0
LINE
  8
1
 62
7
 10
1631.399545051147
 20
243.2907667924444
 30
0
 11
1631.277670051147
 21
243.3517042924445
 31
0
  0
LINE
  8
1
 62
7
 10
1631.480795051147
 20
243.2095167924445
 30
0
 11
1631.399545051147
 21
243.2907667924444
 31
0
  0
LINE
  8
1
 62
7
 10
1631.562045051147
 20
243.0876417924444
 30
0
 11
1631.480795051147
 21
243.2095167924445
 31
0
  0
LINE
  8
1
 62
7
 10
1631.582357551147
 20
242.9860792924444
 30
0
 11
1631.562045051147
 21
243.0876417924444
 31
0
  0
LINE
  8
1
 62
7
 10
1631.582357551147
 20
242.9048292924445
 30
0
 11
1631.582357551147
 21
242.9860792924444
 31
0
  0
LINE
  8
1
 62
7
 10
1631.562045051147
 20
242.8032667924445
 30
0
 11
1631.582357551147
 21
242.9048292924445
 31
0
  0
LINE
  8
1
 62
7
 10
1631.480795051147
 20
242.6813917924444
 30
0
 11
1631.562045051147
 21
242.8032667924445
 31
0
  0
LINE
  8
1
 62
7
 10
1631.440170051147
 20
242.6407667924445
 30
0
 11
1631.480795051147
 21
242.6813917924444
 31
0
  0
LINE
  8
1
 62
7
 10
1631.541732551147
 20
242.5595167924444
 30
0
 11
1631.440170051147
 21
242.6407667924445
 31
0
  0
LINE
  8
1
 62
7
 10
1631.622982551146
 20
242.4376417924445
 30
0
 11
1631.541732551147
 21
242.5595167924444
 31
0
  0
LINE
  8
1
 62
7
 10
1631.663607551147
 20
242.2954542924445
 30
0
 11
1631.622982551146
 21
242.4376417924445
 31
0
  0
LINE
  8
1
 62
7
 10
1631.663607551147
 20
242.1938917924445
 30
0
 11
1631.663607551147
 21
242.2954542924445
 31
0
  0
LINE
  8
1
 62
7
 10
1631.622982551146
 20
242.0517042924444
 30
0
 11
1631.663607551147
 21
242.1938917924445
 31
0
  0
LINE
  8
1
 62
7
 10
1631.562045051147
 20
241.9501417924444
 30
0
 11
1631.622982551146
 21
242.0517042924444
 31
0
  0
LINE
  8
1
 62
7
 10
1631.460482551147
 20
241.8485792924444
 30
0
 11
1631.562045051147
 21
241.9501417924444
 31
0
  0
LINE
  8
1
 62
7
 10
1631.338607551147
 20
241.7876417924445
 30
0
 11
1631.460482551147
 21
241.8485792924444
 31
0
  0
LINE
  8
1
 62
7
 10
1631.176107551147
 20
241.7470167924444
 30
0
 11
1631.338607551147
 21
241.7876417924445
 31
0
  0
LINE
  8
1
 62
7
 10
1631.054232551147
 20
241.7470167924444
 30
0
 11
1631.176107551147
 21
241.7470167924444
 31
0
  0
LINE
  8
1
 62
7
 10
1630.891732551147
 20
241.7876417924445
 30
0
 11
1631.054232551147
 21
241.7470167924444
 31
0
  0
LINE
  8
1
 62
7
 10
1630.769857551147
 20
241.8485792924444
 30
0
 11
1630.891732551147
 21
241.7876417924445
 31
0
  0
LINE
  8
1
 62
7
 10
1630.668295051147
 20
241.9501417924444
 30
0
 11
1630.769857551147
 21
241.8485792924444
 31
0
  0
LINE
  8
1
 62
7
 10
1630.607357551146
 20
242.0517042924444
 30
0
 11
1630.668295051147
 21
241.9501417924444
 31
0
  0
LINE
  8
1
 62
7
 10
1630.566732551147
 20
242.1938917924445
 30
0
 11
1630.607357551146
 21
242.0517042924444
 31
0
  0
LINE
  8
1
 62
7
 10
1630.566732551147
 20
242.2954542924445
 30
0
 11
1630.566732551147
 21
242.1938917924445
 31
0
  0
LINE
  8
1
 62
7
 10
1630.810482551146
 20
242.2954542924445
 30
0
 11
1630.566732551147
 21
242.2954542924445
 31
0
  0
LINE
  8
1
 62
7
 10
1630.810482551146
 20
242.2142042924445
 30
0
 11
1630.810482551146
 21
242.2954542924445
 31
0
  0
LINE
  8
1
 62
7
 10
1630.830795051147
 20
242.1329542924445
 30
0
 11
1630.810482551146
 21
242.2142042924445
 31
0
  0
LINE
  8
1
 62
7
 10
1630.891732551147
 20
242.0517042924444
 30
0
 11
1630.830795051147
 21
242.1329542924445
 31
0
  0
LINE
  8
1
 62
7
 10
1630.972982551147
 20
241.9907667924445
 30
0
 11
1630.891732551147
 21
242.0517042924444
 31
0
  0
LINE
  8
1
 62
7
 10
1631.074545051147
 20
241.9704542924444
 30
0
 11
1630.972982551147
 21
241.9907667924445
 31
0
  0
LINE
  8
1
 62
7
 10
1631.155795051147
 20
241.9704542924444
 30
0
 11
1631.074545051147
 21
241.9704542924444
 31
0
  0
LINE
  8
1
 62
7
 10
1631.257357551147
 20
241.9907667924445
 30
0
 11
1631.155795051147
 21
241.9704542924444
 31
0
  0
LINE
  8
1
 62
7
 10
1631.338607551147
 20
242.0517042924444
 30
0
 11
1631.257357551147
 21
241.9907667924445
 31
0
  0
LINE
  8
1
 62
7
 10
1631.399545051147
 20
242.1329542924445
 30
0
 11
1631.338607551147
 21
242.0517042924444
 31
0
  0
LINE
  8
1
 62
7
 10
1631.419857551146
 20
242.2142042924445
 30
0
 11
1631.399545051147
 21
242.1329542924445
 31
0
  0
LINE
  8
1
 62
7
 10
1631.419857551146
 20
242.2954542924445
 30
0
 11
1631.419857551146
 21
242.2142042924445
 31
0
  0
LINE
  8
1
 62
7
 10
1631.399545051147
 20
242.3767042924444
 30
0
 11
1631.419857551146
 21
242.2954542924445
 31
0
  0
LINE
  8
1
 62
7
 10
1631.338607551147
 20
242.4579542924444
 30
0
 11
1631.399545051147
 21
242.3767042924444
 31
0
  0
LINE
  8
1
 62
7
 10
1631.257357551147
 20
242.5188917924445
 30
0
 11
1631.338607551147
 21
242.4579542924444
 31
0
  0
LINE
  8
1
 62
7
 10
1631.155795051147
 20
242.5392042924445
 30
0
 11
1631.257357551147
 21
242.5188917924445
 31
0
  0
LINE
  8
1
 62
7
 10
1631.074545051147
 20
242.5392042924445
 30
0
 11
1631.155795051147
 21
242.5392042924445
 31
0
  0
LINE
  8
1
 62
7
 10
1655.11603386599
 20
240.8862677304557
 30
0
 11
1653.17822136599
 21
240.8862677304557
 31
0
  0
LINE
  8
1
 62
7
 10
1655.11603386599
 20
241.1675177304557
 30
0
 11
1655.11603386599
 21
240.8862677304557
 31
0
  0
LINE
  8
1
 62
7
 10
1653.58040886599
 20
241.1675177304557
 30
0
 11
1655.11603386599
 21
241.1675177304557
 31
0
  0
LINE
  8
1
 62
7
 10
1653.58040886599
 20
243.1362677304557
 30
0
 11
1653.58040886599
 21
241.1675177304557
 31
0
  0
LINE
  8
1
 62
7
 10
1653.17822136599
 20
243.1362677304557
 30
0
 11
1653.58040886599
 21
243.1362677304557
 31
0
  0
LINE
  8
1
 62
7
 10
1653.17822136599
 20
240.8862677304557
 30
0
 11
1653.17822136599
 21
243.1362677304557
 31
0
  0
LINE
  8
1
 62
7
 10
1654.274371425284
 20
236.2712607882187
 30
0
 11
1654.274371425284
 21
237.8399345552765
 31
0
  0
LINE
  8
1
 62
7
 10
1653.000977426143
 20
236.2712607882187
 30
0
 11
1654.274371425284
 21
236.2712607882187
 31
0
  0
LINE
  8
1
 62
7
 10
1654.274371425284
 20
237.8399345552765
 30
0
 11
1653.000977426143
 21
236.2712607882187
 31
0
  0
LINE
  8
1
 62
7
 10
1652.391962904815
 20
236.3173982519557
 30
0
 11
1654.274371425284
 21
238.6704089025423
 31
0
  0
LINE
  8
1
 62
7
 10
1652.391962904815
 20
235.8098861508487
 30
0
 11
1652.391962904815
 21
236.3173982519557
 31
0
  0
LINE
  8
1
 62
7
 10
1654.274371425284
 20
235.8098861508487
 30
0
 11
1652.391962904815
 21
235.8098861508487
 31
0
  0
LINE
  8
1
 62
7
 10
1654.274371425284
 20
234.9794118035827
 30
0
 11
1654.274371425284
 21
235.8098861508487
 31
0
  0
LINE
  8
1
 62
7
 10
1654.883385946613
 20
234.9794118035827
 30
0
 11
1654.274371425284
 21
234.9794118035827
 31
0
  0
LINE
  8
1
 62
7
 10
1654.883385946613
 20
235.8098861508487
 30
0
 11
1654.883385946613
 21
234.9794118035827
 31
0
  0
LINE
  8
1
 62
7
 10
1655.437035511456
 20
235.8098861508487
 30
0
 11
1654.883385946613
 21
235.8098861508487
 31
0
  0
LINE
  8
1
 62
7
 10
1655.437035511456
 20
236.2712607882187
 30
0
 11
1655.437035511456
 21
235.8098861508487
 31
0
  0
LINE
  8
1
 62
7
 10
1654.883385946613
 20
236.2712607882187
 30
0
 11
1655.437035511456
 21
236.2712607882187
 31
0
  0
LINE
  8
1
 62
7
 10
1654.883385946613
 20
238.6704089025423
 30
0
 11
1654.883385946613
 21
236.2712607882187
 31
0
  0
LINE
  8
1
 62
7
 10
1654.274371425284
 20
238.6704089025423
 30
0
 11
1654.883385946613
 21
238.6704089025423
 31
0
  0
LINE
  8
1
 62
7
 10
1645.958926394354
 20
237.1940100629585
 30
0
 11
1645.958926394354
 21
236.7787728893256
 31
0
  0
LINE
  8
1
 62
7
 10
1646.180386220291
 20
237.1940100629585
 30
0
 11
1645.958926394354
 21
237.1940100629585
 31
0
  0
LINE
  8
1
 62
7
 10
1646.401846046229
 20
237.2401475266954
 30
0
 11
1646.180386220291
 21
237.1940100629585
 31
0
  0
LINE
  8
1
 62
7
 10
1646.567940915683
 20
237.3324224541696
 30
0
 11
1646.401846046229
 21
237.2401475266954
 31
0
  0
LINE
  8
1
 62
7
 10
1646.678670828652
 20
237.4708348453804
 30
0
 11
1646.567940915683
 21
237.3324224541696
 31
0
  0
LINE
  8
1
 62
7
 10
1646.734035785135
 20
237.6092472365915
 30
0
 11
1646.678670828652
 21
237.4708348453804
 31
0
  0
LINE
  8
1
 62
7
 10
1646.734035785135
 20
237.7937970915395
 30
0
 11
1646.734035785135
 21
237.6092472365915
 31
0
  0
LINE
  8
1
 62
7
 10
1646.678670828652
 20
237.9322094827504
 30
0
 11
1646.734035785135
 21
237.7937970915395
 31
0
  0
LINE
  8
1
 62
7
 10
1646.567940915683
 20
238.0706218739615
 30
0
 11
1646.678670828652
 21
237.9322094827504
 31
0
  0
LINE
  8
1
 62
7
 10
1646.401846046229
 20
238.1628968014353
 30
0
 11
1646.567940915683
 21
238.0706218739615
 31
0
  0
LINE
  8
1
 62
7
 10
1646.180386220291
 20
238.2090342651725
 30
0
 11
1646.401846046229
 21
238.1628968014353
 31
0
  0
LINE
  8
1
 62
7
 10
1645.958926394354
 20
238.2090342651725
 30
0
 11
1646.180386220291
 21
238.2090342651725
 31
0
  0
LINE
  8
1
 62
7
 10
1645.737466568417
 20
238.1628968014353
 30
0
 11
1645.958926394354
 21
238.2090342651725
 31
0
  0
LINE
  8
1
 62
7
 10
1645.571371698964
 20
238.0706218739615
 30
0
 11
1645.737466568417
 21
238.1628968014353
 31
0
  0
LINE
  8
1
 62
7
 10
1645.460641785995
 20
237.9322094827504
 30
0
 11
1645.571371698964
 21
238.0706218739615
 31
0
  0
LINE
  8
1
 62
7
 10
1645.40527682951
 20
237.7937970915395
 30
0
 11
1645.460641785995
 21
237.9322094827504
 31
0
  0
LINE
  8
1
 62
7
 10
1645.40527682951
 20
237.6092472365915
 30
0
 11
1645.40527682951
 21
237.7937970915395
 31
0
  0
LINE
  8
1
 62
7
 10
1644.796262308182
 20
237.6092472365915
 30
0
 11
1645.40527682951
 21
237.6092472365915
 31
0
  0
LINE
  8
1
 62
7
 10
1644.796262308182
 20
237.7937970915395
 30
0
 11
1644.796262308182
 21
237.6092472365915
 31
0
  0
LINE
  8
1
 62
7
 10
1644.851627264667
 20
238.0244844102245
 30
0
 11
1644.796262308182
 21
237.7937970915395
 31
0
  0
LINE
  8
1
 62
7
 10
1645.073087090604
 20
238.3013091926465
 30
0
 11
1644.851627264667
 21
238.0244844102245
 31
0
  0
LINE
  8
1
 62
7
 10
1645.294546916542
 20
238.4858590475942
 30
0
 11
1645.073087090604
 21
238.3013091926465
 31
0
  0
LINE
  8
1
 62
7
 10
1645.626736655448
 20
238.6242714388053
 30
0
 11
1645.294546916542
 21
238.4858590475942
 31
0
  0
LINE
  8
1
 62
7
 10
1645.90356143787
 20
238.6704089025423
 30
0
 11
1645.626736655448
 21
238.6242714388053
 31
0
  0
LINE
  8
1
 62
7
 10
1646.235751176776
 20
238.6704089025423
 30
0
 11
1645.90356143787
 21
238.6704089025423
 31
0
  0
LINE
  8
1
 62
7
 10
1646.512575959197
 20
238.6242714388053
 30
0
 11
1646.235751176776
 21
238.6704089025423
 31
0
  0
LINE
  8
1
 62
7
 10
1646.844765698105
 20
238.4858590475942
 30
0
 11
1646.512575959197
 21
238.6242714388053
 31
0
  0
LINE
  8
1
 62
7
 10
1647.066225524042
 20
238.3013091926465
 30
0
 11
1646.844765698105
 21
238.4858590475942
 31
0
  0
LINE
  8
1
 62
7
 10
1647.28768534998
 20
238.0244844102245
 30
0
 11
1647.066225524042
 21
238.3013091926465
 31
0
  0
LINE
  8
1
 62
7
 10
1647.343050306464
 20
237.7937970915395
 30
0
 11
1647.28768534998
 21
238.0244844102245
 31
0
  0
LINE
  8
1
 62
7
 10
1647.343050306464
 20
237.6092472365915
 30
0
 11
1647.343050306464
 21
237.7937970915395
 31
0
  0
LINE
  8
1
 62
7
 10
1647.28768534998
 20
237.3785599179065
 30
0
 11
1647.343050306464
 21
237.6092472365915
 31
0
  0
LINE
  8
1
 62
7
 10
1647.066225524042
 20
237.1017351354846
 30
0
 11
1647.28768534998
 21
237.3785599179065
 31
0
  0
LINE
  8
1
 62
7
 10
1646.955495611072
 20
237.0094602080106
 30
0
 11
1647.066225524042
 21
237.1017351354846
 31
0
  0
LINE
  8
1
 62
7
 10
1647.232320393496
 20
236.8249103530626
 30
0
 11
1646.955495611072
 21
237.0094602080106
 31
0
  0
LINE
  8
1
 62
7
 10
1647.453780219433
 20
236.5480855706406
 30
0
 11
1647.232320393496
 21
236.8249103530626
 31
0
  0
LINE
  8
1
 62
7
 10
1647.564510132402
 20
236.2251233244816
 30
0
 11
1647.453780219433
 21
236.5480855706406
 31
0
  0
LINE
  8
1
 62
7
 10
1647.564510132402
 20
235.9944360057966
 30
0
 11
1647.564510132402
 21
236.2251233244816
 31
0
  0
LINE
  8
1
 62
7
 10
1647.453780219433
 20
235.6714737596377
 30
0
 11
1647.564510132402
 21
235.9944360057966
 31
0
  0
LINE
  8
1
 62
7
 10
1647.28768534998
 20
235.4407864409527
 30
0
 11
1647.453780219433
 21
235.6714737596377
 31
0
  0
LINE
  8
1
 62
7
 10
1647.010860567558
 20
235.2100991222677
 30
0
 11
1647.28768534998
 21
235.4407864409527
 31
0
  0
LINE
  8
1
 62
7
 10
1646.678670828652
 20
235.0716867310568
 30
0
 11
1647.010860567558
 21
235.2100991222677
 31
0
  0
LINE
  8
1
 62
7
 10
1646.235751176776
 20
234.9794118035827
 30
0
 11
1646.678670828652
 21
235.0716867310568
 31
0
  0
LINE
  8
1
 62
7
 10
1645.90356143787
 20
234.9794118035827
 30
0
 11
1646.235751176776
 21
234.9794118035827
 31
0
  0
LINE
  8
1
 62
7
 10
1645.460641785995
 20
235.0716867310568
 30
0
 11
1645.90356143787
 21
234.9794118035827
 31
0
  0
LINE
  8
1
 62
7
 10
1645.128452047089
 20
235.2100991222677
 30
0
 11
1645.460641785995
 21
235.0716867310568
 31
0
  0
LINE
  8
1
 62
7
 10
1644.851627264667
 20
235.4407864409527
 30
0
 11
1645.128452047089
 21
235.2100991222677
 31
0
  0
LINE
  8
1
 62
7
 10
1644.685532395214
 20
235.6714737596377
 30
0
 11
1644.851627264667
 21
235.4407864409527
 31
0
  0
LINE
  8
1
 62
7
 10
1644.574802482245
 20
235.9944360057966
 30
0
 11
1644.685532395214
 21
235.6714737596377
 31
0
  0
LINE
  8
1
 62
7
 10
1644.574802482245
 20
236.2251233244816
 30
0
 11
1644.574802482245
 21
235.9944360057966
 31
0
  0
LINE
  8
1
 62
7
 10
1645.239181960057
 20
236.2251233244816
 30
0
 11
1644.574802482245
 21
236.2251233244816
 31
0
  0
LINE
  8
1
 62
7
 10
1645.239181960057
 20
236.0405734695337
 30
0
 11
1645.239181960057
 21
236.2251233244816
 31
0
  0
LINE
  8
1
 62
7
 10
1645.294546916542
 20
235.8560236145857
 30
0
 11
1645.239181960057
 21
236.0405734695337
 31
0
  0
LINE
  8
1
 62
7
 10
1645.460641785995
 20
235.6714737596377
 30
0
 11
1645.294546916542
 21
235.8560236145857
 31
0
  0
LINE
  8
1
 62
7
 10
1645.682101611933
 20
235.5330613684268
 30
0
 11
1645.460641785995
 21
235.6714737596377
 31
0
  0
LINE
  8
1
 62
7
 10
1645.958926394354
 20
235.4869239046898
 30
0
 11
1645.682101611933
 21
235.5330613684268
 31
0
  0
LINE
  8
1
 62
7
 10
1646.180386220291
 20
235.4869239046898
 30
0
 11
1645.958926394354
 21
235.4869239046898
 31
0
  0
LINE
  8
1
 62
7
 10
1646.457211002714
 20
235.5330613684268
 30
0
 11
1646.180386220291
 21
235.4869239046898
 31
0
  0
LINE
  8
1
 62
7
 10
1646.678670828652
 20
235.6714737596377
 30
0
 11
1646.457211002714
 21
235.5330613684268
 31
0
  0
LINE
  8
1
 62
7
 10
1646.844765698105
 20
235.8560236145857
 30
0
 11
1646.678670828652
 21
235.6714737596377
 31
0
  0
LINE
  8
1
 62
7
 10
1646.900130654589
 20
236.0405734695337
 30
0
 11
1646.844765698105
 21
235.8560236145857
 31
0
  0
LINE
  8
1
 62
7
 10
1646.900130654589
 20
236.2251233244816
 30
0
 11
1646.900130654589
 21
236.0405734695337
 31
0
  0
LINE
  8
1
 62
7
 10
1646.844765698105
 20
236.4096731794296
 30
0
 11
1646.900130654589
 21
236.2251233244816
 31
0
  0
LINE
  8
1
 62
7
 10
1646.678670828652
 20
236.5942230343776
 30
0
 11
1646.844765698105
 21
236.4096731794296
 31
0
  0
LINE
  8
1
 62
7
 10
1646.457211002714
 20
236.7326354255885
 30
0
 11
1646.678670828652
 21
236.5942230343776
 31
0
  0
LINE
  8
1
 62
7
 10
1646.180386220291
 20
236.7787728893256
 30
0
 11
1646.457211002714
 21
236.7326354255885
 31
0
  0
LINE
  8
1
 62
7
 10
1645.958926394354
 20
236.7787728893256
 30
0
 11
1646.180386220291
 21
236.7787728893256
 31
0
  0
LINE
  8
1
 62
7
 10
1640.911827654159
 20
234.9794118035827
 30
0
 11
1637.977484960486
 21
234.9794118035827
 31
0
  0
LINE
  8
1
 62
7
 10
1640.911827654159
 20
235.4407864409527
 30
0
 11
1640.911827654159
 21
234.9794118035827
 31
0
  0
LINE
  8
1
 62
7
 10
1638.752594351267
 20
235.4407864409527
 30
0
 11
1640.911827654159
 21
235.4407864409527
 31
0
  0
LINE
  8
1
 62
7
 10
1638.863324264237
 20
235.7176112233748
 30
0
 11
1638.752594351267
 21
235.4407864409527
 31
0
  0
LINE
  8
1
 62
7
 10
1639.140149046659
 20
236.0405734695337
 30
0
 11
1638.863324264237
 21
235.7176112233748
 31
0
  0
LINE
  8
1
 62
7
 10
1639.52770374205
 20
236.4096731794296
 30
0
 11
1639.140149046659
 21
236.0405734695337
 31
0
  0
LINE
  8
1
 62
7
 10
1639.91525843744
 20
236.6864979618515
 30
0
 11
1639.52770374205
 21
236.4096731794296
 31
0
  0
LINE
  8
1
 62
7
 10
1640.358178089316
 20
237.0094602080106
 30
0
 11
1639.91525843744
 21
236.6864979618515
 31
0
  0
LINE
  8
1
 62
7
 10
1640.468908002284
 20
237.1017351354846
 30
0
 11
1640.358178089316
 21
237.0094602080106
 31
0
  0
LINE
  8
1
 62
7
 10
1640.690367828222
 20
237.3785599179065
 30
0
 11
1640.468908002284
 21
237.1017351354846
 31
0
  0
LINE
  8
1
 62
7
 10
1640.745732784707
 20
237.6092472365915
 30
0
 11
1640.690367828222
 21
237.3785599179065
 31
0
  0
LINE
  8
1
 62
7
 10
1640.745732784707
 20
237.7937970915395
 30
0
 11
1640.745732784707
 21
237.6092472365915
 31
0
  0
LINE
  8
1
 62
7
 10
1640.690367828222
 20
238.0244844102245
 30
0
 11
1640.745732784707
 21
237.7937970915395
 31
0
  0
LINE
  8
1
 62
7
 10
1640.468908002284
 20
238.3013091926465
 30
0
 11
1640.690367828222
 21
238.0244844102245
 31
0
  0
LINE
  8
1
 62
7
 10
1640.247448176347
 20
238.4858590475942
 30
0
 11
1640.468908002284
 21
238.3013091926465
 31
0
  0
LINE
  8
1
 62
7
 10
1639.91525843744
 20
238.6242714388053
 30
0
 11
1640.247448176347
 21
238.4858590475942
 31
0
  0
LINE
  8
1
 62
7
 10
1639.638433655019
 20
238.6704089025423
 30
0
 11
1639.91525843744
 21
238.6242714388053
 31
0
  0
LINE
  8
1
 62
7
 10
1639.306243916112
 20
238.6704089025423
 30
0
 11
1639.638433655019
 21
238.6704089025423
 31
0
  0
LINE
  8
1
 62
7
 10
1639.02941913369
 20
238.6242714388053
 30
0
 11
1639.306243916112
 21
238.6704089025423
 31
0
  0
LINE
  8
1
 62
7
 10
1638.697229394784
 20
238.4858590475942
 30
0
 11
1639.02941913369
 21
238.6242714388053
 31
0
  0
LINE
  8
1
 62
7
 10
1638.475769568846
 20
238.3013091926465
 30
0
 11
1638.697229394784
 21
238.4858590475942
 31
0
  0
LINE
  8
1
 62
7
 10
1638.254309742909
 20
238.0244844102245
 30
0
 11
1638.475769568846
 21
238.3013091926465
 31
0
  0
LINE
  8
1
 62
7
 10
1638.198944786424
 20
237.7937970915395
 30
0
 11
1638.254309742909
 21
238.0244844102245
 31
0
  0
LINE
  8
1
 62
7
 10
1638.198944786424
 20
237.6092472365915
 30
0
 11
1638.198944786424
 21
237.7937970915395
 31
0
  0
LINE
  8
1
 62
7
 10
1638.807959307753
 20
237.6092472365915
 30
0
 11
1638.198944786424
 21
237.6092472365915
 31
0
  0
LINE
  8
1
 62
7
 10
1638.807959307753
 20
237.7937970915395
 30
0
 11
1638.807959307753
 21
237.6092472365915
 31
0
  0
LINE
  8
1
 62
7
 10
1638.863324264237
 20
237.9322094827504
 30
0
 11
1638.807959307753
 21
237.7937970915395
 31
0
  0
LINE
  8
1
 62
7
 10
1638.974054177206
 20
238.0706218739615
 30
0
 11
1638.863324264237
 21
237.9322094827504
 31
0
  0
LINE
  8
1
 62
7
 10
1639.140149046659
 20
238.1628968014353
 30
0
 11
1638.974054177206
 21
238.0706218739615
 31
0
  0
LINE
  8
1
 62
7
 10
1639.361608872597
 20
238.2090342651725
 30
0
 11
1639.140149046659
 21
238.1628968014353
 31
0
  0
LINE
  8
1
 62
7
 10
1639.583068698534
 20
238.2090342651725
 30
0
 11
1639.361608872597
 21
238.2090342651725
 31
0
  0
LINE
  8
1
 62
7
 10
1639.804528524472
 20
238.1628968014353
 30
0
 11
1639.583068698534
 21
238.2090342651725
 31
0
  0
LINE
  8
1
 62
7
 10
1639.970623393925
 20
238.0706218739615
 30
0
 11
1639.804528524472
 21
238.1628968014353
 31
0
  0
LINE
  8
1
 62
7
 10
1640.081353306894
 20
237.9322094827504
 30
0
 11
1639.970623393925
 21
238.0706218739615
 31
0
  0
LINE
  8
1
 62
7
 10
1640.136718263378
 20
237.7937970915395
 30
0
 11
1640.081353306894
 21
237.9322094827504
 31
0
  0
LINE
  8
1
 62
7
 10
1640.136718263378
 20
237.6092472365915
 30
0
 11
1640.136718263378
 21
237.7937970915395
 31
0
  0
LINE
  8
1
 62
7
 10
1640.081353306894
 20
237.4708348453804
 30
0
 11
1640.136718263378
 21
237.6092472365915
 31
0
  0
LINE
  8
1
 62
7
 10
1639.970623393925
 20
237.3324224541696
 30
0
 11
1640.081353306894
 21
237.4708348453804
 31
0
  0
LINE
  8
1
 62
7
 10
1639.583068698534
 20
237.0094602080106
 30
0
 11
1639.970623393925
 21
237.3324224541696
 31
0
  0
LINE
  8
1
 62
7
 10
1639.250878959628
 20
236.7326354255885
 30
0
 11
1639.583068698534
 21
237.0094602080106
 31
0
  0
LINE
  8
1
 62
7
 10
1638.918689220722
 20
236.5019481069037
 30
0
 11
1639.250878959628
 21
236.7326354255885
 31
0
  0
LINE
  8
1
 62
7
 10
1638.586499481815
 20
236.1789858607446
 30
0
 11
1638.918689220722
 21
236.5019481069037
 31
0
  0
LINE
  8
1
 62
7
 10
1638.309674699392
 20
235.9021610783227
 30
0
 11
1638.586499481815
 21
236.1789858607446
 31
0
  0
LINE
  8
1
 62
7
 10
1638.088214873455
 20
235.5791988321638
 30
0
 11
1638.309674699392
 21
235.9021610783227
 31
0
  0
LINE
  8
1
 62
7
 10
1637.977484960486
 20
235.2562365860048
 30
0
 11
1638.088214873455
 21
235.5791988321638
 31
0
  0
LINE
  8
1
 62
7
 10
1637.977484960486
 20
234.9794118035827
 30
0
 11
1637.977484960486
 21
235.2562365860048
 31
0
  0
LINE
  8
1
 62
7
 10
1602.941050346307
 20
235.1178241947938
 30
0
 11
1603.107145215759
 21
235.2100991222677
 31
0
  0
LINE
  8
1
 62
7
 10
1602.664225563884
 20
235.0255492673198
 30
0
 11
1602.941050346307
 21
235.1178241947938
 31
0
  0
LINE
  8
1
 62
7
 10
1602.442765737947
 20
234.9794118035827
 30
0
 11
1602.664225563884
 21
235.0255492673198
 31
0
  0
LINE
  8
1
 62
7
 10
1602.055211042557
 20
234.9794118035827
 30
0
 11
1602.442765737947
 21
234.9794118035827
 31
0
  0
LINE
  8
1
 62
7
 10
1601.833751216619
 20
235.0255492673198
 30
0
 11
1602.055211042557
 21
234.9794118035827
 31
0
  0
LINE
  8
1
 62
7
 10
1601.556926434197
 20
235.1178241947938
 30
0
 11
1601.833751216619
 21
235.0255492673198
 31
0
  0
LINE
  8
1
 62
7
 10
1601.390831564744
 20
235.2100991222677
 30
0
 11
1601.556926434197
 21
235.1178241947938
 31
0
  0
LINE
  8
1
 62
7
 10
1601.224736695291
 20
235.3485115134788
 30
0
 11
1601.390831564744
 21
235.2100991222677
 31
0
  0
LINE
  8
1
 62
7
 10
1601.058641825838
 20
235.5330613684268
 30
0
 11
1601.224736695291
 21
235.3485115134788
 31
0
  0
LINE
  8
1
 62
7
 10
1600.947911912869
 20
235.7176112233748
 30
0
 11
1601.058641825838
 21
235.5330613684268
 31
0
  0
LINE
  8
1
 62
7
 10
1600.8371819999
 20
235.9482985420596
 30
0
 11
1600.947911912869
 21
235.7176112233748
 31
0
  0
LINE
  8
1
 62
7
 10
1600.781817043416
 20
236.2251233244816
 30
0
 11
1600.8371819999
 21
235.9482985420596
 31
0
  0
LINE
  8
1
 62
7
 10
1600.726452086932
 20
236.6403604981146
 30
0
 11
1600.781817043416
 21
236.2251233244816
 31
0
  0
LINE
  8
1
 62
7
 10
1600.726452086932
 20
237.0094602080106
 30
0
 11
1600.726452086932
 21
236.6403604981146
 31
0
  0
LINE
  8
1
 62
7
 10
1600.781817043416
 20
237.4246973816435
 30
0
 11
1600.726452086932
 21
237.0094602080106
 31
0
  0
LINE
  8
1
 62
7
 10
1600.8371819999
 20
237.7015221640653
 30
0
 11
1600.781817043416
 21
237.4246973816435
 31
0
  0
LINE
  8
1
 62
7
 10
1600.947911912869
 20
237.9322094827504
 30
0
 11
1600.8371819999
 21
237.7015221640653
 31
0
  0
LINE
  8
1
 62
7
 10
1601.058641825838
 20
238.1167593376984
 30
0
 11
1600.947911912869
 21
237.9322094827504
 31
0
  0
LINE
  8
1
 62
7
 10
1601.224736695291
 20
238.3013091926465
 30
0
 11
1601.058641825838
 21
238.1167593376984
 31
0
  0
LINE
  8
1
 62
7
 10
1601.390831564744
 20
238.4397215838573
 30
0
 11
1601.224736695291
 21
238.3013091926465
 31
0
  0
LINE
  8
1
 62
7
 10
1601.556926434197
 20
238.5319965113314
 30
0
 11
1601.390831564744
 21
238.4397215838573
 31
0
  0
LINE
  8
1
 62
7
 10
1601.833751216619
 20
238.6242714388053
 30
0
 11
1601.556926434197
 21
238.5319965113314
 31
0
  0
LINE
  8
1
 62
7
 10
1602.055211042557
 20
238.6704089025423
 30
0
 11
1601.833751216619
 21
238.6242714388053
 31
0
  0
LINE
  8
1
 62
7
 10
1602.442765737947
 20
238.6704089025423
 30
0
 11
1602.055211042557
 21
238.6704089025423
 31
0
  0
LINE
  8
1
 62
7
 10
1602.664225563884
 20
238.6242714388053
 30
0
 11
1602.442765737947
 21
238.6704089025423
 31
0
  0
LINE
  8
1
 62
7
 10
1602.941050346307
 20
238.5319965113314
 30
0
 11
1602.664225563884
 21
238.6242714388053
 31
0
  0
LINE
  8
1
 62
7
 10
1603.107145215759
 20
238.4397215838573
 30
0
 11
1602.941050346307
 21
238.5319965113314
 31
0
  0
LINE
  8
1
 62
7
 10
1603.273240085213
 20
238.3013091926465
 30
0
 11
1603.107145215759
 21
238.4397215838573
 31
0
  0
LINE
  8
1
 62
7
 10
1603.439334954667
 20
238.1167593376984
 30
0
 11
1603.273240085213
 21
238.3013091926465
 31
0
  0
LINE
  8
1
 62
7
 10
1603.550064867636
 20
237.9322094827504
 30
0
 11
1603.439334954667
 21
238.1167593376984
 31
0
  0
LINE
  8
1
 62
7
 10
1603.660794780604
 20
237.7015221640653
 30
0
 11
1603.550064867636
 21
237.9322094827504
 31
0
  0
LINE
  8
1
 62
7
 10
1603.716159737089
 20
237.4246973816435
 30
0
 11
1603.660794780604
 21
237.7015221640653
 31
0
  0
LINE
  8
1
 62
7
 10
1603.771524693573
 20
237.0094602080106
 30
0
 11
1603.716159737089
 21
237.4246973816435
 31
0
  0
LINE
  8
1
 62
7
 10
1603.771524693573
 20
236.6403604981146
 30
0
 11
1603.771524693573
 21
237.0094602080106
 31
0
  0
LINE
  8
1
 62
7
 10
1603.716159737089
 20
236.2251233244816
 30
0
 11
1603.771524693573
 21
236.6403604981146
 31
0
  0
LINE
  8
1
 62
7
 10
1603.660794780604
 20
235.9482985420596
 30
0
 11
1603.716159737089
 21
236.2251233244816
 31
0
  0
LINE
  8
1
 62
7
 10
1603.550064867636
 20
235.7176112233748
 30
0
 11
1603.660794780604
 21
235.9482985420596
 31
0
  0
LINE
  8
1
 62
7
 10
1603.439334954667
 20
235.5330613684268
 30
0
 11
1603.550064867636
 21
235.7176112233748
 31
0
  0
LINE
  8
1
 62
7
 10
1603.273240085213
 20
235.3485115134788
 30
0
 11
1603.439334954667
 21
235.5330613684268
 31
0
  0
LINE
  8
1
 62
7
 10
1603.107145215759
 20
235.2100991222677
 30
0
 11
1603.273240085213
 21
235.3485115134788
 31
0
  0
LINE
  8
1
 62
7
 10
1601.833751216619
 20
235.5330613684268
 30
0
 11
1602.055211042557
 21
235.4407864409527
 31
0
  0
LINE
  8
1
 62
7
 10
1601.612291390682
 20
235.6714737596377
 30
0
 11
1601.833751216619
 21
235.5330613684268
 31
0
  0
LINE
  8
1
 62
7
 10
1601.501561477713
 20
235.8098861508487
 30
0
 11
1601.612291390682
 21
235.6714737596377
 31
0
  0
LINE
  8
1
 62
7
 10
1601.390831564744
 20
236.0405734695337
 30
0
 11
1601.501561477713
 21
235.8098861508487
 31
0
  0
LINE
  8
1
 62
7
 10
1601.33546660826
 20
236.5480855706406
 30
0
 11
1601.390831564744
 21
236.0405734695337
 31
0
  0
LINE
  8
1
 62
7
 10
1601.33546660826
 20
237.1017351354846
 30
0
 11
1601.33546660826
 21
236.5480855706406
 31
0
  0
LINE
  8
1
 62
7
 10
1601.390831564744
 20
237.6092472365915
 30
0
 11
1601.33546660826
 21
237.1017351354846
 31
0
  0
LINE
  8
1
 62
7
 10
1601.501561477713
 20
237.8399345552765
 30
0
 11
1601.390831564744
 21
237.6092472365915
 31
0
  0
LINE
  8
1
 62
7
 10
1601.612291390682
 20
237.9783469464875
 30
0
 11
1601.501561477713
 21
237.8399345552765
 31
0
  0
LINE
  8
1
 62
7
 10
1601.833751216619
 20
238.1167593376984
 30
0
 11
1601.612291390682
 21
237.9783469464875
 31
0
  0
LINE
  8
1
 62
7
 10
1602.055211042557
 20
238.2090342651725
 30
0
 11
1601.833751216619
 21
238.1167593376984
 31
0
  0
LINE
  8
1
 62
7
 10
1602.442765737947
 20
238.2090342651725
 30
0
 11
1602.055211042557
 21
238.2090342651725
 31
0
  0
LINE
  8
1
 62
7
 10
1602.664225563884
 20
238.1167593376984
 30
0
 11
1602.442765737947
 21
238.2090342651725
 31
0
  0
LINE
  8
1
 62
7
 10
1602.885685389822
 20
237.9783469464875
 30
0
 11
1602.664225563884
 21
238.1167593376984
 31
0
  0
LINE
  8
1
 62
7
 10
1602.996415302792
 20
237.8399345552765
 30
0
 11
1602.885685389822
 21
237.9783469464875
 31
0
  0
LINE
  8
1
 62
7
 10
1603.107145215759
 20
237.6092472365915
 30
0
 11
1602.996415302792
 21
237.8399345552765
 31
0
  0
LINE
  8
1
 62
7
 10
1603.162510172245
 20
237.1017351354846
 30
0
 11
1603.107145215759
 21
237.6092472365915
 31
0
  0
LINE
  8
1
 62
7
 10
1603.162510172245
 20
236.5480855706406
 30
0
 11
1603.162510172245
 21
237.1017351354846
 31
0
  0
LINE
  8
1
 62
7
 10
1603.107145215759
 20
236.0405734695337
 30
0
 11
1603.162510172245
 21
236.5480855706406
 31
0
  0
LINE
  8
1
 62
7
 10
1602.996415302792
 20
235.8098861508487
 30
0
 11
1603.107145215759
 21
236.0405734695337
 31
0
  0
LINE
  8
1
 62
7
 10
1602.885685389822
 20
235.6714737596377
 30
0
 11
1602.996415302792
 21
235.8098861508487
 31
0
  0
LINE
  8
1
 62
7
 10
1602.664225563884
 20
235.5330613684268
 30
0
 11
1602.885685389822
 21
235.6714737596377
 31
0
  0
LINE
  8
1
 62
7
 10
1602.442765737947
 20
235.4407864409527
 30
0
 11
1602.664225563884
 21
235.5330613684268
 31
0
  0
LINE
  8
1
 62
7
 10
1602.055211042557
 20
235.4407864409527
 30
0
 11
1602.442765737947
 21
235.4407864409527
 31
0
  0
LINE
  8
1
 62
7
 10
1609.566050346308
 20
235.1178241947938
 30
0
 11
1609.732145215761
 21
235.2100991222677
 31
0
  0
LINE
  8
1
 62
7
 10
1609.289225563885
 20
235.0255492673198
 30
0
 11
1609.566050346308
 21
235.1178241947938
 31
0
  0
LINE
  8
1
 62
7
 10
1609.067765737947
 20
234.9794118035827
 30
0
 11
1609.289225563885
 21
235.0255492673198
 31
0
  0
LINE
  8
1
 62
7
 10
1608.680211042557
 20
234.9794118035827
 30
0
 11
1609.067765737947
 21
234.9794118035827
 31
0
  0
LINE
  8
1
 62
7
 10
1608.45875121662
 20
235.0255492673198
 30
0
 11
1608.680211042557
 21
234.9794118035827
 31
0
  0
LINE
  8
1
 62
7
 10
1608.181926434198
 20
235.1178241947938
 30
0
 11
1608.45875121662
 21
235.0255492673198
 31
0
  0
LINE
  8
1
 62
7
 10
1608.015831564745
 20
235.2100991222677
 30
0
 11
1608.181926434198
 21
235.1178241947938
 31
0
  0
LINE
  8
1
 62
7
 10
1607.849736695291
 20
235.3485115134788
 30
0
 11
1608.015831564745
 21
235.2100991222677
 31
0
  0
LINE
  8
1
 62
7
 10
1607.683641825838
 20
235.5330613684268
 30
0
 11
1607.849736695291
 21
235.3485115134788
 31
0
  0
LINE
  8
1
 62
7
 10
1607.57291191287
 20
235.7176112233748
 30
0
 11
1607.683641825838
 21
235.5330613684268
 31
0
  0
LINE
  8
1
 62
7
 10
1607.462181999901
 20
235.9482985420596
 30
0
 11
1607.57291191287
 21
235.7176112233748
 31
0
  0
LINE
  8
1
 62
7
 10
1607.406817043416
 20
236.2251233244816
 30
0
 11
1607.462181999901
 21
235.9482985420596
 31
0
  0
LINE
  8
1
 62
7
 10
1607.351452086932
 20
236.6403604981146
 30
0
 11
1607.406817043416
 21
236.2251233244816
 31
0
  0
LINE
  8
1
 62
7
 10
1607.351452086932
 20
237.0094602080106
 30
0
 11
1607.351452086932
 21
236.6403604981146
 31
0
  0
LINE
  8
1
 62
7
 10
1607.406817043416
 20
237.4246973816435
 30
0
 11
1607.351452086932
 21
237.0094602080106
 31
0
  0
LINE
  8
1
 62
7
 10
1607.462181999901
 20
237.7015221640653
 30
0
 11
1607.406817043416
 21
237.4246973816435
 31
0
  0
LINE
  8
1
 62
7
 10
1607.57291191287
 20
237.9322094827504
 30
0
 11
1607.462181999901
 21
237.7015221640653
 31
0
  0
LINE
  8
1
 62
7
 10
1607.683641825838
 20
238.1167593376984
 30
0
 11
1607.57291191287
 21
237.9322094827504
 31
0
  0
LINE
  8
1
 62
7
 10
1607.849736695291
 20
238.3013091926465
 30
0
 11
1607.683641825838
 21
238.1167593376984
 31
0
  0
LINE
  8
1
 62
7
 10
1608.015831564745
 20
238.4397215838573
 30
0
 11
1607.849736695291
 21
238.3013091926465
 31
0
  0
LINE
  8
1
 62
7
 10
1608.181926434198
 20
238.5319965113314
 30
0
 11
1608.015831564745
 21
238.4397215838573
 31
0
  0
LINE
  8
1
 62
7
 10
1608.45875121662
 20
238.6242714388053
 30
0
 11
1608.181926434198
 21
238.5319965113314
 31
0
  0
LINE
  8
1
 62
7
 10
1608.680211042557
 20
238.6704089025423
 30
0
 11
1608.45875121662
 21
238.6242714388053
 31
0
  0
LINE
  8
1
 62
7
 10
1609.067765737947
 20
238.6704089025423
 30
0
 11
1608.680211042557
 21
238.6704089025423
 31
0
  0
LINE
  8
1
 62
7
 10
1609.289225563885
 20
238.6242714388053
 30
0
 11
1609.067765737947
 21
238.6704089025423
 31
0
  0
LINE
  8
1
 62
7
 10
1609.566050346308
 20
238.5319965113314
 30
0
 11
1609.289225563885
 21
238.6242714388053
 31
0
  0
LINE
  8
1
 62
7
 10
1609.732145215761
 20
238.4397215838573
 30
0
 11
1609.566050346308
 21
238.5319965113314
 31
0
  0
LINE
  8
1
 62
7
 10
1609.898240085214
 20
238.3013091926465
 30
0
 11
1609.732145215761
 21
238.4397215838573
 31
0
  0
LINE
  8
1
 62
7
 10
1610.064334954667
 20
238.1167593376984
 30
0
 11
1609.898240085214
 21
238.3013091926465
 31
0
  0
LINE
  8
1
 62
7
 10
1610.175064867636
 20
237.9322094827504
 30
0
 11
1610.064334954667
 21
238.1167593376984
 31
0
  0
LINE
  8
1
 62
7
 10
1610.285794780605
 20
237.7015221640653
 30
0
 11
1610.175064867636
 21
237.9322094827504
 31
0
  0
LINE
  8
1
 62
7
 10
1610.341159737089
 20
237.4246973816435
 30
0
 11
1610.285794780605
 21
237.7015221640653
 31
0
  0
LINE
  8
1
 62
7
 10
1610.396524693574
 20
237.0094602080106
 30
0
 11
1610.341159737089
 21
237.4246973816435
 31
0
  0
LINE
  8
1
 62
7
 10
1610.396524693574
 20
236.6403604981146
 30
0
 11
1610.396524693574
 21
237.0094602080106
 31
0
  0
LINE
  8
1
 62
7
 10
1610.341159737089
 20
236.2251233244816
 30
0
 11
1610.396524693574
 21
236.6403604981146
 31
0
  0
LINE
  8
1
 62
7
 10
1610.285794780605
 20
235.9482985420596
 30
0
 11
1610.341159737089
 21
236.2251233244816
 31
0
  0
LINE
  8
1
 62
7
 10
1610.175064867636
 20
235.7176112233748
 30
0
 11
1610.285794780605
 21
235.9482985420596
 31
0
  0
LINE
  8
1
 62
7
 10
1610.064334954667
 20
235.5330613684268
 30
0
 11
1610.175064867636
 21
235.7176112233748
 31
0
  0
LINE
  8
1
 62
7
 10
1609.898240085214
 20
235.3485115134788
 30
0
 11
1610.064334954667
 21
235.5330613684268
 31
0
  0
LINE
  8
1
 62
7
 10
1609.732145215761
 20
235.2100991222677
 30
0
 11
1609.898240085214
 21
235.3485115134788
 31
0
  0
LINE
  8
1
 62
7
 10
1608.45875121662
 20
235.5330613684268
 30
0
 11
1608.680211042557
 21
235.4407864409527
 31
0
  0
LINE
  8
1
 62
7
 10
1608.237291390682
 20
235.6714737596377
 30
0
 11
1608.45875121662
 21
235.5330613684268
 31
0
  0
LINE
  8
1
 62
7
 10
1608.126561477713
 20
235.8098861508487
 30
0
 11
1608.237291390682
 21
235.6714737596377
 31
0
  0
LINE
  8
1
 62
7
 10
1608.015831564745
 20
236.0405734695337
 30
0
 11
1608.126561477713
 21
235.8098861508487
 31
0
  0
LINE
  8
1
 62
7
 10
1607.96046660826
 20
236.5480855706406
 30
0
 11
1608.015831564745
 21
236.0405734695337
 31
0
  0
LINE
  8
1
 62
7
 10
1607.96046660826
 20
237.1017351354846
 30
0
 11
1607.96046660826
 21
236.5480855706406
 31
0
  0
LINE
  8
1
 62
7
 10
1608.015831564745
 20
237.6092472365915
 30
0
 11
1607.96046660826
 21
237.1017351354846
 31
0
  0
LINE
  8
1
 62
7
 10
1608.126561477713
 20
237.8399345552765
 30
0
 11
1608.015831564745
 21
237.6092472365915
 31
0
  0
LINE
  8
1
 62
7
 10
1608.237291390682
 20
237.9783469464875
 30
0
 11
1608.126561477713
 21
237.8399345552765
 31
0
  0
LINE
  8
1
 62
7
 10
1608.45875121662
 20
238.1167593376984
 30
0
 11
1608.237291390682
 21
237.9783469464875
 31
0
  0
LINE
  8
1
 62
7
 10
1608.680211042557
 20
238.2090342651725
 30
0
 11
1608.45875121662
 21
238.1167593376984
 31
0
  0
LINE
  8
1
 62
7
 10
1609.067765737947
 20
238.2090342651725
 30
0
 11
1608.680211042557
 21
238.2090342651725
 31
0
  0
LINE
  8
1
 62
7
 10
1609.289225563885
 20
238.1167593376984
 30
0
 11
1609.067765737947
 21
238.2090342651725
 31
0
  0
LINE
  8
1
 62
7
 10
1609.510685389822
 20
237.9783469464875
 30
0
 11
1609.289225563885
 21
238.1167593376984
 31
0
  0
LINE
  8
1
 62
7
 10
1609.621415302792
 20
237.8399345552765
 30
0
 11
1609.510685389822
 21
237.9783469464875
 31
0
  0
LINE
  8
1
 62
7
 10
1609.732145215761
 20
237.6092472365915
 30
0
 11
1609.621415302792
 21
237.8399345552765
 31
0
  0
LINE
  8
1
 62
7
 10
1609.787510172245
 20
237.1017351354846
 30
0
 11
1609.732145215761
 21
237.6092472365915
 31
0
  0
LINE
  8
1
 62
7
 10
1609.787510172245
 20
236.5480855706406
 30
0
 11
1609.787510172245
 21
237.1017351354846
 31
0
  0
LINE
  8
1
 62
7
 10
1609.732145215761
 20
236.0405734695337
 30
0
 11
1609.787510172245
 21
236.5480855706406
 31
0
  0
LINE
  8
1
 62
7
 10
1609.621415302792
 20
235.8098861508487
 30
0
 11
1609.732145215761
 21
236.0405734695337
 31
0
  0
LINE
  8
1
 62
7
 10
1609.510685389822
 20
235.6714737596377
 30
0
 11
1609.621415302792
 21
235.8098861508487
 31
0
  0
LINE
  8
1
 62
7
 10
1609.289225563885
 20
235.5330613684268
 30
0
 11
1609.510685389822
 21
235.6714737596377
 31
0
  0
LINE
  8
1
 62
7
 10
1609.067765737947
 20
235.4407864409527
 30
0
 11
1609.289225563885
 21
235.5330613684268
 31
0
  0
LINE
  8
1
 62
7
 10
1608.680211042557
 20
235.4407864409527
 30
0
 11
1609.067765737947
 21
235.4407864409527
 31
0
  0
LINE
  8
1
 62
7
 10
1616.191050346308
 20
235.1178241947938
 30
0
 11
1616.357145215761
 21
235.2100991222677
 31
0
  0
LINE
  8
1
 62
7
 10
1615.914225563885
 20
235.0255492673198
 30
0
 11
1616.191050346308
 21
235.1178241947938
 31
0
  0
LINE
  8
1
 62
7
 10
1615.692765737949
 20
234.9794118035827
 30
0
 11
1615.914225563885
 21
235.0255492673198
 31
0
  0
LINE
  8
1
 62
7
 10
1615.305211042558
 20
234.9794118035827
 30
0
 11
1615.692765737949
 21
234.9794118035827
 31
0
  0
LINE
  8
1
 62
7
 10
1615.08375121662
 20
235.0255492673198
 30
0
 11
1615.305211042558
 21
234.9794118035827
 31
0
  0
LINE
  8
1
 62
7
 10
1614.806926434198
 20
235.1178241947938
 30
0
 11
1615.08375121662
 21
235.0255492673198
 31
0
  0
LINE
  8
1
 62
7
 10
1614.640831564745
 20
235.2100991222677
 30
0
 11
1614.806926434198
 21
235.1178241947938
 31
0
  0
LINE
  8
1
 62
7
 10
1614.474736695292
 20
235.3485115134788
 30
0
 11
1614.640831564745
 21
235.2100991222677
 31
0
  0
LINE
  8
1
 62
7
 10
1614.308641825839
 20
235.5330613684268
 30
0
 11
1614.474736695292
 21
235.3485115134788
 31
0
  0
LINE
  8
1
 62
7
 10
1614.19791191287
 20
235.7176112233748
 30
0
 11
1614.308641825839
 21
235.5330613684268
 31
0
  0
LINE
  8
1
 62
7
 10
1614.087181999901
 20
235.9482985420596
 30
0
 11
1614.19791191287
 21
235.7176112233748
 31
0
  0
LINE
  8
1
 62
7
 10
1614.031817043417
 20
236.2251233244816
 30
0
 11
1614.087181999901
 21
235.9482985420596
 31
0
  0
LINE
  8
1
 62
7
 10
1613.976452086932
 20
236.6403604981146
 30
0
 11
1614.031817043417
 21
236.2251233244816
 31
0
  0
LINE
  8
1
 62
7
 10
1613.976452086932
 20
237.0094602080106
 30
0
 11
1613.976452086932
 21
236.6403604981146
 31
0
  0
LINE
  8
1
 62
7
 10
1614.031817043417
 20
237.4246973816435
 30
0
 11
1613.976452086932
 21
237.0094602080106
 31
0
  0
LINE
  8
1
 62
7
 10
1614.087181999901
 20
237.7015221640653
 30
0
 11
1614.031817043417
 21
237.4246973816435
 31
0
  0
LINE
  8
1
 62
7
 10
1614.19791191287
 20
237.9322094827504
 30
0
 11
1614.087181999901
 21
237.7015221640653
 31
0
  0
LINE
  8
1
 62
7
 10
1614.308641825839
 20
238.1167593376984
 30
0
 11
1614.19791191287
 21
237.9322094827504
 31
0
  0
LINE
  8
1
 62
7
 10
1614.474736695292
 20
238.3013091926465
 30
0
 11
1614.308641825839
 21
238.1167593376984
 31
0
  0
LINE
  8
1
 62
7
 10
1614.640831564745
 20
238.4397215838573
 30
0
 11
1614.474736695292
 21
238.3013091926465
 31
0
  0
LINE
  8
1
 62
7
 10
1614.806926434198
 20
238.5319965113314
 30
0
 11
1614.640831564745
 21
238.4397215838573
 31
0
  0
LINE
  8
1
 62
7
 10
1615.08375121662
 20
238.6242714388053
 30
0
 11
1614.806926434198
 21
238.5319965113314
 31
0
  0
LINE
  8
1
 62
7
 10
1615.305211042558
 20
238.6704089025423
 30
0
 11
1615.08375121662
 21
238.6242714388053
 31
0
  0
LINE
  8
1
 62
7
 10
1615.692765737949
 20
238.6704089025423
 30
0
 11
1615.305211042558
 21
238.6704089025423
 31
0
  0
LINE
  8
1
 62
7
 10
1615.914225563885
 20
238.6242714388053
 30
0
 11
1615.692765737949
 21
238.6704089025423
 31
0
  0
LINE
  8
1
 62
7
 10
1616.191050346308
 20
238.5319965113314
 30
0
 11
1615.914225563885
 21
238.6242714388053
 31
0
  0
LINE
  8
1
 62
7
 10
1616.357145215761
 20
238.4397215838573
 30
0
 11
1616.191050346308
 21
238.5319965113314
 31
0
  0
LINE
  8
1
 62
7
 10
1616.523240085214
 20
238.3013091926465
 30
0
 11
1616.357145215761
 21
238.4397215838573
 31
0
  0
LINE
  8
1
 62
7
 10
1616.689334954668
 20
238.1167593376984
 30
0
 11
1616.523240085214
 21
238.3013091926465
 31
0
  0
LINE
  8
1
 62
7
 10
1616.800064867637
 20
237.9322094827504
 30
0
 11
1616.689334954668
 21
238.1167593376984
 31
0
  0
LINE
  8
1
 62
7
 10
1616.910794780605
 20
237.7015221640653
 30
0
 11
1616.800064867637
 21
237.9322094827504
 31
0
  0
LINE
  8
1
 62
7
 10
1616.96615973709
 20
237.4246973816435
 30
0
 11
1616.910794780605
 21
237.7015221640653
 31
0
  0
LINE
  8
1
 62
7
 10
1617.021524693574
 20
237.0094602080106
 30
0
 11
1616.96615973709
 21
237.4246973816435
 31
0
  0
LINE
  8
1
 62
7
 10
1617.021524693574
 20
236.6403604981146
 30
0
 11
1617.021524693574
 21
237.0094602080106
 31
0
  0
LINE
  8
1
 62
7
 10
1616.96615973709
 20
236.2251233244816
 30
0
 11
1617.021524693574
 21
236.6403604981146
 31
0
  0
LINE
  8
1
 62
7
 10
1616.910794780605
 20
235.9482985420596
 30
0
 11
1616.96615973709
 21
236.2251233244816
 31
0
  0
LINE
  8
1
 62
7
 10
1616.800064867637
 20
235.7176112233748
 30
0
 11
1616.910794780605
 21
235.9482985420596
 31
0
  0
LINE
  8
1
 62
7
 10
1616.689334954668
 20
235.5330613684268
 30
0
 11
1616.800064867637
 21
235.7176112233748
 31
0
  0
LINE
  8
1
 62
7
 10
1616.523240085214
 20
235.3485115134788
 30
0
 11
1616.689334954668
 21
235.5330613684268
 31
0
  0
LINE
  8
1
 62
7
 10
1616.357145215761
 20
235.2100991222677
 30
0
 11
1616.523240085214
 21
235.3485115134788
 31
0
  0
LINE
  8
1
 62
7
 10
1615.08375121662
 20
235.5330613684268
 30
0
 11
1615.305211042558
 21
235.4407864409527
 31
0
  0
LINE
  8
1
 62
7
 10
1614.862291390683
 20
235.6714737596377
 30
0
 11
1615.08375121662
 21
235.5330613684268
 31
0
  0
LINE
  8
1
 62
7
 10
1614.751561477714
 20
235.8098861508487
 30
0
 11
1614.862291390683
 21
235.6714737596377
 31
0
  0
LINE
  8
1
 62
7
 10
1614.640831564745
 20
236.0405734695337
 30
0
 11
1614.751561477714
 21
235.8098861508487
 31
0
  0
LINE
  8
1
 62
7
 10
1614.585466608261
 20
236.5480855706406
 30
0
 11
1614.640831564745
 21
236.0405734695337
 31
0
  0
LINE
  8
1
 62
7
 10
1614.585466608261
 20
237.1017351354846
 30
0
 11
1614.585466608261
 21
236.5480855706406
 31
0
  0
LINE
  8
1
 62
7
 10
1614.640831564745
 20
237.6092472365915
 30
0
 11
1614.585466608261
 21
237.1017351354846
 31
0
  0
LINE
  8
1
 62
7
 10
1614.751561477714
 20
237.8399345552765
 30
0
 11
1614.640831564745
 21
237.6092472365915
 31
0
  0
LINE
  8
1
 62
7
 10
1614.862291390683
 20
237.9783469464875
 30
0
 11
1614.751561477714
 21
237.8399345552765
 31
0
  0
LINE
  8
1
 62
7
 10
1615.08375121662
 20
238.1167593376984
 30
0
 11
1614.862291390683
 21
237.9783469464875
 31
0
  0
LINE
  8
1
 62
7
 10
1615.305211042558
 20
238.2090342651725
 30
0
 11
1615.08375121662
 21
238.1167593376984
 31
0
  0
LINE
  8
1
 62
7
 10
1615.692765737949
 20
238.2090342651725
 30
0
 11
1615.305211042558
 21
238.2090342651725
 31
0
  0
LINE
  8
1
 62
7
 10
1615.914225563885
 20
238.1167593376984
 30
0
 11
1615.692765737949
 21
238.2090342651725
 31
0
  0
LINE
  8
1
 62
7
 10
1616.135685389824
 20
237.9783469464875
 30
0
 11
1615.914225563885
 21
238.1167593376984
 31
0
  0
LINE
  8
1
 62
7
 10
1616.246415302793
 20
237.8399345552765
 30
0
 11
1616.135685389824
 21
237.9783469464875
 31
0
  0
LINE
  8
1
 62
7
 10
1616.357145215761
 20
237.6092472365915
 30
0
 11
1616.246415302793
 21
237.8399345552765
 31
0
  0
LINE
  8
1
 62
7
 10
1616.412510172246
 20
237.1017351354846
 30
0
 11
1616.357145215761
 21
237.6092472365915
 31
0
  0
LINE
  8
1
 62
7
 10
1616.412510172246
 20
236.5480855706406
 30
0
 11
1616.412510172246
 21
237.1017351354846
 31
0
  0
LINE
  8
1
 62
7
 10
1616.357145215761
 20
236.0405734695337
 30
0
 11
1616.412510172246
 21
236.5480855706406
 31
0
  0
LINE
  8
1
 62
7
 10
1616.246415302793
 20
235.8098861508487
 30
0
 11
1616.357145215761
 21
236.0405734695337
 31
0
  0
LINE
  8
1
 62
7
 10
1616.135685389824
 20
235.6714737596377
 30
0
 11
1616.246415302793
 21
235.8098861508487
 31
0
  0
LINE
  8
1
 62
7
 10
1615.914225563885
 20
235.5330613684268
 30
0
 11
1616.135685389824
 21
235.6714737596377
 31
0
  0
LINE
  8
1
 62
7
 10
1615.692765737949
 20
235.4407864409527
 30
0
 11
1615.914225563885
 21
235.5330613684268
 31
0
  0
LINE
  8
1
 62
7
 10
1615.305211042558
 20
235.4407864409527
 30
0
 11
1615.692765737949
 21
235.4407864409527
 31
0
  0
LINE
  8
1
 62
7
 10
1622.816050346309
 20
235.1178241947938
 30
0
 11
1622.982145215762
 21
235.2100991222677
 31
0
  0
LINE
  8
1
 62
7
 10
1622.539225563887
 20
235.0255492673198
 30
0
 11
1622.816050346309
 21
235.1178241947938
 31
0
  0
LINE
  8
1
 62
7
 10
1622.317765737949
 20
234.9794118035827
 30
0
 11
1622.539225563887
 21
235.0255492673198
 31
0
  0
LINE
  8
1
 62
7
 10
1621.930211042558
 20
234.9794118035827
 30
0
 11
1622.317765737949
 21
234.9794118035827
 31
0
  0
LINE
  8
1
 62
7
 10
1621.708751216621
 20
235.0255492673198
 30
0
 11
1621.930211042558
 21
234.9794118035827
 31
0
  0
LINE
  8
1
 62
7
 10
1621.431926434198
 20
235.1178241947938
 30
0
 11
1621.708751216621
 21
235.0255492673198
 31
0
  0
LINE
  8
1
 62
7
 10
1621.265831564746
 20
235.2100991222677
 30
0
 11
1621.431926434198
 21
235.1178241947938
 31
0
  0
LINE
  8
1
 62
7
 10
1621.099736695292
 20
235.3485115134788
 30
0
 11
1621.265831564746
 21
235.2100991222677
 31
0
  0
LINE
  8
1
 62
7
 10
1620.933641825839
 20
235.5330613684268
 30
0
 11
1621.099736695292
 21
235.3485115134788
 31
0
  0
LINE
  8
1
 62
7
 10
1620.82291191287
 20
235.7176112233748
 30
0
 11
1620.933641825839
 21
235.5330613684268
 31
0
  0
LINE
  8
1
 62
7
 10
1620.712181999902
 20
235.9482985420596
 30
0
 11
1620.82291191287
 21
235.7176112233748
 31
0
  0
LINE
  8
1
 62
7
 10
1620.656817043417
 20
236.2251233244816
 30
0
 11
1620.712181999902
 21
235.9482985420596
 31
0
  0
LINE
  8
1
 62
7
 10
1620.601452086933
 20
236.6403604981146
 30
0
 11
1620.656817043417
 21
236.2251233244816
 31
0
  0
LINE
  8
1
 62
7
 10
1620.601452086933
 20
237.0094602080106
 30
0
 11
1620.601452086933
 21
236.6403604981146
 31
0
  0
LINE
  8
1
 62
7
 10
1620.656817043417
 20
237.4246973816435
 30
0
 11
1620.601452086933
 21
237.0094602080106
 31
0
  0
LINE
  8
1
 62
7
 10
1620.712181999902
 20
237.7015221640653
 30
0
 11
1620.656817043417
 21
237.4246973816435
 31
0
  0
LINE
  8
1
 62
7
 10
1620.82291191287
 20
237.9322094827504
 30
0
 11
1620.712181999902
 21
237.7015221640653
 31
0
  0
LINE
  8
1
 62
7
 10
1620.933641825839
 20
238.1167593376984
 30
0
 11
1620.82291191287
 21
237.9322094827504
 31
0
  0
LINE
  8
1
 62
7
 10
1621.099736695292
 20
238.3013091926465
 30
0
 11
1620.933641825839
 21
238.1167593376984
 31
0
  0
LINE
  8
1
 62
7
 10
1621.265831564746
 20
238.4397215838573
 30
0
 11
1621.099736695292
 21
238.3013091926465
 31
0
  0
LINE
  8
1
 62
7
 10
1621.431926434198
 20
238.5319965113314
 30
0
 11
1621.265831564746
 21
238.4397215838573
 31
0
  0
LINE
  8
1
 62
7
 10
1621.708751216621
 20
238.6242714388053
 30
0
 11
1621.431926434198
 21
238.5319965113314
 31
0
  0
LINE
  8
1
 62
7
 10
1621.930211042558
 20
238.6704089025423
 30
0
 11
1621.708751216621
 21
238.6242714388053
 31
0
  0
LINE
  8
1
 62
7
 10
1622.317765737949
 20
238.6704089025423
 30
0
 11
1621.930211042558
 21
238.6704089025423
 31
0
  0
LINE
  8
1
 62
7
 10
1622.539225563887
 20
238.6242714388053
 30
0
 11
1622.317765737949
 21
238.6704089025423
 31
0
  0
LINE
  8
1
 62
7
 10
1622.816050346309
 20
238.5319965113314
 30
0
 11
1622.539225563887
 21
238.6242714388053
 31
0
  0
LINE
  8
1
 62
7
 10
1622.982145215762
 20
238.4397215838573
 30
0
 11
1622.816050346309
 21
238.5319965113314
 31
0
  0
LINE
  8
1
 62
7
 10
1623.148240085215
 20
238.3013091926465
 30
0
 11
1622.982145215762
 21
238.4397215838573
 31
0
  0
LINE
  8
1
 62
7
 10
1623.314334954668
 20
238.1167593376984
 30
0
 11
1623.148240085215
 21
238.3013091926465
 31
0
  0
LINE
  8
1
 62
7
 10
1623.425064867637
 20
237.9322094827504
 30
0
 11
1623.314334954668
 21
238.1167593376984
 31
0
  0
LINE
  8
1
 62
7
 10
1623.535794780606
 20
237.7015221640653
 30
0
 11
1623.425064867637
 21
237.9322094827504
 31
0
  0
LINE
  8
1
 62
7
 10
1623.59115973709
 20
237.4246973816435
 30
0
 11
1623.535794780606
 21
237.7015221640653
 31
0
  0
LINE
  8
1
 62
7
 10
1623.646524693574
 20
237.0094602080106
 30
0
 11
1623.59115973709
 21
237.4246973816435
 31
0
  0
LINE
  8
1
 62
7
 10
1623.646524693574
 20
236.6403604981146
 30
0
 11
1623.646524693574
 21
237.0094602080106
 31
0
  0
LINE
  8
1
 62
7
 10
1623.59115973709
 20
236.2251233244816
 30
0
 11
1623.646524693574
 21
236.6403604981146
 31
0
  0
LINE
  8
1
 62
7
 10
1623.535794780606
 20
235.9482985420596
 30
0
 11
1623.59115973709
 21
236.2251233244816
 31
0
  0
LINE
  8
1
 62
7
 10
1623.425064867637
 20
235.7176112233748
 30
0
 11
1623.535794780606
 21
235.9482985420596
 31
0
  0
LINE
  8
1
 62
7
 10
1623.314334954668
 20
235.5330613684268
 30
0
 11
1623.425064867637
 21
235.7176112233748
 31
0
  0
LINE
  8
1
 62
7
 10
1623.148240085215
 20
235.3485115134788
 30
0
 11
1623.314334954668
 21
235.5330613684268
 31
0
  0
LINE
  8
1
 62
7
 10
1622.982145215762
 20
235.2100991222677
 30
0
 11
1623.148240085215
 21
235.3485115134788
 31
0
  0
LINE
  8
1
 62
7
 10
1621.708751216621
 20
235.5330613684268
 30
0
 11
1621.930211042558
 21
235.4407864409527
 31
0
  0
LINE
  8
1
 62
7
 10
1621.487291390683
 20
235.6714737596377
 30
0
 11
1621.708751216621
 21
235.5330613684268
 31
0
  0
LINE
  8
1
 62
7
 10
1621.376561477714
 20
235.8098861508487
 30
0
 11
1621.487291390683
 21
235.6714737596377
 31
0
  0
LINE
  8
1
 62
7
 10
1621.265831564746
 20
236.0405734695337
 30
0
 11
1621.376561477714
 21
235.8098861508487
 31
0
  0
LINE
  8
1
 62
7
 10
1621.210466608261
 20
236.5480855706406
 30
0
 11
1621.265831564746
 21
236.0405734695337
 31
0
  0
LINE
  8
1
 62
7
 10
1621.210466608261
 20
237.1017351354846
 30
0
 11
1621.210466608261
 21
236.5480855706406
 31
0
  0
LINE
  8
1
 62
7
 10
1621.265831564746
 20
237.6092472365915
 30
0
 11
1621.210466608261
 21
237.1017351354846
 31
0
  0
LINE
  8
1
 62
7
 10
1621.376561477714
 20
237.8399345552765
 30
0
 11
1621.265831564746
 21
237.6092472365915
 31
0
  0
LINE
  8
1
 62
7
 10
1621.487291390683
 20
237.9783469464875
 30
0
 11
1621.376561477714
 21
237.8399345552765
 31
0
  0
LINE
  8
1
 62
7
 10
1621.708751216621
 20
238.1167593376984
 30
0
 11
1621.487291390683
 21
237.9783469464875
 31
0
  0
LINE
  8
1
 62
7
 10
1621.930211042558
 20
238.2090342651725
 30
0
 11
1621.708751216621
 21
238.1167593376984
 31
0
  0
LINE
  8
1
 62
7
 10
1622.317765737949
 20
238.2090342651725
 30
0
 11
1621.930211042558
 21
238.2090342651725
 31
0
  0
LINE
  8
1
 62
7
 10
1622.539225563887
 20
238.1167593376984
 30
0
 11
1622.317765737949
 21
238.2090342651725
 31
0
  0
LINE
  8
1
 62
7
 10
1622.760685389824
 20
237.9783469464875
 30
0
 11
1622.539225563887
 21
238.1167593376984
 31
0
  0
LINE
  8
1
 62
7
 10
1622.871415302793
 20
237.8399345552765
 30
0
 11
1622.760685389824
 21
237.9783469464875
 31
0
  0
LINE
  8
1
 62
7
 10
1622.982145215762
 20
237.6092472365915
 30
0
 11
1622.871415302793
 21
237.8399345552765
 31
0
  0
LINE
  8
1
 62
7
 10
1623.037510172246
 20
237.1017351354846
 30
0
 11
1622.982145215762
 21
237.6092472365915
 31
0
  0
LINE
  8
1
 62
7
 10
1623.037510172246
 20
236.5480855706406
 30
0
 11
1623.037510172246
 21
237.1017351354846
 31
0
  0
LINE
  8
1
 62
7
 10
1622.982145215762
 20
236.0405734695337
 30
0
 11
1623.037510172246
 21
236.5480855706406
 31
0
  0
LINE
  8
1
 62
7
 10
1622.871415302793
 20
235.8098861508487
 30
0
 11
1622.982145215762
 21
236.0405734695337
 31
0
  0
LINE
  8
1
 62
7
 10
1622.760685389824
 20
235.6714737596377
 30
0
 11
1622.871415302793
 21
235.8098861508487
 31
0
  0
LINE
  8
1
 62
7
 10
1622.539225563887
 20
235.5330613684268
 30
0
 11
1622.760685389824
 21
235.6714737596377
 31
0
  0
LINE
  8
1
 62
7
 10
1622.317765737949
 20
235.4407864409527
 30
0
 11
1622.539225563887
 21
235.5330613684268
 31
0
  0
LINE
  8
1
 62
7
 10
1621.930211042558
 20
235.4407864409527
 30
0
 11
1622.317765737949
 21
235.4407864409527
 31
0
  0
LINE
  8
1
 62
7
 10
1628.522954989889
 20
234.979411803583
 30
0
 11
1628.984329627258
 21
234.979411803583
 31
0
  0
LINE
  8
1
 62
7
 10
1628.522954989889
 20
237.6553847003287
 30
0
 11
1628.522954989889
 21
234.979411803583
 31
0
  0
LINE
  8
1
 62
7
 10
1627.646343178887
 20
237.6553847003287
 30
0
 11
1628.522954989889
 21
237.6553847003287
 31
0
  0
LINE
  8
1
 62
7
 10
1627.646343178887
 20
238.0244844102246
 30
0
 11
1627.646343178887
 21
237.6553847003287
 31
0
  0
LINE
  8
1
 62
7
 10
1627.738618106359
 20
238.0244844102246
 30
0
 11
1627.646343178887
 21
238.0244844102246
 31
0
  0
LINE
  8
1
 62
7
 10
1627.969305425045
 20
238.0706218739615
 30
0
 11
1627.738618106359
 21
238.0244844102246
 31
0
  0
LINE
  8
1
 62
7
 10
1628.107717816256
 20
238.1167593376985
 30
0
 11
1627.969305425045
 21
238.0706218739615
 31
0
  0
LINE
  8
1
 62
7
 10
1628.292267671204
 20
238.2090342651726
 30
0
 11
1628.107717816256
 21
238.1167593376985
 31
0
  0
LINE
  8
1
 62
7
 10
1628.430680062415
 20
238.3474466563835
 30
0
 11
1628.292267671204
 21
238.2090342651726
 31
0
  0
LINE
  8
1
 62
7
 10
1628.569092453626
 20
238.5319965113315
 30
0
 11
1628.430680062415
 21
238.3474466563835
 31
0
  0
LINE
  8
1
 62
7
 10
1628.615229917363
 20
238.6704089025426
 30
0
 11
1628.569092453626
 21
238.5319965113315
 31
0
  0
LINE
  8
1
 62
7
 10
1628.984329627258
 20
238.6704089025426
 30
0
 11
1628.615229917363
 21
238.6704089025426
 31
0
  0
LINE
  8
1
 62
7
 10
1628.984329627258
 20
234.979411803583
 30
0
 11
1628.984329627258
 21
238.6704089025426
 31
0
  0
LINE
  8
1
 62
7
 10
1599.019394857054
 20
240.5372209542927
 30
0
 11
1599.019394857054
 21
236.9254154164509
 31
0
  0
LINE
  8
1
 62
7
 10
1657.565336403073
 20
240.5372209542921
 30
0
 11
1657.565336403073
 21
241.8959781649279
 31
0
  0
LINE
  8
1
 62
7
 10
1657.565336403073
 20
240.1836675636987
 30
0
 11
1657.565336403073
 21
240.5372209542921
 31
0
  0
LINE
  8
1
 62
7
 10
1655.480937828771
 20
230.814502712977
 30
0
 11
1650.065336403073
 21
230.814502712977
 31
0
  0
LINE
  8
1
 62
7
 10
1657.065336403073
 20
233.8029164172517
 30
0
 11
1657.065336403073
 21
236.5749103530617
 31
0
  0
LINE
  8
1
 62
7
 10
1657.565336403073
 20
237.0749103530617
 30
0
 11
1657.065336403073
 21
237.0749103530617
 31
0
  0
LINE
  8
1
 62
7
 10
1657.565336403073
 20
240.1836675636987
 30
0
 11
1632.913398118003
 21
240.1836675636996
 31
0
  0
LINE
  8
1
 62
7
 10
1599.019394857054
 20
240.5372209542927
 30
0
 11
1657.565336403073
 21
240.5372209542921
 31
0
  0
LINE
  8
1
 62
7
 10
1650.065336403073
 20
230.814502712977
 30
0
 11
1650.065336403073
 21
233.1125997518325
 31
0
  0
LINE
  8
1
 62
7
 10
1650.065336403073
 20
233.1125997518325
 30
0
 11
1599.774805265967
 21
233.1125997518334
 31
0
  0
LINE
  8
1
 62
7
 10
1652.065336403073
 20
232.22871627535
 30
0
 11
1656.393757393147
 21
232.22871627535
 31
0
  0
LINE
  8
1
 62
7
 10
1657.065336403073
 20
239.1230073919179
 30
0
 11
1634.413398118003
 21
239.1230073919188
 31
0
  0
LINE
  8
1
 62
7
 10
1634.413398118003
 20
239.1230073919188
 30
0
 11
1634.413398118003
 21
234.5268133142066
 31
0
  0
LINE
  8
1
 62
7
 10
1634.413398118003
 20
234.5268133142066
 30
0
 11
1652.065336403073
 21
234.5268133142057
 31
0
  0
LINE
  8
1
 62
7
 10
1652.065336403073
 20
234.5268133142057
 30
0
 11
1652.065336403073
 21
232.22871627535
 31
0
  0
LINE
  8
1
 62
7
 10
1632.913398118003
 20
233.4661531424274
 30
0
 11
1650.565336403073
 21
233.4661531424265
 31
0
  0
LINE
  8
1
 62
7
 10
1650.565336403073
 20
233.4661531424265
 30
0
 11
1650.565336403073
 21
231.1680561035703
 31
0
  0
LINE
  8
1
 62
7
 10
1650.565336403073
 20
231.1680561035703
 30
0
 11
1655.741693400072
 21
231.1680561035701
 31
0
  0
LINE
  8
1
 62
7
 10
1657.065336403073
 20
237.0749103530617
 30
0
 11
1657.065336403073
 21
239.1230073919179
 31
0
  0
LINE
  8
1
 62
7
 10
1657.065336403073
 20
236.5749103530617
 30
0
 11
1657.559191825308
 21
236.5749103530617
 31
0
  0
LINE
  8
1
 62
7
 10
1657.065336403073
 20
236.5749103530617
 30
0
 11
1657.065336403073
 21
237.0749103530617
 31
0
  0
LINE
  8
1
 62
7
 10
1632.913398118003
 20
240.1836675636996
 30
0
 11
1632.913398118003
 21
233.4661531424274
 31
0
  0
LINE
  8
1
 62
7
 10
1599.565336403073
 20
234.5268133142066
 30
0
 11
1630.913398118003
 21
234.5268133142061
 31
0
  0
LINE
  8
1
 62
7
 10
1599.565336403073
 20
239.1230073919188
 30
0
 11
1599.565336403073
 21
234.5268133142066
 31
0
  0
LINE
  8
1
 62
7
 10
1630.913398118003
 20
234.5268133142061
 30
0
 11
1630.913398118003
 21
239.1230073919188
 31
0
  0
LINE
  8
1
 62
7
 10
1630.913398118003
 20
239.1230073919188
 30
0
 11
1599.565336403073
 21
239.1230073919188
 31
0
  0
LINE
  8
1
 62
7
 10
1656.839952961645
 20
236.6249103530626
 30
0
 11
1656.839952961645
 21
237.0249103530626
 31
0
  0
LINE
  8
1
 62
7
 10
1655.579948098086
 20
236.6249103530626
 30
0
 11
1656.839952961645
 21
236.6249103530626
 31
0
  0
LINE
  8
1
 62
7
 10
1655.579948098086
 20
237.0249103530626
 30
0
 11
1655.579948098086
 21
236.6249103530626
 31
0
  0
LINE
  8
1
 62
7
 10
1656.839952961645
 20
237.0249103530626
 30
0
 11
1655.579948098086
 21
237.0249103530626
 31
0
  0
LINE
  8
1
 62
7
 10
1626.705352040006
 20
243.0341815925723
 30
0
 11
1627.065352040006
 21
243.0341815925723
 31
0
  0
LINE
  8
1
 62
7
 10
1629.495352040006
 20
240.8021815925722
 30
0
 11
1629.855352040006
 21
240.8021815925722
 31
0
  0
LINE
  8
1
 62
7
 10
1628.100352040005
 20
240.8021815925722
 30
0
 11
1628.460352040006
 21
240.8021815925722
 31
0
  0
LINE
  8
1
 62
7
 10
1626.705352040006
 20
240.8021815925722
 30
0
 11
1627.065352040006
 21
240.8021815925722
 31
0
  0
LINE
  8
1
 62
7
 10
1629.855352040006
 20
240.8021815925722
 30
0
 11
1629.855352040006
 21
242.156681592572
 31
0
  0
LINE
  8
1
 62
7
 10
1629.495352040006
 20
240.8021815925722
 30
0
 11
1629.495352040006
 21
242.156681592572
 31
0
  0
LINE
  8
1
 62
7
 10
1628.460352040006
 20
240.8021815925722
 30
0
 11
1628.460352040006
 21
242.156681592572
 31
0
  0
LINE
  8
1
 62
7
 10
1628.100352040005
 20
240.8021815925722
 30
0
 11
1628.100352040005
 21
242.156681592572
 31
0
  0
LINE
  8
1
 62
7
 10
1627.065352040006
 20
242.8653423012334
 30
0
 11
1627.065352040006
 21
243.0341815925723
 31
0
  0
LINE
  8
1
 62
7
 10
1627.065352040006
 20
240.8021815925722
 30
0
 11
1627.065352040006
 21
242.156681592572
 31
0
  0
LINE
  8
1
 62
7
 10
1626.705352040006
 20
240.8021815925722
 30
0
 11
1626.705352040006
 21
243.0341815925723
 31
0
  0
LINE
  8
1
 62
7
 10
1629.495352040006
 20
240.8021815925722
 30
0
 11
1629.855352040006
 21
240.8021815925722
 31
0
  0
LINE
  8
1
 62
7
 10
1628.100352040005
 20
240.8021815925722
 30
0
 11
1628.460352040006
 21
240.8021815925722
 31
0
  0
LINE
  8
1
 62
7
 10
1626.705352040006
 20
240.8021815925722
 30
0
 11
1627.065352040006
 21
240.8021815925722
 31
0
  0
LINE
  8
1
 62
7
 10
1658.315336403073
 20
186.7213569624693
 30
0
 11
1660.815336403073
 21
186.7213569624693
 31
0
  0
LINE
  8
1
 62
7
 10
1658.315336403073
 20
186.7213569624693
 30
0
 11
1658.315336403073
 21
184.7213569624693
 31
0
  0
LINE
  8
1
 62
7
 10
1598.315336403073
 20
186.7213569624693
 30
0
 11
1658.315336403073
 21
186.7213569624693
 31
0
  0
LINE
  8
1
 62
7
 10
1598.315336403073
 20
186.7213569624693
 30
0
 11
1598.315336403073
 21
184.7213569624693
 31
0
  0
LINE
  8
1
 62
7
 10
1662.815336403073
 20
193.7213569624693
 30
0
 11
1593.815336403073
 21
193.7213569624693
 31
0
  0
LINE
  8
1
 62
7
 10
1593.815336403073
 20
193.7213569624693
 30
0
 11
1583.315336403073
 21
193.7213569624693
 31
0
  0
LINE
  8
1
 62
7
 10
1594.815336403073
 20
187.7213569624693
 30
0
 11
1594.815336403073
 21
192.7213569624693
 31
0
  0
LINE
  8
1
 62
7
 10
1661.815336403073
 20
187.7213569624693
 30
0
 11
1661.815336403073
 21
192.7213569624693
 31
0
  0
LINE
  8
1
 62
7
 10
1595.815336403073
 20
186.7213569624693
 30
0
 11
1598.315336403073
 21
186.7213569624693
 31
0
  0
LINE
  8
1
 62
7
 10
1599.019394857054
 20
241.8959781649279
 30
0
 11
1599.019394857054
 21
242.6030849461147
 31
0
  0
LINE
  8
1
 62
7
 10
1657.565336403073
 20
241.8959781649279
 30
0
 11
1657.565336403073
 21
242.6030849461147
 31
0
  0
LINE
  8
1
 62
7
 10
1599.019394857054
 20
241.8959781649279
 30
0
 11
1599.019394857054
 21
240.5372209542927
 31
0
  0
LINE
  8
1
 62
7
 10
1601.019394857054
 20
243.8959781649279
 30
0
 11
1655.565336403073
 21
243.8959781649279
 31
0
  0
LINE
  8
1
 62
7
 10
1655.565336403073
 20
244.6030849461147
 30
0
 11
1601.019394857054
 21
244.6030849461147
 31
0
  0
LINE
  8
1
 62
7
 10
1657.565336403073
 20
236.9254154164509
 30
0
 11
1657.565336403073
 21
240.1836675636987
 31
0
  0
LINE
  8
1
 62
7
 10
1609.019394857054
 20
226.9254154164509
 30
0
 11
1647.565336403073
 21
226.9254154164509
 31
0
  0
LINE
  8
1
 62
7
 10
1634.322626942302
 20
215.2213569624693
 30
0
 11
1669.815336403073
 21
215.2213569624693
 31
0
  0
LINE
  8
1
 62
7
 10
1585.315336403073
 20
202.7213569624693
 30
0
 11
1671.315336403073
 21
202.7213569624693
 31
0
  0
LINE
  8
1
 62
7
 10
1590.947374127174
 20
244.1456210311813
 30
0
 11
1586.815336403073
 21
215.2213569624693
 31
0
  0
LINE
  8
1
 62
7
 10
1669.815336403073
 20
215.2213569624693
 30
0
 11
1665.683298678971
 21
244.1456210311813
 31
0
  0
LINE
  8
1
 62
7
 10
1593.917222608158
 20
246.7213569624693
 30
0
 11
1662.713450197988
 21
246.7213569624693
 31
0
  0
LINE
  8
1
 62
7
 10
1586.815336403073
 20
215.2213569624693
 30
0
 11
1586.815336403073
 21
204.2213569624693
 31
0
  0
LINE
  8
1
 62
7
 10
1671.315336403073
 20
202.7213569624693
 30
0
 11
1671.815336403073
 21
202.7213569624693
 31
0
  0
LINE
  8
1
 62
7
 10
1669.815336403073
 20
215.2213569624693
 30
0
 11
1669.815336403073
 21
204.2213569624693
 31
0
  0
LINE
  8
1
 62
7
 10
1586.815336403073
 20
215.2213569624693
 30
0
 11
1622.308045863844
 21
215.2213569624693
 31
0
  0
LINE
  8
1
 62
7
 10
1583.315336403073
 20
193.7213569624693
 30
0
 11
1583.315336403073
 21
201.2213569624693
 31
0
  0
LINE
  8
1
 62
7
 10
1673.315336403073
 20
193.7213569624693
 30
0
 11
1662.815336403073
 21
193.7213569624693
 31
0
  0
LINE
  8
1
 62
7
 10
1673.315336403073
 20
201.2213569624693
 30
0
 11
1673.315336403073
 21
193.7213569624693
 31
0
  0
LINE
  8
1
 62
7
 10
1584.815336403073
 20
202.7213569624693
 30
0
 11
1585.315336403073
 21
202.7213569624693
 31
0
  0
LINE
  8
1
 62
2
  6
DASHDOT
 10
1660.509884302904
 20
190.1837791843931
 30
0
 11
1666.108569510755
 21
190.1837791843931
 31
0
  0
LINE
  8
1
 62
7
 10
1663.316154584891
 20
192.9352791843931
 30
0
 11
1663.316154584891
 21
187.432279184393
 31
0
  0
LINE
  8
1
 62
7
 10
1663.316154584891
 20
187.432279184393
 30
0
 11
1663.860897461534
 21
187.4799380106358
 31
0
  0
LINE
  8
1
 62
7
 10
1663.316154584891
 20
192.9352791843931
 30
0
 11
1663.860897461534
 21
192.8876203581503
 31
0
  0
LINE
  8
1
 62
2
 10
1661.815336403073
 20
188.9831246389385
 30
0
 11
1663.316154584891
 21
188.9831246389385
 31
0
  0
LINE
  8
1
 62
2
 10
1661.815336403073
 20
191.3844337298475
 30
0
 11
1663.316154584891
 21
191.3844337298475
 31
0
  0
LINE
  8
1
 62
2
 10
1664.394659955285
 20
190.1837791843931
 30
0
 11
1665.215675171635
 21
191.6058192528991
 31
0
  0
LINE
  8
1
 62
2
 10
1665.215675171635
 20
188.7617391158869
 30
0
 11
1664.394659955285
 21
190.1837791843931
 31
0
  0
LINE
  8
1
 62
7
 10
1663.316154584891
 20
188.682961002575
 30
0
 11
1661.815336403073
 21
188.682961002575
 31
0
  0
LINE
  8
1
 62
7
 10
1663.316154584891
 20
191.6845973662113
 30
0
 11
1661.815336403073
 21
191.6845973662113
 31
0
  0
LINE
  8
1
 62
7
 10
1630.379529414215
 20
309.1888072011828
 30
0
 11
1630.379529414215
 21
309.0059947011827
 31
0
  0
LINE
  8
1
 62
7
 10
1630.460779414215
 20
309.1888072011828
 30
0
 11
1630.379529414215
 21
309.1888072011828
 31
0
  0
LINE
  8
1
 62
7
 10
1630.542029414215
 20
309.2091197011827
 30
0
 11
1630.460779414215
 21
309.1888072011828
 31
0
  0
LINE
  8
1
 62
7
 10
1630.602966914214
 20
309.2497447011828
 30
0
 11
1630.542029414215
 21
309.2091197011827
 31
0
  0
LINE
  8
1
 62
7
 10
1630.643591914215
 20
309.3106822011827
 30
0
 11
1630.602966914214
 21
309.2497447011828
 31
0
  0
LINE
  8
1
 62
7
 10
1630.663904414215
 20
309.3716197011827
 30
0
 11
1630.643591914215
 21
309.3106822011827
 31
0
  0
LINE
  8
1
 62
7
 10
1630.663904414215
 20
309.4528697011828
 30
0
 11
1630.663904414215
 21
309.3716197011827
 31
0
  0
LINE
  8
1
 62
7
 10
1630.643591914215
 20
309.5138072011827
 30
0
 11
1630.663904414215
 21
309.4528697011828
 31
0
  0
LINE
  8
1
 62
7
 10
1630.602966914214
 20
309.5747447011827
 30
0
 11
1630.643591914215
 21
309.5138072011827
 31
0
  0
LINE
  8
1
 62
7
 10
1630.542029414215
 20
309.6153697011827
 30
0
 11
1630.602966914214
 21
309.5747447011827
 31
0
  0
LINE
  8
1
 62
7
 10
1630.460779414215
 20
309.6356822011828
 30
0
 11
1630.542029414215
 21
309.6153697011827
 31
0
  0
LINE
  8
1
 62
7
 10
1630.379529414215
 20
309.6356822011828
 30
0
 11
1630.460779414215
 21
309.6356822011828
 31
0
  0
LINE
  8
1
 62
7
 10
1630.298279414214
 20
309.6153697011827
 30
0
 11
1630.379529414215
 21
309.6356822011828
 31
0
  0
LINE
  8
1
 62
7
 10
1630.237341914215
 20
309.5747447011827
 30
0
 11
1630.298279414214
 21
309.6153697011827
 31
0
  0
LINE
  8
1
 62
7
 10
1630.196716914214
 20
309.5138072011827
 30
0
 11
1630.237341914215
 21
309.5747447011827
 31
0
  0
LINE
  8
1
 62
7
 10
1630.176404414215
 20
309.4528697011828
 30
0
 11
1630.196716914214
 21
309.5138072011827
 31
0
  0
LINE
  8
1
 62
7
 10
1630.176404414215
 20
309.3716197011827
 30
0
 11
1630.176404414215
 21
309.4528697011828
 31
0
  0
LINE
  8
1
 62
7
 10
1629.952966914215
 20
309.3716197011827
 30
0
 11
1630.176404414215
 21
309.3716197011827
 31
0
  0
LINE
  8
1
 62
7
 10
1629.952966914215
 20
309.4528697011828
 30
0
 11
1629.952966914215
 21
309.3716197011827
 31
0
  0
LINE
  8
1
 62
7
 10
1629.973279414215
 20
309.5544322011828
 30
0
 11
1629.952966914215
 21
309.4528697011828
 31
0
  0
LINE
  8
1
 62
7
 10
1630.054529414215
 20
309.6763072011827
 30
0
 11
1629.973279414215
 21
309.5544322011828
 31
0
  0
LINE
  8
1
 62
7
 10
1630.135779414215
 20
309.7575572011828
 30
0
 11
1630.054529414215
 21
309.6763072011827
 31
0
  0
LINE
  8
1
 62
7
 10
1630.257654414215
 20
309.8184947011827
 30
0
 11
1630.135779414215
 21
309.7575572011828
 31
0
  0
LINE
  8
1
 62
7
 10
1630.359216914215
 20
309.8388072011828
 30
0
 11
1630.257654414215
 21
309.8184947011827
 31
0
  0
LINE
  8
1
 62
7
 10
1630.481091914215
 20
309.8388072011828
 30
0
 11
1630.359216914215
 21
309.8388072011828
 31
0
  0
LINE
  8
1
 62
7
 10
1630.582654414215
 20
309.8184947011827
 30
0
 11
1630.481091914215
 21
309.8388072011828
 31
0
  0
LINE
  8
1
 62
7
 10
1630.704529414214
 20
309.7575572011828
 30
0
 11
1630.582654414215
 21
309.8184947011827
 31
0
  0
LINE
  8
1
 62
7
 10
1630.785779414215
 20
309.6763072011827
 30
0
 11
1630.704529414214
 21
309.7575572011828
 31
0
  0
LINE
  8
1
 62
7
 10
1630.867029414215
 20
309.5544322011828
 30
0
 11
1630.785779414215
 21
309.6763072011827
 31
0
  0
LINE
  8
1
 62
7
 10
1630.887341914215
 20
309.4528697011828
 30
0
 11
1630.867029414215
 21
309.5544322011828
 31
0
  0
LINE
  8
1
 62
7
 10
1630.887341914215
 20
309.3716197011827
 30
0
 11
1630.887341914215
 21
309.4528697011828
 31
0
  0
LINE
  8
1
 62
7
 10
1630.867029414215
 20
309.2700572011827
 30
0
 11
1630.887341914215
 21
309.3716197011827
 31
0
  0
LINE
  8
1
 62
7
 10
1630.785779414215
 20
309.1481822011828
 30
0
 11
1630.867029414215
 21
309.2700572011827
 31
0
  0
LINE
  8
1
 62
7
 10
1630.745154414215
 20
309.1075572011827
 30
0
 11
1630.785779414215
 21
309.1481822011828
 31
0
  0
LINE
  8
1
 62
7
 10
1630.846716914215
 20
309.0263072011828
 30
0
 11
1630.745154414215
 21
309.1075572011827
 31
0
  0
LINE
  8
1
 62
7
 10
1630.927966914214
 20
308.9044322011827
 30
0
 11
1630.846716914215
 21
309.0263072011828
 31
0
  0
LINE
  8
1
 62
7
 10
1630.968591914215
 20
308.7622447011827
 30
0
 11
1630.927966914214
 21
308.9044322011827
 31
0
  0
LINE
  8
1
 62
7
 10
1630.968591914215
 20
308.6606822011827
 30
0
 11
1630.968591914215
 21
308.7622447011827
 31
0
  0
LINE
  8
1
 62
7
 10
1630.927966914214
 20
308.5184947011828
 30
0
 11
1630.968591914215
 21
308.6606822011827
 31
0
  0
LINE
  8
1
 62
7
 10
1630.867029414215
 20
308.4169322011828
 30
0
 11
1630.927966914214
 21
308.5184947011828
 31
0
  0
LINE
  8
1
 62
7
 10
1630.765466914215
 20
308.3153697011828
 30
0
 11
1630.867029414215
 21
308.4169322011828
 31
0
  0
LINE
  8
1
 62
7
 10
1630.643591914215
 20
308.2544322011827
 30
0
 11
1630.765466914215
 21
308.3153697011828
 31
0
  0
LINE
  8
1
 62
7
 10
1630.481091914215
 20
308.2138072011828
 30
0
 11
1630.643591914215
 21
308.2544322011827
 31
0
  0
LINE
  8
1
 62
7
 10
1630.359216914215
 20
308.2138072011828
 30
0
 11
1630.481091914215
 21
308.2138072011828
 31
0
  0
LINE
  8
1
 62
7
 10
1630.196716914214
 20
308.2544322011827
 30
0
 11
1630.359216914215
 21
308.2138072011828
 31
0
  0
LINE
  8
1
 62
7
 10
1630.074841914215
 20
308.3153697011828
 30
0
 11
1630.196716914214
 21
308.2544322011827
 31
0
  0
LINE
  8
1
 62
7
 10
1629.973279414215
 20
308.4169322011828
 30
0
 11
1630.074841914215
 21
308.3153697011828
 31
0
  0
LINE
  8
1
 62
7
 10
1629.912341914214
 20
308.5184947011828
 30
0
 11
1629.973279414215
 21
308.4169322011828
 31
0
  0
LINE
  8
1
 62
7
 10
1629.871716914215
 20
308.6606822011827
 30
0
 11
1629.912341914214
 21
308.5184947011828
 31
0
  0
LINE
  8
1
 62
7
 10
1629.871716914215
 20
308.7622447011827
 30
0
 11
1629.871716914215
 21
308.6606822011827
 31
0
  0
LINE
  8
1
 62
7
 10
1630.115466914214
 20
308.7622447011827
 30
0
 11
1629.871716914215
 21
308.7622447011827
 31
0
  0
LINE
  8
1
 62
7
 10
1630.115466914214
 20
308.6809947011828
 30
0
 11
1630.115466914214
 21
308.7622447011827
 31
0
  0
LINE
  8
1
 62
7
 10
1630.135779414215
 20
308.5997447011827
 30
0
 11
1630.115466914214
 21
308.6809947011828
 31
0
  0
LINE
  8
1
 62
7
 10
1630.196716914214
 20
308.5184947011828
 30
0
 11
1630.135779414215
 21
308.5997447011827
 31
0
  0
LINE
  8
1
 62
7
 10
1630.277966914215
 20
308.4575572011827
 30
0
 11
1630.196716914214
 21
308.5184947011828
 31
0
  0
LINE
  8
1
 62
7
 10
1630.379529414215
 20
308.4372447011828
 30
0
 11
1630.277966914215
 21
308.4575572011827
 31
0
  0
LINE
  8
1
 62
7
 10
1630.460779414215
 20
308.4372447011828
 30
0
 11
1630.379529414215
 21
308.4372447011828
 31
0
  0
LINE
  8
1
 62
7
 10
1630.562341914215
 20
308.4575572011827
 30
0
 11
1630.460779414215
 21
308.4372447011828
 31
0
  0
LINE
  8
1
 62
7
 10
1630.643591914215
 20
308.5184947011828
 30
0
 11
1630.562341914215
 21
308.4575572011827
 31
0
  0
LINE
  8
1
 62
7
 10
1630.704529414214
 20
308.5997447011827
 30
0
 11
1630.643591914215
 21
308.5184947011828
 31
0
  0
LINE
  8
1
 62
7
 10
1630.724841914214
 20
308.6809947011828
 30
0
 11
1630.704529414214
 21
308.5997447011827
 31
0
  0
LINE
  8
1
 62
7
 10
1630.724841914214
 20
308.7622447011827
 30
0
 11
1630.724841914214
 21
308.6809947011828
 31
0
  0
LINE
  8
1
 62
7
 10
1630.704529414214
 20
308.8434947011828
 30
0
 11
1630.724841914214
 21
308.7622447011827
 31
0
  0
LINE
  8
1
 62
7
 10
1630.643591914215
 20
308.9247447011828
 30
0
 11
1630.704529414214
 21
308.8434947011828
 31
0
  0
LINE
  8
1
 62
7
 10
1630.562341914215
 20
308.9856822011828
 30
0
 11
1630.643591914215
 21
308.9247447011828
 31
0
  0
LINE
  8
1
 62
7
 10
1630.460779414215
 20
309.0059947011827
 30
0
 11
1630.562341914215
 21
308.9856822011828
 31
0
  0
LINE
  8
1
 62
7
 10
1630.379529414215
 20
309.0059947011827
 30
0
 11
1630.460779414215
 21
309.0059947011827
 31
0
  0
LINE
  8
1
 62
7
 10
1655.116033865991
 20
307.092949553485
 30
0
 11
1653.178221365991
 21
307.092949553485
 31
0
  0
LINE
  8
1
 62
7
 10
1655.116033865991
 20
307.374199553485
 30
0
 11
1655.116033865991
 21
307.092949553485
 31
0
  0
LINE
  8
1
 62
7
 10
1653.580408865991
 20
307.374199553485
 30
0
 11
1655.116033865991
 21
307.374199553485
 31
0
  0
LINE
  8
1
 62
7
 10
1653.580408865991
 20
309.342949553485
 30
0
 11
1653.580408865991
 21
307.374199553485
 31
0
  0
LINE
  8
1
 62
7
 10
1653.178221365991
 20
309.342949553485
 30
0
 11
1653.580408865991
 21
309.342949553485
 31
0
  0
LINE
  8
1
 62
7
 10
1653.178221365991
 20
307.092949553485
 30
0
 11
1653.178221365991
 21
309.342949553485
 31
0
  0
LINE
  8
1
 62
7
 10
1619.315336403074
 20
332.043902777322
 30
0
 11
1637.315336403074
 21
332.043902777322
 31
0
  0
LINE
  8
1
 62
7
 10
1619.315336403074
 20
332.043902777322
 30
0
 11
1619.315336403074
 21
332.543902777322
 31
0
  0
LINE
  8
1
 62
7
 10
1620.315336403074
 20
333.543902777322
 30
0
 11
1620.315336403074
 21
334.043902777322
 31
0
  0
LINE
  8
1
 62
7
 10
1636.315336403074
 20
333.543902777322
 30
0
 11
1636.315336403074
 21
334.043902777322
 31
0
  0
LINE
  8
1
 62
7
 10
1637.315336403074
 20
332.043902777322
 30
0
 11
1637.315336403074
 21
332.543902777322
 31
0
  0
LINE
  8
1
 62
7
 10
1619.315336403074
 20
332.543902777322
 30
0
 11
1620.315336403074
 21
333.543902777322
 31
0
  0
LINE
  8
1
 62
7
 10
1636.315336403074
 20
333.543902777322
 30
0
 11
1637.315336403074
 21
332.543902777322
 31
0
  0
LINE
  8
1
 62
7
 10
1589.026152140735
 20
334.043902777322
 30
0
 11
1620.315336403074
 21
334.043902777322
 31
0
  0
LINE
  8
1
 62
7
 10
1636.315336403074
 20
334.043902777322
 30
0
 11
1667.604520665413
 21
334.043902777322
 31
0
  0
LINE
  8
1
 62
7
 10
1601.019394857055
 20
310.4685239797806
 30
0
 11
1655.565336403074
 21
310.4685239797806
 31
0
  0
LINE
  8
1
 62
7
 10
1664.332832356383
 20
313.543902777322
 30
0
 11
1592.297840449764
 21
313.543902777322
 31
0
  0
LINE
  8
1
 62
7
 10
1607.519394857055
 20
293.4979612313035
 30
0
 11
1649.065336403074
 21
293.4979612313035
 31
0
  0
LINE
  8
1
 62
7
 10
1657.565336403074
 20
302.3515146218969
 30
0
 11
1657.565336403074
 21
308.4685239797806
 31
0
  0
LINE
  8
1
 62
7
 10
1657.565336403074
 20
301.9979612313035
 30
0
 11
1657.565336403074
 21
302.3515146218969
 31
0
  0
LINE
  8
1
 62
7
 10
1607.519394857055
 20
293.8515146218969
 30
0
 11
1649.065336403074
 21
293.8515146218969
 31
0
  0
LINE
  8
1
 62
7
 10
1599.019394857055
 20
302.3515146218969
 30
0
 11
1599.019394857055
 21
308.4685239797806
 31
0
  0
LINE
  8
1
 62
7
 10
1599.019394857055
 20
301.9979612313035
 30
0
 11
1599.019394857055
 21
302.3515146218969
 31
0
  0
LINE
  8
1
 62
7
 10
1626.010336403074
 20
307.2689720013108
 30
0
 11
1626.370336403074
 21
307.2689720013108
 31
0
  0
LINE
  8
1
 62
7
 10
1627.405336403073
 20
307.2689720013108
 30
0
 11
1627.765336403074
 21
307.2689720013108
 31
0
  0
LINE
  8
1
 62
7
 10
1628.800336403074
 20
307.2689720013108
 30
0
 11
1629.160336403073
 21
307.2689720013108
 31
0
  0
LINE
  8
1
 62
7
 10
1626.010336403074
 20
307.2689720013108
 30
0
 11
1626.010336403074
 21
309.5009720013108
 31
0
  0
LINE
  8
1
 62
7
 10
1626.370336403074
 20
307.2689720013108
 30
0
 11
1626.370336403074
 21
308.6234720013107
 31
0
  0
LINE
  8
1
 62
7
 10
1626.370336403074
 20
309.3321327099718
 30
0
 11
1626.370336403074
 21
309.5009720013108
 31
0
  0
LINE
  8
1
 62
7
 10
1627.405336403073
 20
307.2689720013108
 30
0
 11
1627.405336403073
 21
308.6234720013107
 31
0
  0
LINE
  8
1
 62
7
 10
1627.765336403074
 20
307.2689720013108
 30
0
 11
1627.765336403074
 21
308.6234720013107
 31
0
  0
LINE
  8
1
 62
7
 10
1628.800336403074
 20
307.2689720013108
 30
0
 11
1628.800336403074
 21
308.6234720013107
 31
0
  0
LINE
  8
1
 62
7
 10
1629.160336403073
 20
307.2689720013108
 30
0
 11
1629.160336403073
 21
308.6234720013107
 31
0
  0
LINE
  8
1
 62
7
 10
1626.010336403074
 20
307.2689720013108
 30
0
 11
1626.370336403074
 21
307.2689720013108
 31
0
  0
LINE
  8
1
 62
7
 10
1627.405336403073
 20
307.2689720013108
 30
0
 11
1627.765336403074
 21
307.2689720013108
 31
0
  0
LINE
  8
1
 62
7
 10
1628.800336403074
 20
307.2689720013108
 30
0
 11
1629.160336403073
 21
307.2689720013108
 31
0
  0
LINE
  8
1
 62
7
 10
1626.010336403074
 20
309.5009720013108
 30
0
 11
1626.370336403074
 21
309.5009720013108
 31
0
  0
LINE
  8
1
 62
7
 10
1657.565336403074
 20
303.1320972394805
 30
0
 11
1657.565336403074
 21
306.390349386728
 31
0
  0
LINE
  8
1
 62
7
 10
1656.839952961646
 20
303.231592176092
 30
0
 11
1655.579948098087
 21
303.231592176092
 31
0
  0
LINE
  8
1
 62
7
 10
1655.579948098087
 20
303.231592176092
 30
0
 11
1655.579948098087
 21
302.8315921760919
 31
0
  0
LINE
  8
1
 62
7
 10
1655.579948098087
 20
302.8315921760919
 30
0
 11
1656.839952961646
 21
302.8315921760919
 31
0
  0
LINE
  8
1
 62
7
 10
1656.839952961646
 20
302.8315921760919
 30
0
 11
1656.839952961646
 21
303.231592176092
 31
0
  0
LINE
  8
1
 62
7
 10
1630.913398118004
 20
305.3296892149483
 30
0
 11
1599.565336403074
 21
305.3296892149483
 31
0
  0
LINE
  8
1
 62
7
 10
1630.913398118004
 20
300.7334951372358
 30
0
 11
1630.913398118004
 21
305.3296892149483
 31
0
  0
LINE
  8
1
 62
7
 10
1599.565336403074
 20
305.3296892149483
 30
0
 11
1599.565336403074
 21
300.7334951372361
 31
0
  0
LINE
  8
1
 62
7
 10
1599.565336403074
 20
300.7334951372361
 30
0
 11
1630.913398118004
 21
300.7334951372358
 31
0
  0
LINE
  8
1
 62
7
 10
1632.913398118004
 20
306.3903493867289
 30
0
 11
1632.913398118004
 21
299.6728349654567
 31
0
  0
LINE
  8
1
 62
7
 10
1657.065336403074
 20
302.7815921760911
 30
0
 11
1657.065336403074
 21
303.2815921760911
 31
0
  0
LINE
  8
1
 62
7
 10
1657.065336403074
 20
302.7815921760911
 30
0
 11
1657.559191825309
 21
302.7815921760911
 31
0
  0
LINE
  8
1
 62
7
 10
1657.065336403074
 20
303.2815921760911
 30
0
 11
1657.065336403074
 21
305.3296892149473
 31
0
  0
LINE
  8
1
 62
7
 10
1650.565336403074
 20
297.3747379265998
 30
0
 11
1655.741693400073
 21
297.3747379265996
 31
0
  0
LINE
  8
1
 62
7
 10
1650.565336403074
 20
299.6728349654558
 30
0
 11
1650.565336403074
 21
297.3747379265998
 31
0
  0
LINE
  8
1
 62
7
 10
1632.913398118004
 20
299.6728349654567
 30
0
 11
1650.565336403074
 21
299.6728349654558
 31
0
  0
LINE
  8
1
 62
7
 10
1652.065336403074
 20
300.7334951372351
 30
0
 11
1652.065336403074
 21
298.4353980983793
 31
0
  0
LINE
  8
1
 62
7
 10
1634.413398118004
 20
300.7334951372361
 30
0
 11
1652.065336403074
 21
300.7334951372351
 31
0
  0
LINE
  8
1
 62
7
 10
1634.413398118004
 20
305.3296892149483
 30
0
 11
1634.413398118004
 21
300.7334951372361
 31
0
  0
LINE
  8
1
 62
7
 10
1657.065336403074
 20
305.3296892149473
 30
0
 11
1634.413398118004
 21
305.3296892149483
 31
0
  0
LINE
  8
1
 62
7
 10
1652.065336403074
 20
298.4353980983793
 30
0
 11
1656.393757393148
 21
298.4353980983793
 31
0
  0
LINE
  8
1
 62
7
 10
1650.065336403074
 20
299.319281574862
 30
0
 11
1599.774805265968
 21
299.3192815748628
 31
0
  0
LINE
  8
1
 62
7
 10
1650.065336403074
 20
297.0211845360062
 30
0
 11
1650.065336403074
 21
299.319281574862
 31
0
  0
LINE
  8
1
 62
7
 10
1599.019394857055
 20
306.7439027773223
 30
0
 11
1657.565336403074
 21
306.7439027773214
 31
0
  0
LINE
  8
1
 62
7
 10
1657.565336403074
 20
306.390349386728
 30
0
 11
1632.913398118004
 21
306.3903493867289
 31
0
  0
LINE
  8
1
 62
7
 10
1657.565336403074
 20
303.2815921760911
 30
0
 11
1657.065336403074
 21
303.2815921760911
 31
0
  0
LINE
  8
1
 62
7
 10
1657.065336403074
 20
300.0095982402812
 30
0
 11
1657.065336403074
 21
302.7815921760911
 31
0
  0
LINE
  8
1
 62
7
 10
1655.480937828772
 20
297.0211845360062
 30
0
 11
1650.065336403074
 21
297.0211845360062
 31
0
  0
LINE
  8
1
 62
7
 10
1657.565336403074
 20
306.390349386728
 30
0
 11
1657.565336403074
 21
306.7439027773214
 31
0
  0
LINE
  8
1
 62
7
 10
1599.019394857055
 20
306.7439027773223
 30
0
 11
1599.019394857055
 21
303.1320972394805
 31
0
  0
LINE
  8
1
 62
7
 10
1628.984329627259
 20
301.1860936266124
 30
0
 11
1628.984329627259
 21
304.877090725572
 31
0
  0
LINE
  8
1
 62
7
 10
1628.984329627259
 20
304.877090725572
 30
0
 11
1628.615229917364
 21
304.877090725572
 31
0
  0
LINE
  8
1
 62
7
 10
1628.615229917364
 20
304.877090725572
 30
0
 11
1628.569092453627
 21
304.7386783343611
 31
0
  0
LINE
  8
1
 62
7
 10
1628.569092453627
 20
304.7386783343611
 30
0
 11
1628.430680062415
 21
304.554128479413
 31
0
  0
LINE
  8
1
 62
7
 10
1628.430680062415
 20
304.554128479413
 30
0
 11
1628.292267671205
 21
304.415716088202
 31
0
  0
LINE
  8
1
 62
7
 10
1628.292267671205
 20
304.415716088202
 30
0
 11
1628.107717816257
 21
304.3234411607281
 31
0
  0
LINE
  8
1
 62
7
 10
1628.107717816257
 20
304.3234411607281
 30
0
 11
1627.969305425046
 21
304.2773036969911
 31
0
  0
LINE
  8
1
 62
7
 10
1627.969305425046
 20
304.2773036969911
 30
0
 11
1627.73861810636
 21
304.2311662332542
 31
0
  0
LINE
  8
1
 62
7
 10
1627.73861810636
 20
304.2311662332542
 30
0
 11
1627.646343178888
 21
304.2311662332542
 31
0
  0
LINE
  8
1
 62
7
 10
1627.646343178888
 20
304.2311662332542
 30
0
 11
1627.646343178888
 21
303.8620665233581
 31
0
  0
LINE
  8
1
 62
7
 10
1627.646343178888
 20
303.8620665233581
 30
0
 11
1628.52295498989
 21
303.8620665233581
 31
0
  0
LINE
  8
1
 62
7
 10
1628.52295498989
 20
303.8620665233581
 30
0
 11
1628.52295498989
 21
301.1860936266124
 31
0
  0
LINE
  8
1
 62
7
 10
1628.52295498989
 20
301.1860936266124
 30
0
 11
1628.984329627259
 21
301.1860936266124
 31
0
  0
LINE
  8
1
 62
7
 10
1621.930211042559
 20
301.6474682639822
 30
0
 11
1622.31776573795
 21
301.6474682639822
 31
0
  0
LINE
  8
1
 62
7
 10
1622.31776573795
 20
301.6474682639822
 30
0
 11
1622.539225563888
 21
301.7397431914561
 31
0
  0
LINE
  8
1
 62
7
 10
1622.539225563888
 20
301.7397431914561
 30
0
 11
1622.760685389825
 21
301.8781555826672
 31
0
  0
LINE
  8
1
 62
7
 10
1622.760685389825
 20
301.8781555826672
 30
0
 11
1622.871415302794
 21
302.0165679738781
 31
0
  0
LINE
  8
1
 62
7
 10
1622.871415302794
 20
302.0165679738781
 30
0
 11
1622.982145215763
 21
302.2472552925631
 31
0
  0
LINE
  8
1
 62
7
 10
1622.982145215763
 20
302.2472552925631
 30
0
 11
1623.037510172247
 21
302.75476739367
 31
0
  0
LINE
  8
1
 62
7
 10
1623.037510172247
 20
302.75476739367
 30
0
 11
1623.037510172247
 21
303.3084169585139
 31
0
  0
LINE
  8
1
 62
7
 10
1623.037510172247
 20
303.3084169585139
 30
0
 11
1622.982145215763
 21
303.8159290596208
 31
0
  0
LINE
  8
1
 62
7
 10
1622.982145215763
 20
303.8159290596208
 30
0
 11
1622.871415302794
 21
304.0466163783059
 31
0
  0
LINE
  8
1
 62
7
 10
1622.871415302794
 20
304.0466163783059
 30
0
 11
1622.760685389825
 21
304.1850287695169
 31
0
  0
LINE
  8
1
 62
7
 10
1622.760685389825
 20
304.1850287695169
 30
0
 11
1622.539225563888
 21
304.3234411607279
 31
0
  0
LINE
  8
1
 62
7
 10
1622.539225563888
 20
304.3234411607279
 30
0
 11
1622.31776573795
 21
304.415716088202
 31
0
  0
LINE
  8
1
 62
7
 10
1622.31776573795
 20
304.415716088202
 30
0
 11
1621.930211042559
 21
304.415716088202
 31
0
  0
LINE
  8
1
 62
7
 10
1621.930211042559
 20
304.415716088202
 30
0
 11
1621.708751216622
 21
304.3234411607279
 31
0
  0
LINE
  8
1
 62
7
 10
1621.708751216622
 20
304.3234411607279
 30
0
 11
1621.487291390684
 21
304.1850287695169
 31
0
  0
LINE
  8
1
 62
7
 10
1621.487291390684
 20
304.1850287695169
 30
0
 11
1621.376561477715
 21
304.0466163783059
 31
0
  0
LINE
  8
1
 62
7
 10
1621.376561477715
 20
304.0466163783059
 30
0
 11
1621.265831564747
 21
303.8159290596208
 31
0
  0
LINE
  8
1
 62
7
 10
1621.265831564747
 20
303.8159290596208
 30
0
 11
1621.210466608261
 21
303.3084169585139
 31
0
  0
LINE
  8
1
 62
7
 10
1621.210466608261
 20
303.3084169585139
 30
0
 11
1621.210466608261
 21
302.75476739367
 31
0
  0
LINE
  8
1
 62
7
 10
1621.210466608261
 20
302.75476739367
 30
0
 11
1621.265831564747
 21
302.2472552925631
 31
0
  0
LINE
  8
1
 62
7
 10
1621.265831564747
 20
302.2472552925631
 30
0
 11
1621.376561477715
 21
302.0165679738781
 31
0
  0
LINE
  8
1
 62
7
 10
1621.376561477715
 20
302.0165679738781
 30
0
 11
1621.487291390684
 21
301.8781555826672
 31
0
  0
LINE
  8
1
 62
7
 10
1621.487291390684
 20
301.8781555826672
 30
0
 11
1621.708751216622
 21
301.7397431914561
 31
0
  0
LINE
  8
1
 62
7
 10
1621.708751216622
 20
301.7397431914561
 30
0
 11
1621.930211042559
 21
301.6474682639822
 31
0
  0
LINE
  8
1
 62
7
 10
1622.982145215763
 20
301.4167809452972
 30
0
 11
1623.148240085216
 21
301.5551933365081
 31
0
  0
LINE
  8
1
 62
7
 10
1623.148240085216
 20
301.5551933365081
 30
0
 11
1623.314334954669
 21
301.7397431914561
 31
0
  0
LINE
  8
1
 62
7
 10
1623.314334954669
 20
301.7397431914561
 30
0
 11
1623.425064867638
 21
301.9242930464042
 31
0
  0
LINE
  8
1
 62
7
 10
1623.425064867638
 20
301.9242930464042
 30
0
 11
1623.535794780607
 21
302.1549803650891
 31
0
  0
LINE
  8
1
 62
7
 10
1623.535794780607
 20
302.1549803650891
 30
0
 11
1623.591159737091
 21
302.4318051475111
 31
0
  0
LINE
  8
1
 62
7
 10
1623.591159737091
 20
302.4318051475111
 30
0
 11
1623.646524693575
 21
302.8470423211442
 31
0
  0
LINE
  8
1
 62
7
 10
1623.646524693575
 20
302.8470423211442
 30
0
 11
1623.646524693575
 21
303.21614203104
 31
0
  0
LINE
  8
1
 62
7
 10
1623.646524693575
 20
303.21614203104
 30
0
 11
1623.591159737091
 21
303.631379204673
 31
0
  0
LINE
  8
1
 62
7
 10
1623.591159737091
 20
303.631379204673
 30
0
 11
1623.535794780607
 21
303.9082039870949
 31
0
  0
LINE
  8
1
 62
7
 10
1623.535794780607
 20
303.9082039870949
 30
0
 11
1623.425064867638
 21
304.1388913057799
 31
0
  0
LINE
  8
1
 62
7
 10
1623.425064867638
 20
304.1388913057799
 30
0
 11
1623.314334954669
 21
304.3234411607279
 31
0
  0
LINE
  8
1
 62
7
 10
1623.314334954669
 20
304.3234411607279
 30
0
 11
1623.148240085216
 21
304.5079910156758
 31
0
  0
LINE
  8
1
 62
7
 10
1623.148240085216
 20
304.5079910156758
 30
0
 11
1622.982145215763
 21
304.6464034068869
 31
0
  0
LINE
  8
1
 62
7
 10
1622.982145215763
 20
304.6464034068869
 30
0
 11
1622.81605034631
 21
304.7386783343608
 31
0
  0
LINE
  8
1
 62
7
 10
1622.81605034631
 20
304.7386783343608
 30
0
 11
1622.539225563888
 21
304.8309532618347
 31
0
  0
LINE
  8
1
 62
7
 10
1622.539225563888
 20
304.8309532618347
 30
0
 11
1622.31776573795
 21
304.8770907255718
 31
0
  0
LINE
  8
1
 62
7
 10
1622.31776573795
 20
304.8770907255718
 30
0
 11
1621.930211042559
 21
304.8770907255718
 31
0
  0
LINE
  8
1
 62
7
 10
1621.930211042559
 20
304.8770907255718
 30
0
 11
1621.708751216622
 21
304.8309532618347
 31
0
  0
LINE
  8
1
 62
7
 10
1621.708751216622
 20
304.8309532618347
 30
0
 11
1621.431926434199
 21
304.7386783343608
 31
0
  0
LINE
  8
1
 62
7
 10
1621.431926434199
 20
304.7386783343608
 30
0
 11
1621.265831564747
 21
304.6464034068869
 31
0
  0
LINE
  8
1
 62
7
 10
1621.265831564747
 20
304.6464034068869
 30
0
 11
1621.099736695292
 21
304.5079910156758
 31
0
  0
LINE
  8
1
 62
7
 10
1621.099736695292
 20
304.5079910156758
 30
0
 11
1620.93364182584
 21
304.3234411607279
 31
0
  0
LINE
  8
1
 62
7
 10
1620.93364182584
 20
304.3234411607279
 30
0
 11
1620.822911912871
 21
304.1388913057799
 31
0
  0
LINE
  8
1
 62
7
 10
1620.822911912871
 20
304.1388913057799
 30
0
 11
1620.712181999903
 21
303.9082039870949
 31
0
  0
LINE
  8
1
 62
7
 10
1620.712181999903
 20
303.9082039870949
 30
0
 11
1620.656817043418
 21
303.631379204673
 31
0
  0
LINE
  8
1
 62
7
 10
1620.656817043418
 20
303.631379204673
 30
0
 11
1620.601452086934
 21
303.21614203104
 31
0
  0
LINE
  8
1
 62
7
 10
1620.601452086934
 20
303.21614203104
 30
0
 11
1620.601452086934
 21
302.8470423211442
 31
0
  0
LINE
  8
1
 62
7
 10
1620.601452086934
 20
302.8470423211442
 30
0
 11
1620.656817043418
 21
302.4318051475111
 31
0
  0
LINE
  8
1
 62
7
 10
1620.656817043418
 20
302.4318051475111
 30
0
 11
1620.712181999903
 21
302.1549803650891
 31
0
  0
LINE
  8
1
 62
7
 10
1620.712181999903
 20
302.1549803650891
 30
0
 11
1620.822911912871
 21
301.9242930464042
 31
0
  0
LINE
  8
1
 62
7
 10
1620.822911912871
 20
301.9242930464042
 30
0
 11
1620.93364182584
 21
301.7397431914561
 31
0
  0
LINE
  8
1
 62
7
 10
1620.93364182584
 20
301.7397431914561
 30
0
 11
1621.099736695292
 21
301.5551933365081
 31
0
  0
LINE
  8
1
 62
7
 10
1621.099736695292
 20
301.5551933365081
 30
0
 11
1621.265831564747
 21
301.4167809452972
 31
0
  0
LINE
  8
1
 62
7
 10
1621.265831564747
 20
301.4167809452972
 30
0
 11
1621.431926434199
 21
301.3245060178232
 31
0
  0
LINE
  8
1
 62
7
 10
1621.431926434199
 20
301.3245060178232
 30
0
 11
1621.708751216622
 21
301.2322310903493
 31
0
  0
LINE
  8
1
 62
7
 10
1621.708751216622
 20
301.2322310903493
 30
0
 11
1621.930211042559
 21
301.1860936266122
 31
0
  0
LINE
  8
1
 62
7
 10
1621.930211042559
 20
301.1860936266122
 30
0
 11
1622.31776573795
 21
301.1860936266122
 31
0
  0
LINE
  8
1
 62
7
 10
1622.31776573795
 20
301.1860936266122
 30
0
 11
1622.539225563888
 21
301.2322310903493
 31
0
  0
LINE
  8
1
 62
7
 10
1622.539225563888
 20
301.2322310903493
 30
0
 11
1622.81605034631
 21
301.3245060178232
 31
0
  0
LINE
  8
1
 62
7
 10
1622.81605034631
 20
301.3245060178232
 30
0
 11
1622.982145215763
 21
301.4167809452972
 31
0
  0
LINE
  8
1
 62
7
 10
1615.305211042559
 20
301.6474682639822
 30
0
 11
1615.69276573795
 21
301.6474682639822
 31
0
  0
LINE
  8
1
 62
7
 10
1615.69276573795
 20
301.6474682639822
 30
0
 11
1615.914225563886
 21
301.7397431914561
 31
0
  0
LINE
  8
1
 62
7
 10
1615.914225563886
 20
301.7397431914561
 30
0
 11
1616.135685389825
 21
301.8781555826672
 31
0
  0
LINE
  8
1
 62
7
 10
1616.135685389825
 20
301.8781555826672
 30
0
 11
1616.246415302794
 21
302.0165679738781
 31
0
  0
LINE
  8
1
 62
7
 10
1616.246415302794
 20
302.0165679738781
 30
0
 11
1616.357145215762
 21
302.2472552925631
 31
0
  0
LINE
  8
1
 62
7
 10
1616.357145215762
 20
302.2472552925631
 30
0
 11
1616.412510172247
 21
302.75476739367
 31
0
  0
LINE
  8
1
 62
7
 10
1616.412510172247
 20
302.75476739367
 30
0
 11
1616.412510172247
 21
303.3084169585139
 31
0
  0
LINE
  8
1
 62
7
 10
1616.412510172247
 20
303.3084169585139
 30
0
 11
1616.357145215762
 21
303.8159290596208
 31
0
  0
LINE
  8
1
 62
7
 10
1616.357145215762
 20
303.8159290596208
 30
0
 11
1616.246415302794
 21
304.0466163783059
 31
0
  0
LINE
  8
1
 62
7
 10
1616.246415302794
 20
304.0466163783059
 30
0
 11
1616.135685389825
 21
304.1850287695169
 31
0
  0
LINE
  8
1
 62
7
 10
1616.135685389825
 20
304.1850287695169
 30
0
 11
1615.914225563886
 21
304.3234411607279
 31
0
  0
LINE
  8
1
 62
7
 10
1615.914225563886
 20
304.3234411607279
 30
0
 11
1615.69276573795
 21
304.415716088202
 31
0
  0
LINE
  8
1
 62
7
 10
1615.69276573795
 20
304.415716088202
 30
0
 11
1615.305211042559
 21
304.415716088202
 31
0
  0
LINE
  8
1
 62
7
 10
1615.305211042559
 20
304.415716088202
 30
0
 11
1615.083751216621
 21
304.3234411607279
 31
0
  0
LINE
  8
1
 62
7
 10
1615.083751216621
 20
304.3234411607279
 30
0
 11
1614.862291390684
 21
304.1850287695169
 31
0
  0
LINE
  8
1
 62
7
 10
1614.862291390684
 20
304.1850287695169
 30
0
 11
1614.751561477715
 21
304.0466163783059
 31
0
  0
LINE
  8
1
 62
7
 10
1614.751561477715
 20
304.0466163783059
 30
0
 11
1614.640831564746
 21
303.8159290596208
 31
0
  0
LINE
  8
1
 62
7
 10
1614.640831564746
 20
303.8159290596208
 30
0
 11
1614.585466608261
 21
303.3084169585139
 31
0
  0
LINE
  8
1
 62
7
 10
1614.585466608261
 20
303.3084169585139
 30
0
 11
1614.585466608261
 21
302.75476739367
 31
0
  0
LINE
  8
1
 62
7
 10
1614.585466608261
 20
302.75476739367
 30
0
 11
1614.640831564746
 21
302.2472552925631
 31
0
  0
LINE
  8
1
 62
7
 10
1614.640831564746
 20
302.2472552925631
 30
0
 11
1614.751561477715
 21
302.0165679738781
 31
0
  0
LINE
  8
1
 62
7
 10
1614.751561477715
 20
302.0165679738781
 30
0
 11
1614.862291390684
 21
301.8781555826672
 31
0
  0
LINE
  8
1
 62
7
 10
1614.862291390684
 20
301.8781555826672
 30
0
 11
1615.083751216621
 21
301.7397431914561
 31
0
  0
LINE
  8
1
 62
7
 10
1615.083751216621
 20
301.7397431914561
 30
0
 11
1615.305211042559
 21
301.6474682639822
 31
0
  0
LINE
  8
1
 62
7
 10
1616.357145215762
 20
301.4167809452972
 30
0
 11
1616.523240085216
 21
301.5551933365081
 31
0
  0
LINE
  8
1
 62
7
 10
1616.523240085216
 20
301.5551933365081
 30
0
 11
1616.689334954669
 21
301.7397431914561
 31
0
  0
LINE
  8
1
 62
7
 10
1616.689334954669
 20
301.7397431914561
 30
0
 11
1616.800064867638
 21
301.9242930464042
 31
0
  0
LINE
  8
1
 62
7
 10
1616.800064867638
 20
301.9242930464042
 30
0
 11
1616.910794780606
 21
302.1549803650891
 31
0
  0
LINE
  8
1
 62
7
 10
1616.910794780606
 20
302.1549803650891
 30
0
 11
1616.966159737091
 21
302.4318051475111
 31
0
  0
LINE
  8
1
 62
7
 10
1616.966159737091
 20
302.4318051475111
 30
0
 11
1617.021524693575
 21
302.8470423211442
 31
0
  0
LINE
  8
1
 62
7
 10
1617.021524693575
 20
302.8470423211442
 30
0
 11
1617.021524693575
 21
303.21614203104
 31
0
  0
LINE
  8
1
 62
7
 10
1617.021524693575
 20
303.21614203104
 30
0
 11
1616.966159737091
 21
303.631379204673
 31
0
  0
LINE
  8
1
 62
7
 10
1616.966159737091
 20
303.631379204673
 30
0
 11
1616.910794780606
 21
303.9082039870949
 31
0
  0
LINE
  8
1
 62
7
 10
1616.910794780606
 20
303.9082039870949
 30
0
 11
1616.800064867638
 21
304.1388913057799
 31
0
  0
LINE
  8
1
 62
7
 10
1616.800064867638
 20
304.1388913057799
 30
0
 11
1616.689334954669
 21
304.3234411607279
 31
0
  0
LINE
  8
1
 62
7
 10
1616.689334954669
 20
304.3234411607279
 30
0
 11
1616.523240085216
 21
304.5079910156758
 31
0
  0
LINE
  8
1
 62
7
 10
1616.523240085216
 20
304.5079910156758
 30
0
 11
1616.357145215762
 21
304.6464034068869
 31
0
  0
LINE
  8
1
 62
7
 10
1616.357145215762
 20
304.6464034068869
 30
0
 11
1616.191050346309
 21
304.7386783343608
 31
0
  0
LINE
  8
1
 62
7
 10
1616.191050346309
 20
304.7386783343608
 30
0
 11
1615.914225563886
 21
304.8309532618347
 31
0
  0
LINE
  8
1
 62
7
 10
1615.914225563886
 20
304.8309532618347
 30
0
 11
1615.69276573795
 21
304.8770907255718
 31
0
  0
LINE
  8
1
 62
7
 10
1615.69276573795
 20
304.8770907255718
 30
0
 11
1615.305211042559
 21
304.8770907255718
 31
0
  0
LINE
  8
1
 62
7
 10
1615.305211042559
 20
304.8770907255718
 30
0
 11
1615.083751216621
 21
304.8309532618347
 31
0
  0
LINE
  8
1
 62
7
 10
1615.083751216621
 20
304.8309532618347
 30
0
 11
1614.806926434198
 21
304.7386783343608
 31
0
  0
LINE
  8
1
 62
7
 10
1614.806926434198
 20
304.7386783343608
 30
0
 11
1614.640831564746
 21
304.6464034068869
 31
0
  0
LINE
  8
1
 62
7
 10
1614.640831564746
 20
304.6464034068869
 30
0
 11
1614.474736695292
 21
304.5079910156758
 31
0
  0
LINE
  8
1
 62
7
 10
1614.474736695292
 20
304.5079910156758
 30
0
 11
1614.30864182584
 21
304.3234411607279
 31
0
  0
LINE
  8
1
 62
7
 10
1614.30864182584
 20
304.3234411607279
 30
0
 11
1614.197911912871
 21
304.1388913057799
 31
0
  0
LINE
  8
1
 62
7
 10
1614.197911912871
 20
304.1388913057799
 30
0
 11
1614.087181999902
 21
303.9082039870949
 31
0
  0
LINE
  8
1
 62
7
 10
1614.087181999902
 20
303.9082039870949
 30
0
 11
1614.031817043418
 21
303.631379204673
 31
0
  0
LINE
  8
1
 62
7
 10
1614.031817043418
 20
303.631379204673
 30
0
 11
1613.976452086933
 21
303.21614203104
 31
0
  0
LINE
  8
1
 62
7
 10
1613.976452086933
 20
303.21614203104
 30
0
 11
1613.976452086933
 21
302.8470423211442
 31
0
  0
LINE
  8
1
 62
7
 10
1613.976452086933
 20
302.8470423211442
 30
0
 11
1614.031817043418
 21
302.4318051475111
 31
0
  0
LINE
  8
1
 62
7
 10
1614.031817043418
 20
302.4318051475111
 30
0
 11
1614.087181999902
 21
302.1549803650891
 31
0
  0
LINE
  8
1
 62
7
 10
1614.087181999902
 20
302.1549803650891
 30
0
 11
1614.197911912871
 21
301.9242930464042
 31
0
  0
LINE
  8
1
 62
7
 10
1614.197911912871
 20
301.9242930464042
 30
0
 11
1614.30864182584
 21
301.7397431914561
 31
0
  0
LINE
  8
1
 62
7
 10
1614.30864182584
 20
301.7397431914561
 30
0
 11
1614.474736695292
 21
301.5551933365081
 31
0
  0
LINE
  8
1
 62
7
 10
1614.474736695292
 20
301.5551933365081
 30
0
 11
1614.640831564746
 21
301.4167809452972
 31
0
  0
LINE
  8
1
 62
7
 10
1614.640831564746
 20
301.4167809452972
 30
0
 11
1614.806926434198
 21
301.3245060178232
 31
0
  0
LINE
  8
1
 62
7
 10
1614.806926434198
 20
301.3245060178232
 30
0
 11
1615.083751216621
 21
301.2322310903493
 31
0
  0
LINE
  8
1
 62
7
 10
1615.083751216621
 20
301.2322310903493
 30
0
 11
1615.305211042559
 21
301.1860936266122
 31
0
  0
LINE
  8
1
 62
7
 10
1615.305211042559
 20
301.1860936266122
 30
0
 11
1615.69276573795
 21
301.1860936266122
 31
0
  0
LINE
  8
1
 62
7
 10
1615.69276573795
 20
301.1860936266122
 30
0
 11
1615.914225563886
 21
301.2322310903493
 31
0
  0
LINE
  8
1
 62
7
 10
1615.914225563886
 20
301.2322310903493
 30
0
 11
1616.191050346309
 21
301.3245060178232
 31
0
  0
LINE
  8
1
 62
7
 10
1616.191050346309
 20
301.3245060178232
 30
0
 11
1616.357145215762
 21
301.4167809452972
 31
0
  0
LINE
  8
1
 62
7
 10
1608.680211042558
 20
301.6474682639822
 30
0
 11
1609.067765737948
 21
301.6474682639822
 31
0
  0
LINE
  8
1
 62
7
 10
1609.067765737948
 20
301.6474682639822
 30
0
 11
1609.289225563886
 21
301.7397431914561
 31
0
  0
LINE
  8
1
 62
7
 10
1609.289225563886
 20
301.7397431914561
 30
0
 11
1609.510685389823
 21
301.8781555826672
 31
0
  0
LINE
  8
1
 62
7
 10
1609.510685389823
 20
301.8781555826672
 30
0
 11
1609.621415302793
 21
302.0165679738781
 31
0
  0
LINE
  8
1
 62
7
 10
1609.621415302793
 20
302.0165679738781
 30
0
 11
1609.732145215762
 21
302.2472552925631
 31
0
  0
LINE
  8
1
 62
7
 10
1609.732145215762
 20
302.2472552925631
 30
0
 11
1609.787510172246
 21
302.75476739367
 31
0
  0
LINE
  8
1
 62
7
 10
1609.787510172246
 20
302.75476739367
 30
0
 11
1609.787510172246
 21
303.3084169585139
 31
0
  0
LINE
  8
1
 62
7
 10
1609.787510172246
 20
303.3084169585139
 30
0
 11
1609.732145215762
 21
303.8159290596208
 31
0
  0
LINE
  8
1
 62
7
 10
1609.732145215762
 20
303.8159290596208
 30
0
 11
1609.621415302793
 21
304.0466163783059
 31
0
  0
LINE
  8
1
 62
7
 10
1609.621415302793
 20
304.0466163783059
 30
0
 11
1609.510685389823
 21
304.1850287695169
 31
0
  0
LINE
  8
1
 62
7
 10
1609.510685389823
 20
304.1850287695169
 30
0
 11
1609.289225563886
 21
304.3234411607279
 31
0
  0
LINE
  8
1
 62
7
 10
1609.289225563886
 20
304.3234411607279
 30
0
 11
1609.067765737948
 21
304.415716088202
 31
0
  0
LINE
  8
1
 62
7
 10
1609.067765737948
 20
304.415716088202
 30
0
 11
1608.680211042558
 21
304.415716088202
 31
0
  0
LINE
  8
1
 62
7
 10
1608.680211042558
 20
304.415716088202
 30
0
 11
1608.458751216621
 21
304.3234411607279
 31
0
  0
LINE
  8
1
 62
7
 10
1608.458751216621
 20
304.3234411607279
 30
0
 11
1608.237291390683
 21
304.1850287695169
 31
0
  0
LINE
  8
1
 62
7
 10
1608.237291390683
 20
304.1850287695169
 30
0
 11
1608.126561477714
 21
304.0466163783059
 31
0
  0
LINE
  8
1
 62
7
 10
1608.126561477714
 20
304.0466163783059
 30
0
 11
1608.015831564746
 21
303.8159290596208
 31
0
  0
LINE
  8
1
 62
7
 10
1608.015831564746
 20
303.8159290596208
 30
0
 11
1607.960466608261
 21
303.3084169585139
 31
0
  0
LINE
  8
1
 62
7
 10
1607.960466608261
 20
303.3084169585139
 30
0
 11
1607.960466608261
 21
302.75476739367
 31
0
  0
LINE
  8
1
 62
7
 10
1607.960466608261
 20
302.75476739367
 30
0
 11
1608.015831564746
 21
302.2472552925631
 31
0
  0
LINE
  8
1
 62
7
 10
1608.015831564746
 20
302.2472552925631
 30
0
 11
1608.126561477714
 21
302.0165679738781
 31
0
  0
LINE
  8
1
 62
7
 10
1608.126561477714
 20
302.0165679738781
 30
0
 11
1608.237291390683
 21
301.8781555826672
 31
0
  0
LINE
  8
1
 62
7
 10
1608.237291390683
 20
301.8781555826672
 30
0
 11
1608.458751216621
 21
301.7397431914561
 31
0
  0
LINE
  8
1
 62
7
 10
1608.458751216621
 20
301.7397431914561
 30
0
 11
1608.680211042558
 21
301.6474682639822
 31
0
  0
LINE
  8
1
 62
7
 10
1609.732145215762
 20
301.4167809452972
 30
0
 11
1609.898240085215
 21
301.5551933365081
 31
0
  0
LINE
  8
1
 62
7
 10
1609.898240085215
 20
301.5551933365081
 30
0
 11
1610.064334954668
 21
301.7397431914561
 31
0
  0
LINE
  8
1
 62
7
 10
1610.064334954668
 20
301.7397431914561
 30
0
 11
1610.175064867637
 21
301.9242930464042
 31
0
  0
LINE
  8
1
 62
7
 10
1610.175064867637
 20
301.9242930464042
 30
0
 11
1610.285794780606
 21
302.1549803650891
 31
0
  0
LINE
  8
1
 62
7
 10
1610.285794780606
 20
302.1549803650891
 30
0
 11
1610.34115973709
 21
302.4318051475111
 31
0
  0
LINE
  8
1
 62
7
 10
1610.34115973709
 20
302.4318051475111
 30
0
 11
1610.396524693575
 21
302.8470423211442
 31
0
  0
LINE
  8
1
 62
7
 10
1610.396524693575
 20
302.8470423211442
 30
0
 11
1610.396524693575
 21
303.21614203104
 31
0
  0
LINE
  8
1
 62
7
 10
1610.396524693575
 20
303.21614203104
 30
0
 11
1610.34115973709
 21
303.631379204673
 31
0
  0
LINE
  8
1
 62
7
 10
1610.34115973709
 20
303.631379204673
 30
0
 11
1610.285794780606
 21
303.9082039870949
 31
0
  0
LINE
  8
1
 62
7
 10
1610.285794780606
 20
303.9082039870949
 30
0
 11
1610.175064867637
 21
304.1388913057799
 31
0
  0
LINE
  8
1
 62
7
 10
1610.175064867637
 20
304.1388913057799
 30
0
 11
1610.064334954668
 21
304.3234411607279
 31
0
  0
LINE
  8
1
 62
7
 10
1610.064334954668
 20
304.3234411607279
 30
0
 11
1609.898240085215
 21
304.5079910156758
 31
0
  0
LINE
  8
1
 62
7
 10
1609.898240085215
 20
304.5079910156758
 30
0
 11
1609.732145215762
 21
304.6464034068869
 31
0
  0
LINE
  8
1
 62
7
 10
1609.732145215762
 20
304.6464034068869
 30
0
 11
1609.566050346309
 21
304.7386783343608
 31
0
  0
LINE
  8
1
 62
7
 10
1609.566050346309
 20
304.7386783343608
 30
0
 11
1609.289225563886
 21
304.8309532618347
 31
0
  0
LINE
  8
1
 62
7
 10
1609.289225563886
 20
304.8309532618347
 30
0
 11
1609.067765737948
 21
304.8770907255718
 31
0
  0
LINE
  8
1
 62
7
 10
1609.067765737948
 20
304.8770907255718
 30
0
 11
1608.680211042558
 21
304.8770907255718
 31
0
  0
LINE
  8
1
 62
7
 10
1608.680211042558
 20
304.8770907255718
 30
0
 11
1608.458751216621
 21
304.8309532618347
 31
0
  0
LINE
  8
1
 62
7
 10
1608.458751216621
 20
304.8309532618347
 30
0
 11
1608.181926434198
 21
304.7386783343608
 31
0
  0
LINE
  8
1
 62
7
 10
1608.181926434198
 20
304.7386783343608
 30
0
 11
1608.015831564746
 21
304.6464034068869
 31
0
  0
LINE
  8
1
 62
7
 10
1608.015831564746
 20
304.6464034068869
 30
0
 11
1607.849736695292
 21
304.5079910156758
 31
0
  0
LINE
  8
1
 62
7
 10
1607.849736695292
 20
304.5079910156758
 30
0
 11
1607.683641825839
 21
304.3234411607279
 31
0
  0
LINE
  8
1
 62
7
 10
1607.683641825839
 20
304.3234411607279
 30
0
 11
1607.572911912871
 21
304.1388913057799
 31
0
  0
LINE
  8
1
 62
7
 10
1607.572911912871
 20
304.1388913057799
 30
0
 11
1607.462181999902
 21
303.9082039870949
 31
0
  0
LINE
  8
1
 62
7
 10
1607.462181999902
 20
303.9082039870949
 30
0
 11
1607.406817043417
 21
303.631379204673
 31
0
  0
LINE
  8
1
 62
7
 10
1607.406817043417
 20
303.631379204673
 30
0
 11
1607.351452086933
 21
303.21614203104
 31
0
  0
LINE
  8
1
 62
7
 10
1607.351452086933
 20
303.21614203104
 30
0
 11
1607.351452086933
 21
302.8470423211442
 31
0
  0
LINE
  8
1
 62
7
 10
1607.351452086933
 20
302.8470423211442
 30
0
 11
1607.406817043417
 21
302.4318051475111
 31
0
  0
LINE
  8
1
 62
7
 10
1607.406817043417
 20
302.4318051475111
 30
0
 11
1607.462181999902
 21
302.1549803650891
 31
0
  0
LINE
  8
1
 62
7
 10
1607.462181999902
 20
302.1549803650891
 30
0
 11
1607.572911912871
 21
301.9242930464042
 31
0
  0
LINE
  8
1
 62
7
 10
1607.572911912871
 20
301.9242930464042
 30
0
 11
1607.683641825839
 21
301.7397431914561
 31
0
  0
LINE
  8
1
 62
7
 10
1607.683641825839
 20
301.7397431914561
 30
0
 11
1607.849736695292
 21
301.5551933365081
 31
0
  0
LINE
  8
1
 62
7
 10
1607.849736695292
 20
301.5551933365081
 30
0
 11
1608.015831564746
 21
301.4167809452972
 31
0
  0
LINE
  8
1
 62
7
 10
1608.015831564746
 20
301.4167809452972
 30
0
 11
1608.181926434198
 21
301.3245060178232
 31
0
  0
LINE
  8
1
 62
7
 10
1608.181926434198
 20
301.3245060178232
 30
0
 11
1608.458751216621
 21
301.2322310903493
 31
0
  0
LINE
  8
1
 62
7
 10
1608.458751216621
 20
301.2322310903493
 30
0
 11
1608.680211042558
 21
301.1860936266122
 31
0
  0
LINE
  8
1
 62
7
 10
1608.680211042558
 20
301.1860936266122
 30
0
 11
1609.067765737948
 21
301.1860936266122
 31
0
  0
LINE
  8
1
 62
7
 10
1609.067765737948
 20
301.1860936266122
 30
0
 11
1609.289225563886
 21
301.2322310903493
 31
0
  0
LINE
  8
1
 62
7
 10
1609.289225563886
 20
301.2322310903493
 30
0
 11
1609.566050346309
 21
301.3245060178232
 31
0
  0
LINE
  8
1
 62
7
 10
1609.566050346309
 20
301.3245060178232
 30
0
 11
1609.732145215762
 21
301.4167809452972
 31
0
  0
LINE
  8
1
 62
7
 10
1602.055211042558
 20
301.6474682639822
 30
0
 11
1602.442765737948
 21
301.6474682639822
 31
0
  0
LINE
  8
1
 62
7
 10
1602.442765737948
 20
301.6474682639822
 30
0
 11
1602.664225563885
 21
301.7397431914561
 31
0
  0
LINE
  8
1
 62
7
 10
1602.664225563885
 20
301.7397431914561
 30
0
 11
1602.885685389823
 21
301.8781555826672
 31
0
  0
LINE
  8
1
 62
7
 10
1602.885685389823
 20
301.8781555826672
 30
0
 11
1602.996415302793
 21
302.0165679738781
 31
0
  0
LINE
  8
1
 62
7
 10
1602.996415302793
 20
302.0165679738781
 30
0
 11
1603.10714521576
 21
302.2472552925631
 31
0
  0
LINE
  8
1
 62
7
 10
1603.10714521576
 20
302.2472552925631
 30
0
 11
1603.162510172246
 21
302.75476739367
 31
0
  0
LINE
  8
1
 62
7
 10
1603.162510172246
 20
302.75476739367
 30
0
 11
1603.162510172246
 21
303.3084169585139
 31
0
  0
LINE
  8
1
 62
7
 10
1603.162510172246
 20
303.3084169585139
 30
0
 11
1603.10714521576
 21
303.8159290596208
 31
0
  0
LINE
  8
1
 62
7
 10
1603.10714521576
 20
303.8159290596208
 30
0
 11
1602.996415302793
 21
304.0466163783059
 31
0
  0
LINE
  8
1
 62
7
 10
1602.996415302793
 20
304.0466163783059
 30
0
 11
1602.885685389823
 21
304.1850287695169
 31
0
  0
LINE
  8
1
 62
7
 10
1602.885685389823
 20
304.1850287695169
 30
0
 11
1602.664225563885
 21
304.3234411607279
 31
0
  0
LINE
  8
1
 62
7
 10
1602.664225563885
 20
304.3234411607279
 30
0
 11
1602.442765737948
 21
304.415716088202
 31
0
  0
LINE
  8
1
 62
7
 10
1602.442765737948
 20
304.415716088202
 30
0
 11
1602.055211042558
 21
304.415716088202
 31
0
  0
LINE
  8
1
 62
7
 10
1602.055211042558
 20
304.415716088202
 30
0
 11
1601.83375121662
 21
304.3234411607279
 31
0
  0
LINE
  8
1
 62
7
 10
1601.83375121662
 20
304.3234411607279
 30
0
 11
1601.612291390683
 21
304.1850287695169
 31
0
  0
LINE
  8
1
 62
7
 10
1601.612291390683
 20
304.1850287695169
 30
0
 11
1601.501561477714
 21
304.0466163783059
 31
0
  0
LINE
  8
1
 62
7
 10
1601.501561477714
 20
304.0466163783059
 30
0
 11
1601.390831564745
 21
303.8159290596208
 31
0
  0
LINE
  8
1
 62
7
 10
1601.390831564745
 20
303.8159290596208
 30
0
 11
1601.335466608261
 21
303.3084169585139
 31
0
  0
LINE
  8
1
 62
7
 10
1601.335466608261
 20
303.3084169585139
 30
0
 11
1601.335466608261
 21
302.75476739367
 31
0
  0
LINE
  8
1
 62
7
 10
1601.335466608261
 20
302.75476739367
 30
0
 11
1601.390831564745
 21
302.2472552925631
 31
0
  0
LINE
  8
1
 62
7
 10
1601.390831564745
 20
302.2472552925631
 30
0
 11
1601.501561477714
 21
302.0165679738781
 31
0
  0
LINE
  8
1
 62
7
 10
1601.501561477714
 20
302.0165679738781
 30
0
 11
1601.612291390683
 21
301.8781555826672
 31
0
  0
LINE
  8
1
 62
7
 10
1601.612291390683
 20
301.8781555826672
 30
0
 11
1601.83375121662
 21
301.7397431914561
 31
0
  0
LINE
  8
1
 62
7
 10
1601.83375121662
 20
301.7397431914561
 30
0
 11
1602.055211042558
 21
301.6474682639822
 31
0
  0
LINE
  8
1
 62
7
 10
1603.10714521576
 20
301.4167809452972
 30
0
 11
1603.273240085215
 21
301.5551933365081
 31
0
  0
LINE
  8
1
 62
7
 10
1603.273240085215
 20
301.5551933365081
 30
0
 11
1603.439334954668
 21
301.7397431914561
 31
0
  0
LINE
  8
1
 62
7
 10
1603.439334954668
 20
301.7397431914561
 30
0
 11
1603.550064867637
 21
301.9242930464042
 31
0
  0
LINE
  8
1
 62
7
 10
1603.550064867637
 20
301.9242930464042
 30
0
 11
1603.660794780605
 21
302.1549803650891
 31
0
  0
LINE
  8
1
 62
7
 10
1603.660794780605
 20
302.1549803650891
 30
0
 11
1603.71615973709
 21
302.4318051475111
 31
0
  0
LINE
  8
1
 62
7
 10
1603.71615973709
 20
302.4318051475111
 30
0
 11
1603.771524693574
 21
302.8470423211442
 31
0
  0
LINE
  8
1
 62
7
 10
1603.771524693574
 20
302.8470423211442
 30
0
 11
1603.771524693574
 21
303.21614203104
 31
0
  0
LINE
  8
1
 62
7
 10
1603.771524693574
 20
303.21614203104
 30
0
 11
1603.71615973709
 21
303.631379204673
 31
0
  0
LINE
  8
1
 62
7
 10
1603.71615973709
 20
303.631379204673
 30
0
 11
1603.660794780605
 21
303.9082039870949
 31
0
  0
LINE
  8
1
 62
7
 10
1603.660794780605
 20
303.9082039870949
 30
0
 11
1603.550064867637
 21
304.1388913057799
 31
0
  0
LINE
  8
1
 62
7
 10
1603.550064867637
 20
304.1388913057799
 30
0
 11
1603.439334954668
 21
304.3234411607279
 31
0
  0
LINE
  8
1
 62
7
 10
1603.439334954668
 20
304.3234411607279
 30
0
 11
1603.273240085215
 21
304.5079910156758
 31
0
  0
LINE
  8
1
 62
7
 10
1603.273240085215
 20
304.5079910156758
 30
0
 11
1603.10714521576
 21
304.6464034068869
 31
0
  0
LINE
  8
1
 62
7
 10
1603.10714521576
 20
304.6464034068869
 30
0
 11
1602.941050346308
 21
304.7386783343608
 31
0
  0
LINE
  8
1
 62
7
 10
1602.941050346308
 20
304.7386783343608
 30
0
 11
1602.664225563885
 21
304.8309532618347
 31
0
  0
LINE
  8
1
 62
7
 10
1602.664225563885
 20
304.8309532618347
 30
0
 11
1602.442765737948
 21
304.8770907255718
 31
0
  0
LINE
  8
1
 62
7
 10
1602.442765737948
 20
304.8770907255718
 30
0
 11
1602.055211042558
 21
304.8770907255718
 31
0
  0
LINE
  8
1
 62
7
 10
1602.055211042558
 20
304.8770907255718
 30
0
 11
1601.83375121662
 21
304.8309532618347
 31
0
  0
LINE
  8
1
 62
7
 10
1601.83375121662
 20
304.8309532618347
 30
0
 11
1601.556926434198
 21
304.7386783343608
 31
0
  0
LINE
  8
1
 62
7
 10
1601.556926434198
 20
304.7386783343608
 30
0
 11
1601.390831564745
 21
304.6464034068869
 31
0
  0
LINE
  8
1
 62
7
 10
1601.390831564745
 20
304.6464034068869
 30
0
 11
1601.224736695292
 21
304.5079910156758
 31
0
  0
LINE
  8
1
 62
7
 10
1601.224736695292
 20
304.5079910156758
 30
0
 11
1601.058641825839
 21
304.3234411607279
 31
0
  0
LINE
  8
1
 62
7
 10
1601.058641825839
 20
304.3234411607279
 30
0
 11
1600.94791191287
 21
304.1388913057799
 31
0
  0
LINE
  8
1
 62
7
 10
1600.94791191287
 20
304.1388913057799
 30
0
 11
1600.837181999901
 21
303.9082039870949
 31
0
  0
LINE
  8
1
 62
7
 10
1600.837181999901
 20
303.9082039870949
 30
0
 11
1600.781817043417
 21
303.631379204673
 31
0
  0
LINE
  8
1
 62
7
 10
1600.781817043417
 20
303.631379204673
 30
0
 11
1600.726452086933
 21
303.21614203104
 31
0
  0
LINE
  8
1
 62
7
 10
1600.726452086933
 20
303.21614203104
 30
0
 11
1600.726452086933
 21
302.8470423211442
 31
0
  0
LINE
  8
1
 62
7
 10
1600.726452086933
 20
302.8470423211442
 30
0
 11
1600.781817043417
 21
302.4318051475111
 31
0
  0
LINE
  8
1
 62
7
 10
1600.781817043417
 20
302.4318051475111
 30
0
 11
1600.837181999901
 21
302.1549803650891
 31
0
  0
LINE
  8
1
 62
7
 10
1600.837181999901
 20
302.1549803650891
 30
0
 11
1600.94791191287
 21
301.9242930464042
 31
0
  0
LINE
  8
1
 62
7
 10
1600.94791191287
 20
301.9242930464042
 30
0
 11
1601.058641825839
 21
301.7397431914561
 31
0
  0
LINE
  8
1
 62
7
 10
1601.058641825839
 20
301.7397431914561
 30
0
 11
1601.224736695292
 21
301.5551933365081
 31
0
  0
LINE
  8
1
 62
7
 10
1601.224736695292
 20
301.5551933365081
 30
0
 11
1601.390831564745
 21
301.4167809452972
 31
0
  0
LINE
  8
1
 62
7
 10
1601.390831564745
 20
301.4167809452972
 30
0
 11
1601.556926434198
 21
301.3245060178232
 31
0
  0
LINE
  8
1
 62
7
 10
1601.556926434198
 20
301.3245060178232
 30
0
 11
1601.83375121662
 21
301.2322310903493
 31
0
  0
LINE
  8
1
 62
7
 10
1601.83375121662
 20
301.2322310903493
 30
0
 11
1602.055211042558
 21
301.1860936266122
 31
0
  0
LINE
  8
1
 62
7
 10
1602.055211042558
 20
301.1860936266122
 30
0
 11
1602.442765737948
 21
301.1860936266122
 31
0
  0
LINE
  8
1
 62
7
 10
1602.442765737948
 20
301.1860936266122
 30
0
 11
1602.664225563885
 21
301.2322310903493
 31
0
  0
LINE
  8
1
 62
7
 10
1602.664225563885
 20
301.2322310903493
 30
0
 11
1602.941050346308
 21
301.3245060178232
 31
0
  0
LINE
  8
1
 62
7
 10
1602.941050346308
 20
301.3245060178232
 30
0
 11
1603.10714521576
 21
301.4167809452972
 31
0
  0
LINE
  8
1
 62
7
 10
1637.977484960487
 20
301.1860936266122
 30
0
 11
1637.977484960487
 21
301.4629184090342
 31
0
  0
LINE
  8
1
 62
7
 10
1637.977484960487
 20
301.4629184090342
 30
0
 11
1638.088214873456
 21
301.7858806551931
 31
0
  0
LINE
  8
1
 62
7
 10
1638.088214873456
 20
301.7858806551931
 30
0
 11
1638.309674699393
 21
302.108842901352
 31
0
  0
LINE
  8
1
 62
7
 10
1638.309674699393
 20
302.108842901352
 30
0
 11
1638.586499481816
 21
302.3856676837742
 31
0
  0
LINE
  8
1
 62
7
 10
1638.586499481816
 20
302.3856676837742
 30
0
 11
1638.918689220723
 21
302.7086299299331
 31
0
  0
LINE
  8
1
 62
7
 10
1638.918689220723
 20
302.7086299299331
 30
0
 11
1639.250878959629
 21
302.9393172486181
 31
0
  0
LINE
  8
1
 62
7
 10
1639.250878959629
 20
302.9393172486181
 30
0
 11
1639.583068698535
 21
303.21614203104
 31
0
  0
LINE
  8
1
 62
7
 10
1639.583068698535
 20
303.21614203104
 30
0
 11
1639.970623393926
 21
303.5391042771988
 31
0
  0
LINE
  8
1
 62
7
 10
1639.970623393926
 20
303.5391042771988
 30
0
 11
1640.081353306895
 21
303.6775166684099
 31
0
  0
LINE
  8
1
 62
7
 10
1640.081353306895
 20
303.6775166684099
 30
0
 11
1640.136718263379
 21
303.8159290596208
 31
0
  0
LINE
  8
1
 62
7
 10
1640.136718263379
 20
303.8159290596208
 30
0
 11
1640.136718263379
 21
304.0004789145688
 31
0
  0
LINE
  8
1
 62
7
 10
1640.136718263379
 20
304.0004789145688
 30
0
 11
1640.081353306895
 21
304.1388913057799
 31
0
  0
LINE
  8
1
 62
7
 10
1640.081353306895
 20
304.1388913057799
 30
0
 11
1639.970623393926
 21
304.2773036969908
 31
0
  0
LINE
  8
1
 62
7
 10
1639.970623393926
 20
304.2773036969908
 30
0
 11
1639.804528524473
 21
304.3695786244647
 31
0
  0
LINE
  8
1
 62
7
 10
1639.804528524473
 20
304.3695786244647
 30
0
 11
1639.583068698535
 21
304.415716088202
 31
0
  0
LINE
  8
1
 62
7
 10
1639.583068698535
 20
304.415716088202
 30
0
 11
1639.361608872598
 21
304.415716088202
 31
0
  0
LINE
  8
1
 62
7
 10
1639.361608872598
 20
304.415716088202
 30
0
 11
1639.14014904666
 21
304.3695786244647
 31
0
  0
LINE
  8
1
 62
7
 10
1639.14014904666
 20
304.3695786244647
 30
0
 11
1638.974054177207
 21
304.2773036969908
 31
0
  0
LINE
  8
1
 62
7
 10
1638.974054177207
 20
304.2773036969908
 30
0
 11
1638.863324264238
 21
304.1388913057799
 31
0
  0
LINE
  8
1
 62
7
 10
1638.863324264238
 20
304.1388913057799
 30
0
 11
1638.807959307754
 21
304.0004789145688
 31
0
  0
LINE
  8
1
 62
7
 10
1638.807959307754
 20
304.0004789145688
 30
0
 11
1638.807959307754
 21
303.8159290596208
 31
0
  0
LINE
  8
1
 62
7
 10
1638.807959307754
 20
303.8159290596208
 30
0
 11
1638.198944786425
 21
303.8159290596208
 31
0
  0
LINE
  8
1
 62
7
 10
1638.198944786425
 20
303.8159290596208
 30
0
 11
1638.198944786425
 21
304.0004789145688
 31
0
  0
LINE
  8
1
 62
7
 10
1638.198944786425
 20
304.0004789145688
 30
0
 11
1638.25430974291
 21
304.2311662332538
 31
0
  0
LINE
  8
1
 62
7
 10
1638.25430974291
 20
304.2311662332538
 30
0
 11
1638.475769568847
 21
304.5079910156758
 31
0
  0
LINE
  8
1
 62
7
 10
1638.475769568847
 20
304.5079910156758
 30
0
 11
1638.697229394785
 21
304.6925408706238
 31
0
  0
LINE
  8
1
 62
7
 10
1638.697229394785
 20
304.6925408706238
 30
0
 11
1639.029419133691
 21
304.8309532618347
 31
0
  0
LINE
  8
1
 62
7
 10
1639.029419133691
 20
304.8309532618347
 30
0
 11
1639.306243916113
 21
304.8770907255718
 31
0
  0
LINE
  8
1
 62
7
 10
1639.306243916113
 20
304.8770907255718
 30
0
 11
1639.63843365502
 21
304.8770907255718
 31
0
  0
LINE
  8
1
 62
7
 10
1639.63843365502
 20
304.8770907255718
 30
0
 11
1639.915258437441
 21
304.8309532618347
 31
0
  0
LINE
  8
1
 62
7
 10
1639.915258437441
 20
304.8309532618347
 30
0
 11
1640.247448176348
 21
304.6925408706238
 31
0
  0
LINE
  8
1
 62
7
 10
1640.247448176348
 20
304.6925408706238
 30
0
 11
1640.468908002285
 21
304.5079910156758
 31
0
  0
LINE
  8
1
 62
7
 10
1640.468908002285
 20
304.5079910156758
 30
0
 11
1640.690367828222
 21
304.2311662332538
 31
0
  0
LINE
  8
1
 62
7
 10
1640.690367828222
 20
304.2311662332538
 30
0
 11
1640.745732784708
 21
304.0004789145688
 31
0
  0
LINE
  8
1
 62
7
 10
1640.745732784708
 20
304.0004789145688
 30
0
 11
1640.745732784708
 21
303.8159290596208
 31
0
  0
LINE
  8
1
 62
7
 10
1640.745732784708
 20
303.8159290596208
 30
0
 11
1640.690367828222
 21
303.5852417409359
 31
0
  0
LINE
  8
1
 62
7
 10
1640.690367828222
 20
303.5852417409359
 30
0
 11
1640.468908002285
 21
303.3084169585139
 31
0
  0
LINE
  8
1
 62
7
 10
1640.468908002285
 20
303.3084169585139
 30
0
 11
1640.358178089316
 21
303.21614203104
 31
0
  0
LINE
  8
1
 62
7
 10
1640.358178089316
 20
303.21614203104
 30
0
 11
1639.915258437441
 21
302.8931797848811
 31
0
  0
LINE
  8
1
 62
7
 10
1639.915258437441
 20
302.8931797848811
 30
0
 11
1639.527703742051
 21
302.6163550024591
 31
0
  0
LINE
  8
1
 62
7
 10
1639.527703742051
 20
302.6163550024591
 30
0
 11
1639.14014904666
 21
302.2472552925631
 31
0
  0
LINE
  8
1
 62
7
 10
1639.14014904666
 20
302.2472552925631
 30
0
 11
1638.863324264238
 21
301.9242930464042
 31
0
  0
LINE
  8
1
 62
7
 10
1638.863324264238
 20
301.9242930464042
 30
0
 11
1638.752594351268
 21
301.6474682639822
 31
0
  0
LINE
  8
1
 62
7
 10
1638.752594351268
 20
301.6474682639822
 30
0
 11
1640.91182765416
 21
301.6474682639822
 31
0
  0
LINE
  8
1
 62
7
 10
1640.91182765416
 20
301.6474682639822
 30
0
 11
1640.91182765416
 21
301.1860936266122
 31
0
  0
LINE
  8
1
 62
7
 10
1640.91182765416
 20
301.1860936266122
 30
0
 11
1637.977484960487
 21
301.1860936266122
 31
0
  0
LINE
  8
1
 62
7
 10
1645.958926394355
 20
302.985454712355
 30
0
 11
1646.180386220292
 21
302.985454712355
 31
0
  0
LINE
  8
1
 62
7
 10
1646.180386220292
 20
302.985454712355
 30
0
 11
1646.457211002715
 21
302.9393172486181
 31
0
  0
LINE
  8
1
 62
7
 10
1646.457211002715
 20
302.9393172486181
 30
0
 11
1646.678670828653
 21
302.8009048574069
 31
0
  0
LINE
  8
1
 62
7
 10
1646.678670828653
 20
302.8009048574069
 30
0
 11
1646.844765698106
 21
302.6163550024591
 31
0
  0
LINE
  8
1
 62
7
 10
1646.844765698106
 20
302.6163550024591
 30
0
 11
1646.90013065459
 21
302.4318051475111
 31
0
  0
LINE
  8
1
 62
7
 10
1646.90013065459
 20
302.4318051475111
 30
0
 11
1646.90013065459
 21
302.2472552925631
 31
0
  0
LINE
  8
1
 62
7
 10
1646.90013065459
 20
302.2472552925631
 30
0
 11
1646.844765698106
 21
302.0627054376152
 31
0
  0
LINE
  8
1
 62
7
 10
1646.844765698106
 20
302.0627054376152
 30
0
 11
1646.678670828653
 21
301.8781555826672
 31
0
  0
LINE
  8
1
 62
7
 10
1646.678670828653
 20
301.8781555826672
 30
0
 11
1646.457211002715
 21
301.7397431914561
 31
0
  0
LINE
  8
1
 62
7
 10
1646.457211002715
 20
301.7397431914561
 30
0
 11
1646.180386220292
 21
301.6936057277193
 31
0
  0
LINE
  8
1
 62
7
 10
1646.180386220292
 20
301.6936057277193
 30
0
 11
1645.958926394355
 21
301.6936057277193
 31
0
  0
LINE
  8
1
 62
7
 10
1645.958926394355
 20
301.6936057277193
 30
0
 11
1645.682101611934
 21
301.7397431914561
 31
0
  0
LINE
  8
1
 62
7
 10
1645.682101611934
 20
301.7397431914561
 30
0
 11
1645.460641785996
 21
301.8781555826672
 31
0
  0
LINE
  8
1
 62
7
 10
1645.460641785996
 20
301.8781555826672
 30
0
 11
1645.294546916543
 21
302.0627054376152
 31
0
  0
LINE
  8
1
 62
7
 10
1645.294546916543
 20
302.0627054376152
 30
0
 11
1645.239181960058
 21
302.2472552925631
 31
0
  0
LINE
  8
1
 62
7
 10
1645.239181960058
 20
302.2472552925631
 30
0
 11
1645.239181960058
 21
302.4318051475111
 31
0
  0
LINE
  8
1
 62
7
 10
1645.239181960058
 20
302.4318051475111
 30
0
 11
1644.574802482246
 21
302.4318051475111
 31
0
  0
LINE
  8
1
 62
7
 10
1644.574802482246
 20
302.4318051475111
 30
0
 11
1644.574802482246
 21
302.2011178288261
 31
0
  0
LINE
  8
1
 62
7
 10
1644.574802482246
 20
302.2011178288261
 30
0
 11
1644.685532395215
 21
301.8781555826672
 31
0
  0
LINE
  8
1
 62
7
 10
1644.685532395215
 20
301.8781555826672
 30
0
 11
1644.851627264668
 21
301.6474682639822
 31
0
  0
LINE
  8
1
 62
7
 10
1644.851627264668
 20
301.6474682639822
 30
0
 11
1645.12845204709
 21
301.4167809452972
 31
0
  0
LINE
  8
1
 62
7
 10
1645.12845204709
 20
301.4167809452972
 30
0
 11
1645.460641785996
 21
301.2783685540861
 31
0
  0
LINE
  8
1
 62
7
 10
1645.460641785996
 20
301.2783685540861
 30
0
 11
1645.903561437871
 21
301.1860936266122
 31
0
  0
LINE
  8
1
 62
7
 10
1645.903561437871
 20
301.1860936266122
 30
0
 11
1646.235751176777
 21
301.1860936266122
 31
0
  0
LINE
  8
1
 62
7
 10
1646.235751176777
 20
301.1860936266122
 30
0
 11
1646.678670828653
 21
301.2783685540861
 31
0
  0
LINE
  8
1
 62
7
 10
1646.678670828653
 20
301.2783685540861
 30
0
 11
1647.010860567559
 21
301.4167809452972
 31
0
  0
LINE
  8
1
 62
7
 10
1647.010860567559
 20
301.4167809452972
 30
0
 11
1647.287685349981
 21
301.6474682639822
 31
0
  0
LINE
  8
1
 62
7
 10
1647.287685349981
 20
301.6474682639822
 30
0
 11
1647.453780219434
 21
301.8781555826672
 31
0
  0
LINE
  8
1
 62
7
 10
1647.453780219434
 20
301.8781555826672
 30
0
 11
1647.564510132403
 21
302.2011178288261
 31
0
  0
LINE
  8
1
 62
7
 10
1647.564510132403
 20
302.2011178288261
 30
0
 11
1647.564510132403
 21
302.4318051475111
 31
0
  0
LINE
  8
1
 62
7
 10
1647.564510132403
 20
302.4318051475111
 30
0
 11
1647.453780219434
 21
302.75476739367
 31
0
  0
LINE
  8
1
 62
7
 10
1647.453780219434
 20
302.75476739367
 30
0
 11
1647.232320393497
 21
303.031592176092
 31
0
  0
LINE
  8
1
 62
7
 10
1647.232320393497
 20
303.031592176092
 30
0
 11
1646.955495611075
 21
303.21614203104
 31
0
  0
LINE
  8
1
 62
7
 10
1646.955495611075
 20
303.21614203104
 30
0
 11
1647.066225524043
 21
303.3084169585139
 31
0
  0
LINE
  8
1
 62
7
 10
1647.066225524043
 20
303.3084169585139
 30
0
 11
1647.287685349981
 21
303.5852417409359
 31
0
  0
LINE
  8
1
 62
7
 10
1647.287685349981
 20
303.5852417409359
 30
0
 11
1647.343050306465
 21
303.8159290596208
 31
0
  0
LINE
  8
1
 62
7
 10
1647.343050306465
 20
303.8159290596208
 30
0
 11
1647.343050306465
 21
304.0004789145688
 31
0
  0
LINE
  8
1
 62
7
 10
1647.343050306465
 20
304.0004789145688
 30
0
 11
1647.287685349981
 21
304.2311662332538
 31
0
  0
LINE
  8
1
 62
7
 10
1647.287685349981
 20
304.2311662332538
 30
0
 11
1647.066225524043
 21
304.5079910156758
 31
0
  0
LINE
  8
1
 62
7
 10
1647.066225524043
 20
304.5079910156758
 30
0
 11
1646.844765698106
 21
304.6925408706238
 31
0
  0
LINE
  8
1
 62
7
 10
1646.844765698106
 20
304.6925408706238
 30
0
 11
1646.512575959198
 21
304.8309532618347
 31
0
  0
LINE
  8
1
 62
7
 10
1646.512575959198
 20
304.8309532618347
 30
0
 11
1646.235751176777
 21
304.8770907255718
 31
0
  0
LINE
  8
1
 62
7
 10
1646.235751176777
 20
304.8770907255718
 30
0
 11
1645.903561437871
 21
304.8770907255718
 31
0
  0
LINE
  8
1
 62
7
 10
1645.903561437871
 20
304.8770907255718
 30
0
 11
1645.626736655448
 21
304.8309532618347
 31
0
  0
LINE
  8
1
 62
7
 10
1645.626736655448
 20
304.8309532618347
 30
0
 11
1645.294546916543
 21
304.6925408706238
 31
0
  0
LINE
  8
1
 62
7
 10
1645.294546916543
 20
304.6925408706238
 30
0
 11
1645.073087090605
 21
304.5079910156758
 31
0
  0
LINE
  8
1
 62
7
 10
1645.073087090605
 20
304.5079910156758
 30
0
 11
1644.851627264668
 21
304.2311662332538
 31
0
  0
LINE
  8
1
 62
7
 10
1644.851627264668
 20
304.2311662332538
 30
0
 11
1644.796262308183
 21
304.0004789145688
 31
0
  0
LINE
  8
1
 62
7
 10
1644.796262308183
 20
304.0004789145688
 30
0
 11
1644.796262308183
 21
303.8159290596208
 31
0
  0
LINE
  8
1
 62
7
 10
1644.796262308183
 20
303.8159290596208
 30
0
 11
1645.405276829511
 21
303.8159290596208
 31
0
  0
LINE
  8
1
 62
7
 10
1645.405276829511
 20
303.8159290596208
 30
0
 11
1645.405276829511
 21
304.0004789145688
 31
0
  0
LINE
  8
1
 62
7
 10
1645.405276829511
 20
304.0004789145688
 30
0
 11
1645.460641785996
 21
304.1388913057799
 31
0
  0
LINE
  8
1
 62
7
 10
1645.460641785996
 20
304.1388913057799
 30
0
 11
1645.571371698965
 21
304.2773036969908
 31
0
  0
LINE
  8
1
 62
7
 10
1645.571371698965
 20
304.2773036969908
 30
0
 11
1645.737466568417
 21
304.3695786244647
 31
0
  0
LINE
  8
1
 62
7
 10
1645.737466568417
 20
304.3695786244647
 30
0
 11
1645.958926394355
 21
304.415716088202
 31
0
  0
LINE
  8
1
 62
7
 10
1645.958926394355
 20
304.415716088202
 30
0
 11
1646.180386220292
 21
304.415716088202
 31
0
  0
LINE
  8
1
 62
7
 10
1646.180386220292
 20
304.415716088202
 30
0
 11
1646.40184604623
 21
304.3695786244647
 31
0
  0
LINE
  8
1
 62
7
 10
1646.40184604623
 20
304.3695786244647
 30
0
 11
1646.567940915684
 21
304.2773036969908
 31
0
  0
LINE
  8
1
 62
7
 10
1646.567940915684
 20
304.2773036969908
 30
0
 11
1646.678670828653
 21
304.1388913057799
 31
0
  0
LINE
  8
1
 62
7
 10
1646.678670828653
 20
304.1388913057799
 30
0
 11
1646.734035785136
 21
304.0004789145688
 31
0
  0
LINE
  8
1
 62
7
 10
1646.734035785136
 20
304.0004789145688
 30
0
 11
1646.734035785136
 21
303.8159290596208
 31
0
  0
LINE
  8
1
 62
7
 10
1646.734035785136
 20
303.8159290596208
 30
0
 11
1646.678670828653
 21
303.6775166684099
 31
0
  0
LINE
  8
1
 62
7
 10
1646.678670828653
 20
303.6775166684099
 30
0
 11
1646.567940915684
 21
303.5391042771988
 31
0
  0
LINE
  8
1
 62
7
 10
1646.567940915684
 20
303.5391042771988
 30
0
 11
1646.40184604623
 21
303.4468293497249
 31
0
  0
LINE
  8
1
 62
7
 10
1646.40184604623
 20
303.4468293497249
 30
0
 11
1646.180386220292
 21
303.4006918859881
 31
0
  0
LINE
  8
1
 62
7
 10
1646.180386220292
 20
303.4006918859881
 30
0
 11
1645.958926394355
 21
303.4006918859881
 31
0
  0
LINE
  8
1
 62
7
 10
1645.958926394355
 20
303.4006918859881
 30
0
 11
1645.958926394355
 21
302.985454712355
 31
0
  0
LINE
  8
1
 62
7
 10
1654.274371425285
 20
304.8770907255718
 30
0
 11
1654.883385946614
 21
304.8770907255718
 31
0
  0
LINE
  8
1
 62
7
 10
1654.883385946614
 20
304.8770907255718
 30
0
 11
1654.883385946614
 21
302.4779426112481
 31
0
  0
LINE
  8
1
 62
7
 10
1654.883385946614
 20
302.4779426112481
 30
0
 11
1655.437035511457
 21
302.4779426112481
 31
0
  0
LINE
  8
1
 62
7
 10
1655.437035511457
 20
302.4779426112481
 30
0
 11
1655.437035511457
 21
302.0165679738781
 31
0
  0
LINE
  8
1
 62
7
 10
1655.437035511457
 20
302.0165679738781
 30
0
 11
1654.883385946614
 21
302.0165679738781
 31
0
  0
LINE
  8
1
 62
7
 10
1654.883385946614
 20
302.0165679738781
 30
0
 11
1654.883385946614
 21
301.1860936266122
 31
0
  0
LINE
  8
1
 62
7
 10
1654.883385946614
 20
301.1860936266122
 30
0
 11
1654.274371425285
 21
301.1860936266122
 31
0
  0
LINE
  8
1
 62
7
 10
1654.274371425285
 20
301.1860936266122
 30
0
 11
1654.274371425285
 21
302.0165679738781
 31
0
  0
LINE
  8
1
 62
7
 10
1654.274371425285
 20
302.0165679738781
 30
0
 11
1652.391962904816
 21
302.0165679738781
 31
0
  0
LINE
  8
1
 62
7
 10
1652.391962904816
 20
302.0165679738781
 30
0
 11
1652.391962904816
 21
302.524080074985
 31
0
  0
LINE
  8
1
 62
7
 10
1652.391962904816
 20
302.524080074985
 30
0
 11
1654.274371425285
 21
304.8770907255718
 31
0
  0
LINE
  8
1
 62
7
 10
1654.274371425285
 20
304.0466163783059
 30
0
 11
1653.000977426143
 21
302.4779426112481
 31
0
  0
LINE
  8
1
 62
7
 10
1653.000977426143
 20
302.4779426112481
 30
0
 11
1654.274371425285
 21
302.4779426112481
 31
0
  0
LINE
  8
1
 62
7
 10
1654.274371425285
 20
302.4779426112481
 30
0
 11
1654.274371425285
 21
304.0466163783059
 31
0
  0
LINE
  8
1
 62
2
  6
DASHDOT
 10
1725.99737020108
 20
323.043902777322
 30
0
 11
1523.74724534352
 21
323.043902777322
 31
0
  0
LINE
  8
1
 62
2
  6
DASHDOT
 10
1628.315336403074
 20
372.543902777322
 30
0
 11
1628.315336403074
 21
273.543902777322
 31
0
  0
LINE
  8
1
 62
7
 10
1640.565336403074
 20
292.25890835868
 30
0
 11
1616.065336403074
 21
292.25890835868
 31
0
  0
LINE
  8
1
 62
7
 10
1641.065336403074
 20
285.6878405468145
 30
0
 11
1641.065336403074
 21
291.75890835868
 31
0
  0
LINE
  8
1
 62
7
 10
1616.065336403074
 20
285.1878405468145
 30
0
 11
1640.565336403074
 21
285.1878405468145
 31
0
  0
LINE
  8
1
 62
7
 10
1615.565336403074
 20
291.75890835868
 30
0
 11
1615.565336403074
 21
285.6878405468145
 31
0
  0
LINE
  8
0
 62
7
 10
1634.585681332162
 20
291.0568268306628
 30
0
 11
1633.762958210041
 21
286.3902442482009
 31
0
  0
LINE
  8
0
 62
7
 10
1633.762958210041
 20
286.3902442482009
 30
0
 11
1634.836997897485
 21
286.3902442482009
 31
0
  0
LINE
  8
0
 62
7
 10
1634.836997897485
 20
286.3902442482009
 30
0
 11
1635.659894793622
 21
291.0568268306628
 31
0
  0
LINE
  8
0
 62
7
 10
1635.659894793622
 20
291.0568268306628
 30
0
 11
1634.585681332162
 21
291.0568268306628
 31
0
  0
LINE
  8
0
 62
7
 10
1622.715232787203
 20
286.3902442221882
 30
0
 11
1623.807922045579
 21
286.3902442482009
 31
0
  0
LINE
  8
0
 62
7
 10
1624.077367932402
 20
288.1615918616201
 30
0
 11
1624.079890123429
 21
288.1737438700797
 31
0
  0
LINE
  8
0
 62
7
 10
1622.341187207109
 20
286.3940572703667
 30
0
 11
1622.826435880213
 21
287.2791070863454
 31
0
  0
LINE
  8
0
 62
7
 10
1622.826435880213
 20
287.2791070863454
 30
0
 11
1622.837251235334
 21
287.2791071533631
 31
0
  0
LINE
  8
0
 62
7
 10
1629.45642044431
 20
288.7986610463422
 30
0
 11
1629.894021637002
 21
291.0568268306628
 31
0
  0
LINE
  8
0
 62
7
 10
1629.894021637002
 20
291.0568268306628
 30
0
 11
1628.819912513854
 21
291.0568268306628
 31
0
  0
LINE
  8
0
 62
7
 10
1628.819912513854
 20
291.0568268306628
 30
0
 11
1628.177218290235
 21
287.7400735575224
 31
0
  0
LINE
  8
0
 62
7
 10
1629.911145921998
 20
289.4974514834331
 30
0
 11
1629.426087782676
 21
288.6124363179471
 31
0
  0
LINE
  8
0
 62
7
 10
1629.426087782676
 20
288.6124363179471
 30
0
 11
1629.414441642429
 21
288.6124363179471
 31
0
  0
LINE
  8
0
 62
7
 10
1625.556717052072
 20
287.869984202062
 30
0
 11
1624.773748125986
 21
287.0797872046891
 31
0
  0
LINE
  8
0
 62
7
 10
1624.773748125986
 20
287.0797872046891
 30
0
 11
1624.652197675814
 21
286.3902442482009
 31
0
  0
LINE
  8
0
 62
7
 10
1624.652197675814
 20
286.3902442482009
 30
0
 11
1627.337279894847
 21
286.3902442482009
 31
0
  0
LINE
  8
0
 62
7
 10
1627.337279894847
 20
286.3902442482009
 30
0
 11
1627.493962742251
 21
287.2790377738103
 31
0
  0
LINE
  8
0
 62
7
 10
1627.493962742251
 20
287.2790377738103
 30
0
 11
1626.177515197137
 21
287.2790377738103
 31
0
  0
LINE
  8
0
 62
7
 10
1626.177515197137
 20
287.2790377738103
 30
0
 11
1626.183654929238
 21
287.2917336687038
 31
0
  0
LINE
  8
0
 62
7
 10
1626.933561766317
 20
288.0216866195064
 30
0
 11
1627.708049755981
 21
288.8347386577644
 31
0
  0
LINE
  8
0
 62
7
 10
1627.708049755981
 20
288.8347386577644
 30
0
 11
1627.837313068175
 21
289.5012992484334
 31
0
  0
LINE
  8
0
 62
7
 10
1627.837313068175
 20
289.5012992484334
 30
0
 11
1625.226221682396
 21
289.5012992484334
 31
0
  0
LINE
  8
0
 62
7
 10
1625.226221682396
 20
289.5012992484334
 30
0
 11
1625.069573491189
 21
288.6123669848838
 31
0
  0
LINE
  8
0
 62
7
 10
1625.069573491189
 20
288.6123669848838
 30
0
 11
1626.329795551875
 21
288.6123669848838
 31
0
  0
LINE
  8
0
 62
7
 10
1626.329795551875
 20
288.6123669848838
 30
0
 11
1626.317316180099
 21
288.5997494542119
 31
0
  0
LINE
  8
0
 62
7
 10
1632.2847797806
 20
288.8038181079961
 30
0
 11
1631.859275022991
 21
286.3902442482009
 31
0
  0
LINE
  8
0
 62
7
 10
1631.859275022991
 20
286.3902442482009
 30
0
 11
1632.933384351493
 21
286.3902442482009
 31
0
  0
LINE
  8
0
 62
7
 10
1632.933384351493
 20
286.3902442482009
 30
0
 11
1633.408701771621
 21
289.08626309496
 31
0
  0
LINE
  8
1
 62
7
 10
1640.565336403073
 20
225.8412762795969
 30
0
 11
1616.065336403073
 21
225.8412762795969
 31
0
  0
LINE
  8
1
 62
7
 10
1641.065336403073
 20
219.2702084677315
 30
0
 11
1641.065336403073
 21
225.3412762795969
 31
0
  0
LINE
  8
1
 62
7
 10
1616.065336403073
 20
218.7702084677315
 30
0
 11
1640.565336403073
 21
218.7702084677315
 31
0
  0
LINE
  8
1
 62
7
 10
1615.565336403073
 20
225.3412762795969
 30
0
 11
1615.565336403073
 21
219.2702084677315
 31
0
  0
LINE
  8
0
 62
7
 10
1634.585681332161
 20
224.6391947515799
 30
0
 11
1633.762958210039
 21
219.9726121691178
 31
0
  0
LINE
  8
0
 62
7
 10
1633.762958210039
 20
219.9726121691178
 30
0
 11
1634.836997897483
 21
219.9726121691178
 31
0
  0
LINE
  8
0
 62
7
 10
1634.836997897483
 20
219.9726121691178
 30
0
 11
1635.65989479362
 21
224.6391947515799
 31
0
  0
LINE
  8
0
 62
7
 10
1635.65989479362
 20
224.6391947515799
 30
0
 11
1634.585681332161
 21
224.6391947515799
 31
0
  0
LINE
  8
0
 62
7
 10
1622.715232787202
 20
219.9726121431051
 30
0
 11
1623.807922045577
 21
219.9726121691178
 31
0
  0
LINE
  8
0
 62
7
 10
1624.0773679324
 20
221.7439597825372
 30
0
 11
1624.079890123428
 21
221.7561117909966
 31
0
  0
LINE
  8
0
 62
7
 10
1622.341187207107
 20
219.9764251912837
 30
0
 11
1622.826435880212
 21
220.8614750072624
 31
0
  0
LINE
  8
0
 62
7
 10
1622.826435880212
 20
220.8614750072624
 30
0
 11
1622.837251235333
 21
220.8614750742802
 31
0
  0
LINE
  8
0
 62
7
 10
1629.456420444308
 20
222.3810289672591
 30
0
 11
1629.894021637001
 21
224.6391947515799
 31
0
  0
LINE
  8
0
 62
7
 10
1629.894021637001
 20
224.6391947515799
 30
0
 11
1628.819912513853
 21
224.6391947515799
 31
0
  0
LINE
  8
0
 62
7
 10
1628.819912513853
 20
224.6391947515799
 30
0
 11
1628.177218290233
 21
221.3224414784395
 31
0
  0
LINE
  8
0
 62
7
 10
1629.911145921996
 20
223.07981940435
 30
0
 11
1629.426087782674
 21
222.1948042388642
 31
0
  0
LINE
  8
0
 62
7
 10
1629.426087782674
 20
222.1948042388642
 30
0
 11
1629.414441642427
 21
222.1948042388642
 31
0
  0
LINE
  8
0
 62
7
 10
1625.55671705207
 20
221.4523521229789
 30
0
 11
1624.773748125984
 21
220.6621551256062
 31
0
  0
LINE
  8
0
 62
7
 10
1624.773748125984
 20
220.6621551256062
 30
0
 11
1624.652197675813
 21
219.9726121691178
 31
0
  0
LINE
  8
0
 62
7
 10
1624.652197675813
 20
219.9726121691178
 30
0
 11
1627.337279894846
 21
219.9726121691178
 31
0
  0
LINE
  8
0
 62
7
 10
1627.337279894846
 20
219.9726121691178
 30
0
 11
1627.493962742249
 21
220.8614056947274
 31
0
  0
LINE
  8
0
 62
7
 10
1627.493962742249
 20
220.8614056947274
 30
0
 11
1626.177515197135
 21
220.8614056947274
 31
0
  0
LINE
  8
0
 62
7
 10
1626.177515197135
 20
220.8614056947274
 30
0
 11
1626.183654929236
 21
220.8741015896207
 31
0
  0
LINE
  8
0
 62
7
 10
1626.933561766315
 20
221.6040545404235
 30
0
 11
1627.70804975598
 21
222.4171065786814
 31
0
  0
LINE
  8
0
 62
7
 10
1627.70804975598
 20
222.4171065786814
 30
0
 11
1627.837313068173
 21
223.0836671693505
 31
0
  0
LINE
  8
0
 62
7
 10
1627.837313068173
 20
223.0836671693505
 30
0
 11
1625.226221682394
 21
223.0836671693505
 31
0
  0
LINE
  8
0
 62
7
 10
1625.226221682394
 20
223.0836671693505
 30
0
 11
1625.069573491188
 21
222.1947349058007
 31
0
  0
LINE
  8
0
 62
7
 10
1625.069573491188
 20
222.1947349058007
 30
0
 11
1626.329795551873
 21
222.1947349058007
 31
0
  0
LINE
  8
0
 62
7
 10
1626.329795551873
 20
222.1947349058007
 30
0
 11
1626.317316180098
 21
222.182117375129
 31
0
  0
LINE
  8
0
 62
7
 10
1632.284779780598
 20
222.386186028913
 30
0
 11
1631.85927502299
 21
219.9726121691178
 31
0
  0
LINE
  8
0
 62
7
 10
1631.85927502299
 20
219.9726121691178
 30
0
 11
1632.933384351491
 21
219.9726121691178
 31
0
  0
LINE
  8
0
 62
7
 10
1632.933384351491
 20
219.9726121691178
 30
0
 11
1633.408701771619
 21
222.668631015877
 31
0
  0
LINE
  8
1
 62
2
 10
1526.962246271383
 20
162.194072441339
 30
0
 11
1525.159123979357
 21
162.194072441339
 31
0
  0
LINE
  8
1
 62
2
 10
1525.159123979357
 20
162.194072441339
 30
0
 11
1524.706439606998
 21
162.088006424161
 31
0
  0
LINE
  8
1
 62
2
 10
1524.706439606998
 20
162.088006424161
 30
0
 11
1524.33140094817
 21
161.875874389805
 31
0
  0
LINE
  8
1
 62
2
 10
1524.33140094817
 20
161.875874389805
 30
0
 11
1524.062428306519
 21
161.6637423554491
 31
0
  0
LINE
  8
1
 62
2
 10
1524.062428306519
 20
161.6637423554491
 30
0
 11
1523.8711013784
 21
161.3455443039151
 31
0
  0
LINE
  8
1
 62
2
 10
1523.8711013784
 20
161.3455443039151
 30
0
 11
1523.651354146633
 21
160.9212802352032
 31
0
  0
LINE
  8
1
 62
2
 10
1523.651354146633
 20
160.9212802352032
 30
0
 11
1523.196629288277
 21
159.2242239603555
 31
0
  0
LINE
  8
1
 62
2
 10
1523.196629288277
 20
159.2242239603555
 30
0
 11
1523.189014090866
 21
158.7999598916435
 31
0
  0
LINE
  8
1
 62
2
 10
1523.189014090866
 20
158.7999598916435
 30
0
 11
1523.209819197102
 21
158.4817618401096
 31
0
  0
LINE
  8
1
 62
2
 10
1523.209819197102
 20
158.4817618401096
 30
0
 11
1523.365110624164
 21
158.2696298057536
 31
0
  0
LINE
  8
1
 62
2
 10
1523.365110624164
 20
158.2696298057536
 30
0
 11
1523.732534085581
 21
158.0574977713977
 31
0
  0
LINE
  8
1
 62
2
 10
1523.732534085581
 20
158.0574977713977
 30
0
 11
1524.022311833468
 21
157.9514317542197
 31
0
  0
LINE
  8
1
 62
2
 10
1524.022311833468
 20
157.9514317542197
 30
0
 11
1525.825434125494
 21
157.9514317542197
 31
0
  0
LINE
  8
1
 62
2
 10
1525.825434125494
 20
157.9514317542197
 30
0
 11
1526.450680805733
 21
160.2848841321353
 31
0
  0
LINE
  8
1
 62
2
 10
1526.450680805733
 20
160.2848841321353
 30
0
 11
1525.390020633953
 21
160.2848841321353
 31
0
  0
LINE
  8
1
 62
2
 10
1527.893994833752
 20
160.9212802352032
 30
0
 11
1529.507830683654
 21
162.194072441339
 31
0
  0
LINE
  8
1
 62
2
 10
1529.507830683654
 20
162.194072441339
 30
0
 11
1528.371018537765
 21
157.9514317542197
 31
0
  0
LINE
  8
1
 62
2
 10
1534.811131542554
 20
162.194072441339
 30
0
 11
1534.159505044664
 21
161.3455443039151
 31
0
  0
LINE
  8
1
 62
2
 10
1534.159505044664
 20
161.3455443039151
 30
0
 11
1533.72001058113
 21
160.4970161664913
 31
0
  0
LINE
  8
1
 62
2
 10
1533.72001058113
 20
160.4970161664913
 30
0
 11
1533.492648151952
 21
159.6484880290674
 31
0
  0
LINE
  8
1
 62
2
 10
1533.492648151952
 20
159.6484880290674
 30
0
 11
1533.47741775713
 21
158.7999598916435
 31
0
  0
LINE
  8
1
 62
2
 10
1533.47741775713
 20
158.7999598916435
 30
0
 11
1533.674319396665
 21
157.9514317542197
 31
0
  0
LINE
  8
1
 62
2
 10
1536.265594993402
 20
160.4970161664913
 30
0
 11
1537.326255165182
 21
160.4970161664913
 31
0
  0
LINE
  8
1
 62
2
 10
1536.083923748689
 20
162.194072441339
 30
0
 11
1537.674914006359
 21
162.194072441339
 31
0
  0
LINE
  8
1
 62
2
 10
1537.674914006359
 20
162.194072441339
 30
0
 11
1538.176823788602
 21
162.088006424161
 31
0
  0
LINE
  8
1
 62
2
 10
1538.176823788602
 20
162.088006424161
 30
0
 11
1538.438181232841
 21
161.875874389805
 31
0
  0
LINE
  8
1
 62
2
 10
1538.438181232841
 20
161.875874389805
 30
0
 11
1538.458986339078
 21
161.5576763382711
 31
0
  0
LINE
  8
1
 62
2
 10
1538.458986339078
 20
161.5576763382711
 30
0
 11
1538.373725428136
 21
161.2394782867371
 31
0
  0
LINE
  8
1
 62
2
 10
1538.373725428136
 20
161.2394782867371
 30
0
 11
1538.182398500016
 21
160.9212802352032
 31
0
  0
LINE
  8
1
 62
2
 10
1538.182398500016
 20
160.9212802352032
 30
0
 11
1537.913425858366
 21
160.7091482008472
 31
0
  0
LINE
  8
1
 62
2
 10
1537.913425858366
 20
160.7091482008472
 30
0
 11
1537.672873520363
 21
160.6030821836692
 31
0
  0
LINE
  8
1
 62
2
 10
1537.672873520363
 20
160.6030821836692
 30
0
 11
1537.326255165182
 21
160.4970161664913
 31
0
  0
LINE
  8
1
 62
2
 10
1537.326255165182
 20
160.4970161664913
 30
0
 11
1537.722098930246
 21
160.3909501493133
 31
0
  0
LINE
  8
1
 62
2
 10
1537.722098930246
 20
160.3909501493133
 30
0
 11
1537.877390357308
 21
160.1788181149573
 31
0
  0
LINE
  8
1
 62
2
 10
1537.877390357308
 20
160.1788181149573
 30
0
 11
1537.926615767191
 21
159.9666860806013
 31
0
  0
LINE
  8
1
 62
2
 10
1537.926615767191
 20
159.9666860806013
 30
0
 11
1537.91900056978
 21
159.5424220118894
 31
0
  0
LINE
  8
1
 62
2
 10
1537.91900056978
 20
159.5424220118894
 30
0
 11
1537.776899051544
 21
159.0120919259995
 31
0
  0
LINE
  8
1
 62
2
 10
1537.776899051544
 20
159.0120919259995
 30
0
 11
1537.557151819777
 21
158.5878278572876
 31
0
  0
LINE
  8
1
 62
2
 10
1537.557151819777
 20
158.5878278572876
 30
0
 11
1537.25975887448
 21
158.2696298057536
 31
0
  0
LINE
  8
1
 62
2
 10
1537.25975887448
 20
158.2696298057536
 30
0
 11
1536.884720215651
 21
158.0574977713977
 31
0
  0
LINE
  8
1
 62
2
 10
1536.884720215651
 20
158.0574977713977
 30
0
 11
1536.53810186047
 21
157.9514317542197
 31
0
  0
LINE
  8
1
 62
2
 10
1536.53810186047
 20
157.9514317542197
 30
0
 11
1534.9471116028
 21
157.9514317542197
 31
0
  0
LINE
  8
1
 62
2
 10
1540.083971611809
 20
160.4970161664913
 30
0
 11
1541.144631783589
 21
160.4970161664913
 31
0
  0
LINE
  8
1
 62
2
 10
1539.902300367097
 20
162.194072441339
 30
0
 11
1541.493290624767
 21
162.194072441339
 31
0
  0
LINE
  8
1
 62
2
 10
1541.493290624767
 20
162.194072441339
 30
0
 11
1541.995200407009
 21
162.088006424161
 31
0
  0
LINE
  8
1
 62
2
 10
1541.995200407009
 20
162.088006424161
 30
0
 11
1542.256557851249
 21
161.875874389805
 31
0
  0
LINE
  8
1
 62
2
 10
1542.256557851249
 20
161.875874389805
 30
0
 11
1542.277362957485
 21
161.5576763382711
 31
0
  0
LINE
  8
1
 62
2
 10
1542.277362957485
 20
161.5576763382711
 30
0
 11
1542.192102046543
 21
161.2394782867371
 31
0
  0
LINE
  8
1
 62
2
 10
1542.192102046543
 20
161.2394782867371
 30
0
 11
1542.000775118424
 21
160.9212802352032
 31
0
  0
LINE
  8
1
 62
2
 10
1542.000775118424
 20
160.9212802352032
 30
0
 11
1541.731802476773
 21
160.7091482008472
 31
0
  0
LINE
  8
1
 62
2
 10
1541.731802476773
 20
160.7091482008472
 30
0
 11
1541.49125013877
 21
160.6030821836692
 31
0
  0
LINE
  8
1
 62
2
 10
1541.49125013877
 20
160.6030821836692
 30
0
 11
1541.144631783589
 21
160.4970161664913
 31
0
  0
LINE
  8
1
 62
2
 10
1541.144631783589
 20
160.4970161664913
 30
0
 11
1541.540475548654
 21
160.3909501493133
 31
0
  0
LINE
  8
1
 62
2
 10
1541.540475548654
 20
160.3909501493133
 30
0
 11
1541.695766975715
 21
160.1788181149573
 31
0
  0
LINE
  8
1
 62
2
 10
1541.695766975715
 20
160.1788181149573
 30
0
 11
1541.744992385599
 21
159.9666860806013
 31
0
  0
LINE
  8
1
 62
2
 10
1541.744992385599
 20
159.9666860806013
 30
0
 11
1541.737377188188
 21
159.5424220118894
 31
0
  0
LINE
  8
1
 62
2
 10
1541.737377188188
 20
159.5424220118894
 30
0
 11
1541.595275669952
 21
159.0120919259995
 31
0
  0
LINE
  8
1
 62
2
 10
1541.595275669952
 20
159.0120919259995
 30
0
 11
1541.375528438185
 21
158.5878278572876
 31
0
  0
LINE
  8
1
 62
2
 10
1541.375528438185
 20
158.5878278572876
 30
0
 11
1541.078135492887
 21
158.2696298057536
 31
0
  0
LINE
  8
1
 62
2
 10
1541.078135492887
 20
158.2696298057536
 30
0
 11
1540.703096834059
 21
158.0574977713977
 31
0
  0
LINE
  8
1
 62
2
 10
1540.703096834059
 20
158.0574977713977
 30
0
 11
1540.356478478878
 21
157.9514317542197
 31
0
  0
LINE
  8
1
 62
2
 10
1540.356478478878
 20
157.9514317542197
 30
0
 11
1538.765488221208
 21
157.9514317542197
 31
0
  0
LINE
  8
1
 62
2
 10
1542.583864839615
 20
157.9514317542197
 30
0
 11
1542.612285143262
 21
158.0574977713977
 31
0
  0
LINE
  8
1
 62
2
 10
1542.612285143262
 20
158.0574977713977
 30
0
 11
1542.71835116044
 21
158.0574977713977
 31
0
  0
LINE
  8
1
 62
2
 10
1542.71835116044
 20
158.0574977713977
 30
0
 11
1542.689930856793
 21
157.9514317542197
 31
0
  0
LINE
  8
1
 62
2
 10
1542.689930856793
 20
157.9514317542197
 30
0
 11
1542.583864839615
 21
157.9514317542197
 31
0
  0
LINE
  8
1
 62
2
 10
1544.929013386935
 20
161.5576763382711
 30
0
 11
1545.226406332232
 21
161.875874389805
 31
0
  0
LINE
  8
1
 62
2
 10
1545.226406332232
 20
161.875874389805
 30
0
 11
1545.60144499106
 21
162.088006424161
 31
0
  0
LINE
  8
1
 62
2
 10
1545.60144499106
 20
162.088006424161
 30
0
 11
1546.05412936342
 21
162.194072441339
 31
0
  0
LINE
  8
1
 62
2
 10
1546.05412936342
 20
162.194072441339
 30
0
 11
1546.690525466488
 21
162.194072441339
 31
0
  0
LINE
  8
1
 62
2
 10
1546.690525466488
 20
162.194072441339
 30
0
 11
1547.086369231552
 21
162.088006424161
 31
0
  0
LINE
  8
1
 62
2
 10
1547.086369231552
 20
162.088006424161
 30
0
 11
1547.347726675792
 21
161.875874389805
 31
0
  0
LINE
  8
1
 62
2
 10
1547.347726675792
 20
161.875874389805
 30
0
 11
1547.474597799206
 21
161.5576763382711
 31
0
  0
LINE
  8
1
 62
2
 10
1547.474597799206
 20
161.5576763382711
 30
0
 11
1547.360916584617
 21
161.1334122695591
 31
0
  0
LINE
  8
1
 62
2
 10
1547.360916584617
 20
161.1334122695591
 30
0
 11
1547.035103335672
 21
160.7091482008472
 31
0
  0
LINE
  8
1
 62
2
 10
1547.035103335672
 20
160.7091482008472
 30
0
 11
1543.962723062929
 21
157.9514317542197
 31
0
  0
LINE
  8
1
 62
2
 10
1543.962723062929
 20
157.9514317542197
 30
0
 11
1546.5083074752
 21
157.9514317542197
 31
0
  0
LINE
  8
1
 62
2
 10
1550.827100136429
 20
162.194072441339
 30
0
 11
1548.008462110514
 21
158.7999598916435
 31
0
  0
LINE
  8
1
 62
2
 10
1548.008462110514
 20
158.7999598916435
 30
0
 11
1550.554046522786
 21
158.7999598916435
 31
0
  0
LINE
  8
1
 62
2
 10
1550.145012848896
 20
159.6484880290674
 30
0
 11
1549.69028799054
 21
157.9514317542197
 31
0
  0
LINE
  8
1
 62
2
 10
1554.550560160487
 20
159.8606200634233
 30
0
 11
1553.065635919995
 21
159.8606200634233
 31
0
  0
LINE
  8
1
 62
2
 10
1553.065635919995
 20
159.8606200634233
 30
0
 11
1552.775858172109
 21
159.9666860806013
 31
0
  0
LINE
  8
1
 62
2
 10
1552.775858172109
 20
159.9666860806013
 30
0
 11
1552.514500727869
 21
160.1788181149573
 31
0
  0
LINE
  8
1
 62
2
 10
1552.514500727869
 20
160.1788181149573
 30
0
 11
1552.387629604455
 21
160.4970161664913
 31
0
  0
LINE
  8
1
 62
2
 10
1552.387629604455
 20
160.4970161664913
 30
0
 11
1552.395244801866
 21
160.9212802352032
 31
0
  0
LINE
  8
1
 62
2
 10
1552.395244801866
 20
160.9212802352032
 30
0
 11
1552.45208540916
 21
161.1334122695591
 31
0
  0
LINE
  8
1
 62
2
 10
1552.45208540916
 20
161.1334122695591
 30
0
 11
1552.671832640927
 21
161.5576763382711
 31
0
  0
LINE
  8
1
 62
2
 10
1552.671832640927
 20
161.5576763382711
 30
0
 11
1552.969225586225
 21
161.875874389805
 31
0
  0
LINE
  8
1
 62
2
 10
1552.969225586225
 20
161.875874389805
 30
0
 11
1553.344264245053
 21
162.088006424161
 31
0
  0
LINE
  8
1
 62
2
 10
1553.344264245053
 20
162.088006424161
 30
0
 11
1553.690882600235
 21
162.194072441339
 31
0
  0
LINE
  8
1
 62
2
 10
1553.690882600235
 20
162.194072441339
 30
0
 11
1554.327278703303
 21
162.194072441339
 31
0
  0
LINE
  8
1
 62
2
 10
1554.327278703303
 20
162.194072441339
 30
0
 11
1554.617056451189
 21
162.088006424161
 31
0
  0
LINE
  8
1
 62
2
 10
1554.617056451189
 20
162.088006424161
 30
0
 11
1554.878413895429
 21
161.875874389805
 31
0
  0
LINE
  8
1
 62
2
 10
1554.878413895429
 20
161.875874389805
 30
0
 11
1555.005285018843
 21
161.5576763382711
 31
0
  0
LINE
  8
1
 62
2
 10
1555.005285018843
 20
161.5576763382711
 30
0
 11
1554.997669821432
 21
161.1334122695591
 31
0
  0
LINE
  8
1
 62
2
 10
1554.997669821432
 20
161.1334122695591
 30
0
 11
1554.798727695901
 21
160.3909501493133
 31
0
  0
LINE
  8
1
 62
2
 10
1554.798727695901
 20
160.3909501493133
 30
0
 11
1554.550560160487
 21
159.8606200634233
 31
0
  0
LINE
  8
1
 62
2
 10
1554.550560160487
 20
159.8606200634233
 30
0
 11
1554.33081292872
 21
159.4363559947114
 31
0
  0
LINE
  8
1
 62
2
 10
1554.33081292872
 20
159.4363559947114
 30
0
 11
1553.898933662598
 21
159.0120919259995
 31
0
  0
LINE
  8
1
 62
2
 10
1553.898933662598
 20
159.0120919259995
 30
0
 11
1552.985949720468
 21
158.3756958229316
 31
0
  0
LINE
  8
1
 62
2
 10
1552.985949720468
 20
158.3756958229316
 30
0
 11
1551.917674351278
 21
157.9514317542197
 31
0
  0
LINE
  8
1
 62
2
 10
1559.982602588297
 20
161.0008297480867
 30
0
 11
1559.236569617558
 21
158.2165967971646
 31
0
  0
LINE
  8
1
 62
2
 10
1559.236569617558
 20
158.2165967971646
 30
0
 11
1560.768634310128
 21
158.2165967971646
 31
0
  0
LINE
  8
1
 62
2
 10
1562.300699002699
 20
158.2165967971646
 30
0
 11
1563.046731973439
 21
161.0008297480867
 31
0
  0
LINE
  8
1
 62
2
 10
1561.763344937781
 20
161.928907398394
 30
0
 11
1560.768634310128
 21
158.2165967971646
 31
0
  0
LINE
  8
1
 62
2
 10
1560.768634310128
 20
158.2165967971646
 30
0
 11
1562.300699002699
 21
158.2165967971646
 31
0
  0
LINE
  8
1
 62
2
 10
1563.850374657088
 20
160.9212802352032
 30
0
 11
1565.46421050699
 21
162.194072441339
 31
0
  0
LINE
  8
1
 62
2
 10
1565.46421050699
 20
162.194072441339
 30
0
 11
1564.327398361101
 21
157.9514317542197
 31
0
  0
LINE
  8
1
 62
2
 10
1566.39595906936
 20
160.9212802352032
 30
0
 11
1568.009794919262
 21
162.194072441339
 31
0
  0
LINE
  8
1
 62
2
 10
1568.009794919262
 20
162.194072441339
 30
0
 11
1566.872982773373
 21
157.9514317542197
 31
0
  0
LINE
  8
1
 62
2
 10
1569.282587125398
 20
162.194072441339
 30
0
 11
1569.479488764932
 21
161.3455443039151
 31
0
  0
LINE
  8
1
 62
2
 10
1569.479488764932
 20
161.3455443039151
 30
0
 11
1569.46425837011
 21
160.4970161664913
 31
0
  0
LINE
  8
1
 62
2
 10
1569.46425837011
 20
160.4970161664913
 30
0
 11
1569.236895940932
 21
159.6484880290674
 31
0
  0
LINE
  8
1
 62
2
 10
1569.236895940932
 20
159.6484880290674
 30
0
 11
1568.797401477399
 21
158.7999598916435
 31
0
  0
LINE
  8
1
 62
2
 10
1568.797401477399
 20
158.7999598916435
 30
0
 11
1568.145774979509
 21
157.9514317542197
 31
0
  0
LINE
  8
1
 62
2
 10
1542.717585562318
 20
93.16368141166024
 30
0
 11
1544.013947994494
 21
93.69401149755015
 31
0
  0
LINE
  8
1
 62
2
 10
1543.778245734098
 20
93.82659401902264
 30
0
 11
1543.896096864296
 21
94.48950662638502
 31
0
  0
LINE
  8
1
 62
2
 10
1544.013947994494
 20
94.88725419080245
 30
0
 11
1542.835436692516
 21
94.88725419080245
 31
0
  0
LINE
  8
1
 62
2
 10
1542.953287822714
 20
95.55016679816484
 30
0
 11
1543.424692343505
 21
95.55016679816484
 31
0
  0
LINE
  8
1
 62
2
 10
1544.131799124691
 20
96.21307940552723
 30
0
 11
1543.424692343505
 21
97.0085745343621
 31
0
  0
LINE
  8
1
 62
2
 10
1543.424692343505
 20
97.0085745343621
 30
0
 11
1542.953287822714
 21
96.08049688405475
 31
0
  0
LINE
  8
1
 62
2
 10
1542.953287822714
 20
96.08049688405475
 30
0
 11
1542.481883301923
 21
95.15241923374741
 31
0
  0
LINE
  8
1
 62
2
 10
1542.835436692516
 20
94.48950662638502
 30
0
 11
1543.071138952912
 21
93.82659401902264
 31
0
  0
LINE
  8
1
 62
2
 10
1543.424692343505
 20
93.42884645460519
 30
0
 11
1543.424692343505
 21
95.55016679816484
 31
0
  0
LINE
  8
1
 62
2
 10
1544.131799124691
 20
95.41758427669237
 30
0
 11
1546.253119468251
 21
95.41758427669237
 31
0
  0
LINE
  8
1
 62
2
 10
1546.253119468251
 20
94.62208914785749
 30
0
 11
1544.249650254889
 21
94.62208914785749
 31
0
  0
LINE
  8
1
 62
2
 10
1544.131799124691
 20
93.29626393313272
 30
0
 11
1544.603203645482
 21
94.09175906196758
 31
0
  0
LINE
  8
1
 62
2
 10
1544.603203645482
 20
94.09175906196758
 30
0
 11
1544.956757036076
 21
95.41758427669237
 31
0
  0
LINE
  8
1
 62
2
 10
1544.956757036076
 20
95.41758427669237
 30
0
 11
1545.074608166273
 21
97.0085745343621
 31
0
  0
LINE
  8
1
 62
2
 10
1544.249650254889
 20
96.61082696994467
 30
0
 11
1546.017417207855
 21
96.61082696994467
 31
0
  0
LINE
  8
1
 62
2
 10
1546.017417207855
 20
95.94791436258227
 30
0
 11
1544.367501385087
 21
95.94791436258227
 31
0
  0
LINE
  8
1
 62
2
 10
1545.78171494746
 20
95.15241923374741
 30
0
 11
1545.78171494746
 21
93.03109889018776
 31
0
  0
LINE
  8
1
 62
2
 10
1545.78171494746
 20
93.03109889018776
 30
0
 11
1545.310310426669
 21
93.03109889018776
 31
0
  0
LINE
  8
1
 62
2
 10
1545.310310426669
 20
93.56142897607768
 30
0
 11
1545.074608166273
 21
94.22434158344007
 31
0
  0
LINE
  8
1
 62
2
 10
1543.424692343505
 20
95.55016679816484
 30
0
 11
1544.013947994494
 21
95.55016679816484
 31
0
  0
LINE
  8
1
 62
2
 10
1546.960226249437
 20
93.42884645460519
 30
0
 11
1547.549481900426
 21
93.95917654049511
 31
0
  0
LINE
  8
1
 62
2
 10
1547.549481900426
 20
93.95917654049511
 30
0
 11
1547.549481900426
 21
95.41758427669237
 31
0
  0
LINE
  8
1
 62
2
 10
1547.549481900426
 20
95.41758427669237
 30
0
 11
1546.960226249437
 21
95.41758427669237
 31
0
  0
LINE
  8
1
 62
2
 10
1547.549481900426
 20
93.95917654049511
 30
0
 11
1547.785184160822
 21
93.42884645460519
 31
0
  0
LINE
  8
1
 62
2
 10
1547.785184160822
 20
93.42884645460519
 30
0
 11
1548.020886421217
 21
93.29626393313272
 31
0
  0
LINE
  8
1
 62
2
 10
1548.020886421217
 20
93.29626393313272
 30
0
 11
1550.377909025172
 21
93.29626393313272
 31
0
  0
LINE
  8
1
 62
2
 10
1549.788653374184
 20
93.95917654049511
 30
0
 11
1549.788653374184
 21
95.01983671227492
 31
0
  0
LINE
  8
1
 62
2
 10
1549.788653374184
 20
95.01983671227492
 30
0
 11
1548.492290942008
 21
95.01983671227492
 31
0
  0
LINE
  8
1
 62
2
 10
1548.492290942008
 20
95.01983671227492
 30
0
 11
1548.492290942008
 21
93.95917654049511
 31
0
  0
LINE
  8
1
 62
2
 10
1548.492290942008
 20
93.95917654049511
 30
0
 11
1549.788653374184
 21
93.95917654049511
 31
0
  0
LINE
  8
1
 62
2
 10
1550.260057894974
 20
95.55016679816484
 30
0
 11
1549.081546592997
 21
95.55016679816484
 31
0
  0
LINE
  8
1
 62
2
 10
1549.081546592997
 20
95.55016679816484
 30
0
 11
1549.081546592997
 21
97.27373957730706
 31
0
  0
LINE
  8
1
 62
2
 10
1550.024355634579
 20
96.47824444847218
 30
0
 11
1548.256588681613
 21
96.47824444847218
 31
0
  0
LINE
  8
1
 62
2
 10
1548.492290942008
 20
97.14115705583457
 30
0
 11
1548.256588681613
 21
96.47824444847218
 31
0
  0
LINE
  8
1
 62
2
 10
1548.256588681613
 20
96.47824444847218
 30
0
 11
1548.020886421217
 21
96.08049688405475
 31
0
  0
LINE
  8
1
 62
2
 10
1547.549481900426
 20
96.61082696994467
 30
0
 11
1547.195928509833
 21
97.14115705583457
 31
0
  0
LINE
  8
1
 62
2
 10
1546.960226249437
 20
93.42884645460519
 30
0
 11
1546.84237511924
 21
93.29626393313272
 31
0
  0
LINE
  8
1
 62
2
 10
1546.960226249437
 20
95.41758427669237
 30
0
 11
1546.84237511924
 21
95.41758427669237
 31
0
  0
LINE
  8
1
 62
2
 10
1549.081546592997
 20
95.55016679816484
 30
0
 11
1548.020886421217
 21
95.55016679816484
 31
0
  0
LINE
  8
1
 62
2
 10
1552.145675978139
 20
97.27373957730706
 30
0
 11
1551.909973717743
 21
96.87599201288961
 31
0
  0
LINE
  8
1
 62
2
 10
1551.909973717743
 20
96.87599201288961
 30
0
 11
1551.55642032715
 21
96.34566192699971
 31
0
  0
LINE
  8
1
 62
2
 10
1551.55642032715
 20
96.34566192699971
 30
0
 11
1551.202866936557
 21
95.94791436258227
 31
0
  0
LINE
  8
1
 62
2
 10
1551.792122587545
 20
96.61082696994467
 30
0
 11
1552.852782759325
 21
96.61082696994467
 31
0
  0
LINE
  8
1
 62
2
 10
1552.852782759325
 20
96.61082696994467
 30
0
 11
1552.852782759325
 21
93.03109889018776
 31
0
  0
LINE
  8
1
 62
2
 10
1551.674271457348
 20
95.55016679816484
 30
0
 11
1554.031294061303
 21
95.55016679816484
 31
0
  0
LINE
  8
1
 62
2
 10
1551.674271457348
 20
95.41758427669237
 30
0
 11
1551.674271457348
 21
94.48950662638502
 31
0
  0
LINE
  8
1
 62
2
 10
1550.967164676161
 20
94.48950662638502
 30
0
 11
1551.674271457348
 21
94.48950662638502
 31
0
  0
LINE
  8
1
 62
2
 10
1551.674271457348
 20
94.48950662638502
 30
0
 11
1554.738400842489
 21
94.48950662638502
 31
0
  0
LINE
  8
1
 62
2
 10
1552.852782759325
 20
96.61082696994467
 30
0
 11
1554.149145191501
 21
96.61082696994467
 31
0
  0
LINE
  8
1
 62
2
 10
1555.349488644274
 20
80.88713465887697
 30
0
 11
1555.349488644274
 21
85.12977534599627
 31
0
  0
LINE
  8
1
 62
2
 10
1555.938744295263
 20
83.93653265274396
 30
0
 11
1554.642381863087
 21
83.93653265274396
 31
0
  0
LINE
  8
1
 62
2
 10
1554.524530732889
 20
82.21295987360175
 30
0
 11
1554.995935253681
 21
83.00845500243662
 31
0
  0
LINE
  8
1
 62
2
 10
1554.995935253681
 20
83.00845500243662
 30
0
 11
1555.349488644274
 21
83.80395013127148
 31
0
  0
LINE
  8
1
 62
2
 10
1555.349488644274
 20
83.80395013127148
 30
0
 11
1555.938744295263
 21
82.87587248096413
 31
0
  0
LINE
  8
1
 62
2
 10
1556.05659542546
 20
81.68262978771185
 30
0
 11
1556.763702206647
 21
82.47812491654671
 31
0
  0
LINE
  8
1
 62
2
 10
1556.763702206647
 20
82.47812491654671
 30
0
 11
1557.352957857636
 21
83.67136760979901
 31
0
  0
LINE
  8
1
 62
2
 10
1558.060064638822
 20
83.80395013127148
 30
0
 11
1556.292297685856
 21
83.80395013127148
 31
0
  0
LINE
  8
1
 62
2
 10
1557.352957857636
 20
84.99719282452378
 30
0
 11
1557.470808987833
 21
81.15229970182193
 31
0
  0
LINE
  8
1
 62
2
 10
1557.470808987833
 20
81.15229970182193
 30
0
 11
1557.11725559724
 21
81.15229970182193
 31
0
  0
LINE
  8
1
 62
2
 10
1558.767171420009
 20
81.68262978771185
 30
0
 11
1559.120724810602
 21
82.34554239507423
 31
0
  0
LINE
  8
1
 62
2
 10
1559.120724810602
 20
82.34554239507423
 30
0
 11
1559.592129331393
 21
83.53878508832653
 31
0
  0
LINE
  8
1
 62
2
 10
1560.417087242777
 20
83.53878508832653
 30
0
 11
1558.767171420009
 21
83.53878508832653
 31
0
  0
LINE
  8
1
 62
2
 10
1558.885022550207
 20
84.59944526010635
 30
0
 11
1559.2385759408
 21
84.06911517421644
 31
0
  0
LINE
  8
1
 62
2
 10
1559.945682721986
 20
84.20169769568892
 30
0
 11
1560.181384982382
 21
84.73202778157882
 31
0
  0
LINE
  8
1
 62
2
 10
1559.592129331393
 20
84.99719282452378
 30
0
 11
1559.592129331393
 21
83.53878508832653
 31
0
  0
LINE
  8
1
 62
2
 10
1559.945682721986
 20
83.00845500243662
 30
0
 11
1560.181384982382
 21
82.47812491654671
 31
0
  0
LINE
  8
1
 62
2
 10
1560.417087242777
 20
82.34554239507423
 30
0
 11
1562.420556456139
 21
82.74328995949166
 31
0
  0
LINE
  8
1
 62
2
 10
1561.124194023964
 20
83.27362004538158
 30
0
 11
1560.770640633371
 21
83.80395013127148
 31
0
  0
LINE
  8
1
 62
2
 10
1561.124194023964
 20
84.33428021716139
 30
0
 11
1560.770640633371
 21
84.86461030305131
 31
0
  0
LINE
  8
1
 62
2
 10
1561.713449674953
 20
85.12977534599627
 30
0
 11
1561.713449674953
 21
80.88713465887697
 31
0
  0
LINE
  8
1
 62
2
 10
1559.592129331393
 20
83.53878508832653
 30
0
 11
1559.592129331393
 21
81.01971718034945
 31
0
  0
LINE
  8
1
 62
2
 10
1563.127663237326
 20
81.15229970182193
 30
0
 11
1563.127663237326
 21
82.21295987360175
 31
0
  0
LINE
  8
1
 62
2
 10
1563.127663237326
 20
82.21295987360175
 30
0
 11
1564.070472278908
 21
82.21295987360175
 31
0
  0
LINE
  8
1
 62
2
 10
1564.070472278908
 20
82.21295987360175
 30
0
 11
1564.070472278908
 21
81.15229970182193
 31
0
  0
LINE
  8
1
 62
2
 10
1564.070472278908
 20
81.15229970182193
 30
0
 11
1563.127663237326
 21
81.15229970182193
 31
0
  0
LINE
  8
1
 62
2
 10
1563.127663237326
 20
82.74328995949166
 30
0
 11
1564.070472278908
 21
82.74328995949166
 31
0
  0
LINE
  8
1
 62
2
 10
1564.070472278908
 20
83.40620256685405
 30
0
 11
1563.127663237326
 21
83.40620256685405
 31
0
  0
LINE
  8
1
 62
2
 10
1562.89196097693
 20
83.93653265274396
 30
0
 11
1564.424025669501
 21
83.93653265274396
 31
0
  0
LINE
  8
1
 62
2
 10
1563.009812107128
 20
84.59944526010635
 30
0
 11
1564.070472278908
 21
84.59944526010635
 31
0
  0
LINE
  8
1
 62
2
 10
1564.777579060095
 20
84.46686273863386
 30
0
 11
1566.07394149227
 21
84.46686273863386
 31
0
  0
LINE
  8
1
 62
2
 10
1566.07394149227
 20
84.46686273863386
 30
0
 11
1566.07394149227
 21
83.14103752390909
 31
0
  0
LINE
  8
1
 62
2
 10
1566.07394149227
 20
83.14103752390909
 30
0
 11
1564.777579060095
 21
83.14103752390909
 31
0
  0
LINE
  8
1
 62
2
 10
1564.777579060095
 20
83.14103752390909
 30
0
 11
1564.777579060095
 21
81.15229970182193
 31
0
  0
LINE
  8
1
 62
2
 10
1564.777579060095
 20
81.15229970182193
 30
0
 11
1565.248983580885
 21
81.15229970182193
 31
0
  0
LINE
  8
1
 62
2
 10
1565.248983580885
 20
81.15229970182193
 30
0
 11
1566.427494882863
 21
81.15229970182193
 31
0
  0
LINE
  8
1
 62
2
 10
1566.427494882863
 20
81.15229970182193
 30
0
 11
1566.427494882863
 21
81.55004726623936
 31
0
  0
LINE
  8
1
 62
2
 10
1568.077410705632
 20
84.86461030305131
 30
0
 11
1568.077410705632
 21
83.93653265274396
 31
0
  0
LINE
  8
1
 62
2
 10
1568.077410705632
 20
83.93653265274396
 30
0
 11
1569.963028788796
 21
83.93653265274396
 31
0
  0
LINE
  8
1
 62
2
 10
1569.963028788796
 20
83.93653265274396
 30
0
 11
1569.963028788796
 21
84.86461030305131
 31
0
  0
LINE
  8
1
 62
2
 10
1569.963028788796
 20
84.86461030305131
 30
0
 11
1568.077410705632
 21
84.86461030305131
 31
0
  0
LINE
  8
1
 62
2
 10
1567.252452794247
 20
83.27362004538158
 30
0
 11
1568.548815226423
 21
83.27362004538158
 31
0
  0
LINE
  8
1
 62
2
 10
1568.548815226423
 20
83.27362004538158
 30
0
 11
1568.195261835829
 21
81.94779483065679
 31
0
  0
LINE
  8
1
 62
2
 10
1568.313112966027
 20
82.47812491654671
 30
0
 11
1569.963028788796
 21
82.47812491654671
 31
0
  0
LINE
  8
1
 62
2
 10
1569.963028788796
 20
82.47812491654671
 30
0
 11
1569.7273265284
 21
81.68262978771185
 31
0
  0
LINE
  8
1
 62
2
 10
1569.7273265284
 20
81.68262978771185
 30
0
 11
1569.373773137807
 21
81.01971718034945
 31
0
  0
LINE
  8
1
 62
2
 10
1569.373773137807
 20
81.01971718034945
 30
0
 11
1569.138070877412
 21
80.88713465887697
 31
0
  0
LINE
  8
1
 62
2
 10
1569.138070877412
 20
80.88713465887697
 30
0
 11
1568.666666356621
 21
81.15229970182193
 31
0
  0
LINE
  8
1
 62
2
 10
1568.548815226423
 20
83.27362004538158
 30
0
 11
1570.670135569982
 21
83.27362004538158
 31
0
  0
LINE
  8
1
 62
2
 10
1561.713820481237
 20
76.65989966863256
 30
0
 11
1559.168236068965
 21
76.65989966863256
 31
0
  0
LINE
  8
1
 62
2
 10
1562.138084549949
 20
78.56908797783625
 30
0
 11
1559.168236068965
 21
78.56908797783625
 31
0
  0
LINE
  8
1
 62
2
 10
1559.168236068965
 20
78.56908797783625
 30
0
 11
1559.168236068965
 21
76.65989966863256
 31
0
  0
LINE
  8
1
 62
2
 10
1559.168236068965
 20
76.4477676342766
 30
0
 11
1559.168236068965
 21
74.32644729071696
 31
0
  0
LINE
  8
1
 62
2
 10
1559.168236068965
 20
74.32644729071696
 30
0
 11
1562.138084549949
 21
74.32644729071696
 31
0
  0
LINE
  8
1
 62
2
 10
1559.168236068965
 20
76.65989966863256
 30
0
 11
1559.168236068965
 21
76.4477676342766
 31
0
  0
LINE
  8
1
 62
2
 10
1536.341250561624
 20
90.32687643564525
 30
0
 11
1536.105548301229
 21
89.9291288712278
 31
0
  0
LINE
  8
1
 62
2
 10
1536.105548301229
 20
89.9291288712278
 30
0
 11
1535.869846040833
 21
89.26621626386542
 31
0
  0
LINE
  8
1
 62
2
 10
1535.869846040833
 20
89.26621626386542
 30
0
 11
1535.869846040833
 21
87.14489592030577
 31
0
  0
LINE
  8
1
 62
2
 10
1535.869846040833
 20
87.14489592030577
 30
0
 11
1536.105548301229
 21
86.48198331294339
 31
0
  0
LINE
  8
1
 62
2
 10
1536.105548301229
 20
86.48198331294339
 30
0
 11
1536.341250561624
 21
86.08423574852596
 31
0
  0
LINE
  8
1
 62
2
 10
1538.933975425975
 20
86.34940079147091
 30
0
 11
1538.933975425975
 21
88.86846869944799
 31
0
  0
LINE
  8
1
 62
2
 10
1538.933975425975
 20
88.86846869944799
 30
0
 11
1541.762402550721
 21
88.86846869944799
 31
0
  0
LINE
  8
1
 62
2
 10
1541.762402550721
 20
88.86846869944799
 30
0
 11
1541.762402550721
 21
86.34940079147091
 31
0
  0
LINE
  8
1
 62
2
 10
1541.762402550721
 20
86.34940079147091
 30
0
 11
1538.933975425975
 21
86.34940079147091
 31
0
  0
LINE
  8
1
 62
2
 10
1539.16967768637
 20
87.27747844177826
 30
0
 11
1539.523231076963
 21
87.67522600619569
 31
0
  0
LINE
  8
1
 62
2
 10
1539.523231076963
 20
87.67522600619569
 30
0
 11
1539.876784467557
 21
88.47072113503056
 31
0
  0
LINE
  8
1
 62
2
 10
1539.876784467557
 20
88.47072113503056
 30
0
 11
1539.876784467557
 21
89.9291288712278
 31
0
  0
LINE
  8
1
 62
2
 10
1538.580422035381
 20
89.9291288712278
 30
0
 11
1539.876784467557
 21
89.9291288712278
 31
0
  0
LINE
  8
1
 62
2
 10
1540.701742378941
 20
89.9291288712278
 30
0
 11
1540.701742378941
 21
87.80780852766817
 31
0
  0
LINE
  8
1
 62
2
 10
1540.701742378941
 20
87.80780852766817
 30
0
 11
1540.819593509139
 21
87.54264348472321
 31
0
  0
LINE
  8
1
 62
2
 10
1540.819593509139
 20
87.54264348472321
 30
0
 11
1541.408849160128
 21
87.54264348472321
 31
0
  0
LINE
  8
1
 62
2
 10
1541.408849160128
 20
87.54264348472321
 30
0
 11
1541.526700290325
 21
87.80780852766817
 31
0
  0
LINE
  8
1
 62
2
 10
1540.701742378941
 20
89.9291288712278
 30
0
 11
1542.115955941314
 21
89.9291288712278
 31
0
  0
LINE
  8
1
 62
2
 10
1539.876784467557
 20
89.9291288712278
 30
0
 11
1540.701742378941
 21
89.9291288712278
 31
0
  0
LINE
  8
1
 62
2
 10
1542.705211592303
 20
86.34940079147091
 30
0
 11
1542.823062722501
 21
86.74714835588834
 31
0
  0
LINE
  8
1
 62
2
 10
1542.823062722501
 20
86.74714835588834
 30
0
 11
1542.940913852699
 21
87.94039104914064
 31
0
  0
LINE
  8
1
 62
2
 10
1542.940913852699
 20
87.94039104914064
 30
0
 11
1542.940913852699
 21
90.19429391417276
 31
0
  0
LINE
  8
1
 62
2
 10
1542.940913852699
 20
90.19429391417276
 30
0
 11
1546.240745498236
 21
90.19429391417276
 31
0
  0
LINE
  8
1
 62
2
 10
1546.240745498236
 20
89.26621626386542
 30
0
 11
1545.533638717049
 21
89.26621626386542
 31
0
  0
LINE
  8
1
 62
2
 10
1544.590829675467
 20
89.26621626386542
 30
0
 11
1543.412318373489
 21
89.26621626386542
 31
0
  0
LINE
  8
1
 62
2
 10
1544.001574024478
 20
89.9291288712278
 30
0
 11
1544.001574024478
 21
89.26621626386542
 31
0
  0
LINE
  8
1
 62
2
 10
1543.294467243292
 20
88.2055560920856
 30
0
 11
1543.648020633885
 21
88.60330365650303
 31
0
  0
LINE
  8
1
 62
2
 10
1543.648020633885
 20
88.60330365650303
 30
0
 11
1544.001574024478
 21
89.26621626386542
 31
0
  0
LINE
  8
1
 62
2
 10
1544.237276284874
 20
88.86846869944799
 30
0
 11
1544.590829675467
 21
88.47072113503056
 31
0
  0
LINE
  8
1
 62
2
 10
1544.590829675467
 20
88.07297357061312
 30
0
 11
1544.94438306606
 21
88.33813861355807
 31
0
  0
LINE
  8
1
 62
2
 10
1544.94438306606
 20
88.33813861355807
 30
0
 11
1545.533638717049
 21
89.26621626386542
 31
0
  0
LINE
  8
1
 62
2
 10
1545.533638717049
 20
89.9291288712278
 30
0
 11
1545.533638717049
 21
89.26621626386542
 31
0
  0
LINE
  8
1
 62
2
 10
1545.533638717049
 20
89.26621626386542
 30
0
 11
1545.887192107643
 21
88.73588617797552
 31
0
  0
LINE
  8
1
 62
2
 10
1545.887192107643
 20
88.73588617797552
 30
0
 11
1546.476447758631
 21
88.07297357061312
 31
0
  0
LINE
  8
1
 62
2
 10
1545.769340977445
 20
87.54264348472321
 30
0
 11
1543.883722894281
 21
87.54264348472321
 31
0
  0
LINE
  8
1
 62
2
 10
1543.883722894281
 20
87.54264348472321
 30
0
 11
1543.883722894281
 21
86.87973087736083
 31
0
  0
LINE
  8
1
 62
2
 10
1543.883722894281
 20
86.21681826999843
 30
0
 11
1545.769340977445
 21
86.21681826999843
 31
0
  0
LINE
  8
1
 62
2
 10
1545.769340977445
 20
86.21681826999843
 30
0
 11
1545.769340977445
 21
86.87973087736083
 31
0
  0
LINE
  8
1
 62
2
 10
1543.883722894281
 20
86.87973087736083
 30
0
 11
1545.769340977445
 21
86.87973087736083
 31
0
  0
LINE
  8
1
 62
2
 10
1545.769340977445
 20
86.87973087736083
 30
0
 11
1545.769340977445
 21
87.54264348472321
 31
0
  0
LINE
  8
1
 62
2
 10
1543.883722894281
 20
86.87973087736083
 30
0
 11
1543.883722894281
 21
86.21681826999843
 31
0
  0
LINE
  8
1
 62
2
 10
1545.533638717049
 20
89.26621626386542
 30
0
 11
1545.533638717049
 21
87.94039104914064
 31
0
  0
LINE
  8
1
 62
2
 10
1545.533638717049
 20
89.26621626386542
 30
0
 11
1544.826531935863
 21
89.26621626386542
 31
0
  0
LINE
  8
1
 62
2
 10
1544.001574024478
 20
89.26621626386542
 30
0
 11
1544.001574024478
 21
87.94039104914064
 31
0
  0
LINE
  8
1
 62
2
 10
1548.833470362587
 20
86.08423574852596
 30
0
 11
1548.833470362587
 21
89.79654634975533
 31
0
  0
LINE
  8
1
 62
2
 10
1550.601237315553
 20
89.79654634975533
 30
0
 11
1548.833470362587
 21
89.79654634975533
 31
0
  0
LINE
  8
1
 62
2
 10
1549.422726013575
 20
88.86846869944799
 30
0
 11
1550.129832794762
 21
88.07297357061312
 31
0
  0
LINE
  8
1
 62
2
 10
1548.833470362587
 20
89.79654634975533
 30
0
 11
1547.06570340962
 21
89.79654634975533
 31
0
  0
LINE
  8
1
 62
2
 10
1551.661897487333
 20
88.86846869944799
 30
0
 11
1551.779748617531
 21
89.13363374239295
 31
0
  0
LINE
  8
1
 62
2
 10
1551.779748617531
 20
89.13363374239295
 30
0
 11
1552.251153138321
 21
89.3987987853379
 31
0
  0
LINE
  8
1
 62
2
 10
1552.251153138321
 20
89.3987987853379
 30
0
 11
1552.722557659113
 21
89.53138130681037
 31
0
  0
LINE
  8
1
 62
2
 10
1552.722557659113
 20
89.53138130681037
 30
0
 11
1553.547515570497
 21
89.53138130681037
 31
0
  0
LINE
  8
1
 62
2
 10
1553.547515570497
 20
89.53138130681037
 30
0
 11
1554.018920091288
 21
89.3987987853379
 31
0
  0
LINE
  8
1
 62
2
 10
1554.018920091288
 20
89.3987987853379
 30
0
 11
1554.490324612079
 21
89.13363374239295
 31
0
  0
LINE
  8
1
 62
2
 10
1554.490324612079
 20
89.13363374239295
 30
0
 11
1554.608175742276
 21
88.86846869944799
 31
0
  0
LINE
  8
1
 62
2
 10
1554.608175742276
 20
88.86846869944799
 30
0
 11
1554.608175742276
 21
88.2055560920856
 31
0
  0
LINE
  8
1
 62
2
 10
1554.608175742276
 20
88.2055560920856
 30
0
 11
1554.490324612079
 21
87.94039104914064
 31
0
  0
LINE
  8
1
 62
2
 10
1554.490324612079
 20
87.94039104914064
 30
0
 11
1554.018920091288
 21
87.67522600619569
 31
0
  0
LINE
  8
1
 62
2
 10
1554.018920091288
 20
87.67522600619569
 30
0
 11
1552.133302008124
 21
87.41006096325073
 31
0
  0
LINE
  8
1
 62
2
 10
1552.133302008124
 20
87.41006096325073
 30
0
 11
1551.779748617531
 21
87.14489592030577
 31
0
  0
LINE
  8
1
 62
2
 10
1551.779748617531
 20
87.14489592030577
 30
0
 11
1551.661897487333
 21
86.87973087736083
 31
0
  0
LINE
  8
1
 62
2
 10
1551.661897487333
 20
86.87973087736083
 30
0
 11
1551.544046357135
 21
86.08423574852596
 31
0
  0
LINE
  8
1
 62
2
 10
1551.544046357135
 20
86.08423574852596
 30
0
 11
1554.608175742276
 21
86.08423574852596
 31
0
  0
LINE
  8
1
 62
2
 10
1555.668835914056
 20
89.13363374239295
 30
0
 11
1556.258091565045
 21
89.13363374239295
 31
0
  0
LINE
  8
1
 62
2
 10
1556.258091565045
 20
90.19429391417276
 30
0
 11
1556.258091565045
 21
89.13363374239295
 31
0
  0
LINE
  8
1
 62
2
 10
1556.258091565045
 20
89.13363374239295
 30
0
 11
1555.904538174452
 21
88.07297357061312
 31
0
  0
LINE
  8
1
 62
2
 10
1555.904538174452
 20
88.07297357061312
 30
0
 11
1555.668835914056
 21
87.67522600619569
 31
0
  0
LINE
  8
1
 62
2
 10
1555.668835914056
 20
87.67522600619569
 30
0
 11
1555.550984783858
 21
87.41006096325073
 31
0
  0
LINE
  8
1
 62
2
 10
1556.258091565045
 20
89.13363374239295
 30
0
 11
1556.729496085836
 21
88.07297357061312
 31
0
  0
LINE
  8
1
 62
2
 10
1557.55445399722
 20
90.06171139270029
 30
0
 11
1556.965198346232
 21
89.13363374239295
 31
0
  0
LINE
  8
1
 62
2
 10
1557.790156257616
 20
89.26621626386542
 30
0
 11
1557.436602867023
 21
88.60330365650303
 31
0
  0
LINE
  8
1
 62
2
 10
1557.436602867023
 20
88.60330365650303
 30
0
 11
1557.083049476429
 21
87.94039104914064
 31
0
  0
LINE
  8
1
 62
2
 10
1557.083049476429
 20
87.94039104914064
 30
0
 11
1556.729496085836
 21
87.54264348472321
 31
0
  0
LINE
  8
1
 62
2
 10
1557.318751736825
 20
88.33813861355807
 30
0
 11
1557.318751736825
 21
86.21681826999843
 31
0
  0
LINE
  8
1
 62
2
 10
1557.908007387814
 20
89.79654634975533
 30
0
 11
1558.968667559593
 21
89.79654634975533
 31
0
  0
LINE
  8
1
 62
2
 10
1557.790156257616
 20
88.73588617797552
 30
0
 11
1558.615114169
 21
88.73588617797552
 31
0
  0
LINE
  8
1
 62
2
 10
1558.615114169
 20
88.73588617797552
 30
0
 11
1558.615114169
 21
86.48198331294339
 31
0
  0
LINE
  8
1
 62
2
 10
1558.615114169
 20
86.48198331294339
 30
0
 11
1558.497263038802
 21
86.21681826999843
 31
0
  0
LINE
  8
1
 62
2
 10
1558.497263038802
 20
86.21681826999843
 30
0
 11
1558.143709648209
 21
86.21681826999843
 31
0
  0
LINE
  8
1
 62
2
 10
1558.615114169
 20
88.73588617797552
 30
0
 11
1559.204369819989
 21
88.73588617797552
 31
0
  0
LINE
  8
1
 62
2
 10
1556.258091565045
 20
89.13363374239295
 30
0
 11
1556.258091565045
 21
86.21681826999843
 31
0
  0
LINE
  8
1
 62
2
 10
1556.258091565045
 20
89.13363374239295
 30
0
 11
1556.847347216034
 21
89.13363374239295
 31
0
  0
LINE
  8
1
 62
2
 10
1561.325690163549
 20
90.32687643564525
 30
0
 11
1561.561392423944
 21
89.9291288712278
 31
0
  0
LINE
  8
1
 62
2
 10
1561.561392423944
 20
89.9291288712278
 30
0
 11
1561.79709468434
 21
89.26621626386542
 31
0
  0
LINE
  8
1
 62
2
 10
1561.79709468434
 20
89.26621626386542
 30
0
 11
1561.79709468434
 21
87.14489592030577
 31
0
  0
LINE
  8
1
 62
2
 10
1561.79709468434
 20
87.14489592030577
 30
0
 11
1561.561392423944
 21
86.48198331294339
 31
0
  0
LINE
  8
1
 62
2
 10
1561.561392423944
 20
86.48198331294339
 30
0
 11
1561.325690163549
 21
86.08423574852596
 31
0
  0
LINE
  8
1
 62
2
 10
1591.580039854444
 20
381.3114464565549
 30
0
 11
1592.169295505433
 21
381.5766114994999
 31
0
  0
LINE
  8
1
 62
2
 10
1592.169295505433
 20
381.5766114994999
 30
0
 11
1592.876402286619
 21
382.1069415853897
 31
0
  0
LINE
  8
1
 62
2
 10
1592.876402286619
 20
382.1069415853897
 30
0
 11
1593.229955677212
 21
382.6372716712797
 31
0
  0
LINE
  8
1
 62
2
 10
1591.580039854444
 20
382.6372716712797
 30
0
 11
1593.229955677212
 21
382.6372716712797
 31
0
  0
LINE
  8
1
 62
2
 10
1594.644169239585
 20
383.3001842786421
 30
0
 11
1592.169295505433
 21
383.3001842786421
 31
0
  0
LINE
  8
1
 62
2
 10
1591.933593245037
 20
383.9630968860045
 30
0
 11
1594.879871499981
 21
383.9630968860045
 31
0
  0
LINE
  8
1
 62
2
 10
1593.34780680741
 20
384.6260094933668
 30
0
 11
1593.34780680741
 21
382.6372716712797
 31
0
  0
LINE
  8
1
 62
2
 10
1592.876402286619
 20
382.1069415853897
 30
0
 11
1592.876402286619
 21
380.781116370665
 31
0
  0
LINE
  8
1
 62
2
 10
1592.28714663563
 20
380.51595132772
 30
0
 11
1593.701360198003
 21
381.1788639350824
 31
0
  0
LINE
  8
1
 62
2
 10
1593.937062458399
 20
381.5766114994999
 30
0
 11
1594.762020369783
 21
382.2395241068622
 31
0
  0
LINE
  8
1
 62
2
 10
1593.465657937608
 20
382.3721066283347
 30
0
 11
1593.819211328201
 21
381.7091940209723
 31
0
  0
LINE
  8
1
 62
2
 10
1593.819211328201
 20
381.7091940209723
 30
0
 11
1593.937062458399
 21
381.5766114994999
 31
0
  0
LINE
  8
1
 62
2
 10
1594.526318109388
 20
380.9136988921375
 30
0
 11
1595.115573760376
 21
380.6485338491925
 31
0
  0
LINE
  8
1
 62
2
 10
1593.937062458399
 20
381.5766114994999
 30
0
 11
1594.526318109388
 21
380.9136988921375
 31
0
  0
LINE
  8
1
 62
2
 10
1593.34780680741
 20
382.6372716712797
 30
0
 11
1595.233424890574
 21
382.6372716712797
 31
0
  0
LINE
  8
1
 62
2
 10
1593.229955677212
 20
382.6372716712797
 30
0
 11
1593.34780680741
 21
382.6372716712797
 31
0
  0
LINE
  8
1
 62
2
 10
1596.411936192552
 20
384.3608444504219
 30
0
 11
1599.004661056903
 21
384.3608444504219
 31
0
  0
LINE
  8
1
 62
2
 10
1599.593916707891
 20
383.3001842786421
 30
0
 11
1597.826149754925
 21
383.3001842786421
 31
0
  0
LINE
  8
1
 62
2
 10
1597.826149754925
 20
383.3001842786421
 30
0
 11
1597.826149754925
 21
380.6485338491925
 31
0
  0
LINE
  8
1
 62
2
 10
1597.826149754925
 20
380.6485338491925
 30
0
 11
1597.354745234134
 21
380.6485338491925
 31
0
  0
LINE
  8
1
 62
2
 10
1596.176233932156
 20
381.0462814136099
 30
0
 11
1596.647638452947
 21
381.5766114994999
 31
0
  0
LINE
  8
1
 62
2
 10
1596.647638452947
 20
381.5766114994999
 30
0
 11
1597.001191843541
 21
382.2395241068622
 31
0
  0
LINE
  8
1
 62
2
 10
1598.533256536111
 20
382.3721066283347
 30
0
 11
1599.004661056903
 21
381.7091940209723
 31
0
  0
LINE
  8
1
 62
2
 10
1599.004661056903
 20
381.7091940209723
 30
0
 11
1599.476065577693
 21
381.0462814136099
 31
0
  0
LINE
  8
1
 62
2
 10
1597.826149754925
 20
383.3001842786421
 30
0
 11
1596.058382801959
 21
383.3001842786421
 31
0
  0
LINE
  8
1
 62
2
 10
1600.890279140067
 20
383.1676017571696
 30
0
 11
1602.422343832637
 21
383.1676017571696
 31
0
  0
LINE
  8
1
 62
2
 10
1602.422343832637
 20
383.1676017571696
 30
0
 11
1602.186641572242
 21
381.3114464565549
 31
0
  0
LINE
  8
1
 62
2
 10
1600.301023489078
 20
381.3114464565549
 30
0
 11
1602.186641572242
 21
381.3114464565549
 31
0
  0
LINE
  8
1
 62
2
 10
1602.186641572242
 20
381.3114464565549
 30
0
 11
1603.600855134615
 21
381.3114464565549
 31
0
  0
LINE
  8
1
 62
2
 10
1604.779366436593
 20
381.5766114994999
 30
0
 11
1607.607793561339
 21
381.5766114994999
 31
0
  0
LINE
  8
1
 62
2
 10
1605.250770957384
 20
383.1676017571696
 30
0
 11
1607.254240170746
 21
383.1676017571696
 31
0
  0
LINE
  8
1
 62
2
 10
1609.964816165294
 20
380.6485338491925
 30
0
 11
1610.554071816283
 21
381.0462814136099
 31
0
  0
LINE
  8
1
 62
2
 10
1610.554071816283
 20
381.0462814136099
 30
0
 11
1611.261178597469
 21
381.9743590639173
 31
0
  0
LINE
  8
1
 62
2
 10
1611.261178597469
 20
381.9743590639173
 30
0
 11
1611.496880857865
 21
382.6372716712797
 31
0
  0
LINE
  8
1
 62
2
 10
1610.436220686085
 20
382.7698541927521
 30
0
 11
1610.554071816283
 21
382.2395241068622
 31
0
  0
LINE
  8
1
 62
2
 10
1609.611262774701
 20
382.6372716712797
 30
0
 11
1609.846965035096
 21
382.1069415853897
 31
0
  0
LINE
  8
1
 62
2
 10
1614.443159112809
 20
384.2282619289494
 30
0
 11
1614.443159112809
 21
380.9136988921375
 31
0
  0
LINE
  8
1
 62
2
 10
1614.9145636336
 20
383.0350192356971
 30
0
 11
1615.268117024193
 21
382.6372716712797
 31
0
  0
LINE
  8
1
 62
2
 10
1615.268117024193
 20
382.6372716712797
 30
0
 11
1615.503819284589
 21
382.1069415853897
 31
0
  0
LINE
  8
1
 62
2
 10
1617.860841888544
 20
380.9136988921375
 30
0
 11
1617.742990758346
 21
381.8417765424448
 31
0
  0
LINE
  8
1
 62
2
 10
1617.742990758346
 20
381.8417765424448
 30
0
 11
1617.742990758346
 21
383.0350192356971
 31
0
  0
LINE
  8
1
 62
2
 10
1617.742990758346
 20
383.0350192356971
 30
0
 11
1617.978693018742
 21
384.2282619289494
 31
0
  0
LINE
  8
1
 62
2
 10
1618.685799799928
 20
383.3001842786421
 30
0
 11
1619.746459971708
 21
383.4327668001145
 31
0
  0
LINE
  8
1
 62
2
 10
1619.746459971708
 20
383.4327668001145
 30
0
 11
1620.335715622697
 21
383.565349321587
 31
0
  0
LINE
  8
1
 62
2
 10
1619.62860884151
 20
384.2282619289494
 30
0
 11
1619.746459971708
 21
381.8417765424448
 31
0
  0
LINE
  8
1
 62
2
 10
1619.746459971708
 20
381.8417765424448
 30
0
 11
1619.62860884151
 21
381.3114464565549
 31
0
  0
LINE
  8
1
 62
2
 10
1619.62860884151
 20
381.3114464565549
 30
0
 11
1619.392906581115
 21
381.0462814136099
 31
0
  0
LINE
  8
1
 62
2
 10
1619.392906581115
 20
381.0462814136099
 30
0
 11
1618.921502060324
 21
380.9136988921375
 31
0
  0
LINE
  8
1
 62
2
 10
1618.921502060324
 20
380.9136988921375
 30
0
 11
1618.56794866973
 21
381.1788639350824
 31
0
  0
LINE
  8
1
 62
2
 10
1618.56794866973
 20
381.1788639350824
 30
0
 11
1618.56794866973
 21
381.4440289780274
 31
0
  0
LINE
  8
1
 62
2
 10
1618.56794866973
 20
381.4440289780274
 30
0
 11
1619.157204320719
 21
381.5766114994999
 31
0
  0
LINE
  8
1
 62
2
 10
1619.157204320719
 20
381.5766114994999
 30
0
 11
1619.746459971708
 21
381.4440289780274
 31
0
  0
LINE
  8
1
 62
2
 10
1619.746459971708
 20
381.4440289780274
 30
0
 11
1620.335715622697
 21
381.0462814136099
 31
0
  0
LINE
  8
1
 62
2
 10
1621.985631445465
 20
380.51595132772
 30
0
 11
1621.985631445465
 21
383.565349321587
 31
0
  0
LINE
  8
1
 62
2
 10
1621.278524664279
 20
382.3721066283347
 30
0
 11
1621.632078054872
 21
382.9024367142246
 31
0
  0
LINE
  8
1
 62
2
 10
1621.632078054872
 20
382.9024367142246
 30
0
 11
1622.457035966256
 21
384.6260094933668
 31
0
  0
LINE
  8
1
 62
2
 10
1622.81058935685
 20
383.4327668001145
 30
0
 11
1623.517696138036
 21
383.6979318430595
 31
0
  0
LINE
  8
1
 62
2
 10
1623.517696138036
 20
383.6979318430595
 30
0
 11
1624.578356309816
 21
384.2282619289494
 31
0
  0
LINE
  8
1
 62
2
 10
1623.871249528629
 20
383.830514364532
 30
0
 11
1623.871249528629
 21
380.781116370665
 31
0
  0
LINE
  8
1
 62
2
 10
1625.049760830607
 20
382.5046891498072
 30
0
 11
1622.574887096454
 21
382.5046891498072
 31
0
  0
LINE
  8
1
 62
2
 10
1622.81058935685
 20
380.781116370665
 30
0
 11
1623.871249528629
 21
380.781116370665
 31
0
  0
LINE
  8
1
 62
2
 10
1623.871249528629
 20
380.781116370665
 30
0
 11
1624.931909700409
 21
380.781116370665
 31
0
  0
LINE
  8
1
 62
2
 10
1625.756867611794
 20
380.6485338491925
 30
0
 11
1625.992569872189
 21
381.0462814136099
 31
0
  0
LINE
  8
1
 62
2
 10
1625.992569872189
 20
381.0462814136099
 30
0
 11
1626.110421002387
 21
381.4440289780274
 31
0
  0
LINE
  8
1
 62
2
 10
1626.699676653376
 20
381.4440289780274
 30
0
 11
1626.699676653376
 21
380.781116370665
 31
0
  0
LINE
  8
1
 62
2
 10
1626.699676653376
 20
380.781116370665
 30
0
 11
1626.817527783573
 21
380.6485338491925
 31
0
  0
LINE
  8
1
 62
2
 10
1626.817527783573
 20
380.6485338491925
 30
0
 11
1627.642485694958
 21
380.51595132772
 31
0
  0
LINE
  8
1
 62
2
 10
1627.642485694958
 20
380.51595132772
 30
0
 11
1628.349592476144
 21
380.6485338491925
 31
0
  0
LINE
  8
1
 62
2
 10
1628.349592476144
 20
380.6485338491925
 30
0
 11
1628.467443606342
 21
380.781116370665
 31
0
  0
LINE
  8
1
 62
2
 10
1628.467443606342
 20
380.781116370665
 30
0
 11
1628.467443606342
 21
381.0462814136099
 31
0
  0
LINE
  8
1
 62
2
 10
1628.938848127133
 20
380.9136988921375
 30
0
 11
1628.703145866738
 21
381.1788639350824
 31
0
  0
LINE
  8
1
 62
2
 10
1628.703145866738
 20
381.1788639350824
 30
0
 11
1628.467443606342
 21
381.5766114994999
 31
0
  0
LINE
  8
1
 62
2
 10
1627.760336825155
 20
381.1788639350824
 30
0
 11
1627.52463456476
 21
381.5766114994999
 31
0
  0
LINE
  8
1
 62
2
 10
1626.46397439298
 20
381.8417765424448
 30
0
 11
1628.349592476144
 21
381.8417765424448
 31
0
  0
LINE
  8
1
 62
2
 10
1628.349592476144
 20
381.8417765424448
 30
0
 11
1628.349592476144
 21
382.3721066283347
 31
0
  0
LINE
  8
1
 62
2
 10
1628.349592476144
 20
382.9024367142246
 30
0
 11
1626.46397439298
 21
382.9024367142246
 31
0
  0
LINE
  8
1
 62
2
 10
1626.46397439298
 20
382.9024367142246
 30
0
 11
1626.46397439298
 21
382.3721066283347
 31
0
  0
LINE
  8
1
 62
2
 10
1626.46397439298
 20
382.3721066283347
 30
0
 11
1628.349592476144
 21
382.3721066283347
 31
0
  0
LINE
  8
1
 62
2
 10
1629.292401517726
 20
383.3001842786421
 30
0
 11
1625.521165351398
 21
383.3001842786421
 31
0
  0
LINE
  8
1
 62
2
 10
1625.874718741991
 20
384.2282619289494
 30
0
 11
1627.406783434562
 21
384.2282619289494
 31
0
  0
LINE
  8
1
 62
2
 10
1627.406783434562
 20
384.7585920148393
 30
0
 11
1627.406783434562
 21
384.2282619289494
 31
0
  0
LINE
  8
1
 62
2
 10
1626.581825523178
 20
383.9630968860045
 30
0
 11
1626.817527783573
 21
383.4327668001145
 31
0
  0
LINE
  8
1
 62
2
 10
1628.113890215749
 20
383.9630968860045
 30
0
 11
1627.878187955353
 21
383.4327668001145
 31
0
  0
LINE
  8
1
 62
2
 10
1627.406783434562
 20
384.2282619289494
 30
0
 11
1628.938848127133
 21
384.2282619289494
 31
0
  0
LINE
  8
1
 62
2
 10
1628.349592476144
 20
382.3721066283347
 30
0
 11
1628.349592476144
 21
382.9024367142246
 31
0
  0
LINE
  8
1
 62
2
 10
1626.46397439298
 20
382.3721066283347
 30
0
 11
1626.46397439298
 21
381.8417765424448
 31
0
  0
LINE
  8
1
 62
2
 10
1631.767275251879
 20
383.830514364532
 30
0
 11
1631.413721861286
 21
382.5046891498072
 31
0
  0
LINE
  8
1
 62
2
 10
1631.413721861286
 20
382.5046891498072
 30
0
 11
1630.824466210297
 21
381.1788639350824
 31
0
  0
LINE
  8
1
 62
2
 10
1630.824466210297
 20
381.1788639350824
 30
0
 11
1630.353061689506
 21
381.4440289780274
 31
0
  0
LINE
  8
1
 62
2
 10
1630.353061689506
 20
381.4440289780274
 30
0
 11
1630.235210559308
 21
382.1069415853897
 31
0
  0
LINE
  8
1
 62
2
 10
1630.235210559308
 20
382.1069415853897
 30
0
 11
1630.353061689506
 21
382.9024367142246
 31
0
  0
LINE
  8
1
 62
2
 10
1630.353061689506
 20
382.9024367142246
 30
0
 11
1630.824466210297
 21
383.565349321587
 31
0
  0
LINE
  8
1
 62
2
 10
1630.824466210297
 20
383.565349321587
 30
0
 11
1631.531572991484
 21
383.830514364532
 31
0
  0
LINE
  8
1
 62
2
 10
1631.531572991484
 20
383.830514364532
 30
0
 11
1631.767275251879
 21
383.830514364532
 31
0
  0
LINE
  8
1
 62
2
 10
1632.23867977267
 20
383.830514364532
 30
0
 11
1632.710084293461
 21
383.565349321587
 31
0
  0
LINE
  8
1
 62
2
 10
1632.710084293461
 20
383.565349321587
 30
0
 11
1633.063637684055
 21
383.0350192356971
 31
0
  0
LINE
  8
1
 62
2
 10
1633.063637684055
 20
383.0350192356971
 30
0
 11
1633.063637684055
 21
382.1069415853897
 31
0
  0
LINE
  8
1
 62
2
 10
1633.063637684055
 20
382.1069415853897
 30
0
 11
1632.710084293461
 21
381.4440289780274
 31
0
  0
LINE
  8
1
 62
2
 10
1632.710084293461
 20
381.4440289780274
 30
0
 11
1632.120828642472
 21
380.9136988921375
 31
0
  0
LINE
  8
1
 62
2
 10
1631.767275251879
 20
383.830514364532
 30
0
 11
1632.23867977267
 21
383.830514364532
 31
0
  0
LINE
  8
1
 62
2
 10
1634.36000011623
 20
380.6485338491925
 30
0
 11
1634.36000011623
 21
383.830514364532
 31
0
  0
LINE
  8
1
 62
2
 10
1634.36000011623
 20
383.830514364532
 30
0
 11
1634.949255767219
 21
383.830514364532
 31
0
  0
LINE
  8
1
 62
2
 10
1637.424129501372
 20
383.830514364532
 30
0
 11
1637.424129501372
 21
380.6485338491925
 31
0
  0
LINE
  8
1
 62
2
 10
1637.424129501372
 20
380.6485338491925
 30
0
 11
1636.834873850383
 21
380.6485338491925
 31
0
  0
LINE
  8
1
 62
2
 10
1635.42066028801
 20
381.8417765424448
 30
0
 11
1635.42066028801
 21
382.9024367142246
 31
0
  0
LINE
  8
1
 62
2
 10
1635.42066028801
 20
382.9024367142246
 30
0
 11
1636.363469329592
 21
382.9024367142246
 31
0
  0
LINE
  8
1
 62
2
 10
1636.363469329592
 20
382.9024367142246
 30
0
 11
1636.363469329592
 21
381.8417765424448
 31
0
  0
LINE
  8
1
 62
2
 10
1636.363469329592
 20
381.8417765424448
 30
0
 11
1635.42066028801
 21
381.8417765424448
 31
0
  0
LINE
  8
1
 62
2
 10
1634.949255767219
 20
383.830514364532
 30
0
 11
1635.538511418208
 21
384.6260094933668
 31
0
  0
LINE
  8
1
 62
2
 10
1634.949255767219
 20
383.830514364532
 30
0
 11
1637.424129501372
 21
383.830514364532
 31
0
  0
LINE
  8
1
 62
2
 10
1639.309747584536
 20
382.7698541927521
 30
0
 11
1640.370407756315
 21
383.0350192356971
 31
0
  0
LINE
  8
1
 62
2
 10
1640.370407756315
 20
383.0350192356971
 30
0
 11
1641.1953656677
 21
383.4327668001145
 31
0
  0
LINE
  8
1
 62
2
 10
1640.606110016711
 20
384.0956794074769
 30
0
 11
1640.13470549592
 21
383.830514364532
 31
0
  0
LINE
  8
1
 62
2
 10
1640.13470549592
 20
383.830514364532
 30
0
 11
1639.309747584536
 21
383.565349321587
 31
0
  0
LINE
  8
1
 62
2
 10
1639.663300975129
 20
384.4934269718943
 30
0
 11
1640.252556626118
 21
383.565349321587
 31
0
  0
LINE
  8
1
 62
2
 10
1640.252556626118
 20
383.565349321587
 30
0
 11
1641.077514537502
 21
381.9743590639173
 31
0
  0
LINE
  8
1
 62
2
 10
1641.077514537502
 20
381.9743590639173
 30
0
 11
1640.606110016711
 21
382.1069415853897
 31
0
  0
LINE
  8
1
 62
2
 10
1640.606110016711
 20
382.1069415853897
 30
0
 11
1640.13470549592
 21
382.1069415853897
 31
0
  0
LINE
  8
1
 62
2
 10
1640.13470549592
 20
382.1069415853897
 30
0
 11
1639.663300975129
 21
381.8417765424448
 31
0
  0
LINE
  8
1
 62
2
 10
1639.663300975129
 20
381.8417765424448
 30
0
 11
1639.427598714733
 21
381.3114464565549
 31
0
  0
LINE
  8
1
 62
2
 10
1639.427598714733
 20
381.3114464565549
 30
0
 11
1639.899003235525
 21
380.9136988921375
 31
0
  0
LINE
  8
1
 62
2
 10
1639.899003235525
 20
380.9136988921375
 30
0
 11
1640.723961146909
 21
380.781116370665
 31
0
  0
LINE
  8
1
 62
2
 10
1643.316686011259
 20
380.9136988921375
 30
0
 11
1643.198834881062
 21
381.8417765424448
 31
0
  0
LINE
  8
1
 62
2
 10
1643.198834881062
 20
381.8417765424448
 30
0
 11
1643.198834881062
 21
382.9024367142246
 31
0
  0
LINE
  8
1
 62
2
 10
1643.198834881062
 20
382.9024367142246
 30
0
 11
1643.434537141457
 21
383.830514364532
 31
0
  0
LINE
  8
1
 62
2
 10
1644.377346183039
 20
383.4327668001145
 30
0
 11
1644.84875070383
 21
383.565349321587
 31
0
  0
LINE
  8
1
 62
2
 10
1644.84875070383
 20
383.565349321587
 30
0
 11
1645.555857485017
 21
383.565349321587
 31
0
  0
LINE
  8
1
 62
2
 10
1644.141643922644
 20
381.7091940209723
 30
0
 11
1644.377346183039
 21
381.3114464565549
 31
0
  0
LINE
  8
1
 62
2
 10
1644.377346183039
 20
381.3114464565549
 30
0
 11
1644.966601834028
 21
381.1788639350824
 31
0
  0
LINE
  8
1
 62
2
 10
1644.966601834028
 20
381.1788639350824
 30
0
 11
1645.90941087561
 21
381.1788639350824
 31
0
  0
LINE
  8
1
 62
2
 10
1647.205773307785
 20
380.6485338491925
 30
0
 11
1647.559326698379
 21
380.781116370665
 31
0
  0
LINE
  8
1
 62
2
 10
1647.559326698379
 20
380.781116370665
 30
0
 11
1648.03073121917
 21
381.0462814136099
 31
0
  0
LINE
  8
1
 62
2
 10
1648.03073121917
 20
381.0462814136099
 30
0
 11
1648.737838000356
 21
381.5766114994999
 31
0
  0
LINE
  8
1
 62
2
 10
1648.737838000356
 20
381.5766114994999
 30
0
 11
1649.327093651345
 21
382.2395241068622
 31
0
  0
LINE
  8
1
 62
2
 10
1649.327093651345
 20
382.2395241068622
 30
0
 11
1647.795028958774
 21
382.2395241068622
 31
0
  0
LINE
  8
1
 62
2
 10
1648.266433479565
 20
382.7698541927521
 30
0
 11
1647.795028958774
 21
382.2395241068622
 31
0
  0
LINE
  8
1
 62
2
 10
1647.677177828576
 20
382.1069415853897
 30
0
 11
1647.323624437983
 21
381.8417765424448
 31
0
  0
LINE
  8
1
 62
2
 10
1647.323624437983
 20
381.8417765424448
 30
0
 11
1646.97007104739
 21
381.5766114994999
 31
0
  0
LINE
  8
1
 62
2
 10
1648.148582349367
 20
382.1069415853897
 30
0
 11
1648.502135739961
 21
381.7091940209723
 31
0
  0
LINE
  8
1
 62
2
 10
1648.502135739961
 20
381.7091940209723
 30
0
 11
1649.209242521147
 21
381.1788639350824
 31
0
  0
LINE
  8
1
 62
2
 10
1649.209242521147
 20
381.1788639350824
 30
0
 11
1649.798498172136
 21
380.9136988921375
 31
0
  0
LINE
  8
1
 62
2
 10
1649.798498172136
 20
380.9136988921375
 30
0
 11
1650.387753823125
 21
380.6485338491925
 31
0
  0
LINE
  8
1
 62
2
 10
1650.269902692927
 20
383.0350192356971
 30
0
 11
1649.680647041938
 21
383.565349321587
 31
0
  0
LINE
  8
1
 62
2
 10
1648.619986870159
 20
382.7698541927521
 30
0
 11
1648.855689130554
 21
382.7698541927521
 31
0
  0
LINE
  8
1
 62
2
 10
1648.855689130554
 20
382.7698541927521
 30
0
 11
1648.973540260752
 21
383.0350192356971
 31
0
  0
LINE
  8
1
 62
2
 10
1648.973540260752
 20
383.0350192356971
 30
0
 11
1648.973540260752
 21
384.0956794074769
 31
0
  0
LINE
  8
1
 62
2
 10
1648.266433479565
 20
384.0956794074769
 30
0
 11
1648.148582349367
 21
383.4327668001145
 31
0
  0
LINE
  8
1
 62
2
 10
1648.148582349367
 20
383.4327668001145
 30
0
 11
1647.912880088972
 21
382.9024367142246
 31
0
  0
LINE
  8
1
 62
2
 10
1647.912880088972
 20
382.9024367142246
 30
0
 11
1647.559326698379
 21
382.6372716712797
 31
0
  0
LINE
  8
1
 62
2
 10
1647.559326698379
 20
382.6372716712797
 30
0
 11
1647.323624437983
 21
382.5046891498072
 31
0
  0
LINE
  8
1
 62
2
 10
1646.97007104739
 20
383.0350192356971
 30
0
 11
1647.441475568181
 21
383.565349321587
 31
0
  0
LINE
  8
1
 62
2
 10
1646.97007104739
 20
384.0956794074769
 30
0
 11
1648.266433479565
 21
384.0956794074769
 31
0
  0
LINE
  8
1
 62
2
 10
1648.619986870159
 20
384.2282619289494
 30
0
 11
1648.619986870159
 21
384.6260094933668
 31
0
  0
LINE
  8
1
 62
2
 10
1648.266433479565
 20
384.0956794074769
 30
0
 11
1650.269902692927
 21
384.0956794074769
 31
0
  0
LINE
  8
1
 62
2
 10
1647.795028958774
 20
382.2395241068622
 30
0
 11
1647.677177828576
 21
382.1069415853897
 31
0
  0
LINE
  8
1
 62
2
 10
1651.6841162553
 20
380.9136988921375
 30
0
 11
1653.569734338464
 21
383.1676017571696
 31
0
  0
LINE
  8
1
 62
2
 10
1653.569734338464
 20
383.1676017571696
 30
0
 11
1652.980478687476
 21
383.0350192356971
 31
0
  0
LINE
  8
1
 62
2
 10
1652.980478687476
 20
383.0350192356971
 30
0
 11
1652.037669645893
 21
382.9024367142246
 31
0
  0
LINE
  8
1
 62
2
 10
1652.509074166685
 20
384.3608444504219
 30
0
 11
1652.862627557278
 21
384.0956794074769
 31
0
  0
LINE
  8
1
 62
2
 10
1652.862627557278
 20
384.0956794074769
 30
0
 11
1653.334032078069
 21
383.830514364532
 31
0
  0
LINE
  8
1
 62
2
 10
1652.626925296882
 20
381.9743590639173
 30
0
 11
1652.862627557278
 21
382.1069415853897
 31
0
  0
LINE
  8
1
 62
2
 10
1652.862627557278
 20
382.1069415853897
 30
0
 11
1653.098329817673
 21
382.1069415853897
 31
0
  0
LINE
  8
1
 62
2
 10
1653.098329817673
 20
382.1069415853897
 30
0
 11
1653.098329817673
 21
381.1788639350824
 31
0
  0
LINE
  8
1
 62
2
 10
1653.098329817673
 20
381.1788639350824
 30
0
 11
1653.216180947871
 21
380.781116370665
 31
0
  0
LINE
  8
1
 62
2
 10
1653.216180947871
 20
380.781116370665
 30
0
 11
1653.80543659886
 21
380.781116370665
 31
0
  0
LINE
  8
1
 62
2
 10
1653.80543659886
 20
380.781116370665
 30
0
 11
1654.276841119651
 21
380.9136988921375
 31
0
  0
LINE
  8
1
 62
2
 10
1656.987417114199
 20
380.781116370665
 30
0
 11
1657.576672765188
 21
380.9136988921375
 31
0
  0
LINE
  8
1
 62
2
 10
1657.576672765188
 20
380.9136988921375
 30
0
 11
1658.165928416177
 21
381.3114464565549
 31
0
  0
LINE
  8
1
 62
2
 10
1658.165928416177
 20
381.3114464565549
 30
0
 11
1658.401630676573
 21
381.7091940209723
 31
0
  0
LINE
  8
1
 62
2
 10
1658.401630676573
 20
381.7091940209723
 30
0
 11
1658.283779546375
 21
382.2395241068622
 31
0
  0
LINE
  8
1
 62
2
 10
1658.283779546375
 20
382.2395241068622
 30
0
 11
1657.812375025584
 21
382.5046891498072
 31
0
  0
LINE
  8
1
 62
2
 10
1657.812375025584
 20
382.5046891498072
 30
0
 11
1657.340970504793
 21
382.5046891498072
 31
0
  0
LINE
  8
1
 62
2
 10
1657.340970504793
 20
382.5046891498072
 30
0
 11
1656.869565984002
 21
382.2395241068622
 31
0
  0
LINE
  8
1
 62
2
 10
1656.869565984002
 20
382.2395241068622
 30
0
 11
1656.280310333013
 21
381.8417765424448
 31
0
  0
LINE
  8
1
 62
2
 10
1656.280310333013
 20
381.8417765424448
 30
0
 11
1656.398161463211
 21
382.7698541927521
 31
0
  0
LINE
  8
1
 62
2
 10
1656.398161463211
 20
382.7698541927521
 30
0
 11
1656.633863723606
 21
383.565349321587
 31
0
  0
LINE
  8
1
 62
2
 10
1656.869565984002
 20
384.3608444504219
 30
0
 11
1657.223119374595
 21
384.0956794074769
 31
0
  0
LINE
  8
1
 62
2
 10
1657.223119374595
 20
384.0956794074769
 30
0
 11
1657.45882163499
 21
383.830514364532
 31
0
  0
LINE
  8
1
 62
2
 10
1660.758653280528
 20
384.2282619289494
 30
0
 11
1660.64080215033
 21
382.3721066283347
 31
0
  0
LINE
  8
1
 62
2
 10
1660.64080215033
 20
382.3721066283347
 30
0
 11
1660.64080215033
 21
380.781116370665
 31
0
  0
LINE
  8
1
 62
2
 10
1659.933695369143
 20
382.6372716712797
 30
0
 11
1660.876504410725
 21
383.3001842786421
 31
0
  0
LINE
  8
1
 62
2
 10
1660.876504410725
 20
383.3001842786421
 30
0
 11
1660.64080215033
 21
382.5046891498072
 31
0
  0
LINE
  8
1
 62
2
 10
1660.64080215033
 20
382.5046891498072
 30
0
 11
1659.933695369143
 21
381.1788639350824
 31
0
  0
LINE
  8
1
 62
2
 10
1660.522951020132
 20
382.2395241068622
 30
0
 11
1661.230057801319
 21
383.1676017571696
 31
0
  0
LINE
  8
1
 62
2
 10
1661.230057801319
 20
383.1676017571696
 30
0
 11
1661.70146232211
 21
383.565349321587
 31
0
  0
LINE
  8
1
 62
2
 10
1661.70146232211
 20
383.565349321587
 30
0
 11
1662.055015712703
 21
383.565349321587
 31
0
  0
LINE
  8
1
 62
2
 10
1662.055015712703
 20
383.565349321587
 30
0
 11
1662.172866842901
 21
383.1676017571696
 31
0
  0
LINE
  8
1
 62
2
 10
1662.172866842901
 20
383.1676017571696
 30
0
 11
1662.055015712703
 21
381.5766114994999
 31
0
  0
LINE
  8
1
 62
2
 10
1662.055015712703
 20
381.5766114994999
 30
0
 11
1662.290717973099
 21
381.1788639350824
 31
0
  0
LINE
  8
1
 62
2
 10
1662.290717973099
 20
381.1788639350824
 30
0
 11
1662.644271363692
 21
381.1788639350824
 31
0
  0
LINE
  8
1
 62
2
 10
1662.644271363692
 20
381.1788639350824
 30
0
 11
1662.879973624087
 21
381.4440289780274
 31
0
  0
LINE
  8
1
 62
2
 10
1664.529889446856
 20
382.7698541927521
 30
0
 11
1665.590549618636
 21
382.7698541927521
 31
0
  0
LINE
  8
1
 62
2
 10
1665.590549618636
 20
382.7698541927521
 30
0
 11
1666.533358660218
 21
383.0350192356971
 31
0
  0
LINE
  8
1
 62
2
 10
1666.41550753002
 20
383.830514364532
 30
0
 11
1665.590549618636
 21
383.6979318430595
 31
0
  0
LINE
  8
1
 62
2
 10
1665.590549618636
 20
383.6979318430595
 30
0
 11
1664.883442837449
 21
383.6979318430595
 31
0
  0
LINE
  8
1
 62
2
 10
1665.708400748834
 20
384.4934269718943
 30
0
 11
1665.708400748834
 21
383.4327668001145
 31
0
  0
LINE
  8
1
 62
2
 10
1665.708400748834
 20
383.4327668001145
 30
0
 11
1665.826251879031
 21
381.5766114994999
 31
0
  0
LINE
  8
1
 62
2
 10
1665.826251879031
 20
381.5766114994999
 30
0
 11
1665.590549618636
 21
381.0462814136099
 31
0
  0
LINE
  8
1
 62
2
 10
1665.590549618636
 20
381.0462814136099
 30
0
 11
1665.119145097845
 21
380.781116370665
 31
0
  0
LINE
  8
1
 62
2
 10
1665.119145097845
 20
380.781116370665
 30
0
 11
1664.647740577054
 21
380.9136988921375
 31
0
  0
LINE
  8
1
 62
2
 10
1664.647740577054
 20
380.9136988921375
 30
0
 11
1664.529889446856
 21
381.1788639350824
 31
0
  0
LINE
  8
1
 62
2
 10
1664.529889446856
 20
381.1788639350824
 30
0
 11
1664.765591707251
 21
381.4440289780274
 31
0
  0
LINE
  8
1
 62
2
 10
1664.765591707251
 20
381.4440289780274
 30
0
 11
1665.35484735824
 21
381.5766114994999
 31
0
  0
LINE
  8
1
 62
2
 10
1665.35484735824
 20
381.5766114994999
 30
0
 11
1665.944103009229
 21
381.3114464565549
 31
0
  0
LINE
  8
1
 62
2
 10
1665.944103009229
 20
381.3114464565549
 30
0
 11
1666.41550753002
 21
380.9136988921375
 31
0
  0
LINE
  8
1
 62
2
 10
1669.59748804536
 20
380.6485338491925
 30
0
 11
1669.951041435953
 21
381.3114464565549
 31
0
  0
LINE
  8
1
 62
2
 10
1669.951041435953
 20
381.3114464565549
 30
0
 11
1670.186743696348
 21
381.8417765424448
 31
0
  0
LINE
  8
1
 62
2
 10
1670.186743696348
 20
381.8417765424448
 30
0
 11
1670.186743696348
 21
382.6372716712797
 31
0
  0
LINE
  8
1
 62
2
 10
1670.186743696348
 20
382.6372716712797
 30
0
 11
1669.951041435953
 21
382.9024367142246
 31
0
  0
LINE
  8
1
 62
2
 10
1669.951041435953
 20
382.9024367142246
 30
0
 11
1669.59748804536
 21
382.7698541927521
 31
0
  0
LINE
  8
1
 62
2
 10
1669.59748804536
 20
382.7698541927521
 30
0
 11
1669.479636915162
 21
382.3721066283347
 31
0
  0
LINE
  8
1
 62
2
 10
1669.479636915162
 20
382.3721066283347
 30
0
 11
1669.833190305755
 21
381.8417765424448
 31
0
  0
LINE
  8
1
 62
2
 10
1669.833190305755
 20
381.8417765424448
 30
0
 11
1670.186743696348
 21
382.1069415853897
 31
0
  0
LINE
  8
1
 62
2
 10
1670.186743696348
 20
382.1069415853897
 30
0
 11
1670.186743696348
 21
384.4934269718943
 31
0
  0
LINE
  8
1
 62
2
 10
1668.418976743382
 20
383.3001842786421
 30
0
 11
1669.715339175557
 21
383.565349321587
 31
0
  0
LINE
  8
1
 62
2
 10
1669.715339175557
 20
383.565349321587
 30
0
 11
1671.483106128524
 21
383.565349321587
 31
0
  0
LINE
  8
1
 62
2
 10
1673.25087308149
 20
381.1788639350824
 30
0
 11
1673.722277602281
 21
381.1788639350824
 31
0
  0
LINE
  8
1
 62
2
 10
1673.722277602281
 20
381.1788639350824
 30
0
 11
1673.722277602281
 21
381.7091940209723
 31
0
  0
LINE
  8
1
 62
2
 10
1673.722277602281
 20
381.7091940209723
 30
0
 11
1673.25087308149
 21
381.7091940209723
 31
0
  0
LINE
  8
1
 62
2
 10
1673.25087308149
 20
381.7091940209723
 30
0
 11
1673.25087308149
 21
381.1788639350824
 31
0
  0
LINE
  8
1
 62
7
 10
1635.848461418957
 20
122.3689008383484
 30
0
 11
1635.623059633621
 21
121.8164454821326
 31
0
  0
LINE
  8
1
 62
7
 10
1635.623059633621
 20
121.8164454821326
 30
0
 11
1635.322523919839
 21
122.2584097671052
 31
0
  0
LINE
  8
1
 62
7
 10
1635.322523919839
 20
122.2584097671052
 30
0
 11
1634.871720349167
 21
122.7003740520779
 31
0
  0
LINE
  8
1
 62
7
 10
1634.871720349167
 20
122.7003740520779
 30
0
 11
1634.34578285005
 21
122.9213561945642
 31
0
  0
LINE
  8
1
 62
7
 10
1634.34578285005
 20
122.9213561945642
 30
0
 11
1634.045247136268
 21
122.9213561945642
 31
0
  0
LINE
  8
1
 62
7
 10
1634.045247136268
 20
122.9213561945642
 30
0
 11
1633.594443565596
 21
122.7003740520779
 31
0
  0
LINE
  8
1
 62
7
 10
1633.594443565596
 20
122.7003740520779
 30
0
 11
1633.36904178026
 21
122.2584097671052
 31
0
  0
LINE
  8
1
 62
7
 10
1633.36904178026
 20
122.2584097671052
 30
0
 11
1633.36904178026
 21
122.810865123321
 31
0
  0
LINE
  8
1
 62
7
 10
1633.36904178026
 20
122.810865123321
 30
0
 11
1632.542568567361
 21
122.810865123321
 31
0
  0
LINE
  8
1
 62
7
 10
1632.542568567361
 20
122.810865123321
 30
0
 11
1632.542568567361
 21
116.2918919199744
 31
0
  0
LINE
  8
1
 62
7
 10
1632.542568567361
 20
116.2918919199744
 30
0
 11
1633.36904178026
 21
116.2918919199744
 31
0
  0
LINE
  8
1
 62
7
 10
1633.36904178026
 20
116.2918919199744
 30
0
 11
1633.36904178026
 21
120.8220258409441
 31
0
  0
LINE
  8
1
 62
7
 10
1633.36904178026
 20
120.8220258409441
 30
0
 11
1633.519309637151
 21
121.3744811971599
 31
0
  0
LINE
  8
1
 62
7
 10
1633.519309637151
 20
121.3744811971599
 30
0
 11
1633.819845350932
 21
121.7059544108894
 31
0
  0
LINE
  8
1
 62
7
 10
1633.819845350932
 20
121.7059544108894
 30
0
 11
1634.120381064714
 21
121.8164454821326
 31
0
  0
LINE
  8
1
 62
7
 10
1634.120381064714
 20
121.8164454821326
 30
0
 11
1634.49605070694
 21
121.7059544108894
 31
0
  0
LINE
  8
1
 62
7
 10
1634.49605070694
 20
121.7059544108894
 30
0
 11
1634.721452492277
 21
121.3744811971599
 31
0
  0
LINE
  8
1
 62
7
 10
1634.721452492277
 20
121.3744811971599
 30
0
 11
1634.946854277613
 21
120.8220258409441
 31
0
  0
LINE
  8
1
 62
7
 10
1634.946854277613
 20
120.8220258409441
 30
0
 11
1635.021988206058
 21
120.3800615559714
 31
0
  0
LINE
  8
1
 62
7
 10
1635.021988206058
 20
120.3800615559714
 30
0
 11
1635.021988206058
 21
116.2918919199744
 31
0
  0
LINE
  8
1
 62
7
 10
1635.021988206058
 20
116.2918919199744
 30
0
 11
1635.848461418957
 21
116.2918919199744
 31
0
  0
LINE
  8
1
 62
7
 10
1635.848461418957
 20
116.2918919199744
 30
0
 11
1635.848461418957
 21
120.8220258409441
 31
0
  0
LINE
  8
1
 62
7
 10
1635.848461418957
 20
120.8220258409441
 30
0
 11
1635.998729275847
 21
121.3744811971599
 31
0
  0
LINE
  8
1
 62
7
 10
1635.998729275847
 20
121.3744811971599
 30
0
 11
1636.299264989629
 21
121.7059544108894
 31
0
  0
LINE
  8
1
 62
7
 10
1636.299264989629
 20
121.7059544108894
 30
0
 11
1636.59980070341
 21
121.8164454821326
 31
0
  0
LINE
  8
1
 62
7
 10
1636.59980070341
 20
121.8164454821326
 30
0
 11
1636.975470345637
 21
121.7059544108894
 31
0
  0
LINE
  8
1
 62
7
 10
1636.975470345637
 20
121.7059544108894
 30
0
 11
1637.200872130973
 21
121.3744811971599
 31
0
  0
LINE
  8
1
 62
7
 10
1637.200872130973
 20
121.3744811971599
 30
0
 11
1637.426273916309
 21
120.8220258409441
 31
0
  0
LINE
  8
1
 62
7
 10
1637.426273916309
 20
120.8220258409441
 30
0
 11
1637.501407844755
 21
120.3800615559714
 31
0
  0
LINE
  8
1
 62
7
 10
1637.501407844755
 20
120.3800615559714
 30
0
 11
1637.501407844755
 21
116.2918919199744
 31
0
  0
LINE
  8
1
 62
7
 10
1637.501407844755
 20
116.2918919199744
 30
0
 11
1638.327881057653
 21
116.2918919199744
 31
0
  0
LINE
  8
1
 62
7
 10
1638.327881057653
 20
116.2918919199744
 30
0
 11
1638.327881057653
 21
120.2695704847283
 31
0
  0
LINE
  8
1
 62
7
 10
1638.327881057653
 20
120.2695704847283
 30
0
 11
1638.252747129208
 21
121.1534990546736
 31
0
  0
LINE
  8
1
 62
7
 10
1638.252747129208
 20
121.1534990546736
 30
0
 11
1638.027345343872
 21
121.8164454821326
 31
0
  0
LINE
  8
1
 62
7
 10
1638.027345343872
 20
121.8164454821326
 30
0
 11
1637.801943558536
 21
122.2584097671052
 31
0
  0
LINE
  8
1
 62
7
 10
1637.801943558536
 20
122.2584097671052
 30
0
 11
1637.351139987864
 21
122.7003740520779
 31
0
  0
LINE
  8
1
 62
7
 10
1637.351139987864
 20
122.7003740520779
 30
0
 11
1636.825202488746
 21
122.9213561945642
 31
0
  0
LINE
  8
1
 62
7
 10
1636.825202488746
 20
122.9213561945642
 30
0
 11
1636.524666774965
 21
122.9213561945642
 31
0
  0
LINE
  8
1
 62
7
 10
1636.524666774965
 20
122.9213561945642
 30
0
 11
1636.148997132738
 21
122.7003740520779
 31
0
  0
LINE
  8
1
 62
7
 10
1636.148997132738
 20
122.7003740520779
 30
0
 11
1635.848461418957
 21
122.3689008383484
 31
0
  0
LINE
  8
1
 62
7
 10
1642.835916764374
 20
122.3689008383484
 30
0
 11
1642.610514979038
 21
121.8164454821326
 31
0
  0
LINE
  8
1
 62
7
 10
1642.610514979038
 20
121.8164454821326
 30
0
 11
1642.309979265257
 21
122.2584097671052
 31
0
  0
LINE
  8
1
 62
7
 10
1642.309979265257
 20
122.2584097671052
 30
0
 11
1641.859175694585
 21
122.7003740520779
 31
0
  0
LINE
  8
1
 62
7
 10
1641.859175694585
 20
122.7003740520779
 30
0
 11
1641.333238195467
 21
122.9213561945642
 31
0
  0
LINE
  8
1
 62
7
 10
1641.333238195467
 20
122.9213561945642
 30
0
 11
1641.032702481686
 21
122.9213561945642
 31
0
  0
LINE
  8
1
 62
7
 10
1641.032702481686
 20
122.9213561945642
 30
0
 11
1640.581898911014
 21
122.7003740520779
 31
0
  0
LINE
  8
1
 62
7
 10
1640.581898911014
 20
122.7003740520779
 30
0
 11
1640.356497125678
 21
122.2584097671052
 31
0
  0
LINE
  8
1
 62
7
 10
1640.356497125678
 20
122.2584097671052
 30
0
 11
1640.356497125678
 21
122.810865123321
 31
0
  0
LINE
  8
1
 62
7
 10
1640.356497125678
 20
122.810865123321
 30
0
 11
1639.530023912779
 21
122.810865123321
 31
0
  0
LINE
  8
1
 62
7
 10
1639.530023912779
 20
122.810865123321
 30
0
 11
1639.530023912779
 21
116.2918919199744
 31
0
  0
LINE
  8
1
 62
7
 10
1639.530023912779
 20
116.2918919199744
 30
0
 11
1640.356497125678
 21
116.2918919199744
 31
0
  0
LINE
  8
1
 62
7
 10
1640.356497125678
 20
116.2918919199744
 30
0
 11
1640.356497125678
 21
120.8220258409441
 31
0
  0
LINE
  8
1
 62
7
 10
1640.356497125678
 20
120.8220258409441
 30
0
 11
1640.506764982569
 21
121.3744811971599
 31
0
  0
LINE
  8
1
 62
7
 10
1640.506764982569
 20
121.3744811971599
 30
0
 11
1640.80730069635
 21
121.7059544108894
 31
0
  0
LINE
  8
1
 62
7
 10
1640.80730069635
 20
121.7059544108894
 30
0
 11
1641.107836410131
 21
121.8164454821326
 31
0
  0
LINE
  8
1
 62
7
 10
1641.107836410131
 20
121.8164454821326
 30
0
 11
1641.483506052358
 21
121.7059544108894
 31
0
  0
LINE
  8
1
 62
7
 10
1641.483506052358
 20
121.7059544108894
 30
0
 11
1641.708907837694
 21
121.3744811971599
 31
0
  0
LINE
  8
1
 62
7
 10
1641.708907837694
 20
121.3744811971599
 30
0
 11
1641.93430962303
 21
120.8220258409441
 31
0
  0
LINE
  8
1
 62
7
 10
1641.93430962303
 20
120.8220258409441
 30
0
 11
1642.009443551475
 21
120.3800615559714
 31
0
  0
LINE
  8
1
 62
7
 10
1642.009443551475
 20
120.3800615559714
 30
0
 11
1642.009443551475
 21
116.2918919199744
 31
0
  0
LINE
  8
1
 62
7
 10
1642.009443551475
 20
116.2918919199744
 30
0
 11
1642.835916764374
 21
116.2918919199744
 31
0
  0
LINE
  8
1
 62
7
 10
1642.835916764374
 20
116.2918919199744
 30
0
 11
1642.835916764374
 21
120.8220258409441
 31
0
  0
LINE
  8
1
 62
7
 10
1642.835916764374
 20
120.8220258409441
 30
0
 11
1642.986184621265
 21
121.3744811971599
 31
0
  0
LINE
  8
1
 62
7
 10
1642.986184621265
 20
121.3744811971599
 30
0
 11
1643.286720335047
 21
121.7059544108894
 31
0
  0
LINE
  8
1
 62
7
 10
1643.286720335047
 20
121.7059544108894
 30
0
 11
1643.587256048828
 21
121.8164454821326
 31
0
  0
LINE
  8
1
 62
7
 10
1643.587256048828
 20
121.8164454821326
 30
0
 11
1643.962925691055
 21
121.7059544108894
 31
0
  0
LINE
  8
1
 62
7
 10
1643.962925691055
 20
121.7059544108894
 30
0
 11
1644.188327476391
 21
121.3744811971599
 31
0
  0
LINE
  8
1
 62
7
 10
1644.188327476391
 20
121.3744811971599
 30
0
 11
1644.413729261727
 21
120.8220258409441
 31
0
  0
LINE
  8
1
 62
7
 10
1644.413729261727
 20
120.8220258409441
 30
0
 11
1644.488863190172
 21
120.3800615559714
 31
0
  0
LINE
  8
1
 62
7
 10
1644.488863190172
 20
120.3800615559714
 30
0
 11
1644.488863190172
 21
116.2918919199744
 31
0
  0
LINE
  8
1
 62
7
 10
1644.488863190172
 20
116.2918919199744
 30
0
 11
1645.315336403071
 21
116.2918919199744
 31
0
  0
LINE
  8
1
 62
7
 10
1645.315336403071
 20
116.2918919199744
 30
0
 11
1645.315336403071
 21
120.2695704847283
 31
0
  0
LINE
  8
1
 62
7
 10
1645.315336403071
 20
120.2695704847283
 30
0
 11
1645.240202474626
 21
121.1534990546736
 31
0
  0
LINE
  8
1
 62
7
 10
1645.240202474626
 20
121.1534990546736
 30
0
 11
1645.01480068929
 21
121.8164454821326
 31
0
  0
LINE
  8
1
 62
7
 10
1645.01480068929
 20
121.8164454821326
 30
0
 11
1644.789398903954
 21
122.2584097671052
 31
0
  0
LINE
  8
1
 62
7
 10
1644.789398903954
 20
122.2584097671052
 30
0
 11
1644.338595333281
 21
122.7003740520779
 31
0
  0
LINE
  8
1
 62
7
 10
1644.338595333281
 20
122.7003740520779
 30
0
 11
1643.812657834164
 21
122.9213561945642
 31
0
  0
LINE
  8
1
 62
7
 10
1643.812657834164
 20
122.9213561945642
 30
0
 11
1643.512122120383
 21
122.9213561945642
 31
0
  0
LINE
  8
1
 62
7
 10
1643.512122120383
 20
122.9213561945642
 30
0
 11
1643.136452478156
 21
122.7003740520779
 31
0
  0
LINE
  8
1
 62
7
 10
1643.136452478156
 20
122.7003740520779
 30
0
 11
1642.835916764374
 21
122.3689008383484
 31
0
  0
LINE
  8
1
 62
7
 10
1611.460251320847
 20
108.984868587781
 30
0
 11
1611.460251320847
 21
110.019065014617
 31
0
  0
LINE
  8
1
 62
7
 10
1611.460251320847
 20
110.019065014617
 30
0
 11
1611.770510248898
 21
111.2256275125924
 31
0
  0
LINE
  8
1
 62
7
 10
1611.770510248898
 20
111.2256275125924
 30
0
 11
1612.391028104999
 21
112.4321900105677
 31
0
  0
LINE
  8
1
 62
7
 10
1612.391028104999
 20
112.4321900105677
 30
0
 11
1613.166675425126
 21
113.4663864374037
 31
0
  0
LINE
  8
1
 62
7
 10
1613.166675425126
 20
113.4663864374037
 30
0
 11
1614.097452209279
 21
114.6729489353791
 31
0
  0
LINE
  8
1
 62
7
 10
1614.097452209279
 20
114.6729489353791
 30
0
 11
1615.028228993431
 21
115.5347792910757
 31
0
  0
LINE
  8
1
 62
7
 10
1615.028228993431
 20
115.5347792910757
 30
0
 11
1615.959005777584
 21
116.5689757179117
 31
0
  0
LINE
  8
1
 62
7
 10
1615.959005777584
 20
116.5689757179117
 30
0
 11
1617.044912025762
 21
117.7755382158871
 31
0
  0
LINE
  8
1
 62
7
 10
1617.044912025762
 20
117.7755382158871
 30
0
 11
1617.355170953812
 21
118.2926364293051
 31
0
  0
LINE
  8
1
 62
7
 10
1617.355170953812
 20
118.2926364293051
 30
0
 11
1617.510300417838
 21
118.8097346427231
 31
0
  0
LINE
  8
1
 62
7
 10
1617.510300417838
 20
118.8097346427231
 30
0
 11
1617.510300417838
 21
119.4991989272805
 31
0
  0
LINE
  8
1
 62
7
 10
1617.510300417838
 20
119.4991989272805
 30
0
 11
1617.355170953812
 21
120.0162971406984
 31
0
  0
LINE
  8
1
 62
7
 10
1617.355170953812
 20
120.0162971406984
 30
0
 11
1617.044912025762
 21
120.5333953541165
 31
0
  0
LINE
  8
1
 62
7
 10
1617.044912025762
 20
120.5333953541165
 30
0
 11
1616.579523633685
 21
120.8781274963951
 31
0
  0
LINE
  8
1
 62
7
 10
1616.579523633685
 20
120.8781274963951
 30
0
 11
1615.959005777584
 21
121.0504935675345
 31
0
  0
LINE
  8
1
 62
7
 10
1615.959005777584
 20
121.0504935675345
 30
0
 11
1615.338487921482
 21
121.0504935675345
 31
0
  0
LINE
  8
1
 62
7
 10
1615.338487921482
 20
121.0504935675345
 30
0
 11
1614.71797006538
 21
120.8781274963951
 31
0
  0
LINE
  8
1
 62
7
 10
1614.71797006538
 20
120.8781274963951
 30
0
 11
1614.252581673304
 21
120.5333953541165
 31
0
  0
LINE
  8
1
 62
7
 10
1614.252581673304
 20
120.5333953541165
 30
0
 11
1613.942322745254
 21
120.0162971406984
 31
0
  0
LINE
  8
1
 62
7
 10
1613.942322745254
 20
120.0162971406984
 30
0
 11
1613.787193281228
 21
119.4991989272805
 31
0
  0
LINE
  8
1
 62
7
 10
1613.787193281228
 20
119.4991989272805
 30
0
 11
1613.787193281228
 21
118.8097346427231
 31
0
  0
LINE
  8
1
 62
7
 10
1613.787193281228
 20
118.8097346427231
 30
0
 11
1612.080769176949
 21
118.8097346427231
 31
0
  0
LINE
  8
1
 62
7
 10
1612.080769176949
 20
118.8097346427231
 30
0
 11
1612.080769176949
 21
119.4991989272805
 31
0
  0
LINE
  8
1
 62
7
 10
1612.080769176949
 20
119.4991989272805
 30
0
 11
1612.235898640974
 21
120.3610292829771
 31
0
  0
LINE
  8
1
 62
7
 10
1612.235898640974
 20
120.3610292829771
 30
0
 11
1612.856416497076
 21
121.3952257098131
 31
0
  0
LINE
  8
1
 62
7
 10
1612.856416497076
 20
121.3952257098131
 30
0
 11
1613.476934353177
 21
122.0846899943705
 31
0
  0
LINE
  8
1
 62
7
 10
1613.476934353177
 20
122.0846899943705
 30
0
 11
1614.40771113733
 21
122.6017882077885
 31
0
  0
LINE
  8
1
 62
7
 10
1614.40771113733
 20
122.6017882077885
 30
0
 11
1615.183358457457
 21
122.7741542789278
 31
0
  0
LINE
  8
1
 62
7
 10
1615.183358457457
 20
122.7741542789278
 30
0
 11
1616.114135241609
 21
122.7741542789278
 31
0
  0
LINE
  8
1
 62
7
 10
1616.114135241609
 20
122.7741542789278
 30
0
 11
1616.889782561736
 21
122.6017882077885
 31
0
  0
LINE
  8
1
 62
7
 10
1616.889782561736
 20
122.6017882077885
 30
0
 11
1617.820559345888
 21
122.0846899943705
 31
0
  0
LINE
  8
1
 62
7
 10
1617.820559345888
 20
122.0846899943705
 30
0
 11
1618.44107720199
 21
121.3952257098131
 31
0
  0
LINE
  8
1
 62
7
 10
1618.44107720199
 20
121.3952257098131
 30
0
 11
1619.061595058092
 21
120.3610292829771
 31
0
  0
LINE
  8
1
 62
7
 10
1619.061595058092
 20
120.3610292829771
 30
0
 11
1619.216724522117
 21
119.4991989272805
 31
0
  0
LINE
  8
1
 62
7
 10
1619.216724522117
 20
119.4991989272805
 30
0
 11
1619.216724522117
 21
118.8097346427231
 31
0
  0
LINE
  8
1
 62
7
 10
1619.216724522117
 20
118.8097346427231
 30
0
 11
1619.061595058092
 21
117.9479042870264
 31
0
  0
LINE
  8
1
 62
7
 10
1619.061595058092
 20
117.9479042870264
 30
0
 11
1618.44107720199
 21
116.9137078601904
 31
0
  0
LINE
  8
1
 62
7
 10
1618.44107720199
 20
116.9137078601904
 30
0
 11
1618.130818273939
 21
116.5689757179117
 31
0
  0
LINE
  8
1
 62
7
 10
1618.130818273939
 20
116.5689757179117
 30
0
 11
1616.889782561736
 21
115.3624132199364
 31
0
  0
LINE
  8
1
 62
7
 10
1616.889782561736
 20
115.3624132199364
 30
0
 11
1615.803876313558
 21
114.3282167931004
 31
0
  0
LINE
  8
1
 62
7
 10
1615.803876313558
 20
114.3282167931004
 30
0
 11
1614.71797006538
 21
112.9492882239857
 31
0
  0
LINE
  8
1
 62
7
 10
1614.71797006538
 20
112.9492882239857
 30
0
 11
1613.942322745254
 21
111.7427257260104
 31
0
  0
LINE
  8
1
 62
7
 10
1613.942322745254
 20
111.7427257260104
 30
0
 11
1613.632063817203
 21
110.7085292991743
 31
0
  0
LINE
  8
1
 62
7
 10
1613.632063817203
 20
110.7085292991743
 30
0
 11
1619.682112914193
 21
110.7085292991743
 31
0
  0
LINE
  8
1
 62
7
 10
1619.682112914193
 20
110.7085292991743
 30
0
 11
1619.682112914193
 21
108.984868587781
 31
0
  0
LINE
  8
1
 62
7
 10
1619.682112914193
 20
108.984868587781
 30
0
 11
1611.460251320847
 21
108.984868587781
 31
0
  0
LINE
  8
1
 62
7
 10
1625.813320314175
 20
110.7085292991743
 30
0
 11
1626.899226562353
 21
110.7085292991743
 31
0
  0
LINE
  8
1
 62
7
 10
1626.899226562353
 20
110.7085292991743
 30
0
 11
1627.519744418454
 21
111.053261441453
 31
0
  0
LINE
  8
1
 62
7
 10
1627.519744418454
 20
111.053261441453
 30
0
 11
1628.140262274556
 21
111.570359654871
 31
0
  0
LINE
  8
1
 62
7
 10
1628.140262274556
 20
111.570359654871
 30
0
 11
1628.450521202607
 21
112.087457868289
 31
0
  0
LINE
  8
1
 62
7
 10
1628.450521202607
 20
112.087457868289
 30
0
 11
1628.760780130658
 21
112.9492882239857
 31
0
  0
LINE
  8
1
 62
7
 10
1628.760780130658
 20
112.9492882239857
 30
0
 11
1628.915909594683
 21
114.8453150065184
 31
0
  0
LINE
  8
1
 62
7
 10
1628.915909594683
 20
114.8453150065184
 30
0
 11
1628.915909594683
 21
116.9137078601904
 31
0
  0
LINE
  8
1
 62
7
 10
1628.915909594683
 20
116.9137078601904
 30
0
 11
1628.760780130658
 21
118.8097346427231
 31
0
  0
LINE
  8
1
 62
7
 10
1628.760780130658
 20
118.8097346427231
 30
0
 11
1628.450521202607
 21
119.6715649984198
 31
0
  0
LINE
  8
1
 62
7
 10
1628.450521202607
 20
119.6715649984198
 30
0
 11
1628.140262274556
 21
120.1886632118378
 31
0
  0
LINE
  8
1
 62
7
 10
1628.140262274556
 20
120.1886632118378
 30
0
 11
1627.519744418454
 21
120.7057614252558
 31
0
  0
LINE
  8
1
 62
7
 10
1627.519744418454
 20
120.7057614252558
 30
0
 11
1626.899226562353
 21
121.0504935675345
 31
0
  0
LINE
  8
1
 62
7
 10
1626.899226562353
 20
121.0504935675345
 30
0
 11
1625.813320314175
 21
121.0504935675345
 31
0
  0
LINE
  8
1
 62
7
 10
1625.813320314175
 20
121.0504935675345
 30
0
 11
1625.192802458073
 21
120.7057614252558
 31
0
  0
LINE
  8
1
 62
7
 10
1625.192802458073
 20
120.7057614252558
 30
0
 11
1624.572284601972
 21
120.1886632118378
 31
0
  0
LINE
  8
1
 62
7
 10
1624.572284601972
 20
120.1886632118378
 30
0
 11
1624.262025673921
 21
119.6715649984198
 31
0
  0
LINE
  8
1
 62
7
 10
1624.262025673921
 20
119.6715649984198
 30
0
 11
1623.95176674587
 21
118.8097346427231
 31
0
  0
LINE
  8
1
 62
7
 10
1623.95176674587
 20
118.8097346427231
 30
0
 11
1623.796637281845
 21
116.9137078601904
 31
0
  0
LINE
  8
1
 62
7
 10
1623.796637281845
 20
116.9137078601904
 30
0
 11
1623.796637281845
 21
114.8453150065184
 31
0
  0
LINE
  8
1
 62
7
 10
1623.796637281845
 20
114.8453150065184
 30
0
 11
1623.95176674587
 21
112.9492882239857
 31
0
  0
LINE
  8
1
 62
7
 10
1623.95176674587
 20
112.9492882239857
 30
0
 11
1624.262025673921
 21
112.087457868289
 31
0
  0
LINE
  8
1
 62
7
 10
1624.262025673921
 20
112.087457868289
 30
0
 11
1624.572284601972
 21
111.570359654871
 31
0
  0
LINE
  8
1
 62
7
 10
1624.572284601972
 20
111.570359654871
 30
0
 11
1625.192802458073
 21
111.053261441453
 31
0
  0
LINE
  8
1
 62
7
 10
1625.192802458073
 20
111.053261441453
 30
0
 11
1625.813320314175
 21
110.7085292991743
 31
0
  0
LINE
  8
1
 62
7
 10
1628.760780130658
 20
109.8466989434777
 30
0
 11
1629.226168522734
 21
110.3637971568957
 31
0
  0
LINE
  8
1
 62
7
 10
1629.226168522734
 20
110.3637971568957
 30
0
 11
1629.69155691481
 21
111.053261441453
 31
0
  0
LINE
  8
1
 62
7
 10
1629.69155691481
 20
111.053261441453
 30
0
 11
1630.001815842861
 21
111.7427257260104
 31
0
  0
LINE
  8
1
 62
7
 10
1630.001815842861
 20
111.7427257260104
 30
0
 11
1630.312074770912
 21
112.604556081707
 31
0
  0
LINE
  8
1
 62
7
 10
1630.312074770912
 20
112.604556081707
 30
0
 11
1630.467204234937
 21
113.6387525085431
 31
0
  0
LINE
  8
1
 62
7
 10
1630.467204234937
 20
113.6387525085431
 30
0
 11
1630.622333698962
 21
115.1900471487971
 31
0
  0
LINE
  8
1
 62
7
 10
1630.622333698962
 20
115.1900471487971
 30
0
 11
1630.622333698962
 21
116.5689757179117
 31
0
  0
LINE
  8
1
 62
7
 10
1630.622333698962
 20
116.5689757179117
 30
0
 11
1630.467204234937
 21
118.1202703581658
 31
0
  0
LINE
  8
1
 62
7
 10
1630.467204234937
 20
118.1202703581658
 30
0
 11
1630.312074770912
 21
119.1544667850018
 31
0
  0
LINE
  8
1
 62
7
 10
1630.312074770912
 20
119.1544667850018
 30
0
 11
1630.001815842861
 21
120.0162971406984
 31
0
  0
LINE
  8
1
 62
7
 10
1630.001815842861
 20
120.0162971406984
 30
0
 11
1629.69155691481
 21
120.7057614252558
 31
0
  0
LINE
  8
1
 62
7
 10
1629.69155691481
 20
120.7057614252558
 30
0
 11
1629.226168522734
 21
121.3952257098131
 31
0
  0
LINE
  8
1
 62
7
 10
1629.226168522734
 20
121.3952257098131
 30
0
 11
1628.760780130658
 21
121.9123239232311
 31
0
  0
LINE
  8
1
 62
7
 10
1628.760780130658
 20
121.9123239232311
 30
0
 11
1628.295391738581
 21
122.2570560655098
 31
0
  0
LINE
  8
1
 62
7
 10
1628.295391738581
 20
122.2570560655098
 30
0
 11
1627.519744418454
 21
122.6017882077885
 31
0
  0
LINE
  8
1
 62
7
 10
1627.519744418454
 20
122.6017882077885
 30
0
 11
1626.899226562353
 21
122.7741542789278
 31
0
  0
LINE
  8
1
 62
7
 10
1626.899226562353
 20
122.7741542789278
 30
0
 11
1625.813320314175
 21
122.7741542789278
 31
0
  0
LINE
  8
1
 62
7
 10
1625.813320314175
 20
122.7741542789278
 30
0
 11
1625.192802458073
 21
122.6017882077885
 31
0
  0
LINE
  8
1
 62
7
 10
1625.192802458073
 20
122.6017882077885
 30
0
 11
1624.417155137946
 21
122.2570560655098
 31
0
  0
LINE
  8
1
 62
7
 10
1624.417155137946
 20
122.2570560655098
 30
0
 11
1623.95176674587
 21
121.9123239232311
 31
0
  0
LINE
  8
1
 62
7
 10
1623.95176674587
 20
121.9123239232311
 30
0
 11
1623.486378353794
 21
121.3952257098131
 31
0
  0
LINE
  8
1
 62
7
 10
1623.486378353794
 20
121.3952257098131
 30
0
 11
1623.020989961718
 21
120.7057614252558
 31
0
  0
LINE
  8
1
 62
7
 10
1623.020989961718
 20
120.7057614252558
 30
0
 11
1622.710731033667
 21
120.0162971406984
 31
0
  0
LINE
  8
1
 62
7
 10
1622.710731033667
 20
120.0162971406984
 30
0
 11
1622.400472105616
 21
119.1544667850018
 31
0
  0
LINE
  8
1
 62
7
 10
1622.400472105616
 20
119.1544667850018
 30
0
 11
1622.245342641591
 21
118.1202703581658
 31
0
  0
LINE
  8
1
 62
7
 10
1622.245342641591
 20
118.1202703581658
 30
0
 11
1622.090213177565
 21
116.5689757179117
 31
0
  0
LINE
  8
1
 62
7
 10
1622.090213177565
 20
116.5689757179117
 30
0
 11
1622.090213177565
 21
115.1900471487971
 31
0
  0
LINE
  8
1
 62
7
 10
1622.090213177565
 20
115.1900471487971
 30
0
 11
1622.245342641591
 21
113.6387525085431
 31
0
  0
LINE
  8
1
 62
7
 10
1622.245342641591
 20
113.6387525085431
 30
0
 11
1622.400472105616
 21
112.604556081707
 31
0
  0
LINE
  8
1
 62
7
 10
1622.400472105616
 20
112.604556081707
 30
0
 11
1622.710731033667
 21
111.7427257260104
 31
0
  0
LINE
  8
1
 62
7
 10
1622.710731033667
 20
111.7427257260104
 30
0
 11
1623.020989961718
 21
111.053261441453
 31
0
  0
LINE
  8
1
 62
7
 10
1623.020989961718
 20
111.053261441453
 30
0
 11
1623.486378353794
 21
110.3637971568957
 31
0
  0
LINE
  8
1
 62
7
 10
1623.486378353794
 20
110.3637971568957
 30
0
 11
1623.95176674587
 21
109.8466989434777
 31
0
  0
LINE
  8
1
 62
7
 10
1623.95176674587
 20
109.8466989434777
 30
0
 11
1624.417155137946
 21
109.501966801199
 31
0
  0
LINE
  8
1
 62
7
 10
1624.417155137946
 20
109.501966801199
 30
0
 11
1625.192802458073
 21
109.1572346589203
 31
0
  0
LINE
  8
1
 62
7
 10
1625.192802458073
 20
109.1572346589203
 30
0
 11
1625.813320314175
 21
108.984868587781
 31
0
  0
LINE
  8
1
 62
7
 10
1625.813320314175
 20
108.984868587781
 30
0
 11
1626.899226562353
 21
108.984868587781
 31
0
  0
LINE
  8
1
 62
7
 10
1626.899226562353
 20
108.984868587781
 30
0
 11
1627.519744418454
 21
109.1572346589203
 31
0
  0
LINE
  8
1
 62
7
 10
1627.519744418454
 20
109.1572346589203
 30
0
 11
1628.295391738581
 21
109.501966801199
 31
0
  0
LINE
  8
1
 62
7
 10
1628.295391738581
 20
109.501966801199
 30
0
 11
1628.760780130658
 21
109.8466989434777
 31
0
  0
LINE
  8
1
 62
2
 10
1602.075677047217
 20
48.63544506536084
 30
0
 11
1602.075677047217
 21
52.87808575248013
 31
0
  0
LINE
  8
1
 62
2
 10
1602.075677047217
 20
52.87808575248013
 30
0
 11
1605.045525528201
 21
48.63544506536084
 31
0
  0
LINE
  8
1
 62
2
 10
1605.045525528201
 20
48.63544506536084
 30
0
 11
1605.045525528201
 21
52.87808575248013
 31
0
  0
LINE
  8
1
 62
2
 10
1607.166845871761
 20
50.75676540892049
 30
0
 11
1606.318317734337
 21
49.90823727149662
 31
0
  0
LINE
  8
1
 62
2
 10
1609.28816621532
 20
52.87808575248013
 30
0
 11
1607.166845871761
 21
50.75676540892049
 31
0
  0
LINE
  8
1
 62
2
 10
1607.166845871761
 20
50.75676540892049
 30
0
 11
1609.28816621532
 21
48.63544506536084
 31
0
  0
LINE
  8
1
 62
2
 10
1606.318317734337
 20
48.63544506536084
 30
0
 11
1606.318317734337
 21
49.90823727149662
 31
0
  0
LINE
  8
1
 62
2
 10
1606.318317734337
 20
49.90823727149662
 30
0
 11
1606.318317734337
 21
52.87808575248013
 31
0
  0
LINE
  8
1
 62
2
 10
1613.53080690244
 20
52.87808575248013
 30
0
 11
1613.53080690244
 21
50.96889744327645
 31
0
  0
LINE
  8
1
 62
2
 10
1610.560958421456
 20
50.96889744327645
 30
0
 11
1613.53080690244
 21
50.96889744327645
 31
0
  0
LINE
  8
1
 62
2
 10
1610.560958421456
 20
52.87808575248013
 30
0
 11
1610.560958421456
 21
50.96889744327645
 31
0
  0
LINE
  8
1
 62
2
 10
1610.560958421456
 20
50.75676540892049
 30
0
 11
1610.560958421456
 21
48.63544506536084
 31
0
  0
LINE
  8
1
 62
2
 10
1613.53080690244
 20
50.96889744327645
 30
0
 11
1613.53080690244
 21
48.63544506536084
 31
0
  0
LINE
  8
1
 62
2
 10
1610.560958421456
 20
50.96889744327645
 30
0
 11
1610.560958421456
 21
50.75676540892049
 31
0
  0
LINE
  8
1
 62
2
 10
1615.333929194465
 20
49.90823727149662
 30
0
 11
1617.667381572381
 21
49.90823727149662
 31
0
  0
LINE
  8
1
 62
2
 10
1614.803599108575
 20
48.63544506536084
 30
0
 11
1616.500655383423
 21
52.87808575248013
 31
0
  0
LINE
  8
1
 62
2
 10
1616.500655383423
 20
52.87808575248013
 30
0
 11
1618.197711658271
 21
48.63544506536084
 31
0
  0
LINE
  8
1
 62
2
 10
1619.706206124802
 20
48.76802758683332
 30
0
 11
1621.473973077769
 21
48.76802758683332
 31
0
  0
LINE
  8
1
 62
2
 10
1622.652484379746
 20
49.69610523714066
 30
0
 11
1620.059759515395
 21
49.69610523714066
 31
0
  0
LINE
  8
1
 62
2
 10
1619.706206124802
 20
50.22643532303057
 30
0
 11
1620.059759515395
 21
50.75676540892049
 31
0
  0
LINE
  8
1
 62
2
 10
1620.059759515395
 20
50.75676540892049
 30
0
 11
1620.295461775791
 21
51.68484305922783
 31
0
  0
LINE
  8
1
 62
2
 10
1620.295461775791
 20
51.68484305922783
 30
0
 11
1620.295461775791
 21
52.61292070953518
 31
0
  0
LINE
  8
1
 62
2
 10
1621.473973077769
 20
52.61292070953518
 30
0
 11
1620.88471742678
 21
52.61292070953518
 31
0
  0
LINE
  8
1
 62
2
 10
1619.588354994604
 20
51.68484305922783
 30
0
 11
1621.591824207966
 21
51.68484305922783
 31
0
  0
LINE
  8
1
 62
2
 10
1620.88471742678
 20
52.61292070953518
 30
0
 11
1620.88471742678
 21
50.35901784450305
 31
0
  0
LINE
  8
1
 62
2
 10
1622.063228728757
 20
50.88934793039296
 30
0
 11
1622.063228728757
 21
52.61292070953518
 31
0
  0
LINE
  8
1
 62
2
 10
1622.888186640141
 20
52.74550323100765
 30
0
 11
1622.888186640141
 21
50.35901784450305
 31
0
  0
LINE
  8
1
 62
2
 10
1622.888186640141
 20
50.35901784450305
 30
0
 11
1622.534633249548
 21
50.35901784450305
 31
0
  0
LINE
  8
1
 62
2
 10
1621.473973077769
 20
50.35901784450305
 30
0
 11
1621.473973077769
 21
48.76802758683332
 31
0
  0
LINE
  8
1
 62
2
 10
1621.473973077769
 20
48.76802758683332
 30
0
 11
1623.123888900537
 21
48.76802758683332
 31
0
  0
LINE
  8
1
 62
2
 10
1620.88471742678
 20
52.61292070953518
 30
0
 11
1619.706206124802
 21
52.61292070953518
 31
0
  0
LINE
  8
1
 62
2
 10
1623.713144551526
 20
52.24168964941224
 30
0
 11
1623.925276585882
 21
52.55988770094618
 31
0
  0
LINE
  8
1
 62
2
 10
1623.925276585882
 20
52.55988770094618
 30
0
 11
1624.243474637416
 21
52.77201973530215
 31
0
  0
LINE
  8
1
 62
2
 10
1624.243474637416
 20
52.77201973530215
 30
0
 11
1624.667738706128
 21
52.87808575248013
 31
0
  0
LINE
  8
1
 62
2
 10
1624.667738706128
 20
52.87808575248013
 30
0
 11
1625.304134809195
 21
52.87808575248013
 31
0
  0
LINE
  8
1
 62
2
 10
1625.304134809195
 20
52.87808575248013
 30
0
 11
1625.728398877907
 21
52.77201973530215
 31
0
  0
LINE
  8
1
 62
2
 10
1625.728398877907
 20
52.77201973530215
 30
0
 11
1626.046596929441
 21
52.55988770094618
 31
0
  0
LINE
  8
1
 62
2
 10
1626.046596929441
 20
52.55988770094618
 30
0
 11
1626.258728963797
 21
52.24168964941224
 31
0
  0
LINE
  8
1
 62
2
 10
1626.258728963797
 20
52.24168964941224
 30
0
 11
1626.258728963797
 21
51.8174255807003
 31
0
  0
LINE
  8
1
 62
2
 10
1626.258728963797
 20
51.8174255807003
 30
0
 11
1626.046596929441
 21
51.39316151198837
 31
0
  0
LINE
  8
1
 62
2
 10
1626.046596929441
 20
51.39316151198837
 30
0
 11
1623.713144551526
 21
48.63544506536084
 31
0
  0
LINE
  8
1
 62
2
 10
1623.713144551526
 20
48.63544506536084
 30
0
 11
1626.258728963797
 21
48.63544506536084
 31
0
  0
LINE
  8
1
 62
2
 10
1630.077105582205
 20
50.22643532303057
 30
0
 11
1629.971039565027
 21
49.59003921996268
 31
0
  0
LINE
  8
1
 62
2
 10
1629.971039565027
 20
49.59003921996268
 30
0
 11
1629.758907530671
 21
49.16577515125075
 31
0
  0
LINE
  8
1
 62
2
 10
1629.758907530671
 20
49.16577515125075
 30
0
 11
1629.546775496315
 21
48.95364311689479
 31
0
  0
LINE
  8
1
 62
2
 10
1629.546775496315
 20
48.95364311689479
 30
0
 11
1629.228577444781
 21
48.74151108253882
 31
0
  0
LINE
  8
1
 62
2
 10
1629.228577444781
 20
48.74151108253882
 30
0
 11
1628.910379393247
 21
48.63544506536084
 31
0
  0
LINE
  8
1
 62
2
 10
1628.910379393247
 20
48.63544506536084
 30
0
 11
1628.698247358891
 21
48.63544506536084
 31
0
  0
LINE
  8
1
 62
2
 10
1628.698247358891
 20
48.63544506536084
 30
0
 11
1628.380049307357
 21
48.74151108253882
 31
0
  0
LINE
  8
1
 62
2
 10
1628.380049307357
 20
48.74151108253882
 30
0
 11
1628.061851255823
 21
48.95364311689479
 31
0
  0
LINE
  8
1
 62
2
 10
1628.061851255823
 20
48.95364311689479
 30
0
 11
1627.849719221467
 21
49.16577515125075
 31
0
  0
LINE
  8
1
 62
2
 10
1627.849719221467
 20
49.16577515125075
 30
0
 11
1627.637587187111
 21
49.59003921996268
 31
0
  0
LINE
  8
1
 62
2
 10
1627.637587187111
 20
49.59003921996268
 30
0
 11
1627.531521169933
 21
50.22643532303057
 31
0
  0
LINE
  8
1
 62
2
 10
1627.531521169933
 20
50.22643532303057
 30
0
 11
1627.531521169933
 21
51.28709549481039
 31
0
  0
LINE
  8
1
 62
2
 10
1627.531521169933
 20
51.28709549481039
 30
0
 11
1627.637587187111
 21
51.92349159787829
 31
0
  0
LINE
  8
1
 62
2
 10
1627.637587187111
 20
51.92349159787829
 30
0
 11
1627.849719221467
 21
52.34775566659022
 31
0
  0
LINE
  8
1
 62
2
 10
1627.849719221467
 20
52.34775566659022
 30
0
 11
1628.061851255823
 21
52.55988770094618
 31
0
  0
LINE
  8
1
 62
2
 10
1628.061851255823
 20
52.55988770094618
 30
0
 11
1628.380049307357
 21
52.77201973530215
 31
0
  0
LINE
  8
1
 62
2
 10
1628.380049307357
 20
52.77201973530215
 30
0
 11
1628.698247358891
 21
52.87808575248013
 31
0
  0
LINE
  8
1
 62
2
 10
1628.698247358891
 20
52.87808575248013
 30
0
 11
1628.910379393247
 21
52.87808575248013
 31
0
  0
LINE
  8
1
 62
2
 10
1628.910379393247
 20
52.87808575248013
 30
0
 11
1629.228577444781
 21
52.77201973530215
 31
0
  0
LINE
  8
1
 62
2
 10
1629.228577444781
 20
52.77201973530215
 30
0
 11
1629.546775496315
 21
52.55988770094618
 31
0
  0
LINE
  8
1
 62
2
 10
1629.546775496315
 20
52.55988770094618
 30
0
 11
1629.758907530671
 21
52.34775566659022
 31
0
  0
LINE
  8
1
 62
2
 10
1629.758907530671
 20
52.34775566659022
 30
0
 11
1629.971039565027
 21
51.92349159787829
 31
0
  0
LINE
  8
1
 62
2
 10
1629.971039565027
 20
51.92349159787829
 30
0
 11
1630.077105582205
 21
51.28709549481039
 31
0
  0
LINE
  8
1
 62
2
 10
1630.077105582205
 20
51.28709549481039
 30
0
 11
1630.077105582205
 21
50.22643532303057
 31
0
  0
LINE
  8
1
 62
2
 10
1631.349897788341
 20
48.63544506536084
 30
0
 11
1631.349897788341
 21
51.60529354634434
 31
0
  0
LINE
  8
1
 62
2
 10
1631.349897788341
 20
51.60529354634434
 30
0
 11
1632.834822028832
 21
51.60529354634434
 31
0
  0
LINE
  8
1
 62
2
 10
1633.683350166256
 20
51.60529354634434
 30
0
 11
1634.00154821779
 21
51.49922752916636
 31
0
  0
LINE
  8
1
 62
2
 10
1634.00154821779
 20
51.49922752916636
 30
0
 11
1634.213680252146
 21
51.28709549481039
 31
0
  0
LINE
  8
1
 62
2
 10
1634.213680252146
 20
51.28709549481039
 30
0
 11
1634.319746269324
 21
51.07496346045443
 31
0
  0
LINE
  8
1
 62
2
 10
1634.319746269324
 20
51.07496346045443
 30
0
 11
1634.319746269324
 21
48.63544506536084
 31
0
  0
LINE
  8
1
 62
2
 10
1632.834822028832
 20
51.60529354634434
 30
0
 11
1632.834822028832
 21
48.63544506536084
 31
0
  0
LINE
  8
1
 62
2
 10
1632.834822028832
 20
51.60529354634434
 30
0
 11
1633.683350166256
 21
51.60529354634434
 31
0
  0
LINE
  8
1
 62
2
 10
1635.59253847546
 20
48.63544506536084
 30
0
 11
1635.59253847546
 21
51.60529354634434
 31
0
  0
LINE
  8
1
 62
2
 10
1635.59253847546
 20
51.60529354634434
 30
0
 11
1637.077462715951
 21
51.60529354634434
 31
0
  0
LINE
  8
1
 62
2
 10
1637.925990853375
 20
51.60529354634434
 30
0
 11
1638.244188904909
 21
51.49922752916636
 31
0
  0
LINE
  8
1
 62
2
 10
1638.244188904909
 20
51.49922752916636
 30
0
 11
1638.456320939265
 21
51.28709549481039
 31
0
  0
LINE
  8
1
 62
2
 10
1638.456320939265
 20
51.28709549481039
 30
0
 11
1638.562386956443
 21
51.07496346045443
 31
0
  0
LINE
  8
1
 62
2
 10
1638.562386956443
 20
51.07496346045443
 30
0
 11
1638.562386956443
 21
48.63544506536084
 31
0
  0
LINE
  8
1
 62
2
 10
1637.077462715951
 20
51.60529354634434
 30
0
 11
1637.077462715951
 21
48.63544506536084
 31
0
  0
LINE
  8
1
 62
2
 10
1637.077462715951
 20
51.60529354634434
 30
0
 11
1637.925990853375
 21
51.60529354634434
 31
0
  0
LINE
  8
1
 62
2
 10
1639.953030292777
 20
48.76802758683332
 30
0
 11
1640.542285943765
 21
50.35901784450305
 31
0
  0
LINE
  8
1
 62
2
 10
1640.30658368337
 20
50.88934793039296
 30
0
 11
1639.835179162579
 21
51.28709549481039
 31
0
  0
LINE
  8
1
 62
2
 10
1640.542285943765
 20
52.08259062364526
 30
0
 11
1640.070881422975
 21
52.4803381880627
 31
0
  0
LINE
  8
1
 62
2
 10
1641.36724385515
 20
52.4803381880627
 30
0
 11
1641.36724385515
 21
51.68484305922783
 31
0
  0
LINE
  8
1
 62
2
 10
1641.36724385515
 20
50.88934793039296
 30
0
 11
1642.781457417523
 21
50.88934793039296
 31
0
  0
LINE
  8
1
 62
2
 10
1642.781457417523
 20
50.88934793039296
 30
0
 11
1642.781457417523
 21
51.68484305922783
 31
0
  0
LINE
  8
1
 62
2
 10
1642.781457417523
 20
52.4803381880627
 30
0
 11
1641.36724385515
 21
52.4803381880627
 31
0
  0
LINE
  8
1
 62
2
 10
1641.36724385515
 20
51.68484305922783
 30
0
 11
1642.781457417523
 21
51.68484305922783
 31
0
  0
LINE
  8
1
 62
2
 10
1641.249392724952
 20
48.76802758683332
 30
0
 11
1641.249392724952
 21
50.22643532303057
 31
0
  0
LINE
  8
1
 62
2
 10
1641.249392724952
 20
50.22643532303057
 30
0
 11
1641.838648375941
 21
50.22643532303057
 31
0
  0
LINE
  8
1
 62
2
 10
1643.017159677919
 20
50.22643532303057
 30
0
 11
1643.017159677919
 21
48.76802758683332
 31
0
  0
LINE
  8
1
 62
2
 10
1642.42790402693
 20
48.76802758683332
 30
0
 11
1642.42790402693
 21
50.22643532303057
 31
0
  0
LINE
  8
1
 62
2
 10
1641.838648375941
 20
50.22643532303057
 30
0
 11
1641.838648375941
 21
48.76802758683332
 31
0
  0
LINE
  8
1
 62
2
 10
1640.660137073963
 20
48.76802758683332
 30
0
 11
1641.249392724952
 21
48.76802758683332
 31
0
  0
LINE
  8
1
 62
2
 10
1641.838648375941
 20
48.76802758683332
 30
0
 11
1643.606415328907
 21
48.76802758683332
 31
0
  0
LINE
  8
1
 62
2
 10
1641.838648375941
 20
50.22643532303057
 30
0
 11
1643.017159677919
 21
50.22643532303057
 31
0
  0
LINE
  8
1
 62
2
 10
1641.249392724952
 20
48.76802758683332
 30
0
 11
1641.838648375941
 21
48.76802758683332
 31
0
  0
LINE
  8
1
 62
2
 10
1642.781457417523
 20
51.68484305922783
 30
0
 11
1642.781457417523
 21
52.4803381880627
 31
0
  0
LINE
  8
1
 62
2
 10
1641.36724385515
 20
51.68484305922783
 30
0
 11
1641.36724385515
 21
50.88934793039296
 31
0
  0
LINE
  8
1
 62
2
 10
1644.313522110094
 20
49.29835767272323
 30
0
 11
1644.784926630885
 21
49.82868775861314
 31
0
  0
LINE
  8
1
 62
2
 10
1644.784926630885
 20
49.82868775861314
 30
0
 11
1645.256331151676
 21
50.62418288744801
 31
0
  0
LINE
  8
1
 62
2
 10
1645.256331151676
 20
50.62418288744801
 30
0
 11
1645.492033412071
 21
51.41967801628287
 31
0
  0
LINE
  8
1
 62
2
 10
1645.492033412071
 20
51.41967801628287
 30
0
 11
1644.313522110094
 21
51.41967801628287
 31
0
  0
LINE
  8
1
 62
2
 10
1646.08128906306
 20
52.74550323100765
 30
0
 11
1646.08128906306
 21
48.63544506536084
 31
0
  0
LINE
  8
1
 62
2
 10
1646.08128906306
 20
48.63544506536084
 30
0
 11
1645.727735672467
 21
48.76802758683332
 31
0
  0
LINE
  8
1
 62
2
 10
1647.495502625433
 20
51.8174255807003
 30
0
 11
1646.670544714049
 21
51.15451297333792
 31
0
  0
LINE
  8
1
 62
2
 10
1646.434842453653
 20
51.68484305922783
 30
0
 11
1646.788395844247
 21
50.75676540892049
 31
0
  0
LINE
  8
1
 62
2
 10
1646.788395844247
 20
50.75676540892049
 30
0
 11
1647.259800365038
 21
49.96127028008561
 31
0
  0
LINE
  8
1
 62
2
 10
1647.259800365038
 20
49.96127028008561
 30
0
 11
1647.849056016027
 21
49.29835767272323
 31
0
  0
LINE
  8
1
 62
2
 10
1649.027567318004
 20
49.16577515125075
 30
0
 11
1649.852525229388
 21
49.82868775861314
 31
0
  0
LINE
  8
1
 62
2
 10
1649.852525229388
 20
49.82868775861314
 30
0
 11
1650.79533427097
 21
51.02193045186544
 31
0
  0
LINE
  8
1
 62
2
 10
1650.79533427097
 20
51.02193045186544
 30
0
 11
1651.384589921959
 21
52.21517314511774
 31
0
  0
LINE
  8
1
 62
2
 10
1649.970376359586
 20
51.41967801628287
 30
0
 11
1650.559632010575
 21
50.75676540892049
 31
0
  0
LINE
  8
1
 62
2
 10
1650.559632010575
 20
50.75676540892049
 30
0
 11
1651.148887661564
 21
49.82868775861314
 31
0
  0
LINE
  8
1
 62
2
 10
1653.152356874926
 20
50.88934793039296
 30
0
 11
1653.388059135321
 21
50.75676540892049
 31
0
  0
LINE
  8
1
 62
2
 10
1653.388059135321
 20
50.75676540892049
 30
0
 11
1655.509379478881
 21
50.75676540892049
 31
0
  0
LINE
  8
1
 62
2
 10
1655.509379478881
 20
50.75676540892049
 30
0
 11
1655.745081739276
 21
50.62418288744801
 31
0
  0
LINE
  8
1
 62
2
 10
1657.512848692243
 20
49.16577515125075
 30
0
 11
1658.573508864023
 21
49.96127028008561
 31
0
  0
LINE
  8
1
 62
2
 10
1658.573508864023
 20
49.96127028008561
 30
0
 11
1659.516317905605
 21
51.02193045186544
 31
0
  0
LINE
  8
1
 62
2
 10
1659.516317905605
 20
51.02193045186544
 30
0
 11
1659.987722426396
 21
51.95000810217278
 31
0
  0
LINE
  8
1
 62
2
 10
1659.987722426396
 20
51.95000810217278
 30
0
 11
1658.455657733825
 21
51.95000810217278
 31
0
  0
LINE
  8
1
 62
2
 10
1658.809211124418
 20
52.4803381880627
 30
0
 11
1658.219955473429
 21
51.68484305922783
 31
0
  0
LINE
  8
1
 62
2
 10
1658.219955473429
 20
51.68484305922783
 30
0
 11
1657.63069982244
 21
51.02193045186544
 31
0
  0
LINE
  8
1
 62
2
 10
1658.573508864023
 20
51.15451297333792
 30
0
 11
1659.516317905605
 21
50.09385280155809
 31
0
  0
LINE
  8
1
 62
2
 10
1661.637638249164
 20
50.88934793039296
 30
0
 11
1661.87334050956
 21
50.75676540892049
 31
0
  0
LINE
  8
1
 62
2
 10
1661.87334050956
 20
50.75676540892049
 30
0
 11
1663.994660853119
 21
50.75676540892049
 31
0
  0
LINE
  8
1
 62
2
 10
1663.994660853119
 20
50.75676540892049
 30
0
 11
1664.230363113515
 21
50.62418288744801
 31
0
  0
ARC
  8
1
 62
7
 10
1585.815336403073
 20
179.7213555915701
 30
0
 40
2
 50
270
 51
0
  0
ARC
  8
1
 62
7
 10
1670.815336403073
 20
179.7213555915701
 30
0
 40
2
 50
180
 51
270
  0
ARC
  8
1
 62
7
 10
1580.315336403073
 20
174.7213555915702
 30
0
 40
1
 50
90
 51
180
  0
ARC
  8
1
 62
7
 10
1580.315336403073
 20
164.7213555915702
 30
0
 40
1
 50
180
 51
270
  0
ARC
  8
1
 62
7
 10
1676.315336403073
 20
164.7213555915702
 30
0
 40
1
 50
270
 51
0
  0
ARC
  8
1
 62
7
 10
1676.315336403073
 20
174.7213555915702
 30
0
 40
1
 50
0
 51
90
  0
ARC
  8
1
 62
7
 10
1625.315336403073
 20
174.7213555915702
 30
0
 40
1
 50
90
 51
180
  0
ARC
  8
1
 62
7
 10
1631.315336403073
 20
174.7213555915702
 30
0
 40
1
 50
0
 51
90
  0
ARC
  8
1
 62
7
 10
1631.315336403073
 20
164.7213555915702
 30
0
 40
1
 50
270
 51
0
  0
ARC
  8
1
 62
7
 10
1625.315336403073
 20
164.7213555915702
 30
0
 40
1
 50
180
 51
270
  0
ARC
  8
1
 62
7
 10
1630.815336403073
 20
85.93018398825031
 30
0
 40
1.00000000000019
 50
90.40463457476113
 51
180
  0
ARC
  8
1
 62
7
 10
1625.815336403073
 20
85.93025944138461
 30
0
 40
1
 50
0
 51
89.59190695181184
  0
ARC
  8
1
 62
7
 10
1673.315336403073
 20
146.9213561945642
 30
0
 40
3
 50
0
 51
90
  0
ARC
  8
1
 62
7
 10
1546.315336403073
 20
104.9213561945642
 30
0
 40
2
 50
90
 51
180
  0
ARC
  8
1
 62
7
 10
1588.315336403073
 20
155.9213561945642
 30
0
 40
2
 50
0
 51
90
  0
ARC
  8
1
 62
7
 10
1668.315336403073
 20
155.9213561945642
 30
0
 40
2
 50
90
 51
180
  0
ARC
  8
1
 62
7
 10
1609.019394857054
 20
236.9254154164522
 30
0
 40
10
 50
180.0000000000075
 51
202.4130884471001
  0
ARC
  8
1
 62
7
 10
1647.565336403073
 20
236.9254154164509
 30
0
 40
10
 50
270
 51
322.3315491906257
  0
ARC
  8
1
 62
7
 10
1647.565336403074
 20
236.9254154164522
 30
0
 40
9.999999999999456
 50
322.3315491906158
 51
324.8488137824295
  0
ARC
  8
1
 62
7
 10
1647.565336403075
 20
236.9254154164534
 30
0
 40
9.999999999999396
 50
324.8488137824209
 51
331.9871279193008
  0
ARC
  8
1
 62
7
 10
1647.565336403073
 20
236.9254154164509
 30
0
 40
9.999999999999996
 50
341.8051276612333
 51
357.9913424883852
  0
ARC
  8
1
 62
7
 10
1647.565336403073
 20
236.9254154164509
 30
0
 40
10.00000000000001
 50
331.987127919319
 51
341.8051276612333
  0
ARC
  8
1
 62
7
 10
1595.815336403073
 20
187.7213569624693
 30
0
 40
1
 50
180
 51
270
  0
ARC
  8
1
 62
7
 10
1660.815336403073
 20
187.7213569624693
 30
0
 40
1
 50
270
 51
0
  0
ARC
  8
1
 62
7
 10
1662.815336403073
 20
192.7213569624693
 30
0
 40
1
 50
90
 51
180
  0
ARC
  8
1
 62
7
 10
1593.815336403073
 20
192.7213569624693
 30
0
 40
1
 50
0
 51
90
  0
ARC
  8
1
 62
7
 10
1655.565336403073
 20
242.6030849461147
 30
0
 40
2
 50
0
 51
90
  0
ARC
  8
1
 62
7
 10
1601.019394857054
 20
242.6030849461147
 30
0
 40
2
 50
90
 51
180
  0
ARC
  8
1
 62
7
 10
1601.019394857054
 20
241.8959781649279
 30
0
 40
2
 50
90
 51
180
  0
ARC
  8
1
 62
7
 10
1655.565336403073
 20
241.8959781649279
 30
0
 40
2
 50
0
 51
90
  0
ARC
  8
1
 62
7
 10
1609.019394857054
 20
236.9254154164509
 30
0
 40
9.99999999999944
 50
202.4130884470932
 51
270
  0
ARC
  8
1
 62
7
 10
1647.565336403073
 20
236.9254154164509
 30
0
 40
9.999999999999996
 50
357.9913424883852
 51
0
  0
ARC
  8
1
 62
7
 10
1662.713450197988
 20
243.7213569624693
 30
0
 40
2.999999999999337
 50
8.130102354159281
 51
57.33037977074152
  0
ARC
  8
1
 62
7
 10
1593.917222608158
 20
243.7213569624693
 30
0
 40
3
 50
90
 51
122.6696202292797
  0
ARC
  8
1
 62
7
 10
1593.917222608158
 20
243.7213569624693
 30
0
 40
3.000000000000003
 50
122.6696202292797
 51
171.8698976458438
  0
ARC
  8
1
 62
7
 10
1662.713450197988
 20
243.7213569624693
 30
0
 40
2.999999999999628
 50
57.33037977074152
 51
90
  0
ARC
  8
1
 62
7
 10
1585.315336403073
 20
204.2213569624693
 30
0
 40
1.5
 50
270
 51
0
  0
ARC
  8
1
 62
7
 10
1671.315336403073
 20
204.2213569624693
 30
0
 40
1.5
 50
180
 51
270
  0
ARC
  8
1
 62
7
 10
1584.815336403073
 20
201.2213569624693
 30
0
 40
1.5
 50
90
 51
180
  0
ARC
  8
1
 62
7
 10
1671.815336403073
 20
201.2213569624693
 30
0
 40
1.5
 50
0
 51
90
  0
ARC
  8
1
 62
7
 10
1663.730092538169
 20
191.3925132426233
 30
0
 40
1.50081818181806
 50
8.170915410685931
 51
85.00000000001825
  0
ARC
  8
1
 62
7
 10
1663.730092538169
 20
188.9750451261628
 30
0
 40
1.500818181818165
 50
274.9999999999818
 51
351.8290845893109
  0
ARC
  8
1
 62
7
 10
1601.019394857055
 20
308.4685239797806
 30
0
 40
2
 50
90
 51
180
  0
ARC
  8
1
 62
7
 10
1655.565336403074
 20
308.4685239797806
 30
0
 40
2
 50
0
 51
90
  0
ARC
  8
1
 62
7
 10
1649.065336403074
 20
302.3515146218969
 30
0
 40
8.5
 50
270
 51
0
  0
ARC
  8
1
 62
7
 10
1649.065336403074
 20
301.9979612313035
 30
0
 40
8.5
 50
270
 51
0
  0
ARC
  8
1
 62
7
 10
1607.519394857055
 20
302.3515146218969
 30
0
 40
8.5
 50
180
 51
270
  0
ARC
  8
1
 62
7
 10
1607.519394857055
 20
301.9979612313035
 30
0
 40
8.5
 50
180
 51
270
  0
ARC
  8
1
 62
7
 10
1647.565336403074
 20
303.1320972394869
 30
0
 40
10
 50
357.9913424883475
 51
359.9999999999635
  0
ARC
  8
1
 62
7
 10
1647.565336403074
 20
303.1320972394805
 30
0
 40
9.999999999999938
 50
331.987127919317
 51
341.8051276612326
  0
ARC
  8
1
 62
7
 10
1647.565336403074
 20
303.1320972394805
 30
0
 40
10.00000000000004
 50
341.8051276612326
 51
357.991342488384
  0
ARC
  8
1
 62
7
 10
1647.565336403076
 20
303.1320972394835
 30
0
 40
9.999999999999755
 50
324.848813782418
 51
331.9871279192968
  0
ARC
  8
1
 62
7
 10
1647.56533640307
 20
303.1320972394752
 30
0
 40
9.999999999999774
 50
322.3315491906624
 51
324.8488137824766
  0
ARC
  8
1
 62
7
 10
1609.019394857055
 20
303.1320972394794
 30
0
 40
10
 50
180
 51
202.4130884470879
  0
ARC
  8
1
 62
7
 10
1616.065336403074
 20
291.75890835868
 30
0
 40
0.5
 50
90
 51
180
  0
ARC
  8
1
 62
7
 10
1616.065336403074
 20
285.6878405468145
 30
0
 40
0.5
 50
180
 51
270
  0
ARC
  8
1
 62
7
 10
1640.565336403074
 20
285.6878405468145
 30
0
 40
0.5
 50
270
 51
0
  0
ARC
  8
1
 62
7
 10
1640.565336403074
 20
291.75890835868
 30
0
 40
0.5
 50
0
 51
90
  0
ARC
  8
1
 62
7
 10
1616.065336403073
 20
225.3412762795969
 30
0
 40
0.5
 50
90
 51
180
  0
ARC
  8
1
 62
7
 10
1616.065336403073
 20
219.2702084677315
 30
0
 40
0.5
 50
180
 51
270
  0
ARC
  8
1
 62
7
 10
1640.565336403073
 20
219.2702084677315
 30
0
 40
0.5
 50
270
 51
0
  0
ARC
  8
1
 62
7
 10
1640.565336403073
 20
225.3412762795969
 30
0
 40
0.5
 50
0
 51
90
  0
ARC
  8
1
 62
7
 10
1586.998749234816
 20
282.3383795062996
 30
0
 40
14.99999999999974
 50
70.56576558905232
 51
73.17814771957549
  0
ARC
  8
1
 62
7
 10
1706.326396665264
 20
307.2093582121391
 30
0
 40
2.000000000000787
 50
6.028450356627897
 51
109.5164935796121
  0
ARC
  8
1
 62
7
 10
1669.710774674708
 20
363.669235887332
 30
0
 40
14.99999999999984
 50
250.4546679265216
 51
252.9996625293682
  0
ARC
  8
1
 62
7
 10
1706.326396665264
 20
338.8784473425048
 30
0
 40
2.00000000000014
 50
250.4835064203869
 51
353.97154964338
  0
ARC
  8
1
 62
7
 10
1546.315336403074
 20
308.2195070769805
 30
0
 40
1.999999999999847
 50
73.17814771958805
 51
180
  0
ARC
  8
1
 62
7
 10
1546.315336403074
 20
337.8682984776635
 30
0
 40
2
 50
180
 51
286.821852280411
  0
ARC
  8
1
 62
7
 10
1669.710774674708
 20
282.4185696673121
 30
0
 40
14.99999999999975
 50
107.0003374706319
 51
109.5453320734785
  0
ARC
  8
1
 62
7
 10
1586.998749234816
 20
363.7494260483445
 30
0
 40
14.99999999999997
 50
286.8218522804243
 51
289.4342344109511
  0
ARC
  8
1
 62
7
 10
1804.322771158406
 20
136.0697447876094
 30
0
 40
137.0000000000008
 50
186.4450800691777
 51
192.5768406894268
  0
ARC
  8
1
 62
7
 10
1702.067724422922
 20
123.5560917235657
 30
0
 40
34.00000000000134
 50
152.5468897722509
 51
184.8332452797249
  0
ARC
  8
1
 62
7
 10
1320.496535780445
 20
104.3010271692652
 30
0
 40
272.0000000000009
 50
358.659735760884
 51
4.240696820975673
  0
ARC
  8
1
 62
7
 10
1577.760442996939
 20
124.9047730718088
 30
0
 40
14.0000000000006
 50
357.9930900950575
 51
57.00518736706457
  0
ARC
  8
1
 62
7
 10
1628.315336403061
 20
436.9213561945645
 30
0
 40
349.9999999999997
 50
267.1128543774439
 51
269.5646564140859
  0
ARC
  8
1
 62
7
 10
1628.238420938835
 20
111.8318159130098
 30
0
 40
25.03391021288792
 50
264.0790096332673
 51
275.8920715193676
  0
ARC
  8
1
 62
7
 10
1588.315336403073
 20
151.5816102324086
 30
0
 40
2.000000000000189
 50
299.9999999999969
 51
0
  0
ARC
  8
1
 62
7
 10
1593.315336403073
 20
142.9213561945642
 30
0
 40
7.999999999999821
 50
120.0000000000008
 51
180
  0
ARC
  8
1
 62
7
 10
1706.318008761593
 20
135.4502051383254
 30
0
 40
1.999999999999813
 50
269.4203379444567
 51
357.0377728150177
  0
ARC
  8
1
 62
7
 10
1673.315336403073
 20
142.9213561945642
 30
0
 40
2
 50
180
 51
257.3196165081791
  0
ARC
  8
1
 62
7
 10
1668.315336403073
 20
151.5816102324086
 30
0
 40
2
 50
180
 51
236.1117881277826
  0
ARC
  8
1
 62
7
 10
1668.315336403077
 20
151.581610232406
 30
0
 40
1.999999999999901
 50
236.1117881276439
 51
239.9999999998629
  0
ARC
  8
1
 62
7
 10
1679.315336403073
 20
142.5963561945644
 30
0
 40
3
 50
180
 51
257.3196165081791
  0
ARC
  8
1
 62
7
 10
1663.315336403073
 20
142.9213561945642
 30
0
 40
8
 50
0
 51
59.99999999999966
  0
ARC
  8
1
 62
7
 10
1663.315336403073
 20
85.5983073226742
 30
0
 40
4.999999999999775
 50
113.6398397960249
 51
180
  0
ARC
  8
1
 62
7
 10
1675.23061419905
 20
100.1213139938502
 30
0
 40
4.999999999999571
 50
93.09405805891724
 51
162.511549408637
  0
ARC
  8
1
 62
7
 10
1706.315336403073
 20
104.8059488124961
 30
0
 40
2
 50
0
 51
93.09405805891156
  0
ARC
  8
1
 62
7
 10
1651.386175543907
 20
107.6341526864551
 30
0
 40
19.99999999999956
 50
279.4805069406069
 51
342.511549408639
  0
ARC
  8
1
 62
7
 10
1546.312664044553
 20
135.4502051383254
 30
0
 40
2.000000000000043
 50
182.962227184982
 51
270.5796620555433
  0
ARC
  8
1
 62
7
 10
1580.315336403073
 20
142.9213561945642
 30
0
 40
4.999999999999728
 50
277.425230595267
 51
0
  0
ARC
  8
1
 62
7
 10
1625.121877080827
 20
230.1436633661035
 30
0
 40
143.5059523081091
 50
239.1660588036238
 51
258.4213202018522
  0
ARC
  8
1
 62
7
 10
1593.32681188842
 20
85.5296001968093
 30
0
 40
5.017720463000053
 50
6.183815136601003
 51
53.40273268538611
  0
ARC
  8
1
 62
7
 10
1625.121877080827
 20
230.1436633661035
 30
0
 40
143.5059523081089
 50
258.4213202018522
 51
264.226699940898
  0
ARC
  8
1
 62
7
 10
1628.315336403111
 20
436.9213561945638
 30
0
 40
349.9999999999994
 50
269.5646564140778
 51
269.5919069518387
  0
ARC
  8
1
 62
7
 10
1628.315336403073
 20
439.9213561945642
 30
0
 40
353.0000000000001
 50
270.4046345747501
 51
274.2833309031395
  0
ARC
  8
1
 62
7
 10
1628.977852040006
 20
242.156681592572
 30
0
 40
0.8775000000000546
 50
0
 51
142.6431480270897
  0
ARC
  8
1
 62
7
 10
1628.977852040006
 20
242.156681592572
 30
0
 40
0.5175000000001546
 50
0
 51
180
  0
ARC
  8
1
 62
7
 10
1627.582852040006
 20
242.156681592572
 30
0
 40
0.877500000000072
 50
37.35685197291033
 51
126.138814663115
  0
ARC
  8
1
 62
7
 10
1627.582852040006
 20
242.156681592572
 30
0
 40
0.5174999999990178
 50
0
 51
180
  0
ARC
  8
1
 62
7
 10
1628.315336403073
 20
251.0588965851798
 30
0
 40
36.33753962271116
 50
187.6099843283899
 51
352.3900156716105
  0
ARC
  8
1
 62
7
 10
1655.311790948527
 20
190.1837791843931
 30
0
 40
10.00545454545491
 50
351.8290845893101
 51
8.170915410688771
  0
ARC
  8
1
 62
7
 10
1628.315336403074
 20
323.043902777322
 30
0
 40
40.8000000000003
 50
90
 51
164.3590674270523
  0
ARC
  8
1
 62
7
 10
1628.315336403074
 20
323.043902777322
 30
0
 40
37
 50
0
 51
180
  0
ARC
  8
1
 62
7
 10
1628.315336403074
 20
323.043902777322
 30
0
 40
45.00000000000078
 50
18.85622178174126
 51
180
  0
ARC
  8
1
 62
7
 10
1628.315336403074
 20
323.043902777322
 30
0
 40
45
 50
180
 51
0
  0
ARC
  8
1
 62
7
 10
1626.887836403073
 20
308.6234720013107
 30
0
 40
0.5175000000001546
 50
0
 51
180
  0
ARC
  8
1
 62
7
 10
1626.887836403073
 20
308.6234720013107
 30
0
 40
0.8775000000012158
 50
37.35685197278795
 51
126.1388146630844
  0
ARC
  8
1
 62
7
 10
1628.282836403074
 20
308.6234720013107
 30
0
 40
0.5174999999999272
 50
0
 51
180
  0
ARC
  8
1
 62
7
 10
1628.282836403074
 20
308.6234720013107
 30
0
 40
0.8774999999989177
 50
0
 51
142.6431480270949
  0
ARC
  8
1
 62
7
 10
1628.315336403074
 20
323.043902777322
 30
0
 40
45
 50
0
 51
18.85622178174214
  0
ARC
  8
1
 62
7
 10
1628.315336403074
 20
323.043902777322
 30
0
 40
40.80000000000028
 50
15.64093257294761
 51
90
  0
ARC
  8
0
 62
7
 10
1630.662601209376
 20
286.1066237084119
 30
0
 40
6.860544223979661
 50
175.8733282604817
 51
177.6306701430819
  0
ARC
  8
0
 62
7
 10
1635.163211973964
 20
285.799904472338
 30
0
 40
11.37157288764641
 50
172.2051146282875
 51
175.9637585386876
  0
ARC
  8
0
 62
7
 10
1629.882125534628
 20
286.5080125892225
 30
0
 40
6.043263133884839
 50
170.3340838833674
 51
172.0658069807676
  0
ARC
  8
0
 62
7
 10
1627.036179972958
 20
286.9873547744161
 30
0
 40
3.15724144452871
 50
168.2816227574898
 51
170.2378023405878
  0
ARC
  8
0
 62
7
 10
1629.498019831046
 20
286.4568222051311
 30
0
 40
5.675556232523495
 50
165.1809136619401
 51
168.0850487024416
  0
ARC
  8
0
 62
7
 10
1637.47418726257
 20
284.3712157594403
 30
0
 40
13.91987366734384
 50
164.7591934710193
 51
165.2789240548183
  0
ARC
  8
0
 62
7
 10
1626.327535821171
 20
286.3703108090264
 30
0
 40
3.606660128929794
 50
165.4054527325617
 51
172.2633508748595
  0
ARC
  8
0
 62
7
 10
1626.854506696135
 20
286.2825931562059
 30
0
 40
4.140673525547976
 50
172.0422530222012
 51
178.5102310641999
  0
ARC
  8
0
 62
7
 10
1622.43004162082
 20
288.5122702122015
 30
0
 40
1.684238487387358
 50
343.3758325417232
 51
347.9824194735231
  0
ARC
  8
0
 62
7
 10
1622.54740930672
 20
288.4918083018148
 30
0
 40
1.565139749771938
 50
348.2748028406322
 51
359.8981928379363
  0
ARC
  8
0
 62
7
 10
1622.86498548669
 20
288.483395328113
 30
0
 40
1.247573811190098
 50
0.2586513335495839
 51
16.67996079785349
  0
ARC
  8
0
 62
7
 10
1623.080489319482
 20
288.5358510555937
 30
0
 40
1.026147256177869
 50
17.32803600309488
 51
39.46464000308141
  0
ARC
  8
0
 62
7
 10
1623.098507089332
 20
288.5411231630635
 30
0
 40
1.008913276633288
 50
39.88386297061896
 51
66.77588744933762
  0
ARC
  8
0
 62
7
 10
1623.008215999507
 20
288.3554257828462
 30
0
 40
1.215206972509303
 50
66.316229345625
 51
81.74384487551984
  0
ARC
  8
0
 62
7
 10
1622.950333055262
 20
288.0451825028657
 30
0
 40
1.530599768771449
 50
81.26721903970605
 51
94.33168826280021
  0
ARC
  8
0
 62
7
 10
1622.965753079929
 20
287.6547445377186
 30
0
 40
1.921138976257125
 50
93.91075382841987
 51
106.370877879713
  0
ARC
  8
0
 62
7
 10
1623.072381084151
 20
287.2379549970304
 30
0
 40
2.351133210703983
 50
106.0012226650559
 51
120.3919484940636
  0
ARC
  8
0
 62
7
 10
1623.226529018178
 20
286.9402358955672
 30
0
 40
2.685984567160163
 50
120.0153578154221
 51
129.90852302862
  0
ARC
  8
0
 62
7
 10
1623.228442109054
 20
286.9306695141739
 30
0
 40
2.694554065243013
 50
129.8092228613295
 51
146.5729906533335
  0
ARC
  8
0
 62
7
 10
1622.871860058223
 20
287.1857622819361
 30
0
 40
2.256490911131957
 50
146.9910805581021
 51
160.2087359000036
  0
ARC
  8
0
 62
7
 10
1622.440777310035
 20
287.3562007883124
 30
0
 40
1.793219539982185
 50
160.6691240869796
 51
173.4029826217702
  0
ARC
  8
0
 62
7
 10
1622.053722604069
 20
287.4133122144481
 30
0
 40
1.402220002369378
 50
173.904200507636
 51
187.5362258922349
  0
ARC
  8
0
 62
7
 10
1621.773309559361
 20
287.3864192963326
 30
0
 40
1.120747698474756
 50
188.0534115958761
 51
206.0652615779544
  0
ARC
  8
0
 62
7
 10
1621.655267456457
 20
287.3394017565565
 30
0
 40
0.9940985738779532
 50
206.6203896219462
 51
219.7647062389501
  0
ARC
  8
0
 62
7
 10
1621.662606731667
 20
287.3477754087174
 30
0
 40
1.005097712873249
 50
219.8640191530094
 51
245.1564369362334
  0
ARC
  8
0
 62
7
 10
1621.743394105209
 20
287.5042420569142
 30
0
 40
1.181051132216042
 50
244.7890520892188
 51
258.4029213812164
  0
ARC
  8
0
 62
7
 10
1621.802797267299
 20
287.752486632322
 30
0
 40
1.436193521345993
 50
258.0723414311319
 51
269.8752782836652
  0
ARC
  8
0
 62
7
 10
1621.813499525847
 20
288.0683408114111
 30
0
 40
1.752098870096568
 50
269.5477841660271
 51
279.8304615114207
  0
ARC
  8
0
 62
7
 10
1621.771844333758
 20
288.3646512801968
 30
0
 40
2.051192838085606
 50
279.5637989053998
 51
286.1150326430908
  0
ARC
  8
0
 62
7
 10
1621.760930136775
 20
288.6966450522221
 30
0
 40
1.481241139788802
 50
309.6662680093538
 51
319.0399120093462
  0
ARC
  8
0
 62
7
 10
1621.749788113596
 20
288.7029816778399
 30
0
 40
1.493237914075081
 50
296.1544208457035
 51
309.8401654848291
  0
ARC
  8
0
 62
7
 10
1621.89300437709
 20
288.4281980216861
 30
0
 40
1.183484294856423
 50
284.6152944584188
 51
295.7947196417065
  0
ARC
  8
0
 62
7
 10
1621.980626776513
 20
288.1220727954596
 30
0
 40
0.8651880430951673
 50
274.9711386414795
 51
284.1157486436447
  0
ARC
  8
0
 62
7
 10
1622.004620877354
 20
287.8891294942146
 30
0
 40
0.6310527362782448
 50
263.2987180137549
 51
274.6335288138096
  0
ARC
  8
0
 62
7
 10
1621.986512817171
 20
287.7010087134959
 30
0
 40
0.4421219130834808
 50
247.2764159789303
 51
262.784484107908
  0
ARC
  8
0
 62
7
 10
1621.943300457135
 20
287.5861803148176
 30
0
 40
0.3195459364717231
 50
220.6282556548449
 51
246.4698107103784
  0
ARC
  8
0
 62
7
 10
1621.932882769405
 20
287.5709987110184
 30
0
 40
0.3017911541031503
 50
193.6230941251779
 51
219.7285802380827
  0
ARC
  8
0
 62
7
 10
1622.012497843966
 20
287.5943190361764
 30
0
 40
0.3846789697928734
 50
180.8058706516237
 51
194.2058027621867
  0
ARC
  8
0
 62
7
 10
1622.131064051726
 20
287.5994646781334
 30
0
 40
0.5033178352441401
 50
171.0155787770783
 51
181.201743994591
  0
ARC
  8
0
 62
7
 10
1622.298752395498
 20
287.5762419796354
 30
0
 40
0.6725832269000077
 50
160.1645618234444
 51
171.2923908491309
  0
ARC
  8
0
 62
7
 10
1622.545404714794
 20
287.494770609741
 30
0
 40
0.9322734827395967
 50
149.4231422423679
 51
160.5982301662712
  0
ARC
  8
0
 62
7
 10
1622.818818255784
 20
287.3446318214946
 30
0
 40
1.244081636064742
 50
138.6880272628638
 51
149.8755017774485
  0
ARC
  8
0
 62
7
 10
1623.005685604496
 20
287.1924268170669
 30
0
 40
1.484949544720037
 50
129.685208472203
 51
139.0367132109301
  0
ARC
  8
0
 62
7
 10
1623.013934921367
 20
287.1883412383623
 30
0
 40
1.493366102081656
 50
116.1457861479146
 51
129.8286798460885
  0
ARC
  8
0
 62
7
 10
1622.87120269151
 20
287.4621466385615
 30
0
 40
1.184705303379573
 50
104.6173618858093
 51
115.7843637294286
  0
ARC
  8
0
 62
7
 10
1622.783134242668
 20
287.7698878656677
 30
0
 40
0.8647326428618252
 50
94.96820649524798
 51
104.1167374817806
  0
ARC
  8
0
 62
7
 10
1622.759232630382
 20
288.0022968368779
 30
0
 40
0.6311376587331086
 50
83.30232621070444
 51
94.63371819153745
  0
ARC
  8
0
 62
7
 10
1622.77742719338
 20
288.1909757896798
 30
0
 40
0.4416418610452628
 50
67.27116060165669
 51
82.79177730260443
  0
ARC
  8
0
 62
7
 10
1622.820651575741
 20
288.3056917470039
 30
0
 40
0.3191647926647075
 50
40.60921836480791
 51
66.47136353234816
  0
ARC
  8
0
 62
7
 10
1622.830989186085
 20
288.320465821269
 30
0
 40
0.3017338012797877
 50
13.64492152436779
 51
39.75710586021761
  0
ARC
  8
0
 62
7
 10
1622.751538221299
 20
288.2971637603518
 30
0
 40
0.3844592183429594
 50
0.8182449044966256
 51
14.2263828149113
  0
ARC
  8
0
 62
7
 10
1622.632824722178
 20
288.2919860937452
 30
0
 40
0.5032465971686005
 50
351.026999373597
 51
1.214663622514419
  0
ARC
  8
0
 62
7
 10
1622.465163177391
 20
288.3151951354328
 30
0
 40
0.6724839156705744
 50
340.1719483450536
 51
351.3017710471073
  0
ARC
  8
0
 62
7
 10
1622.218583456056
 20
288.3966443999189
 30
0
 40
0.9320990102605067
 50
329.4263044561459
 51
340.6034046198056
  0
ARC
  8
0
 62
7
 10
1621.9456781384
 20
288.5465080638779
 30
0
 40
1.243329913602474
 50
318.6836905086473
 51
329.877147712103
  0
ARC
  8
0
 62
7
 10
1622.11161150388
 20
290.3805068078391
 30
0
 40
7.513814030818482
 50
346.3901430210543
 51
347.4086018937542
  0
ARC
  8
0
 62
7
 10
1627.470203325022
 20
289.1835130693811
 30
0
 40
2.023158304381858
 50
347.4100174323881
 51
349.034178967389
  0
ARC
  8
0
 62
7
 10
1629.722535625981
 20
287.397288160743
 30
0
 40
1.582879495224498
 50
167.4930455576837
 51
179.2807374176804
  0
ARC
  8
0
 62
7
 10
1629.403929313218
 20
287.4094633725133
 30
0
 40
1.264171880386042
 50
179.6512415986618
 51
195.0619020303581
  0
ARC
  8
0
 62
7
 10
1629.180990703812
 20
287.3604806943118
 30
0
 40
1.036217985892904
 50
195.6498705971002
 51
219.3542134098073
  0
ARC
  8
0
 62
7
 10
1629.153869367741
 20
287.350383354806
 30
0
 40
1.008887518229163
 50
219.8875068774156
 51
246.7793060059998
  0
ARC
  8
0
 62
7
 10
1629.244311718864
 20
287.536553724984
 30
0
 40
1.215674648289193
 50
246.3214825405426
 51
261.7429072666879
  0
ARC
  8
0
 62
7
 10
1629.302068632451
 20
287.8460763394954
 30
0
 40
1.530336147994111
 50
261.2671872514391
 51
274.3339107265111
  0
ARC
  8
0
 62
7
 10
1629.286719372715
 20
288.2364577498881
 30
0
 40
1.920813675949876
 50
273.9104758042431
 51
286.3730575903527
  0
ARC
  8
0
 62
7
 10
1629.18006515496
 20
288.6535928009371
 30
0
 40
2.351146794140099
 50
286.0012452984112
 51
300.3927431873149
  0
ARC
  8
0
 62
7
 10
1629.025064925486
 20
288.9526639049525
 30
0
 40
2.687594970265534
 50
300.0173698478306
 51
309.9056720958222
  0
ARC
  8
0
 62
7
 10
1629.024133004875
 20
288.960914415664
 30
0
 40
2.694525690599126
 50
309.8083257403426
 51
326.5709153524494
  0
ARC
  8
0
 62
7
 10
1629.381419630962
 20
288.7053900400151
 30
0
 40
2.255635852824543
 50
326.9880507262804
 51
340.2102073502788
  0
ARC
  8
0
 62
7
 10
1629.811505431483
 20
288.5353210106754
 30
0
 40
1.793428022426853
 50
340.6705988788862
 51
353.4026518461866
  0
ARC
  8
0
 62
7
 10
1630.198909171676
 20
288.4781055747402
 30
0
 40
1.402070281665554
 50
353.9064145924951
 51
7.539966323195021
  0
ARC
  8
0
 62
7
 10
1630.479762600078
 20
288.5051469125845
 30
0
 40
1.120141973489306
 50
8.053801308405786
 51
26.07664009820521
  0
ARC
  8
0
 62
7
 10
1630.596930530311
 20
288.5517942979326
 30
0
 40
0.9944423882446246
 50
26.63004200772622
 51
39.77164100773121
  0
ARC
  8
0
 62
7
 10
1630.589819206141
 20
288.5439668077304
 30
0
 40
1.004916699688826
 50
39.85527632884515
 51
65.15113638195014
  0
ARC
  8
0
 62
7
 10
1630.509501518153
 20
288.388655509284
 30
0
 40
1.179625364309951
 50
64.78121738906607
 51
78.41109638415588
  0
ARC
  8
0
 62
7
 10
1630.449750106484
 20
288.1395294779705
 30
0
 40
1.435701193764931
 50
78.07240234270013
 51
89.87991658819627
  0
ARC
  8
0
 62
7
 10
1630.439078054762
 20
287.8217500127173
 30
0
 40
1.753530876510076
 50
89.55297322840649
 51
99.82871253910633
  0
ARC
  8
0
 62
7
 10
1630.480650572887
 20
287.5258877734914
 30
0
 40
2.052169342365194
 50
99.56229361215323
 51
106.1118571840452
  0
ARC
  8
0
 62
7
 10
1629.249354056277
 20
288.6967421497081
 30
0
 40
1.481418128438996
 50
309.6686390000979
 51
319.0403260000783
  0
ARC
  8
0
 62
7
 10
1629.238430675368
 20
288.7029100299641
 30
0
 40
1.493145445414559
 50
296.1534329117528
 51
309.8402035231647
  0
ARC
  8
0
 62
7
 10
1629.381534246184
 20
288.4283641874757
 30
0
 40
1.183655145418813
 50
284.6151470680647
 51
295.7933475219425
  0
ARC
  8
0
 62
7
 10
1629.469181496953
 20
288.1221890604934
 30
0
 40
0.8653044590231327
 50
274.9710524253386
 51
284.1148556551656
  0
ARC
  8
0
 62
7
 10
1629.493180893307
 20
287.8892008570031
 30
0
 40
0.6311239745826092
 50
263.2992076499593
 51
274.6333230083371
  0
ARC
  8
0
 62
7
 10
1629.475078252567
 20
287.701066865346
 30
0
 40
0.4421806744657583
 50
247.2777339517386
 51
262.7843541094231
  0
ARC
  8
0
 62
7
 10
1629.431862010621
 20
287.5862007021177
 30
0
 40
0.3195683745209155
 50
220.6296218986899
 51
246.4697174738359
  0
ARC
  8
0
 62
7
 10
1629.421469723445
 20
287.5709525086693
 30
0
 40
0.3017904497081615
 50
193.6132487495002
 51
219.7172885495913
  0
ARC
  8
0
 62
7
 10
1629.501309351861
 20
287.5943166008451
 30
0
 40
0.3849061667726316
 50
180.8034192553094
 51
194.196197625024
  0
ARC
  8
0
 62
7
 10
1629.620020247458
 20
287.5994406968532
 30
0
 40
0.5036891186006465
 50
171.0174981449288
 51
181.196896637919
  0
ARC
  8
0
 62
7
 10
1629.787451086523
 20
287.5762579135474
 30
0
 40
0.6726940078415458
 50
160.1670523944352
 51
171.293715316543
  0
ARC
  8
0
 62
7
 10
1630.034363943972
 20
287.4946900646655
 30
0
 40
0.9326622736987061
 50
149.4293381746544
 51
160.5997014656884
  0
ARC
  8
0
 62
7
 10
1630.306786949148
 20
287.3451930261329
 30
0
 40
1.243292382762339
 50
138.6890265670275
 51
149.8826782971153
  0
ARC
  8
0
 62
7
 10
1630.492798374858
 20
287.1939377634844
 30
0
 40
1.482891488820034
 50
129.68080007145
 51
139.043766305636
  0
ARC
  8
0
 62
7
 10
1630.503046573128
 20
287.1871870262235
 30
0
 40
1.494634804062468
 50
116.143886437067
 51
129.8179120069765
  0
ARC
  8
0
 62
7
 10
1630.360145000229
 20
287.4611732082973
 30
0
 40
1.185737852983793
 50
104.6198037180139
 51
115.7787876144224
  0
ARC
  8
0
 62
7
 10
1630.272082112194
 20
287.7680597067962
 30
0
 40
0.866594995089227
 50
94.97732764181362
 51
104.1072484950587
  0
ARC
  8
0
 62
7
 10
1630.247886029767
 20
288.0022033947419
 30
0
 40
0.6312463271342442
 50
83.30279098570611
 51
94.63330600920851
  0
ARC
  8
0
 62
7
 10
1630.266090193994
 20
288.1909650593206
 30
0
 40
0.4416672167133504
 50
67.27129166732416
 51
82.79245651185556
  0
ARC
  8
0
 62
7
 10
1630.309203695109
 20
288.3055286697614
 30
0
 40
0.319374079673559
 50
40.61554558046269
 51
66.46428072259931
  0
ARC
  8
0
 62
7
 10
1630.319267146263
 20
288.3204829604263
 30
0
 40
0.3020381730733702
 50
13.61827017960483
 51
39.70484417383874
  0
ARC
  8
0
 62
7
 10
1630.239699511214
 20
288.2971939021549
 30
0
 40
0.384872057215998
 50
0.8041744663398853
 51
14.19886403264264
  0
ARC
  8
0
 62
7
 10
1630.121240788987
 20
288.2920394316645
 30
0
 40
0.5034035624386243
 50
351.0166851486674
 51
1.201556572076987
  0
ARC
  8
0
 62
7
 10
1629.953476237414
 20
288.3152680319424
 30
0
 40
0.6727452230286883
 50
340.1684731595831
 51
351.2936691954827
  0
ARC
  8
0
 62
7
 10
1629.707149256019
 20
288.3966259237564
 30
0
 40
0.9320912622312908
 50
329.4248679767292
 51
340.6009138195454
  0
ARC
  8
0
 62
7
 10
1629.434789923299
 20
288.5460844464832
 30
0
 40
1.242646409920245
 50
318.6813280028633
 51
329.8795967185826
  0
ARC
  8
0
 62
7
 10
1632.205353610568
 20
281.7116699942397
 30
0
 40
9.061711948053496
 50
130.5243367854201
 51
133.4173308559186
  0
ARC
  8
0
 62
7
 10
1631.543354852311
 20
282.4472191049366
 30
0
 40
8.072474711275484
 50
133.5926032835976
 51
134.9727251818945
  0
ARC
  8
0
 62
7
 10
1634.440101282637
 20
279.5478409390036
 30
0
 40
12.17095413971116
 50
134.9731493494994
 51
135.6945381183
  0
ARC
  8
0
 62
7
 10
1650.641696777107
 20
263.7341867455453
 30
0
 40
34.81081623098516
 50
135.694345135659
 51
136.1047651244586
  0
ARC
  8
0
 62
7
 10
1622.137487231595
 20
292.1153198258236
 30
0
 40
6.295907913288314
 50
309.9909255904132
 51
315.2272604207122
  0
ARC
  8
0
 62
7
 10
1618.806126955789
 20
295.4203610841328
 30
0
 40
10.98858934359441
 50
315.2272455760827
 51
316.5557673688844
  0
ARC
  8
0
 62
7
 10
1582.018242722324
 20
330.4010635186592
 30
0
 40
61.75271225771495
 50
316.4626075603325
 51
316.6639949017326
  0
ARC
  8
0
 62
7
 10
1632.218283521946
 20
291.2379137177377
 30
0
 40
2.459003052388925
 50
286.518279379655
 51
298.9539196960703
  0
ARC
  8
0
 62
7
 10
1632.340736144356
 20
290.8651083800317
 30
0
 40
2.066799309328687
 50
275.7240983540116
 51
286.2021801110938
  0
ARC
  8
0
 62
7
 10
1632.384468342868
 20
290.5197276554725
 30
0
 40
1.71880289287854
 50
266.675045745841
 51
275.4218690389405
  0
ARC
  8
0
 62
7
 10
1630.662601209374
 20
219.6889916293289
 30
0
 40
6.860544223979884
 50
175.8733282604821
 51
177.6306701430825
  0
ARC
  8
0
 62
7
 10
1635.163211973961
 20
219.3822723932407
 30
0
 40
11.3715728876465
 50
172.2051146282161
 51
175.9637585386154
  0
ARC
  8
0
 62
7
 10
1629.882125534626
 20
220.0903805101327
 30
0
 40
6.043263133885069
 50
170.3340838833033
 51
172.0658069807053
  0
ARC
  8
0
 62
7
 10
1627.036179972956
 20
220.5697226953254
 30
0
 40
3.157241444530023
 50
168.2816227573546
 51
170.237802340449
  0
ARC
  8
0
 62
7
 10
1629.498019831045
 20
220.0391901260523
 30
0
 40
5.675556232523497
 50
165.180913661985
 51
168.0850487024859
  0
ARC
  8
0
 62
7
 10
1637.474187262568
 20
217.9535836803578
 30
0
 40
13.91987366734368
 50
164.7591934710217
 51
165.2789240548207
  0
ARC
  8
0
 62
7
 10
1626.327535821169
 20
219.9526787299435
 30
0
 40
3.606660128928702
 50
165.4054527325567
 51
172.2633508748598
  0
ARC
  8
0
 62
7
 10
1626.854506696134
 20
219.8649610771228
 30
0
 40
4.140673525547752
 50
172.0422530222007
 51
178.5102310641998
  0
ARC
  8
0
 62
7
 10
1622.430041620818
 20
222.0946381331167
 30
0
 40
1.68423848738687
 50
343.3758325417788
 51
347.9824194735866
  0
ARC
  8
0
 62
7
 10
1622.547409306718
 20
222.0741762227273
 30
0
 40
1.565139749771934
 50
348.2748028407968
 51
359.8981928381006
  0
ARC
  8
0
 62
7
 10
1622.864985486689
 20
222.0657632490299
 30
0
 40
1.247573811189189
 50
0.258651333552383
 51
16.67996079785547
  0
ARC
  8
0
 62
7
 10
1623.080489319481
 20
222.1182189765094
 30
0
 40
1.026147256178249
 50
17.32803600316305
 51
39.46464000315073
  0
ARC
  8
0
 62
7
 10
1623.09850708933
 20
222.1234910839804
 30
0
 40
1.008913276634131
 50
39.88386297059575
 51
66.77588744929142
  0
ARC
  8
0
 62
7
 10
1623.008215999506
 20
221.9377937037633
 30
0
 40
1.215206972509107
 50
66.31622934563266
 51
81.74384487557174
  0
ARC
  8
0
 62
7
 10
1622.950333055261
 20
221.6275504237826
 30
0
 40
1.530599768771339
 50
81.26721903973986
 51
94.33168826279996
  0
ARC
  8
0
 62
7
 10
1622.965753079926
 20
221.2371124586354
 30
0
 40
1.921138976257155
 50
93.91075382835862
 51
106.3708778796781
  0
ARC
  8
0
 62
7
 10
1623.072381084151
 20
220.8203229179485
 30
0
 40
2.351133210703563
 50
106.0012226651107
 51
120.3919484941022
  0
ARC
  8
0
 62
7
 10
1623.226529018175
 20
220.5226038164831
 30
0
 40
2.685984567160001
 50
120.0153578153737
 51
129.9085230285841
  0
ARC
  8
0
 62
7
 10
1623.228442109053
 20
220.5130374350909
 30
0
 40
2.694554065243552
 50
129.8092228613452
 51
146.5729906533443
  0
ARC
  8
0
 62
7
 10
1622.871860058221
 20
220.768130202853
 30
0
 40
2.256490911132065
 50
146.9910805580979
 51
160.2087359000009
  0
ARC
  8
0
 62
7
 10
1622.440777310032
 20
220.9385687092255
 30
0
 40
1.793219539982615
 50
160.6691240868526
 51
173.4029826216439
  0
ARC
  8
0
 62
7
 10
1622.053722604067
 20
220.9956801353652
 30
0
 40
1.402220002369146
 50
173.9042005076373
 51
187.5362258922395
  0
ARC
  8
0
 62
7
 10
1621.773309559358
 20
220.9687872172528
 30
0
 40
1.120747698474314
 50
188.053411596048
 51
206.0652615781452
  0
ARC
  8
0
 62
7
 10
1621.655267456456
 20
220.9217696774734
 30
0
 40
0.9940985738776608
 50
206.6203896219418
 51
219.76470623894
  0
ARC
  8
0
 62
7
 10
1621.662606731666
 20
220.9301433296343
 30
0
 40
1.005097712873296
 50
219.8640191529924
 51
245.1564369362169
  0
ARC
  8
0
 62
7
 10
1621.743394105208
 20
221.086609977831
 30
0
 40
1.181051132215733
 50
244.7890520892117
 51
258.4029213812261
  0
ARC
  8
0
 62
7
 10
1621.802797267298
 20
221.3348545532391
 30
0
 40
1.436193521346187
 50
258.0723414311335
 51
269.8752782836199
  0
ARC
  8
0
 62
7
 10
1621.813499525846
 20
221.6507087323282
 30
0
 40
1.752098870096833
 50
269.54778416599
 51
279.8304615113828
  0
ARC
  8
0
 62
7
 10
1621.771844333756
 20
221.9470192011139
 30
0
 40
2.051192838085775
 50
279.563798905399
 51
286.1150326430902
  0
ARC
  8
0
 62
7
 10
1621.760930136771
 20
222.279012973137
 30
0
 40
1.481241139788672
 50
309.6662680094494
 51
319.0399120094546
  0
ARC
  8
0
 62
7
 10
1621.749788113594
 20
222.2853495987568
 30
0
 40
1.493237914075378
 50
296.1544208457465
 51
309.8401654848207
  0
ARC
  8
0
 62
7
 10
1621.893004377089
 20
222.0105659426032
 30
0
 40
1.183484294856338
 50
284.6152944584085
 51
295.7947196417077
  0
ARC
  8
0
 62
7
 10
1621.980626776513
 20
221.7044407163767
 30
0
 40
0.8651880430948903
 50
274.9711386414206
 51
284.1157486435718
  0
ARC
  8
0
 62
7
 10
1622.004620877353
 20
221.4714974151316
 30
0
 40
0.6310527362780454
 50
263.298718013732
 51
274.6335288138119
  0
ARC
  8
0
 62
7
 10
1621.986512817169
 20
221.283376634413
 30
0
 40
0.4421219130829198
 50
247.2764159790276
 51
262.7844841080226
  0
ARC
  8
0
 62
7
 10
1621.943300457131
 20
221.1685482357356
 30
0
 40
0.3195459364712309
 50
220.6282556552429
 51
246.4698107108758
  0
ARC
  8
0
 62
7
 10
1621.932882769404
 20
221.1533666319354
 30
0
 40
0.3017911541040209
 50
193.6230941251268
 51
219.7285802380305
  0
ARC
  8
0
 62
7
 10
1622.012497843964
 20
221.1766869570935
 30
0
 40
0.3846789697928734
 50
180.8058706516237
 51
194.2058027621908
  0
ARC
  8
0
 62
7
 10
1622.131064051725
 20
221.1818325990505
 30
0
 40
0.5033178352450074
 50
171.0155787771169
 51
181.2017439945857
  0
ARC
  8
0
 62
7
 10
1622.298752395496
 20
221.1586099005525
 30
0
 40
0.6725832268999787
 50
160.1645618234513
 51
171.2923908491477
  0
ARC
  8
0
 62
7
 10
1622.545404714792
 20
221.0771385306581
 30
0
 40
0.9322734827397635
 50
149.423142242378
 51
160.5982301662807
  0
ARC
  8
0
 62
7
 10
1622.818818255785
 20
220.9269997424138
 30
0
 40
1.244081636065038
 50
138.6880272629751
 51
149.8755017775935
  0
ARC
  8
0
 62
7
 10
1623.005685604495
 20
220.7747947379839
 30
0
 40
1.484949544720457
 50
129.6852084722466
 51
139.0367132109127
  0
ARC
  8
0
 62
7
 10
1623.013934921366
 20
220.7707091592793
 30
0
 40
1.493366102081786
 50
116.1457861479024
 51
129.8286798461258
  0
ARC
  8
0
 62
7
 10
1622.871202691509
 20
221.0445145594785
 30
0
 40
1.184705303379832
 50
104.6173618858629
 51
115.7843637294232
  0
ARC
  8
0
 62
7
 10
1622.783134242665
 20
221.3522557865846
 30
0
 40
0.8647326428616613
 50
94.96820649518841
 51
104.1167374817204
  0
ARC
  8
0
 62
7
 10
1622.759232630379
 20
221.5846647577949
 30
0
 40
0.6311376587329042
 50
83.3023262106191
 51
94.63371819145661
  0
ARC
  8
0
 62
7
 10
1622.777427193379
 20
221.7733437105969
 30
0
 40
0.4416418610444566
 50
67.27116060177278
 51
82.79177730274381
  0
ARC
  8
0
 62
7
 10
1622.820651575742
 20
221.8880596679196
 30
0
 40
0.3191647926642455
 50
40.60921836527555
 51
66.47136353290597
  0
ARC
  8
0
 62
7
 10
1622.830989186083
 20
221.9028337421879
 30
0
 40
0.3017338012792648
 50
13.6449215239587
 51
39.75710585988726
  0
ARC
  8
0
 62
7
 10
1622.751538221298
 20
221.8795316812653
 30
0
 40
0.3844592183427832
 50
0.81824490503075
 51
14.22638281541278
  0
ARC
  8
0
 62
7
 10
1622.632824722177
 20
221.8743540146631
 30
0
 40
0.5032465971684824
 50
351.0269993735162
 51
1.214663622421148
  0
ARC
  8
0
 62
7
 10
1622.465163177391
 20
221.8975630563533
 30
0
 40
0.6724839156699605
 50
340.1719483446848
 51
351.3017710468174
  0
ARC
  8
0
 62
7
 10
1622.218583456053
 20
221.9790123208346
 30
0
 40
0.9320990102612421
 50
329.4263044563166
 51
340.6034046198769
  0
ARC
  8
0
 62
7
 10
1621.945678138399
 20
222.1288759847966
 30
0
 40
1.243329913602709
 50
318.6836905085556
 51
329.8771477120656
  0
ARC
  8
0
 62
7
 10
1622.111611503868
 20
223.962874728708
 30
0
 40
7.513814030816856
 50
346.3901430214297
 51
347.4086018941279
  0
ARC
  8
0
 62
7
 10
1627.47020332502
 20
222.7658809902905
 30
0
 40
2.023158304380432
 50
347.4100174325984
 51
349.0341789675976
  0
ARC
  8
0
 62
7
 10
1629.72253562598
 20
220.97965608166
 30
0
 40
1.582879495225627
 50
167.4930455576896
 51
179.280737417684
  0
ARC
  8
0
 62
7
 10
1629.403929313216
 20
220.9918312934294
 30
0
 40
1.26417188038491
 50
179.6512415986254
 51
195.061902030329
  0
ARC
  8
0
 62
7
 10
1629.180990703811
 20
220.9428486152287
 30
0
 40
1.036217985892882
 50
195.6498705970957
 51
219.3542134098
  0
ARC
  8
0
 62
7
 10
1629.153869367739
 20
220.9327512757229
 30
0
 40
1.00888751822832
 50
219.8875068774387
 51
246.779306006046
  0
ARC
  8
0
 62
7
 10
1629.244311718864
 20
221.1189216459005
 30
0
 40
1.215674648289259
 50
246.3214825404855
 51
261.7429072665898
  0
ARC
  8
0
 62
7
 10
1629.302068632449
 20
221.4284442604123
 30
0
 40
1.530336147994083
 50
261.2671872514389
 51
274.3339107265536
  0
ARC
  8
0
 62
7
 10
1629.286719372714
 20
221.8188256708051
 30
0
 40
1.920813675949989
 50
273.9104758042428
 51
286.3730575903517
  0
ARC
  8
0
 62
7
 10
1629.180065154958
 20
222.2359607218537
 30
0
 40
2.35114679414014
 50
286.0012452984397
 51
300.3927431873194
  0
ARC
  8
0
 62
7
 10
1629.025064925486
 20
222.5350318258712
 30
0
 40
2.687594970265987
 50
300.0173698477747
 51
309.9056720957787
  0
ARC
  8
0
 62
7
 10
1629.024133004872
 20
222.5432823365798
 30
0
 40
2.694525690599482
 50
309.8083257403866
 51
326.5709153524807
  0
ARC
  8
0
 62
7
 10
1629.38141963096
 20
222.2877579609309
 30
0
 40
2.255635852823877
 50
326.9880507263064
 51
340.21020735031
  0
ARC
  8
0
 62
7
 10
1629.811505431482
 20
222.1176889315974
 30
0
 40
1.793428022427631
 50
340.6705988787275
 51
353.4026518460278
  0
ARC
  8
0
 62
7
 10
1630.198909171674
 20
222.0604734956524
 30
0
 40
1.402070281666174
 50
353.9064145926952
 51
7.539966323386157
  0
ARC
  8
0
 62
7
 10
1630.479762600075
 20
222.0875148335034
 30
0
 40
1.120141973489928
 50
8.053801308298509
 51
26.07664009807682
  0
ARC
  8
0
 62
7
 10
1630.596930530309
 20
222.1341622188496
 30
0
 40
0.9944423882454248
 50
26.63004200770126
 51
39.77164100769265
  0
ARC
  8
0
 62
7
 10
1630.58981920614
 20
222.1263347286466
 30
0
 40
1.004916699689264
 50
39.85527632887501
 51
65.15113638201625
  0
ARC
  8
0
 62
7
 10
1630.509501518151
 20
221.971023430201
 30
0
 40
1.179625364309951
 50
64.78121738906607
 51
78.41109638415644
  0
ARC
  8
0
 62
7
 10
1630.449750106483
 20
221.7218973988875
 30
0
 40
1.435701193764799
 50
78.07240234273611
 51
89.87991658823256
  0
ARC
  8
0
 62
7
 10
1630.43907805476
 20
221.4041179336342
 30
0
 40
1.753530876510159
 50
89.55297322841395
 51
99.82871253911367
  0
ARC
  8
0
 62
7
 10
1630.480650572885
 20
221.1082556944085
 30
0
 40
2.05216934236497
 50
99.56229361215426
 51
106.1118571840472
  0
ARC
  8
0
 62
7
 10
1629.249354056279
 20
222.2791100706286
 30
0
 40
1.481418128439242
 50
309.6686389998958
 51
319.0403259999094
  0
ARC
  8
0
 62
7
 10
1629.238430675366
 20
222.2852779508812
 30
0
 40
1.493145445414587
 50
296.1534329117425
 51
309.8402035231545
  0
ARC
  8
0
 62
7
 10
1629.381534246182
 20
222.0107321083927
 30
0
 40
1.183655145418868
 50
284.6151470680641
 51
295.793347521943
  0
ARC
  8
0
 62
7
 10
1629.46918149695
 20
221.7045569814102
 30
0
 40
0.8653044590232448
 50
274.971052425489
 51
284.1148556552399
  0
ARC
  8
0
 62
7
 10
1629.493180893306
 20
221.4715687779202
 30
0
 40
0.6311239745830822
 50
263.2992076498812
 51
274.6333230083359
  0
ARC
  8
0
 62
7
 10
1629.475078252566
 20
221.2834347862631
 30
0
 40
0.442180674466398
 50
247.2777339516455
 51
262.7843541093419
  0
ARC
  8
0
 62
7
 10
1629.431862010619
 20
221.1685686230346
 30
0
 40
0.3195683745209155
 50
220.6296218986899
 51
246.469717473842
  0
ARC
  8
0
 62
7
 10
1629.421469723444
 20
221.1533204295847
 30
0
 40
0.3017904497079944
 50
193.6132487491859
 51
219.7172885492417
  0
ARC
  8
0
 62
7
 10
1629.50130935186
 20
221.1766845217614
 30
0
 40
0.3849061667726232
 50
180.8034192552205
 51
194.1961976249009
  0
ARC
  8
0
 62
7
 10
1629.620020247456
 20
221.1818086177701
 30
0
 40
0.5036891185999772
 50
171.0174981449135
 51
181.1968966379212
  0
ARC
  8
0
 62
7
 10
1629.787451086522
 20
221.1586258344628
 30
0
 40
0.6726940078419008
 50
160.1670523942943
 51
171.2937153164162
  0
ARC
  8
0
 62
7
 10
1630.034363943973
 20
221.0770579855861
 30
0
 40
0.9326622736992773
 50
149.4293381749245
 51
160.5997014659281
  0
ARC
  8
0
 62
7
 10
1630.306786949146
 20
220.9275609470481
 30
0
 40
1.243292382763183
 50
138.6890265669832
 51
149.8826782970353
  0
ARC
  8
0
 62
7
 10
1630.492798374855
 20
220.7763056843995
 30
0
 40
1.482891488820426
 50
129.6808000713461
 51
139.0437663055714
  0
ARC
  8
0
 62
7
 10
1630.503046573127
 20
220.7695549471411
 30
0
 40
1.494634804062389
 50
116.1438864370782
 51
129.8179120069958
  0
ARC
  8
0
 62
7
 10
1630.360145000227
 20
221.0435411292144
 30
0
 40
1.185737852983601
 50
104.6198037180163
 51
115.7787876143769
  0
ARC
  8
0
 62
7
 10
1630.272082112192
 20
221.3504276277133
 30
0
 40
0.8665949950890005
 50
94.97732764181492
 51
104.1072484950619
  0
ARC
  8
0
 62
7
 10
1630.247886029764
 20
221.5845713156589
 30
0
 40
0.6312463271341527
 50
83.30279098562201
 51
94.63330600912705
  0
ARC
  8
0
 62
7
 10
1630.266090193993
 20
221.7733329802375
 30
0
 40
0.4416672167130946
 50
67.27129166747017
 51
82.79245651200004
  0
ARC
  8
0
 62
7
 10
1630.309203695107
 20
221.8878965906784
 30
0
 40
0.31937407967367
 50
40.61554558048591
 51
66.46428072260544
  0
ARC
  8
0
 62
7
 10
1630.319267146262
 20
221.9028508813416
 30
0
 40
0.3020381730738452
 50
13.61827017997686
 51
39.70484417425443
  0
ARC
  8
0
 62
7
 10
1630.239699511212
 20
221.879561823072
 30
0
 40
0.384872057217132
 50
0.804174466307895
 51
14.19886403262984
  0
ARC
  8
0
 62
7
 10
1630.121240788985
 20
221.8744073525815
 30
0
 40
0.5034035624397516
 50
351.0166851486844
 51
1.201556572061337
  0
ARC
  8
0
 62
7
 10
1629.953476237412
 20
221.8976359528593
 30
0
 40
0.6727452230286402
 50
340.1684731595944
 51
351.2936691955018
  0
ARC
  8
0
 62
7
 10
1629.707149256014
 20
221.9789938446679
 30
0
 40
0.9320912622322845
 50
329.4248679771204
 51
340.6009138199255
  0
ARC
  8
0
 62
7
 10
1629.434789923299
 20
222.128452367402
 30
0
 40
1.242646409920688
 50
318.6813280027766
 51
329.8795967184686
  0
ARC
  8
0
 62
7
 10
1632.205353610566
 20
215.2940379151575
 30
0
 40
9.061711948052196
 50
130.5243367854177
 51
133.4173308559166
  0
ARC
  8
0
 62
7
 10
1631.543354852309
 20
216.0295870258524
 30
0
 40
8.072474711275625
 50
133.5926032835855
 51
134.9727251818844
  0
ARC
  8
0
 62
7
 10
1634.440101282637
 20
213.1302088599228
 30
0
 40
12.17095413971036
 50
134.9731493495107
 51
135.69453811831
  0
ARC
  8
0
 62
7
 10
1650.641696777058
 20
197.3165546664125
 30
0
 40
34.81081623098569
 50
135.694345135545
 51
136.104765124346
  0
ARC
  8
0
 62
7
 10
1622.137487231592
 20
225.6976877467397
 30
0
 40
6.295907913288288
 50
309.9909255904242
 51
315.2272604207242
  0
ARC
  8
0
 62
7
 10
1618.806126955786
 20
229.0027290050485
 30
0
 40
10.98858934359408
 50
315.2272455760913
 51
316.5557673688932
  0
ARC
  8
0
 62
7
 10
1582.018242722326
 20
263.9834314395797
 30
0
 40
61.7527122577143
 50
316.4626075603276
 51
316.6639949017277
  0
ARC
  8
0
 62
7
 10
1632.218283521944
 20
224.8202816386548
 30
0
 40
2.459003052389194
 50
286.5182793796807
 51
298.9539196960693
  0
ARC
  8
0
 62
7
 10
1632.340736144354
 20
224.4474763009486
 30
0
 40
2.066799309328885
 50
275.7240983540111
 51
286.202180111126
  0
ARC
  8
0
 62
7
 10
1632.384468342867
 20
224.1020955763896
 30
0
 40
1.71880289287882
 50
266.6750457458112
 51
275.4218690389091
  0
CIRCLE
  8
1
 62
7
 10
1673.315336403073
 20
146.9213561945642
 30
0
 40
1
  0
CIRCLE
  8
1
 62
7
 10
1628.315336403074
 20
323.043902777322
 30
0
 40
41.5
  0
DIMENSION
  8
1
  6
CONTINUOUS
 62
2
  2
*D0
  3
DMST_1
 10
1721.315336403073
 20
68.3559429355128
 30
0
 11
1626.315336403073
 21
69.6959429355128
 31
0
 12
0
 22
0
 32
0
 70
0
 13
1531.315336403073
 23
104.2968561945643
 33
0
 14
1721.315336403073
 24
104.2968561945643
 34
0
 53
0
  0
DIMENSION
  8
1
  6
CONTINUOUS
 62
2
  2
*D1
  3
DMST_1
 10
1734.257890410281
 20
119.9213561945642
 30
0
 11
1732.917890410281
 21
104.231868653006
 31
0
 12
0
 22
0
 32
0
 70
0
 13
1658.315336403073
 23
84.9213561945642
 33
0
 14
1731.34202015558
 24
119.9213561945642
 34
0
 50
90
 53
0
  0
DIMENSION
  8
1
  6
CONTINUOUS
 62
2
  2
*D2
  3
DMST_1
 10
1740.246941808895
 20
372.043902777322
 30
0
 11
1738.906941808895
 21
325.6536655189919
 31
0
 12
0
 22
0
 32
0
 70
0
 13
1632.315336403074
 23
274.0439027773219
 33
0
 14
1632.315336403074
 24
372.043902777322
 34
0
 50
90
 53
0
  0
DIMENSION
  8
1
  6
CONTINUOUS
 62
2
  2
*D3
  3
DMST_2
 10
1721.315336403073
 20
147.8700697569373
 30
0
 11
1714.815336403073
 21
149.5600697569373
 31
0
 12
0
 22
0
 32
0
 70
1
 13
1708.315336403073
 23
135.5458561945641
 33
0
 14
1721.315336403073
 24
135.545856194564
 34
0
 53
0
  0
DIMENSION
  8
1
  6
CONTINUOUS
 62
2
  2
*D4
  3
DMST_3
 10
1742.521146671322
 20
246.7213569624693
 30
0
 11
1740.931146671322
 21
167.338751661616
 31
0
 12
0
 22
0
 32
0
 70
0
  1
162
 13
1658.315336403073
 23
84.9213561945642
 33
0
 14
1662.713450197988
 24
246.7213569624693
 34
0
 50
90
 53
0
  0
ENDSEC
  0
EOF
