  0
SECTION
  2
HEADER
  9
$ACADVER
  1
AC1009
  9
$INSBASE
 10
0
 20
0
  9
$EXTMIN
 10
-306.2075742301876
 20
-158.2994735262922
  9
$EXTMAX
 10
-48.80605022662293
 20
203.2667177780559
  9
$LIMMIN
 10
-306.2075742301876
 20
-158.2994735262922
  9
$LIMMAX
 10
-48.80605022662293
 20
203.2667177780559
  9
$VIEWCTR
 10
10
 20
10
  9
$VIEWSIZE
 40
10
  9
$SNAPMODE
 70
0
  9
$SNAPUNIT
 10
1
 20
1
  9
$SNAPBASE
 10
0
 20
0
  9
$SNAPANG
 50
0
  9
$SNAPSTYLE
 70
0
  9
$SNAPISOPAIR
 70
0
  9
$GRIDMODE
 70
0
  9
$GRIDUNIT
 10
0
 20
0
  9
$ORTHOMODE
 70
0
  9
$REGENMODE
 70
1
  9
$FILLMODE
 70
1
  9
$QTEXTMODE
 70
0
  9
$DRAGMODE
 70
2
  9
$LTSCALE
 40
1
  9
$OSMODE
 70
0
  9
$ATTMODE
 70
1
  9
$TEXTSIZE
 40
3.5
  9
$TRACEWID
 40
0.5
  9
$TEXTSTYLE
  7
STANDARD
  9
$CLAYER
  8
0
  9
$CELTYPE
  6
BYLAYER
  9
$CECOLOR
 62
256
  9
$DIMSCALE
 40
1
  9
$DIMASZ
 40
0.18
  9
$DIMEXO
 40
0.0625
  9
$DIMDLI
 40
0.38
  9
$DIMRND
 40
0
  9
$DIMDLE
 40
0
  9
$DIMEXE
 40
0.18
  9
$DIMTP
 40
0
  9
$DIMTM
 40
0
  9
$DIMTXT
 40
0.18
  9
$DIMCEN
 40
0.09
  9
$DIMTSZ
 40
0
  9
$DIMTOL
 70
0
  9
$DIMLIM
 70
0
  9
$DIMTIH
 70
1
  9
$DIMTOH
 70
1
  9
$DIMSE1
 70
0
  9
$DIMSE2
 70
0
  9
$DIMTAD
 70
0
  9
$DIMZIN
 70
0
  9
$DIMBLK
  1

  9
$DIMASO
 70
1
  9
$DIMSHO
 70
1
  9
$DIMPOST
  1

  9
$DIMAPOST
  1

  9
$DIMALT
 70
0
  9
$DIMALTD
 70
2
  9
$DIMALTF
 40
25.4
  9
$DIMLFAC
 40
1
  9
$DIMTOFL
 70
0
  9
$DIMTVP
 40
0
  9
$DIMTIX
 70
0
  9
$DIMSOXD
 70
0
  9
$DIMSAH
 70
0
  9
$DIMBLK1
  1

  9
$DIMBLK2
  1

  9
$DIMSTYLE
  2
*UNNAMED
  9
$DIMCLRD
 70
0
  9
$DIMCLRE
 70
0
  9
$DIMCLRT
 70
0
  9
$DIMTFAC
 40
1
  9
$DIMGAP
 40
0.09
  9
$LUNITS
 70
2
  9
$LUPREC
 70
4
  9
$AXISMODE
 70
0
  9
$AXISUNIT
 10
0
 20
0
  9
$SKETCHINC
 40
0.1
  9
$FILLETRAD
 40
2
  9
$AUNITS
 70
0
  9
$AUPREC
 70
0
  9
$MENU
  1
ACAD
  9
$ELEVATION
 40
0
  9
$THICKNESS
 40
0
  9
$VIEWDIR
 10
0
 20
0
 30
1
  9
$LIMCHECK
 70
0
  9
$BLIPMODE
 70
1
  9
$CHAMFERA
 40
0
  9
$CHAMFERB
 40
0
  9
$FASTZOOM
 70
1
  9
$SKPOLY
 70
0
  9
$ANGBASE
 50
0
  9
$ANGDIR
 70
0
  9
$PDMODE
 70
0
  9
$PDSIZE
 40
0
  9
$PLINEWID
 40
0
  9
$COORDS
 70
2
  0
ENDSEC
  0
SECTION
  2
TABLES
  0
TABLE
  2
DIMSTYLE
 70
3
  0
DIMSTYLE
  2
DMST_1
 70
0
  3

  4

  5

  6

  7

 40
1
 41
3.200000000000001
 42
0.4999999999999999
 43
7
 44
1.5
 45
0
 46
0
 47
0
 48
0
140
3.200000000000001
141
0
142
0
143
25.4
144
1
145
0
146
1
147
0.09
 71
0
 72
0
 73
0
 74
0
 75
0
 76
0
 77
1
 78
1
170
0
171
2
172
0
173
0
174
0
175
0
176
2
177
2
178
2
  0
DIMSTYLE
  2
DMST_2
 70
0
  3

  4

  5

  6

  7

 40
1
 41
3
 42
0.4999999999999998
 43
7
 44
1.000000000000001
 45
0
 46
0
 47
0
 48
0
140
3
141
0
142
0
143
25.4
144
1
145
0
146
1
147
0.09
 71
0
 72
0
 73
0
 74
0
 75
0
 76
0
 77
1
 78
1
170
0
171
2
172
0
173
0
174
0
175
0
176
2
177
2
178
2
  0
DIMSTYLE
  2
DMST_3
 70
0
  3
)
  4

  5

  6

  7

 40
1
 41
3
 42
0.4999999999999998
 43
7
 44
1.000000000000001
 45
0
 46
0
 47
0
 48
0
140
3
141
0
142
0
143
25.4
144
1
145
0
146
1
147
0.09
 71
0
 72
0
 73
0
 74
0
 75
0
 76
0
 77
1
 78
1
170
0
171
2
172
0
173
0
174
0
175
0
176
2
177
2
178
2
  0
ENDTAB
  0
TABLE
  2
LTYPE
 70
9
  0
LTYPE
  2
CONTINUOUS
 70
64
  3
Solid line
 72
65
 73
0
 40
0
  0
LTYPE
  2
BORDER
 70
64
  3
__ __ . __ __ .
 72
65
 73
6
 40
16.65107459954235
 49
4.757449885583528
 49
-2.378724942791764
 49
4.757449885583528
 49
-2.378724942791764
 49
0
 49
-2.378724942791764
  0
LTYPE
  2
CENTER
 70
64
  3
____ _ ____ _
 72
65
 73
4
 40
19.02979954233411
 49
11.89362471395882
 49
-2.378724942791764
 49
2.378724942791764
 49
-2.378724942791764
  0
LTYPE
  2
DASHDOT
 70
64
  3
__ . __ . __ .
 72
65
 73
4
 40
9.514899771167055
 49
4.757449885583528
 49
-2.378724942791764
 49
0
 49
-2.378724942791764
  0
LTYPE
  2
DASHED
 70
64
  3
__ __ __ __ __
 72
65
 73
2
 40
7.136174828375292
 49
4.757449885583528
 49
-2.378724942791764
  0
LTYPE
  2
DIVIDE
 70
64
  3
__ . . __ . . 
 72
65
 73
6
 40
11.89362471395882
 49
4.757449885583528
 49
-2.378724942791764
 49
0
 49
-2.378724942791764
 49
0
 49
-2.378724942791764
  0
LTYPE
  2
DOT
 70
64
  3
..............
 72
65
 73
4
 40
4.757449885583528
 49
0
 49
-2.378724942791764
 49
0
 49
-2.378724942791764
  0
LTYPE
  2
HIDDEN
 70
64
  3
_ _ _ _ _ _ _
 72
65
 73
2
 40
3.568087414187646
 49
2.378724942791764
 49
-1.189362471395882
  0
LTYPE
  2
PHANTOM
 70
64
  3
_____ _ _ _____ _ _ 
 72
65
 73
6
 40
23.78724942791764
 49
11.89362471395882
 49
-2.378724942791764
 49
2.378724942791764
 49
-2.378724942791764
 49
2.378724942791764
 49
-2.378724942791764
  0
ENDTAB
  0
TABLE
  2
LAYER
 70
3
  0
LAYER
  2
0
 70
0
 62
7
  6
CONTINUOUS
  0
LAYER
  2
1
 70
0
 62
7
  6
CONTINUOUS
  0
ENDTAB
  0
TABLE
  2
STYLE
 70
4
  0
STYLE
  2
STANDARD
 70
0
 40
0
 41
1
 50
0
 71
0
 42
3.5
  3
txt
  4

  0
STYLE
  2
SIMPLEX
 70
0
 40
0
 41
1
 50
0
 71
0
 42
3.5
  3
simplex
  4

  0
STYLE
  2
COMPLEX
 70
0
 40
0
 41
1
 50
0
 71
0
 42
3.5
  3
complex
  4

  0
STYLE
  2
ITALIC
 70
0
 40
0
 41
1
 50
0
 71
0
 42
3.5
  3
italic
  4

  0
ENDTAB
  0
TABLE
  2
VIEW
 70
0
  0
ENDTAB
  0
ENDSEC
  0
SECTION
  2
BLOCKS
  0
BLOCK
  8
1
  2
*D0
 70
1
 10
0
 20
0
 30
0
  0
LINE
  8
1
 62
2
 10
-84.41318476043824
 20
-40.22164254283282
 30
0
 11
-67.41318476043824
 21
-40.22164254283282
 31
0
  0
LINE
  8
1
 62
2
 10
-67.41318476043824
 20
-52.7316425428328
 30
0
 11
-67.41318476043824
 21
-39.72164254283282
 31
0
  0
LINE
  8
1
 62
2
 10
-84.41318476043824
 20
-51.2316425428328
 30
0
 11
-84.41318476043824
 21
-39.72164254283282
 31
0
  0
LINE
  8
1
 62
2
 10
-67.41318476043824
 20
-40.22164254283282
 30
0
 11
-70.61318476043824
 21
-41.08564254283282
 31
0
  0
LINE
  8
1
 62
2
 10
-67.41318476043824
 20
-40.22164254283282
 30
0
 11
-70.61318476043824
 21
-39.35764254283281
 31
0
  0
LINE
  8
1
 62
2
 10
-84.41318476043824
 20
-40.22164254283282
 30
0
 11
-81.21318476043824
 21
-39.35764254283282
 31
0
  0
LINE
  8
1
 62
2
 10
-84.41318476043824
 20
-40.22164254283282
 30
0
 11
-81.21318476043824
 21
-41.08564254283282
 31
0
  0
TEXT
  8
1
 62
2
 10
-78.24270346832805
 20
-40.13164254283282
 30
0
 40
3.200000000000001
  1
17
 41
0.8910000000000001
 51
15
  0
ENDBLK
  8
0
  0
BLOCK
  8
1
  2
*D1
 70
1
 10
0
 20
0
 30
0
  0
LINE
  8
1
 62
2
 10
-297.4131847604382
 20
-135.093196133769
 30
0
 11
-67.41318476043819
 21
-135.093196133769
 31
0
  0
LINE
  8
1
 62
2
 10
-67.41318476043819
 20
-100.1316425428328
 30
0
 11
-67.41318476043819
 21
-135.593196133769
 31
0
  0
LINE
  8
1
 62
2
 10
-297.4131847604382
 20
-100.1316425428328
 30
0
 11
-297.4131847604382
 21
-135.593196133769
 31
0
  0
LINE
  8
1
 62
2
 10
-67.41318476043819
 20
-135.093196133769
 30
0
 11
-70.41318476043819
 21
-135.903196133769
 31
0
  0
LINE
  8
1
 62
2
 10
-67.41318476043819
 20
-135.093196133769
 30
0
 11
-70.41318476043819
 21
-134.283196133769
 31
0
  0
LINE
  8
1
 62
2
 10
-297.4131847604382
 20
-135.093196133769
 30
0
 11
-294.4131847604382
 21
-134.283196133769
 31
0
  0
LINE
  8
1
 62
2
 10
-297.4131847604382
 20
-135.093196133769
 30
0
 11
-294.4131847604382
 21
-135.903196133769
 31
0
  0
TEXT
  8
1
 62
2
 10
-176.6524048198088
 20
-135.003196133769
 30
0
 40
3
  1
230
 41
0.8910000000000001
 51
15
  0
ENDBLK
  8
0
  0
BLOCK
  8
1
  2
*D2
 70
1
 10
0
 20
0
 30
0
  0
LINE
  8
1
 62
2
 10
-108.296848475781
 20
-116.4316425428328
 30
0
 11
-108.296848475781
 21
-76.43164254283282
 31
0
  0
LINE
  8
1
 62
2
 10
-106.523638432966
 20
-76.43164254283282
 30
0
 11
-108.796848475781
 21
-76.43164254283282
 31
0
  0
LINE
  8
1
 62
2
 10
-136.9131847604382
 20
-116.4316425428328
 30
0
 11
-107.796848475781
 21
-116.4316425428328
 31
0
  0
LINE
  8
1
 62
2
 10
-108.296848475781
 20
-116.4316425428328
 30
0
 11
-109.106848475781
 21
-113.4316425428328
 31
0
  0
LINE
  8
1
 62
2
 10
-108.296848475781
 20
-116.4316425428328
 30
0
 11
-107.486848475781
 21
-113.4316425428328
 31
0
  0
LINE
  8
1
 62
2
 10
-108.296848475781
 20
-76.43164254283282
 30
0
 11
-107.486848475781
 21
-79.43164254283282
 31
0
  0
LINE
  8
1
 62
2
 10
-108.296848475781
 20
-76.43164254283282
 30
0
 11
-109.106848475781
 21
-79.43164254283282
 31
0
  0
TEXT
  8
1
 62
2
 10
-108.386848475781
 20
-102.7532631152627
 30
0
 40
3
  1
40
 50
90
 41
0.8910000000000001
 51
15
  0
ENDBLK
  8
0
  0
BLOCK
  8
1
  2
*D3
 70
1
 10
0
 20
0
 30
0
  0
LINE
  8
1
 62
2
 10
-50.1776891082642
 20
-116.4316425428328
 30
0
 11
-50.1776891082642
 21
46.56835745716712
 31
0
  0
LINE
  8
1
 62
2
 10
-137.5150709655231
 20
46.56835745716712
 30
0
 11
-49.6776891082642
 21
46.56835745716712
 31
0
  0
LINE
  8
1
 62
2
 10
-136.9131847604382
 20
-116.4316425428328
 30
0
 11
-49.6776891082642
 21
-116.4316425428328
 31
0
  0
LINE
  8
1
 62
2
 10
-50.1776891082642
 20
46.56835745716712
 30
0
 11
-49.36768910826419
 21
43.56835745716712
 31
0
  0
LINE
  8
1
 62
2
 10
-50.1776891082642
 20
46.56835745716712
 30
0
 11
-50.9876891082642
 21
43.56835745716712
 31
0
  0
LINE
  8
1
 62
2
 10
-50.1776891082642
 20
-116.4316425428328
 30
0
 11
-50.9876891082642
 21
-113.4316425428328
 31
0
  0
LINE
  8
1
 62
2
 10
-50.1776891082642
 20
-116.4316425428328
 30
0
 11
-49.36768910826419
 21
-113.4316425428328
 31
0
  0
TEXT
  8
1
 62
2
 10
-50.2676891082642
 20
-46.52101459282199
 30
0
 40
3
  1
163
 50
90
 41
0.8910000000000001
 51
15
  0
TEXT
  8
1
 62
2
 10
-50.2676891082642
 20
-49.27036217011536
 30
0
 40
3
  1
(
 50
90
 41
0.8910000000000001
 51
15
  0
TEXT
  8
1
 62
2
 10
-50.2676891082642
 20
-37.98016701552862
 30
0
 40
3
  1
)
 50
90
 41
0.8910000000000001
 51
15
  0
ENDBLK
  8
0
  0
BLOCK
  8
1
  2
*D4
 70
1
 10
0
 20
0
 30
0
  0
LINE
  8
1
 62
2
 10
-49.6098978039163
 20
80.33745677315417
 30
0
 11
-49.6098978039163
 21
188.3374567731544
 31
0
  0
LINE
  8
1
 62
2
 10
-168.9131847604385
 20
188.3374567731544
 30
0
 11
-49.1098978039163
 21
188.3374567731544
 31
0
  0
LINE
  8
1
 62
2
 10
-168.9131847604385
 20
80.33745677315417
 30
0
 11
-49.1098978039163
 21
80.33745677315417
 31
0
  0
LINE
  8
1
 62
2
 10
-49.6098978039163
 20
80.33745677315417
 30
0
 11
-50.4198978039163
 21
83.33745677315417
 31
0
  0
LINE
  8
1
 62
2
 10
-49.6098978039163
 20
80.33745677315417
 30
0
 11
-48.7998978039163
 21
83.33745677315417
 31
0
  0
LINE
  8
1
 62
2
 10
-49.6098978039163
 20
188.3374567731544
 30
0
 11
-48.7998978039163
 21
185.3374567731544
 31
0
  0
LINE
  8
1
 62
2
 10
-49.6098978039163
 20
188.3374567731544
 30
0
 11
-50.4198978039163
 21
185.3374567731544
 31
0
  0
TEXT
  8
1
 62
2
 10
-49.6998978039163
 20
130.8170329845076
 30
0
 40
3
  1
108
 50
90
 41
0.8910000000000001
 51
15
  0
ENDBLK
  8
0
  0
ENDSEC
  0
SECTION
  2
ENTITIES
  0
POLYLINE
  8
1
 62
7
 66
1
 70
1
  0
VERTEX
  8
1
 10
-168.3177145187597
 20
101.9069570470691
 30
0
 42
0.0357198606989846
  0
VERTEX
  8
1
 10
-168.4275283734897
 20
101.7474419412107
 30
0
 42
0.05001447802023277
  0
VERTEX
  8
1
 10
-168.5085332432579
 20
101.5716943653611
 30
0
 42
0.04733296127699809
  0
VERTEX
  8
1
 10
-168.5395708160499
 20
101.44341032038
 30
0
 42
0.04357203114629732
  0
VERTEX
  8
1
 10
-168.544402181726
 20
101.3531114312042
 30
0
 42
0.05357212706531587
  0
VERTEX
  8
1
 10
-168.5326835074586
 20
101.2697632349425
 30
0
 42
0.1094247059508039
  0
VERTEX
  8
1
 10
-168.4703634804795
 20
101.1457256397557
 30
0
 42
0.1133878202652569
  0
VERTEX
  8
1
 10
-168.3533062942449
 20
101.0592294556885
 30
0
 42
0.07195778157306051
  0
VERTEX
  8
1
 10
-168.235913291367
 20
101.0278322889335
 30
0
 42
0.05145352632575297
  0
VERTEX
  8
1
 10
-168.1089703368188
 20
101.025529243107
 30
0
 42
0.04142594342859354
  0
VERTEX
  8
1
 10
-167.9703909152445
 20
101.0488150896178
 30
0
 42
0.05088981411604232
  0
VERTEX
  8
1
 10
-167.7499517257425
 20
101.129912288944
 30
0
 42
0.04203820926419818
  0
VERTEX
  8
1
 10
-167.5417789312495
 20
101.2533541139493
 30
0
 42
0.03827686564684336
  0
VERTEX
  8
1
 10
-167.354242715539
 20
101.4099600630674
 30
0
 42
0.04264275054437553
  0
VERTEX
  8
1
 10
-167.1927685834949
 20
101.5965429891195
 30
0
 42
0.05310791305835964
  0
VERTEX
  8
1
 10
-167.0824541051708
 20
101.7822209094433
 30
0
 42
0.05427745627032965
  0
VERTEX
  8
1
 10
-167.0279565550255
 20
101.9314577872437
 30
0
 42
0.05418238078936721
  0
VERTEX
  8
1
 10
-167.0095699559408
 20
102.0418624393146
 30
0
 42
0.04895675332707537
  0
VERTEX
  8
1
 10
-167.0117864159086
 20
102.1330362998732
 30
0
 42
0.06590206661390277
  0
VERTEX
  8
1
 10
-167.0447151004094
 20
102.2435977691767
 30
0
 42
0.1185715814426991
  0
VERTEX
  8
1
 10
-167.1362059186717
 20
102.3520602019042
 30
0
 42
0.1025971211068973
  0
VERTEX
  8
1
 10
-167.2573342799224
 20
102.4085612767542
 30
0
 42
0.0583927488283745
  0
VERTEX
  8
1
 10
-167.3805437835117
 20
102.4244176446613
 30
0
 42
0.04342770515355984
  0
VERTEX
  8
1
 10
-167.5138336623209
 20
102.4135164732409
 30
0
 42
0.03505393695983138
  0
VERTEX
  8
1
 10
-167.694841882905
 20
102.3640663741756
 30
0
 42
0.04373616893346972
  0
VERTEX
  8
1
 10
-167.9197553287774
 20
102.2546374081363
 30
0
 42
0.04404853925462315
  0
VERTEX
  8
1
 10
-168.1337030602343
 20
102.0976605181826
 30
0
 42
0.04130223793600243
  0
VERTEX
  8
1
 10
-168.3177145187597
 20
101.9069570470691
 30
0
  0
SEQEND
  8
1
  0
POLYLINE
  8
1
 62
7
 66
1
 70
1
  0
VERTEX
  8
1
 10
-168.3177145187582
 20
23.885544578142
 30
0
 42
0.03571986070201471
  0
VERTEX
  8
1
 10
-168.4275283734896
 20
23.72602947228347
 30
0
 42
0.05001447801999726
  0
VERTEX
  8
1
 10
-168.508533243258
 20
23.55028189643388
 30
0
 42
0.0473329612784356
  0
VERTEX
  8
1
 10
-168.5395708160502
 20
23.42199785145283
 30
0
 42
0.04357203114505028
  0
VERTEX
  8
1
 10
-168.5444021817259
 20
23.33169896227704
 30
0
 42
0.05357212706375755
  0
VERTEX
  8
1
 10
-168.5326835074589
 20
23.24835076601529
 30
0
 42
0.1094247059517598
  0
VERTEX
  8
1
 10
-168.47036348048
 20
23.12431317082848
 30
0
 42
0.1133878202653961
  0
VERTEX
  8
1
 10
-168.3533062942456
 20
23.03781698676126
 30
0
 42
0.07195778157341472
  0
VERTEX
  8
1
 10
-168.2359132913675
 20
23.00641982000627
 30
0
 42
0.05145352632542993
  0
VERTEX
  8
1
 10
-168.1089703368186
 20
23.00411677417979
 30
0
 42
0.04142594342861689
  0
VERTEX
  8
1
 10
-167.9703909152446
 20
23.02740262069064
 30
0
 42
0.05088981411562892
  0
VERTEX
  8
1
 10
-167.749951725743
 20
23.1084998200168
 30
0
 42
0.04203820926425624
  0
VERTEX
  8
1
 10
-167.5417789312494
 20
23.23194164502209
 30
0
 42
0.03827686564712333
  0
VERTEX
  8
1
 10
-167.3542427155386
 20
23.38854759414014
 30
0
 42
0.04264275054403986
  0
VERTEX
  8
1
 10
-167.1927685834945
 20
23.57513052019225
 30
0
 42
0.05310791305970903
  0
VERTEX
  8
1
 10
-167.082454105171
 20
23.76080844051613
 30
0
 42
0.05427745626824341
  0
VERTEX
  8
1
 10
-167.0279565550262
 20
23.91004531831646
 30
0
 42
0.05418238078789051
  0
VERTEX
  8
1
 10
-167.0095699559409
 20
24.02044997038744
 30
0
 42
0.04895675333019634
  0
VERTEX
  8
1
 10
-167.0117864159088
 20
24.11162383094594
 30
0
 42
0.06590206661232513
  0
VERTEX
  8
1
 10
-167.04471510041
 20
24.22218530024953
 30
0
 42
0.1185715814423577
  0
VERTEX
  8
1
 10
-167.1362059186722
 20
24.33064773297697
 30
0
 42
0.1025971211072122
  0
VERTEX
  8
1
 10
-167.2573342799219
 20
24.38714880782694
 30
0
 42
0.05839274882880974
  0
VERTEX
  8
1
 10
-167.3805437835113
 20
24.40300517573409
 30
0
 42
0.0434277051535372
  0
VERTEX
  8
1
 10
-167.5138336623215
 20
24.39210400431369
 30
0
 42
0.03505393695993687
  0
VERTEX
  8
1
 10
-167.6948418829056
 20
24.34265390524845
 30
0
 42
0.0437361689337284
  0
VERTEX
  8
1
 10
-167.9197553287777
 20
24.23322493920908
 30
0
 42
0.04404853925499257
  0
VERTEX
  8
1
 10
-168.133703060234
 20
24.0762480492555
 30
0
 42
0.0413022379363284
  0
VERTEX
  8
1
 10
-168.3177145187582
 20
23.885544578142
 30
0
  0
SEQEND
  8
1
  0
POLYLINE
  8
1
 62
7
 66
1
  0
VERTEX
  8
1
 10
-135.4131847604385
 20
134.3374567731544
 30
0
 42
-0.0009881598652431796
  0
VERTEX
  8
1
 10
-135.4800166698264
 20
132.890564078119
 30
0
 42
-0.007858628446316456
  0
VERTEX
  8
1
 10
-135.5582462587947
 20
131.4450745881836
 30
0
 42
-6.381788828328643e-005
  0
VERTEX
  8
1
 10
-135.6592712069241
 20
130.0023915084481
 30
0
 42
-0.01184373752925163
  0
VERTEX
  8
1
 10
-135.7944891937948
 20
128.5639180440125
 30
0
 42
-0.004055919956336188
  0
VERTEX
  8
1
 10
-135.9752978989875
 20
127.1310573999766
 30
0
 42
-0.01492370530691142
  0
VERTEX
  8
1
 10
-136.2090580251479
 20
125.7139248770507
 30
0
 42
-0.003800815716161124
  0
VERTEX
  8
1
 10
-136.4959876639103
 20
124.3051688686217
 30
0
 42
-0.013924929669394
  0
VERTEX
  8
1
 10
-136.8329632288296
 20
122.9062354641719
 30
0
 42
-0.002837302141579628
  0
VERTEX
  8
1
 10
-137.216861133461
 20
121.5185707531836
 30
0
 42
-0.02049561125512623
  0
VERTEX
  8
1
 10
-138.1078410601564
 20
118.79865164146
 30
0
 42
-0.01004428278714656
  0
VERTEX
  8
1
 10
-139.1559927069885
 20
116.1562818027994
 30
0
 42
-0.04667480678560027
  0
VERTEX
  8
1
 10
-142.4705452246462
 20
109.9571178194244
 30
0
 42
-0.02889772470838829
  0
VERTEX
  8
1
 10
-145.7872551895339
 20
105.5215759197778
 30
0
 42
-0.03142982050521029
  0
VERTEX
  8
1
 10
-148.6300432020366
 20
102.5466123837167
 30
0
 42
-0.03069653508417249
  0
VERTEX
  8
1
 10
-152.7976877715851
 20
99.14942538213251
 30
0
 42
-0.1866489170745948
  0
VERTEX
  8
1
 10
-176.2839146871854
 20
93.06537453722434
 30
0
 42
-0.04967186749534815
  0
VERTEX
  8
1
 10
-182.6200863106796
 20
94.44795987133995
 30
0
 42
-0.03691308997153468
  0
VERTEX
  8
1
 10
-187.4738981054722
 20
96.43119561540061
 30
0
 42
-0.03820232382375422
  0
VERTEX
  8
1
 10
-192.028681749292
 20
99.14942538213258
 30
0
 42
-0.03475430443888784
  0
VERTEX
  8
1
 10
-196.1963263188407
 20
102.5466123837167
 30
0
 42
-0.02737288823457758
  0
VERTEX
  8
1
 10
-199.0391143313434
 20
105.5215759197777
 30
0
 42
-0.04145297279565025
  0
VERTEX
  8
1
 10
-203.0962813002831
 20
111.143844788479
 30
0
 42
-0.02561435964803906
  0
VERTEX
  8
1
 10
-205.0843123395707
 20
114.8619171790434
 30
0
 42
-0.03862938488848284
  0
VERTEX
  8
1
 10
-207.6095083874165
 20
121.5185707531836
 30
0
 42
-0.007729126242954686
  0
VERTEX
  8
1
 10
-207.9934062920481
 20
122.9062354641719
 30
0
 42
-0.009032597570927482
  0
VERTEX
  8
1
 10
-208.3303818569677
 20
124.3051688686217
 30
0
 42
-0.008692694161957922
  0
VERTEX
  8
1
 10
-208.6173114957302
 20
125.7139248770507
 30
0
 42
-0.01003125617299027
  0
VERTEX
  8
1
 10
-208.8510716218907
 20
127.1310573999766
 30
0
 42
-0.008947814311432354
  0
VERTEX
  8
1
 10
-209.0318803270833
 20
128.5639180440124
 30
0
 42
-0.006951617952147293
  0
VERTEX
  8
1
 10
-209.1670983139539
 20
130.0023915084481
 30
0
 42
-0.004955536262014178
  0
VERTEX
  8
1
 10
-209.268123262083
 20
131.4450745881836
 30
0
 42
-0.002966797569439941
  0
VERTEX
  8
1
 10
-209.346352851051
 20
132.890564078119
 30
0
 42
-0.0009881598652235286
  0
VERTEX
  8
1
 10
-209.4131847604385
 20
134.3374567731544
 30
0
  0
SEQEND
  8
1
  0
LINE
  8
1
 62
2
 10
-161.2660473885401
 20
-145.459555165973
 30
0
 11
-161.1271584996512
 21
-145.303305165973
 31
0
  0
LINE
  8
1
 62
2
 10
-161.2660473885401
 20
-144.522055165973
 30
0
 11
-162.0993807218734
 21
-144.522055165973
 31
0
  0
LINE
  8
1
 62
2
 10
-159.1827140552068
 20
-148.115805165973
 30
0
 11
-157.9327140552068
 21
-148.115805165973
 31
0
  0
LINE
  8
1
 62
2
 10
-160.5716029440957
 20
-148.115805165973
 30
0
 11
-159.1827140552068
 21
-148.115805165973
 31
0
  0
LINE
  8
1
 62
2
 10
-159.1827140552068
 20
-143.584555165973
 30
0
 11
-159.1827140552068
 21
-148.115805165973
 31
0
  0
LINE
  8
1
 62
2
 10
-160.154936277429
 20
-145.459555165973
 30
0
 11
-158.2104918329846
 21
-145.459555165973
 31
0
  0
LINE
  8
1
 62
2
 10
-160.9882696107623
 20
-145.615805165973
 30
0
 11
-160.2938251663179
 21
-146.397055165973
 31
0
  0
LINE
  8
1
 62
2
 10
-161.2660473885401
 20
-144.522055165973
 30
0
 11
-161.2660473885401
 21
-143.584555165973
 31
0
  0
LINE
  8
1
 62
2
 10
-160.5716029440957
 20
-144.522055165973
 30
0
 11
-161.2660473885401
 21
-144.522055165973
 31
0
  0
LINE
  8
1
 62
2
 10
-161.1271584996512
 20
-145.303305165973
 30
0
 11
-160.5716029440957
 21
-144.522055165973
 31
0
  0
LINE
  8
1
 62
2
 10
-161.8216029440957
 20
-146.084555165973
 30
0
 11
-161.2660473885401
 21
-145.459555165973
 31
0
  0
LINE
  8
1
 62
2
 10
-162.3771584996512
 20
-146.553305165973
 30
0
 11
-161.8216029440957
 21
-146.084555165973
 31
0
  0
LINE
  8
1
 62
2
 10
-161.2660473885401
 20
-148.272055165973
 30
0
 11
-161.2660473885401
 21
-145.459555165973
 31
0
  0
LINE
  8
1
 62
2
 10
-165.154936277429
 20
-146.553305165973
 30
0
 11
-166.5438251663179
 21
-148.272055165973
 31
0
  0
LINE
  8
1
 62
2
 10
-163.904936277429
 20
-147.959555165973
 30
0
 11
-164.4604918329846
 21
-147.334555165973
 31
0
  0
LINE
  8
1
 62
2
 10
-163.4882696107623
 20
-148.428305165973
 30
0
 11
-163.904936277429
 21
-147.959555165973
 31
0
  0
LINE
  8
1
 62
2
 10
-166.9604918329846
 20
-148.272055165973
 30
0
 11
-163.904936277429
 21
-147.959555165973
 31
0
  0
LINE
  8
1
 62
2
 10
-166.6827140552068
 20
-146.397055165973
 30
0
 11
-163.4882696107623
 21
-146.397055165973
 31
0
  0
LINE
  8
1
 62
2
 10
-166.1271584996512
 20
-145.615805165973
 30
0
 11
-164.1827140552068
 21
-145.615805165973
 31
0
  0
LINE
  8
1
 62
2
 10
-165.154936277429
 20
-143.584555165973
 30
0
 11
-162.9327140552068
 21
-145.928305165973
 31
0
  0
LINE
  8
1
 62
2
 10
-165.154936277429
 20
-143.584555165973
 30
0
 11
-167.3771584996512
 21
-145.928305165973
 31
0
  0
LINE
  8
1
 62
2
 10
-171.1271584996512
 20
-145.772055165973
 30
0
 11
-172.0993807218734
 21
-145.772055165973
 31
0
  0
LINE
  8
1
 62
2
 10
-171.1271584996512
 20
-147.490805165973
 30
0
 11
-170.154936277429
 21
-147.178305165973
 31
0
  0
LINE
  8
1
 62
2
 10
-168.3493807218734
 20
-148.272055165973
 30
0
 11
-167.9327140552068
 21
-147.803305165973
 31
0
  0
LINE
  8
1
 62
2
 10
-168.904936277429
 20
-147.647055165973
 30
0
 11
-168.3493807218734
 21
-148.272055165973
 31
0
  0
LINE
  8
1
 62
2
 10
-169.4604918329846
 20
-146.553305165973
 30
0
 11
-168.904936277429
 21
-147.647055165973
 31
0
  0
LINE
  8
1
 62
2
 10
-169.7382696107623
 20
-145.303305165973
 30
0
 11
-169.4604918329846
 21
-146.553305165973
 31
0
  0
LINE
  8
1
 62
2
 10
-169.8771584996512
 20
-143.428305165973
 30
0
 11
-169.7382696107623
 21
-145.303305165973
 31
0
  0
LINE
  8
1
 62
2
 10
-169.0438251663179
 20
-144.053305165973
 30
0
 11
-169.4604918329846
 21
-143.584555165973
 31
0
  0
LINE
  8
1
 62
2
 10
-172.3771584996512
 20
-144.522055165973
 30
0
 11
-168.3493807218734
 21
-144.522055165973
 31
0
  0
LINE
  8
1
 62
2
 10
-171.1271584996512
 20
-145.772055165973
 30
0
 11
-171.1271584996512
 21
-147.490805165973
 31
0
  0
LINE
  8
1
 62
2
 10
-170.154936277429
 20
-145.772055165973
 30
0
 11
-171.1271584996512
 21
-145.772055165973
 31
0
  0
LINE
  8
1
 62
2
 10
-172.0993807218734
 20
-147.803305165973
 30
0
 11
-171.1271584996512
 21
-147.490805165973
 31
0
  0
LINE
  8
1
 62
2
 10
-176.404936277429
 20
-144.834555165973
 30
0
 11
-176.404936277429
 21
-143.428305165973
 31
0
  0
LINE
  8
1
 62
2
 10
-176.404936277429
 20
-144.834555165973
 30
0
 11
-177.0993807218734
 21
-144.834555165973
 31
0
  0
LINE
  8
1
 62
2
 10
-173.6271584996512
 20
-147.178305165973
 30
0
 11
-173.0716029440957
 21
-148.272055165973
 31
0
  0
LINE
  8
1
 62
2
 10
-174.3216029440957
 20
-145.772055165973
 30
0
 11
-173.6271584996512
 21
-147.178305165973
 31
0
  0
LINE
  8
1
 62
2
 10
-174.7382696107623
 20
-146.865805165973
 30
0
 11
-174.3216029440957
 21
-145.772055165973
 31
0
  0
LINE
  8
1
 62
2
 10
-175.2938251663179
 20
-147.647055165973
 30
0
 11
-174.7382696107623
 21
-146.865805165973
 31
0
  0
LINE
  8
1
 62
2
 10
-175.7104918329846
 20
-148.272055165973
 30
0
 11
-175.2938251663179
 21
-147.647055165973
 31
0
  0
LINE
  8
1
 62
2
 10
-174.3216029440957
 20
-143.428305165973
 30
0
 11
-174.3216029440957
 21
-148.428305165973
 31
0
  0
LINE
  8
1
 62
2
 10
-173.0716029440957
 20
-145.772055165973
 30
0
 11
-175.4327140552068
 21
-145.772055165973
 31
0
  0
LINE
  8
1
 62
2
 10
-175.0160473885401
 20
-144.678305165973
 30
0
 11
-173.2104918329846
 21
-144.678305165973
 31
0
  0
LINE
  8
1
 62
2
 10
-175.0160473885401
 20
-144.678305165973
 30
0
 11
-174.8771584996512
 21
-143.897055165973
 31
0
  0
LINE
  8
1
 62
2
 10
-175.4327140552068
 20
-145.459555165973
 30
0
 11
-175.0160473885401
 21
-144.678305165973
 31
0
  0
LINE
  8
1
 62
2
 10
-176.404936277429
 20
-144.834555165973
 30
0
 11
-175.7104918329846
 21
-146.084555165973
 31
0
  0
LINE
  8
1
 62
2
 10
-177.2382696107623
 20
-147.022055165973
 30
0
 11
-176.404936277429
 21
-144.834555165973
 31
0
  0
LINE
  8
1
 62
2
 10
-175.7104918329846
 20
-144.834555165973
 30
0
 11
-176.404936277429
 21
-144.834555165973
 31
0
  0
LINE
  8
1
 62
2
 10
-176.404936277429
 20
-148.272055165973
 30
0
 11
-176.404936277429
 21
-144.834555165973
 31
0
  0
LINE
  8
1
 62
2
 10
-181.9604918329846
 20
-145.303305165973
 30
0
 11
-181.9604918329846
 21
-144.522055165973
 31
0
  0
LINE
  8
1
 62
2
 10
-180.5716029440957
 20
-144.522055165973
 30
0
 11
-180.5716029440957
 21
-145.303305165973
 31
0
  0
LINE
  8
1
 62
2
 10
-181.9604918329846
 20
-144.522055165973
 30
0
 11
-181.9604918329846
 21
-143.740805165973
 31
0
  0
LINE
  8
1
 62
2
 10
-178.3493807218734
 20
-145.303305165973
 30
0
 11
-178.3493807218734
 21
-144.522055165973
 31
0
  0
LINE
  8
1
 62
2
 10
-179.7382696107623
 20
-144.522055165973
 30
0
 11
-179.7382696107623
 21
-145.303305165973
 31
0
  0
LINE
  8
1
 62
2
 10
-178.3493807218734
 20
-144.522055165973
 30
0
 11
-178.3493807218734
 21
-143.740805165973
 31
0
  0
LINE
  8
1
 62
2
 10
-181.9604918329846
 20
-148.115805165973
 30
0
 11
-181.9604918329846
 21
-148.272055165973
 31
0
  0
LINE
  8
1
 62
2
 10
-179.7382696107623
 20
-144.522055165973
 30
0
 11
-178.3493807218734
 21
-144.522055165973
 31
0
  0
LINE
  8
1
 62
2
 10
-179.7382696107623
 20
-145.303305165973
 30
0
 11
-178.3493807218734
 21
-145.303305165973
 31
0
  0
LINE
  8
1
 62
2
 10
-179.7382696107623
 20
-143.740805165973
 30
0
 11
-179.7382696107623
 21
-144.522055165973
 31
0
  0
LINE
  8
1
 62
2
 10
-178.3493807218734
 20
-143.740805165973
 30
0
 11
-179.7382696107623
 21
-143.740805165973
 31
0
  0
LINE
  8
1
 62
2
 10
-178.3493807218734
 20
-148.115805165973
 30
0
 11
-178.3493807218734
 21
-145.303305165973
 31
0
  0
LINE
  8
1
 62
2
 10
-178.4882696107623
 20
-148.272055165973
 30
0
 11
-178.3493807218734
 21
-148.115805165973
 31
0
  0
LINE
  8
1
 62
2
 10
-178.904936277429
 20
-148.272055165973
 30
0
 11
-178.4882696107623
 21
-148.272055165973
 31
0
  0
LINE
  8
1
 62
2
 10
-180.5716029440957
 20
-144.522055165973
 30
0
 11
-181.9604918329846
 21
-144.522055165973
 31
0
  0
LINE
  8
1
 62
2
 10
-180.5716029440957
 20
-145.303305165973
 30
0
 11
-181.9604918329846
 21
-145.303305165973
 31
0
  0
LINE
  8
1
 62
2
 10
-180.5716029440957
 20
-143.740805165973
 30
0
 11
-180.5716029440957
 21
-144.522055165973
 31
0
  0
LINE
  8
1
 62
2
 10
-181.9604918329846
 20
-143.740805165973
 30
0
 11
-180.5716029440957
 21
-143.740805165973
 31
0
  0
LINE
  8
1
 62
2
 10
-181.9604918329846
 20
-148.115805165973
 30
0
 11
-181.9604918329846
 21
-145.303305165973
 31
0
  0
LINE
  8
1
 62
2
 10
-185.154936277429
 20
-148.272055165973
 30
0
 11
-183.4882696107623
 21
-148.272055165973
 31
0
  0
LINE
  8
1
 62
2
 10
-185.154936277429
 20
-145.303305165973
 30
0
 11
-184.1827140552068
 21
-145.303305165973
 31
0
  0
LINE
  8
1
 62
2
 10
-183.4882696107623
 20
-145.459555165973
 30
0
 11
-182.9327140552068
 21
-145.928305165973
 31
0
  0
LINE
  8
1
 62
2
 10
-184.4604918329846
 20
-144.365805165973
 30
0
 11
-183.4882696107623
 21
-145.459555165973
 31
0
  0
LINE
  8
1
 62
2
 10
-185.154936277429
 20
-143.428305165973
 30
0
 11
-184.4604918329846
 21
-144.365805165973
 31
0
  0
LINE
  8
1
 62
2
 10
-185.8493807218734
 20
-144.365805165973
 30
0
 11
-185.154936277429
 21
-143.428305165973
 31
0
  0
LINE
  8
1
 62
2
 10
-186.8216029440957
 20
-145.459555165973
 30
0
 11
-185.8493807218734
 21
-144.365805165973
 31
0
  0
LINE
  8
1
 62
2
 10
-187.3771584996512
 20
-145.928305165973
 30
0
 11
-186.8216029440957
 21
-145.459555165973
 31
0
  0
LINE
  8
1
 62
2
 10
-184.4604918329846
 20
-147.647055165973
 30
0
 11
-184.1827140552068
 21
-146.865805165973
 31
0
  0
LINE
  8
1
 62
2
 10
-186.1271584996512
 20
-146.865805165973
 30
0
 11
-185.8493807218734
 21
-147.647055165973
 31
0
  0
LINE
  8
1
 62
2
 10
-183.7660473885401
 20
-146.240805165973
 30
0
 11
-186.5438251663179
 21
-146.240805165973
 31
0
  0
LINE
  8
1
 62
2
 10
-186.1271584996512
 20
-145.303305165973
 30
0
 11
-185.154936277429
 21
-145.303305165973
 31
0
  0
LINE
  8
1
 62
2
 10
-185.154936277429
 20
-148.272055165973
 30
0
 11
-185.154936277429
 21
-145.303305165973
 31
0
  0
LINE
  8
1
 62
2
 10
-186.9604918329846
 20
-148.272055165973
 30
0
 11
-185.154936277429
 21
-148.272055165973
 31
0
  0
LINE
  8
1
 62
2
 10
-188.904936277429
 20
-146.865805165973
 30
0
 11
-188.2104918329846
 21
-145.928305165973
 31
0
  0
LINE
  8
1
 62
2
 10
-190.0160473885401
 20
-147.490805165973
 30
0
 11
-188.904936277429
 21
-146.865805165973
 31
0
  0
LINE
  8
1
 62
2
 10
-190.0160473885401
 20
-144.678305165973
 30
0
 11
-190.0160473885401
 21
-147.490805165973
 31
0
  0
LINE
  8
1
 62
2
 10
-191.1271584996512
 20
-145.928305165973
 30
0
 11
-190.9882696107623
 21
-144.678305165973
 31
0
  0
LINE
  8
1
 62
2
 10
-191.404936277429
 20
-146.865805165973
 30
0
 11
-191.1271584996512
 21
-145.928305165973
 31
0
  0
LINE
  8
1
 62
2
 10
-191.8216029440957
 20
-147.647055165973
 30
0
 11
-191.404936277429
 21
-146.865805165973
 31
0
  0
LINE
  8
1
 62
2
 10
-196.5438251663179
 20
-146.397055165973
 30
0
 11
-196.5438251663179
 21
-147.334555165973
 31
0
  0
LINE
  8
1
 62
2
 10
-195.0160473885401
 20
-147.959555165973
 30
0
 11
-194.1827140552068
 21
-147.803305165973
 31
0
  0
LINE
  8
1
 62
2
 10
-196.404936277429
 20
-147.803305165973
 30
0
 11
-195.0160473885401
 21
-147.959555165973
 31
0
  0
LINE
  8
1
 62
2
 10
-196.5438251663179
 20
-147.334555165973
 30
0
 11
-196.404936277429
 21
-147.803305165973
 31
0
  0
LINE
  8
1
 62
2
 10
-196.5438251663179
 20
-144.678305165973
 30
0
 11
-196.5438251663179
 21
-146.397055165973
 31
0
  0
LINE
  8
1
 62
2
 10
-193.904936277429
 20
-144.365805165973
 30
0
 11
-193.4882696107623
 21
-144.834555165973
 31
0
  0
LINE
  8
1
 62
2
 10
-193.7660473885401
 20
-145.147055165973
 30
0
 11
-194.1827140552068
 21
-144.678305165973
 31
0
  0
LINE
  8
1
 62
2
 10
-195.2938251663179
 20
-145.928305165973
 30
0
 11
-194.4604918329846
 21
-145.459555165973
 31
0
  0
LINE
  8
1
 62
2
 10
-196.5438251663179
 20
-146.397055165973
 30
0
 11
-195.2938251663179
 21
-145.928305165973
 31
0
  0
LINE
  8
1
 62
2
 10
-199.5993807218734
 20
-146.865805165973
 30
0
 11
-198.7660473885401
 21
-147.803305165973
 31
0
  0
LINE
  8
1
 62
2
 10
-200.2938251663179
 20
-146.240805165973
 30
0
 11
-199.5993807218734
 21
-146.865805165973
 31
0
  0
LINE
  8
1
 62
2
 10
-198.6271584996512
 20
-144.053305165973
 30
0
 11
-198.2104918329846
 21
-144.522055165973
 31
0
  0
LINE
  8
1
 62
2
 10
-198.904936277429
 20
-144.365805165973
 30
0
 11
-198.4882696107623
 21
-144.834555165973
 31
0
  0
LINE
  8
1
 62
2
 10
-199.4604918329846
 20
-144.678305165973
 30
0
 11
-201.2660473885401
 21
-144.678305165973
 31
0
  0
LINE
  8
1
 62
2
 10
-199.8771584996512
 20
-145.615805165973
 30
0
 11
-199.4604918329846
 21
-144.678305165973
 31
0
  0
LINE
  8
1
 62
2
 10
-200.8493807218734
 20
-147.022055165973
 30
0
 11
-199.8771584996512
 21
-145.615805165973
 31
0
  0
LINE
  8
1
 62
2
 10
-201.8216029440957
 20
-147.803305165973
 30
0
 11
-200.8493807218734
 21
-147.022055165973
 31
0
  0
LINE
  8
1
 62
2
 10
-203.4882696107623
 20
-144.834555165973
 30
0
 11
-204.7382696107623
 21
-146.240805165973
 31
0
  0
LINE
  8
1
 62
2
 10
-206.6827140552068
 20
-144.834555165973
 30
0
 11
-203.4882696107623
 21
-144.834555165973
 31
0
  0
LINE
  8
1
 62
2
 10
-205.154936277429
 20
-146.240805165973
 30
0
 11
-205.0160473885401
 21
-145.459555165973
 31
0
  0
LINE
  8
1
 62
2
 10
-205.4327140552068
 20
-147.178305165973
 30
0
 11
-205.154936277429
 21
-146.240805165973
 31
0
  0
LINE
  8
1
 62
2
 10
-205.9882696107623
 20
-148.115805165973
 30
0
 11
-205.4327140552068
 21
-147.178305165973
 31
0
  0
LINE
  8
1
 62
2
 10
-290.9662710236317
 20
-48.82567789954197
 30
0
 11
-289.870123032043
 21
-51.73164254283281
 31
0
  0
LINE
  8
1
 62
2
 10
-292.2723973607115
 20
-49.7630773350379
 30
0
 11
-289.870123032043
 21
-51.73164254283281
 31
0
  0
LINE
  8
1
 62
2
 10
-303.426623229771
 20
-32.84268093650041
 30
0
 11
-289.870123032043
 21
-51.73164254283281
 31
0
  0
LINE
  8
1
 62
2
 10
-230.829025970268
 20
-32.84268093650041
 30
0
 11
-303.426623229771
 21
-32.84268093650041
 31
0
  0
LINE
  8
1
 62
2
 10
-235.2505470928074
 20
-82.1543802016618
 30
0
 11
-232.5864461820054
 21
-80.55790368614879
 31
0
  0
LINE
  8
1
 62
2
 10
-234.0953869912487
 20
-83.2725433605293
 30
0
 11
-232.5864461820054
 21
-80.55790368614879
 31
0
  0
LINE
  8
1
 62
2
 10
-268.494714316412
 20
-117.654277624054
 30
0
 11
-232.5864461820054
 21
-80.55790368614879
 31
0
  0
LINE
  8
1
 62
2
 10
-285.7602586092111
 20
-117.654277624054
 30
0
 11
-268.494714316412
 21
-117.654277624054
 31
0
  0
LINE
  8
1
 62
2
 10
-224.7574734694475
 20
-83.87710873878507
 30
0
 11
-223.5061102355128
 21
-81.03452875147127
 31
0
  0
LINE
  8
1
 62
2
 10
-223.1685325918052
 20
-84.12195684974162
 30
0
 11
-223.5061102355128
 21
-81.03452875147127
 31
0
  0
LINE
  8
1
 62
2
 10
-230.1338067835593
 20
-124.044940098565
 30
0
 11
-223.5061102355128
 21
-81.03452875147127
 31
0
  0
LINE
  8
1
 62
2
 10
-251.5821912995573
 20
-124.044940098565
 30
0
 11
-230.1338067835593
 21
-124.044940098565
 31
0
  0
LINE
  8
1
 62
2
  6
DASHDOT
 10
-306.2075742301876
 20
-76.43164254283281
 30
0
 11
-241.763609778798
 21
-76.43164254283282
 31
0
  0
LINE
  8
1
 62
2
  6
DASHDOT
 10
-172.4131847604382
 20
50.734347570116
 30
0
 11
-172.4131847604382
 21
-122.973023640872
 31
0
  0
LINE
  8
1
 62
2
  6
DASHDOT
 10
-106.023638432966
 20
-76.43164254283282
 30
0
 11
-60.78568191617637
 21
-76.43164254283281
 31
0
  0
LINE
  8
1
 62
2
  6
DASHDOT
 10
-147.149505831229
 20
-76.43164254283282
 30
0
 11
-106.023638432966
 21
-76.43164254283282
 31
0
  0
LINE
  8
1
 62
2
  6
DASHDOT
 10
-216.638811840568
 20
-76.43164254283282
 30
0
 11
-195.814654990863
 21
-76.43164254283282
 31
0
  0
LINE
  8
1
 62
7
 10
-160.1631847604385
 20
103.5524623545123
 30
0
 11
-184.6631847604385
 21
103.5524623545123
 31
0
  0
LINE
  8
1
 62
7
 10
-159.6631847604385
 20
96.98139454264683
 30
0
 11
-159.6631847604385
 21
103.0524623545123
 31
0
  0
LINE
  8
1
 62
7
 10
-184.6631847604385
 20
96.48139454264683
 30
0
 11
-160.1631847604385
 21
96.48139454264683
 31
0
  0
LINE
  8
1
 62
7
 10
-185.1631847604385
 20
103.0524623545123
 30
0
 11
-185.1631847604385
 21
96.98139454264683
 31
0
  0
LINE
  8
0
 62
7
 10
-166.1428398313506
 20
102.3503808264951
 30
0
 11
-166.9655629534716
 21
97.68379824403317
 31
0
  0
LINE
  8
0
 62
7
 10
-166.9655629534716
 20
97.68379824403317
 30
0
 11
-165.8915232660277
 21
97.68379824403317
 31
0
  0
LINE
  8
0
 62
7
 10
-165.8915232660277
 20
97.68379824403317
 30
0
 11
-165.0686263698906
 21
102.3503808264951
 31
0
  0
LINE
  8
0
 62
7
 10
-165.0686263698906
 20
102.3503808264951
 30
0
 11
-166.1428398313506
 21
102.3503808264951
 31
0
  0
LINE
  8
0
 62
7
 10
-178.0132883763097
 20
97.68379821802049
 30
0
 11
-176.9205991179335
 21
97.68379824403317
 31
0
  0
LINE
  8
0
 62
7
 10
-176.6511532311106
 20
99.45514585745238
 30
0
 11
-176.6486310400835
 21
99.467297865912
 31
0
  0
LINE
  8
0
 62
7
 10
-178.3873339564036
 20
97.68761126619901
 30
0
 11
-177.9020852832996
 21
98.57266108217769
 31
0
  0
LINE
  8
0
 62
7
 10
-177.9020852832996
 20
98.57266108217769
 30
0
 11
-177.8912699281786
 21
98.5726611491954
 31
0
  0
LINE
  8
0
 62
7
 10
-171.2721007192026
 20
100.0922150421745
 30
0
 11
-170.8344995265106
 21
102.3503808264951
 31
0
  0
LINE
  8
0
 62
7
 10
-170.8344995265106
 20
102.3503808264951
 30
0
 11
-171.9086086496586
 21
102.3503808264951
 31
0
  0
LINE
  8
0
 62
7
 10
-171.9086086496586
 20
102.3503808264951
 30
0
 11
-172.5513028732776
 21
99.03362755335471
 31
0
  0
LINE
  8
0
 62
7
 10
-170.8173752415146
 20
100.7910054792654
 30
0
 11
-171.3024333808367
 21
99.90599031377937
 31
0
  0
LINE
  8
0
 62
7
 10
-171.3024333808367
 20
99.90599031377937
 30
0
 11
-171.3140795210836
 21
99.90599031377937
 31
0
  0
LINE
  8
0
 62
7
 10
-175.1718041114407
 20
99.16353819789433
 30
0
 11
-175.9547730375266
 21
98.37334120052142
 31
0
  0
LINE
  8
0
 62
7
 10
-175.9547730375266
 20
98.37334120052142
 30
0
 11
-176.0763234876986
 21
97.68379824403317
 31
0
  0
LINE
  8
0
 62
7
 10
-176.0763234876986
 20
97.68379824403317
 30
0
 11
-173.3912412686657
 21
97.68379824403317
 31
0
  0
LINE
  8
0
 62
7
 10
-173.3912412686657
 20
97.68379824403317
 30
0
 11
-173.2345584212617
 21
98.57259176964257
 31
0
  0
LINE
  8
0
 62
7
 10
-173.2345584212617
 20
98.57259176964257
 30
0
 11
-174.5510059663757
 21
98.57259176964257
 31
0
  0
LINE
  8
0
 62
7
 10
-174.5510059663757
 20
98.57259176964257
 30
0
 11
-174.5448662342747
 21
98.58528766453608
 31
0
  0
LINE
  8
0
 62
7
 10
-173.7949593971955
 20
99.3152406153387
 30
0
 11
-173.0204714075317
 21
100.1282926535967
 31
0
  0
LINE
  8
0
 62
7
 10
-173.0204714075317
 20
100.1282926535967
 30
0
 11
-172.8912080953376
 21
100.7948532442657
 31
0
  0
LINE
  8
0
 62
7
 10
-172.8912080953376
 20
100.7948532442657
 30
0
 11
-175.5022994811166
 21
100.7948532442657
 31
0
  0
LINE
  8
0
 62
7
 10
-175.5022994811166
 20
100.7948532442657
 30
0
 11
-175.6589476723236
 21
99.9059209807161
 31
0
  0
LINE
  8
0
 62
7
 10
-175.6589476723236
 20
99.9059209807161
 30
0
 11
-174.3987256116377
 21
99.9059209807161
 31
0
  0
LINE
  8
0
 62
7
 10
-174.3987256116377
 20
99.9059209807161
 30
0
 11
-174.4112049834137
 21
99.89330345004422
 31
0
  0
LINE
  8
0
 62
7
 10
-168.4437413829126
 20
100.0973721038284
 30
0
 11
-168.8692461405217
 21
97.68379824403317
 31
0
  0
LINE
  8
0
 62
7
 10
-168.8692461405217
 20
97.68379824403317
 30
0
 11
-167.7951368120196
 21
97.68379824403317
 31
0
  0
LINE
  8
0
 62
7
 10
-167.7951368120196
 20
97.68379824403317
 30
0
 11
-167.3198193918915
 21
100.3798170907923
 31
0
  0
LINE
  8
1
 62
7
 10
-160.1631847604382
 20
25.53104988558499
 30
0
 11
-184.6631847604382
 21
25.53104988558499
 31
0
  0
LINE
  8
1
 62
7
 10
-159.6631847604382
 20
18.95998207371969
 30
0
 11
-159.6631847604382
 21
25.03104988558499
 31
0
  0
LINE
  8
1
 62
7
 10
-184.6631847604382
 20
18.45998207371969
 30
0
 11
-160.1631847604382
 21
18.45998207371969
 31
0
  0
LINE
  8
1
 62
7
 10
-185.1631847604382
 20
25.03104988558499
 30
0
 11
-185.1631847604382
 21
18.95998207371969
 31
0
  0
LINE
  8
0
 62
7
 10
-166.1428398313503
 20
24.3289683575679
 30
0
 11
-166.9655629534722
 21
19.662385775106
 31
0
  0
LINE
  8
0
 62
7
 10
-166.9655629534722
 20
19.662385775106
 30
0
 11
-165.8915232660283
 21
19.662385775106
 31
0
  0
LINE
  8
0
 62
7
 10
-165.8915232660283
 20
19.662385775106
 30
0
 11
-165.0686263698912
 21
24.3289683575679
 31
0
  0
LINE
  8
0
 62
7
 10
-165.0686263698912
 20
24.3289683575679
 30
0
 11
-166.1428398313503
 21
24.3289683575679
 31
0
  0
LINE
  8
0
 62
7
 10
-178.0132883763092
 20
19.66238574909329
 30
0
 11
-176.9205991179333
 21
19.662385775106
 31
0
  0
LINE
  8
0
 62
7
 10
-176.6511532311112
 20
21.4337333885253
 30
0
 11
-176.6486310400832
 21
21.44588539698469
 31
0
  0
LINE
  8
0
 62
7
 10
-178.3873339564042
 20
19.6661987972719
 30
0
 11
-177.9020852832982
 21
20.55124861325049
 31
0
  0
LINE
  8
0
 62
7
 10
-177.9020852832982
 20
20.55124861325049
 30
0
 11
-177.8912699281772
 21
20.5512486802682
 31
0
  0
LINE
  8
0
 62
7
 10
-171.2721007192033
 20
22.07080257324731
 30
0
 11
-170.8344995265092
 21
24.3289683575679
 31
0
  0
LINE
  8
0
 62
7
 10
-170.8344995265092
 20
24.3289683575679
 30
0
 11
-171.9086086496572
 21
24.3289683575679
 31
0
  0
LINE
  8
0
 62
7
 10
-171.9086086496572
 20
24.3289683575679
 30
0
 11
-172.5513028732782
 21
21.01221508442748
 31
0
  0
LINE
  8
0
 62
7
 10
-170.8173752415152
 20
22.76959301033818
 30
0
 11
-171.3024333808373
 21
21.8845778448522
 31
0
  0
LINE
  8
0
 62
7
 10
-171.3024333808373
 20
21.8845778448522
 30
0
 11
-171.3140795210842
 21
21.8845778448522
 31
0
  0
LINE
  8
0
 62
7
 10
-175.1718041114411
 20
21.1421257289671
 30
0
 11
-175.9547730375272
 21
20.3519287315942
 31
0
  0
LINE
  8
0
 62
7
 10
-175.9547730375272
 20
20.3519287315942
 30
0
 11
-176.0763234876981
 21
19.662385775106
 31
0
  0
LINE
  8
0
 62
7
 10
-176.0763234876981
 20
19.662385775106
 30
0
 11
-173.3912412686652
 21
19.662385775106
 31
0
  0
LINE
  8
0
 62
7
 10
-173.3912412686652
 20
19.662385775106
 30
0
 11
-173.2345584212612
 21
20.5511793007154
 31
0
  0
LINE
  8
0
 62
7
 10
-173.2345584212612
 20
20.5511793007154
 30
0
 11
-174.5510059663752
 21
20.5511793007154
 31
0
  0
LINE
  8
0
 62
7
 10
-174.5510059663752
 20
20.5511793007154
 30
0
 11
-174.5448662342753
 21
20.56387519560889
 31
0
  0
LINE
  8
0
 62
7
 10
-173.7949593971952
 20
21.2938281464115
 30
0
 11
-173.0204714075302
 21
22.10688018466959
 31
0
  0
LINE
  8
0
 62
7
 10
-173.0204714075302
 20
22.10688018466959
 30
0
 11
-172.8912080953382
 21
22.7734407753386
 31
0
  0
LINE
  8
0
 62
7
 10
-172.8912080953382
 20
22.7734407753386
 30
0
 11
-175.5022994811172
 21
22.7734407753386
 31
0
  0
LINE
  8
0
 62
7
 10
-175.5022994811172
 20
22.7734407753386
 30
0
 11
-175.6589476723231
 21
21.88450851178891
 31
0
  0
LINE
  8
0
 62
7
 10
-175.6589476723231
 20
21.88450851178891
 30
0
 11
-174.3987256116381
 21
21.88450851178891
 31
0
  0
LINE
  8
0
 62
7
 10
-174.3987256116381
 20
21.88450851178891
 30
0
 11
-174.4112049834131
 21
21.87189098111699
 31
0
  0
LINE
  8
0
 62
7
 10
-168.4437413829123
 20
22.07595963490118
 30
0
 11
-168.8692461405203
 21
19.662385775106
 31
0
  0
LINE
  8
0
 62
7
 10
-168.8692461405203
 20
19.662385775106
 30
0
 11
-167.7951368120202
 21
19.662385775106
 31
0
  0
LINE
  8
0
 62
7
 10
-167.7951368120202
 20
19.662385775106
 30
0
 11
-167.3198193918922
 21
22.35840462186519
 31
0
  0
LINE
  8
1
 62
7
 10
-89.45496432835878
 20
152.9954705905998
 30
0
 11
-138.5931666516163
 21
166.2507200835547
 31
0
  0
LINE
  8
1
 62
7
 10
-139.1888035922384
 20
102.2635177383304
 30
0
 11
-138.5931666516163
 21
102.424193462754
 31
0
  0
LINE
  8
1
 62
7
 10
-227.5333147186851
 20
163.3499361234863
 30
0
 11
-206.0836575692624
 21
166.7050058972609
 31
0
  0
LINE
  8
1
 62
7
 10
-206.0836575692624
 20
101.9699076490478
 30
0
 11
-231.4852627353864
 21
105.9431253608523
 31
0
  0
LINE
  8
1
 62
7
 10
-138.5931666516163
 20
102.424193462754
 30
0
 11
-89.45496432835878
 21
115.679442955709
 31
0
  0
LINE
  8
1
 62
7
 10
-237.5368143480445
 20
106.0799576645568
 30
0
 11
-233.5848663313431
 21
105.4618097265266
 31
0
  0
LINE
  8
1
 62
7
 10
-231.6088923229925
 20
105.1527357575119
 30
0
 11
-227.6569443062912
 21
104.5345878194822
 31
0
  0
LINE
  8
1
 62
7
 10
-227.5333147186851
 20
105.3249774228225
 30
0
 11
-227.6569443062912
 21
104.5345878194822
 31
0
  0
LINE
  8
1
 62
7
 10
-231.4852627353864
 20
162.7317881854565
 30
0
 11
-227.5333147186851
 21
163.3499361234863
 31
0
  0
LINE
  8
1
 62
7
 10
-231.4852627353864
 20
105.9431253608523
 30
0
 11
-231.6088923229925
 21
105.1527357575119
 31
0
  0
LINE
  8
1
 62
7
 10
-233.4612367437371
 20
162.4227142164418
 30
0
 11
-231.4852627353864
 21
162.7317881854565
 31
0
  0
LINE
  8
1
 62
7
 10
-233.4612367437371
 20
106.252199329867
 30
0
 11
-233.5848663313431
 21
105.4618097265266
 31
0
  0
LINE
  8
1
 62
7
 10
-237.4131847604384
 20
161.804566278412
 30
0
 11
-233.4612367437371
 21
162.4227142164418
 31
0
  0
LINE
  8
1
 62
7
 10
-237.4131847604384
 20
106.8703472678968
 30
0
 11
-237.5368143480445
 21
106.0799576645568
 31
0
  0
LINE
  8
1
 62
7
 10
-267.7387788487868
 20
157.0611578691869
 30
0
 11
-237.4131847604384
 21
161.804566278412
 31
0
  0
LINE
  8
1
 62
7
 10
-280.4131847604384
 20
111.1374567731544
 30
0
 11
-280.4131847604384
 21
109.6374567731544
 31
0
  0
LINE
  8
1
 62
7
 10
-280.4131847604384
 20
158.0374567731544
 30
0
 11
-280.4131847604384
 21
159.0374567731544
 31
0
  0
LINE
  8
1
 62
2
 10
-280.4131847604384
 20
111.1374567731544
 30
0
 11
-297.4131847604384
 21
111.1374567731544
 31
0
  0
LINE
  8
1
 62
2
 10
-280.4131847604384
 20
157.5374567731544
 30
0
 11
-297.4131847604384
 21
157.5374567731544
 31
0
  0
LINE
  8
1
 62
7
 10
-297.4131847604384
 20
111.1374567731544
 30
0
 11
-296.547159356654
 21
109.6374567731544
 31
0
  0
LINE
  8
1
 62
7
 10
-280.4131847604384
 20
109.6374567731544
 30
0
 11
-296.547159356654
 21
109.6374567731544
 31
0
  0
LINE
  8
1
 62
7
 10
-280.4131847604384
 20
159.0374567731544
 30
0
 11
-296.547159356654
 21
159.0374567731544
 31
0
  0
LINE
  8
1
 62
7
 10
-280.4131847604384
 20
157.5374567731544
 30
0
 11
-280.4131847604384
 21
111.1374567731544
 31
0
  0
LINE
  8
1
 62
2
 10
-280.3818117270353
 20
157.5374567731544
 30
0
 11
-280.4131847604384
 21
157.5374567731544
 31
0
  0
LINE
  8
1
 62
7
 10
-297.4131847604384
 20
157.5374567731544
 30
0
 11
-297.4131847604384
 21
111.1374567731544
 31
0
  0
LINE
  8
1
 62
7
 10
-296.547159356654
 20
159.0374567731544
 30
0
 11
-297.4131847604384
 21
157.5374567731544
 31
0
  0
LINE
  8
1
 62
7
 10
-296.547159356654
 20
159.0374567731544
 30
0
 11
-296.547159356654
 21
109.6374567731544
 31
0
  0
LINE
  8
1
 62
7
 10
-84.41318476043841
 20
109.6374567731544
 30
0
 11
-84.41318476043841
 21
110.6374567731544
 31
0
  0
LINE
  8
1
 62
7
 10
-84.41318476043841
 20
159.0374567731544
 30
0
 11
-84.41318476043841
 21
158.0374567731544
 31
0
  0
LINE
  8
1
 62
2
 10
-67.41318476043841
 20
111.1374567731544
 30
0
 11
-84.41318476043841
 21
111.1374567731544
 31
0
  0
LINE
  8
1
 62
2
 10
-67.41318476043841
 20
157.5374567731544
 30
0
 11
-84.41318476043841
 21
157.5374567731544
 31
0
  0
LINE
  8
1
 62
7
 10
-68.27921016422278
 20
109.6374567731544
 30
0
 11
-67.41318476043841
 21
111.1374567731544
 31
0
  0
LINE
  8
1
 62
7
 10
-68.27921016422278
 20
109.6374567731544
 30
0
 11
-84.41318476043841
 21
109.6374567731544
 31
0
  0
LINE
  8
1
 62
7
 10
-68.27921016422278
 20
159.0374567731544
 30
0
 11
-84.41318476043841
 21
159.0374567731544
 31
0
  0
LINE
  8
1
 62
7
 10
-84.41318476043841
 20
109.6374567731544
 30
0
 11
-84.41318476043841
 21
157.5374567731544
 31
0
  0
LINE
  8
1
 62
2
 10
-84.41318476043841
 20
157.5374567731544
 30
0
 11
-84.4445577938414
 21
157.5374567731544
 31
0
  0
LINE
  8
1
 62
7
 10
-67.41318476043841
 20
111.1374567731544
 30
0
 11
-67.41318476043841
 21
157.5374567731544
 31
0
  0
LINE
  8
1
 62
7
 10
-67.41318476043841
 20
157.5374567731544
 30
0
 11
-68.27921016422278
 21
159.0374567731544
 31
0
  0
LINE
  8
1
 62
7
 10
-68.27921016422278
 20
109.6374567731544
 30
0
 11
-68.27921016422278
 21
159.0374567731544
 31
0
  0
LINE
  8
1
 62
7
 10
-225.5573407103344
 20
105.0159034538078
 30
0
 11
-225.6809702979405
 21
104.2255138504674
 31
0
  0
LINE
  8
1
 62
7
 10
-225.6809702979405
 20
104.2255138504674
 30
0
 11
-221.7290222812392
 21
103.6073659124377
 31
0
  0
LINE
  8
1
 62
7
 10
-221.6053926936331
 20
104.397755515778
 30
0
 11
-221.7290222812392
 21
103.6073659124377
 31
0
  0
LINE
  8
1
 62
7
 10
-231.4852627353864
 20
105.9431253608523
 30
0
 11
-267.7387788487868
 21
111.6137556771218
 31
0
  0
LINE
  8
1
 62
2
  6
DIVIDE
 10
-227.310612200803
 20
-73.0007391377905
 30
0
 11
-237.412657878354
 21
-73.0007391377905
 31
0
  0
LINE
  8
1
 62
2
  6
DIVIDE
 10
-227.310612200803
 20
-80.1047583561969
 30
0
 11
-227.310612200803
 21
-73.0007391377905
 31
0
  0
LINE
  8
1
 62
2
  6
DIVIDE
 10
-237.412657878354
 20
-80.1047583561969
 30
0
 11
-227.310612200803
 21
-80.1047583561969
 31
0
  0
LINE
  8
1
 62
2
  6
DIVIDE
 10
-237.412657878354
 20
-73.0007391377905
 30
0
 11
-237.412657878354
 21
-80.1047583561969
 31
0
  0
LINE
  8
1
 62
7
 10
-136.4948684358893
 20
-40.63689992213769
 30
0
 11
-208.3315010849871
 21
-40.63689992213769
 31
0
  0
LINE
  8
1
 62
2
 10
-213.9131847604382
 20
-35.43164254283283
 30
0
 11
-213.9131847604382
 21
-37.14153553621118
 31
0
  0
LINE
  8
1
 62
2
 10
-130.9131847604382
 20
-35.43164254283283
 30
0
 11
-130.9131847604382
 21
-37.14097881011266
 31
0
  0
LINE
  8
1
 62
7
 10
-173.9131847604382
 20
-116.4316425428328
 30
0
 11
-170.9131847604382
 21
-116.4316425428328
 31
0
  0
LINE
  8
1
 62
7
 10
-173.9131847604382
 20
-115.9237528737069
 30
0
 11
-173.9131847604382
 21
-116.4316425428328
 31
0
  0
LINE
  8
1
 62
7
 10
-170.9131847604382
 20
-116.4316425428328
 30
0
 11
-137.4131847604382
 21
-116.4316425428328
 31
0
  0
LINE
  8
1
 62
7
 10
-170.9131847604382
 20
-115.9237528737069
 30
0
 11
-170.9131847604382
 21
-116.4316425428328
 31
0
  0
LINE
  8
1
 62
7
 10
-207.4131847604382
 20
-116.4316425428328
 30
0
 11
-211.9462099713911
 21
-112.3238991609005
 31
0
  0
LINE
  8
1
 62
7
 10
-137.4131847604382
 20
-116.4316425428328
 30
0
 11
-133.7329434957607
 21
-112.2839686071882
 31
0
  0
LINE
  8
1
 62
7
 10
-207.4131847604382
 20
-116.4316425428328
 30
0
 11
-173.9131847604382
 21
-116.4316425428328
 31
0
  0
LINE
  8
1
 62
7
 10
-127.4131847604382
 20
-90.32222802232077
 30
0
 11
-127.4131847604382
 21
-95.36842808084585
 31
0
  0
LINE
  8
1
 62
7
 10
-87.77160048293263
 20
-94.41275127562032
 30
0
 11
-125.0923926216854
 21
-88.34812255307288
 31
0
  0
LINE
  8
1
 62
2
  6
DASHDOT
 10
-222.1714784593671
 20
-49.82343464278588
 30
0
 11
-219.3270837043432
 21
-49.82343464278588
 31
0
  0
LINE
  8
1
 62
2
  6
DASHDOT
 10
-220.6923931867542
 20
-48.51501305547528
 30
0
 11
-220.6923931867542
 21
-51.2456320202975
 31
0
  0
LINE
  8
1
 62
7
 10
-214.9131847604382
 20
-43.66101541941374
 30
0
 11
-233.1478463166077
 21
-53.4316425428328
 31
0
  0
LINE
  8
1
 62
7
 10
-214.9131847604382
 20
-35.43164254283283
 30
0
 11
-214.9131847604382
 21
-35.93164254283277
 31
0
  0
LINE
  8
1
 62
7
 10
-129.9131847604382
 20
-35.43164254283283
 30
0
 11
-129.9131847604382
 21
-35.93164254283277
 31
0
  0
LINE
  8
1
 62
7
 10
-221.3964179630783
 20
-53.43164254283279
 30
0
 11
-233.1478463166077
 21
-53.4316425428328
 31
0
  0
LINE
  8
1
 62
7
 10
-89.30959655412224
 20
-57.92835688593068
 30
0
 11
-125.4501073895306
 21
-49.61778645354547
 31
0
  0
LINE
  8
1
 62
7
 10
-127.4131847604382
 20
-95.36842808084585
 30
0
 11
-127.4131847604382
 21
-100.2887424999289
 31
0
  0
LINE
  8
1
 62
7
 10
-280.4131847604382
 20
-51.7316425428328
 30
0
 11
-280.4131847604382
 21
-52.7316425428328
 31
0
  0
LINE
  8
1
 62
7
 10
-280.4131847604382
 20
-101.1316425428328
 30
0
 11
-280.4131847604382
 21
-100.1316425428328
 31
0
  0
LINE
  8
1
 62
2
 10
-297.4131847604382
 20
-53.2316425428328
 30
0
 11
-280.4131847604382
 21
-53.2316425428328
 31
0
  0
LINE
  8
1
 62
2
 10
-297.4131847604382
 20
-99.63164254283278
 30
0
 11
-280.4131847604382
 21
-99.63164254283278
 31
0
  0
LINE
  8
1
 62
7
 10
-296.5471593566538
 20
-51.73164254283283
 30
0
 11
-297.4131847604382
 21
-53.2316425428328
 31
0
  0
LINE
  8
1
 62
7
 10
-296.5471593566538
 20
-51.73164254283283
 30
0
 11
-280.4131847604382
 21
-51.7316425428328
 31
0
  0
LINE
  8
1
 62
7
 10
-296.5471593566538
 20
-101.1316425428328
 30
0
 11
-280.4131847604382
 21
-101.1316425428328
 31
0
  0
LINE
  8
1
 62
7
 10
-264.1844282051152
 20
-53.4316425428328
 30
0
 11
-230.5978075266651
 21
-53.43164254283279
 31
0
  0
LINE
  8
1
 62
7
 10
-280.4131847604382
 20
-53.2316425428328
 30
0
 11
-280.4131847604382
 21
-99.63164254283278
 31
0
  0
LINE
  8
1
 62
2
 10
-280.4131847604382
 20
-99.63164254283278
 30
0
 11
-280.3818117270351
 21
-99.63164254283278
 31
0
  0
LINE
  8
1
 62
7
 10
-297.4131847604382
 20
-53.2316425428328
 30
0
 11
-297.4131847604382
 21
-99.63164254283278
 31
0
  0
LINE
  8
1
 62
7
 10
-297.4131847604382
 20
-99.63164254283278
 30
0
 11
-296.5471593566538
 21
-101.1316425428328
 31
0
  0
LINE
  8
1
 62
7
 10
-296.5471593566538
 20
-51.73164254283283
 30
0
 11
-296.5471593566538
 21
-101.1316425428328
 31
0
  0
LINE
  8
1
 62
7
 10
-84.41318476043824
 20
-53.2316425428328
 30
0
 11
-84.41318476043824
 21
-51.7316425428328
 31
0
  0
LINE
  8
1
 62
7
 10
-84.41318476043824
 20
-100.1316425428328
 30
0
 11
-84.41318476043824
 21
-101.1316425428328
 31
0
  0
LINE
  8
1
 62
2
 10
-84.41318476043824
 20
-53.2316425428328
 30
0
 11
-67.41318476043824
 21
-53.2316425428328
 31
0
  0
LINE
  8
1
 62
2
 10
-84.41318476043824
 20
-99.63164254283278
 30
0
 11
-67.41318476043824
 21
-99.63164254283278
 31
0
  0
LINE
  8
1
 62
7
 10
-67.41318476043824
 20
-53.2316425428328
 30
0
 11
-68.2792101642226
 21
-51.73164254283283
 31
0
  0
LINE
  8
1
 62
7
 10
-84.41318476043824
 20
-51.7316425428328
 30
0
 11
-68.2792101642226
 21
-51.73164254283283
 31
0
  0
LINE
  8
1
 62
7
 10
-84.41318476043824
 20
-101.1316425428328
 30
0
 11
-68.2792101642226
 21
-101.1316425428328
 31
0
  0
LINE
  8
1
 62
7
 10
-84.41318476043824
 20
-99.63164254283278
 30
0
 11
-84.41318476043824
 21
-53.2316425428328
 31
0
  0
LINE
  8
1
 62
2
 10
-84.44455779384123
 20
-99.63164254283278
 30
0
 11
-84.41318476043824
 21
-99.63164254283278
 31
0
  0
LINE
  8
1
 62
7
 10
-67.41318476043824
 20
-99.63164254283278
 30
0
 11
-67.41318476043824
 21
-53.2316425428328
 31
0
  0
LINE
  8
1
 62
7
 10
-68.2792101642226
 20
-101.1316425428328
 30
0
 11
-67.41318476043824
 21
-99.63164254283278
 31
0
  0
LINE
  8
1
 62
7
 10
-68.2792101642226
 20
-101.1316425428328
 30
0
 11
-68.2792101642226
 21
-51.73164254283283
 31
0
  0
LINE
  8
1
 62
7
 10
-190.413184760438
 20
-62.13164254283276
 30
0
 11
-192.4131847604382
 21
-62.13164254283276
 31
0
  0
LINE
  8
1
 62
7
 10
-192.4131847604382
 20
-62.13164254283276
 30
0
 11
-192.4131847604384
 21
-59.13164254283276
 31
0
  0
LINE
  8
1
 62
7
 10
-192.4131847604384
 20
-59.13164254283276
 30
0
 11
-190.413184760438
 21
-59.13164254283276
 31
0
  0
LINE
  8
1
 62
7
 10
-190.413184760438
 20
-62.13164254283276
 30
0
 11
-192.4131847604382
 21
-64.63164254283275
 31
0
  0
LINE
  8
1
 62
7
 10
-192.4131847604382
 20
-64.63164254283275
 30
0
 11
-172.4131847604382
 21
-64.63164254283275
 31
0
  0
LINE
  8
1
 62
7
 10
-190.413184760438
 20
-62.13164254283276
 30
0
 11
-170.4131847604382
 21
-62.13164254283276
 31
0
  0
LINE
  8
1
 62
7
 10
-172.4131847604382
 20
-64.63164254283275
 30
0
 11
-170.4131847604382
 21
-62.13164254283276
 31
0
  0
LINE
  8
1
 62
7
 10
-162.4131847604382
 20
-64.63164254283275
 30
0
 11
-162.413184760438
 21
-62.13164254283276
 31
0
  0
LINE
  8
1
 62
7
 10
-170.4131847604382
 20
-62.13164254283276
 30
0
 11
-162.413184760438
 21
-62.13164254283276
 31
0
  0
LINE
  8
1
 62
7
 10
-190.413184760438
 20
-59.13164254283276
 30
0
 11
-170.4131847604382
 21
-59.13164254283276
 31
0
  0
LINE
  8
1
 62
7
 10
-162.4131847604382
 20
-64.63164254283275
 30
0
 11
-152.4131847604382
 21
-60.63164254283276
 31
0
  0
LINE
  8
1
 62
7
 10
-190.413184760438
 20
-59.13164254283276
 30
0
 11
-192.4131847604382
 21
-56.63164254283276
 31
0
  0
LINE
  8
1
 62
7
 10
-192.4131847604382
 20
-56.63164254283276
 30
0
 11
-172.4131847604382
 21
-56.63164254283276
 31
0
  0
LINE
  8
1
 62
7
 10
-172.4131847604382
 20
-56.63164254283276
 30
0
 11
-170.4131847604382
 21
-59.13164254283276
 31
0
  0
LINE
  8
1
 62
7
 10
-170.4131847604382
 20
-59.13164254283276
 30
0
 11
-162.4131847604382
 21
-59.13164254283276
 31
0
  0
LINE
  8
1
 62
7
 10
-162.4131847604382
 20
-59.13164254283276
 30
0
 11
-162.4131847604378
 21
-56.63164254283276
 31
0
  0
LINE
  8
1
 62
7
 10
-162.4131847604378
 20
-56.63164254283276
 30
0
 11
-152.4131847604382
 21
-60.63164254283276
 31
0
  0
LINE
  8
1
 62
7
 10
-190.4859526318301
 20
-79.16245924236922
 30
0
 11
-192.0654483578208
 21
-80.1430064396542
 31
0
  0
LINE
  8
1
 62
7
 10
-183.3316061869118
 20
-70.62695874380383
 30
0
 11
-183.3316061869118
 21
-72.32926443989449
 31
0
  0
LINE
  8
1
 62
7
 10
-186.8255042770179
 20
-74.84815980098905
 30
0
 11
-183.3316061869118
 21
-72.32926443989449
 31
0
  0
LINE
  8
1
 62
7
 10
-188.4316061869117
 20
-82.6269587438036
 30
0
 11
-187.2316061869118
 21
-82.6269587438036
 31
0
  0
LINE
  8
1
 62
7
 10
-187.2316061869118
 20
-80.82695874380364
 30
0
 11
-188.4316061869117
 21
-80.82695874380364
 31
0
  0
LINE
  8
1
 62
7
 10
-189.758483627984
 20
-76.62695874380383
 30
0
 11
-187.2316061869118
 21
-76.62695874380383
 31
0
  0
LINE
  8
1
 62
7
 10
-192.3316061869117
 20
-70.62695874380383
 30
0
 11
-183.3316061869118
 21
-70.62695874380383
 31
0
  0
LINE
  8
1
 62
7
 10
-192.3316061869118
 20
-72.42695874380355
 30
0
 11
-185.5972570712109
 21
-72.42695874380355
 31
0
  0
LINE
  8
1
 62
7
 10
-192.3316061869118
 20
-72.42695874380355
 30
0
 11
-192.3316061869117
 21
-70.62695874380383
 31
0
  0
LINE
  8
1
 62
7
 10
-185.5972570712109
 20
-72.42695874380355
 30
0
 11
-189.758483627984
 21
-75.42695874380355
 31
0
  0
LINE
  8
1
 62
7
 10
-189.758483627984
 20
-75.42695874380355
 30
0
 11
-189.758483627984
 21
-76.62695874380383
 31
0
  0
LINE
  8
1
 62
7
 10
-214.9131847604382
 20
-35.93164254283277
 30
0
 11
-129.9131847604382
 21
-35.93164254283277
 31
0
  0
LINE
  8
1
 62
7
 10
-180.4896549598037
 20
-82.22487957375368
 30
0
 11
-172.4131847604385
 21
-82.22487957375368
 31
0
  0
LINE
  8
1
 62
7
 10
-180.4896929689966
 20
-80.64684254283291
 30
0
 11
-180.4896549598037
 21
-82.22487957375368
 31
0
  0
LINE
  8
1
 62
7
 10
-180.2037929689967
 20
-80.1079425428329
 30
0
 11
-180.4896929689966
 21
-80.64684254283291
 31
0
  0
LINE
  8
1
 62
7
 10
-179.7050929689967
 20
-79.01264254283272
 30
0
 11
-180.2037929689967
 21
-80.1079425428329
 31
0
  0
LINE
  8
1
 62
7
 10
-178.9133929689967
 20
-78.08894254283267
 30
0
 11
-179.7050929689967
 21
-79.01264254283272
 31
0
  0
LINE
  8
1
 62
7
 10
-178.0446929689967
 20
-77.06634254283289
 30
0
 11
-178.9133929689967
 21
-78.08894254283267
 31
0
  0
LINE
  8
1
 62
7
 10
-177.2286929689967
 20
-76.42494254283291
 30
0
 11
-178.0446929689967
 21
-77.06634254283289
 31
0
  0
LINE
  8
1
 62
7
 10
-176.7418197145206
 20
-75.91187957375358
 30
0
 11
-177.2286929689967
 21
-76.42494254283291
 31
0
  0
LINE
  8
1
 62
7
 10
-175.2612197145206
 20
-74.42137957375347
 30
0
 11
-176.7418197145206
 21
-75.91187957375358
 31
0
  0
LINE
  8
1
 62
7
 10
-174.9631197145206
 20
-74.02387957375343
 30
0
 11
-175.2612197145206
 21
-74.42137957375347
 31
0
  0
LINE
  8
1
 62
7
 10
-174.8339197145206
 20
-73.65627957375362
 30
0
 11
-174.9631197145206
 21
-74.02387957375343
 31
0
  0
LINE
  8
1
 62
7
 10
-174.8339197145206
 20
-73.04017957375343
 30
0
 11
-174.8339197145206
 21
-73.65627957375362
 31
0
  0
LINE
  8
1
 62
7
 10
-174.9241197145206
 20
-72.73837957375348
 30
0
 11
-174.8339197145206
 21
-73.04017957375343
 31
0
  0
LINE
  8
1
 62
7
 10
-175.1633197145205
 20
-72.3768795737535
 30
0
 11
-174.9241197145206
 21
-72.73837957375348
 31
0
  0
LINE
  8
1
 62
7
 10
-175.5111197145207
 20
-72.18957957375345
 30
0
 11
-175.1633197145205
 21
-72.3768795737535
 31
0
  0
LINE
  8
1
 62
7
 10
-175.7587926741806
 20
-72.10387957375359
 30
0
 11
-175.5111197145207
 21
-72.18957957375345
 31
0
  0
LINE
  8
1
 62
7
 10
-176.2846962467226
 20
-72.0181795737535
 30
0
 11
-175.7587926741806
 21
-72.10387957375359
 31
0
  0
LINE
  8
1
 62
7
 10
-176.9324320293136
 20
-72.0181795737535
 30
0
 11
-176.2846962467226
 21
-72.0181795737535
 31
0
  0
LINE
  8
1
 62
7
 10
-177.3295555058487
 20
-72.18957957375345
 30
0
 11
-176.9324320293136
 21
-72.0181795737535
 31
0
  0
LINE
  8
1
 62
7
 10
-177.6773165565846
 20
-72.38677957375374
 30
0
 11
-177.3295555058487
 21
-72.18957957375345
 31
0
  0
LINE
  8
1
 62
7
 10
-177.9655165565849
 20
-72.76437957375354
 30
0
 11
-177.6773165565846
 21
-72.38677957375374
 31
0
  0
LINE
  8
1
 62
7
 10
-178.1850165565845
 20
-73.23057957375384
 30
0
 11
-177.9655165565849
 21
-72.76437957375354
 31
0
  0
LINE
  8
1
 62
7
 10
-178.1850165565847
 20
-73.86747957375359
 30
0
 11
-178.1850165565845
 21
-73.23057957375384
 31
0
  0
LINE
  8
1
 62
7
 10
-180.246916556585
 20
-73.86077957375368
 30
0
 11
-178.1850165565847
 21
-73.86747957375359
 31
0
  0
LINE
  8
1
 62
7
 10
-180.246916556585
 20
-73.79617957375352
 30
0
 11
-180.246916556585
 21
-73.86077957375368
 31
0
  0
LINE
  8
1
 62
7
 10
-180.2389165565847
 20
-73.25727957375374
 30
0
 11
-180.246916556585
 21
-73.79617957375352
 31
0
  0
LINE
  8
1
 62
7
 10
-180.0963165565846
 20
-72.50457957375373
 30
0
 11
-180.2389165565847
 21
-73.25727957375374
 31
0
  0
LINE
  8
1
 62
7
 10
-179.5099165565846
 20
-71.59327957375352
 30
0
 11
-180.0963165565846
 21
-72.50457957375373
 31
0
  0
LINE
  8
1
 62
7
 10
-178.9315165565848
 20
-71.00687957375361
 30
0
 11
-179.5099165565846
 21
-71.59327957375352
 31
0
  0
LINE
  8
1
 62
7
 10
-178.1637165565846
 20
-70.48137957375364
 30
0
 11
-178.9315165565848
 21
-71.00687957375361
 31
0
  0
LINE
  8
1
 62
7
 10
-177.0642165565847
 20
-70.21817957375355
 30
0
 11
-178.1637165565846
 21
-70.48137957375364
 31
0
  0
LINE
  8
1
 62
7
 10
-175.8676893229696
 20
-70.21817957375355
 30
0
 11
-177.0642165565847
 21
-70.21817957375355
 31
0
  0
LINE
  8
1
 62
7
 10
-175.2971228060565
 20
-70.3311795737536
 30
0
 11
-175.8676893229696
 21
-70.21817957375355
 31
0
  0
LINE
  8
1
 62
7
 10
-174.3998228060565
 20
-70.76437957375377
 30
0
 11
-175.2971228060565
 21
-70.3311795737536
 31
0
  0
LINE
  8
1
 62
7
 10
-173.7374228060565
 20
-71.40607957375367
 30
0
 11
-174.3998228060565
 21
-70.76437957375377
 31
0
  0
LINE
  8
1
 62
7
 10
-173.1578228060565
 20
-72.29617957375375
 30
0
 11
-173.7374228060565
 21
-71.40607957375367
 31
0
  0
LINE
  8
1
 62
7
 10
-173.0336228060565
 20
-73.02067957375378
 30
0
 11
-173.1578228060565
 21
-72.29617957375375
 31
0
  0
LINE
  8
1
 62
7
 10
-173.0336228060565
 20
-73.64167957375365
 30
0
 11
-173.0336228060565
 21
-73.02067957375378
 31
0
  0
LINE
  8
1
 62
7
 10
-173.1785228060565
 20
-74.40757957375375
 30
0
 11
-173.0336228060565
 21
-73.64167957375365
 31
0
  0
LINE
  8
1
 62
7
 10
-173.8823228060565
 20
-75.44257957375383
 30
0
 11
-173.1785228060565
 21
-74.40757957375375
 31
0
  0
LINE
  8
1
 62
7
 10
-176.3456228060565
 20
-77.55397957375361
 30
0
 11
-173.8823228060565
 21
-75.44257957375383
 31
0
  0
LINE
  8
1
 62
7
 10
-177.5048228060566
 20
-78.8787795737537
 30
0
 11
-176.3456228060565
 21
-77.55397957375361
 31
0
  0
LINE
  8
1
 62
7
 10
-178.1672228060566
 20
-79.81027957375362
 30
0
 11
-177.5048228060566
 21
-78.8787795737537
 31
0
  0
LINE
  8
1
 62
7
 10
-178.1730228060566
 20
-80.42487957375373
 30
0
 11
-178.1672228060566
 21
-79.81027957375362
 31
0
  0
LINE
  8
1
 62
7
 10
-172.4131847604385
 20
-80.42487957375373
 30
0
 11
-178.1730228060566
 21
-80.42487957375373
 31
0
  0
LINE
  8
1
 62
7
 10
-172.4131847604385
 20
-82.22487957375368
 30
0
 11
-172.4131847604385
 21
-80.42487957375373
 31
0
  0
LINE
  8
1
 62
7
 10
-155.1011847604383
 20
-74.93164254283278
 30
0
 11
-155.3951847604383
 21
-75.63164254283278
 31
0
  0
LINE
  8
1
 62
7
 10
-155.3951847604383
 20
-75.63164254283278
 30
0
 11
-155.7871847604383
 21
-75.07164254283278
 31
0
  0
LINE
  8
1
 62
7
 10
-155.7871847604383
 20
-75.07164254283278
 30
0
 11
-156.3751847604383
 21
-74.51164254283277
 31
0
  0
LINE
  8
1
 62
7
 10
-156.3751847604383
 20
-74.51164254283277
 30
0
 11
-157.0611847604383
 21
-74.23164254283279
 31
0
  0
LINE
  8
1
 62
7
 10
-157.0611847604383
 20
-74.23164254283279
 30
0
 11
-157.4531847604383
 21
-74.23164254283279
 31
0
  0
LINE
  8
1
 62
7
 10
-157.4531847604383
 20
-74.23164254283279
 30
0
 11
-158.0411847604383
 21
-74.51164254283277
 31
0
  0
LINE
  8
1
 62
7
 10
-158.0411847604383
 20
-74.51164254283277
 30
0
 11
-158.3351847604383
 21
-75.07164254283278
 31
0
  0
LINE
  8
1
 62
7
 10
-158.3351847604383
 20
-75.07164254283278
 30
0
 11
-158.3351847604383
 21
-74.37164254283277
 31
0
  0
LINE
  8
1
 62
7
 10
-158.3351847604383
 20
-74.37164254283277
 30
0
 11
-159.4131847604383
 21
-74.37164254283277
 31
0
  0
LINE
  8
1
 62
7
 10
-159.4131847604383
 20
-74.37164254283277
 30
0
 11
-159.4131847604383
 21
-82.63164254283278
 31
0
  0
LINE
  8
1
 62
7
 10
-159.4131847604383
 20
-82.63164254283278
 30
0
 11
-158.3351847604383
 21
-82.63164254283278
 31
0
  0
LINE
  8
1
 62
7
 10
-158.3351847604383
 20
-82.63164254283278
 30
0
 11
-158.3351847604383
 21
-76.89164254283278
 31
0
  0
LINE
  8
1
 62
7
 10
-158.3351847604383
 20
-76.89164254283278
 30
0
 11
-158.1391847604383
 21
-76.19164254283278
 31
0
  0
LINE
  8
1
 62
7
 10
-158.1391847604383
 20
-76.19164254283278
 30
0
 11
-157.7471847604383
 21
-75.77164254283278
 31
0
  0
LINE
  8
1
 62
7
 10
-157.7471847604383
 20
-75.77164254283278
 30
0
 11
-157.3551847604383
 21
-75.63164254283278
 31
0
  0
LINE
  8
1
 62
7
 10
-157.3551847604383
 20
-75.63164254283278
 30
0
 11
-156.8651847604383
 21
-75.77164254283278
 31
0
  0
LINE
  8
1
 62
7
 10
-156.8651847604383
 20
-75.77164254283278
 30
0
 11
-156.5711847604383
 21
-76.19164254283278
 31
0
  0
LINE
  8
1
 62
7
 10
-156.5711847604383
 20
-76.19164254283278
 30
0
 11
-156.2771847604383
 21
-76.89164254283278
 31
0
  0
LINE
  8
1
 62
7
 10
-156.2771847604383
 20
-76.89164254283278
 30
0
 11
-156.1791847604383
 21
-77.45164254283279
 31
0
  0
LINE
  8
1
 62
7
 10
-156.1791847604383
 20
-77.45164254283279
 30
0
 11
-156.1791847604383
 21
-82.63164254283278
 31
0
  0
LINE
  8
1
 62
7
 10
-156.1791847604383
 20
-82.63164254283278
 30
0
 11
-155.1011847604383
 21
-82.63164254283278
 31
0
  0
LINE
  8
1
 62
7
 10
-155.1011847604383
 20
-82.63164254283278
 30
0
 11
-155.1011847604383
 21
-76.89164254283278
 31
0
  0
LINE
  8
1
 62
7
 10
-155.1011847604383
 20
-76.89164254283278
 30
0
 11
-154.9051847604383
 21
-76.19164254283278
 31
0
  0
LINE
  8
1
 62
7
 10
-154.9051847604383
 20
-76.19164254283278
 30
0
 11
-154.5131847604383
 21
-75.77164254283278
 31
0
  0
LINE
  8
1
 62
7
 10
-154.5131847604383
 20
-75.77164254283278
 30
0
 11
-154.1211847604383
 21
-75.63164254283278
 31
0
  0
LINE
  8
1
 62
7
 10
-154.1211847604383
 20
-75.63164254283278
 30
0
 11
-153.6311847604383
 21
-75.77164254283278
 31
0
  0
LINE
  8
1
 62
7
 10
-153.6311847604383
 20
-75.77164254283278
 30
0
 11
-153.3371847604383
 21
-76.19164254283278
 31
0
  0
LINE
  8
1
 62
7
 10
-153.3371847604383
 20
-76.19164254283278
 30
0
 11
-153.0431847604383
 21
-76.89164254283278
 31
0
  0
LINE
  8
1
 62
7
 10
-153.0431847604383
 20
-76.89164254283278
 30
0
 11
-152.9451847604383
 21
-77.45164254283279
 31
0
  0
LINE
  8
1
 62
7
 10
-152.9451847604383
 20
-77.45164254283279
 30
0
 11
-152.9451847604383
 21
-82.63164254283278
 31
0
  0
LINE
  8
1
 62
7
 10
-152.9451847604383
 20
-82.63164254283278
 30
0
 11
-151.8671847604383
 21
-82.63164254283278
 31
0
  0
LINE
  8
1
 62
7
 10
-151.8671847604383
 20
-82.63164254283278
 30
0
 11
-151.8671847604383
 21
-77.59164254283277
 31
0
  0
LINE
  8
1
 62
7
 10
-151.8671847604383
 20
-77.59164254283277
 30
0
 11
-151.9651847604383
 21
-76.47164254283278
 31
0
  0
LINE
  8
1
 62
7
 10
-151.9651847604383
 20
-76.47164254283278
 30
0
 11
-152.2591847604383
 21
-75.63164254283278
 31
0
  0
LINE
  8
1
 62
7
 10
-152.2591847604383
 20
-75.63164254283278
 30
0
 11
-152.5531847604383
 21
-75.07164254283278
 31
0
  0
LINE
  8
1
 62
7
 10
-152.5531847604383
 20
-75.07164254283278
 30
0
 11
-153.1411847604383
 21
-74.51164254283277
 31
0
  0
LINE
  8
1
 62
7
 10
-153.1411847604383
 20
-74.51164254283277
 30
0
 11
-153.8271847604383
 21
-74.23164254283279
 31
0
  0
LINE
  8
1
 62
7
 10
-153.8271847604383
 20
-74.23164254283279
 30
0
 11
-154.2191847604383
 21
-74.23164254283279
 31
0
  0
LINE
  8
1
 62
7
 10
-154.2191847604383
 20
-74.23164254283279
 30
0
 11
-154.7091847604383
 21
-74.51164254283277
 31
0
  0
LINE
  8
1
 62
7
 10
-154.7091847604383
 20
-74.51164254283277
 30
0
 11
-155.1011847604383
 21
-74.93164254283278
 31
0
  0
LINE
  8
1
 62
7
 10
-164.1011847604383
 20
-74.93164254283278
 30
0
 11
-164.3951847604383
 21
-75.63164254283278
 31
0
  0
LINE
  8
1
 62
7
 10
-164.3951847604383
 20
-75.63164254283278
 30
0
 11
-164.7871847604383
 21
-75.07164254283278
 31
0
  0
LINE
  8
1
 62
7
 10
-164.7871847604383
 20
-75.07164254283278
 30
0
 11
-165.3751847604383
 21
-74.51164254283277
 31
0
  0
LINE
  8
1
 62
7
 10
-165.3751847604383
 20
-74.51164254283277
 30
0
 11
-166.0611847604383
 21
-74.23164254283279
 31
0
  0
LINE
  8
1
 62
7
 10
-166.0611847604383
 20
-74.23164254283279
 30
0
 11
-166.4531847604383
 21
-74.23164254283279
 31
0
  0
LINE
  8
1
 62
7
 10
-166.4531847604383
 20
-74.23164254283279
 30
0
 11
-167.0411847604383
 21
-74.51164254283277
 31
0
  0
LINE
  8
1
 62
7
 10
-167.0411847604383
 20
-74.51164254283277
 30
0
 11
-167.3351847604383
 21
-75.07164254283278
 31
0
  0
LINE
  8
1
 62
7
 10
-167.3351847604383
 20
-75.07164254283278
 30
0
 11
-167.3351847604383
 21
-74.37164254283277
 31
0
  0
LINE
  8
1
 62
7
 10
-167.3351847604383
 20
-74.37164254283277
 30
0
 11
-168.4131847604383
 21
-74.37164254283277
 31
0
  0
LINE
  8
1
 62
7
 10
-168.4131847604383
 20
-74.37164254283277
 30
0
 11
-168.4131847604383
 21
-82.63164254283278
 31
0
  0
LINE
  8
1
 62
7
 10
-168.4131847604383
 20
-82.63164254283278
 30
0
 11
-167.3351847604383
 21
-82.63164254283278
 31
0
  0
LINE
  8
1
 62
7
 10
-167.3351847604383
 20
-82.63164254283278
 30
0
 11
-167.3351847604383
 21
-76.89164254283278
 31
0
  0
LINE
  8
1
 62
7
 10
-167.3351847604383
 20
-76.89164254283278
 30
0
 11
-167.1391847604383
 21
-76.19164254283278
 31
0
  0
LINE
  8
1
 62
7
 10
-167.1391847604383
 20
-76.19164254283278
 30
0
 11
-166.7471847604383
 21
-75.77164254283278
 31
0
  0
LINE
  8
1
 62
7
 10
-166.7471847604383
 20
-75.77164254283278
 30
0
 11
-166.3551847604383
 21
-75.63164254283278
 31
0
  0
LINE
  8
1
 62
7
 10
-166.3551847604383
 20
-75.63164254283278
 30
0
 11
-165.8651847604383
 21
-75.77164254283278
 31
0
  0
LINE
  8
1
 62
7
 10
-165.8651847604383
 20
-75.77164254283278
 30
0
 11
-165.5711847604383
 21
-76.19164254283278
 31
0
  0
LINE
  8
1
 62
7
 10
-165.5711847604383
 20
-76.19164254283278
 30
0
 11
-165.2771847604383
 21
-76.89164254283278
 31
0
  0
LINE
  8
1
 62
7
 10
-165.2771847604383
 20
-76.89164254283278
 30
0
 11
-165.1791847604383
 21
-77.45164254283279
 31
0
  0
LINE
  8
1
 62
7
 10
-165.1791847604383
 20
-77.45164254283279
 30
0
 11
-165.1791847604383
 21
-82.63164254283278
 31
0
  0
LINE
  8
1
 62
7
 10
-165.1791847604383
 20
-82.63164254283278
 30
0
 11
-164.1011847604383
 21
-82.63164254283278
 31
0
  0
LINE
  8
1
 62
7
 10
-164.1011847604383
 20
-82.63164254283278
 30
0
 11
-164.1011847604383
 21
-76.89164254283278
 31
0
  0
LINE
  8
1
 62
7
 10
-164.1011847604383
 20
-76.89164254283278
 30
0
 11
-163.9051847604383
 21
-76.19164254283278
 31
0
  0
LINE
  8
1
 62
7
 10
-163.9051847604383
 20
-76.19164254283278
 30
0
 11
-163.5131847604383
 21
-75.77164254283278
 31
0
  0
LINE
  8
1
 62
7
 10
-163.5131847604383
 20
-75.77164254283278
 30
0
 11
-163.1211847604383
 21
-75.63164254283278
 31
0
  0
LINE
  8
1
 62
7
 10
-163.1211847604383
 20
-75.63164254283278
 30
0
 11
-162.6311847604383
 21
-75.77164254283278
 31
0
  0
LINE
  8
1
 62
7
 10
-162.6311847604383
 20
-75.77164254283278
 30
0
 11
-162.3371847604383
 21
-76.19164254283278
 31
0
  0
LINE
  8
1
 62
7
 10
-162.3371847604383
 20
-76.19164254283278
 30
0
 11
-162.0431847604383
 21
-76.89164254283278
 31
0
  0
LINE
  8
1
 62
7
 10
-162.0431847604383
 20
-76.89164254283278
 30
0
 11
-161.9451847604383
 21
-77.45164254283279
 31
0
  0
LINE
  8
1
 62
7
 10
-161.9451847604383
 20
-77.45164254283279
 30
0
 11
-161.9451847604383
 21
-82.63164254283278
 31
0
  0
LINE
  8
1
 62
7
 10
-161.9451847604383
 20
-82.63164254283278
 30
0
 11
-160.8671847604383
 21
-82.63164254283278
 31
0
  0
LINE
  8
1
 62
7
 10
-160.8671847604383
 20
-82.63164254283278
 30
0
 11
-160.8671847604383
 21
-77.59164254283277
 31
0
  0
LINE
  8
1
 62
7
 10
-160.8671847604383
 20
-77.59164254283277
 30
0
 11
-160.9651847604383
 21
-76.47164254283278
 31
0
  0
LINE
  8
1
 62
7
 10
-160.9651847604383
 20
-76.47164254283278
 30
0
 11
-161.2591847604383
 21
-75.63164254283278
 31
0
  0
LINE
  8
1
 62
7
 10
-161.2591847604383
 20
-75.63164254283278
 30
0
 11
-161.5531847604383
 21
-75.07164254283278
 31
0
  0
LINE
  8
1
 62
7
 10
-161.5531847604383
 20
-75.07164254283278
 30
0
 11
-162.1411847604383
 21
-74.51164254283277
 31
0
  0
LINE
  8
1
 62
7
 10
-162.1411847604383
 20
-74.51164254283277
 30
0
 11
-162.8271847604383
 21
-74.23164254283279
 31
0
  0
LINE
  8
1
 62
7
 10
-162.8271847604383
 20
-74.23164254283279
 30
0
 11
-163.2191847604383
 21
-74.23164254283279
 31
0
  0
LINE
  8
1
 62
7
 10
-163.2191847604383
 20
-74.23164254283279
 30
0
 11
-163.7091847604383
 21
-74.51164254283277
 31
0
  0
LINE
  8
1
 62
7
 10
-163.7091847604383
 20
-74.51164254283277
 30
0
 11
-164.1011847604383
 21
-74.93164254283278
 31
0
  0
LINE
  8
1
 62
7
 10
-221.4281838062844
 20
-80.13164254283277
 30
0
 11
-226.0728238062844
 21
-80.13164254283277
 31
0
  0
LINE
  8
1
 62
7
 10
-226.0728238062844
 20
-80.13164254283277
 30
0
 11
-226.0728238062844
 21
-73.09164254283276
 31
0
  0
LINE
  8
1
 62
7
 10
-226.0728238062844
 20
-73.09164254283276
 30
0
 11
-221.5082638062844
 21
-73.09164254283276
 31
0
  0
LINE
  8
1
 62
7
 10
-221.5082638062844
 20
-73.09164254283276
 30
0
 11
-221.5082638062844
 21
-73.97164254283277
 31
0
  0
LINE
  8
1
 62
7
 10
-221.5082638062844
 20
-73.97164254283277
 30
0
 11
-225.1919438062844
 21
-73.97164254283277
 31
0
  0
LINE
  8
1
 62
7
 10
-225.1919438062844
 20
-73.97164254283277
 30
0
 11
-225.1919438062844
 21
-76.08364254283276
 31
0
  0
LINE
  8
1
 62
7
 10
-225.1919438062844
 20
-76.08364254283276
 30
0
 11
-221.8285838062844
 21
-76.08364254283276
 31
0
  0
LINE
  8
1
 62
7
 10
-221.8285838062844
 20
-76.08364254283276
 30
0
 11
-221.8285838062844
 21
-76.96364254283276
 31
0
  0
LINE
  8
1
 62
7
 10
-221.8285838062844
 20
-76.96364254283276
 30
0
 11
-225.1919438062844
 21
-76.96364254283276
 31
0
  0
LINE
  8
1
 62
7
 10
-225.1919438062844
 20
-76.96364254283276
 30
0
 11
-225.1919438062844
 21
-79.25164254283277
 31
0
  0
LINE
  8
1
 62
7
 10
-225.1919438062844
 20
-79.25164254283277
 30
0
 11
-221.4281838062844
 21
-79.25164254283277
 31
0
  0
LINE
  8
1
 62
7
 10
-221.4281838062844
 20
-79.25164254283277
 30
0
 11
-221.4281838062844
 21
-80.13164254283277
 31
0
  0
LINE
  8
1
 62
7
 10
-134.2998760584408
 20
-113.3639128940286
 30
0
 11
-137.4131847604382
 21
-116.4316425428328
 31
0
  0
LINE
  8
1
 62
7
 10
-176.4131847604382
 20
-19.43164254283282
 30
0
 11
-176.4131847604382
 21
-33.43164254283282
 31
0
  0
LINE
  8
1
 62
7
 10
-169.4131847604382
 20
-18.43164254283282
 30
0
 11
-175.4131847604382
 21
-18.43164254283282
 31
0
  0
LINE
  8
1
 62
7
 10
-168.4131847604382
 20
-33.43164254283282
 30
0
 11
-168.4131847604382
 21
-19.43164254283282
 31
0
  0
LINE
  8
1
 62
7
 10
-175.4131847604382
 20
-34.43164254283282
 30
0
 11
-169.4131847604382
 21
-34.43164254283282
 31
0
  0
LINE
  8
1
 62
7
 10
-127.9131847604382
 20
-13.43164254283305
 30
0
 11
-216.9131847604382
 21
-13.43164254283305
 31
0
  0
LINE
  8
1
 62
7
 10
-130.9956847604382
 20
-35.43164254283282
 30
0
 11
-213.8306847604382
 21
-35.43164254283282
 31
0
  0
LINE
  8
1
 62
7
 10
-217.9131847604382
 20
-35.43164254283282
 30
0
 11
-218.9131847604382
 21
-34.43164254283282
 31
0
  0
LINE
  8
1
 62
7
 10
-218.9131847604382
 20
-34.43164254283282
 30
0
 11
-225.4131847604382
 21
-34.43164254283282
 31
0
  0
LINE
  8
1
 62
7
 10
-226.4131847604382
 20
-33.43164254283282
 30
0
 11
-226.4131847604382
 21
-19.43164254283282
 31
0
  0
LINE
  8
1
 62
7
 10
-218.9131847604382
 20
-34.43164254283282
 30
0
 11
-218.9131847604382
 21
-18.43164254283282
 31
0
  0
LINE
  8
1
 62
7
 10
-225.4131847604382
 20
-18.43164254283282
 30
0
 11
-218.9131847604382
 21
-18.43164254283282
 31
0
  0
LINE
  8
1
 62
7
 10
-217.9131847604382
 20
-35.43164254283282
 30
0
 11
-213.8306847604382
 21
-35.43164254283282
 31
0
  0
LINE
  8
1
 62
7
 10
-218.9131847604382
 20
-18.43164254283282
 30
0
 11
-218.9131847604382
 21
-15.43164254283282
 31
0
  0
LINE
  8
1
 62
7
 10
-125.9131847604382
 20
-34.43164254283282
 30
0
 11
-126.9131847604382
 21
-35.43164254283282
 31
0
  0
LINE
  8
1
 62
7
 10
-119.4131847604383
 20
-34.43164254283282
 30
0
 11
-125.9131847604382
 21
-34.43164254283282
 31
0
  0
LINE
  8
1
 62
7
 10
-118.4131847604382
 20
-19.43164254283282
 30
0
 11
-118.4131847604383
 21
-33.43164254283282
 31
0
  0
LINE
  8
1
 62
7
 10
-125.9131847604382
 20
-18.43164254283282
 30
0
 11
-125.9131847604382
 21
-34.43164254283282
 31
0
  0
LINE
  8
1
 62
7
 10
-125.9131847604382
 20
-18.43164254283282
 30
0
 11
-119.4131847604383
 21
-18.43164254283282
 31
0
  0
LINE
  8
1
 62
7
 10
-126.9131847604382
 20
-35.43164254283282
 30
0
 11
-130.9956847604382
 21
-35.43164254283282
 31
0
  0
LINE
  8
1
 62
7
 10
-125.9131847604382
 20
-15.43164254283282
 30
0
 11
-125.9131847604382
 21
-18.43164254283282
 31
0
  0
LINE
  8
1
 62
7
 10
-176.4131847604385
 20
181.5735658423826
 30
0
 11
-176.4131847604385
 21
187.3374567731544
 31
0
  0
LINE
  8
1
 62
7
 10
-125.1770756912105
 20
138.3374567731544
 30
0
 11
-119.4131847604385
 21
138.3374567731544
 31
0
  0
LINE
  8
1
 62
7
 10
-168.4131847604385
 20
187.3374567731544
 30
0
 11
-168.4131847604385
 21
181.5735658423826
 31
0
  0
LINE
  8
1
 62
7
 10
-175.4131847604385
 20
188.3374567731544
 30
0
 11
-169.4131847604385
 21
188.3374567731544
 31
0
  0
LINE
  8
1
 62
7
 10
-225.4131847604385
 20
138.3374567731544
 30
0
 11
-219.6492938296665
 21
138.3374567731544
 31
0
  0
LINE
  8
1
 62
7
 10
-226.4131847604385
 20
137.3374567731544
 30
0
 11
-226.4131847604385
 21
134.3374567731544
 31
0
  0
LINE
  8
1
 62
7
 10
-118.4131847604385
 20
137.3374567731544
 30
0
 11
-118.4131847604385
 21
134.3374567731544
 31
0
  0
LINE
  8
1
 62
7
 10
-176.4131847604385
 20
81.33745677315417
 30
0
 11
-176.4131847604385
 21
87.101347703926
 31
0
  0
LINE
  8
1
 62
7
 10
-119.4131847604385
 20
130.3374567731544
 30
0
 11
-125.1770756912105
 21
130.3374567731544
 31
0
  0
LINE
  8
1
 62
7
 10
-168.4131847604385
 20
87.101347703926
 30
0
 11
-168.4131847604385
 21
81.33745677315417
 31
0
  0
LINE
  8
1
 62
7
 10
-169.4131847604385
 20
80.33745677315417
 30
0
 11
-175.4131847604385
 21
80.33745677315417
 31
0
  0
LINE
  8
1
 62
7
 10
-219.6492938296665
 20
130.3374567731544
 30
0
 11
-225.4131847604385
 21
130.3374567731544
 31
0
  0
LINE
  8
1
 62
7
 10
-226.4131847604385
 20
134.3374567731544
 30
0
 11
-226.4131847604385
 21
131.3374567731544
 31
0
  0
LINE
  8
1
 62
7
 10
-118.4131847604385
 20
134.3374567731544
 30
0
 11
-118.4131847604385
 21
131.3374567731544
 31
0
  0
LINE
  8
1
 62
7
 10
-169.6539761123642
 20
42.56901728714234
 30
0
 11
-169.6539761123642
 21
42.38620478714228
 31
0
  0
LINE
  8
1
 62
7
 10
-169.5727261123643
 20
42.56901728714234
 30
0
 11
-169.6539761123642
 21
42.56901728714234
 31
0
  0
LINE
  8
1
 62
7
 10
-169.4914761123641
 20
42.58932978714228
 30
0
 11
-169.5727261123643
 21
42.56901728714234
 31
0
  0
LINE
  8
1
 62
7
 10
-169.4305386123642
 20
42.62995478714225
 30
0
 11
-169.4914761123641
 21
42.58932978714228
 31
0
  0
LINE
  8
1
 62
7
 10
-169.3899136123641
 20
42.69089228714228
 30
0
 11
-169.4305386123642
 21
42.62995478714225
 31
0
  0
LINE
  8
1
 62
7
 10
-169.3696011123643
 20
42.7518297871423
 30
0
 11
-169.3899136123641
 21
42.69089228714228
 31
0
  0
LINE
  8
1
 62
7
 10
-169.3696011123643
 20
42.83307978714225
 30
0
 11
-169.3696011123643
 21
42.7518297871423
 31
0
  0
LINE
  8
1
 62
7
 10
-169.3899136123641
 20
42.89401728714228
 30
0
 11
-169.3696011123643
 21
42.83307978714225
 31
0
  0
LINE
  8
1
 62
7
 10
-169.4305386123642
 20
42.9549547871423
 30
0
 11
-169.3899136123641
 21
42.89401728714228
 31
0
  0
LINE
  8
1
 62
7
 10
-169.4914761123641
 20
42.99557978714228
 30
0
 11
-169.4305386123642
 21
42.9549547871423
 31
0
  0
LINE
  8
1
 62
7
 10
-169.5727261123643
 20
43.01589228714221
 30
0
 11
-169.4914761123641
 21
42.99557978714228
 31
0
  0
LINE
  8
1
 62
7
 10
-169.6539761123642
 20
43.01589228714221
 30
0
 11
-169.5727261123643
 21
43.01589228714221
 31
0
  0
LINE
  8
1
 62
7
 10
-169.7352261123642
 20
42.99557978714228
 30
0
 11
-169.6539761123642
 21
43.01589228714221
 31
0
  0
LINE
  8
1
 62
7
 10
-169.7961636123641
 20
42.9549547871423
 30
0
 11
-169.7352261123642
 21
42.99557978714228
 31
0
  0
LINE
  8
1
 62
7
 10
-169.8367886123642
 20
42.89401728714228
 30
0
 11
-169.7961636123641
 21
42.9549547871423
 31
0
  0
LINE
  8
1
 62
7
 10
-169.8571011123642
 20
42.83307978714225
 30
0
 11
-169.8367886123642
 21
42.89401728714228
 31
0
  0
LINE
  8
1
 62
7
 10
-169.8571011123642
 20
42.7518297871423
 30
0
 11
-169.8571011123642
 21
42.83307978714225
 31
0
  0
LINE
  8
1
 62
7
 10
-170.0805386123643
 20
42.7518297871423
 30
0
 11
-169.8571011123642
 21
42.7518297871423
 31
0
  0
LINE
  8
1
 62
7
 10
-170.0805386123643
 20
42.83307978714225
 30
0
 11
-170.0805386123643
 21
42.7518297871423
 31
0
  0
LINE
  8
1
 62
7
 10
-170.0602261123642
 20
42.93464228714225
 30
0
 11
-170.0805386123643
 21
42.83307978714225
 31
0
  0
LINE
  8
1
 62
7
 10
-169.9789761123643
 20
43.0565172871423
 30
0
 11
-170.0602261123642
 21
42.93464228714225
 31
0
  0
LINE
  8
1
 62
7
 10
-169.8977261123641
 20
43.13776728714225
 30
0
 11
-169.9789761123643
 21
43.0565172871423
 31
0
  0
LINE
  8
1
 62
7
 10
-169.7758511123643
 20
43.19870478714228
 30
0
 11
-169.8977261123641
 21
43.13776728714225
 31
0
  0
LINE
  8
1
 62
7
 10
-169.6742886123643
 20
43.21901728714221
 30
0
 11
-169.7758511123643
 21
43.19870478714228
 31
0
  0
LINE
  8
1
 62
7
 10
-169.5524136123642
 20
43.21901728714221
 30
0
 11
-169.6742886123643
 21
43.21901728714221
 31
0
  0
LINE
  8
1
 62
7
 10
-169.4508511123642
 20
43.19870478714228
 30
0
 11
-169.5524136123642
 21
43.21901728714221
 31
0
  0
LINE
  8
1
 62
7
 10
-169.3289761123642
 20
43.13776728714225
 30
0
 11
-169.4508511123642
 21
43.19870478714228
 31
0
  0
LINE
  8
1
 62
7
 10
-169.2477261123642
 20
43.0565172871423
 30
0
 11
-169.3289761123642
 21
43.13776728714225
 31
0
  0
LINE
  8
1
 62
7
 10
-169.1664761123643
 20
42.93464228714225
 30
0
 11
-169.2477261123642
 21
43.0565172871423
 31
0
  0
LINE
  8
1
 62
7
 10
-169.1461636123642
 20
42.83307978714225
 30
0
 11
-169.1664761123643
 21
42.93464228714225
 31
0
  0
LINE
  8
1
 62
7
 10
-169.1461636123642
 20
42.7518297871423
 30
0
 11
-169.1461636123642
 21
42.83307978714225
 31
0
  0
LINE
  8
1
 62
7
 10
-169.1664761123643
 20
42.6502672871423
 30
0
 11
-169.1461636123642
 21
42.7518297871423
 31
0
  0
LINE
  8
1
 62
7
 10
-169.2477261123642
 20
42.52839228714225
 30
0
 11
-169.1664761123643
 21
42.6502672871423
 31
0
  0
LINE
  8
1
 62
7
 10
-169.2883511123641
 20
42.48776728714228
 30
0
 11
-169.2477261123642
 21
42.52839228714225
 31
0
  0
LINE
  8
1
 62
7
 10
-169.1867886123641
 20
42.40651728714221
 30
0
 11
-169.2883511123641
 21
42.48776728714228
 31
0
  0
LINE
  8
1
 62
7
 10
-169.1055386123653
 20
42.28464228714228
 30
0
 11
-169.1867886123641
 21
42.40651728714221
 31
0
  0
LINE
  8
1
 62
7
 10
-169.0649136123643
 20
42.1424547871423
 30
0
 11
-169.1055386123653
 21
42.28464228714228
 31
0
  0
LINE
  8
1
 62
7
 10
-169.0649136123643
 20
42.0408922871423
 30
0
 11
-169.0649136123643
 21
42.1424547871423
 31
0
  0
LINE
  8
1
 62
7
 10
-169.1055386123653
 20
41.89870478714221
 30
0
 11
-169.0649136123643
 21
42.0408922871423
 31
0
  0
LINE
  8
1
 62
7
 10
-169.1664761123643
 20
41.79714228714221
 30
0
 11
-169.1055386123653
 21
41.89870478714221
 31
0
  0
LINE
  8
1
 62
7
 10
-169.2680386123643
 20
41.69557978714221
 30
0
 11
-169.1664761123643
 21
41.79714228714221
 31
0
  0
LINE
  8
1
 62
7
 10
-169.3899136123641
 20
41.6346422871423
 30
0
 11
-169.2680386123643
 21
41.69557978714221
 31
0
  0
LINE
  8
1
 62
7
 10
-169.5524136123642
 20
41.59401728714221
 30
0
 11
-169.3899136123641
 21
41.6346422871423
 31
0
  0
LINE
  8
1
 62
7
 10
-169.6742886123643
 20
41.59401728714221
 30
0
 11
-169.5524136123642
 21
41.59401728714221
 31
0
  0
LINE
  8
1
 62
7
 10
-169.8367886123642
 20
41.6346422871423
 30
0
 11
-169.6742886123643
 21
41.59401728714221
 31
0
  0
LINE
  8
1
 62
7
 10
-169.9586636123642
 20
41.69557978714221
 30
0
 11
-169.8367886123642
 21
41.6346422871423
 31
0
  0
LINE
  8
1
 62
7
 10
-170.0602261123642
 20
41.79714228714221
 30
0
 11
-169.9586636123642
 21
41.69557978714221
 31
0
  0
LINE
  8
1
 62
7
 10
-170.1211636123653
 20
41.89870478714221
 30
0
 11
-170.0602261123642
 21
41.79714228714221
 31
0
  0
LINE
  8
1
 62
7
 10
-170.1617886123642
 20
42.0408922871423
 30
0
 11
-170.1211636123653
 21
41.89870478714221
 31
0
  0
LINE
  8
1
 62
7
 10
-170.1617886123642
 20
42.1424547871423
 30
0
 11
-170.1617886123642
 21
42.0408922871423
 31
0
  0
LINE
  8
1
 62
7
 10
-169.9180386123653
 20
42.1424547871423
 30
0
 11
-170.1617886123642
 21
42.1424547871423
 31
0
  0
LINE
  8
1
 62
7
 10
-169.9180386123653
 20
42.06120478714234
 30
0
 11
-169.9180386123653
 21
42.1424547871423
 31
0
  0
LINE
  8
1
 62
7
 10
-169.8977261123641
 20
41.97995478714228
 30
0
 11
-169.9180386123653
 21
42.06120478714234
 31
0
  0
LINE
  8
1
 62
7
 10
-169.8367886123642
 20
41.89870478714221
 30
0
 11
-169.8977261123641
 21
41.97995478714228
 31
0
  0
LINE
  8
1
 62
7
 10
-169.7555386123642
 20
41.8377672871423
 30
0
 11
-169.8367886123642
 21
41.89870478714221
 31
0
  0
LINE
  8
1
 62
7
 10
-169.6539761123642
 20
41.81745478714225
 30
0
 11
-169.7555386123642
 21
41.8377672871423
 31
0
  0
LINE
  8
1
 62
7
 10
-169.5727261123643
 20
41.81745478714225
 30
0
 11
-169.6539761123642
 21
41.81745478714225
 31
0
  0
LINE
  8
1
 62
7
 10
-169.4711636123643
 20
41.8377672871423
 30
0
 11
-169.5727261123643
 21
41.81745478714225
 31
0
  0
LINE
  8
1
 62
7
 10
-169.3899136123641
 20
41.89870478714221
 30
0
 11
-169.4711636123643
 21
41.8377672871423
 31
0
  0
LINE
  8
1
 62
7
 10
-169.3289761123642
 20
41.97995478714228
 30
0
 11
-169.3899136123641
 21
41.89870478714221
 31
0
  0
LINE
  8
1
 62
7
 10
-169.3086636123653
 20
42.06120478714234
 30
0
 11
-169.3289761123642
 21
41.97995478714228
 31
0
  0
LINE
  8
1
 62
7
 10
-169.3086636123653
 20
42.1424547871423
 30
0
 11
-169.3086636123653
 21
42.06120478714234
 31
0
  0
LINE
  8
1
 62
7
 10
-169.3289761123642
 20
42.22370478714225
 30
0
 11
-169.3086636123653
 21
42.1424547871423
 31
0
  0
LINE
  8
1
 62
7
 10
-169.3899136123641
 20
42.30495478714221
 30
0
 11
-169.3289761123642
 21
42.22370478714225
 31
0
  0
LINE
  8
1
 62
7
 10
-169.4711636123643
 20
42.36589228714234
 30
0
 11
-169.3899136123641
 21
42.30495478714221
 31
0
  0
LINE
  8
1
 62
7
 10
-169.5727261123643
 20
42.38620478714228
 30
0
 11
-169.4711636123643
 21
42.36589228714234
 31
0
  0
LINE
  8
1
 62
7
 10
-169.6539761123642
 20
42.38620478714228
 30
0
 11
-169.5727261123643
 21
42.38620478714228
 31
0
  0
LINE
  8
1
 62
7
 10
-145.6124872975212
 20
40.7332682251535
 30
0
 11
-147.5502997975211
 21
40.7332682251535
 31
0
  0
LINE
  8
1
 62
7
 10
-145.6124872975212
 20
41.0145182251535
 30
0
 11
-145.6124872975212
 21
40.7332682251535
 31
0
  0
LINE
  8
1
 62
7
 10
-147.1481122975212
 20
41.0145182251535
 30
0
 11
-145.6124872975212
 21
41.0145182251535
 31
0
  0
LINE
  8
1
 62
7
 10
-147.1481122975212
 20
42.9832682251535
 30
0
 11
-147.1481122975212
 21
41.0145182251535
 31
0
  0
LINE
  8
1
 62
7
 10
-147.5502997975211
 20
42.9832682251535
 30
0
 11
-147.1481122975212
 21
42.9832682251535
 31
0
  0
LINE
  8
1
 62
7
 10
-147.5502997975211
 20
40.7332682251535
 30
0
 11
-147.5502997975211
 21
42.9832682251535
 31
0
  0
LINE
  8
1
 62
7
 10
-146.4541497382272
 20
36.11826128291654
 30
0
 11
-146.4541497382272
 21
37.68693504997424
 31
0
  0
LINE
  8
1
 62
7
 10
-147.7275437373682
 20
36.11826128291654
 30
0
 11
-146.4541497382272
 21
36.11826128291654
 31
0
  0
LINE
  8
1
 62
7
 10
-146.4541497382272
 20
37.68693504997424
 30
0
 11
-147.7275437373682
 21
36.11826128291654
 31
0
  0
LINE
  8
1
 62
7
 10
-148.3365582586961
 20
36.16439874665349
 30
0
 11
-146.4541497382272
 21
38.5174093972401
 31
0
  0
LINE
  8
1
 62
7
 10
-148.3365582586961
 20
35.65688664554654
 30
0
 11
-148.3365582586961
 21
36.16439874665349
 31
0
  0
LINE
  8
1
 62
7
 10
-146.4541497382272
 20
35.65688664554654
 30
0
 11
-148.3365582586961
 21
35.65688664554654
 31
0
  0
LINE
  8
1
 62
7
 10
-146.4541497382272
 20
34.82641229828056
 30
0
 11
-146.4541497382272
 21
35.65688664554654
 31
0
  0
LINE
  8
1
 62
7
 10
-145.8451352168981
 20
34.82641229828056
 30
0
 11
-146.4541497382272
 21
34.82641229828056
 31
0
  0
LINE
  8
1
 62
7
 10
-145.8451352168981
 20
35.65688664554654
 30
0
 11
-145.8451352168981
 21
34.82641229828056
 31
0
  0
LINE
  8
1
 62
7
 10
-145.2914856520551
 20
35.65688664554654
 30
0
 11
-145.8451352168981
 21
35.65688664554654
 31
0
  0
LINE
  8
1
 62
7
 10
-145.2914856520551
 20
36.11826128291654
 30
0
 11
-145.2914856520551
 21
35.65688664554654
 31
0
  0
LINE
  8
1
 62
7
 10
-145.8451352168981
 20
36.11826128291654
 30
0
 11
-145.2914856520551
 21
36.11826128291654
 31
0
  0
LINE
  8
1
 62
7
 10
-145.8451352168981
 20
38.5174093972401
 30
0
 11
-145.8451352168981
 21
36.11826128291654
 31
0
  0
LINE
  8
1
 62
7
 10
-146.4541497382272
 20
38.5174093972401
 30
0
 11
-145.8451352168981
 21
38.5174093972401
 31
0
  0
LINE
  8
1
 62
7
 10
-154.7695947691572
 20
37.04101055765631
 30
0
 11
-154.7695947691572
 21
36.62577338402338
 31
0
  0
LINE
  8
1
 62
7
 10
-154.5481349432202
 20
37.04101055765631
 30
0
 11
-154.7695947691572
 21
37.04101055765631
 31
0
  0
LINE
  8
1
 62
7
 10
-154.3266751172823
 20
37.08714802139326
 30
0
 11
-154.5481349432202
 21
37.04101055765631
 31
0
  0
LINE
  8
1
 62
7
 10
-154.1605802478281
 20
37.1794229488674
 30
0
 11
-154.3266751172823
 21
37.08714802139326
 31
0
  0
LINE
  8
1
 62
7
 10
-154.0498503348592
 20
37.31783534007815
 30
0
 11
-154.1605802478281
 21
37.1794229488674
 31
0
  0
LINE
  8
1
 62
7
 10
-153.9944853783763
 20
37.45624773128935
 30
0
 11
-154.0498503348592
 21
37.31783534007815
 31
0
  0
LINE
  8
1
 62
7
 10
-153.9944853783763
 20
37.64079758623728
 30
0
 11
-153.9944853783763
 21
37.45624773128935
 31
0
  0
LINE
  8
1
 62
7
 10
-154.0498503348592
 20
37.77920997744815
 30
0
 11
-153.9944853783763
 21
37.64079758623728
 31
0
  0
LINE
  8
1
 62
7
 10
-154.1605802478281
 20
37.91762236865935
 30
0
 11
-154.0498503348592
 21
37.77920997744815
 31
0
  0
LINE
  8
1
 62
7
 10
-154.3266751172823
 20
38.00989729613303
 30
0
 11
-154.1605802478281
 21
37.91762236865935
 31
0
  0
LINE
  8
1
 62
7
 10
-154.5481349432202
 20
38.05603475987033
 30
0
 11
-154.3266751172823
 21
38.00989729613303
 31
0
  0
LINE
  8
1
 62
7
 10
-154.7695947691572
 20
38.05603475987033
 30
0
 11
-154.5481349432202
 21
38.05603475987033
 31
0
  0
LINE
  8
1
 62
7
 10
-154.9910545950942
 20
38.00989729613303
 30
0
 11
-154.7695947691572
 21
38.05603475987033
 31
0
  0
LINE
  8
1
 62
7
 10
-155.1571494645472
 20
37.91762236865935
 30
0
 11
-154.9910545950942
 21
38.00989729613303
 31
0
  0
LINE
  8
1
 62
7
 10
-155.2678793775162
 20
37.77920997744815
 30
0
 11
-155.1571494645472
 21
37.91762236865935
 31
0
  0
LINE
  8
1
 62
7
 10
-155.3232443340011
 20
37.64079758623728
 30
0
 11
-155.2678793775162
 21
37.77920997744815
 31
0
  0
LINE
  8
1
 62
7
 10
-155.3232443340011
 20
37.45624773128935
 30
0
 11
-155.3232443340011
 21
37.64079758623728
 31
0
  0
LINE
  8
1
 62
7
 10
-155.9322588553293
 20
37.45624773128935
 30
0
 11
-155.3232443340011
 21
37.45624773128935
 31
0
  0
LINE
  8
1
 62
7
 10
-155.9322588553293
 20
37.64079758623728
 30
0
 11
-155.9322588553293
 21
37.45624773128935
 31
0
  0
LINE
  8
1
 62
7
 10
-155.8768938988441
 20
37.87148490492228
 30
0
 11
-155.9322588553293
 21
37.64079758623728
 31
0
  0
LINE
  8
1
 62
7
 10
-155.6554340729071
 20
38.14830968734424
 30
0
 11
-155.8768938988441
 21
37.87148490492228
 31
0
  0
LINE
  8
1
 62
7
 10
-155.4339742469692
 20
38.33285954229206
 30
0
 11
-155.6554340729071
 21
38.14830968734424
 31
0
  0
LINE
  8
1
 62
7
 10
-155.1017845080632
 20
38.47127193350303
 30
0
 11
-155.4339742469692
 21
38.33285954229206
 31
0
  0
LINE
  8
1
 62
7
 10
-154.8249597256412
 20
38.5174093972401
 30
0
 11
-155.1017845080632
 21
38.47127193350303
 31
0
  0
LINE
  8
1
 62
7
 10
-154.4927699867353
 20
38.5174093972401
 30
0
 11
-154.8249597256412
 21
38.5174093972401
 31
0
  0
LINE
  8
1
 62
7
 10
-154.2159452043142
 20
38.47127193350303
 30
0
 11
-154.4927699867353
 21
38.5174093972401
 31
0
  0
LINE
  8
1
 62
7
 10
-153.8837554654062
 20
38.33285954229206
 30
0
 11
-154.2159452043142
 21
38.47127193350303
 31
0
  0
LINE
  8
1
 62
7
 10
-153.6622956394692
 20
38.14830968734424
 30
0
 11
-153.8837554654062
 21
38.33285954229206
 31
0
  0
LINE
  8
1
 62
7
 10
-153.4408358135312
 20
37.87148490492228
 30
0
 11
-153.6622956394692
 21
38.14830968734424
 31
0
  0
LINE
  8
1
 62
7
 10
-153.3854708570472
 20
37.64079758623728
 30
0
 11
-153.4408358135312
 21
37.87148490492228
 31
0
  0
LINE
  8
1
 62
7
 10
-153.3854708570472
 20
37.45624773128935
 30
0
 11
-153.3854708570472
 21
37.64079758623728
 31
0
  0
LINE
  8
1
 62
7
 10
-153.4408358135312
 20
37.22556041260424
 30
0
 11
-153.3854708570472
 21
37.45624773128935
 31
0
  0
LINE
  8
1
 62
7
 10
-153.6622956394692
 20
36.9487356301824
 30
0
 11
-153.4408358135312
 21
37.22556041260424
 31
0
  0
LINE
  8
1
 62
7
 10
-153.7730255524393
 20
36.85646070270838
 30
0
 11
-153.6622956394692
 21
36.9487356301824
 31
0
  0
LINE
  8
1
 62
7
 10
-153.4962007700153
 20
36.67191084776033
 30
0
 11
-153.7730255524393
 21
36.85646070270838
 31
0
  0
LINE
  8
1
 62
7
 10
-153.2747409440783
 20
36.39508606533838
 30
0
 11
-153.4962007700153
 21
36.67191084776033
 31
0
  0
LINE
  8
1
 62
7
 10
-153.1640110311093
 20
36.07212381917935
 30
0
 11
-153.2747409440783
 21
36.39508606533838
 31
0
  0
LINE
  8
1
 62
7
 10
-153.1640110311093
 20
35.84143650049435
 30
0
 11
-153.1640110311093
 21
36.07212381917935
 31
0
  0
LINE
  8
1
 62
7
 10
-153.2747409440783
 20
35.51847425433545
 30
0
 11
-153.1640110311093
 21
35.84143650049435
 31
0
  0
LINE
  8
1
 62
7
 10
-153.4408358135312
 20
35.28778693565056
 30
0
 11
-153.2747409440783
 21
35.51847425433545
 31
0
  0
LINE
  8
1
 62
7
 10
-153.7176605959532
 20
35.05709961696545
 30
0
 11
-153.4408358135312
 21
35.28778693565056
 31
0
  0
LINE
  8
1
 62
7
 10
-154.0498503348592
 20
34.91868722575458
 30
0
 11
-153.7176605959532
 21
35.05709961696545
 31
0
  0
LINE
  8
1
 62
7
 10
-154.4927699867353
 20
34.82641229828056
 30
0
 11
-154.0498503348592
 21
34.91868722575458
 31
0
  0
LINE
  8
1
 62
7
 10
-154.8249597256412
 20
34.82641229828056
 30
0
 11
-154.4927699867353
 21
34.82641229828056
 31
0
  0
LINE
  8
1
 62
7
 10
-155.2678793775162
 20
34.91868722575458
 30
0
 11
-154.8249597256412
 21
34.82641229828056
 31
0
  0
LINE
  8
1
 62
7
 10
-155.6000691164222
 20
35.05709961696545
 30
0
 11
-155.2678793775162
 21
34.91868722575458
 31
0
  0
LINE
  8
1
 62
7
 10
-155.8768938988441
 20
35.28778693565056
 30
0
 11
-155.6000691164222
 21
35.05709961696545
 31
0
  0
LINE
  8
1
 62
7
 10
-156.0429887682971
 20
35.51847425433545
 30
0
 11
-155.8768938988441
 21
35.28778693565056
 31
0
  0
LINE
  8
1
 62
7
 10
-156.1537186812661
 20
35.84143650049435
 30
0
 11
-156.0429887682971
 21
35.51847425433545
 31
0
  0
LINE
  8
1
 62
7
 10
-156.1537186812661
 20
36.07212381917935
 30
0
 11
-156.1537186812661
 21
35.84143650049435
 31
0
  0
LINE
  8
1
 62
7
 10
-155.4893392034541
 20
36.07212381917935
 30
0
 11
-156.1537186812661
 21
36.07212381917935
 31
0
  0
LINE
  8
1
 62
7
 10
-155.4893392034541
 20
35.88757396423154
 30
0
 11
-155.4893392034541
 21
36.07212381917935
 31
0
  0
LINE
  8
1
 62
7
 10
-155.4339742469692
 20
35.70302410928349
 30
0
 11
-155.4893392034541
 21
35.88757396423154
 31
0
  0
LINE
  8
1
 62
7
 10
-155.2678793775162
 20
35.51847425433545
 30
0
 11
-155.4339742469692
 21
35.70302410928349
 31
0
  0
LINE
  8
1
 62
7
 10
-155.0464195515783
 20
35.38006186312458
 30
0
 11
-155.2678793775162
 21
35.51847425433545
 31
0
  0
LINE
  8
1
 62
7
 10
-154.7695947691572
 20
35.33392439938763
 30
0
 11
-155.0464195515783
 21
35.38006186312458
 31
0
  0
LINE
  8
1
 62
7
 10
-154.5481349432202
 20
35.33392439938763
 30
0
 11
-154.7695947691572
 21
35.33392439938763
 31
0
  0
LINE
  8
1
 62
7
 10
-154.2713101607971
 20
35.38006186312458
 30
0
 11
-154.5481349432202
 21
35.33392439938763
 31
0
  0
LINE
  8
1
 62
7
 10
-154.0498503348592
 20
35.51847425433545
 30
0
 11
-154.2713101607971
 21
35.38006186312458
 31
0
  0
LINE
  8
1
 62
7
 10
-153.8837554654062
 20
35.70302410928349
 30
0
 11
-154.0498503348592
 21
35.51847425433545
 31
0
  0
LINE
  8
1
 62
7
 10
-153.8283905089222
 20
35.88757396423154
 30
0
 11
-153.8837554654062
 21
35.70302410928349
 31
0
  0
LINE
  8
1
 62
7
 10
-153.8283905089222
 20
36.07212381917935
 30
0
 11
-153.8283905089222
 21
35.88757396423154
 31
0
  0
LINE
  8
1
 62
7
 10
-153.8837554654062
 20
36.2566736741274
 30
0
 11
-153.8283905089222
 21
36.07212381917935
 31
0
  0
LINE
  8
1
 62
7
 10
-154.0498503348592
 20
36.44122352907544
 30
0
 11
-153.8837554654062
 21
36.2566736741274
 31
0
  0
LINE
  8
1
 62
7
 10
-154.2713101607971
 20
36.57963592028631
 30
0
 11
-154.0498503348592
 21
36.44122352907544
 31
0
  0
LINE
  8
1
 62
7
 10
-154.5481349432202
 20
36.62577338402338
 30
0
 11
-154.2713101607971
 21
36.57963592028631
 31
0
  0
LINE
  8
1
 62
7
 10
-154.7695947691572
 20
36.62577338402338
 30
0
 11
-154.5481349432202
 21
36.62577338402338
 31
0
  0
LINE
  8
1
 62
7
 10
-159.8166935093522
 20
34.82641229828056
 30
0
 11
-162.7510362030252
 21
34.82641229828056
 31
0
  0
LINE
  8
1
 62
7
 10
-159.8166935093522
 20
35.28778693565056
 30
0
 11
-159.8166935093522
 21
34.82641229828056
 31
0
  0
LINE
  8
1
 62
7
 10
-161.9759268122443
 20
35.28778693565056
 30
0
 11
-159.8166935093522
 21
35.28778693565056
 31
0
  0
LINE
  8
1
 62
7
 10
-161.8651968992742
 20
35.56461171807263
 30
0
 11
-161.9759268122443
 21
35.28778693565056
 31
0
  0
LINE
  8
1
 62
7
 10
-161.5883721168522
 20
35.88757396423154
 30
0
 11
-161.8651968992742
 21
35.56461171807263
 31
0
  0
LINE
  8
1
 62
7
 10
-161.2008174214611
 20
36.2566736741274
 30
0
 11
-161.5883721168522
 21
35.88757396423154
 31
0
  0
LINE
  8
1
 62
7
 10
-160.8132627260713
 20
36.53349845654935
 30
0
 11
-161.2008174214611
 21
36.2566736741274
 31
0
  0
LINE
  8
1
 62
7
 10
-160.3703430741952
 20
36.85646070270838
 30
0
 11
-160.8132627260713
 21
36.53349845654935
 31
0
  0
LINE
  8
1
 62
7
 10
-160.2596131612272
 20
36.9487356301824
 30
0
 11
-160.3703430741952
 21
36.85646070270838
 31
0
  0
LINE
  8
1
 62
7
 10
-160.0381533352892
 20
37.22556041260424
 30
0
 11
-160.2596131612272
 21
36.9487356301824
 31
0
  0
LINE
  8
1
 62
7
 10
-159.9827883788043
 20
37.45624773128935
 30
0
 11
-160.0381533352892
 21
37.22556041260424
 31
0
  0
LINE
  8
1
 62
7
 10
-159.9827883788043
 20
37.64079758623728
 30
0
 11
-159.9827883788043
 21
37.45624773128935
 31
0
  0
LINE
  8
1
 62
7
 10
-160.0381533352892
 20
37.87148490492228
 30
0
 11
-159.9827883788043
 21
37.64079758623728
 31
0
  0
LINE
  8
1
 62
7
 10
-160.2596131612272
 20
38.14830968734424
 30
0
 11
-160.0381533352892
 21
37.87148490492228
 31
0
  0
LINE
  8
1
 62
7
 10
-160.4810729871642
 20
38.33285954229206
 30
0
 11
-160.2596131612272
 21
38.14830968734424
 31
0
  0
LINE
  8
1
 62
7
 10
-160.8132627260713
 20
38.47127193350303
 30
0
 11
-160.4810729871642
 21
38.33285954229206
 31
0
  0
LINE
  8
1
 62
7
 10
-161.0900875084921
 20
38.5174093972401
 30
0
 11
-160.8132627260713
 21
38.47127193350303
 31
0
  0
LINE
  8
1
 62
7
 10
-161.4222772473992
 20
38.5174093972401
 30
0
 11
-161.0900875084921
 21
38.5174093972401
 31
0
  0
LINE
  8
1
 62
7
 10
-161.6991020298212
 20
38.47127193350303
 30
0
 11
-161.4222772473992
 21
38.5174093972401
 31
0
  0
LINE
  8
1
 62
7
 10
-162.0312917687272
 20
38.33285954229206
 30
0
 11
-161.6991020298212
 21
38.47127193350303
 31
0
  0
LINE
  8
1
 62
7
 10
-162.2527515946651
 20
38.14830968734424
 30
0
 11
-162.0312917687272
 21
38.33285954229206
 31
0
  0
LINE
  8
1
 62
7
 10
-162.4742114206021
 20
37.87148490492228
 30
0
 11
-162.2527515946651
 21
38.14830968734424
 31
0
  0
LINE
  8
1
 62
7
 10
-162.5295763770873
 20
37.64079758623728
 30
0
 11
-162.4742114206021
 21
37.87148490492228
 31
0
  0
LINE
  8
1
 62
7
 10
-162.5295763770873
 20
37.45624773128935
 30
0
 11
-162.5295763770873
 21
37.64079758623728
 31
0
  0
LINE
  8
1
 62
7
 10
-161.9205618557582
 20
37.45624773128935
 30
0
 11
-162.5295763770873
 21
37.45624773128935
 31
0
  0
LINE
  8
1
 62
7
 10
-161.9205618557582
 20
37.64079758623728
 30
0
 11
-161.9205618557582
 21
37.45624773128935
 31
0
  0
LINE
  8
1
 62
7
 10
-161.8651968992742
 20
37.77920997744815
 30
0
 11
-161.9205618557582
 21
37.64079758623728
 31
0
  0
LINE
  8
1
 62
7
 10
-161.7544669863052
 20
37.91762236865935
 30
0
 11
-161.8651968992742
 21
37.77920997744815
 31
0
  0
LINE
  8
1
 62
7
 10
-161.5883721168522
 20
38.00989729613303
 30
0
 11
-161.7544669863052
 21
37.91762236865935
 31
0
  0
LINE
  8
1
 62
7
 10
-161.3669122909143
 20
38.05603475987033
 30
0
 11
-161.5883721168522
 21
38.00989729613303
 31
0
  0
LINE
  8
1
 62
7
 10
-161.1454524649773
 20
38.05603475987033
 30
0
 11
-161.3669122909143
 21
38.05603475987033
 31
0
  0
LINE
  8
1
 62
7
 10
-160.9239926390391
 20
38.00989729613303
 30
0
 11
-161.1454524649773
 21
38.05603475987033
 31
0
  0
LINE
  8
1
 62
7
 10
-160.7578977695861
 20
37.91762236865935
 30
0
 11
-160.9239926390391
 21
38.00989729613303
 31
0
  0
LINE
  8
1
 62
7
 10
-160.6471678566172
 20
37.77920997744815
 30
0
 11
-160.7578977695861
 21
37.91762236865935
 31
0
  0
LINE
  8
1
 62
7
 10
-160.5918029001331
 20
37.64079758623728
 30
0
 11
-160.6471678566172
 21
37.77920997744815
 31
0
  0
LINE
  8
1
 62
7
 10
-160.5918029001331
 20
37.45624773128935
 30
0
 11
-160.5918029001331
 21
37.64079758623728
 31
0
  0
LINE
  8
1
 62
7
 10
-160.6471678566172
 20
37.31783534007815
 30
0
 11
-160.5918029001331
 21
37.45624773128935
 31
0
  0
LINE
  8
1
 62
7
 10
-160.7578977695861
 20
37.1794229488674
 30
0
 11
-160.6471678566172
 21
37.31783534007815
 31
0
  0
LINE
  8
1
 62
7
 10
-161.1454524649773
 20
36.85646070270838
 30
0
 11
-160.7578977695861
 21
37.1794229488674
 31
0
  0
LINE
  8
1
 62
7
 10
-161.4776422038833
 20
36.57963592028631
 30
0
 11
-161.1454524649773
 21
36.85646070270838
 31
0
  0
LINE
  8
1
 62
7
 10
-161.8098319427892
 20
36.34894860160154
 30
0
 11
-161.4776422038833
 21
36.57963592028631
 31
0
  0
LINE
  8
1
 62
7
 10
-162.1420216816961
 20
36.0259863554424
 30
0
 11
-161.8098319427892
 21
36.34894860160154
 31
0
  0
LINE
  8
1
 62
7
 10
-162.4188464641192
 20
35.74916157302056
 30
0
 11
-162.1420216816961
 21
36.0259863554424
 31
0
  0
LINE
  8
1
 62
7
 10
-162.6403062900562
 20
35.42619932686154
 30
0
 11
-162.4188464641192
 21
35.74916157302056
 31
0
  0
LINE
  8
1
 62
7
 10
-162.7510362030252
 20
35.10323708070263
 30
0
 11
-162.6403062900562
 21
35.42619932686154
 31
0
  0
LINE
  8
1
 62
7
 10
-162.7510362030252
 20
34.82641229828056
 30
0
 11
-162.7510362030252
 21
35.10323708070263
 31
0
  0
LINE
  8
1
 62
7
 10
-197.7874708172041
 20
34.96482468949154
 30
0
 11
-197.6213759477523
 21
35.05709961696545
 31
0
  0
LINE
  8
1
 62
7
 10
-198.0642955996272
 20
34.87254976201763
 30
0
 11
-197.7874708172041
 21
34.96482468949154
 31
0
  0
LINE
  8
1
 62
7
 10
-198.2857554255642
 20
34.82641229828056
 30
0
 11
-198.0642955996272
 21
34.87254976201763
 31
0
  0
LINE
  8
1
 62
7
 10
-198.6733101209542
 20
34.82641229828056
 30
0
 11
-198.2857554255642
 21
34.82641229828056
 31
0
  0
LINE
  8
1
 62
7
 10
-198.8947699468922
 20
34.87254976201763
 30
0
 11
-198.6733101209542
 21
34.82641229828056
 31
0
  0
LINE
  8
1
 62
7
 10
-199.1715947293141
 20
34.96482468949154
 30
0
 11
-198.8947699468922
 21
34.87254976201763
 31
0
  0
LINE
  8
1
 62
7
 10
-199.3376895987671
 20
35.05709961696545
 30
0
 11
-199.1715947293141
 21
34.96482468949154
 31
0
  0
LINE
  8
1
 62
7
 10
-199.5037844682201
 20
35.19551200817665
 30
0
 11
-199.3376895987671
 21
35.05709961696545
 31
0
  0
LINE
  8
1
 62
7
 10
-199.6698793376731
 20
35.38006186312458
 30
0
 11
-199.5037844682201
 21
35.19551200817665
 31
0
  0
LINE
  8
1
 62
7
 10
-199.7806092506423
 20
35.56461171807263
 30
0
 11
-199.6698793376731
 21
35.38006186312458
 31
0
  0
LINE
  8
1
 62
7
 10
-199.8913391636112
 20
35.7952990367574
 30
0
 11
-199.7806092506423
 21
35.56461171807263
 31
0
  0
LINE
  8
1
 62
7
 10
-199.9467041200953
 20
36.07212381917935
 30
0
 11
-199.8913391636112
 21
35.7952990367574
 31
0
  0
LINE
  8
1
 62
7
 10
-200.0020690765791
 20
36.4873609928124
 30
0
 11
-199.9467041200953
 21
36.07212381917935
 31
0
  0
LINE
  8
1
 62
7
 10
-200.0020690765791
 20
36.85646070270838
 30
0
 11
-200.0020690765791
 21
36.4873609928124
 31
0
  0
LINE
  8
1
 62
7
 10
-199.9467041200953
 20
37.27169787634131
 30
0
 11
-200.0020690765791
 21
36.85646070270838
 31
0
  0
LINE
  8
1
 62
7
 10
-199.8913391636112
 20
37.54852265876303
 30
0
 11
-199.9467041200953
 21
37.27169787634131
 31
0
  0
LINE
  8
1
 62
7
 10
-199.7806092506423
 20
37.77920997744815
 30
0
 11
-199.8913391636112
 21
37.54852265876303
 31
0
  0
LINE
  8
1
 62
7
 10
-199.6698793376731
 20
37.96375983239619
 30
0
 11
-199.7806092506423
 21
37.77920997744815
 31
0
  0
LINE
  8
1
 62
7
 10
-199.5037844682201
 20
38.14830968734424
 30
0
 11
-199.6698793376731
 21
37.96375983239619
 31
0
  0
LINE
  8
1
 62
7
 10
-199.3376895987671
 20
38.2867220785551
 30
0
 11
-199.5037844682201
 21
38.14830968734424
 31
0
  0
LINE
  8
1
 62
7
 10
-199.1715947293141
 20
38.37899700602924
 30
0
 11
-199.3376895987671
 21
38.2867220785551
 31
0
  0
LINE
  8
1
 62
7
 10
-198.8947699468922
 20
38.47127193350303
 30
0
 11
-199.1715947293141
 21
38.37899700602924
 31
0
  0
LINE
  8
1
 62
7
 10
-198.6733101209542
 20
38.5174093972401
 30
0
 11
-198.8947699468922
 21
38.47127193350303
 31
0
  0
LINE
  8
1
 62
7
 10
-198.2857554255642
 20
38.5174093972401
 30
0
 11
-198.6733101209542
 21
38.5174093972401
 31
0
  0
LINE
  8
1
 62
7
 10
-198.0642955996272
 20
38.47127193350303
 30
0
 11
-198.2857554255642
 21
38.5174093972401
 31
0
  0
LINE
  8
1
 62
7
 10
-197.7874708172041
 20
38.37899700602924
 30
0
 11
-198.0642955996272
 21
38.47127193350303
 31
0
  0
LINE
  8
1
 62
7
 10
-197.6213759477523
 20
38.2867220785551
 30
0
 11
-197.7874708172041
 21
38.37899700602924
 31
0
  0
LINE
  8
1
 62
7
 10
-197.4552810782981
 20
38.14830968734424
 30
0
 11
-197.6213759477523
 21
38.2867220785551
 31
0
  0
LINE
  8
1
 62
7
 10
-197.2891862088442
 20
37.96375983239619
 30
0
 11
-197.4552810782981
 21
38.14830968734424
 31
0
  0
LINE
  8
1
 62
7
 10
-197.1784562958753
 20
37.77920997744815
 30
0
 11
-197.2891862088442
 21
37.96375983239619
 31
0
  0
LINE
  8
1
 62
7
 10
-197.0677263829072
 20
37.54852265876303
 30
0
 11
-197.1784562958753
 21
37.77920997744815
 31
0
  0
LINE
  8
1
 62
7
 10
-197.0123614264223
 20
37.27169787634131
 30
0
 11
-197.0677263829072
 21
37.54852265876303
 31
0
  0
LINE
  8
1
 62
7
 10
-196.9569964699383
 20
36.85646070270838
 30
0
 11
-197.0123614264223
 21
37.27169787634131
 31
0
  0
LINE
  8
1
 62
7
 10
-196.9569964699383
 20
36.4873609928124
 30
0
 11
-196.9569964699383
 21
36.85646070270838
 31
0
  0
LINE
  8
1
 62
7
 10
-197.0123614264223
 20
36.07212381917935
 30
0
 11
-196.9569964699383
 21
36.4873609928124
 31
0
  0
LINE
  8
1
 62
7
 10
-197.0677263829072
 20
35.7952990367574
 30
0
 11
-197.0123614264223
 21
36.07212381917935
 31
0
  0
LINE
  8
1
 62
7
 10
-197.1784562958753
 20
35.56461171807263
 30
0
 11
-197.0677263829072
 21
35.7952990367574
 31
0
  0
LINE
  8
1
 62
7
 10
-197.2891862088442
 20
35.38006186312458
 30
0
 11
-197.1784562958753
 21
35.56461171807263
 31
0
  0
LINE
  8
1
 62
7
 10
-197.4552810782981
 20
35.19551200817665
 30
0
 11
-197.2891862088442
 21
35.38006186312458
 31
0
  0
LINE
  8
1
 62
7
 10
-197.6213759477523
 20
35.05709961696545
 30
0
 11
-197.4552810782981
 21
35.19551200817665
 31
0
  0
LINE
  8
1
 62
7
 10
-198.8947699468922
 20
35.38006186312458
 30
0
 11
-198.6733101209542
 21
35.28778693565056
 31
0
  0
LINE
  8
1
 62
7
 10
-199.1162297728292
 20
35.51847425433545
 30
0
 11
-198.8947699468922
 21
35.38006186312458
 31
0
  0
LINE
  8
1
 62
7
 10
-199.2269596857981
 20
35.65688664554654
 30
0
 11
-199.1162297728292
 21
35.51847425433545
 31
0
  0
LINE
  8
1
 62
7
 10
-199.3376895987671
 20
35.88757396423154
 30
0
 11
-199.2269596857981
 21
35.65688664554654
 31
0
  0
LINE
  8
1
 62
7
 10
-199.3930545552511
 20
36.39508606533838
 30
0
 11
-199.3376895987671
 21
35.88757396423154
 31
0
  0
LINE
  8
1
 62
7
 10
-199.3930545552511
 20
36.9487356301824
 30
0
 11
-199.3930545552511
 21
36.39508606533838
 31
0
  0
LINE
  8
1
 62
7
 10
-199.3376895987671
 20
37.45624773128935
 30
0
 11
-199.3930545552511
 21
36.9487356301824
 31
0
  0
LINE
  8
1
 62
7
 10
-199.2269596857981
 20
37.68693504997424
 30
0
 11
-199.3376895987671
 21
37.45624773128935
 31
0
  0
LINE
  8
1
 62
7
 10
-199.1162297728292
 20
37.82534744118533
 30
0
 11
-199.2269596857981
 21
37.68693504997424
 31
0
  0
LINE
  8
1
 62
7
 10
-198.8947699468922
 20
37.96375983239619
 30
0
 11
-199.1162297728292
 21
37.82534744118533
 31
0
  0
LINE
  8
1
 62
7
 10
-198.6733101209542
 20
38.05603475987033
 30
0
 11
-198.8947699468922
 21
37.96375983239619
 31
0
  0
LINE
  8
1
 62
7
 10
-198.2857554255642
 20
38.05603475987033
 30
0
 11
-198.6733101209542
 21
38.05603475987033
 31
0
  0
LINE
  8
1
 62
7
 10
-198.0642955996272
 20
37.96375983239619
 30
0
 11
-198.2857554255642
 21
38.05603475987033
 31
0
  0
LINE
  8
1
 62
7
 10
-197.8428357736893
 20
37.82534744118533
 30
0
 11
-198.0642955996272
 21
37.96375983239619
 31
0
  0
LINE
  8
1
 62
7
 10
-197.7321058607192
 20
37.68693504997424
 30
0
 11
-197.8428357736893
 21
37.82534744118533
 31
0
  0
LINE
  8
1
 62
7
 10
-197.6213759477523
 20
37.45624773128935
 30
0
 11
-197.7321058607192
 21
37.68693504997424
 31
0
  0
LINE
  8
1
 62
7
 10
-197.5660109912662
 20
36.9487356301824
 30
0
 11
-197.6213759477523
 21
37.45624773128935
 31
0
  0
LINE
  8
1
 62
7
 10
-197.5660109912662
 20
36.39508606533838
 30
0
 11
-197.5660109912662
 21
36.9487356301824
 31
0
  0
LINE
  8
1
 62
7
 10
-197.6213759477523
 20
35.88757396423154
 30
0
 11
-197.5660109912662
 21
36.39508606533838
 31
0
  0
LINE
  8
1
 62
7
 10
-197.7321058607192
 20
35.65688664554654
 30
0
 11
-197.6213759477523
 21
35.88757396423154
 31
0
  0
LINE
  8
1
 62
7
 10
-197.8428357736893
 20
35.51847425433545
 30
0
 11
-197.7321058607192
 21
35.65688664554654
 31
0
  0
LINE
  8
1
 62
7
 10
-198.0642955996272
 20
35.38006186312458
 30
0
 11
-197.8428357736893
 21
35.51847425433545
 31
0
  0
LINE
  8
1
 62
7
 10
-198.2857554255642
 20
35.28778693565056
 30
0
 11
-198.0642955996272
 21
35.38006186312458
 31
0
  0
LINE
  8
1
 62
7
 10
-198.6733101209542
 20
35.28778693565056
 30
0
 11
-198.2857554255642
 21
35.28778693565056
 31
0
  0
LINE
  8
1
 62
7
 10
-191.1624708172032
 20
34.96482468949154
 30
0
 11
-190.9963759477502
 21
35.05709961696545
 31
0
  0
LINE
  8
1
 62
7
 10
-191.4392955996261
 20
34.87254976201763
 30
0
 11
-191.1624708172032
 21
34.96482468949154
 31
0
  0
LINE
  8
1
 62
7
 10
-191.6607554255642
 20
34.82641229828056
 30
0
 11
-191.4392955996261
 21
34.87254976201763
 31
0
  0
LINE
  8
1
 62
7
 10
-192.0483101209542
 20
34.82641229828056
 30
0
 11
-191.6607554255642
 21
34.82641229828056
 31
0
  0
LINE
  8
1
 62
7
 10
-192.2697699468912
 20
34.87254976201763
 30
0
 11
-192.0483101209542
 21
34.82641229828056
 31
0
  0
LINE
  8
1
 62
7
 10
-192.5465947293132
 20
34.96482468949154
 30
0
 11
-192.2697699468912
 21
34.87254976201763
 31
0
  0
LINE
  8
1
 62
7
 10
-192.7126895987662
 20
35.05709961696545
 30
0
 11
-192.5465947293132
 21
34.96482468949154
 31
0
  0
LINE
  8
1
 62
7
 10
-192.8787844682201
 20
35.19551200817665
 30
0
 11
-192.7126895987662
 21
35.05709961696545
 31
0
  0
LINE
  8
1
 62
7
 10
-193.0448793376731
 20
35.38006186312458
 30
0
 11
-192.8787844682201
 21
35.19551200817665
 31
0
  0
LINE
  8
1
 62
7
 10
-193.1556092506411
 20
35.56461171807263
 30
0
 11
-193.0448793376731
 21
35.38006186312458
 31
0
  0
LINE
  8
1
 62
7
 10
-193.2663391636101
 20
35.7952990367574
 30
0
 11
-193.1556092506411
 21
35.56461171807263
 31
0
  0
LINE
  8
1
 62
7
 10
-193.3217041200953
 20
36.07212381917935
 30
0
 11
-193.2663391636101
 21
35.7952990367574
 31
0
  0
LINE
  8
1
 62
7
 10
-193.3770690765791
 20
36.4873609928124
 30
0
 11
-193.3217041200953
 21
36.07212381917935
 31
0
  0
LINE
  8
1
 62
7
 10
-193.3770690765791
 20
36.85646070270838
 30
0
 11
-193.3770690765791
 21
36.4873609928124
 31
0
  0
LINE
  8
1
 62
7
 10
-193.3217041200953
 20
37.27169787634131
 30
0
 11
-193.3770690765791
 21
36.85646070270838
 31
0
  0
LINE
  8
1
 62
7
 10
-193.2663391636101
 20
37.54852265876303
 30
0
 11
-193.3217041200953
 21
37.27169787634131
 31
0
  0
LINE
  8
1
 62
7
 10
-193.1556092506411
 20
37.77920997744815
 30
0
 11
-193.2663391636101
 21
37.54852265876303
 31
0
  0
LINE
  8
1
 62
7
 10
-193.0448793376731
 20
37.96375983239619
 30
0
 11
-193.1556092506411
 21
37.77920997744815
 31
0
  0
LINE
  8
1
 62
7
 10
-192.8787844682201
 20
38.14830968734424
 30
0
 11
-193.0448793376731
 21
37.96375983239619
 31
0
  0
LINE
  8
1
 62
7
 10
-192.7126895987662
 20
38.2867220785551
 30
0
 11
-192.8787844682201
 21
38.14830968734424
 31
0
  0
LINE
  8
1
 62
7
 10
-192.5465947293132
 20
38.37899700602924
 30
0
 11
-192.7126895987662
 21
38.2867220785551
 31
0
  0
LINE
  8
1
 62
7
 10
-192.2697699468912
 20
38.47127193350303
 30
0
 11
-192.5465947293132
 21
38.37899700602924
 31
0
  0
LINE
  8
1
 62
7
 10
-192.0483101209542
 20
38.5174093972401
 30
0
 11
-192.2697699468912
 21
38.47127193350303
 31
0
  0
LINE
  8
1
 62
7
 10
-191.6607554255642
 20
38.5174093972401
 30
0
 11
-192.0483101209542
 21
38.5174093972401
 31
0
  0
LINE
  8
1
 62
7
 10
-191.4392955996261
 20
38.47127193350303
 30
0
 11
-191.6607554255642
 21
38.5174093972401
 31
0
  0
LINE
  8
1
 62
7
 10
-191.1624708172032
 20
38.37899700602924
 30
0
 11
-191.4392955996261
 21
38.47127193350303
 31
0
  0
LINE
  8
1
 62
7
 10
-190.9963759477502
 20
38.2867220785551
 30
0
 11
-191.1624708172032
 21
38.37899700602924
 31
0
  0
LINE
  8
1
 62
7
 10
-190.8302810782972
 20
38.14830968734424
 30
0
 11
-190.9963759477502
 21
38.2867220785551
 31
0
  0
LINE
  8
1
 62
7
 10
-190.6641862088442
 20
37.96375983239619
 30
0
 11
-190.8302810782972
 21
38.14830968734424
 31
0
  0
LINE
  8
1
 62
7
 10
-190.5534562958753
 20
37.77920997744815
 30
0
 11
-190.6641862088442
 21
37.96375983239619
 31
0
  0
LINE
  8
1
 62
7
 10
-190.4427263829061
 20
37.54852265876303
 30
0
 11
-190.5534562958753
 21
37.77920997744815
 31
0
  0
LINE
  8
1
 62
7
 10
-190.3873614264223
 20
37.27169787634131
 30
0
 11
-190.4427263829061
 21
37.54852265876303
 31
0
  0
LINE
  8
1
 62
7
 10
-190.3319964699371
 20
36.85646070270838
 30
0
 11
-190.3873614264223
 21
37.27169787634131
 31
0
  0
LINE
  8
1
 62
7
 10
-190.3319964699371
 20
36.4873609928124
 30
0
 11
-190.3319964699371
 21
36.85646070270838
 31
0
  0
LINE
  8
1
 62
7
 10
-190.3873614264223
 20
36.07212381917935
 30
0
 11
-190.3319964699371
 21
36.4873609928124
 31
0
  0
LINE
  8
1
 62
7
 10
-190.4427263829061
 20
35.7952990367574
 30
0
 11
-190.3873614264223
 21
36.07212381917935
 31
0
  0
LINE
  8
1
 62
7
 10
-190.5534562958753
 20
35.56461171807263
 30
0
 11
-190.4427263829061
 21
35.7952990367574
 31
0
  0
LINE
  8
1
 62
7
 10
-190.6641862088442
 20
35.38006186312458
 30
0
 11
-190.5534562958753
 21
35.56461171807263
 31
0
  0
LINE
  8
1
 62
7
 10
-190.8302810782972
 20
35.19551200817665
 30
0
 11
-190.6641862088442
 21
35.38006186312458
 31
0
  0
LINE
  8
1
 62
7
 10
-190.9963759477502
 20
35.05709961696545
 30
0
 11
-190.8302810782972
 21
35.19551200817665
 31
0
  0
LINE
  8
1
 62
7
 10
-192.2697699468912
 20
35.38006186312458
 30
0
 11
-192.0483101209542
 21
35.28778693565056
 31
0
  0
LINE
  8
1
 62
7
 10
-192.4912297728292
 20
35.51847425433545
 30
0
 11
-192.2697699468912
 21
35.38006186312458
 31
0
  0
LINE
  8
1
 62
7
 10
-192.6019596857981
 20
35.65688664554654
 30
0
 11
-192.4912297728292
 21
35.51847425433545
 31
0
  0
LINE
  8
1
 62
7
 10
-192.7126895987662
 20
35.88757396423154
 30
0
 11
-192.6019596857981
 21
35.65688664554654
 31
0
  0
LINE
  8
1
 62
7
 10
-192.7680545552511
 20
36.39508606533838
 30
0
 11
-192.7126895987662
 21
35.88757396423154
 31
0
  0
LINE
  8
1
 62
7
 10
-192.7680545552511
 20
36.9487356301824
 30
0
 11
-192.7680545552511
 21
36.39508606533838
 31
0
  0
LINE
  8
1
 62
7
 10
-192.7126895987662
 20
37.45624773128935
 30
0
 11
-192.7680545552511
 21
36.9487356301824
 31
0
  0
LINE
  8
1
 62
7
 10
-192.6019596857981
 20
37.68693504997424
 30
0
 11
-192.7126895987662
 21
37.45624773128935
 31
0
  0
LINE
  8
1
 62
7
 10
-192.4912297728292
 20
37.82534744118533
 30
0
 11
-192.6019596857981
 21
37.68693504997424
 31
0
  0
LINE
  8
1
 62
7
 10
-192.2697699468912
 20
37.96375983239619
 30
0
 11
-192.4912297728292
 21
37.82534744118533
 31
0
  0
LINE
  8
1
 62
7
 10
-192.0483101209542
 20
38.05603475987033
 30
0
 11
-192.2697699468912
 21
37.96375983239619
 31
0
  0
LINE
  8
1
 62
7
 10
-191.6607554255642
 20
38.05603475987033
 30
0
 11
-192.0483101209542
 21
38.05603475987033
 31
0
  0
LINE
  8
1
 62
7
 10
-191.4392955996261
 20
37.96375983239619
 30
0
 11
-191.6607554255642
 21
38.05603475987033
 31
0
  0
LINE
  8
1
 62
7
 10
-191.2178357736893
 20
37.82534744118533
 30
0
 11
-191.4392955996261
 21
37.96375983239619
 31
0
  0
LINE
  8
1
 62
7
 10
-191.1071058607192
 20
37.68693504997424
 30
0
 11
-191.2178357736893
 21
37.82534744118533
 31
0
  0
LINE
  8
1
 62
7
 10
-190.9963759477502
 20
37.45624773128935
 30
0
 11
-191.1071058607192
 21
37.68693504997424
 31
0
  0
LINE
  8
1
 62
7
 10
-190.9410109912662
 20
36.9487356301824
 30
0
 11
-190.9963759477502
 21
37.45624773128935
 31
0
  0
LINE
  8
1
 62
7
 10
-190.9410109912662
 20
36.39508606533838
 30
0
 11
-190.9410109912662
 21
36.9487356301824
 31
0
  0
LINE
  8
1
 62
7
 10
-190.9963759477502
 20
35.88757396423154
 30
0
 11
-190.9410109912662
 21
36.39508606533838
 31
0
  0
LINE
  8
1
 62
7
 10
-191.1071058607192
 20
35.65688664554654
 30
0
 11
-190.9963759477502
 21
35.88757396423154
 31
0
  0
LINE
  8
1
 62
7
 10
-191.2178357736893
 20
35.51847425433545
 30
0
 11
-191.1071058607192
 21
35.65688664554654
 31
0
  0
LINE
  8
1
 62
7
 10
-191.4392955996261
 20
35.38006186312458
 30
0
 11
-191.2178357736893
 21
35.51847425433545
 31
0
  0
LINE
  8
1
 62
7
 10
-191.6607554255642
 20
35.28778693565056
 30
0
 11
-191.4392955996261
 21
35.38006186312458
 31
0
  0
LINE
  8
1
 62
7
 10
-192.0483101209542
 20
35.28778693565056
 30
0
 11
-191.6607554255642
 21
35.28778693565056
 31
0
  0
LINE
  8
1
 62
7
 10
-184.5374708172032
 20
34.96482468949154
 30
0
 11
-184.3713759477502
 21
35.05709961696545
 31
0
  0
LINE
  8
1
 62
7
 10
-184.8142955996261
 20
34.87254976201763
 30
0
 11
-184.5374708172032
 21
34.96482468949154
 31
0
  0
LINE
  8
1
 62
7
 10
-185.0357554255622
 20
34.82641229828056
 30
0
 11
-184.8142955996261
 21
34.87254976201763
 31
0
  0
LINE
  8
1
 62
7
 10
-185.4233101209531
 20
34.82641229828056
 30
0
 11
-185.0357554255622
 21
34.82641229828056
 31
0
  0
LINE
  8
1
 62
7
 10
-185.6447699468912
 20
34.87254976201763
 30
0
 11
-185.4233101209531
 21
34.82641229828056
 31
0
  0
LINE
  8
1
 62
7
 10
-185.9215947293132
 20
34.96482468949154
 30
0
 11
-185.6447699468912
 21
34.87254976201763
 31
0
  0
LINE
  8
1
 62
7
 10
-186.0876895987662
 20
35.05709961696545
 30
0
 11
-185.9215947293132
 21
34.96482468949154
 31
0
  0
LINE
  8
1
 62
7
 10
-186.2537844682192
 20
35.19551200817665
 30
0
 11
-186.0876895987662
 21
35.05709961696545
 31
0
  0
LINE
  8
1
 62
7
 10
-186.4198793376722
 20
35.38006186312458
 30
0
 11
-186.2537844682192
 21
35.19551200817665
 31
0
  0
LINE
  8
1
 62
7
 10
-186.5306092506411
 20
35.56461171807263
 30
0
 11
-186.4198793376722
 21
35.38006186312458
 31
0
  0
LINE
  8
1
 62
7
 10
-186.6413391636101
 20
35.7952990367574
 30
0
 11
-186.5306092506411
 21
35.56461171807263
 31
0
  0
LINE
  8
1
 62
7
 10
-186.6967041200941
 20
36.07212381917935
 30
0
 11
-186.6413391636101
 21
35.7952990367574
 31
0
  0
LINE
  8
1
 62
7
 10
-186.7520690765791
 20
36.4873609928124
 30
0
 11
-186.6967041200941
 21
36.07212381917935
 31
0
  0
LINE
  8
1
 62
7
 10
-186.7520690765791
 20
36.85646070270838
 30
0
 11
-186.7520690765791
 21
36.4873609928124
 31
0
  0
LINE
  8
1
 62
7
 10
-186.6967041200941
 20
37.27169787634131
 30
0
 11
-186.7520690765791
 21
36.85646070270838
 31
0
  0
LINE
  8
1
 62
7
 10
-186.6413391636101
 20
37.54852265876303
 30
0
 11
-186.6967041200941
 21
37.27169787634131
 31
0
  0
LINE
  8
1
 62
7
 10
-186.5306092506411
 20
37.77920997744815
 30
0
 11
-186.6413391636101
 21
37.54852265876303
 31
0
  0
LINE
  8
1
 62
7
 10
-186.4198793376722
 20
37.96375983239619
 30
0
 11
-186.5306092506411
 21
37.77920997744815
 31
0
  0
LINE
  8
1
 62
7
 10
-186.2537844682192
 20
38.14830968734424
 30
0
 11
-186.4198793376722
 21
37.96375983239619
 31
0
  0
LINE
  8
1
 62
7
 10
-186.0876895987662
 20
38.2867220785551
 30
0
 11
-186.2537844682192
 21
38.14830968734424
 31
0
  0
LINE
  8
1
 62
7
 10
-185.9215947293132
 20
38.37899700602924
 30
0
 11
-186.0876895987662
 21
38.2867220785551
 31
0
  0
LINE
  8
1
 62
7
 10
-185.6447699468912
 20
38.47127193350303
 30
0
 11
-185.9215947293132
 21
38.37899700602924
 31
0
  0
LINE
  8
1
 62
7
 10
-185.4233101209531
 20
38.5174093972401
 30
0
 11
-185.6447699468912
 21
38.47127193350303
 31
0
  0
LINE
  8
1
 62
7
 10
-185.0357554255622
 20
38.5174093972401
 30
0
 11
-185.4233101209531
 21
38.5174093972401
 31
0
  0
LINE
  8
1
 62
7
 10
-184.8142955996261
 20
38.47127193350303
 30
0
 11
-185.0357554255622
 21
38.5174093972401
 31
0
  0
LINE
  8
1
 62
7
 10
-184.5374708172032
 20
38.37899700602924
 30
0
 11
-184.8142955996261
 21
38.47127193350303
 31
0
  0
LINE
  8
1
 62
7
 10
-184.3713759477502
 20
38.2867220785551
 30
0
 11
-184.5374708172032
 21
38.37899700602924
 31
0
  0
LINE
  8
1
 62
7
 10
-184.2052810782972
 20
38.14830968734424
 30
0
 11
-184.3713759477502
 21
38.2867220785551
 31
0
  0
LINE
  8
1
 62
7
 10
-184.0391862088431
 20
37.96375983239619
 30
0
 11
-184.2052810782972
 21
38.14830968734424
 31
0
  0
LINE
  8
1
 62
7
 10
-183.9284562958741
 20
37.77920997744815
 30
0
 11
-184.0391862088431
 21
37.96375983239619
 31
0
  0
LINE
  8
1
 62
7
 10
-183.8177263829061
 20
37.54852265876303
 30
0
 11
-183.9284562958741
 21
37.77920997744815
 31
0
  0
LINE
  8
1
 62
7
 10
-183.7623614264211
 20
37.27169787634131
 30
0
 11
-183.8177263829061
 21
37.54852265876303
 31
0
  0
LINE
  8
1
 62
7
 10
-183.7069964699371
 20
36.85646070270838
 30
0
 11
-183.7623614264211
 21
37.27169787634131
 31
0
  0
LINE
  8
1
 62
7
 10
-183.7069964699371
 20
36.4873609928124
 30
0
 11
-183.7069964699371
 21
36.85646070270838
 31
0
  0
LINE
  8
1
 62
7
 10
-183.7623614264211
 20
36.07212381917935
 30
0
 11
-183.7069964699371
 21
36.4873609928124
 31
0
  0
LINE
  8
1
 62
7
 10
-183.8177263829061
 20
35.7952990367574
 30
0
 11
-183.7623614264211
 21
36.07212381917935
 31
0
  0
LINE
  8
1
 62
7
 10
-183.9284562958741
 20
35.56461171807263
 30
0
 11
-183.8177263829061
 21
35.7952990367574
 31
0
  0
LINE
  8
1
 62
7
 10
-184.0391862088431
 20
35.38006186312458
 30
0
 11
-183.9284562958741
 21
35.56461171807263
 31
0
  0
LINE
  8
1
 62
7
 10
-184.2052810782972
 20
35.19551200817665
 30
0
 11
-184.0391862088431
 21
35.38006186312458
 31
0
  0
LINE
  8
1
 62
7
 10
-184.3713759477502
 20
35.05709961696545
 30
0
 11
-184.2052810782972
 21
35.19551200817665
 31
0
  0
LINE
  8
1
 62
7
 10
-185.6447699468912
 20
35.38006186312458
 30
0
 11
-185.4233101209531
 21
35.28778693565056
 31
0
  0
LINE
  8
1
 62
7
 10
-185.8662297728283
 20
35.51847425433545
 30
0
 11
-185.6447699468912
 21
35.38006186312458
 31
0
  0
LINE
  8
1
 62
7
 10
-185.9769596857972
 20
35.65688664554654
 30
0
 11
-185.8662297728283
 21
35.51847425433545
 31
0
  0
LINE
  8
1
 62
7
 10
-186.0876895987662
 20
35.88757396423154
 30
0
 11
-185.9769596857972
 21
35.65688664554654
 31
0
  0
LINE
  8
1
 62
7
 10
-186.1430545552502
 20
36.39508606533838
 30
0
 11
-186.0876895987662
 21
35.88757396423154
 31
0
  0
LINE
  8
1
 62
7
 10
-186.1430545552502
 20
36.9487356301824
 30
0
 11
-186.1430545552502
 21
36.39508606533838
 31
0
  0
LINE
  8
1
 62
7
 10
-186.0876895987662
 20
37.45624773128935
 30
0
 11
-186.1430545552502
 21
36.9487356301824
 31
0
  0
LINE
  8
1
 62
7
 10
-185.9769596857972
 20
37.68693504997424
 30
0
 11
-186.0876895987662
 21
37.45624773128935
 31
0
  0
LINE
  8
1
 62
7
 10
-185.8662297728283
 20
37.82534744118533
 30
0
 11
-185.9769596857972
 21
37.68693504997424
 31
0
  0
LINE
  8
1
 62
7
 10
-185.6447699468912
 20
37.96375983239619
 30
0
 11
-185.8662297728283
 21
37.82534744118533
 31
0
  0
LINE
  8
1
 62
7
 10
-185.4233101209531
 20
38.05603475987033
 30
0
 11
-185.6447699468912
 21
37.96375983239619
 31
0
  0
LINE
  8
1
 62
7
 10
-185.0357554255622
 20
38.05603475987033
 30
0
 11
-185.4233101209531
 21
38.05603475987033
 31
0
  0
LINE
  8
1
 62
7
 10
-184.8142955996261
 20
37.96375983239619
 30
0
 11
-185.0357554255622
 21
38.05603475987033
 31
0
  0
LINE
  8
1
 62
7
 10
-184.5928357736872
 20
37.82534744118533
 30
0
 11
-184.8142955996261
 21
37.96375983239619
 31
0
  0
LINE
  8
1
 62
7
 10
-184.4821058607183
 20
37.68693504997424
 30
0
 11
-184.5928357736872
 21
37.82534744118533
 31
0
  0
LINE
  8
1
 62
7
 10
-184.3713759477502
 20
37.45624773128935
 30
0
 11
-184.4821058607183
 21
37.68693504997424
 31
0
  0
LINE
  8
1
 62
7
 10
-184.3160109912653
 20
36.9487356301824
 30
0
 11
-184.3713759477502
 21
37.45624773128935
 31
0
  0
LINE
  8
1
 62
7
 10
-184.3160109912653
 20
36.39508606533838
 30
0
 11
-184.3160109912653
 21
36.9487356301824
 31
0
  0
LINE
  8
1
 62
7
 10
-184.3713759477502
 20
35.88757396423154
 30
0
 11
-184.3160109912653
 21
36.39508606533838
 31
0
  0
LINE
  8
1
 62
7
 10
-184.4821058607183
 20
35.65688664554654
 30
0
 11
-184.3713759477502
 21
35.88757396423154
 31
0
  0
LINE
  8
1
 62
7
 10
-184.5928357736872
 20
35.51847425433545
 30
0
 11
-184.4821058607183
 21
35.65688664554654
 31
0
  0
LINE
  8
1
 62
7
 10
-184.8142955996261
 20
35.38006186312458
 30
0
 11
-184.5928357736872
 21
35.51847425433545
 31
0
  0
LINE
  8
1
 62
7
 10
-185.0357554255622
 20
35.28778693565056
 30
0
 11
-184.8142955996261
 21
35.38006186312458
 31
0
  0
LINE
  8
1
 62
7
 10
-185.4233101209531
 20
35.28778693565056
 30
0
 11
-185.0357554255622
 21
35.28778693565056
 31
0
  0
LINE
  8
1
 62
7
 10
-177.9124708172021
 20
34.96482468949154
 30
0
 11
-177.7463759477491
 21
35.05709961696545
 31
0
  0
LINE
  8
1
 62
7
 10
-178.1892955996242
 20
34.87254976201763
 30
0
 11
-177.9124708172021
 21
34.96482468949154
 31
0
  0
LINE
  8
1
 62
7
 10
-178.4107554255622
 20
34.82641229828056
 30
0
 11
-178.1892955996242
 21
34.87254976201763
 31
0
  0
LINE
  8
1
 62
7
 10
-178.7983101209531
 20
34.82641229828056
 30
0
 11
-178.4107554255622
 21
34.82641229828056
 31
0
  0
LINE
  8
1
 62
7
 10
-179.0197699468901
 20
34.87254976201763
 30
0
 11
-178.7983101209531
 21
34.82641229828056
 31
0
  0
LINE
  8
1
 62
7
 10
-179.2965947293132
 20
34.96482468949154
 30
0
 11
-179.0197699468901
 21
34.87254976201763
 31
0
  0
LINE
  8
1
 62
7
 10
-179.4626895987653
 20
35.05709961696545
 30
0
 11
-179.2965947293132
 21
34.96482468949154
 31
0
  0
LINE
  8
1
 62
7
 10
-179.6287844682192
 20
35.19551200817665
 30
0
 11
-179.4626895987653
 21
35.05709961696545
 31
0
  0
LINE
  8
1
 62
7
 10
-179.7948793376722
 20
35.38006186312458
 30
0
 11
-179.6287844682192
 21
35.19551200817665
 31
0
  0
LINE
  8
1
 62
7
 10
-179.9056092506411
 20
35.56461171807263
 30
0
 11
-179.7948793376722
 21
35.38006186312458
 31
0
  0
LINE
  8
1
 62
7
 10
-180.0163391636092
 20
35.7952990367574
 30
0
 11
-179.9056092506411
 21
35.56461171807263
 31
0
  0
LINE
  8
1
 62
7
 10
-180.0717041200941
 20
36.07212381917935
 30
0
 11
-180.0163391636092
 21
35.7952990367574
 31
0
  0
LINE
  8
1
 62
7
 10
-180.1270690765782
 20
36.4873609928124
 30
0
 11
-180.0717041200941
 21
36.07212381917935
 31
0
  0
LINE
  8
1
 62
7
 10
-180.1270690765782
 20
36.85646070270838
 30
0
 11
-180.1270690765782
 21
36.4873609928124
 31
0
  0
LINE
  8
1
 62
7
 10
-180.0717041200941
 20
37.27169787634131
 30
0
 11
-180.1270690765782
 21
36.85646070270838
 31
0
  0
LINE
  8
1
 62
7
 10
-180.0163391636092
 20
37.54852265876303
 30
0
 11
-180.0717041200941
 21
37.27169787634131
 31
0
  0
LINE
  8
1
 62
7
 10
-179.9056092506411
 20
37.77920997744815
 30
0
 11
-180.0163391636092
 21
37.54852265876303
 31
0
  0
LINE
  8
1
 62
7
 10
-179.7948793376722
 20
37.96375983239619
 30
0
 11
-179.9056092506411
 21
37.77920997744815
 31
0
  0
LINE
  8
1
 62
7
 10
-179.6287844682192
 20
38.14830968734424
 30
0
 11
-179.7948793376722
 21
37.96375983239619
 31
0
  0
LINE
  8
1
 62
7
 10
-179.4626895987653
 20
38.2867220785551
 30
0
 11
-179.6287844682192
 21
38.14830968734424
 31
0
  0
LINE
  8
1
 62
7
 10
-179.2965947293132
 20
38.37899700602924
 30
0
 11
-179.4626895987653
 21
38.2867220785551
 31
0
  0
LINE
  8
1
 62
7
 10
-179.0197699468901
 20
38.47127193350303
 30
0
 11
-179.2965947293132
 21
38.37899700602924
 31
0
  0
LINE
  8
1
 62
7
 10
-178.7983101209531
 20
38.5174093972401
 30
0
 11
-179.0197699468901
 21
38.47127193350303
 31
0
  0
LINE
  8
1
 62
7
 10
-178.4107554255622
 20
38.5174093972401
 30
0
 11
-178.7983101209531
 21
38.5174093972401
 31
0
  0
LINE
  8
1
 62
7
 10
-178.1892955996242
 20
38.47127193350303
 30
0
 11
-178.4107554255622
 21
38.5174093972401
 31
0
  0
LINE
  8
1
 62
7
 10
-177.9124708172021
 20
38.37899700602924
 30
0
 11
-178.1892955996242
 21
38.47127193350303
 31
0
  0
LINE
  8
1
 62
7
 10
-177.7463759477491
 20
38.2867220785551
 30
0
 11
-177.9124708172021
 21
38.37899700602924
 31
0
  0
LINE
  8
1
 62
7
 10
-177.5802810782961
 20
38.14830968734424
 30
0
 11
-177.7463759477491
 21
38.2867220785551
 31
0
  0
LINE
  8
1
 62
7
 10
-177.4141862088431
 20
37.96375983239619
 30
0
 11
-177.5802810782961
 21
38.14830968734424
 31
0
  0
LINE
  8
1
 62
7
 10
-177.3034562958741
 20
37.77920997744815
 30
0
 11
-177.4141862088431
 21
37.96375983239619
 31
0
  0
LINE
  8
1
 62
7
 10
-177.1927263829052
 20
37.54852265876303
 30
0
 11
-177.3034562958741
 21
37.77920997744815
 31
0
  0
LINE
  8
1
 62
7
 10
-177.1373614264211
 20
37.27169787634131
 30
0
 11
-177.1927263829052
 21
37.54852265876303
 31
0
  0
LINE
  8
1
 62
7
 10
-177.0819964699371
 20
36.85646070270838
 30
0
 11
-177.1373614264211
 21
37.27169787634131
 31
0
  0
LINE
  8
1
 62
7
 10
-177.0819964699371
 20
36.4873609928124
 30
0
 11
-177.0819964699371
 21
36.85646070270838
 31
0
  0
LINE
  8
1
 62
7
 10
-177.1373614264211
 20
36.07212381917935
 30
0
 11
-177.0819964699371
 21
36.4873609928124
 31
0
  0
LINE
  8
1
 62
7
 10
-177.1927263829052
 20
35.7952990367574
 30
0
 11
-177.1373614264211
 21
36.07212381917935
 31
0
  0
LINE
  8
1
 62
7
 10
-177.3034562958741
 20
35.56461171807263
 30
0
 11
-177.1927263829052
 21
35.7952990367574
 31
0
  0
LINE
  8
1
 62
7
 10
-177.4141862088431
 20
35.38006186312458
 30
0
 11
-177.3034562958741
 21
35.56461171807263
 31
0
  0
LINE
  8
1
 62
7
 10
-177.5802810782961
 20
35.19551200817665
 30
0
 11
-177.4141862088431
 21
35.38006186312458
 31
0
  0
LINE
  8
1
 62
7
 10
-177.7463759477491
 20
35.05709961696545
 30
0
 11
-177.5802810782961
 21
35.19551200817665
 31
0
  0
LINE
  8
1
 62
7
 10
-179.0197699468901
 20
35.38006186312458
 30
0
 11
-178.7983101209531
 21
35.28778693565056
 31
0
  0
LINE
  8
1
 62
7
 10
-179.2412297728283
 20
35.51847425433545
 30
0
 11
-179.0197699468901
 21
35.38006186312458
 31
0
  0
LINE
  8
1
 62
7
 10
-179.3519596857972
 20
35.65688664554654
 30
0
 11
-179.2412297728283
 21
35.51847425433545
 31
0
  0
LINE
  8
1
 62
7
 10
-179.4626895987653
 20
35.88757396423154
 30
0
 11
-179.3519596857972
 21
35.65688664554654
 31
0
  0
LINE
  8
1
 62
7
 10
-179.5180545552502
 20
36.39508606533838
 30
0
 11
-179.4626895987653
 21
35.88757396423154
 31
0
  0
LINE
  8
1
 62
7
 10
-179.5180545552502
 20
36.9487356301824
 30
0
 11
-179.5180545552502
 21
36.39508606533838
 31
0
  0
LINE
  8
1
 62
7
 10
-179.4626895987653
 20
37.45624773128935
 30
0
 11
-179.5180545552502
 21
36.9487356301824
 31
0
  0
LINE
  8
1
 62
7
 10
-179.3519596857972
 20
37.68693504997424
 30
0
 11
-179.4626895987653
 21
37.45624773128935
 31
0
  0
LINE
  8
1
 62
7
 10
-179.2412297728283
 20
37.82534744118533
 30
0
 11
-179.3519596857972
 21
37.68693504997424
 31
0
  0
LINE
  8
1
 62
7
 10
-179.0197699468901
 20
37.96375983239619
 30
0
 11
-179.2412297728283
 21
37.82534744118533
 31
0
  0
LINE
  8
1
 62
7
 10
-178.7983101209531
 20
38.05603475987033
 30
0
 11
-179.0197699468901
 21
37.96375983239619
 31
0
  0
LINE
  8
1
 62
7
 10
-178.4107554255622
 20
38.05603475987033
 30
0
 11
-178.7983101209531
 21
38.05603475987033
 31
0
  0
LINE
  8
1
 62
7
 10
-178.1892955996242
 20
37.96375983239619
 30
0
 11
-178.4107554255622
 21
38.05603475987033
 31
0
  0
LINE
  8
1
 62
7
 10
-177.9678357736872
 20
37.82534744118533
 30
0
 11
-178.1892955996242
 21
37.96375983239619
 31
0
  0
LINE
  8
1
 62
7
 10
-177.8571058607183
 20
37.68693504997424
 30
0
 11
-177.9678357736872
 21
37.82534744118533
 31
0
  0
LINE
  8
1
 62
7
 10
-177.7463759477491
 20
37.45624773128935
 30
0
 11
-177.8571058607183
 21
37.68693504997424
 31
0
  0
LINE
  8
1
 62
7
 10
-177.6910109912653
 20
36.9487356301824
 30
0
 11
-177.7463759477491
 21
37.45624773128935
 31
0
  0
LINE
  8
1
 62
7
 10
-177.6910109912653
 20
36.39508606533838
 30
0
 11
-177.6910109912653
 21
36.9487356301824
 31
0
  0
LINE
  8
1
 62
7
 10
-177.7463759477491
 20
35.88757396423154
 30
0
 11
-177.6910109912653
 21
36.39508606533838
 31
0
  0
LINE
  8
1
 62
7
 10
-177.8571058607183
 20
35.65688664554654
 30
0
 11
-177.7463759477491
 21
35.88757396423154
 31
0
  0
LINE
  8
1
 62
7
 10
-177.9678357736872
 20
35.51847425433545
 30
0
 11
-177.8571058607183
 21
35.65688664554654
 31
0
  0
LINE
  8
1
 62
7
 10
-178.1892955996242
 20
35.38006186312458
 30
0
 11
-177.9678357736872
 21
35.51847425433545
 31
0
  0
LINE
  8
1
 62
7
 10
-178.4107554255622
 20
35.28778693565056
 30
0
 11
-178.1892955996242
 21
35.38006186312458
 31
0
  0
LINE
  8
1
 62
7
 10
-178.7983101209531
 20
35.28778693565056
 30
0
 11
-178.4107554255622
 21
35.28778693565056
 31
0
  0
LINE
  8
1
 62
7
 10
-172.2055661736221
 20
34.82641229828079
 30
0
 11
-171.7441915362533
 21
34.82641229828079
 31
0
  0
LINE
  8
1
 62
7
 10
-172.2055661736221
 20
37.50238519502653
 30
0
 11
-172.2055661736221
 21
34.82641229828079
 31
0
  0
LINE
  8
1
 62
7
 10
-173.0821779846241
 20
37.50238519502653
 30
0
 11
-172.2055661736221
 21
37.50238519502653
 31
0
  0
LINE
  8
1
 62
7
 10
-173.0821779846241
 20
37.8714849049224
 30
0
 11
-173.0821779846241
 21
37.50238519502653
 31
0
  0
LINE
  8
1
 62
7
 10
-172.9899030571523
 20
37.8714849049224
 30
0
 11
-173.0821779846241
 21
37.8714849049224
 31
0
  0
LINE
  8
1
 62
7
 10
-172.7592157384663
 20
37.91762236865935
 30
0
 11
-172.9899030571523
 21
37.8714849049224
 31
0
  0
LINE
  8
1
 62
7
 10
-172.6208033472553
 20
37.96375983239631
 30
0
 11
-172.7592157384663
 21
37.91762236865935
 31
0
  0
LINE
  8
1
 62
7
 10
-172.4362534923072
 20
38.05603475987033
 30
0
 11
-172.6208033472553
 21
37.96375983239631
 31
0
  0
LINE
  8
1
 62
7
 10
-172.2978411010963
 20
38.19444715108131
 30
0
 11
-172.4362534923072
 21
38.05603475987033
 31
0
  0
LINE
  8
1
 62
7
 10
-172.1594287098853
 20
38.37899700602935
 30
0
 11
-172.2978411010963
 21
38.19444715108131
 31
0
  0
LINE
  8
1
 62
7
 10
-172.1132912461482
 20
38.51740939724033
 30
0
 11
-172.1594287098853
 21
38.37899700602935
 31
0
  0
LINE
  8
1
 62
7
 10
-171.7441915362533
 20
38.51740939724033
 30
0
 11
-172.1132912461482
 21
38.51740939724033
 31
0
  0
LINE
  8
1
 62
7
 10
-171.7441915362533
 20
34.82641229828079
 30
0
 11
-171.7441915362533
 21
38.51740939724033
 31
0
  0
LINE
  8
1
 62
7
 10
-201.7091263064571
 20
40.38422144899056
 30
0
 11
-201.7091263064571
 21
36.7724159111487
 31
0
  0
LINE
  8
1
 62
7
 10
-143.1631847604382
 20
40.38422144898988
 30
0
 11
-143.1631847604382
 21
41.74297865962564
 31
0
  0
LINE
  8
1
 62
7
 10
-143.1631847604382
 20
40.03066805839654
 30
0
 11
-143.1631847604382
 21
40.38422144898988
 31
0
  0
LINE
  8
1
 62
7
 10
-145.2475833347402
 20
30.6615032076748
 30
0
 11
-150.6631847604382
 21
30.6615032076748
 31
0
  0
LINE
  8
1
 62
7
 10
-143.6631847604382
 20
33.64991691194956
 30
0
 11
-143.6631847604382
 21
36.42191084775953
 31
0
  0
LINE
  8
1
 62
7
 10
-143.1631847604382
 20
36.92191084775953
 30
0
 11
-143.6631847604382
 21
36.92191084775953
 31
0
  0
LINE
  8
1
 62
7
 10
-143.1631847604382
 20
40.03066805839654
 30
0
 11
-167.8151230455082
 21
40.03066805839745
 31
0
  0
LINE
  8
1
 62
7
 10
-201.7091263064571
 20
40.38422144899056
 30
0
 11
-143.1631847604382
 21
40.38422144898988
 31
0
  0
LINE
  8
1
 62
7
 10
-150.6631847604382
 20
30.6615032076748
 30
0
 11
-150.6631847604382
 21
32.95960024653033
 31
0
  0
LINE
  8
1
 62
7
 10
-150.6631847604382
 20
32.95960024653033
 30
0
 11
-200.9537158975442
 21
32.95960024653124
 31
0
  0
LINE
  8
1
 62
7
 10
-148.6631847604382
 20
32.07571677004779
 30
0
 11
-144.3347637703641
 21
32.07571677004779
 31
0
  0
LINE
  8
1
 62
7
 10
-143.6631847604382
 20
38.97000788661563
 30
0
 11
-166.3151230455082
 21
38.97000788661654
 31
0
  0
LINE
  8
1
 62
7
 10
-166.3151230455082
 20
38.97000788661654
 30
0
 11
-166.3151230455082
 21
34.37381380890435
 31
0
  0
LINE
  8
1
 62
7
 10
-166.3151230455082
 20
34.37381380890435
 30
0
 11
-148.6631847604382
 21
34.37381380890344
 31
0
  0
LINE
  8
1
 62
7
 10
-148.6631847604382
 20
34.37381380890344
 30
0
 11
-148.6631847604382
 21
32.07571677004779
 31
0
  0
LINE
  8
1
 62
7
 10
-167.8151230455082
 20
33.31315363712525
 30
0
 11
-150.1631847604382
 21
33.31315363712434
 31
0
  0
LINE
  8
1
 62
7
 10
-150.1631847604382
 20
33.31315363712434
 30
0
 11
-150.1631847604382
 21
31.01505659826813
 31
0
  0
LINE
  8
1
 62
7
 10
-150.1631847604382
 20
31.01505659826813
 30
0
 11
-144.9868277634391
 21
31.0150565982679
 31
0
  0
LINE
  8
1
 62
7
 10
-143.6631847604382
 20
36.92191084775953
 30
0
 11
-143.6631847604382
 21
38.97000788661563
 31
0
  0
LINE
  8
1
 62
7
 10
-143.6631847604382
 20
36.42191084775953
 30
0
 11
-143.1693293382031
 21
36.42191084775953
 31
0
  0
LINE
  8
1
 62
7
 10
-143.6631847604382
 20
36.42191084775953
 30
0
 11
-143.6631847604382
 21
36.92191084775953
 31
0
  0
LINE
  8
1
 62
7
 10
-167.8151230455082
 20
40.03066805839745
 30
0
 11
-167.8151230455082
 21
33.31315363712525
 31
0
  0
LINE
  8
1
 62
7
 10
-201.1631847604382
 20
34.37381380890435
 30
0
 11
-169.8151230455082
 21
34.37381380890389
 31
0
  0
LINE
  8
1
 62
7
 10
-201.1631847604382
 20
38.97000788661654
 30
0
 11
-201.1631847604382
 21
34.37381380890435
 31
0
  0
LINE
  8
1
 62
7
 10
-169.8151230455082
 20
34.37381380890389
 30
0
 11
-169.8151230455082
 21
38.97000788661654
 31
0
  0
LINE
  8
1
 62
7
 10
-169.8151230455082
 20
38.97000788661654
 30
0
 11
-201.1631847604382
 21
38.97000788661654
 31
0
  0
LINE
  8
1
 62
7
 10
-143.8885682018662
 20
36.4719108477604
 30
0
 11
-143.8885682018662
 21
36.87191084776038
 31
0
  0
LINE
  8
1
 62
7
 10
-145.1485730654251
 20
36.4719108477604
 30
0
 11
-143.8885682018662
 21
36.4719108477604
 31
0
  0
LINE
  8
1
 62
7
 10
-145.1485730654251
 20
36.87191084776038
 30
0
 11
-145.1485730654251
 21
36.4719108477604
 31
0
  0
LINE
  8
1
 62
7
 10
-143.8885682018662
 20
36.87191084776038
 30
0
 11
-145.1485730654251
 21
36.87191084776038
 31
0
  0
LINE
  8
1
 62
7
 10
-174.0231691235053
 20
42.88118208727013
 30
0
 11
-173.6631691235052
 21
42.88118208727013
 31
0
  0
LINE
  8
1
 62
7
 10
-171.2331691235051
 20
40.64918208727005
 30
0
 11
-170.8731691235052
 21
40.64918208727005
 31
0
  0
LINE
  8
1
 62
7
 10
-172.6281691235062
 20
40.64918208727005
 30
0
 11
-172.2681691235052
 21
40.64918208727005
 31
0
  0
LINE
  8
1
 62
7
 10
-174.0231691235053
 20
40.64918208727005
 30
0
 11
-173.6631691235052
 21
40.64918208727005
 31
0
  0
LINE
  8
1
 62
7
 10
-170.8731691235052
 20
40.64918208727005
 30
0
 11
-170.8731691235052
 21
42.00368208726974
 31
0
  0
LINE
  8
1
 62
7
 10
-171.2331691235051
 20
40.64918208727005
 30
0
 11
-171.2331691235051
 21
42.00368208726974
 31
0
  0
LINE
  8
1
 62
7
 10
-172.2681691235052
 20
40.64918208727005
 30
0
 11
-172.2681691235052
 21
42.00368208726974
 31
0
  0
LINE
  8
1
 62
7
 10
-172.6281691235062
 20
40.64918208727005
 30
0
 11
-172.6281691235062
 21
42.00368208726974
 31
0
  0
LINE
  8
1
 62
7
 10
-173.6631691235052
 20
42.71234279593119
 30
0
 11
-173.6631691235052
 21
42.88118208727013
 31
0
  0
LINE
  8
1
 62
7
 10
-173.6631691235052
 20
40.64918208727005
 30
0
 11
-173.6631691235052
 21
42.00368208726974
 31
0
  0
LINE
  8
1
 62
7
 10
-174.0231691235053
 20
40.64918208727005
 30
0
 11
-174.0231691235053
 21
42.88118208727013
 31
0
  0
LINE
  8
1
 62
7
 10
-171.2331691235051
 20
40.64918208727005
 30
0
 11
-170.8731691235052
 21
40.64918208727005
 31
0
  0
LINE
  8
1
 62
7
 10
-172.6281691235062
 20
40.64918208727005
 30
0
 11
-172.2681691235052
 21
40.64918208727005
 31
0
  0
LINE
  8
1
 62
7
 10
-174.0231691235053
 20
40.64918208727005
 30
0
 11
-173.6631691235052
 21
40.64918208727005
 31
0
  0
LINE
  8
1
 62
7
 10
-137.9131847604382
 20
-6.43164254283289
 30
0
 11
-206.9131847604382
 21
-6.43164254283289
 31
0
  0
LINE
  8
1
 62
7
 10
-206.9131847604382
 20
-6.43164254283289
 30
0
 11
-217.4131847604382
 21
-6.43164254283289
 31
0
  0
LINE
  8
1
 62
7
 10
-205.9131847604382
 20
-12.43164254283289
 30
0
 11
-205.9131847604382
 21
-7.43164254283289
 31
0
  0
LINE
  8
1
 62
7
 10
-138.9131847604382
 20
-12.43164254283289
 30
0
 11
-138.9131847604382
 21
-7.43164254283289
 31
0
  0
LINE
  8
1
 62
7
 10
-204.9131847604382
 20
-13.43164254283289
 30
0
 11
-139.9131847604382
 21
-13.43164254283289
 31
0
  0
LINE
  8
1
 62
7
 10
-201.7091263064571
 20
41.74297865962564
 30
0
 11
-201.7091263064571
 21
42.45008544081253
 31
0
  0
LINE
  8
1
 62
7
 10
-143.1631847604382
 20
41.74297865962564
 30
0
 11
-143.1631847604382
 21
42.45008544081253
 31
0
  0
LINE
  8
1
 62
7
 10
-201.7091263064571
 20
41.74297865962564
 30
0
 11
-201.7091263064571
 21
40.38422144899056
 31
0
  0
LINE
  8
1
 62
7
 10
-199.7091263064571
 20
43.74297865962564
 30
0
 11
-145.1631847604382
 21
43.74297865962564
 31
0
  0
LINE
  8
1
 62
7
 10
-145.1631847604382
 20
44.45008544081253
 30
0
 11
-199.7091263064571
 21
44.45008544081253
 31
0
  0
LINE
  8
1
 62
7
 10
-143.1631847604382
 20
36.7724159111487
 30
0
 11
-143.1631847604382
 21
40.03066805839654
 31
0
  0
LINE
  8
1
 62
7
 10
-191.7091263064571
 20
26.7724159111487
 30
0
 11
-153.1631847604382
 21
26.7724159111487
 31
0
  0
LINE
  8
1
 62
7
 10
-166.4058942212093
 20
15.06835745716711
 30
0
 11
-130.9131847604382
 21
15.06835745716711
 31
0
  0
LINE
  8
1
 62
7
 10
-215.4131847604382
 20
2.56835745716711
 30
0
 11
-129.4131847604382
 21
2.56835745716711
 31
0
  0
LINE
  8
1
 62
7
 10
-209.7811470363371
 20
43.99262152587909
 30
0
 11
-213.9131847604382
 21
15.06835745716711
 31
0
  0
LINE
  8
1
 62
7
 10
-130.9131847604382
 20
15.06835745716711
 30
0
 11
-135.0452224845403
 21
43.99262152587909
 31
0
  0
LINE
  8
1
 62
7
 10
-206.8112985553532
 20
46.56835745716711
 30
0
 11
-138.0150709655231
 21
46.56835745716711
 31
0
  0
LINE
  8
1
 62
7
 10
-213.9131847604382
 20
15.06835745716711
 30
0
 11
-213.9131847604382
 21
4.06835745716711
 31
0
  0
LINE
  8
1
 62
7
 10
-129.4131847604382
 20
2.56835745716711
 30
0
 11
-128.9131847604382
 21
2.56835745716711
 31
0
  0
LINE
  8
1
 62
7
 10
-130.9131847604382
 20
15.06835745716711
 30
0
 11
-130.9131847604382
 21
4.06835745716711
 31
0
  0
LINE
  8
1
 62
7
 10
-213.9131847604382
 20
15.06835745716711
 30
0
 11
-178.4204752996672
 21
15.06835745716711
 31
0
  0
LINE
  8
1
 62
7
 10
-217.4131847604382
 20
-6.43164254283289
 30
0
 11
-217.4131847604382
 21
1.06835745716711
 31
0
  0
LINE
  8
1
 62
7
 10
-127.4131847604382
 20
-6.43164254283289
 30
0
 11
-137.9131847604382
 21
-6.43164254283289
 31
0
  0
LINE
  8
1
 62
7
 10
-127.4131847604382
 20
1.06835745716711
 30
0
 11
-127.4131847604382
 21
-6.43164254283289
 31
0
  0
LINE
  8
1
 62
7
 10
-215.9131847604382
 20
2.56835745716711
 30
0
 11
-215.4131847604382
 21
2.56835745716711
 31
0
  0
LINE
  8
1
 62
2
  6
DASHDOT
 10
-140.2186368606071
 20
-9.969220320909074
 30
0
 11
-134.6199516527562
 21
-9.969220320909074
 31
0
  0
LINE
  8
1
 62
7
 10
-137.4123665786203
 20
-7.217720320909109
 30
0
 11
-137.4123665786203
 21
-12.72072032090921
 31
0
  0
LINE
  8
1
 62
7
 10
-137.4123665786203
 20
-12.72072032090921
 30
0
 11
-136.8676237019772
 21
-12.6730614946664
 31
0
  0
LINE
  8
1
 62
7
 10
-137.4123665786203
 20
-7.217720320909109
 30
0
 11
-136.8676237019772
 21
-7.265379147151919
 31
0
  0
LINE
  8
1
 62
2
 10
-138.9131847604382
 20
-11.16987486636373
 30
0
 11
-137.4123665786203
 21
-11.16987486636373
 31
0
  0
LINE
  8
1
 62
2
 10
-138.9131847604382
 20
-8.768565775454704
 30
0
 11
-137.4123665786203
 21
-8.768565775454704
 31
0
  0
LINE
  8
1
 62
2
 10
-136.3338612082261
 20
-9.969220320909074
 30
0
 11
-135.5128459918762
 21
-8.547180252403109
 31
0
  0
LINE
  8
1
 62
2
 10
-135.5128459918762
 20
-11.39126038941532
 30
0
 11
-136.3338612082261
 21
-9.969220320909074
 31
0
  0
LINE
  8
1
 62
7
 10
-137.4123665786203
 20
-11.47003850272716
 30
0
 11
-138.9131847604382
 21
-11.47003850272716
 31
0
  0
LINE
  8
1
 62
7
 10
-137.4123665786203
 20
-8.46840213909087
 30
0
 11
-138.9131847604382
 21
-8.46840213909087
 31
0
  0
LINE
  8
1
 62
7
 10
-170.3489917492975
 20
120.4823611970151
 30
0
 11
-170.3489917492975
 21
120.299548697015
 31
0
  0
LINE
  8
1
 62
7
 10
-170.2677417492976
 20
120.4823611970151
 30
0
 11
-170.3489917492975
 21
120.4823611970151
 31
0
  0
LINE
  8
1
 62
7
 10
-170.1864917492976
 20
120.502673697015
 30
0
 11
-170.2677417492976
 21
120.4823611970151
 31
0
  0
LINE
  8
1
 62
7
 10
-170.1255542492986
 20
120.5432986970151
 30
0
 11
-170.1864917492976
 21
120.502673697015
 31
0
  0
LINE
  8
1
 62
7
 10
-170.0849292492976
 20
120.604236197015
 30
0
 11
-170.1255542492986
 21
120.5432986970151
 31
0
  0
LINE
  8
1
 62
7
 10
-170.0646167492976
 20
120.6651736970151
 30
0
 11
-170.0849292492976
 21
120.604236197015
 31
0
  0
LINE
  8
1
 62
7
 10
-170.0646167492976
 20
120.7464236970151
 30
0
 11
-170.0646167492976
 21
120.6651736970151
 31
0
  0
LINE
  8
1
 62
7
 10
-170.0849292492976
 20
120.807361197015
 30
0
 11
-170.0646167492976
 21
120.7464236970151
 31
0
  0
LINE
  8
1
 62
7
 10
-170.1255542492986
 20
120.8682986970151
 30
0
 11
-170.0849292492976
 21
120.807361197015
 31
0
  0
LINE
  8
1
 62
7
 10
-170.1864917492976
 20
120.908923697015
 30
0
 11
-170.1255542492986
 21
120.8682986970151
 31
0
  0
LINE
  8
1
 62
7
 10
-170.2677417492976
 20
120.9292361970152
 30
0
 11
-170.1864917492976
 21
120.908923697015
 31
0
  0
LINE
  8
1
 62
7
 10
-170.3489917492975
 20
120.9292361970152
 30
0
 11
-170.2677417492976
 21
120.9292361970152
 31
0
  0
LINE
  8
1
 62
7
 10
-170.4302417492986
 20
120.908923697015
 30
0
 11
-170.3489917492975
 21
120.9292361970152
 31
0
  0
LINE
  8
1
 62
7
 10
-170.4911792492976
 20
120.8682986970151
 30
0
 11
-170.4302417492986
 21
120.908923697015
 31
0
  0
LINE
  8
1
 62
7
 10
-170.5318042492986
 20
120.807361197015
 30
0
 11
-170.4911792492976
 21
120.8682986970151
 31
0
  0
LINE
  8
1
 62
7
 10
-170.5521167492975
 20
120.7464236970151
 30
0
 11
-170.5318042492986
 21
120.807361197015
 31
0
  0
LINE
  8
1
 62
7
 10
-170.5521167492975
 20
120.6651736970151
 30
0
 11
-170.5521167492975
 21
120.7464236970151
 31
0
  0
LINE
  8
1
 62
7
 10
-170.7755542492976
 20
120.6651736970151
 30
0
 11
-170.5521167492975
 21
120.6651736970151
 31
0
  0
LINE
  8
1
 62
7
 10
-170.7755542492976
 20
120.7464236970151
 30
0
 11
-170.7755542492976
 21
120.6651736970151
 31
0
  0
LINE
  8
1
 62
7
 10
-170.7552417492975
 20
120.8479861970151
 30
0
 11
-170.7755542492976
 21
120.7464236970151
 31
0
  0
LINE
  8
1
 62
7
 10
-170.6739917492976
 20
120.9698611970151
 30
0
 11
-170.7552417492975
 21
120.8479861970151
 31
0
  0
LINE
  8
1
 62
7
 10
-170.5927417492976
 20
121.0511111970151
 30
0
 11
-170.6739917492976
 21
120.9698611970151
 31
0
  0
LINE
  8
1
 62
7
 10
-170.4708667492976
 20
121.112048697015
 30
0
 11
-170.5927417492976
 21
121.0511111970151
 31
0
  0
LINE
  8
1
 62
7
 10
-170.3693042492976
 20
121.1323611970152
 30
0
 11
-170.4708667492976
 21
121.112048697015
 31
0
  0
LINE
  8
1
 62
7
 10
-170.2474292492975
 20
121.1323611970152
 30
0
 11
-170.3693042492976
 21
121.1323611970152
 31
0
  0
LINE
  8
1
 62
7
 10
-170.1458667492975
 20
121.112048697015
 30
0
 11
-170.2474292492975
 21
121.1323611970152
 31
0
  0
LINE
  8
1
 62
7
 10
-170.0239917492986
 20
121.0511111970151
 30
0
 11
-170.1458667492975
 21
121.112048697015
 31
0
  0
LINE
  8
1
 62
7
 10
-169.9427417492975
 20
120.9698611970151
 30
0
 11
-170.0239917492986
 21
121.0511111970151
 31
0
  0
LINE
  8
1
 62
7
 10
-169.8614917492976
 20
120.8479861970151
 30
0
 11
-169.9427417492975
 21
120.9698611970151
 31
0
  0
LINE
  8
1
 62
7
 10
-169.8411792492975
 20
120.7464236970151
 30
0
 11
-169.8614917492976
 21
120.8479861970151
 31
0
  0
LINE
  8
1
 62
7
 10
-169.8411792492975
 20
120.6651736970151
 30
0
 11
-169.8411792492975
 21
120.7464236970151
 31
0
  0
LINE
  8
1
 62
7
 10
-169.8614917492976
 20
120.5636111970151
 30
0
 11
-169.8411792492975
 21
120.6651736970151
 31
0
  0
LINE
  8
1
 62
7
 10
-169.9427417492975
 20
120.4417361970151
 30
0
 11
-169.8614917492976
 21
120.5636111970151
 31
0
  0
LINE
  8
1
 62
7
 10
-169.9833667492976
 20
120.401111197015
 30
0
 11
-169.9427417492975
 21
120.4417361970151
 31
0
  0
LINE
  8
1
 62
7
 10
-169.8818042492976
 20
120.3198611970152
 30
0
 11
-169.9833667492976
 21
120.401111197015
 31
0
  0
LINE
  8
1
 62
7
 10
-169.8005542492986
 20
120.197986197015
 30
0
 11
-169.8818042492976
 21
120.3198611970152
 31
0
  0
LINE
  8
1
 62
7
 10
-169.7599292492976
 20
120.0557986970151
 30
0
 11
-169.8005542492986
 21
120.197986197015
 31
0
  0
LINE
  8
1
 62
7
 10
-169.7599292492976
 20
119.9542361970151
 30
0
 11
-169.7599292492976
 21
120.0557986970151
 31
0
  0
LINE
  8
1
 62
7
 10
-169.8005542492986
 20
119.8120486970152
 30
0
 11
-169.7599292492976
 21
119.9542361970151
 31
0
  0
LINE
  8
1
 62
7
 10
-169.8614917492976
 20
119.7104861970152
 30
0
 11
-169.8005542492986
 21
119.8120486970152
 31
0
  0
LINE
  8
1
 62
7
 10
-169.9630542492976
 20
119.6089236970152
 30
0
 11
-169.8614917492976
 21
119.7104861970152
 31
0
  0
LINE
  8
1
 62
7
 10
-170.0849292492976
 20
119.5479861970151
 30
0
 11
-169.9630542492976
 21
119.6089236970152
 31
0
  0
LINE
  8
1
 62
7
 10
-170.2474292492975
 20
119.5073611970152
 30
0
 11
-170.0849292492976
 21
119.5479861970151
 31
0
  0
LINE
  8
1
 62
7
 10
-170.3693042492976
 20
119.5073611970152
 30
0
 11
-170.2474292492975
 21
119.5073611970152
 31
0
  0
LINE
  8
1
 62
7
 10
-170.5318042492986
 20
119.5479861970151
 30
0
 11
-170.3693042492976
 21
119.5073611970152
 31
0
  0
LINE
  8
1
 62
7
 10
-170.6536792492975
 20
119.6089236970152
 30
0
 11
-170.5318042492986
 21
119.5479861970151
 31
0
  0
LINE
  8
1
 62
7
 10
-170.7552417492975
 20
119.7104861970152
 30
0
 11
-170.6536792492975
 21
119.6089236970152
 31
0
  0
LINE
  8
1
 62
7
 10
-170.8161792492986
 20
119.8120486970152
 30
0
 11
-170.7552417492975
 21
119.7104861970152
 31
0
  0
LINE
  8
1
 62
7
 10
-170.8568042492975
 20
119.9542361970151
 30
0
 11
-170.8161792492986
 21
119.8120486970152
 31
0
  0
LINE
  8
1
 62
7
 10
-170.8568042492975
 20
120.0557986970151
 30
0
 11
-170.8568042492975
 21
119.9542361970151
 31
0
  0
LINE
  8
1
 62
7
 10
-170.6130542492986
 20
120.0557986970151
 30
0
 11
-170.8568042492975
 21
120.0557986970151
 31
0
  0
LINE
  8
1
 62
7
 10
-170.6130542492986
 20
119.9745486970151
 30
0
 11
-170.6130542492986
 21
120.0557986970151
 31
0
  0
LINE
  8
1
 62
7
 10
-170.5927417492976
 20
119.893298697015
 30
0
 11
-170.6130542492986
 21
119.9745486970151
 31
0
  0
LINE
  8
1
 62
7
 10
-170.5318042492986
 20
119.8120486970152
 30
0
 11
-170.5927417492976
 21
119.893298697015
 31
0
  0
LINE
  8
1
 62
7
 10
-170.4505542492975
 20
119.7511111970151
 30
0
 11
-170.5318042492986
 21
119.8120486970152
 31
0
  0
LINE
  8
1
 62
7
 10
-170.3489917492975
 20
119.7307986970151
 30
0
 11
-170.4505542492975
 21
119.7511111970151
 31
0
  0
LINE
  8
1
 62
7
 10
-170.2677417492976
 20
119.7307986970151
 30
0
 11
-170.3489917492975
 21
119.7307986970151
 31
0
  0
LINE
  8
1
 62
7
 10
-170.1661792492976
 20
119.7511111970151
 30
0
 11
-170.2677417492976
 21
119.7307986970151
 31
0
  0
LINE
  8
1
 62
7
 10
-170.0849292492976
 20
119.8120486970152
 30
0
 11
-170.1661792492976
 21
119.7511111970151
 31
0
  0
LINE
  8
1
 62
7
 10
-170.0239917492986
 20
119.893298697015
 30
0
 11
-170.0849292492976
 21
119.8120486970152
 31
0
  0
LINE
  8
1
 62
7
 10
-170.0036792492986
 20
119.9745486970151
 30
0
 11
-170.0239917492986
 21
119.893298697015
 31
0
  0
LINE
  8
1
 62
7
 10
-170.0036792492986
 20
120.0557986970151
 30
0
 11
-170.0036792492986
 21
119.9745486970151
 31
0
  0
LINE
  8
1
 62
7
 10
-170.0239917492986
 20
120.1370486970151
 30
0
 11
-170.0036792492986
 21
120.0557986970151
 31
0
  0
LINE
  8
1
 62
7
 10
-170.0849292492976
 20
120.2182986970152
 30
0
 11
-170.0239917492986
 21
120.1370486970151
 31
0
  0
LINE
  8
1
 62
7
 10
-170.1661792492976
 20
120.2792361970151
 30
0
 11
-170.0849292492976
 21
120.2182986970152
 31
0
  0
LINE
  8
1
 62
7
 10
-170.2677417492976
 20
120.299548697015
 30
0
 11
-170.1661792492976
 21
120.2792361970151
 31
0
  0
LINE
  8
1
 62
7
 10
-170.3489917492975
 20
120.299548697015
 30
0
 11
-170.2677417492976
 21
120.299548697015
 31
0
  0
LINE
  8
1
 62
7
 10
-145.6124872975215
 20
118.3865035493173
 30
0
 11
-147.5502997975216
 21
118.3865035493173
 31
0
  0
LINE
  8
1
 62
7
 10
-145.6124872975215
 20
118.6677535493173
 30
0
 11
-145.6124872975215
 21
118.3865035493173
 31
0
  0
LINE
  8
1
 62
7
 10
-147.1481122975215
 20
118.6677535493173
 30
0
 11
-145.6124872975215
 21
118.6677535493173
 31
0
  0
LINE
  8
1
 62
7
 10
-147.1481122975215
 20
120.6365035493173
 30
0
 11
-147.1481122975215
 21
118.6677535493173
 31
0
  0
LINE
  8
1
 62
7
 10
-147.5502997975216
 20
120.6365035493173
 30
0
 11
-147.1481122975215
 21
120.6365035493173
 31
0
  0
LINE
  8
1
 62
7
 10
-147.5502997975216
 20
118.3865035493173
 30
0
 11
-147.5502997975216
 21
120.6365035493173
 31
0
  0
LINE
  8
1
 62
7
 10
-181.4131847604385
 20
143.3374567731543
 30
0
 11
-163.4131847604385
 21
143.3374567731543
 31
0
  0
LINE
  8
1
 62
7
 10
-181.4131847604385
 20
143.3374567731543
 30
0
 11
-181.4131847604385
 21
143.8374567731543
 31
0
  0
LINE
  8
1
 62
7
 10
-180.4131847604385
 20
144.8374567731543
 30
0
 11
-180.4131847604385
 21
145.3374567731543
 31
0
  0
LINE
  8
1
 62
7
 10
-164.4131847604385
 20
144.8374567731543
 30
0
 11
-164.4131847604385
 21
145.3374567731543
 31
0
  0
LINE
  8
1
 62
7
 10
-163.4131847604385
 20
143.3374567731543
 30
0
 11
-163.4131847604385
 21
143.8374567731543
 31
0
  0
LINE
  8
1
 62
7
 10
-181.4131847604385
 20
143.8374567731543
 30
0
 11
-180.4131847604385
 21
144.8374567731543
 31
0
  0
LINE
  8
1
 62
7
 10
-164.4131847604385
 20
144.8374567731543
 30
0
 11
-163.4131847604385
 21
143.8374567731543
 31
0
  0
LINE
  8
1
 62
7
 10
-211.7023690227777
 20
145.3374567731543
 30
0
 11
-180.4131847604385
 21
145.3374567731543
 31
0
  0
LINE
  8
1
 62
7
 10
-164.4131847604385
 20
145.3374567731543
 30
0
 11
-133.1240004980996
 21
145.3374567731543
 31
0
  0
LINE
  8
1
 62
7
 10
-199.7091263064576
 20
121.762077975613
 30
0
 11
-145.1631847604385
 21
121.762077975613
 31
0
  0
LINE
  8
1
 62
7
 10
-136.3956888071296
 20
124.8374567731543
 30
0
 11
-208.4306807137486
 21
124.8374567731543
 31
0
  0
LINE
  8
1
 62
7
 10
-193.2091263064576
 20
104.7915152271358
 30
0
 11
-151.6631847604385
 21
104.7915152271358
 31
0
  0
LINE
  8
1
 62
7
 10
-143.1631847604385
 20
113.6450686177292
 30
0
 11
-143.1631847604385
 21
119.762077975613
 31
0
  0
LINE
  8
1
 62
7
 10
-143.1631847604385
 20
113.2915152271358
 30
0
 11
-143.1631847604385
 21
113.6450686177292
 31
0
  0
LINE
  8
1
 62
7
 10
-193.2091263064576
 20
105.1450686177292
 30
0
 11
-151.6631847604385
 21
105.1450686177292
 31
0
  0
LINE
  8
1
 62
7
 10
-201.7091263064576
 20
113.6450686177292
 30
0
 11
-201.7091263064576
 21
119.762077975613
 31
0
  0
LINE
  8
1
 62
7
 10
-201.7091263064576
 20
113.2915152271358
 30
0
 11
-201.7091263064576
 21
113.6450686177292
 31
0
  0
LINE
  8
1
 62
7
 10
-174.7181847604386
 20
118.562525997143
 30
0
 11
-174.3581847604387
 21
118.562525997143
 31
0
  0
LINE
  8
1
 62
7
 10
-173.3231847604395
 20
118.562525997143
 30
0
 11
-172.9631847604387
 21
118.562525997143
 31
0
  0
LINE
  8
1
 62
7
 10
-171.9281847604386
 20
118.562525997143
 30
0
 11
-171.5681847604396
 21
118.562525997143
 31
0
  0
LINE
  8
1
 62
7
 10
-174.7181847604386
 20
118.562525997143
 30
0
 11
-174.7181847604386
 21
120.7945259971431
 31
0
  0
LINE
  8
1
 62
7
 10
-174.3581847604387
 20
118.562525997143
 30
0
 11
-174.3581847604387
 21
119.917025997143
 31
0
  0
LINE
  8
1
 62
7
 10
-174.3581847604387
 20
120.6256867058042
 30
0
 11
-174.3581847604387
 21
120.7945259971431
 31
0
  0
LINE
  8
1
 62
7
 10
-173.3231847604395
 20
118.562525997143
 30
0
 11
-173.3231847604395
 21
119.917025997143
 31
0
  0
LINE
  8
1
 62
7
 10
-172.9631847604387
 20
118.562525997143
 30
0
 11
-172.9631847604387
 21
119.917025997143
 31
0
  0
LINE
  8
1
 62
7
 10
-171.9281847604386
 20
118.562525997143
 30
0
 11
-171.9281847604386
 21
119.917025997143
 31
0
  0
LINE
  8
1
 62
7
 10
-171.5681847604396
 20
118.562525997143
 30
0
 11
-171.5681847604396
 21
119.917025997143
 31
0
  0
LINE
  8
1
 62
7
 10
-174.7181847604386
 20
118.562525997143
 30
0
 11
-174.3581847604387
 21
118.562525997143
 31
0
  0
LINE
  8
1
 62
7
 10
-173.3231847604395
 20
118.562525997143
 30
0
 11
-172.9631847604387
 21
118.562525997143
 31
0
  0
LINE
  8
1
 62
7
 10
-171.9281847604386
 20
118.562525997143
 30
0
 11
-171.5681847604396
 21
118.562525997143
 31
0
  0
LINE
  8
1
 62
7
 10
-174.7181847604386
 20
120.7945259971431
 30
0
 11
-174.3581847604387
 21
120.7945259971431
 31
0
  0
LINE
  8
1
 62
7
 10
-143.1631847604385
 20
114.4256512353128
 30
0
 11
-143.1631847604385
 21
117.6839033825604
 31
0
  0
LINE
  8
1
 62
7
 10
-143.8885682018665
 20
114.5251461719243
 30
0
 11
-145.1485730654256
 21
114.5251461719243
 31
0
  0
LINE
  8
1
 62
7
 10
-145.1485730654256
 20
114.5251461719243
 30
0
 11
-145.1485730654256
 21
114.1251461719242
 31
0
  0
LINE
  8
1
 62
7
 10
-145.1485730654256
 20
114.1251461719242
 30
0
 11
-143.8885682018665
 21
114.1251461719242
 31
0
  0
LINE
  8
1
 62
7
 10
-143.8885682018665
 20
114.1251461719242
 30
0
 11
-143.8885682018665
 21
114.5251461719243
 31
0
  0
LINE
  8
1
 62
7
 10
-169.8151230455087
 20
116.6232432107807
 30
0
 11
-201.1631847604385
 21
116.6232432107807
 31
0
  0
LINE
  8
1
 62
7
 10
-169.8151230455087
 20
112.0270491330682
 30
0
 11
-169.8151230455087
 21
116.6232432107807
 31
0
  0
LINE
  8
1
 62
7
 10
-201.1631847604385
 20
116.6232432107807
 30
0
 11
-201.1631847604385
 21
112.0270491330685
 31
0
  0
LINE
  8
1
 62
7
 10
-201.1631847604385
 20
112.0270491330685
 30
0
 11
-169.8151230455087
 21
112.0270491330682
 31
0
  0
LINE
  8
1
 62
7
 10
-167.8151230455087
 20
117.6839033825611
 30
0
 11
-167.8151230455087
 21
110.9663889612889
 31
0
  0
LINE
  8
1
 62
7
 10
-143.6631847604385
 20
114.0751461719235
 30
0
 11
-143.6631847604385
 21
114.5751461719235
 31
0
  0
LINE
  8
1
 62
7
 10
-143.6631847604385
 20
114.0751461719235
 30
0
 11
-143.1693293382036
 21
114.0751461719235
 31
0
  0
LINE
  8
1
 62
7
 10
-143.6631847604385
 20
114.5751461719235
 30
0
 11
-143.6631847604385
 21
116.6232432107796
 31
0
  0
LINE
  8
1
 62
7
 10
-150.1631847604385
 20
108.6682919224321
 30
0
 11
-144.9868277634396
 21
108.6682919224319
 31
0
  0
LINE
  8
1
 62
7
 10
-150.1631847604385
 20
110.9663889612882
 30
0
 11
-150.1631847604385
 21
108.6682919224321
 31
0
  0
LINE
  8
1
 62
7
 10
-167.8151230455087
 20
110.9663889612889
 30
0
 11
-150.1631847604385
 21
110.9663889612882
 31
0
  0
LINE
  8
1
 62
7
 10
-148.6631847604385
 20
112.0270491330674
 30
0
 11
-148.6631847604385
 21
109.7289520942116
 31
0
  0
LINE
  8
1
 62
7
 10
-166.3151230455087
 20
112.0270491330685
 30
0
 11
-148.6631847604385
 21
112.0270491330674
 31
0
  0
LINE
  8
1
 62
7
 10
-166.3151230455087
 20
116.6232432107807
 30
0
 11
-166.3151230455087
 21
112.0270491330685
 31
0
  0
LINE
  8
1
 62
7
 10
-143.6631847604385
 20
116.6232432107796
 30
0
 11
-166.3151230455087
 21
116.6232432107807
 31
0
  0
LINE
  8
1
 62
7
 10
-148.6631847604385
 20
109.7289520942116
 30
0
 11
-144.3347637703646
 21
109.7289520942116
 31
0
  0
LINE
  8
1
 62
7
 10
-150.6631847604385
 20
110.6128355706942
 30
0
 11
-200.9537158975445
 21
110.6128355706952
 31
0
  0
LINE
  8
1
 62
7
 10
-150.6631847604385
 20
108.3147385318385
 30
0
 11
-150.6631847604385
 21
110.6128355706942
 31
0
  0
LINE
  8
1
 62
7
 10
-201.7091263064576
 20
118.0374567731547
 30
0
 11
-143.1631847604385
 21
118.0374567731538
 31
0
  0
LINE
  8
1
 62
7
 10
-143.1631847604385
 20
117.6839033825604
 30
0
 11
-167.8151230455087
 21
117.6839033825611
 31
0
  0
LINE
  8
1
 62
7
 10
-143.1631847604385
 20
114.5751461719235
 30
0
 11
-143.6631847604385
 21
114.5751461719235
 31
0
  0
LINE
  8
1
 62
7
 10
-143.6631847604385
 20
111.3031522361135
 30
0
 11
-143.6631847604385
 21
114.0751461719235
 31
0
  0
LINE
  8
1
 62
7
 10
-145.2475833347405
 20
108.3147385318385
 30
0
 11
-150.6631847604385
 21
108.3147385318385
 31
0
  0
LINE
  8
1
 62
7
 10
-143.1631847604385
 20
117.6839033825604
 30
0
 11
-143.1631847604385
 21
118.0374567731538
 31
0
  0
LINE
  8
1
 62
7
 10
-201.7091263064576
 20
118.0374567731547
 30
0
 11
-201.7091263064576
 21
114.4256512353128
 31
0
  0
LINE
  8
1
 62
7
 10
-171.7441915362535
 20
112.4796476224447
 30
0
 11
-171.7441915362535
 21
116.1706447214042
 31
0
  0
LINE
  8
1
 62
7
 10
-171.7441915362535
 20
116.1706447214042
 30
0
 11
-172.1132912461485
 21
116.1706447214042
 31
0
  0
LINE
  8
1
 62
7
 10
-172.1132912461485
 20
116.1706447214042
 30
0
 11
-172.1594287098856
 21
116.0322323301935
 31
0
  0
LINE
  8
1
 62
7
 10
-172.1594287098856
 20
116.0322323301935
 30
0
 11
-172.2978411010977
 21
115.8476824752453
 31
0
  0
LINE
  8
1
 62
7
 10
-172.2978411010977
 20
115.8476824752453
 30
0
 11
-172.4362534923075
 21
115.7092700840342
 31
0
  0
LINE
  8
1
 62
7
 10
-172.4362534923075
 20
115.7092700840342
 30
0
 11
-172.6208033472556
 21
115.6169951565605
 31
0
  0
LINE
  8
1
 62
7
 10
-172.6208033472556
 20
115.6169951565605
 30
0
 11
-172.7592157384665
 21
115.5708576928235
 31
0
  0
LINE
  8
1
 62
7
 10
-172.7592157384665
 20
115.5708576928235
 30
0
 11
-172.9899030571526
 21
115.5247202290865
 31
0
  0
LINE
  8
1
 62
7
 10
-172.9899030571526
 20
115.5247202290865
 30
0
 11
-173.0821779846247
 21
115.5247202290865
 31
0
  0
LINE
  8
1
 62
7
 10
-173.0821779846247
 20
115.5247202290865
 30
0
 11
-173.0821779846247
 21
115.1556205191905
 31
0
  0
LINE
  8
1
 62
7
 10
-173.0821779846247
 20
115.1556205191905
 30
0
 11
-172.2055661736226
 21
115.1556205191905
 31
0
  0
LINE
  8
1
 62
7
 10
-172.2055661736226
 20
115.1556205191905
 30
0
 11
-172.2055661736226
 21
112.4796476224447
 31
0
  0
LINE
  8
1
 62
7
 10
-172.2055661736226
 20
112.4796476224447
 30
0
 11
-171.7441915362535
 21
112.4796476224447
 31
0
  0
LINE
  8
1
 62
7
 10
-178.7983101209536
 20
112.9410222598145
 30
0
 11
-178.4107554255627
 21
112.9410222598145
 31
0
  0
LINE
  8
1
 62
7
 10
-178.4107554255627
 20
112.9410222598145
 30
0
 11
-178.1892955996245
 21
113.0332971872884
 31
0
  0
LINE
  8
1
 62
7
 10
-178.1892955996245
 20
113.0332971872884
 30
0
 11
-177.9678357736875
 21
113.1717095784996
 31
0
  0
LINE
  8
1
 62
7
 10
-177.9678357736875
 20
113.1717095784996
 30
0
 11
-177.8571058607186
 21
113.3101219697105
 31
0
  0
LINE
  8
1
 62
7
 10
-177.8571058607186
 20
113.3101219697105
 30
0
 11
-177.7463759477496
 21
113.5408092883955
 31
0
  0
LINE
  8
1
 62
7
 10
-177.7463759477496
 20
113.5408092883955
 30
0
 11
-177.6910109912656
 21
114.0483213895023
 31
0
  0
LINE
  8
1
 62
7
 10
-177.6910109912656
 20
114.0483213895023
 30
0
 11
-177.6910109912656
 21
114.6019709543462
 31
0
  0
LINE
  8
1
 62
7
 10
-177.6910109912656
 20
114.6019709543462
 30
0
 11
-177.7463759477496
 21
115.1094830554532
 31
0
  0
LINE
  8
1
 62
7
 10
-177.7463759477496
 20
115.1094830554532
 30
0
 11
-177.8571058607186
 21
115.3401703741382
 31
0
  0
LINE
  8
1
 62
7
 10
-177.8571058607186
 20
115.3401703741382
 30
0
 11
-177.9678357736875
 21
115.4785827653492
 31
0
  0
LINE
  8
1
 62
7
 10
-177.9678357736875
 20
115.4785827653492
 30
0
 11
-178.1892955996245
 21
115.6169951565602
 31
0
  0
LINE
  8
1
 62
7
 10
-178.1892955996245
 20
115.6169951565602
 30
0
 11
-178.4107554255627
 21
115.7092700840342
 31
0
  0
LINE
  8
1
 62
7
 10
-178.4107554255627
 20
115.7092700840342
 30
0
 11
-178.7983101209536
 21
115.7092700840342
 31
0
  0
LINE
  8
1
 62
7
 10
-178.7983101209536
 20
115.7092700840342
 30
0
 11
-179.0197699468906
 21
115.6169951565602
 31
0
  0
LINE
  8
1
 62
7
 10
-179.0197699468906
 20
115.6169951565602
 30
0
 11
-179.2412297728286
 21
115.4785827653492
 31
0
  0
LINE
  8
1
 62
7
 10
-179.2412297728286
 20
115.4785827653492
 30
0
 11
-179.3519596857975
 21
115.3401703741382
 31
0
  0
LINE
  8
1
 62
7
 10
-179.3519596857975
 20
115.3401703741382
 30
0
 11
-179.4626895987656
 21
115.1094830554532
 31
0
  0
LINE
  8
1
 62
7
 10
-179.4626895987656
 20
115.1094830554532
 30
0
 11
-179.5180545552516
 21
114.6019709543462
 31
0
  0
LINE
  8
1
 62
7
 10
-179.5180545552516
 20
114.6019709543462
 30
0
 11
-179.5180545552516
 21
114.0483213895023
 31
0
  0
LINE
  8
1
 62
7
 10
-179.5180545552516
 20
114.0483213895023
 30
0
 11
-179.4626895987656
 21
113.5408092883955
 31
0
  0
LINE
  8
1
 62
7
 10
-179.4626895987656
 20
113.5408092883955
 30
0
 11
-179.3519596857975
 21
113.3101219697105
 31
0
  0
LINE
  8
1
 62
7
 10
-179.3519596857975
 20
113.3101219697105
 30
0
 11
-179.2412297728286
 21
113.1717095784996
 31
0
  0
LINE
  8
1
 62
7
 10
-179.2412297728286
 20
113.1717095784996
 30
0
 11
-179.0197699468906
 21
113.0332971872884
 31
0
  0
LINE
  8
1
 62
7
 10
-179.0197699468906
 20
113.0332971872884
 30
0
 11
-178.7983101209536
 21
112.9410222598145
 31
0
  0
LINE
  8
1
 62
7
 10
-177.7463759477496
 20
112.7103349411296
 30
0
 11
-177.5802810782966
 21
112.8487473323405
 31
0
  0
LINE
  8
1
 62
7
 10
-177.5802810782966
 20
112.8487473323405
 30
0
 11
-177.4141862088436
 21
113.0332971872884
 31
0
  0
LINE
  8
1
 62
7
 10
-177.4141862088436
 20
113.0332971872884
 30
0
 11
-177.3034562958746
 21
113.2178470422365
 31
0
  0
LINE
  8
1
 62
7
 10
-177.3034562958746
 20
113.2178470422365
 30
0
 11
-177.1927263829057
 21
113.4485343609214
 31
0
  0
LINE
  8
1
 62
7
 10
-177.1927263829057
 20
113.4485343609214
 30
0
 11
-177.1373614264217
 21
113.7253591433435
 31
0
  0
LINE
  8
1
 62
7
 10
-177.1373614264217
 20
113.7253591433435
 30
0
 11
-177.0819964699376
 21
114.1405963169765
 31
0
  0
LINE
  8
1
 62
7
 10
-177.0819964699376
 20
114.1405963169765
 30
0
 11
-177.0819964699376
 21
114.5096960268723
 31
0
  0
LINE
  8
1
 62
7
 10
-177.0819964699376
 20
114.5096960268723
 30
0
 11
-177.1373614264217
 21
114.9249332005053
 31
0
  0
LINE
  8
1
 62
7
 10
-177.1373614264217
 20
114.9249332005053
 30
0
 11
-177.1927263829057
 21
115.2017579829272
 31
0
  0
LINE
  8
1
 62
7
 10
-177.1927263829057
 20
115.2017579829272
 30
0
 11
-177.3034562958746
 21
115.4324453016123
 31
0
  0
LINE
  8
1
 62
7
 10
-177.3034562958746
 20
115.4324453016123
 30
0
 11
-177.4141862088436
 21
115.6169951565602
 31
0
  0
LINE
  8
1
 62
7
 10
-177.4141862088436
 20
115.6169951565602
 30
0
 11
-177.5802810782966
 21
115.8015450115082
 31
0
  0
LINE
  8
1
 62
7
 10
-177.5802810782966
 20
115.8015450115082
 30
0
 11
-177.7463759477496
 21
115.9399574027192
 31
0
  0
LINE
  8
1
 62
7
 10
-177.7463759477496
 20
115.9399574027192
 30
0
 11
-177.9124708172026
 21
116.0322323301932
 31
0
  0
LINE
  8
1
 62
7
 10
-177.9124708172026
 20
116.0322323301932
 30
0
 11
-178.1892955996245
 21
116.124507257667
 31
0
  0
LINE
  8
1
 62
7
 10
-178.1892955996245
 20
116.124507257667
 30
0
 11
-178.4107554255627
 21
116.1706447214041
 31
0
  0
LINE
  8
1
 62
7
 10
-178.4107554255627
 20
116.1706447214041
 30
0
 11
-178.7983101209536
 21
116.1706447214041
 31
0
  0
LINE
  8
1
 62
7
 10
-178.7983101209536
 20
116.1706447214041
 30
0
 11
-179.0197699468906
 21
116.124507257667
 31
0
  0
LINE
  8
1
 62
7
 10
-179.0197699468906
 20
116.124507257667
 30
0
 11
-179.2965947293135
 21
116.0322323301932
 31
0
  0
LINE
  8
1
 62
7
 10
-179.2965947293135
 20
116.0322323301932
 30
0
 11
-179.4626895987656
 21
115.9399574027192
 31
0
  0
LINE
  8
1
 62
7
 10
-179.4626895987656
 20
115.9399574027192
 30
0
 11
-179.6287844682206
 21
115.8015450115082
 31
0
  0
LINE
  8
1
 62
7
 10
-179.6287844682206
 20
115.8015450115082
 30
0
 11
-179.7948793376727
 21
115.6169951565602
 31
0
  0
LINE
  8
1
 62
7
 10
-179.7948793376727
 20
115.6169951565602
 30
0
 11
-179.9056092506417
 21
115.4324453016123
 31
0
  0
LINE
  8
1
 62
7
 10
-179.9056092506417
 20
115.4324453016123
 30
0
 11
-180.0163391636097
 21
115.2017579829272
 31
0
  0
LINE
  8
1
 62
7
 10
-180.0163391636097
 20
115.2017579829272
 30
0
 11
-180.0717041200946
 21
114.9249332005053
 31
0
  0
LINE
  8
1
 62
7
 10
-180.0717041200946
 20
114.9249332005053
 30
0
 11
-180.1270690765787
 21
114.5096960268723
 31
0
  0
LINE
  8
1
 62
7
 10
-180.1270690765787
 20
114.5096960268723
 30
0
 11
-180.1270690765787
 21
114.1405963169765
 31
0
  0
LINE
  8
1
 62
7
 10
-180.1270690765787
 20
114.1405963169765
 30
0
 11
-180.0717041200946
 21
113.7253591433435
 31
0
  0
LINE
  8
1
 62
7
 10
-180.0717041200946
 20
113.7253591433435
 30
0
 11
-180.0163391636097
 21
113.4485343609214
 31
0
  0
LINE
  8
1
 62
7
 10
-180.0163391636097
 20
113.4485343609214
 30
0
 11
-179.9056092506417
 21
113.2178470422365
 31
0
  0
LINE
  8
1
 62
7
 10
-179.9056092506417
 20
113.2178470422365
 30
0
 11
-179.7948793376727
 21
113.0332971872884
 31
0
  0
LINE
  8
1
 62
7
 10
-179.7948793376727
 20
113.0332971872884
 30
0
 11
-179.6287844682206
 21
112.8487473323405
 31
0
  0
LINE
  8
1
 62
7
 10
-179.6287844682206
 20
112.8487473323405
 30
0
 11
-179.4626895987656
 21
112.7103349411296
 31
0
  0
LINE
  8
1
 62
7
 10
-179.4626895987656
 20
112.7103349411296
 30
0
 11
-179.2965947293135
 21
112.6180600136555
 31
0
  0
LINE
  8
1
 62
7
 10
-179.2965947293135
 20
112.6180600136555
 30
0
 11
-179.0197699468906
 21
112.5257850861815
 31
0
  0
LINE
  8
1
 62
7
 10
-179.0197699468906
 20
112.5257850861815
 30
0
 11
-178.7983101209536
 21
112.4796476224445
 31
0
  0
LINE
  8
1
 62
7
 10
-178.7983101209536
 20
112.4796476224445
 30
0
 11
-178.4107554255627
 21
112.4796476224445
 31
0
  0
LINE
  8
1
 62
7
 10
-178.4107554255627
 20
112.4796476224445
 30
0
 11
-178.1892955996245
 21
112.5257850861815
 31
0
  0
LINE
  8
1
 62
7
 10
-178.1892955996245
 20
112.5257850861815
 30
0
 11
-177.9124708172026
 21
112.6180600136555
 31
0
  0
LINE
  8
1
 62
7
 10
-177.9124708172026
 20
112.6180600136555
 30
0
 11
-177.7463759477496
 21
112.7103349411296
 31
0
  0
LINE
  8
1
 62
7
 10
-185.4233101209536
 20
112.9410222598145
 30
0
 11
-185.0357554255627
 21
112.9410222598145
 31
0
  0
LINE
  8
1
 62
7
 10
-185.0357554255627
 20
112.9410222598145
 30
0
 11
-184.8142955996266
 21
113.0332971872884
 31
0
  0
LINE
  8
1
 62
7
 10
-184.8142955996266
 20
113.0332971872884
 30
0
 11
-184.5928357736875
 21
113.1717095784996
 31
0
  0
LINE
  8
1
 62
7
 10
-184.5928357736875
 20
113.1717095784996
 30
0
 11
-184.4821058607186
 21
113.3101219697105
 31
0
  0
LINE
  8
1
 62
7
 10
-184.4821058607186
 20
113.3101219697105
 30
0
 11
-184.3713759477505
 21
113.5408092883955
 31
0
  0
LINE
  8
1
 62
7
 10
-184.3713759477505
 20
113.5408092883955
 30
0
 11
-184.3160109912656
 21
114.0483213895023
 31
0
  0
LINE
  8
1
 62
7
 10
-184.3160109912656
 20
114.0483213895023
 30
0
 11
-184.3160109912656
 21
114.6019709543462
 31
0
  0
LINE
  8
1
 62
7
 10
-184.3160109912656
 20
114.6019709543462
 30
0
 11
-184.3713759477505
 21
115.1094830554532
 31
0
  0
LINE
  8
1
 62
7
 10
-184.3713759477505
 20
115.1094830554532
 30
0
 11
-184.4821058607186
 21
115.3401703741382
 31
0
  0
LINE
  8
1
 62
7
 10
-184.4821058607186
 20
115.3401703741382
 30
0
 11
-184.5928357736875
 21
115.4785827653492
 31
0
  0
LINE
  8
1
 62
7
 10
-184.5928357736875
 20
115.4785827653492
 30
0
 11
-184.8142955996266
 21
115.6169951565602
 31
0
  0
LINE
  8
1
 62
7
 10
-184.8142955996266
 20
115.6169951565602
 30
0
 11
-185.0357554255627
 21
115.7092700840342
 31
0
  0
LINE
  8
1
 62
7
 10
-185.0357554255627
 20
115.7092700840342
 30
0
 11
-185.4233101209536
 21
115.7092700840342
 31
0
  0
LINE
  8
1
 62
7
 10
-185.4233101209536
 20
115.7092700840342
 30
0
 11
-185.6447699468915
 21
115.6169951565602
 31
0
  0
LINE
  8
1
 62
7
 10
-185.6447699468915
 20
115.6169951565602
 30
0
 11
-185.8662297728286
 21
115.4785827653492
 31
0
  0
LINE
  8
1
 62
7
 10
-185.8662297728286
 20
115.4785827653492
 30
0
 11
-185.9769596857975
 21
115.3401703741382
 31
0
  0
LINE
  8
1
 62
7
 10
-185.9769596857975
 20
115.3401703741382
 30
0
 11
-186.0876895987667
 21
115.1094830554532
 31
0
  0
LINE
  8
1
 62
7
 10
-186.0876895987667
 20
115.1094830554532
 30
0
 11
-186.1430545552516
 21
114.6019709543462
 31
0
  0
LINE
  8
1
 62
7
 10
-186.1430545552516
 20
114.6019709543462
 30
0
 11
-186.1430545552516
 21
114.0483213895023
 31
0
  0
LINE
  8
1
 62
7
 10
-186.1430545552516
 20
114.0483213895023
 30
0
 11
-186.0876895987667
 21
113.5408092883955
 31
0
  0
LINE
  8
1
 62
7
 10
-186.0876895987667
 20
113.5408092883955
 30
0
 11
-185.9769596857975
 21
113.3101219697105
 31
0
  0
LINE
  8
1
 62
7
 10
-185.9769596857975
 20
113.3101219697105
 30
0
 11
-185.8662297728286
 21
113.1717095784996
 31
0
  0
LINE
  8
1
 62
7
 10
-185.8662297728286
 20
113.1717095784996
 30
0
 11
-185.6447699468915
 21
113.0332971872884
 31
0
  0
LINE
  8
1
 62
7
 10
-185.6447699468915
 20
113.0332971872884
 30
0
 11
-185.4233101209536
 21
112.9410222598145
 31
0
  0
LINE
  8
1
 62
7
 10
-184.3713759477505
 20
112.7103349411296
 30
0
 11
-184.2052810782966
 21
112.8487473323405
 31
0
  0
LINE
  8
1
 62
7
 10
-184.2052810782966
 20
112.8487473323405
 30
0
 11
-184.0391862088436
 21
113.0332971872884
 31
0
  0
LINE
  8
1
 62
7
 10
-184.0391862088436
 20
113.0332971872884
 30
0
 11
-183.9284562958746
 21
113.2178470422365
 31
0
  0
LINE
  8
1
 62
7
 10
-183.9284562958746
 20
113.2178470422365
 30
0
 11
-183.8177263829066
 21
113.4485343609214
 31
0
  0
LINE
  8
1
 62
7
 10
-183.8177263829066
 20
113.4485343609214
 30
0
 11
-183.7623614264217
 21
113.7253591433435
 31
0
  0
LINE
  8
1
 62
7
 10
-183.7623614264217
 20
113.7253591433435
 30
0
 11
-183.7069964699376
 21
114.1405963169765
 31
0
  0
LINE
  8
1
 62
7
 10
-183.7069964699376
 20
114.1405963169765
 30
0
 11
-183.7069964699376
 21
114.5096960268723
 31
0
  0
LINE
  8
1
 62
7
 10
-183.7069964699376
 20
114.5096960268723
 30
0
 11
-183.7623614264217
 21
114.9249332005053
 31
0
  0
LINE
  8
1
 62
7
 10
-183.7623614264217
 20
114.9249332005053
 30
0
 11
-183.8177263829066
 21
115.2017579829272
 31
0
  0
LINE
  8
1
 62
7
 10
-183.8177263829066
 20
115.2017579829272
 30
0
 11
-183.9284562958746
 21
115.4324453016123
 31
0
  0
LINE
  8
1
 62
7
 10
-183.9284562958746
 20
115.4324453016123
 30
0
 11
-184.0391862088436
 21
115.6169951565602
 31
0
  0
LINE
  8
1
 62
7
 10
-184.0391862088436
 20
115.6169951565602
 30
0
 11
-184.2052810782966
 21
115.8015450115082
 31
0
  0
LINE
  8
1
 62
7
 10
-184.2052810782966
 20
115.8015450115082
 30
0
 11
-184.3713759477505
 21
115.9399574027192
 31
0
  0
LINE
  8
1
 62
7
 10
-184.3713759477505
 20
115.9399574027192
 30
0
 11
-184.5374708172035
 21
116.0322323301932
 31
0
  0
LINE
  8
1
 62
7
 10
-184.5374708172035
 20
116.0322323301932
 30
0
 11
-184.8142955996266
 21
116.124507257667
 31
0
  0
LINE
  8
1
 62
7
 10
-184.8142955996266
 20
116.124507257667
 30
0
 11
-185.0357554255627
 21
116.1706447214041
 31
0
  0
LINE
  8
1
 62
7
 10
-185.0357554255627
 20
116.1706447214041
 30
0
 11
-185.4233101209536
 21
116.1706447214041
 31
0
  0
LINE
  8
1
 62
7
 10
-185.4233101209536
 20
116.1706447214041
 30
0
 11
-185.6447699468915
 21
116.124507257667
 31
0
  0
LINE
  8
1
 62
7
 10
-185.6447699468915
 20
116.124507257667
 30
0
 11
-185.9215947293146
 21
116.0322323301932
 31
0
  0
LINE
  8
1
 62
7
 10
-185.9215947293146
 20
116.0322323301932
 30
0
 11
-186.0876895987667
 21
115.9399574027192
 31
0
  0
LINE
  8
1
 62
7
 10
-186.0876895987667
 20
115.9399574027192
 30
0
 11
-186.2537844682206
 21
115.8015450115082
 31
0
  0
LINE
  8
1
 62
7
 10
-186.2537844682206
 20
115.8015450115082
 30
0
 11
-186.4198793376727
 21
115.6169951565602
 31
0
  0
LINE
  8
1
 62
7
 10
-186.4198793376727
 20
115.6169951565602
 30
0
 11
-186.5306092506417
 21
115.4324453016123
 31
0
  0
LINE
  8
1
 62
7
 10
-186.5306092506417
 20
115.4324453016123
 30
0
 11
-186.6413391636106
 21
115.2017579829272
 31
0
  0
LINE
  8
1
 62
7
 10
-186.6413391636106
 20
115.2017579829272
 30
0
 11
-186.6967041200946
 21
114.9249332005053
 31
0
  0
LINE
  8
1
 62
7
 10
-186.6967041200946
 20
114.9249332005053
 30
0
 11
-186.7520690765796
 21
114.5096960268723
 31
0
  0
LINE
  8
1
 62
7
 10
-186.7520690765796
 20
114.5096960268723
 30
0
 11
-186.7520690765796
 21
114.1405963169765
 31
0
  0
LINE
  8
1
 62
7
 10
-186.7520690765796
 20
114.1405963169765
 30
0
 11
-186.6967041200946
 21
113.7253591433435
 31
0
  0
LINE
  8
1
 62
7
 10
-186.6967041200946
 20
113.7253591433435
 30
0
 11
-186.6413391636106
 21
113.4485343609214
 31
0
  0
LINE
  8
1
 62
7
 10
-186.6413391636106
 20
113.4485343609214
 30
0
 11
-186.5306092506417
 21
113.2178470422365
 31
0
  0
LINE
  8
1
 62
7
 10
-186.5306092506417
 20
113.2178470422365
 30
0
 11
-186.4198793376727
 21
113.0332971872884
 31
0
  0
LINE
  8
1
 62
7
 10
-186.4198793376727
 20
113.0332971872884
 30
0
 11
-186.2537844682206
 21
112.8487473323405
 31
0
  0
LINE
  8
1
 62
7
 10
-186.2537844682206
 20
112.8487473323405
 30
0
 11
-186.0876895987667
 21
112.7103349411296
 31
0
  0
LINE
  8
1
 62
7
 10
-186.0876895987667
 20
112.7103349411296
 30
0
 11
-185.9215947293146
 21
112.6180600136555
 31
0
  0
LINE
  8
1
 62
7
 10
-185.9215947293146
 20
112.6180600136555
 30
0
 11
-185.6447699468915
 21
112.5257850861815
 31
0
  0
LINE
  8
1
 62
7
 10
-185.6447699468915
 20
112.5257850861815
 30
0
 11
-185.4233101209536
 21
112.4796476224445
 31
0
  0
LINE
  8
1
 62
7
 10
-185.4233101209536
 20
112.4796476224445
 30
0
 11
-185.0357554255627
 21
112.4796476224445
 31
0
  0
LINE
  8
1
 62
7
 10
-185.0357554255627
 20
112.4796476224445
 30
0
 11
-184.8142955996266
 21
112.5257850861815
 31
0
  0
LINE
  8
1
 62
7
 10
-184.8142955996266
 20
112.5257850861815
 30
0
 11
-184.5374708172035
 21
112.6180600136555
 31
0
  0
LINE
  8
1
 62
7
 10
-184.5374708172035
 20
112.6180600136555
 30
0
 11
-184.3713759477505
 21
112.7103349411296
 31
0
  0
LINE
  8
1
 62
7
 10
-192.0483101209545
 20
112.9410222598145
 30
0
 11
-191.6607554255645
 21
112.9410222598145
 31
0
  0
LINE
  8
1
 62
7
 10
-191.6607554255645
 20
112.9410222598145
 30
0
 11
-191.4392955996266
 21
113.0332971872884
 31
0
  0
LINE
  8
1
 62
7
 10
-191.4392955996266
 20
113.0332971872884
 30
0
 11
-191.2178357736896
 21
113.1717095784996
 31
0
  0
LINE
  8
1
 62
7
 10
-191.2178357736896
 20
113.1717095784996
 30
0
 11
-191.1071058607197
 21
113.3101219697105
 31
0
  0
LINE
  8
1
 62
7
 10
-191.1071058607197
 20
113.3101219697105
 30
0
 11
-190.9963759477505
 21
113.5408092883955
 31
0
  0
LINE
  8
1
 62
7
 10
-190.9963759477505
 20
113.5408092883955
 30
0
 11
-190.9410109912667
 21
114.0483213895023
 31
0
  0
LINE
  8
1
 62
7
 10
-190.9410109912667
 20
114.0483213895023
 30
0
 11
-190.9410109912667
 21
114.6019709543462
 31
0
  0
LINE
  8
1
 62
7
 10
-190.9410109912667
 20
114.6019709543462
 30
0
 11
-190.9963759477505
 21
115.1094830554532
 31
0
  0
LINE
  8
1
 62
7
 10
-190.9963759477505
 20
115.1094830554532
 30
0
 11
-191.1071058607197
 21
115.3401703741382
 31
0
  0
LINE
  8
1
 62
7
 10
-191.1071058607197
 20
115.3401703741382
 30
0
 11
-191.2178357736896
 21
115.4785827653492
 31
0
  0
LINE
  8
1
 62
7
 10
-191.2178357736896
 20
115.4785827653492
 30
0
 11
-191.4392955996266
 21
115.6169951565602
 31
0
  0
LINE
  8
1
 62
7
 10
-191.4392955996266
 20
115.6169951565602
 30
0
 11
-191.6607554255645
 21
115.7092700840342
 31
0
  0
LINE
  8
1
 62
7
 10
-191.6607554255645
 20
115.7092700840342
 30
0
 11
-192.0483101209545
 21
115.7092700840342
 31
0
  0
LINE
  8
1
 62
7
 10
-192.0483101209545
 20
115.7092700840342
 30
0
 11
-192.2697699468915
 21
115.6169951565602
 31
0
  0
LINE
  8
1
 62
7
 10
-192.2697699468915
 20
115.6169951565602
 30
0
 11
-192.4912297728297
 21
115.4785827653492
 31
0
  0
LINE
  8
1
 62
7
 10
-192.4912297728297
 20
115.4785827653492
 30
0
 11
-192.6019596857987
 21
115.3401703741382
 31
0
  0
LINE
  8
1
 62
7
 10
-192.6019596857987
 20
115.3401703741382
 30
0
 11
-192.7126895987667
 21
115.1094830554532
 31
0
  0
LINE
  8
1
 62
7
 10
-192.7126895987667
 20
115.1094830554532
 30
0
 11
-192.7680545552516
 21
114.6019709543462
 31
0
  0
LINE
  8
1
 62
7
 10
-192.7680545552516
 20
114.6019709543462
 30
0
 11
-192.7680545552516
 21
114.0483213895023
 31
0
  0
LINE
  8
1
 62
7
 10
-192.7680545552516
 20
114.0483213895023
 30
0
 11
-192.7126895987667
 21
113.5408092883955
 31
0
  0
LINE
  8
1
 62
7
 10
-192.7126895987667
 20
113.5408092883955
 30
0
 11
-192.6019596857987
 21
113.3101219697105
 31
0
  0
LINE
  8
1
 62
7
 10
-192.6019596857987
 20
113.3101219697105
 30
0
 11
-192.4912297728297
 21
113.1717095784996
 31
0
  0
LINE
  8
1
 62
7
 10
-192.4912297728297
 20
113.1717095784996
 30
0
 11
-192.2697699468915
 21
113.0332971872884
 31
0
  0
LINE
  8
1
 62
7
 10
-192.2697699468915
 20
113.0332971872884
 30
0
 11
-192.0483101209545
 21
112.9410222598145
 31
0
  0
LINE
  8
1
 62
7
 10
-190.9963759477505
 20
112.7103349411296
 30
0
 11
-190.8302810782975
 21
112.8487473323405
 31
0
  0
LINE
  8
1
 62
7
 10
-190.8302810782975
 20
112.8487473323405
 30
0
 11
-190.6641862088445
 21
113.0332971872884
 31
0
  0
LINE
  8
1
 62
7
 10
-190.6641862088445
 20
113.0332971872884
 30
0
 11
-190.5534562958756
 21
113.2178470422365
 31
0
  0
LINE
  8
1
 62
7
 10
-190.5534562958756
 20
113.2178470422365
 30
0
 11
-190.4427263829066
 21
113.4485343609214
 31
0
  0
LINE
  8
1
 62
7
 10
-190.4427263829066
 20
113.4485343609214
 30
0
 11
-190.3873614264226
 21
113.7253591433435
 31
0
  0
LINE
  8
1
 62
7
 10
-190.3873614264226
 20
113.7253591433435
 30
0
 11
-190.3319964699376
 21
114.1405963169765
 31
0
  0
LINE
  8
1
 62
7
 10
-190.3319964699376
 20
114.1405963169765
 30
0
 11
-190.3319964699376
 21
114.5096960268723
 31
0
  0
LINE
  8
1
 62
7
 10
-190.3319964699376
 20
114.5096960268723
 30
0
 11
-190.3873614264226
 21
114.9249332005053
 31
0
  0
LINE
  8
1
 62
7
 10
-190.3873614264226
 20
114.9249332005053
 30
0
 11
-190.4427263829066
 21
115.2017579829272
 31
0
  0
LINE
  8
1
 62
7
 10
-190.4427263829066
 20
115.2017579829272
 30
0
 11
-190.5534562958756
 21
115.4324453016123
 31
0
  0
LINE
  8
1
 62
7
 10
-190.5534562958756
 20
115.4324453016123
 30
0
 11
-190.6641862088445
 21
115.6169951565602
 31
0
  0
LINE
  8
1
 62
7
 10
-190.6641862088445
 20
115.6169951565602
 30
0
 11
-190.8302810782975
 21
115.8015450115082
 31
0
  0
LINE
  8
1
 62
7
 10
-190.8302810782975
 20
115.8015450115082
 30
0
 11
-190.9963759477505
 21
115.9399574027192
 31
0
  0
LINE
  8
1
 62
7
 10
-190.9963759477505
 20
115.9399574027192
 30
0
 11
-191.1624708172035
 21
116.0322323301932
 31
0
  0
LINE
  8
1
 62
7
 10
-191.1624708172035
 20
116.0322323301932
 30
0
 11
-191.4392955996266
 21
116.124507257667
 31
0
  0
LINE
  8
1
 62
7
 10
-191.4392955996266
 20
116.124507257667
 30
0
 11
-191.6607554255645
 21
116.1706447214041
 31
0
  0
LINE
  8
1
 62
7
 10
-191.6607554255645
 20
116.1706447214041
 30
0
 11
-192.0483101209545
 21
116.1706447214041
 31
0
  0
LINE
  8
1
 62
7
 10
-192.0483101209545
 20
116.1706447214041
 30
0
 11
-192.2697699468915
 21
116.124507257667
 31
0
  0
LINE
  8
1
 62
7
 10
-192.2697699468915
 20
116.124507257667
 30
0
 11
-192.5465947293146
 21
116.0322323301932
 31
0
  0
LINE
  8
1
 62
7
 10
-192.5465947293146
 20
116.0322323301932
 30
0
 11
-192.7126895987667
 21
115.9399574027192
 31
0
  0
LINE
  8
1
 62
7
 10
-192.7126895987667
 20
115.9399574027192
 30
0
 11
-192.8787844682206
 21
115.8015450115082
 31
0
  0
LINE
  8
1
 62
7
 10
-192.8787844682206
 20
115.8015450115082
 30
0
 11
-193.0448793376736
 21
115.6169951565602
 31
0
  0
LINE
  8
1
 62
7
 10
-193.0448793376736
 20
115.6169951565602
 30
0
 11
-193.1556092506417
 21
115.4324453016123
 31
0
  0
LINE
  8
1
 62
7
 10
-193.1556092506417
 20
115.4324453016123
 30
0
 11
-193.2663391636106
 21
115.2017579829272
 31
0
  0
LINE
  8
1
 62
7
 10
-193.2663391636106
 20
115.2017579829272
 30
0
 11
-193.3217041200956
 21
114.9249332005053
 31
0
  0
LINE
  8
1
 62
7
 10
-193.3217041200956
 20
114.9249332005053
 30
0
 11
-193.3770690765796
 21
114.5096960268723
 31
0
  0
LINE
  8
1
 62
7
 10
-193.3770690765796
 20
114.5096960268723
 30
0
 11
-193.3770690765796
 21
114.1405963169765
 31
0
  0
LINE
  8
1
 62
7
 10
-193.3770690765796
 20
114.1405963169765
 30
0
 11
-193.3217041200956
 21
113.7253591433435
 31
0
  0
LINE
  8
1
 62
7
 10
-193.3217041200956
 20
113.7253591433435
 30
0
 11
-193.2663391636106
 21
113.4485343609214
 31
0
  0
LINE
  8
1
 62
7
 10
-193.2663391636106
 20
113.4485343609214
 30
0
 11
-193.1556092506417
 21
113.2178470422365
 31
0
  0
LINE
  8
1
 62
7
 10
-193.1556092506417
 20
113.2178470422365
 30
0
 11
-193.0448793376736
 21
113.0332971872884
 31
0
  0
LINE
  8
1
 62
7
 10
-193.0448793376736
 20
113.0332971872884
 30
0
 11
-192.8787844682206
 21
112.8487473323405
 31
0
  0
LINE
  8
1
 62
7
 10
-192.8787844682206
 20
112.8487473323405
 30
0
 11
-192.7126895987667
 21
112.7103349411296
 31
0
  0
LINE
  8
1
 62
7
 10
-192.7126895987667
 20
112.7103349411296
 30
0
 11
-192.5465947293146
 21
112.6180600136555
 31
0
  0
LINE
  8
1
 62
7
 10
-192.5465947293146
 20
112.6180600136555
 30
0
 11
-192.2697699468915
 21
112.5257850861815
 31
0
  0
LINE
  8
1
 62
7
 10
-192.2697699468915
 20
112.5257850861815
 30
0
 11
-192.0483101209545
 21
112.4796476224445
 31
0
  0
LINE
  8
1
 62
7
 10
-192.0483101209545
 20
112.4796476224445
 30
0
 11
-191.6607554255645
 21
112.4796476224445
 31
0
  0
LINE
  8
1
 62
7
 10
-191.6607554255645
 20
112.4796476224445
 30
0
 11
-191.4392955996266
 21
112.5257850861815
 31
0
  0
LINE
  8
1
 62
7
 10
-191.4392955996266
 20
112.5257850861815
 30
0
 11
-191.1624708172035
 21
112.6180600136555
 31
0
  0
LINE
  8
1
 62
7
 10
-191.1624708172035
 20
112.6180600136555
 30
0
 11
-190.9963759477505
 21
112.7103349411296
 31
0
  0
LINE
  8
1
 62
7
 10
-198.6733101209545
 20
112.9410222598145
 30
0
 11
-198.2857554255645
 21
112.9410222598145
 31
0
  0
LINE
  8
1
 62
7
 10
-198.2857554255645
 20
112.9410222598145
 30
0
 11
-198.0642955996275
 21
113.0332971872884
 31
0
  0
LINE
  8
1
 62
7
 10
-198.0642955996275
 20
113.0332971872884
 30
0
 11
-197.8428357736896
 21
113.1717095784996
 31
0
  0
LINE
  8
1
 62
7
 10
-197.8428357736896
 20
113.1717095784996
 30
0
 11
-197.7321058607197
 21
113.3101219697105
 31
0
  0
LINE
  8
1
 62
7
 10
-197.7321058607197
 20
113.3101219697105
 30
0
 11
-197.6213759477525
 21
113.5408092883955
 31
0
  0
LINE
  8
1
 62
7
 10
-197.6213759477525
 20
113.5408092883955
 30
0
 11
-197.5660109912667
 21
114.0483213895023
 31
0
  0
LINE
  8
1
 62
7
 10
-197.5660109912667
 20
114.0483213895023
 30
0
 11
-197.5660109912667
 21
114.6019709543462
 31
0
  0
LINE
  8
1
 62
7
 10
-197.5660109912667
 20
114.6019709543462
 30
0
 11
-197.6213759477525
 21
115.1094830554532
 31
0
  0
LINE
  8
1
 62
7
 10
-197.6213759477525
 20
115.1094830554532
 30
0
 11
-197.7321058607197
 21
115.3401703741382
 31
0
  0
LINE
  8
1
 62
7
 10
-197.7321058607197
 20
115.3401703741382
 30
0
 11
-197.8428357736896
 21
115.4785827653492
 31
0
  0
LINE
  8
1
 62
7
 10
-197.8428357736896
 20
115.4785827653492
 30
0
 11
-198.0642955996275
 21
115.6169951565602
 31
0
  0
LINE
  8
1
 62
7
 10
-198.0642955996275
 20
115.6169951565602
 30
0
 11
-198.2857554255645
 21
115.7092700840342
 31
0
  0
LINE
  8
1
 62
7
 10
-198.2857554255645
 20
115.7092700840342
 30
0
 11
-198.6733101209545
 21
115.7092700840342
 31
0
  0
LINE
  8
1
 62
7
 10
-198.6733101209545
 20
115.7092700840342
 30
0
 11
-198.8947699468927
 21
115.6169951565602
 31
0
  0
LINE
  8
1
 62
7
 10
-198.8947699468927
 20
115.6169951565602
 30
0
 11
-199.1162297728297
 21
115.4785827653492
 31
0
  0
LINE
  8
1
 62
7
 10
-199.1162297728297
 20
115.4785827653492
 30
0
 11
-199.2269596857987
 21
115.3401703741382
 31
0
  0
LINE
  8
1
 62
7
 10
-199.2269596857987
 20
115.3401703741382
 30
0
 11
-199.3376895987676
 21
115.1094830554532
 31
0
  0
LINE
  8
1
 62
7
 10
-199.3376895987676
 20
115.1094830554532
 30
0
 11
-199.3930545552516
 21
114.6019709543462
 31
0
  0
LINE
  8
1
 62
7
 10
-199.3930545552516
 20
114.6019709543462
 30
0
 11
-199.3930545552516
 21
114.0483213895023
 31
0
  0
LINE
  8
1
 62
7
 10
-199.3930545552516
 20
114.0483213895023
 30
0
 11
-199.3376895987676
 21
113.5408092883955
 31
0
  0
LINE
  8
1
 62
7
 10
-199.3376895987676
 20
113.5408092883955
 30
0
 11
-199.2269596857987
 21
113.3101219697105
 31
0
  0
LINE
  8
1
 62
7
 10
-199.2269596857987
 20
113.3101219697105
 30
0
 11
-199.1162297728297
 21
113.1717095784996
 31
0
  0
LINE
  8
1
 62
7
 10
-199.1162297728297
 20
113.1717095784996
 30
0
 11
-198.8947699468927
 21
113.0332971872884
 31
0
  0
LINE
  8
1
 62
7
 10
-198.8947699468927
 20
113.0332971872884
 30
0
 11
-198.6733101209545
 21
112.9410222598145
 31
0
  0
LINE
  8
1
 62
7
 10
-197.6213759477525
 20
112.7103349411296
 30
0
 11
-197.4552810782975
 21
112.8487473323405
 31
0
  0
LINE
  8
1
 62
7
 10
-197.4552810782975
 20
112.8487473323405
 30
0
 11
-197.2891862088445
 21
113.0332971872884
 31
0
  0
LINE
  8
1
 62
7
 10
-197.2891862088445
 20
113.0332971872884
 30
0
 11
-197.1784562958756
 21
113.2178470422365
 31
0
  0
LINE
  8
1
 62
7
 10
-197.1784562958756
 20
113.2178470422365
 30
0
 11
-197.0677263829075
 21
113.4485343609214
 31
0
  0
LINE
  8
1
 62
7
 10
-197.0677263829075
 20
113.4485343609214
 30
0
 11
-197.0123614264226
 21
113.7253591433435
 31
0
  0
LINE
  8
1
 62
7
 10
-197.0123614264226
 20
113.7253591433435
 30
0
 11
-196.9569964699385
 21
114.1405963169765
 31
0
  0
LINE
  8
1
 62
7
 10
-196.9569964699385
 20
114.1405963169765
 30
0
 11
-196.9569964699385
 21
114.5096960268723
 31
0
  0
LINE
  8
1
 62
7
 10
-196.9569964699385
 20
114.5096960268723
 30
0
 11
-197.0123614264226
 21
114.9249332005053
 31
0
  0
LINE
  8
1
 62
7
 10
-197.0123614264226
 20
114.9249332005053
 30
0
 11
-197.0677263829075
 21
115.2017579829272
 31
0
  0
LINE
  8
1
 62
7
 10
-197.0677263829075
 20
115.2017579829272
 30
0
 11
-197.1784562958756
 21
115.4324453016123
 31
0
  0
LINE
  8
1
 62
7
 10
-197.1784562958756
 20
115.4324453016123
 30
0
 11
-197.2891862088445
 21
115.6169951565602
 31
0
  0
LINE
  8
1
 62
7
 10
-197.2891862088445
 20
115.6169951565602
 30
0
 11
-197.4552810782975
 21
115.8015450115082
 31
0
  0
LINE
  8
1
 62
7
 10
-197.4552810782975
 20
115.8015450115082
 30
0
 11
-197.6213759477525
 21
115.9399574027192
 31
0
  0
LINE
  8
1
 62
7
 10
-197.6213759477525
 20
115.9399574027192
 30
0
 11
-197.7874708172046
 21
116.0322323301932
 31
0
  0
LINE
  8
1
 62
7
 10
-197.7874708172046
 20
116.0322323301932
 30
0
 11
-198.0642955996275
 21
116.124507257667
 31
0
  0
LINE
  8
1
 62
7
 10
-198.0642955996275
 20
116.124507257667
 30
0
 11
-198.2857554255645
 21
116.1706447214041
 31
0
  0
LINE
  8
1
 62
7
 10
-198.2857554255645
 20
116.1706447214041
 30
0
 11
-198.6733101209545
 21
116.1706447214041
 31
0
  0
LINE
  8
1
 62
7
 10
-198.6733101209545
 20
116.1706447214041
 30
0
 11
-198.8947699468927
 21
116.124507257667
 31
0
  0
LINE
  8
1
 62
7
 10
-198.8947699468927
 20
116.124507257667
 30
0
 11
-199.1715947293146
 21
116.0322323301932
 31
0
  0
LINE
  8
1
 62
7
 10
-199.1715947293146
 20
116.0322323301932
 30
0
 11
-199.3376895987676
 21
115.9399574027192
 31
0
  0
LINE
  8
1
 62
7
 10
-199.3376895987676
 20
115.9399574027192
 30
0
 11
-199.5037844682206
 21
115.8015450115082
 31
0
  0
LINE
  8
1
 62
7
 10
-199.5037844682206
 20
115.8015450115082
 30
0
 11
-199.6698793376736
 21
115.6169951565602
 31
0
  0
LINE
  8
1
 62
7
 10
-199.6698793376736
 20
115.6169951565602
 30
0
 11
-199.7806092506426
 21
115.4324453016123
 31
0
  0
LINE
  8
1
 62
7
 10
-199.7806092506426
 20
115.4324453016123
 30
0
 11
-199.8913391636115
 21
115.2017579829272
 31
0
  0
LINE
  8
1
 62
7
 10
-199.8913391636115
 20
115.2017579829272
 30
0
 11
-199.9467041200956
 21
114.9249332005053
 31
0
  0
LINE
  8
1
 62
7
 10
-199.9467041200956
 20
114.9249332005053
 30
0
 11
-200.0020690765796
 21
114.5096960268723
 31
0
  0
LINE
  8
1
 62
7
 10
-200.0020690765796
 20
114.5096960268723
 30
0
 11
-200.0020690765796
 21
114.1405963169765
 31
0
  0
LINE
  8
1
 62
7
 10
-200.0020690765796
 20
114.1405963169765
 30
0
 11
-199.9467041200956
 21
113.7253591433435
 31
0
  0
LINE
  8
1
 62
7
 10
-199.9467041200956
 20
113.7253591433435
 30
0
 11
-199.8913391636115
 21
113.4485343609214
 31
0
  0
LINE
  8
1
 62
7
 10
-199.8913391636115
 20
113.4485343609214
 30
0
 11
-199.7806092506426
 21
113.2178470422365
 31
0
  0
LINE
  8
1
 62
7
 10
-199.7806092506426
 20
113.2178470422365
 30
0
 11
-199.6698793376736
 21
113.0332971872884
 31
0
  0
LINE
  8
1
 62
7
 10
-199.6698793376736
 20
113.0332971872884
 30
0
 11
-199.5037844682206
 21
112.8487473323405
 31
0
  0
LINE
  8
1
 62
7
 10
-199.5037844682206
 20
112.8487473323405
 30
0
 11
-199.3376895987676
 21
112.7103349411296
 31
0
  0
LINE
  8
1
 62
7
 10
-199.3376895987676
 20
112.7103349411296
 30
0
 11
-199.1715947293146
 21
112.6180600136555
 31
0
  0
LINE
  8
1
 62
7
 10
-199.1715947293146
 20
112.6180600136555
 30
0
 11
-198.8947699468927
 21
112.5257850861815
 31
0
  0
LINE
  8
1
 62
7
 10
-198.8947699468927
 20
112.5257850861815
 30
0
 11
-198.6733101209545
 21
112.4796476224445
 31
0
  0
LINE
  8
1
 62
7
 10
-198.6733101209545
 20
112.4796476224445
 30
0
 11
-198.2857554255645
 21
112.4796476224445
 31
0
  0
LINE
  8
1
 62
7
 10
-198.2857554255645
 20
112.4796476224445
 30
0
 11
-198.0642955996275
 21
112.5257850861815
 31
0
  0
LINE
  8
1
 62
7
 10
-198.0642955996275
 20
112.5257850861815
 30
0
 11
-197.7874708172046
 21
112.6180600136555
 31
0
  0
LINE
  8
1
 62
7
 10
-197.7874708172046
 20
112.6180600136555
 30
0
 11
-197.6213759477525
 21
112.7103349411296
 31
0
  0
LINE
  8
1
 62
7
 10
-162.7510362030257
 20
112.4796476224445
 30
0
 11
-162.7510362030257
 21
112.7564724048665
 31
0
  0
LINE
  8
1
 62
7
 10
-162.7510362030257
 20
112.7564724048665
 30
0
 11
-162.6403062900565
 21
113.0794346510255
 31
0
  0
LINE
  8
1
 62
7
 10
-162.6403062900565
 20
113.0794346510255
 30
0
 11
-162.4188464641195
 21
113.4023968971843
 31
0
  0
LINE
  8
1
 62
7
 10
-162.4188464641195
 20
113.4023968971843
 30
0
 11
-162.1420216816966
 21
113.6792216796065
 31
0
  0
LINE
  8
1
 62
7
 10
-162.1420216816966
 20
113.6792216796065
 30
0
 11
-161.8098319427895
 21
114.0021839257655
 31
0
  0
LINE
  8
1
 62
7
 10
-161.8098319427895
 20
114.0021839257655
 30
0
 11
-161.4776422038835
 21
114.2328712444505
 31
0
  0
LINE
  8
1
 62
7
 10
-161.4776422038835
 20
114.2328712444505
 30
0
 11
-161.1454524649776
 21
114.5096960268723
 31
0
  0
LINE
  8
1
 62
7
 10
-161.1454524649776
 20
114.5096960268723
 30
0
 11
-160.7578977695866
 21
114.8326582730311
 31
0
  0
LINE
  8
1
 62
7
 10
-160.7578977695866
 20
114.8326582730311
 30
0
 11
-160.6471678566177
 21
114.9710706642423
 31
0
  0
LINE
  8
1
 62
7
 10
-160.6471678566177
 20
114.9710706642423
 30
0
 11
-160.5918029001336
 21
115.1094830554532
 31
0
  0
LINE
  8
1
 62
7
 10
-160.5918029001336
 20
115.1094830554532
 30
0
 11
-160.5918029001336
 21
115.2940329104011
 31
0
  0
LINE
  8
1
 62
7
 10
-160.5918029001336
 20
115.2940329104011
 30
0
 11
-160.6471678566177
 21
115.4324453016123
 31
0
  0
LINE
  8
1
 62
7
 10
-160.6471678566177
 20
115.4324453016123
 30
0
 11
-160.7578977695866
 21
115.5708576928232
 31
0
  0
LINE
  8
1
 62
7
 10
-160.7578977695866
 20
115.5708576928232
 30
0
 11
-160.9239926390396
 21
115.663132620297
 31
0
  0
LINE
  8
1
 62
7
 10
-160.9239926390396
 20
115.663132620297
 30
0
 11
-161.1454524649776
 21
115.7092700840342
 31
0
  0
LINE
  8
1
 62
7
 10
-161.1454524649776
 20
115.7092700840342
 30
0
 11
-161.3669122909146
 21
115.7092700840342
 31
0
  0
LINE
  8
1
 62
7
 10
-161.3669122909146
 20
115.7092700840342
 30
0
 11
-161.5883721168525
 21
115.663132620297
 31
0
  0
LINE
  8
1
 62
7
 10
-161.5883721168525
 20
115.663132620297
 30
0
 11
-161.7544669863055
 21
115.5708576928232
 31
0
  0
LINE
  8
1
 62
7
 10
-161.7544669863055
 20
115.5708576928232
 30
0
 11
-161.8651968992747
 21
115.4324453016123
 31
0
  0
LINE
  8
1
 62
7
 10
-161.8651968992747
 20
115.4324453016123
 30
0
 11
-161.9205618557587
 21
115.2940329104011
 31
0
  0
LINE
  8
1
 62
7
 10
-161.9205618557587
 20
115.2940329104011
 30
0
 11
-161.9205618557587
 21
115.1094830554532
 31
0
  0
LINE
  8
1
 62
7
 10
-161.9205618557587
 20
115.1094830554532
 30
0
 11
-162.5295763770876
 21
115.1094830554532
 31
0
  0
LINE
  8
1
 62
7
 10
-162.5295763770876
 20
115.1094830554532
 30
0
 11
-162.5295763770876
 21
115.2940329104011
 31
0
  0
LINE
  8
1
 62
7
 10
-162.5295763770876
 20
115.2940329104011
 30
0
 11
-162.4742114206026
 21
115.5247202290862
 31
0
  0
LINE
  8
1
 62
7
 10
-162.4742114206026
 20
115.5247202290862
 30
0
 11
-162.2527515946656
 21
115.8015450115082
 31
0
  0
LINE
  8
1
 62
7
 10
-162.2527515946656
 20
115.8015450115082
 30
0
 11
-162.0312917687277
 21
115.9860948664562
 31
0
  0
LINE
  8
1
 62
7
 10
-162.0312917687277
 20
115.9860948664562
 30
0
 11
-161.6991020298217
 21
116.124507257667
 31
0
  0
LINE
  8
1
 62
7
 10
-161.6991020298217
 20
116.124507257667
 30
0
 11
-161.4222772473995
 21
116.1706447214041
 31
0
  0
LINE
  8
1
 62
7
 10
-161.4222772473995
 20
116.1706447214041
 30
0
 11
-161.0900875084926
 21
116.1706447214041
 31
0
  0
LINE
  8
1
 62
7
 10
-161.0900875084926
 20
116.1706447214041
 30
0
 11
-160.8132627260716
 21
116.124507257667
 31
0
  0
LINE
  8
1
 62
7
 10
-160.8132627260716
 20
116.124507257667
 30
0
 11
-160.4810729871647
 21
115.9860948664562
 31
0
  0
LINE
  8
1
 62
7
 10
-160.4810729871647
 20
115.9860948664562
 30
0
 11
-160.2596131612277
 21
115.8015450115082
 31
0
  0
LINE
  8
1
 62
7
 10
-160.2596131612277
 20
115.8015450115082
 30
0
 11
-160.0381533352906
 21
115.5247202290862
 31
0
  0
LINE
  8
1
 62
7
 10
-160.0381533352906
 20
115.5247202290862
 30
0
 11
-159.9827883788046
 21
115.2940329104011
 31
0
  0
LINE
  8
1
 62
7
 10
-159.9827883788046
 20
115.2940329104011
 30
0
 11
-159.9827883788046
 21
115.1094830554532
 31
0
  0
LINE
  8
1
 62
7
 10
-159.9827883788046
 20
115.1094830554532
 30
0
 11
-160.0381533352906
 21
114.8787957367682
 31
0
  0
LINE
  8
1
 62
7
 10
-160.0381533352906
 20
114.8787957367682
 30
0
 11
-160.2596131612277
 21
114.6019709543462
 31
0
  0
LINE
  8
1
 62
7
 10
-160.2596131612277
 20
114.6019709543462
 30
0
 11
-160.3703430741966
 21
114.5096960268723
 31
0
  0
LINE
  8
1
 62
7
 10
-160.3703430741966
 20
114.5096960268723
 30
0
 11
-160.8132627260716
 21
114.1867337807135
 31
0
  0
LINE
  8
1
 62
7
 10
-160.8132627260716
 20
114.1867337807135
 30
0
 11
-161.2008174214616
 21
113.9099089982914
 31
0
  0
LINE
  8
1
 62
7
 10
-161.2008174214616
 20
113.9099089982914
 30
0
 11
-161.5883721168525
 21
113.5408092883955
 31
0
  0
LINE
  8
1
 62
7
 10
-161.5883721168525
 20
113.5408092883955
 30
0
 11
-161.8651968992747
 21
113.2178470422365
 31
0
  0
LINE
  8
1
 62
7
 10
-161.8651968992747
 20
113.2178470422365
 30
0
 11
-161.9759268122446
 21
112.9410222598145
 31
0
  0
LINE
  8
1
 62
7
 10
-161.9759268122446
 20
112.9410222598145
 30
0
 11
-159.8166935093525
 21
112.9410222598145
 31
0
  0
LINE
  8
1
 62
7
 10
-159.8166935093525
 20
112.9410222598145
 30
0
 11
-159.8166935093525
 21
112.4796476224445
 31
0
  0
LINE
  8
1
 62
7
 10
-159.8166935093525
 20
112.4796476224445
 30
0
 11
-162.7510362030257
 21
112.4796476224445
 31
0
  0
LINE
  8
1
 62
7
 10
-154.7695947691575
 20
114.2790087081874
 30
0
 11
-154.5481349432207
 21
114.2790087081874
 31
0
  0
LINE
  8
1
 62
7
 10
-154.5481349432207
 20
114.2790087081874
 30
0
 11
-154.2713101607976
 21
114.2328712444505
 31
0
  0
LINE
  8
1
 62
7
 10
-154.2713101607976
 20
114.2328712444505
 30
0
 11
-154.0498503348597
 21
114.0944588532393
 31
0
  0
LINE
  8
1
 62
7
 10
-154.0498503348597
 20
114.0944588532393
 30
0
 11
-153.8837554654067
 21
113.9099089982914
 31
0
  0
LINE
  8
1
 62
7
 10
-153.8837554654067
 20
113.9099089982914
 30
0
 11
-153.8283905089227
 21
113.7253591433435
 31
0
  0
LINE
  8
1
 62
7
 10
-153.8283905089227
 20
113.7253591433435
 30
0
 11
-153.8283905089227
 21
113.5408092883955
 31
0
  0
LINE
  8
1
 62
7
 10
-153.8283905089227
 20
113.5408092883955
 30
0
 11
-153.8837554654067
 21
113.3562594334475
 31
0
  0
LINE
  8
1
 62
7
 10
-153.8837554654067
 20
113.3562594334475
 30
0
 11
-154.0498503348597
 21
113.1717095784996
 31
0
  0
LINE
  8
1
 62
7
 10
-154.0498503348597
 20
113.1717095784996
 30
0
 11
-154.2713101607976
 21
113.0332971872884
 31
0
  0
LINE
  8
1
 62
7
 10
-154.2713101607976
 20
113.0332971872884
 30
0
 11
-154.5481349432207
 21
112.9871597235515
 31
0
  0
LINE
  8
1
 62
7
 10
-154.5481349432207
 20
112.9871597235515
 30
0
 11
-154.7695947691575
 21
112.9871597235515
 31
0
  0
LINE
  8
1
 62
7
 10
-154.7695947691575
 20
112.9871597235515
 30
0
 11
-155.0464195515785
 21
113.0332971872884
 31
0
  0
LINE
  8
1
 62
7
 10
-155.0464195515785
 20
113.0332971872884
 30
0
 11
-155.2678793775167
 21
113.1717095784996
 31
0
  0
LINE
  8
1
 62
7
 10
-155.2678793775167
 20
113.1717095784996
 30
0
 11
-155.4339742469697
 21
113.3562594334475
 31
0
  0
LINE
  8
1
 62
7
 10
-155.4339742469697
 20
113.3562594334475
 30
0
 11
-155.4893392034546
 21
113.5408092883955
 31
0
  0
LINE
  8
1
 62
7
 10
-155.4893392034546
 20
113.5408092883955
 30
0
 11
-155.4893392034546
 21
113.7253591433435
 31
0
  0
LINE
  8
1
 62
7
 10
-155.4893392034546
 20
113.7253591433435
 30
0
 11
-156.1537186812666
 21
113.7253591433435
 31
0
  0
LINE
  8
1
 62
7
 10
-156.1537186812666
 20
113.7253591433435
 30
0
 11
-156.1537186812666
 21
113.4946718246584
 31
0
  0
LINE
  8
1
 62
7
 10
-156.1537186812666
 20
113.4946718246584
 30
0
 11
-156.0429887682976
 21
113.1717095784996
 31
0
  0
LINE
  8
1
 62
7
 10
-156.0429887682976
 20
113.1717095784996
 30
0
 11
-155.8768938988446
 21
112.9410222598145
 31
0
  0
LINE
  8
1
 62
7
 10
-155.8768938988446
 20
112.9410222598145
 30
0
 11
-155.6000691164227
 21
112.7103349411296
 31
0
  0
LINE
  8
1
 62
7
 10
-155.6000691164227
 20
112.7103349411296
 30
0
 11
-155.2678793775167
 21
112.5719225499184
 31
0
  0
LINE
  8
1
 62
7
 10
-155.2678793775167
 20
112.5719225499184
 30
0
 11
-154.8249597256415
 21
112.4796476224445
 31
0
  0
LINE
  8
1
 62
7
 10
-154.8249597256415
 20
112.4796476224445
 30
0
 11
-154.4927699867355
 21
112.4796476224445
 31
0
  0
LINE
  8
1
 62
7
 10
-154.4927699867355
 20
112.4796476224445
 30
0
 11
-154.0498503348597
 21
112.5719225499184
 31
0
  0
LINE
  8
1
 62
7
 10
-154.0498503348597
 20
112.5719225499184
 30
0
 11
-153.7176605959537
 21
112.7103349411296
 31
0
  0
LINE
  8
1
 62
7
 10
-153.7176605959537
 20
112.7103349411296
 30
0
 11
-153.4408358135315
 21
112.9410222598145
 31
0
  0
LINE
  8
1
 62
7
 10
-153.4408358135315
 20
112.9410222598145
 30
0
 11
-153.2747409440785
 21
113.1717095784996
 31
0
  0
LINE
  8
1
 62
7
 10
-153.2747409440785
 20
113.1717095784996
 30
0
 11
-153.1640110311096
 21
113.4946718246584
 31
0
  0
LINE
  8
1
 62
7
 10
-153.1640110311096
 20
113.4946718246584
 30
0
 11
-153.1640110311096
 21
113.7253591433435
 31
0
  0
LINE
  8
1
 62
7
 10
-153.1640110311096
 20
113.7253591433435
 30
0
 11
-153.2747409440785
 21
114.0483213895023
 31
0
  0
LINE
  8
1
 62
7
 10
-153.2747409440785
 20
114.0483213895023
 30
0
 11
-153.4962007700156
 21
114.3251461719243
 31
0
  0
LINE
  8
1
 62
7
 10
-153.4962007700156
 20
114.3251461719243
 30
0
 11
-153.7730255524375
 21
114.5096960268723
 31
0
  0
LINE
  8
1
 62
7
 10
-153.7730255524375
 20
114.5096960268723
 30
0
 11
-153.6622956394697
 21
114.6019709543462
 31
0
  0
LINE
  8
1
 62
7
 10
-153.6622956394697
 20
114.6019709543462
 30
0
 11
-153.4408358135315
 21
114.8787957367682
 31
0
  0
LINE
  8
1
 62
7
 10
-153.4408358135315
 20
114.8787957367682
 30
0
 11
-153.3854708570475
 21
115.1094830554532
 31
0
  0
LINE
  8
1
 62
7
 10
-153.3854708570475
 20
115.1094830554532
 30
0
 11
-153.3854708570475
 21
115.2940329104011
 31
0
  0
LINE
  8
1
 62
7
 10
-153.3854708570475
 20
115.2940329104011
 30
0
 11
-153.4408358135315
 21
115.5247202290862
 31
0
  0
LINE
  8
1
 62
7
 10
-153.4408358135315
 20
115.5247202290862
 30
0
 11
-153.6622956394697
 21
115.8015450115082
 31
0
  0
LINE
  8
1
 62
7
 10
-153.6622956394697
 20
115.8015450115082
 30
0
 11
-153.8837554654067
 21
115.9860948664562
 31
0
  0
LINE
  8
1
 62
7
 10
-153.8837554654067
 20
115.9860948664562
 30
0
 11
-154.2159452043145
 21
116.124507257667
 31
0
  0
LINE
  8
1
 62
7
 10
-154.2159452043145
 20
116.124507257667
 30
0
 11
-154.4927699867355
 21
116.1706447214041
 31
0
  0
LINE
  8
1
 62
7
 10
-154.4927699867355
 20
116.1706447214041
 30
0
 11
-154.8249597256415
 21
116.1706447214041
 31
0
  0
LINE
  8
1
 62
7
 10
-154.8249597256415
 20
116.1706447214041
 30
0
 11
-155.1017845080646
 21
116.124507257667
 31
0
  0
LINE
  8
1
 62
7
 10
-155.1017845080646
 20
116.124507257667
 30
0
 11
-155.4339742469697
 21
115.9860948664562
 31
0
  0
LINE
  8
1
 62
7
 10
-155.4339742469697
 20
115.9860948664562
 30
0
 11
-155.6554340729076
 21
115.8015450115082
 31
0
  0
LINE
  8
1
 62
7
 10
-155.6554340729076
 20
115.8015450115082
 30
0
 11
-155.8768938988446
 21
115.5247202290862
 31
0
  0
LINE
  8
1
 62
7
 10
-155.8768938988446
 20
115.5247202290862
 30
0
 11
-155.9322588553296
 21
115.2940329104011
 31
0
  0
LINE
  8
1
 62
7
 10
-155.9322588553296
 20
115.2940329104011
 30
0
 11
-155.9322588553296
 21
115.1094830554532
 31
0
  0
LINE
  8
1
 62
7
 10
-155.9322588553296
 20
115.1094830554532
 30
0
 11
-155.3232443340016
 21
115.1094830554532
 31
0
  0
LINE
  8
1
 62
7
 10
-155.3232443340016
 20
115.1094830554532
 30
0
 11
-155.3232443340016
 21
115.2940329104011
 31
0
  0
LINE
  8
1
 62
7
 10
-155.3232443340016
 20
115.2940329104011
 30
0
 11
-155.2678793775167
 21
115.4324453016123
 31
0
  0
LINE
  8
1
 62
7
 10
-155.2678793775167
 20
115.4324453016123
 30
0
 11
-155.1571494645475
 21
115.5708576928232
 31
0
  0
LINE
  8
1
 62
7
 10
-155.1571494645475
 20
115.5708576928232
 30
0
 11
-154.9910545950957
 21
115.663132620297
 31
0
  0
LINE
  8
1
 62
7
 10
-154.9910545950957
 20
115.663132620297
 30
0
 11
-154.7695947691575
 21
115.7092700840342
 31
0
  0
LINE
  8
1
 62
7
 10
-154.7695947691575
 20
115.7092700840342
 30
0
 11
-154.5481349432207
 21
115.7092700840342
 31
0
  0
LINE
  8
1
 62
7
 10
-154.5481349432207
 20
115.7092700840342
 30
0
 11
-154.3266751172826
 21
115.663132620297
 31
0
  0
LINE
  8
1
 62
7
 10
-154.3266751172826
 20
115.663132620297
 30
0
 11
-154.1605802478287
 21
115.5708576928232
 31
0
  0
LINE
  8
1
 62
7
 10
-154.1605802478287
 20
115.5708576928232
 30
0
 11
-154.0498503348597
 21
115.4324453016123
 31
0
  0
LINE
  8
1
 62
7
 10
-154.0498503348597
 20
115.4324453016123
 30
0
 11
-153.9944853783766
 21
115.2940329104011
 31
0
  0
LINE
  8
1
 62
7
 10
-153.9944853783766
 20
115.2940329104011
 30
0
 11
-153.9944853783766
 21
115.1094830554532
 31
0
  0
LINE
  8
1
 62
7
 10
-153.9944853783766
 20
115.1094830554532
 30
0
 11
-154.0498503348597
 21
114.9710706642423
 31
0
  0
LINE
  8
1
 62
7
 10
-154.0498503348597
 20
114.9710706642423
 30
0
 11
-154.1605802478287
 21
114.8326582730311
 31
0
  0
LINE
  8
1
 62
7
 10
-154.1605802478287
 20
114.8326582730311
 30
0
 11
-154.3266751172826
 21
114.7403833455572
 31
0
  0
LINE
  8
1
 62
7
 10
-154.3266751172826
 20
114.7403833455572
 30
0
 11
-154.5481349432207
 21
114.6942458818205
 31
0
  0
LINE
  8
1
 62
7
 10
-154.5481349432207
 20
114.6942458818205
 30
0
 11
-154.7695947691575
 21
114.6942458818205
 31
0
  0
LINE
  8
1
 62
7
 10
-154.7695947691575
 20
114.6942458818205
 30
0
 11
-154.7695947691575
 21
114.2790087081874
 31
0
  0
LINE
  8
1
 62
7
 10
-146.4541497382277
 20
116.1706447214041
 30
0
 11
-145.8451352168986
 21
116.1706447214041
 31
0
  0
LINE
  8
1
 62
7
 10
-145.8451352168986
 20
116.1706447214041
 30
0
 11
-145.8451352168986
 21
113.7714966070805
 31
0
  0
LINE
  8
1
 62
7
 10
-145.8451352168986
 20
113.7714966070805
 30
0
 11
-145.2914856520556
 21
113.7714966070805
 31
0
  0
LINE
  8
1
 62
7
 10
-145.2914856520556
 20
113.7714966070805
 30
0
 11
-145.2914856520556
 21
113.3101219697105
 31
0
  0
LINE
  8
1
 62
7
 10
-145.2914856520556
 20
113.3101219697105
 30
0
 11
-145.8451352168986
 21
113.3101219697105
 31
0
  0
LINE
  8
1
 62
7
 10
-145.8451352168986
 20
113.3101219697105
 30
0
 11
-145.8451352168986
 21
112.4796476224445
 31
0
  0
LINE
  8
1
 62
7
 10
-145.8451352168986
 20
112.4796476224445
 30
0
 11
-146.4541497382277
 21
112.4796476224445
 31
0
  0
LINE
  8
1
 62
7
 10
-146.4541497382277
 20
112.4796476224445
 30
0
 11
-146.4541497382277
 21
113.3101219697105
 31
0
  0
LINE
  8
1
 62
7
 10
-146.4541497382277
 20
113.3101219697105
 30
0
 11
-148.3365582586966
 21
113.3101219697105
 31
0
  0
LINE
  8
1
 62
7
 10
-148.3365582586966
 20
113.3101219697105
 30
0
 11
-148.3365582586966
 21
113.8176340708174
 31
0
  0
LINE
  8
1
 62
7
 10
-148.3365582586966
 20
113.8176340708174
 30
0
 11
-146.4541497382277
 21
116.1706447214041
 31
0
  0
LINE
  8
1
 62
7
 10
-146.4541497382277
 20
115.3401703741382
 30
0
 11
-147.7275437373696
 21
113.7714966070805
 31
0
  0
LINE
  8
1
 62
7
 10
-147.7275437373696
 20
113.7714966070805
 30
0
 11
-146.4541497382277
 21
113.7714966070805
 31
0
  0
LINE
  8
1
 62
7
 10
-146.4541497382277
 20
113.7714966070805
 30
0
 11
-146.4541497382277
 21
115.3401703741382
 31
0
  0
LINE
  8
1
 62
7
 10
-137.1423542159816
 20
145.3374567731543
 30
0
 11
-133.9943976812936
 21
145.3374567731543
 31
0
  0
LINE
  8
1
 62
2
  6
DASHDOT
 10
-63.55770770939851
 20
134.3374567731543
 30
0
 11
-302.089303323765
 21
134.3374567731543
 31
0
  0
LINE
  8
1
 62
2
  6
DASHDOT
 10
-172.4131847604385
 20
192.953726020021
 30
0
 11
-172.4131847604385
 21
76.69969078372641
 31
0
  0
LINE
  8
1
 62
2
 10
-295.8540970969916
 20
-27.73125785838149
 30
0
 11
-295.8454814846246
 21
-27.25125785838149
 31
0
  0
LINE
  8
1
 62
2
 10
-295.8454814846246
 20
-27.25125785838149
 30
0
 11
-295.9890197753494
 21
-26.89125785838149
 31
0
  0
LINE
  8
1
 62
2
 10
-295.9890197753494
 20
-26.89125785838149
 30
0
 11
-296.1647119691659
 21
-26.65125785838149
 31
0
  0
LINE
  8
1
 62
2
 10
-296.1647119691659
 20
-26.65125785838149
 30
0
 11
-296.4604041629825
 21
-26.41125785838149
 31
0
  0
LINE
  8
1
 62
2
 10
-296.4604041629825
 20
-26.41125785838149
 30
0
 11
-296.7882502598907
 21
-26.29125785838149
 31
0
  0
LINE
  8
1
 62
2
 10
-296.7882502598907
 20
-26.29125785838149
 30
0
 11
-297.5082502598907
 21
-26.29125785838149
 31
0
  0
LINE
  8
1
 62
2
 10
-297.5082502598907
 20
-26.29125785838149
 30
0
 11
-297.9004041629825
 21
-26.41125785838149
 31
0
  0
LINE
  8
1
 62
2
 10
-297.9004041629825
 20
-26.41125785838149
 30
0
 11
-298.3247119691659
 21
-26.65125785838149
 31
0
  0
LINE
  8
1
 62
2
 10
-298.3247119691659
 20
-26.65125785838149
 30
0
 11
-298.6290197753494
 21
-26.89125785838149
 31
0
  0
LINE
  8
1
 62
2
 10
-298.6290197753494
 20
-26.89125785838149
 30
0
 11
-298.9654814846246
 21
-27.25125785838149
 31
0
  0
LINE
  8
1
 62
2
 10
-298.9654814846246
 20
-27.25125785838149
 30
0
 11
-299.2140970969915
 21
-27.73125785838149
 31
0
  0
LINE
  8
1
 62
2
 10
-299.2140970969915
 20
-27.73125785838149
 30
0
 11
-299.7285595464593
 21
-29.65125785838149
 31
0
  0
LINE
  8
1
 62
2
 10
-299.7285595464593
 20
-29.65125785838149
 30
0
 11
-299.7371751588262
 21
-30.13125785838149
 31
0
  0
LINE
  8
1
 62
2
 10
-299.7371751588262
 20
-30.13125785838149
 30
0
 11
-299.5936368681014
 21
-30.49125785838149
 31
0
  0
LINE
  8
1
 62
2
 10
-299.5936368681014
 20
-30.49125785838149
 30
0
 11
-299.4179446742849
 21
-30.73125785838149
 31
0
  0
LINE
  8
1
 62
2
 10
-299.4179446742849
 20
-30.73125785838149
 30
0
 11
-299.1222524804684
 21
-30.97125785838149
 31
0
  0
LINE
  8
1
 62
2
 10
-299.1222524804684
 20
-30.97125785838149
 30
0
 11
-298.7944063835601
 21
-31.09125785838149
 31
0
  0
LINE
  8
1
 62
2
 10
-298.7944063835601
 20
-31.09125785838149
 30
0
 11
-298.0744063835601
 21
-31.09125785838149
 31
0
  0
LINE
  8
1
 62
2
 10
-298.0744063835601
 20
-31.09125785838149
 30
0
 11
-297.6822524804684
 21
-30.97125785838149
 31
0
  0
LINE
  8
1
 62
2
 10
-297.6822524804684
 20
-30.97125785838149
 30
0
 11
-297.2579446742849
 21
-30.73125785838149
 31
0
  0
LINE
  8
1
 62
2
 10
-297.2579446742849
 20
-30.73125785838149
 30
0
 11
-296.9536368681014
 21
-30.49125785838149
 31
0
  0
LINE
  8
1
 62
2
 10
-296.9536368681014
 20
-30.49125785838149
 30
0
 11
-296.6171751588262
 21
-30.13125785838149
 31
0
  0
LINE
  8
1
 62
2
 10
-296.6171751588262
 20
-30.13125785838149
 30
0
 11
-296.3685595464593
 21
-29.65125785838149
 31
0
  0
LINE
  8
1
 62
2
 10
-296.3685595464593
 20
-29.65125785838149
 30
0
 11
-296.1113283217254
 21
-28.69125785838149
 31
0
  0
LINE
  8
1
 62
2
 10
-296.1113283217254
 20
-28.69125785838149
 30
0
 11
-297.5513283217254
 21
-28.69125785838149
 31
0
  0
LINE
  8
1
 62
2
 10
-294.4140970969915
 20
-27.73125785838149
 30
0
 11
-292.5882502598907
 21
-26.29125785838149
 31
0
  0
LINE
  8
1
 62
2
 10
-292.5882502598907
 20
-26.29125785838149
 30
0
 11
-293.8744063835601
 21
-31.09125785838149
 31
0
  0
LINE
  8
1
 62
2
 10
-289.9119054583194
 20
-29.14125785838149
 30
0
 11
-289.5119054583194
 21
-29.14125785838149
 31
0
  0
LINE
  8
1
 62
2
 10
-289.5119054583194
 20
-29.14125785838149
 30
0
 11
-289.3913283217254
 21
-28.69125785838149
 31
0
  0
LINE
  8
1
 62
2
 10
-289.3913283217254
 20
-28.69125785838149
 30
0
 11
-289.7913283217254
 21
-28.69125785838149
 31
0
  0
LINE
  8
1
 62
2
 10
-289.7913283217254
 20
-28.69125785838149
 30
0
 11
-289.9119054583194
 21
-29.14125785838149
 31
0
  0
LINE
  8
1
 62
2
 10
-286.7340970969915
 20
-27.73125785838149
 30
0
 11
-284.9082502598907
 21
-26.29125785838149
 31
0
  0
LINE
  8
1
 62
2
 10
-284.9082502598907
 20
-26.29125785838149
 30
0
 11
-286.1944063835601
 21
-31.09125785838149
 31
0
  0
LINE
  8
1
 62
2
 10
-284.7544063835601
 20
-31.09125785838149
 30
0
 11
-281.5482502598907
 21
-26.29125785838149
 31
0
  0
LINE
  8
1
 62
2
 10
-280.7811736784411
 20
-27.01125785838149
 30
0
 11
-280.4447119691659
 21
-26.65125785838149
 31
0
  0
LINE
  8
1
 62
2
 10
-280.4447119691659
 20
-26.65125785838149
 30
0
 11
-280.0204041629825
 21
-26.41125785838149
 31
0
  0
LINE
  8
1
 62
2
 10
-280.0204041629825
 20
-26.41125785838149
 30
0
 11
-279.5082502598907
 21
-26.29125785838149
 31
0
  0
LINE
  8
1
 62
2
 10
-279.5082502598907
 20
-26.29125785838149
 30
0
 11
-278.7882502598907
 21
-26.29125785838149
 31
0
  0
LINE
  8
1
 62
2
 10
-278.7882502598907
 20
-26.29125785838149
 30
0
 11
-278.3404041629825
 21
-26.41125785838149
 31
0
  0
LINE
  8
1
 62
2
 10
-278.3404041629825
 20
-26.41125785838149
 30
0
 11
-278.0447119691659
 21
-26.65125785838149
 31
0
  0
LINE
  8
1
 62
2
 10
-278.0447119691659
 20
-26.65125785838149
 30
0
 11
-277.9011736784411
 21
-27.01125785838149
 31
0
  0
LINE
  8
1
 62
2
 10
-277.9011736784411
 20
-27.01125785838149
 30
0
 11
-278.029789290808
 21
-27.49125785838149
 31
0
  0
LINE
  8
1
 62
2
 10
-278.029789290808
 20
-27.49125785838149
 30
0
 11
-278.398404903175
 21
-27.97125785838149
 31
0
  0
LINE
  8
1
 62
2
 10
-278.398404903175
 20
-27.97125785838149
 30
0
 11
-281.8744063835601
 21
-31.09125785838149
 31
0
  0
LINE
  8
1
 62
2
 10
-281.8744063835601
 20
-31.09125785838149
 30
0
 11
-278.9944063835601
 21
-31.09125785838149
 31
0
  0
LINE
  8
1
 62
2
 10
-275.5482502598907
 20
-26.29125785838149
 30
0
 11
-276.2854814846246
 21
-27.25125785838149
 31
0
  0
LINE
  8
1
 62
2
 10
-276.2854814846246
 20
-27.25125785838149
 30
0
 11
-276.7827127093585
 21
-28.21125785838149
 31
0
  0
LINE
  8
1
 62
2
 10
-276.7827127093585
 20
-28.21125785838149
 30
0
 11
-277.0399439340923
 21
-29.17125785838149
 31
0
  0
LINE
  8
1
 62
2
 10
-277.0399439340923
 20
-29.17125785838149
 30
0
 11
-277.0571751588262
 21
-30.13125785838149
 31
0
  0
LINE
  8
1
 62
2
 10
-277.0571751588262
 20
-30.13125785838149
 30
0
 11
-276.8344063835601
 21
-31.09125785838149
 31
0
  0
LINE
  8
1
 62
2
 10
-271.7082502598908
 20
-26.29125785838149
 30
0
 11
-274.8971751588263
 21
-30.13125785838149
 31
0
  0
LINE
  8
1
 62
2
 10
-274.8971751588263
 20
-30.13125785838149
 30
0
 11
-272.0171751588263
 21
-30.13125785838149
 31
0
  0
LINE
  8
1
 62
2
 10
-272.4799439340924
 20
-29.17125785838149
 30
0
 11
-272.9944063835601
 21
-31.09125785838149
 31
0
  0
LINE
  8
1
 62
2
 10
-269.6768658722577
 20
-26.77125785838149
 30
0
 11
-269.5482502598907
 21
-26.29125785838149
 31
0
  0
LINE
  8
1
 62
2
 10
-269.5482502598907
 20
-26.29125785838149
 30
0
 11
-266.6682502598907
 21
-26.29125785838149
 31
0
  0
LINE
  8
1
 62
2
 10
-266.6682502598907
 20
-26.29125785838149
 30
0
 11
-270.3544063835601
 21
-31.09125785838149
 31
0
  0
LINE
  8
1
 62
2
 10
-266.5144063835601
 20
-31.09125785838149
 30
0
 11
-266.4822524804683
 21
-30.97125785838149
 31
0
  0
LINE
  8
1
 62
2
 10
-266.4822524804683
 20
-30.97125785838149
 30
0
 11
-266.3622524804683
 21
-30.97125785838149
 31
0
  0
LINE
  8
1
 62
2
 10
-266.3622524804683
 20
-30.97125785838149
 30
0
 11
-266.3944063835601
 21
-31.09125785838149
 31
0
  0
LINE
  8
1
 62
2
 10
-266.3944063835601
 20
-31.09125785838149
 30
0
 11
-266.5144063835601
 21
-31.09125785838149
 31
0
  0
LINE
  8
1
 62
2
 10
-262.3482502598907
 20
-26.29125785838149
 30
0
 11
-261.8682502598907
 21
-26.29125785838149
 31
0
  0
LINE
  8
1
 62
2
 10
-261.8682502598907
 20
-26.29125785838149
 30
0
 11
-261.5404041629825
 21
-26.41125785838149
 31
0
  0
LINE
  8
1
 62
2
 10
-261.5404041629825
 20
-26.41125785838149
 30
0
 11
-261.364711969166
 21
-26.65125785838149
 31
0
  0
LINE
  8
1
 62
2
 10
-261.364711969166
 20
-26.65125785838149
 30
0
 11
-261.2211736784411
 21
-27.01125785838149
 31
0
  0
LINE
  8
1
 62
2
 10
-261.2211736784411
 20
-27.01125785838149
 30
0
 11
-261.3497892908081
 21
-27.49125785838149
 31
0
  0
LINE
  8
1
 62
2
 10
-261.3497892908081
 20
-27.49125785838149
 30
0
 11
-261.5340970969916
 21
-27.73125785838149
 31
0
  0
LINE
  8
1
 62
2
 10
-261.5340970969916
 20
-27.73125785838149
 30
0
 11
-261.9905588062667
 21
-28.09125785838149
 31
0
  0
LINE
  8
1
 62
2
 10
-261.9905588062667
 20
-28.09125785838149
 30
0
 11
-262.3827127093585
 21
-28.21125785838149
 31
0
  0
LINE
  8
1
 62
2
 10
-262.3827127093585
 20
-28.21125785838149
 30
0
 11
-262.8627127093585
 21
-28.21125785838149
 31
0
  0
LINE
  8
1
 62
2
 10
-262.8627127093585
 20
-28.21125785838149
 30
0
 11
-263.1905588062668
 21
-28.09125785838149
 31
0
  0
LINE
  8
1
 62
2
 10
-263.1905588062668
 20
-28.09125785838149
 30
0
 11
-263.4540970969916
 21
-27.73125785838149
 31
0
  0
LINE
  8
1
 62
2
 10
-263.4540970969916
 20
-27.73125785838149
 30
0
 11
-263.5097892908081
 21
-27.49125785838149
 31
0
  0
LINE
  8
1
 62
2
 10
-263.5097892908081
 20
-27.49125785838149
 30
0
 11
-263.3811736784411
 21
-27.01125785838149
 31
0
  0
LINE
  8
1
 62
2
 10
-263.3811736784411
 20
-27.01125785838149
 30
0
 11
-263.0447119691659
 21
-26.65125785838149
 31
0
  0
LINE
  8
1
 62
2
 10
-263.0447119691659
 20
-26.65125785838149
 30
0
 11
-262.7404041629825
 21
-26.41125785838149
 31
0
  0
LINE
  8
1
 62
2
 10
-262.7404041629825
 20
-26.41125785838149
 30
0
 11
-262.3482502598907
 21
-26.29125785838149
 31
0
  0
LINE
  8
1
 62
2
 10
-262.8627127093585
 20
-28.21125785838149
 30
0
 11
-263.527020515542
 21
-28.45125785838149
 31
0
  0
LINE
  8
1
 62
2
 10
-263.527020515542
 20
-28.45125785838149
 30
0
 11
-263.9834822248172
 21
-28.81125785838149
 31
0
  0
LINE
  8
1
 62
2
 10
-263.9834822248172
 20
-28.81125785838149
 30
0
 11
-264.3520978371841
 21
-29.29125785838149
 31
0
  0
LINE
  8
1
 62
2
 10
-264.3520978371841
 20
-29.29125785838149
 30
0
 11
-264.5450212557345
 21
-30.01125785838149
 31
0
  0
LINE
  8
1
 62
2
 10
-264.5450212557345
 20
-30.01125785838149
 30
0
 11
-264.4336368681015
 21
-30.49125785838149
 31
0
  0
LINE
  8
1
 62
2
 10
-264.4336368681015
 20
-30.49125785838149
 30
0
 11
-264.1700985773767
 21
-30.85125785838149
 31
0
  0
LINE
  8
1
 62
2
 10
-264.1700985773767
 20
-30.85125785838149
 30
0
 11
-263.7544063835601
 21
-31.09125785838149
 31
0
  0
LINE
  8
1
 62
2
 10
-263.7544063835601
 20
-31.09125785838149
 30
0
 11
-263.0344063835601
 21
-31.09125785838149
 31
0
  0
LINE
  8
1
 62
2
 10
-263.0344063835601
 20
-31.09125785838149
 30
0
 11
-262.4900985773767
 21
-30.85125785838149
 31
0
  0
LINE
  8
1
 62
2
 10
-262.4900985773767
 20
-30.85125785838149
 30
0
 11
-262.0336368681014
 21
-30.49125785838149
 31
0
  0
LINE
  8
1
 62
2
 10
-262.0336368681014
 20
-30.49125785838149
 30
0
 11
-261.6650212557345
 21
-30.01125785838149
 31
0
  0
LINE
  8
1
 62
2
 10
-261.6650212557345
 20
-30.01125785838149
 30
0
 11
-261.4720978371841
 21
-29.29125785838149
 31
0
  0
LINE
  8
1
 62
2
 10
-261.4720978371841
 20
-29.29125785838149
 30
0
 11
-261.5834822248172
 21
-28.81125785838149
 31
0
  0
LINE
  8
1
 62
2
 10
-261.5834822248172
 20
-28.81125785838149
 30
0
 11
-261.8470205155419
 21
-28.45125785838149
 31
0
  0
LINE
  8
1
 62
2
 10
-261.8470205155419
 20
-28.45125785838149
 30
0
 11
-262.3827127093585
 21
-28.21125785838149
 31
0
  0
LINE
  8
1
 62
2
 10
-259.0697892908081
 20
-27.49125785838149
 30
0
 11
-258.8211736784411
 21
-27.01125785838149
 31
0
  0
LINE
  8
1
 62
2
 10
-258.8211736784411
 20
-27.01125785838149
 30
0
 11
-258.4847119691659
 21
-26.65125785838149
 31
0
  0
LINE
  8
1
 62
2
 10
-258.4847119691659
 20
-26.65125785838149
 30
0
 11
-258.0604041629825
 21
-26.41125785838149
 31
0
  0
LINE
  8
1
 62
2
 10
-258.0604041629825
 20
-26.41125785838149
 30
0
 11
-257.6682502598907
 21
-26.29125785838149
 31
0
  0
LINE
  8
1
 62
2
 10
-257.6682502598907
 20
-26.29125785838149
 30
0
 11
-256.9482502598907
 21
-26.29125785838149
 31
0
  0
LINE
  8
1
 62
2
 10
-256.9482502598907
 20
-26.29125785838149
 30
0
 11
-256.6204041629825
 21
-26.41125785838149
 31
0
  0
LINE
  8
1
 62
2
 10
-256.6204041629825
 20
-26.41125785838149
 30
0
 11
-256.324711969166
 21
-26.65125785838149
 31
0
  0
LINE
  8
1
 62
2
 10
-256.324711969166
 20
-26.65125785838149
 30
0
 11
-256.1811736784412
 21
-27.01125785838149
 31
0
  0
LINE
  8
1
 62
2
 10
-256.1811736784412
 20
-27.01125785838149
 30
0
 11
-256.1897892908081
 21
-27.49125785838149
 31
0
  0
LINE
  8
1
 62
2
 10
-256.1897892908081
 20
-27.49125785838149
 30
0
 11
-256.8328673526428
 21
-29.89125785838149
 31
0
  0
LINE
  8
1
 62
2
 10
-256.8328673526428
 20
-29.89125785838149
 30
0
 11
-257.0814829650097
 21
-30.37125785838149
 31
0
  0
LINE
  8
1
 62
2
 10
-257.0814829650097
 20
-30.37125785838149
 30
0
 11
-257.4179446742849
 21
-30.73125785838149
 31
0
  0
LINE
  8
1
 62
2
 10
-257.4179446742849
 20
-30.73125785838149
 30
0
 11
-257.8422524804684
 21
-30.97125785838149
 31
0
  0
LINE
  8
1
 62
2
 10
-257.8422524804684
 20
-30.97125785838149
 30
0
 11
-258.2344063835601
 21
-31.09125785838149
 31
0
  0
LINE
  8
1
 62
2
 10
-258.2344063835601
 20
-31.09125785838149
 30
0
 11
-258.9544063835601
 21
-31.09125785838149
 31
0
  0
LINE
  8
1
 62
2
 10
-258.9544063835601
 20
-31.09125785838149
 30
0
 11
-259.2822524804684
 21
-30.97125785838149
 31
0
  0
LINE
  8
1
 62
2
 10
-259.2822524804684
 20
-30.97125785838149
 30
0
 11
-259.5779446742849
 21
-30.73125785838149
 31
0
  0
LINE
  8
1
 62
2
 10
-259.5779446742849
 20
-30.73125785838149
 30
0
 11
-259.7214829650097
 21
-30.37125785838149
 31
0
  0
LINE
  8
1
 62
2
 10
-259.7214829650097
 20
-30.37125785838149
 30
0
 11
-259.7128673526428
 21
-29.89125785838149
 31
0
  0
LINE
  8
1
 62
2
 10
-259.7128673526428
 20
-29.89125785838149
 30
0
 11
-259.0697892908081
 21
-27.49125785838149
 31
0
  0
LINE
  8
1
 62
2
 10
-254.6211736784411
 20
-27.01125785838149
 30
0
 11
-254.2847119691659
 21
-26.65125785838149
 31
0
  0
LINE
  8
1
 62
2
 10
-254.2847119691659
 20
-26.65125785838149
 30
0
 11
-253.8604041629825
 21
-26.41125785838149
 31
0
  0
LINE
  8
1
 62
2
 10
-253.8604041629825
 20
-26.41125785838149
 30
0
 11
-253.3482502598907
 21
-26.29125785838149
 31
0
  0
LINE
  8
1
 62
2
 10
-253.3482502598907
 20
-26.29125785838149
 30
0
 11
-252.6282502598907
 21
-26.29125785838149
 31
0
  0
LINE
  8
1
 62
2
 10
-252.6282502598907
 20
-26.29125785838149
 30
0
 11
-252.3004041629825
 21
-26.41125785838149
 31
0
  0
LINE
  8
1
 62
2
 10
-252.3004041629825
 20
-26.41125785838149
 30
0
 11
-252.0047119691659
 21
-26.65125785838149
 31
0
  0
LINE
  8
1
 62
2
 10
-252.0047119691659
 20
-26.65125785838149
 30
0
 11
-251.8611736784411
 21
-27.01125785838149
 31
0
  0
LINE
  8
1
 62
2
 10
-251.8611736784411
 20
-27.01125785838149
 30
0
 11
-251.8697892908081
 21
-27.49125785838149
 31
0
  0
LINE
  8
1
 62
2
 10
-251.8697892908081
 20
-27.49125785838149
 30
0
 11
-251.9662510000833
 21
-27.85125785838149
 31
0
  0
LINE
  8
1
 62
2
 10
-251.9662510000833
 20
-27.85125785838149
 30
0
 11
-252.1827127093585
 21
-28.21125785838149
 31
0
  0
LINE
  8
1
 62
2
 10
-252.1827127093585
 20
-28.21125785838149
 30
0
 11
-252.487020515542
 21
-28.45125785838149
 31
0
  0
LINE
  8
1
 62
2
 10
-252.487020515542
 20
-28.45125785838149
 30
0
 11
-253.1513283217254
 21
-28.69125785838149
 31
0
  0
LINE
  8
1
 62
2
 10
-253.9913283217254
 20
-28.69125785838149
 30
0
 11
-253.1513283217254
 21
-28.69125785838149
 31
0
  0
LINE
  8
1
 62
2
 10
-253.1513283217254
 20
-28.69125785838149
 30
0
 11
-252.6156361279089
 21
-28.93125785838149
 31
0
  0
LINE
  8
1
 62
2
 10
-252.6156361279089
 20
-28.93125785838149
 30
0
 11
-252.4399439340924
 21
-29.17125785838149
 31
0
  0
LINE
  8
1
 62
2
 10
-252.4399439340924
 20
-29.17125785838149
 30
0
 11
-252.4164056433676
 21
-29.53125785838149
 31
0
  0
LINE
  8
1
 62
2
 10
-252.4164056433676
 20
-29.53125785838149
 30
0
 11
-252.5128673526428
 21
-29.89125785838149
 31
0
  0
LINE
  8
1
 62
2
 10
-252.5128673526428
 20
-29.89125785838149
 30
0
 11
-252.7614829650097
 21
-30.37125785838149
 31
0
  0
LINE
  8
1
 62
2
 10
-252.7614829650097
 20
-30.37125785838149
 30
0
 11
-253.0979446742849
 21
-30.73125785838149
 31
0
  0
LINE
  8
1
 62
2
 10
-253.0979446742849
 20
-30.73125785838149
 30
0
 11
-253.5222524804684
 21
-30.97125785838149
 31
0
  0
LINE
  8
1
 62
2
 10
-253.5222524804684
 20
-30.97125785838149
 30
0
 11
-253.9144063835601
 21
-31.09125785838149
 31
0
  0
LINE
  8
1
 62
2
 10
-253.9144063835601
 20
-31.09125785838149
 30
0
 11
-254.6344063835601
 21
-31.09125785838149
 31
0
  0
LINE
  8
1
 62
2
 10
-254.6344063835601
 20
-31.09125785838149
 30
0
 11
-255.0822524804684
 21
-30.97125785838149
 31
0
  0
LINE
  8
1
 62
2
 10
-255.0822524804684
 20
-30.97125785838149
 30
0
 11
-255.3779446742849
 21
-30.73125785838149
 31
0
  0
LINE
  8
1
 62
2
 10
-255.3779446742849
 20
-30.73125785838149
 30
0
 11
-255.5214829650097
 21
-30.37125785838149
 31
0
  0
LINE
  8
1
 62
2
 10
-246.2299816696727
 20
-27.64125785838149
 30
0
 11
-247.0740216258308
 21
-30.79125785838149
 31
0
  0
LINE
  8
1
 62
2
 10
-247.0740216258308
 20
-30.79125785838149
 30
0
 11
-245.3406882924974
 21
-30.79125785838149
 31
0
  0
LINE
  8
1
 62
2
 10
-243.6073549591641
 20
-30.79125785838149
 30
0
 11
-242.7633150030061
 21
-27.64125785838149
 31
0
  0
LINE
  8
1
 62
2
 10
-244.2153016842867
 20
-26.59125785838149
 30
0
 11
-245.3406882924974
 21
-30.79125785838149
 31
0
  0
LINE
  8
1
 62
2
 10
-245.3406882924974
 20
-30.79125785838149
 30
0
 11
-243.6073549591641
 21
-30.79125785838149
 31
0
  0
LINE
  8
1
 62
2
 10
-241.8540970969915
 20
-27.73125785838149
 30
0
 11
-240.0282502598907
 21
-26.29125785838149
 31
0
  0
LINE
  8
1
 62
2
 10
-240.0282502598907
 20
-26.29125785838149
 30
0
 11
-241.3144063835601
 21
-31.09125785838149
 31
0
  0
LINE
  8
1
 62
2
 10
-238.9740970969915
 20
-27.73125785838149
 30
0
 11
-237.1482502598907
 21
-26.29125785838149
 31
0
  0
LINE
  8
1
 62
2
 10
-237.1482502598907
 20
-26.29125785838149
 30
0
 11
-238.4344063835601
 21
-31.09125785838149
 31
0
  0
LINE
  8
1
 62
2
 10
-235.7082502598907
 20
-26.29125785838149
 30
0
 11
-235.4854814846246
 21
-27.25125785838149
 31
0
  0
LINE
  8
1
 62
2
 10
-235.4854814846246
 20
-27.25125785838149
 30
0
 11
-235.5027127093585
 21
-28.21125785838149
 31
0
  0
LINE
  8
1
 62
2
 10
-235.5027127093585
 20
-28.21125785838149
 30
0
 11
-235.7599439340924
 21
-29.17125785838149
 31
0
  0
LINE
  8
1
 62
2
 10
-235.7599439340924
 20
-29.17125785838149
 30
0
 11
-236.2571751588262
 21
-30.13125785838149
 31
0
  0
LINE
  8
1
 62
2
 10
-236.2571751588262
 20
-30.13125785838149
 30
0
 11
-236.9944063835601
 21
-31.09125785838149
 31
0
  0
LINE
  8
1
 62
2
 10
-217.0293933552721
 20
199.3667177780559
 30
0
 11
-216.3627266886055
 21
199.6667177780558
 31
0
  0
LINE
  8
1
 62
2
 10
-216.3627266886055
 20
199.6667177780558
 30
0
 11
-215.5627266886055
 21
200.2667177780559
 31
0
  0
LINE
  8
1
 62
2
 10
-215.5627266886055
 20
200.2667177780559
 30
0
 11
-215.1627266886055
 21
200.8667177780559
 31
0
  0
LINE
  8
1
 62
2
 10
-217.0293933552721
 20
200.8667177780559
 30
0
 11
-215.1627266886055
 21
200.8667177780559
 31
0
  0
LINE
  8
1
 62
2
 10
-213.5627266886055
 20
201.6167177780559
 30
0
 11
-216.3627266886055
 21
201.6167177780559
 31
0
  0
LINE
  8
1
 62
2
 10
-216.6293933552721
 20
202.3667177780559
 30
0
 11
-213.2960600219388
 21
202.3667177780559
 31
0
  0
LINE
  8
1
 62
2
 10
-215.0293933552721
 20
203.1167177780559
 30
0
 11
-215.0293933552721
 21
200.8667177780559
 31
0
  0
LINE
  8
1
 62
2
 10
-215.5627266886055
 20
200.2667177780559
 30
0
 11
-215.5627266886055
 21
198.7667177780559
 31
0
  0
LINE
  8
1
 62
2
 10
-216.2293933552721
 20
198.4667177780559
 30
0
 11
-214.6293933552721
 21
199.2167177780559
 31
0
  0
LINE
  8
1
 62
2
 10
-214.3627266886055
 20
199.6667177780558
 30
0
 11
-213.4293933552721
 21
200.4167177780558
 31
0
  0
LINE
  8
1
 62
2
 10
-214.8960600219388
 20
200.5667177780559
 30
0
 11
-214.4960600219388
 21
199.8167177780559
 31
0
  0
LINE
  8
1
 62
2
 10
-214.4960600219388
 20
199.8167177780559
 30
0
 11
-214.3627266886055
 21
199.6667177780558
 31
0
  0
LINE
  8
1
 62
2
 10
-213.6960600219388
 20
198.9167177780558
 30
0
 11
-213.0293933552721
 21
198.6167177780559
 31
0
  0
LINE
  8
1
 62
2
 10
-214.3627266886055
 20
199.6667177780558
 30
0
 11
-213.6960600219388
 21
198.9167177780558
 31
0
  0
LINE
  8
1
 62
2
 10
-215.0293933552721
 20
200.8667177780559
 30
0
 11
-212.8960600219388
 21
200.8667177780559
 31
0
  0
LINE
  8
1
 62
2
 10
-215.1627266886055
 20
200.8667177780559
 30
0
 11
-215.0293933552721
 21
200.8667177780559
 31
0
  0
LINE
  8
1
 62
2
 10
-211.5627266886055
 20
202.8167177780559
 30
0
 11
-208.6293933552721
 21
202.8167177780559
 31
0
  0
LINE
  8
1
 62
2
 10
-207.9627266886054
 20
201.6167177780559
 30
0
 11
-209.9627266886054
 21
201.6167177780559
 31
0
  0
LINE
  8
1
 62
2
 10
-209.9627266886054
 20
201.6167177780559
 30
0
 11
-209.9627266886054
 21
198.6167177780559
 31
0
  0
LINE
  8
1
 62
2
 10
-209.9627266886054
 20
198.6167177780559
 30
0
 11
-210.4960600219388
 21
198.6167177780559
 31
0
  0
LINE
  8
1
 62
2
 10
-211.8293933552721
 20
199.0667177780559
 30
0
 11
-211.2960600219388
 21
199.6667177780558
 31
0
  0
LINE
  8
1
 62
2
 10
-211.2960600219388
 20
199.6667177780558
 30
0
 11
-210.8960600219388
 21
200.4167177780558
 31
0
  0
LINE
  8
1
 62
2
 10
-209.1627266886055
 20
200.5667177780559
 30
0
 11
-208.6293933552721
 21
199.8167177780559
 31
0
  0
LINE
  8
1
 62
2
 10
-208.6293933552721
 20
199.8167177780559
 30
0
 11
-208.0960600219388
 21
199.0667177780559
 31
0
  0
LINE
  8
1
 62
2
 10
-209.9627266886054
 20
201.6167177780559
 30
0
 11
-211.9627266886054
 21
201.6167177780559
 31
0
  0
LINE
  8
1
 62
2
 10
-206.4960600219388
 20
201.4667177780559
 30
0
 11
-204.7627266886055
 21
201.4667177780559
 31
0
  0
LINE
  8
1
 62
2
 10
-204.7627266886055
 20
201.4667177780559
 30
0
 11
-205.0293933552721
 21
199.3667177780559
 31
0
  0
LINE
  8
1
 62
2
 10
-207.1627266886055
 20
199.3667177780559
 30
0
 11
-205.0293933552721
 21
199.3667177780559
 31
0
  0
LINE
  8
1
 62
2
 10
-205.0293933552721
 20
199.3667177780559
 30
0
 11
-203.4293933552721
 21
199.3667177780559
 31
0
  0
LINE
  8
1
 62
2
 10
-202.0960600219388
 20
199.6667177780558
 30
0
 11
-198.8960600219388
 21
199.6667177780558
 31
0
  0
LINE
  8
1
 62
2
 10
-201.5627266886055
 20
201.4667177780559
 30
0
 11
-199.2960600219388
 21
201.4667177780559
 31
0
  0
LINE
  8
1
 62
2
 10
-196.2293933552722
 20
198.6167177780559
 30
0
 11
-195.5627266886055
 21
199.0667177780559
 31
0
  0
LINE
  8
1
 62
2
 10
-195.5627266886055
 20
199.0667177780559
 30
0
 11
-194.7627266886055
 21
200.1167177780559
 31
0
  0
LINE
  8
1
 62
2
 10
-194.7627266886055
 20
200.1167177780559
 30
0
 11
-194.4960600219388
 21
200.8667177780559
 31
0
  0
LINE
  8
1
 62
2
 10
-195.6960600219388
 20
201.0167177780559
 30
0
 11
-195.5627266886055
 21
200.4167177780558
 31
0
  0
LINE
  8
1
 62
2
 10
-196.6293933552722
 20
200.8667177780559
 30
0
 11
-196.3627266886055
 21
200.2667177780559
 31
0
  0
LINE
  8
1
 62
2
 10
-191.1627266886055
 20
202.6667177780558
 30
0
 11
-191.1627266886055
 21
198.9167177780558
 31
0
  0
LINE
  8
1
 62
2
 10
-190.6293933552721
 20
201.3167177780559
 30
0
 11
-190.2293933552721
 21
200.8667177780559
 31
0
  0
LINE
  8
1
 62
2
 10
-190.2293933552721
 20
200.8667177780559
 30
0
 11
-189.9627266886055
 21
200.2667177780559
 31
0
  0
LINE
  8
1
 62
2
 10
-187.2960600219388
 20
198.9167177780558
 30
0
 11
-187.4293933552721
 21
199.9667177780559
 31
0
  0
LINE
  8
1
 62
2
 10
-187.4293933552721
 20
199.9667177780559
 30
0
 11
-187.4293933552721
 21
201.3167177780559
 31
0
  0
LINE
  8
1
 62
2
 10
-187.4293933552721
 20
201.3167177780559
 30
0
 11
-187.1627266886055
 21
202.6667177780558
 31
0
  0
LINE
  8
1
 62
2
 10
-186.3627266886055
 20
201.6167177780559
 30
0
 11
-185.1627266886055
 21
201.7667177780559
 31
0
  0
LINE
  8
1
 62
2
 10
-185.1627266886055
 20
201.7667177780559
 30
0
 11
-184.4960600219388
 21
201.9167177780558
 31
0
  0
LINE
  8
1
 62
2
 10
-185.2960600219388
 20
202.6667177780558
 30
0
 11
-185.1627266886055
 21
199.9667177780559
 31
0
  0
LINE
  8
1
 62
2
 10
-185.1627266886055
 20
199.9667177780559
 30
0
 11
-185.2960600219388
 21
199.3667177780559
 31
0
  0
LINE
  8
1
 62
2
 10
-185.2960600219388
 20
199.3667177780559
 30
0
 11
-185.5627266886055
 21
199.0667177780559
 31
0
  0
LINE
  8
1
 62
2
 10
-185.5627266886055
 20
199.0667177780559
 30
0
 11
-186.0960600219388
 21
198.9167177780558
 31
0
  0
LINE
  8
1
 62
2
 10
-186.0960600219388
 20
198.9167177780558
 30
0
 11
-186.4960600219388
 21
199.2167177780559
 31
0
  0
LINE
  8
1
 62
2
 10
-186.4960600219388
 20
199.2167177780559
 30
0
 11
-186.4960600219388
 21
199.5167177780559
 31
0
  0
LINE
  8
1
 62
2
 10
-186.4960600219388
 20
199.5167177780559
 30
0
 11
-185.8293933552721
 21
199.6667177780558
 31
0
  0
LINE
  8
1
 62
2
 10
-185.8293933552721
 20
199.6667177780558
 30
0
 11
-185.1627266886055
 21
199.5167177780559
 31
0
  0
LINE
  8
1
 62
2
 10
-185.1627266886055
 20
199.5167177780559
 30
0
 11
-184.4960600219388
 21
199.0667177780559
 31
0
  0
LINE
  8
1
 62
2
 10
-182.6293933552721
 20
198.4667177780559
 30
0
 11
-182.6293933552721
 21
201.9167177780558
 31
0
  0
LINE
  8
1
 62
2
 10
-183.4293933552721
 20
200.5667177780559
 30
0
 11
-183.0293933552721
 21
201.1667177780558
 31
0
  0
LINE
  8
1
 62
2
 10
-183.0293933552721
 20
201.1667177780558
 30
0
 11
-182.0960600219388
 21
203.1167177780559
 31
0
  0
LINE
  8
1
 62
2
 10
-181.6960600219388
 20
201.7667177780559
 30
0
 11
-180.8960600219388
 21
202.0667177780559
 31
0
  0
LINE
  8
1
 62
2
 10
-180.8960600219388
 20
202.0667177780559
 30
0
 11
-179.6960600219388
 21
202.6667177780558
 31
0
  0
LINE
  8
1
 62
2
 10
-180.4960600219388
 20
202.2167177780559
 30
0
 11
-180.4960600219388
 21
198.7667177780559
 31
0
  0
LINE
  8
1
 62
2
 10
-179.1627266886055
 20
200.7167177780559
 30
0
 11
-181.9627266886055
 21
200.7167177780559
 31
0
  0
LINE
  8
1
 62
2
 10
-181.6960600219388
 20
198.7667177780559
 30
0
 11
-180.4960600219388
 21
198.7667177780559
 31
0
  0
LINE
  8
1
 62
2
 10
-180.4960600219388
 20
198.7667177780559
 30
0
 11
-179.2960600219388
 21
198.7667177780559
 31
0
  0
LINE
  8
1
 62
2
 10
-178.3627266886055
 20
198.6167177780559
 30
0
 11
-178.0960600219388
 21
199.0667177780559
 31
0
  0
LINE
  8
1
 62
2
 10
-178.0960600219388
 20
199.0667177780559
 30
0
 11
-177.9627266886055
 21
199.5167177780559
 31
0
  0
LINE
  8
1
 62
2
 10
-177.2960600219388
 20
199.5167177780559
 30
0
 11
-177.2960600219388
 21
198.7667177780559
 31
0
  0
LINE
  8
1
 62
2
 10
-177.2960600219388
 20
198.7667177780559
 30
0
 11
-177.1627266886055
 21
198.6167177780559
 31
0
  0
LINE
  8
1
 62
2
 10
-177.1627266886055
 20
198.6167177780559
 30
0
 11
-176.2293933552721
 21
198.4667177780559
 31
0
  0
LINE
  8
1
 62
2
 10
-176.2293933552721
 20
198.4667177780559
 30
0
 11
-175.4293933552721
 21
198.6167177780559
 31
0
  0
LINE
  8
1
 62
2
 10
-175.4293933552721
 20
198.6167177780559
 30
0
 11
-175.2960600219388
 21
198.7667177780559
 31
0
  0
LINE
  8
1
 62
2
 10
-175.2960600219388
 20
198.7667177780559
 30
0
 11
-175.2960600219388
 21
199.0667177780559
 31
0
  0
LINE
  8
1
 62
2
 10
-174.7627266886055
 20
198.9167177780558
 30
0
 11
-175.0293933552721
 21
199.2167177780559
 31
0
  0
LINE
  8
1
 62
2
 10
-175.0293933552721
 20
199.2167177780559
 30
0
 11
-175.2960600219388
 21
199.6667177780558
 31
0
  0
LINE
  8
1
 62
2
 10
-176.0960600219388
 20
199.2167177780559
 30
0
 11
-176.3627266886055
 21
199.6667177780558
 31
0
  0
LINE
  8
1
 62
2
 10
-177.5627266886055
 20
199.9667177780559
 30
0
 11
-175.4293933552721
 21
199.9667177780559
 31
0
  0
LINE
  8
1
 62
2
 10
-175.4293933552721
 20
199.9667177780559
 30
0
 11
-175.4293933552721
 21
200.5667177780559
 31
0
  0
LINE
  8
1
 62
2
 10
-175.4293933552721
 20
201.1667177780558
 30
0
 11
-177.5627266886055
 21
201.1667177780558
 31
0
  0
LINE
  8
1
 62
2
 10
-177.5627266886055
 20
201.1667177780558
 30
0
 11
-177.5627266886055
 21
200.5667177780559
 31
0
  0
LINE
  8
1
 62
2
 10
-177.5627266886055
 20
200.5667177780559
 30
0
 11
-175.4293933552721
 21
200.5667177780559
 31
0
  0
LINE
  8
1
 62
2
 10
-174.3627266886055
 20
201.6167177780559
 30
0
 11
-178.6293933552721
 21
201.6167177780559
 31
0
  0
LINE
  8
1
 62
2
 10
-178.2293933552721
 20
202.6667177780558
 30
0
 11
-176.4960600219388
 21
202.6667177780558
 31
0
  0
LINE
  8
1
 62
2
 10
-176.4960600219388
 20
203.2667177780559
 30
0
 11
-176.4960600219388
 21
202.6667177780558
 31
0
  0
LINE
  8
1
 62
2
 10
-177.4293933552721
 20
202.3667177780559
 30
0
 11
-177.1627266886055
 21
201.7667177780559
 31
0
  0
LINE
  8
1
 62
2
 10
-175.6960600219388
 20
202.3667177780559
 30
0
 11
-175.9627266886055
 21
201.7667177780559
 31
0
  0
LINE
  8
1
 62
2
 10
-176.4960600219388
 20
202.6667177780558
 30
0
 11
-174.7627266886055
 21
202.6667177780558
 31
0
  0
LINE
  8
1
 62
2
 10
-175.4293933552721
 20
200.5667177780559
 30
0
 11
-175.4293933552721
 21
201.1667177780558
 31
0
  0
LINE
  8
1
 62
2
 10
-177.5627266886055
 20
200.5667177780559
 30
0
 11
-177.5627266886055
 21
199.9667177780559
 31
0
  0
LINE
  8
1
 62
2
 10
-171.5627266886055
 20
202.2167177780559
 30
0
 11
-171.9627266886055
 21
200.7167177780559
 31
0
  0
LINE
  8
1
 62
2
 10
-171.9627266886055
 20
200.7167177780559
 30
0
 11
-172.6293933552722
 21
199.2167177780559
 31
0
  0
LINE
  8
1
 62
2
 10
-172.6293933552722
 20
199.2167177780559
 30
0
 11
-173.1627266886055
 21
199.5167177780559
 31
0
  0
LINE
  8
1
 62
2
 10
-173.1627266886055
 20
199.5167177780559
 30
0
 11
-173.2960600219388
 21
200.2667177780559
 31
0
  0
LINE
  8
1
 62
2
 10
-173.2960600219388
 20
200.2667177780559
 30
0
 11
-173.1627266886055
 21
201.1667177780558
 31
0
  0
LINE
  8
1
 62
2
 10
-173.1627266886055
 20
201.1667177780558
 30
0
 11
-172.6293933552722
 21
201.9167177780558
 31
0
  0
LINE
  8
1
 62
2
 10
-172.6293933552722
 20
201.9167177780558
 30
0
 11
-171.8293933552722
 21
202.2167177780559
 31
0
  0
LINE
  8
1
 62
2
 10
-171.8293933552722
 20
202.2167177780559
 30
0
 11
-171.5627266886055
 21
202.2167177780559
 31
0
  0
LINE
  8
1
 62
2
 10
-171.0293933552721
 20
202.2167177780559
 30
0
 11
-170.4960600219388
 21
201.9167177780558
 31
0
  0
LINE
  8
1
 62
2
 10
-170.4960600219388
 20
201.9167177780558
 30
0
 11
-170.0960600219388
 21
201.3167177780559
 31
0
  0
LINE
  8
1
 62
2
 10
-170.0960600219388
 20
201.3167177780559
 30
0
 11
-170.0960600219388
 21
200.2667177780559
 31
0
  0
LINE
  8
1
 62
2
 10
-170.0960600219388
 20
200.2667177780559
 30
0
 11
-170.4960600219388
 21
199.5167177780559
 31
0
  0
LINE
  8
1
 62
2
 10
-170.4960600219388
 20
199.5167177780559
 30
0
 11
-171.1627266886055
 21
198.9167177780558
 31
0
  0
LINE
  8
1
 62
2
 10
-171.5627266886055
 20
202.2167177780559
 30
0
 11
-171.0293933552721
 21
202.2167177780559
 31
0
  0
LINE
  8
1
 62
2
 10
-168.6293933552721
 20
198.6167177780559
 30
0
 11
-168.6293933552721
 21
202.2167177780559
 31
0
  0
LINE
  8
1
 62
2
 10
-168.6293933552721
 20
202.2167177780559
 30
0
 11
-167.9627266886055
 21
202.2167177780559
 31
0
  0
LINE
  8
1
 62
2
 10
-165.1627266886055
 20
202.2167177780559
 30
0
 11
-165.1627266886055
 21
198.6167177780559
 31
0
  0
LINE
  8
1
 62
2
 10
-165.1627266886055
 20
198.6167177780559
 30
0
 11
-165.8293933552722
 21
198.6167177780559
 31
0
  0
LINE
  8
1
 62
2
 10
-167.4293933552721
 20
199.9667177780559
 30
0
 11
-167.4293933552721
 21
201.1667177780558
 31
0
  0
LINE
  8
1
 62
2
 10
-167.4293933552721
 20
201.1667177780558
 30
0
 11
-166.3627266886055
 21
201.1667177780558
 31
0
  0
LINE
  8
1
 62
2
 10
-166.3627266886055
 20
201.1667177780558
 30
0
 11
-166.3627266886055
 21
199.9667177780559
 31
0
  0
LINE
  8
1
 62
2
 10
-166.3627266886055
 20
199.9667177780559
 30
0
 11
-167.4293933552721
 21
199.9667177780559
 31
0
  0
LINE
  8
1
 62
2
 10
-167.9627266886055
 20
202.2167177780559
 30
0
 11
-167.2960600219388
 21
203.1167177780559
 31
0
  0
LINE
  8
1
 62
2
 10
-167.9627266886055
 20
202.2167177780559
 30
0
 11
-165.1627266886055
 21
202.2167177780559
 31
0
  0
LINE
  8
1
 62
2
 10
-163.0293933552722
 20
201.0167177780559
 30
0
 11
-161.8293933552722
 21
201.3167177780559
 31
0
  0
LINE
  8
1
 62
2
 10
-161.8293933552722
 20
201.3167177780559
 30
0
 11
-160.8960600219388
 21
201.7667177780559
 31
0
  0
LINE
  8
1
 62
2
 10
-161.5627266886055
 20
202.5167177780559
 30
0
 11
-162.0960600219388
 21
202.2167177780559
 31
0
  0
LINE
  8
1
 62
2
 10
-162.0960600219388
 20
202.2167177780559
 30
0
 11
-163.0293933552722
 21
201.9167177780558
 31
0
  0
LINE
  8
1
 62
2
 10
-162.6293933552722
 20
202.9667177780559
 30
0
 11
-161.9627266886055
 21
201.9167177780558
 31
0
  0
LINE
  8
1
 62
2
 10
-161.9627266886055
 20
201.9167177780558
 30
0
 11
-161.0293933552722
 21
200.1167177780559
 31
0
  0
LINE
  8
1
 62
2
 10
-161.0293933552722
 20
200.1167177780559
 30
0
 11
-161.5627266886055
 21
200.2667177780559
 31
0
  0
LINE
  8
1
 62
2
 10
-161.5627266886055
 20
200.2667177780559
 30
0
 11
-162.0960600219388
 21
200.2667177780559
 31
0
  0
LINE
  8
1
 62
2
 10
-162.0960600219388
 20
200.2667177780559
 30
0
 11
-162.6293933552722
 21
199.9667177780559
 31
0
  0
LINE
  8
1
 62
2
 10
-162.6293933552722
 20
199.9667177780559
 30
0
 11
-162.8960600219388
 21
199.3667177780559
 31
0
  0
LINE
  8
1
 62
2
 10
-162.8960600219388
 20
199.3667177780559
 30
0
 11
-162.3627266886055
 21
198.9167177780558
 31
0
  0
LINE
  8
1
 62
2
 10
-162.3627266886055
 20
198.9167177780558
 30
0
 11
-161.4293933552721
 21
198.7667177780559
 31
0
  0
LINE
  8
1
 62
2
 10
-158.4960600219388
 20
198.9167177780558
 30
0
 11
-158.6293933552721
 21
199.9667177780559
 31
0
  0
LINE
  8
1
 62
2
 10
-158.6293933552721
 20
199.9667177780559
 30
0
 11
-158.6293933552721
 21
201.1667177780558
 31
0
  0
LINE
  8
1
 62
2
 10
-158.6293933552721
 20
201.1667177780558
 30
0
 11
-158.3627266886055
 21
202.2167177780559
 31
0
  0
LINE
  8
1
 62
2
 10
-157.2960600219388
 20
201.7667177780559
 30
0
 11
-156.7627266886055
 21
201.9167177780558
 31
0
  0
LINE
  8
1
 62
2
 10
-156.7627266886055
 20
201.9167177780558
 30
0
 11
-155.9627266886055
 21
201.9167177780558
 31
0
  0
LINE
  8
1
 62
2
 10
-157.5627266886055
 20
199.8167177780559
 30
0
 11
-157.2960600219388
 21
199.3667177780559
 31
0
  0
LINE
  8
1
 62
2
 10
-157.2960600219388
 20
199.3667177780559
 30
0
 11
-156.6293933552721
 21
199.2167177780559
 31
0
  0
LINE
  8
1
 62
2
 10
-156.6293933552721
 20
199.2167177780559
 30
0
 11
-155.5627266886055
 21
199.2167177780559
 31
0
  0
LINE
  8
1
 62
2
 10
-154.0960600219388
 20
198.6167177780559
 30
0
 11
-153.6960600219388
 21
198.7667177780559
 31
0
  0
LINE
  8
1
 62
2
 10
-153.6960600219388
 20
198.7667177780559
 30
0
 11
-153.1627266886055
 21
199.0667177780559
 31
0
  0
LINE
  8
1
 62
2
 10
-153.1627266886055
 20
199.0667177780559
 30
0
 11
-152.3627266886055
 21
199.6667177780558
 31
0
  0
LINE
  8
1
 62
2
 10
-152.3627266886055
 20
199.6667177780558
 30
0
 11
-151.6960600219388
 21
200.4167177780558
 31
0
  0
LINE
  8
1
 62
2
 10
-151.6960600219388
 20
200.4167177780558
 30
0
 11
-153.4293933552722
 21
200.4167177780558
 31
0
  0
LINE
  8
1
 62
2
 10
-152.8960600219388
 20
201.0167177780559
 30
0
 11
-153.4293933552722
 21
200.4167177780558
 31
0
  0
LINE
  8
1
 62
2
 10
-153.5627266886055
 20
200.2667177780559
 30
0
 11
-153.9627266886055
 21
199.9667177780559
 31
0
  0
LINE
  8
1
 62
2
 10
-153.9627266886055
 20
199.9667177780559
 30
0
 11
-154.3627266886055
 21
199.6667177780558
 31
0
  0
LINE
  8
1
 62
2
 10
-153.0293933552722
 20
200.2667177780559
 30
0
 11
-152.6293933552722
 21
199.8167177780559
 31
0
  0
LINE
  8
1
 62
2
 10
-152.6293933552722
 20
199.8167177780559
 30
0
 11
-151.8293933552722
 21
199.2167177780559
 31
0
  0
LINE
  8
1
 62
2
 10
-151.8293933552722
 20
199.2167177780559
 30
0
 11
-151.1627266886055
 21
198.9167177780558
 31
0
  0
LINE
  8
1
 62
2
 10
-151.1627266886055
 20
198.9167177780558
 30
0
 11
-150.4960600219388
 21
198.6167177780559
 31
0
  0
LINE
  8
1
 62
2
 10
-150.6293933552722
 20
201.3167177780559
 30
0
 11
-151.2960600219388
 21
201.9167177780558
 31
0
  0
LINE
  8
1
 62
2
 10
-152.4960600219388
 20
201.0167177780559
 30
0
 11
-152.2293933552722
 21
201.0167177780559
 31
0
  0
LINE
  8
1
 62
2
 10
-152.2293933552722
 20
201.0167177780559
 30
0
 11
-152.0960600219388
 21
201.3167177780559
 31
0
  0
LINE
  8
1
 62
2
 10
-152.0960600219388
 20
201.3167177780559
 30
0
 11
-152.0960600219388
 21
202.5167177780559
 31
0
  0
LINE
  8
1
 62
2
 10
-152.8960600219388
 20
202.5167177780559
 30
0
 11
-153.0293933552722
 21
201.7667177780559
 31
0
  0
LINE
  8
1
 62
2
 10
-153.0293933552722
 20
201.7667177780559
 30
0
 11
-153.2960600219388
 21
201.1667177780558
 31
0
  0
LINE
  8
1
 62
2
 10
-153.2960600219388
 20
201.1667177780558
 30
0
 11
-153.6960600219388
 21
200.8667177780559
 31
0
  0
LINE
  8
1
 62
2
 10
-153.6960600219388
 20
200.8667177780559
 30
0
 11
-153.9627266886055
 21
200.7167177780559
 31
0
  0
LINE
  8
1
 62
2
 10
-154.3627266886055
 20
201.3167177780559
 30
0
 11
-153.8293933552722
 21
201.9167177780558
 31
0
  0
LINE
  8
1
 62
2
 10
-154.3627266886055
 20
202.5167177780559
 30
0
 11
-152.8960600219388
 21
202.5167177780559
 31
0
  0
LINE
  8
1
 62
2
 10
-152.4960600219388
 20
202.6667177780558
 30
0
 11
-152.4960600219388
 21
203.1167177780559
 31
0
  0
LINE
  8
1
 62
2
 10
-152.8960600219388
 20
202.5167177780559
 30
0
 11
-150.6293933552722
 21
202.5167177780559
 31
0
  0
LINE
  8
1
 62
2
 10
-153.4293933552722
 20
200.4167177780558
 30
0
 11
-153.5627266886055
 21
200.2667177780559
 31
0
  0
LINE
  8
1
 62
2
 10
-149.0293933552721
 20
198.9167177780558
 30
0
 11
-146.8960600219388
 21
201.4667177780559
 31
0
  0
LINE
  8
1
 62
2
 10
-146.8960600219388
 20
201.4667177780559
 30
0
 11
-147.5627266886055
 21
201.3167177780559
 31
0
  0
LINE
  8
1
 62
2
 10
-147.5627266886055
 20
201.3167177780559
 30
0
 11
-148.6293933552722
 21
201.1667177780558
 31
0
  0
LINE
  8
1
 62
2
 10
-148.0960600219388
 20
202.8167177780559
 30
0
 11
-147.6960600219388
 21
202.5167177780559
 31
0
  0
LINE
  8
1
 62
2
 10
-147.6960600219388
 20
202.5167177780559
 30
0
 11
-147.1627266886055
 21
202.2167177780559
 31
0
  0
LINE
  8
1
 62
2
 10
-147.9627266886055
 20
200.1167177780559
 30
0
 11
-147.6960600219388
 21
200.2667177780559
 31
0
  0
LINE
  8
1
 62
2
 10
-147.6960600219388
 20
200.2667177780559
 30
0
 11
-147.4293933552721
 21
200.2667177780559
 31
0
  0
LINE
  8
1
 62
2
 10
-147.4293933552721
 20
200.2667177780559
 30
0
 11
-147.4293933552721
 21
199.2167177780559
 31
0
  0
LINE
  8
1
 62
2
 10
-147.4293933552721
 20
199.2167177780559
 30
0
 11
-147.2960600219388
 21
198.7667177780559
 31
0
  0
LINE
  8
1
 62
2
 10
-147.2960600219388
 20
198.7667177780559
 30
0
 11
-146.6293933552722
 21
198.7667177780559
 31
0
  0
LINE
  8
1
 62
2
 10
-146.6293933552722
 20
198.7667177780559
 30
0
 11
-146.0960600219388
 21
198.9167177780558
 31
0
  0
LINE
  8
1
 62
2
 10
-143.0293933552722
 20
198.7667177780559
 30
0
 11
-142.3627266886055
 21
198.9167177780558
 31
0
  0
LINE
  8
1
 62
2
 10
-142.3627266886055
 20
198.9167177780558
 30
0
 11
-141.6960600219388
 21
199.3667177780559
 31
0
  0
LINE
  8
1
 62
2
 10
-141.6960600219388
 20
199.3667177780559
 30
0
 11
-141.4293933552722
 21
199.8167177780559
 31
0
  0
LINE
  8
1
 62
2
 10
-141.4293933552722
 20
199.8167177780559
 30
0
 11
-141.5627266886055
 21
200.4167177780558
 31
0
  0
LINE
  8
1
 62
2
 10
-141.5627266886055
 20
200.4167177780558
 30
0
 11
-142.0960600219388
 21
200.7167177780559
 31
0
  0
LINE
  8
1
 62
2
 10
-142.0960600219388
 20
200.7167177780559
 30
0
 11
-142.6293933552722
 21
200.7167177780559
 31
0
  0
LINE
  8
1
 62
2
 10
-142.6293933552722
 20
200.7167177780559
 30
0
 11
-143.1627266886055
 21
200.4167177780558
 31
0
  0
LINE
  8
1
 62
2
 10
-143.1627266886055
 20
200.4167177780558
 30
0
 11
-143.8293933552722
 21
199.9667177780559
 31
0
  0
LINE
  8
1
 62
2
 10
-143.8293933552722
 20
199.9667177780559
 30
0
 11
-143.6960600219388
 21
201.0167177780559
 31
0
  0
LINE
  8
1
 62
2
 10
-143.6960600219388
 20
201.0167177780559
 30
0
 11
-143.4293933552722
 21
201.9167177780558
 31
0
  0
LINE
  8
1
 62
2
 10
-143.1627266886055
 20
202.8167177780559
 30
0
 11
-142.7627266886055
 21
202.5167177780559
 31
0
  0
LINE
  8
1
 62
2
 10
-142.7627266886055
 20
202.5167177780559
 30
0
 11
-142.4960600219388
 21
202.2167177780559
 31
0
  0
LINE
  8
1
 62
2
 10
-138.7627266886055
 20
202.6667177780558
 30
0
 11
-138.8960600219388
 21
200.5667177780559
 31
0
  0
LINE
  8
1
 62
2
 10
-138.8960600219388
 20
200.5667177780559
 30
0
 11
-138.8960600219388
 21
198.7667177780559
 31
0
  0
LINE
  8
1
 62
2
 10
-139.6960600219388
 20
200.8667177780559
 30
0
 11
-138.6293933552722
 21
201.6167177780559
 31
0
  0
LINE
  8
1
 62
2
 10
-138.6293933552722
 20
201.6167177780559
 30
0
 11
-138.8960600219388
 21
200.7167177780559
 31
0
  0
LINE
  8
1
 62
2
 10
-138.8960600219388
 20
200.7167177780559
 30
0
 11
-139.6960600219388
 21
199.2167177780559
 31
0
  0
LINE
  8
1
 62
2
 10
-139.0293933552722
 20
200.4167177780558
 30
0
 11
-138.2293933552722
 21
201.4667177780559
 31
0
  0
LINE
  8
1
 62
2
 10
-138.2293933552722
 20
201.4667177780559
 30
0
 11
-137.6960600219388
 21
201.9167177780558
 31
0
  0
LINE
  8
1
 62
2
 10
-137.6960600219388
 20
201.9167177780558
 30
0
 11
-137.2960600219388
 21
201.9167177780558
 31
0
  0
LINE
  8
1
 62
2
 10
-137.2960600219388
 20
201.9167177780558
 30
0
 11
-137.1627266886055
 21
201.4667177780559
 31
0
  0
LINE
  8
1
 62
2
 10
-137.1627266886055
 20
201.4667177780559
 30
0
 11
-137.2960600219388
 21
199.6667177780558
 31
0
  0
LINE
  8
1
 62
2
 10
-137.2960600219388
 20
199.6667177780558
 30
0
 11
-137.0293933552722
 21
199.2167177780559
 31
0
  0
LINE
  8
1
 62
2
 10
-137.0293933552722
 20
199.2167177780559
 30
0
 11
-136.6293933552722
 21
199.2167177780559
 31
0
  0
LINE
  8
1
 62
2
 10
-136.6293933552722
 20
199.2167177780559
 30
0
 11
-136.3627266886055
 21
199.5167177780559
 31
0
  0
LINE
  8
1
 62
2
 10
-134.4960600219388
 20
201.0167177780559
 30
0
 11
-133.2960600219388
 21
201.0167177780559
 31
0
  0
LINE
  8
1
 62
2
 10
-133.2960600219388
 20
201.0167177780559
 30
0
 11
-132.2293933552722
 21
201.3167177780559
 31
0
  0
LINE
  8
1
 62
2
 10
-132.3627266886055
 20
202.2167177780559
 30
0
 11
-133.2960600219388
 21
202.0667177780559
 31
0
  0
LINE
  8
1
 62
2
 10
-133.2960600219388
 20
202.0667177780559
 30
0
 11
-134.0960600219388
 21
202.0667177780559
 31
0
  0
LINE
  8
1
 62
2
 10
-133.1627266886055
 20
202.9667177780559
 30
0
 11
-133.1627266886055
 21
201.7667177780559
 31
0
  0
LINE
  8
1
 62
2
 10
-133.1627266886055
 20
201.7667177780559
 30
0
 11
-133.0293933552722
 21
199.6667177780558
 31
0
  0
LINE
  8
1
 62
2
 10
-133.0293933552722
 20
199.6667177780558
 30
0
 11
-133.2960600219388
 21
199.0667177780559
 31
0
  0
LINE
  8
1
 62
2
 10
-133.2960600219388
 20
199.0667177780559
 30
0
 11
-133.8293933552722
 21
198.7667177780559
 31
0
  0
LINE
  8
1
 62
2
 10
-133.8293933552722
 20
198.7667177780559
 30
0
 11
-134.3627266886055
 21
198.9167177780558
 31
0
  0
LINE
  8
1
 62
2
 10
-134.3627266886055
 20
198.9167177780558
 30
0
 11
-134.4960600219388
 21
199.2167177780559
 31
0
  0
LINE
  8
1
 62
2
 10
-134.4960600219388
 20
199.2167177780559
 30
0
 11
-134.2293933552722
 21
199.5167177780559
 31
0
  0
LINE
  8
1
 62
2
 10
-134.2293933552722
 20
199.5167177780559
 30
0
 11
-133.5627266886055
 21
199.6667177780558
 31
0
  0
LINE
  8
1
 62
2
 10
-133.5627266886055
 20
199.6667177780558
 30
0
 11
-132.8960600219388
 21
199.3667177780559
 31
0
  0
LINE
  8
1
 62
2
 10
-132.8960600219388
 20
199.3667177780559
 30
0
 11
-132.3627266886055
 21
198.9167177780558
 31
0
  0
LINE
  8
1
 62
2
 10
-128.7627266886055
 20
198.6167177780559
 30
0
 11
-128.3627266886055
 21
199.3667177780559
 31
0
  0
LINE
  8
1
 62
2
 10
-128.3627266886055
 20
199.3667177780559
 30
0
 11
-128.0960600219388
 21
199.9667177780559
 31
0
  0
LINE
  8
1
 62
2
 10
-128.0960600219388
 20
199.9667177780559
 30
0
 11
-128.0960600219388
 21
200.8667177780559
 31
0
  0
LINE
  8
1
 62
2
 10
-128.0960600219388
 20
200.8667177780559
 30
0
 11
-128.3627266886055
 21
201.1667177780558
 31
0
  0
LINE
  8
1
 62
2
 10
-128.3627266886055
 20
201.1667177780558
 30
0
 11
-128.7627266886055
 21
201.0167177780559
 31
0
  0
LINE
  8
1
 62
2
 10
-128.7627266886055
 20
201.0167177780559
 30
0
 11
-128.8960600219388
 21
200.5667177780559
 31
0
  0
LINE
  8
1
 62
2
 10
-128.8960600219388
 20
200.5667177780559
 30
0
 11
-128.4960600219388
 21
199.9667177780559
 31
0
  0
LINE
  8
1
 62
2
 10
-128.4960600219388
 20
199.9667177780559
 30
0
 11
-128.0960600219388
 21
200.2667177780559
 31
0
  0
LINE
  8
1
 62
2
 10
-128.0960600219388
 20
200.2667177780559
 30
0
 11
-128.0960600219388
 21
202.9667177780559
 31
0
  0
LINE
  8
1
 62
2
 10
-130.0960600219388
 20
201.6167177780559
 30
0
 11
-128.6293933552722
 21
201.9167177780558
 31
0
  0
LINE
  8
1
 62
2
 10
-128.6293933552722
 20
201.9167177780558
 30
0
 11
-126.6293933552722
 21
201.9167177780558
 31
0
  0
LINE
  8
1
 62
2
 10
-124.6293933552722
 20
199.2167177780559
 30
0
 11
-124.0960600219388
 21
199.2167177780559
 31
0
  0
LINE
  8
1
 62
2
 10
-124.0960600219388
 20
199.2167177780559
 30
0
 11
-124.0960600219388
 21
199.8167177780559
 31
0
  0
LINE
  8
1
 62
2
 10
-124.0960600219388
 20
199.8167177780559
 30
0
 11
-124.6293933552722
 21
199.8167177780559
 31
0
  0
LINE
  8
1
 62
2
 10
-124.6293933552722
 20
199.8167177780559
 30
0
 11
-124.6293933552722
 21
199.2167177780559
 31
0
  0
LINE
  8
1
 62
2
 10
-207.4261006016457
 20
-158.2994735262922
 30
0
 11
-207.4261006016457
 21
-153.4994735262922
 31
0
  0
LINE
  8
1
 62
2
 10
-207.4261006016457
 20
-153.4994735262922
 30
0
 11
-204.0661006016456
 21
-158.2994735262922
 31
0
  0
LINE
  8
1
 62
2
 10
-204.0661006016456
 20
-158.2994735262922
 30
0
 11
-204.0661006016456
 21
-153.4994735262922
 31
0
  0
LINE
  8
1
 62
2
 10
-201.6661006016457
 20
-155.8994735262922
 30
0
 11
-202.6261006016457
 21
-156.8594735262922
 31
0
  0
LINE
  8
1
 62
2
 10
-199.2661006016457
 20
-153.4994735262922
 30
0
 11
-201.6661006016457
 21
-155.8994735262922
 31
0
  0
LINE
  8
1
 62
2
 10
-201.6661006016457
 20
-155.8994735262922
 30
0
 11
-199.2661006016457
 21
-158.2994735262922
 31
0
  0
LINE
  8
1
 62
2
 10
-202.6261006016457
 20
-158.2994735262922
 30
0
 11
-202.6261006016457
 21
-156.8594735262922
 31
0
  0
LINE
  8
1
 62
2
 10
-202.6261006016457
 20
-156.8594735262922
 30
0
 11
-202.6261006016457
 21
-153.4994735262922
 31
0
  0
LINE
  8
1
 62
2
 10
-194.4661006016457
 20
-153.4994735262922
 30
0
 11
-194.4661006016457
 21
-155.6594735262922
 31
0
  0
LINE
  8
1
 62
2
 10
-197.8261006016457
 20
-155.6594735262922
 30
0
 11
-194.4661006016457
 21
-155.6594735262922
 31
0
  0
LINE
  8
1
 62
2
 10
-197.8261006016457
 20
-153.4994735262922
 30
0
 11
-197.8261006016457
 21
-155.6594735262922
 31
0
  0
LINE
  8
1
 62
2
 10
-197.8261006016457
 20
-155.8994735262922
 30
0
 11
-197.8261006016457
 21
-158.2994735262922
 31
0
  0
LINE
  8
1
 62
2
 10
-194.4661006016457
 20
-155.6594735262922
 30
0
 11
-194.4661006016457
 21
-158.2994735262922
 31
0
  0
LINE
  8
1
 62
2
 10
-197.8261006016457
 20
-155.6594735262922
 30
0
 11
-197.8261006016457
 21
-155.8994735262922
 31
0
  0
LINE
  8
1
 62
2
 10
-192.4261006016457
 20
-156.8594735262922
 30
0
 11
-189.7861006016456
 21
-156.8594735262922
 31
0
  0
LINE
  8
1
 62
2
 10
-193.0261006016457
 20
-158.2994735262922
 30
0
 11
-191.1061006016457
 21
-153.4994735262922
 31
0
  0
LINE
  8
1
 62
2
 10
-191.1061006016457
 20
-153.4994735262922
 30
0
 11
-189.1861006016457
 21
-158.2994735262922
 31
0
  0
LINE
  8
1
 62
2
 10
-187.479433934979
 20
-158.1494735262922
 30
0
 11
-185.479433934979
 21
-158.1494735262922
 31
0
  0
LINE
  8
1
 62
2
 10
-184.1461006016457
 20
-157.0994735262922
 30
0
 11
-187.079433934979
 21
-157.0994735262922
 31
0
  0
LINE
  8
1
 62
2
 10
-187.479433934979
 20
-156.4994735262922
 30
0
 11
-187.079433934979
 21
-155.8994735262922
 31
0
  0
LINE
  8
1
 62
2
 10
-187.079433934979
 20
-155.8994735262922
 30
0
 11
-186.8127672683123
 21
-154.8494735262922
 31
0
  0
LINE
  8
1
 62
2
 10
-186.8127672683123
 20
-154.8494735262922
 30
0
 11
-186.8127672683123
 21
-153.7994735262922
 31
0
  0
LINE
  8
1
 62
2
 10
-185.479433934979
 20
-153.7994735262922
 30
0
 11
-186.1461006016457
 21
-153.7994735262922
 31
0
  0
LINE
  8
1
 62
2
 10
-187.6127672683123
 20
-154.8494735262922
 30
0
 11
-185.3461006016457
 21
-154.8494735262922
 31
0
  0
LINE
  8
1
 62
2
 10
-186.1461006016457
 20
-153.7994735262922
 30
0
 11
-186.1461006016457
 21
-156.3494735262922
 31
0
  0
LINE
  8
1
 62
2
 10
-184.8127672683123
 20
-155.7494735262922
 30
0
 11
-184.8127672683123
 21
-153.7994735262922
 31
0
  0
LINE
  8
1
 62
2
 10
-183.879433934979
 20
-153.6494735262922
 30
0
 11
-183.879433934979
 21
-156.3494735262922
 31
0
  0
LINE
  8
1
 62
2
 10
-183.879433934979
 20
-156.3494735262922
 30
0
 11
-184.279433934979
 21
-156.3494735262922
 31
0
  0
LINE
  8
1
 62
2
 10
-185.479433934979
 20
-156.3494735262922
 30
0
 11
-185.479433934979
 21
-158.1494735262922
 31
0
  0
LINE
  8
1
 62
2
 10
-185.479433934979
 20
-158.1494735262922
 30
0
 11
-183.6127672683123
 21
-158.1494735262922
 31
0
  0
LINE
  8
1
 62
2
 10
-186.1461006016457
 20
-153.7994735262922
 30
0
 11
-187.479433934979
 21
-153.7994735262922
 31
0
  0
LINE
  8
1
 62
2
 10
-182.2261006016457
 20
-155.4194735262922
 30
0
 11
-181.0261006016457
 21
-155.4194735262922
 31
0
  0
LINE
  8
1
 62
2
 10
-182.9461006016457
 20
-153.4994735262922
 30
0
 11
-181.1461006016457
 21
-153.4994735262922
 31
0
  0
LINE
  8
1
 62
2
 10
-181.1461006016457
 20
-153.4994735262922
 30
0
 11
-180.5461006016457
 21
-153.6194735262922
 31
0
  0
LINE
  8
1
 62
2
 10
-180.5461006016457
 20
-153.6194735262922
 30
0
 11
-180.1861006016457
 21
-153.8594735262922
 31
0
  0
LINE
  8
1
 62
2
 10
-180.1861006016457
 20
-153.8594735262922
 30
0
 11
-180.0661006016457
 21
-154.2194735262922
 31
0
  0
LINE
  8
1
 62
2
 10
-180.0661006016457
 20
-154.2194735262922
 30
0
 11
-180.0661006016457
 21
-154.5794735262922
 31
0
  0
LINE
  8
1
 62
2
 10
-180.0661006016457
 20
-154.5794735262922
 30
0
 11
-180.1861006016457
 21
-154.9394735262922
 31
0
  0
LINE
  8
1
 62
2
 10
-180.1861006016457
 20
-154.9394735262922
 30
0
 11
-180.4261006016457
 21
-155.1794735262922
 31
0
  0
LINE
  8
1
 62
2
 10
-180.4261006016457
 20
-155.1794735262922
 30
0
 11
-180.6661006016457
 21
-155.2994735262922
 31
0
  0
LINE
  8
1
 62
2
 10
-180.6661006016457
 20
-155.2994735262922
 30
0
 11
-181.0261006016457
 21
-155.4194735262922
 31
0
  0
LINE
  8
1
 62
2
 10
-181.0261006016457
 20
-155.4194735262922
 30
0
 11
-180.5461006016457
 21
-155.5394735262922
 31
0
  0
LINE
  8
1
 62
2
 10
-180.5461006016457
 20
-155.5394735262922
 30
0
 11
-180.3061006016457
 21
-155.7794735262922
 31
0
  0
LINE
  8
1
 62
2
 10
-180.3061006016457
 20
-155.7794735262922
 30
0
 11
-180.1861006016457
 21
-156.0194735262922
 31
0
  0
LINE
  8
1
 62
2
 10
-180.1861006016457
 20
-156.0194735262922
 30
0
 11
-180.0661006016457
 21
-156.4994735262922
 31
0
  0
LINE
  8
1
 62
2
 10
-180.0661006016457
 20
-156.4994735262922
 30
0
 11
-180.0661006016457
 21
-157.0994735262922
 31
0
  0
LINE
  8
1
 62
2
 10
-180.0661006016457
 20
-157.0994735262922
 30
0
 11
-180.1861006016457
 21
-157.5794735262922
 31
0
  0
LINE
  8
1
 62
2
 10
-180.1861006016457
 20
-157.5794735262922
 30
0
 11
-180.4261006016457
 21
-157.9394735262922
 31
0
  0
LINE
  8
1
 62
2
 10
-180.4261006016457
 20
-157.9394735262922
 30
0
 11
-180.7861006016457
 21
-158.1794735262922
 31
0
  0
LINE
  8
1
 62
2
 10
-180.7861006016457
 20
-158.1794735262922
 30
0
 11
-181.1461006016457
 21
-158.2994735262922
 31
0
  0
LINE
  8
1
 62
2
 10
-181.1461006016457
 20
-158.2994735262922
 30
0
 11
-182.9461006016457
 21
-158.2994735262922
 31
0
  0
LINE
  8
1
 62
2
 10
-178.6261006016457
 20
-154.2194735262922
 30
0
 11
-178.3861006016456
 21
-153.8594735262922
 31
0
  0
LINE
  8
1
 62
2
 10
-178.3861006016456
 20
-153.8594735262922
 30
0
 11
-178.0261006016457
 21
-153.6194735262922
 31
0
  0
LINE
  8
1
 62
2
 10
-178.0261006016457
 20
-153.6194735262922
 30
0
 11
-177.5461006016456
 21
-153.4994735262922
 31
0
  0
LINE
  8
1
 62
2
 10
-177.5461006016456
 20
-153.4994735262922
 30
0
 11
-176.8261006016456
 21
-153.4994735262922
 31
0
  0
LINE
  8
1
 62
2
 10
-176.8261006016456
 20
-153.4994735262922
 30
0
 11
-176.3461006016457
 21
-153.6194735262922
 31
0
  0
LINE
  8
1
 62
2
 10
-176.3461006016457
 20
-153.6194735262922
 30
0
 11
-175.9861006016457
 21
-153.8594735262922
 31
0
  0
LINE
  8
1
 62
2
 10
-175.9861006016457
 20
-153.8594735262922
 30
0
 11
-175.7461006016457
 21
-154.2194735262922
 31
0
  0
LINE
  8
1
 62
2
 10
-175.7461006016457
 20
-154.2194735262922
 30
0
 11
-175.7461006016457
 21
-154.6994735262922
 31
0
  0
LINE
  8
1
 62
2
 10
-175.7461006016457
 20
-154.6994735262922
 30
0
 11
-175.9861006016457
 21
-155.1794735262922
 31
0
  0
LINE
  8
1
 62
2
 10
-175.9861006016457
 20
-155.1794735262922
 30
0
 11
-178.6261006016457
 21
-158.2994735262922
 31
0
  0
LINE
  8
1
 62
2
 10
-178.6261006016457
 20
-158.2994735262922
 30
0
 11
-175.7461006016457
 21
-158.2994735262922
 31
0
  0
LINE
  8
1
 62
2
 10
-174.3061006016457
 20
-158.2994735262922
 30
0
 11
-174.3061006016457
 21
-154.9394735262922
 31
0
  0
LINE
  8
1
 62
2
 10
-174.3061006016457
 20
-154.9394735262922
 30
0
 11
-172.6261006016457
 21
-154.9394735262922
 31
0
  0
LINE
  8
1
 62
2
 10
-171.6661006016457
 20
-154.9394735262922
 30
0
 11
-171.3061006016457
 21
-155.0594735262922
 31
0
  0
LINE
  8
1
 62
2
 10
-171.3061006016457
 20
-155.0594735262922
 30
0
 11
-171.0661006016456
 21
-155.2994735262922
 31
0
  0
LINE
  8
1
 62
2
 10
-171.0661006016456
 20
-155.2994735262922
 30
0
 11
-170.9461006016456
 21
-155.5394735262922
 31
0
  0
LINE
  8
1
 62
2
 10
-170.9461006016456
 20
-155.5394735262922
 30
0
 11
-170.9461006016456
 21
-158.2994735262922
 31
0
  0
LINE
  8
1
 62
2
 10
-172.6261006016457
 20
-154.9394735262922
 30
0
 11
-172.6261006016457
 21
-158.2994735262922
 31
0
  0
LINE
  8
1
 62
2
 10
-172.6261006016457
 20
-154.9394735262922
 30
0
 11
-171.6661006016457
 21
-154.9394735262922
 31
0
  0
LINE
  8
1
 62
2
 10
-169.5061006016457
 20
-158.2994735262922
 30
0
 11
-169.5061006016457
 21
-154.9394735262922
 31
0
  0
LINE
  8
1
 62
2
 10
-169.5061006016457
 20
-154.9394735262922
 30
0
 11
-167.8261006016457
 21
-154.9394735262922
 31
0
  0
LINE
  8
1
 62
2
 10
-166.8661006016457
 20
-154.9394735262922
 30
0
 11
-166.5061006016457
 21
-155.0594735262922
 31
0
  0
LINE
  8
1
 62
2
 10
-166.5061006016457
 20
-155.0594735262922
 30
0
 11
-166.2661006016457
 21
-155.2994735262922
 31
0
  0
LINE
  8
1
 62
2
 10
-166.2661006016457
 20
-155.2994735262922
 30
0
 11
-166.1461006016457
 21
-155.5394735262922
 31
0
  0
LINE
  8
1
 62
2
 10
-166.1461006016457
 20
-155.5394735262922
 30
0
 11
-166.1461006016457
 21
-158.2994735262922
 31
0
  0
LINE
  8
1
 62
2
 10
-167.8261006016457
 20
-154.9394735262922
 30
0
 11
-167.8261006016457
 21
-158.2994735262922
 31
0
  0
LINE
  8
1
 62
2
 10
-167.8261006016457
 20
-154.9394735262922
 30
0
 11
-166.8661006016457
 21
-154.9394735262922
 31
0
  0
LINE
  8
1
 62
2
 10
-164.5727672683123
 20
-158.1494735262922
 30
0
 11
-163.9061006016457
 21
-156.3494735262922
 31
0
  0
LINE
  8
1
 62
2
 10
-164.1727672683123
 20
-155.7494735262922
 30
0
 11
-164.7061006016457
 21
-155.2994735262922
 31
0
  0
LINE
  8
1
 62
2
 10
-163.9061006016457
 20
-154.3994735262922
 30
0
 11
-164.439433934979
 21
-153.9494735262922
 31
0
  0
LINE
  8
1
 62
2
 10
-162.9727672683123
 20
-153.9494735262922
 30
0
 11
-162.9727672683123
 21
-154.8494735262922
 31
0
  0
LINE
  8
1
 62
2
 10
-162.9727672683123
 20
-155.7494735262922
 30
0
 11
-161.3727672683123
 21
-155.7494735262922
 31
0
  0
LINE
  8
1
 62
2
 10
-161.3727672683123
 20
-155.7494735262922
 30
0
 11
-161.3727672683123
 21
-154.8494735262922
 31
0
  0
LINE
  8
1
 62
2
 10
-161.3727672683123
 20
-153.9494735262922
 30
0
 11
-162.9727672683123
 21
-153.9494735262922
 31
0
  0
LINE
  8
1
 62
2
 10
-162.9727672683123
 20
-154.8494735262922
 30
0
 11
-161.3727672683123
 21
-154.8494735262922
 31
0
  0
LINE
  8
1
 62
2
 10
-163.1061006016457
 20
-158.1494735262922
 30
0
 11
-163.1061006016457
 21
-156.4994735262922
 31
0
  0
LINE
  8
1
 62
2
 10
-163.1061006016457
 20
-156.4994735262922
 30
0
 11
-162.439433934979
 21
-156.4994735262922
 31
0
  0
LINE
  8
1
 62
2
 10
-161.1061006016457
 20
-156.4994735262922
 30
0
 11
-161.1061006016457
 21
-158.1494735262922
 31
0
  0
LINE
  8
1
 62
2
 10
-161.7727672683123
 20
-158.1494735262922
 30
0
 11
-161.7727672683123
 21
-156.4994735262922
 31
0
  0
LINE
  8
1
 62
2
 10
-162.439433934979
 20
-156.4994735262922
 30
0
 11
-162.439433934979
 21
-158.1494735262922
 31
0
  0
LINE
  8
1
 62
2
 10
-163.7727672683123
 20
-158.1494735262922
 30
0
 11
-163.1061006016457
 21
-158.1494735262922
 31
0
  0
LINE
  8
1
 62
2
 10
-162.439433934979
 20
-158.1494735262922
 30
0
 11
-160.439433934979
 21
-158.1494735262922
 31
0
  0
LINE
  8
1
 62
2
 10
-162.439433934979
 20
-156.4994735262922
 30
0
 11
-161.1061006016457
 21
-156.4994735262922
 31
0
  0
LINE
  8
1
 62
2
 10
-163.1061006016457
 20
-158.1494735262922
 30
0
 11
-162.439433934979
 21
-158.1494735262922
 31
0
  0
LINE
  8
1
 62
2
 10
-161.3727672683123
 20
-154.8494735262922
 30
0
 11
-161.3727672683123
 21
-153.9494735262922
 31
0
  0
LINE
  8
1
 62
2
 10
-162.9727672683123
 20
-154.8494735262922
 30
0
 11
-162.9727672683123
 21
-155.7494735262922
 31
0
  0
LINE
  8
1
 62
2
 10
-159.639433934979
 20
-157.5494735262922
 30
0
 11
-159.1061006016457
 21
-156.9494735262922
 31
0
  0
LINE
  8
1
 62
2
 10
-159.1061006016457
 20
-156.9494735262922
 30
0
 11
-158.5727672683123
 21
-156.0494735262922
 31
0
  0
LINE
  8
1
 62
2
 10
-158.5727672683123
 20
-156.0494735262922
 30
0
 11
-158.3061006016457
 21
-155.1494735262922
 31
0
  0
LINE
  8
1
 62
2
 10
-158.3061006016457
 20
-155.1494735262922
 30
0
 11
-159.639433934979
 21
-155.1494735262922
 31
0
  0
LINE
  8
1
 62
2
 10
-157.639433934979
 20
-153.6494735262922
 30
0
 11
-157.639433934979
 21
-158.2994735262922
 31
0
  0
LINE
  8
1
 62
2
 10
-157.639433934979
 20
-158.2994735262922
 30
0
 11
-158.039433934979
 21
-158.1494735262922
 31
0
  0
LINE
  8
1
 62
2
 10
-156.039433934979
 20
-154.6994735262922
 30
0
 11
-156.9727672683123
 21
-155.4494735262922
 31
0
  0
LINE
  8
1
 62
2
 10
-157.239433934979
 20
-154.8494735262922
 30
0
 11
-156.839433934979
 21
-155.8994735262922
 31
0
  0
LINE
  8
1
 62
2
 10
-156.839433934979
 20
-155.8994735262922
 30
0
 11
-156.3061006016457
 21
-156.7994735262922
 31
0
  0
LINE
  8
1
 62
2
 10
-156.3061006016457
 20
-156.7994735262922
 30
0
 11
-155.639433934979
 21
-157.5494735262922
 31
0
  0
LINE
  8
1
 62
2
 10
-154.3061006016457
 20
-157.6994735262922
 30
0
 11
-153.3727672683123
 21
-156.9494735262922
 31
0
  0
LINE
  8
1
 62
2
 10
-153.3727672683123
 20
-156.9494735262922
 30
0
 11
-152.3061006016457
 21
-155.5994735262922
 31
0
  0
LINE
  8
1
 62
2
 10
-152.3061006016457
 20
-155.5994735262922
 30
0
 11
-151.639433934979
 21
-154.2494735262922
 31
0
  0
LINE
  8
1
 62
2
 10
-153.239433934979
 20
-155.1494735262922
 30
0
 11
-152.5727672683123
 21
-155.8994735262922
 31
0
  0
LINE
  8
1
 62
2
 10
-152.5727672683123
 20
-155.8994735262922
 30
0
 11
-151.9061006016457
 21
-156.9494735262922
 31
0
  0
LINE
  8
1
 62
2
 10
-149.639433934979
 20
-155.7494735262922
 30
0
 11
-149.3727672683123
 21
-155.8994735262922
 31
0
  0
LINE
  8
1
 62
2
 10
-149.3727672683123
 20
-155.8994735262922
 30
0
 11
-146.9727672683123
 21
-155.8994735262922
 31
0
  0
LINE
  8
1
 62
2
 10
-146.9727672683123
 20
-155.8994735262922
 30
0
 11
-146.7061006016457
 21
-156.0494735262922
 31
0
  0
LINE
  8
1
 62
2
 10
-144.7061006016457
 20
-157.6994735262922
 30
0
 11
-143.5061006016457
 21
-156.7994735262922
 31
0
  0
LINE
  8
1
 62
2
 10
-143.5061006016457
 20
-156.7994735262922
 30
0
 11
-142.439433934979
 21
-155.5994735262922
 31
0
  0
LINE
  8
1
 62
2
 10
-142.439433934979
 20
-155.5994735262922
 30
0
 11
-141.9061006016457
 21
-154.5494735262922
 31
0
  0
LINE
  8
1
 62
2
 10
-141.9061006016457
 20
-154.5494735262922
 30
0
 11
-143.639433934979
 21
-154.5494735262922
 31
0
  0
LINE
  8
1
 62
2
 10
-143.239433934979
 20
-153.9494735262922
 30
0
 11
-143.9061006016457
 21
-154.8494735262922
 31
0
  0
LINE
  8
1
 62
2
 10
-143.9061006016457
 20
-154.8494735262922
 30
0
 11
-144.5727672683123
 21
-155.5994735262922
 31
0
  0
LINE
  8
1
 62
2
 10
-143.5061006016457
 20
-155.4494735262922
 30
0
 11
-142.439433934979
 21
-156.6494735262922
 31
0
  0
LINE
  8
1
 62
2
 10
-140.039433934979
 20
-155.7494735262922
 30
0
 11
-139.7727672683124
 21
-155.8994735262922
 31
0
  0
LINE
  8
1
 62
2
 10
-139.7727672683124
 20
-155.8994735262922
 30
0
 11
-137.3727672683123
 21
-155.8994735262922
 31
0
  0
LINE
  8
1
 62
2
 10
-137.3727672683123
 20
-155.8994735262922
 30
0
 11
-137.1061006016457
 21
-156.0494735262922
 31
0
  0
LINE
  8
1
 62
2
 10
-290.2022579208826
 20
-119.42131502323
 30
0
 11
-290.6822579208826
 21
-120.38131502323
 31
0
  0
LINE
  8
1
 62
2
 10
-290.6822579208826
 20
-120.38131502323
 30
0
 11
-290.9222579208826
 21
-121.34131502323
 31
0
  0
LINE
  8
1
 62
2
 10
-290.9222579208826
 20
-121.34131502323
 30
0
 11
-290.9222579208826
 21
-122.30131502323
 31
0
  0
LINE
  8
1
 62
2
 10
-290.9222579208826
 20
-122.30131502323
 30
0
 11
-290.6822579208826
 21
-123.26131502323
 31
0
  0
LINE
  8
1
 62
2
 10
-290.6822579208826
 20
-123.26131502323
 30
0
 11
-290.2022579208826
 21
-124.22131502323
 31
0
  0
LINE
  8
1
 62
2
 10
-288.2289245875492
 20
-123.92131502323
 30
0
 11
-288.2289245875492
 21
-121.07131502323
 31
0
  0
LINE
  8
1
 62
2
 10
-288.2289245875492
 20
-121.07131502323
 30
0
 11
-285.0289245875492
 21
-121.07131502323
 31
0
  0
LINE
  8
1
 62
2
 10
-285.0289245875492
 20
-121.07131502323
 30
0
 11
-285.0289245875492
 21
-123.92131502323
 31
0
  0
LINE
  8
1
 62
2
 10
-285.0289245875492
 20
-123.92131502323
 30
0
 11
-288.2289245875492
 21
-123.92131502323
 31
0
  0
LINE
  8
1
 62
2
 10
-287.9622579208826
 20
-122.87131502323
 30
0
 11
-287.5622579208826
 21
-122.42131502323
 31
0
  0
LINE
  8
1
 62
2
 10
-287.5622579208826
 20
-122.42131502323
 30
0
 11
-287.1622579208826
 21
-121.52131502323
 31
0
  0
LINE
  8
1
 62
2
 10
-287.1622579208826
 20
-121.52131502323
 30
0
 11
-287.1622579208826
 21
-119.87131502323
 31
0
  0
LINE
  8
1
 62
2
 10
-288.6289245875493
 20
-119.87131502323
 30
0
 11
-287.1622579208826
 21
-119.87131502323
 31
0
  0
LINE
  8
1
 62
2
 10
-286.2289245875492
 20
-119.87131502323
 30
0
 11
-286.2289245875492
 21
-122.27131502323
 31
0
  0
LINE
  8
1
 62
2
 10
-286.2289245875492
 20
-122.27131502323
 30
0
 11
-286.0955912542159
 21
-122.57131502323
 31
0
  0
LINE
  8
1
 62
2
 10
-286.0955912542159
 20
-122.57131502323
 30
0
 11
-285.4289245875493
 21
-122.57131502323
 31
0
  0
LINE
  8
1
 62
2
 10
-285.4289245875493
 20
-122.57131502323
 30
0
 11
-285.2955912542159
 21
-122.27131502323
 31
0
  0
LINE
  8
1
 62
2
 10
-286.2289245875492
 20
-119.87131502323
 30
0
 11
-284.6289245875493
 21
-119.87131502323
 31
0
  0
LINE
  8
1
 62
2
 10
-287.1622579208826
 20
-119.87131502323
 30
0
 11
-286.2289245875492
 21
-119.87131502323
 31
0
  0
LINE
  8
1
 62
2
 10
-283.9622579208826
 20
-123.92131502323
 30
0
 11
-283.8289245875493
 21
-123.47131502323
 31
0
  0
LINE
  8
1
 62
2
 10
-283.8289245875493
 20
-123.47131502323
 30
0
 11
-283.695591254216
 21
-122.12131502323
 31
0
  0
LINE
  8
1
 62
2
 10
-283.695591254216
 20
-122.12131502323
 30
0
 11
-283.695591254216
 21
-119.57131502323
 31
0
  0
LINE
  8
1
 62
2
 10
-283.695591254216
 20
-119.57131502323
 30
0
 11
-279.9622579208826
 21
-119.57131502323
 31
0
  0
LINE
  8
1
 62
2
 10
-279.9622579208826
 20
-120.62131502323
 30
0
 11
-280.7622579208826
 21
-120.62131502323
 31
0
  0
LINE
  8
1
 62
2
 10
-281.8289245875493
 20
-120.62131502323
 30
0
 11
-283.1622579208826
 21
-120.62131502323
 31
0
  0
LINE
  8
1
 62
2
 10
-282.495591254216
 20
-119.87131502323
 30
0
 11
-282.495591254216
 21
-120.62131502323
 31
0
  0
LINE
  8
1
 62
2
 10
-283.2955912542159
 20
-121.82131502323
 30
0
 11
-282.895591254216
 21
-121.37131502323
 31
0
  0
LINE
  8
1
 62
2
 10
-282.895591254216
 20
-121.37131502323
 30
0
 11
-282.495591254216
 21
-120.62131502323
 31
0
  0
LINE
  8
1
 62
2
 10
-282.2289245875493
 20
-121.07131502323
 30
0
 11
-281.8289245875493
 21
-121.52131502323
 31
0
  0
LINE
  8
1
 62
2
 10
-281.8289245875493
 20
-121.97131502323
 30
0
 11
-281.4289245875493
 21
-121.67131502323
 31
0
  0
LINE
  8
1
 62
2
 10
-281.4289245875493
 20
-121.67131502323
 30
0
 11
-280.7622579208826
 21
-120.62131502323
 31
0
  0
LINE
  8
1
 62
2
 10
-280.7622579208826
 20
-119.87131502323
 30
0
 11
-280.7622579208826
 21
-120.62131502323
 31
0
  0
LINE
  8
1
 62
2
 10
-280.7622579208826
 20
-120.62131502323
 30
0
 11
-280.3622579208826
 21
-121.22131502323
 31
0
  0
LINE
  8
1
 62
2
 10
-280.3622579208826
 20
-121.22131502323
 30
0
 11
-279.695591254216
 21
-121.97131502323
 31
0
  0
LINE
  8
1
 62
2
 10
-280.495591254216
 20
-122.57131502323
 30
0
 11
-282.6289245875493
 21
-122.57131502323
 31
0
  0
LINE
  8
1
 62
2
 10
-282.6289245875493
 20
-122.57131502323
 30
0
 11
-282.6289245875493
 21
-123.32131502323
 31
0
  0
LINE
  8
1
 62
2
 10
-282.6289245875493
 20
-124.07131502323
 30
0
 11
-280.495591254216
 21
-124.07131502323
 31
0
  0
LINE
  8
1
 62
2
 10
-280.495591254216
 20
-124.07131502323
 30
0
 11
-280.495591254216
 21
-123.32131502323
 31
0
  0
LINE
  8
1
 62
2
 10
-282.6289245875493
 20
-123.32131502323
 30
0
 11
-280.495591254216
 21
-123.32131502323
 31
0
  0
LINE
  8
1
 62
2
 10
-280.495591254216
 20
-123.32131502323
 30
0
 11
-280.495591254216
 21
-122.57131502323
 31
0
  0
LINE
  8
1
 62
2
 10
-282.6289245875493
 20
-123.32131502323
 30
0
 11
-282.6289245875493
 21
-124.07131502323
 31
0
  0
LINE
  8
1
 62
2
 10
-280.7622579208826
 20
-120.62131502323
 30
0
 11
-280.7622579208826
 21
-122.12131502323
 31
0
  0
LINE
  8
1
 62
2
 10
-280.7622579208826
 20
-120.62131502323
 30
0
 11
-281.5622579208826
 21
-120.62131502323
 31
0
  0
LINE
  8
1
 62
2
 10
-282.495591254216
 20
-120.62131502323
 30
0
 11
-282.495591254216
 21
-122.12131502323
 31
0
  0
LINE
  8
1
 62
2
 10
-277.0289245875493
 20
-124.22131502323
 30
0
 11
-277.0289245875493
 21
-120.02131502323
 31
0
  0
LINE
  8
1
 62
2
 10
-275.0289245875493
 20
-120.02131502323
 30
0
 11
-277.0289245875493
 21
-120.02131502323
 31
0
  0
LINE
  8
1
 62
2
 10
-276.3622579208826
 20
-121.07131502323
 30
0
 11
-275.5622579208826
 21
-121.97131502323
 31
0
  0
LINE
  8
1
 62
2
 10
-277.0289245875493
 20
-120.02131502323
 30
0
 11
-279.0289245875493
 21
-120.02131502323
 31
0
  0
LINE
  8
1
 62
2
 10
-273.8289245875492
 20
-121.07131502323
 30
0
 11
-273.6955912542159
 21
-120.77131502323
 31
0
  0
LINE
  8
1
 62
2
 10
-273.6955912542159
 20
-120.77131502323
 30
0
 11
-273.1622579208826
 21
-120.47131502323
 31
0
  0
LINE
  8
1
 62
2
 10
-273.1622579208826
 20
-120.47131502323
 30
0
 11
-272.6289245875493
 21
-120.32131502323
 31
0
  0
LINE
  8
1
 62
2
 10
-272.6289245875493
 20
-120.32131502323
 30
0
 11
-271.6955912542159
 21
-120.32131502323
 31
0
  0
LINE
  8
1
 62
2
 10
-271.6955912542159
 20
-120.32131502323
 30
0
 11
-271.1622579208826
 21
-120.47131502323
 31
0
  0
LINE
  8
1
 62
2
 10
-271.1622579208826
 20
-120.47131502323
 30
0
 11
-270.6289245875493
 21
-120.77131502323
 31
0
  0
LINE
  8
1
 62
2
 10
-270.6289245875493
 20
-120.77131502323
 30
0
 11
-270.4955912542159
 21
-121.07131502323
 31
0
  0
LINE
  8
1
 62
2
 10
-270.4955912542159
 20
-121.07131502323
 30
0
 11
-270.4955912542159
 21
-121.82131502323
 31
0
  0
LINE
  8
1
 62
2
 10
-270.4955912542159
 20
-121.82131502323
 30
0
 11
-270.6289245875493
 21
-122.12131502323
 31
0
  0
LINE
  8
1
 62
2
 10
-270.6289245875493
 20
-122.12131502323
 30
0
 11
-271.1622579208826
 21
-122.42131502323
 31
0
  0
LINE
  8
1
 62
2
 10
-271.1622579208826
 20
-122.42131502323
 30
0
 11
-273.2955912542159
 21
-122.72131502323
 31
0
  0
LINE
  8
1
 62
2
 10
-273.2955912542159
 20
-122.72131502323
 30
0
 11
-273.6955912542159
 21
-123.02131502323
 31
0
  0
LINE
  8
1
 62
2
 10
-273.6955912542159
 20
-123.02131502323
 30
0
 11
-273.8289245875492
 21
-123.32131502323
 31
0
  0
LINE
  8
1
 62
2
 10
-273.8289245875492
 20
-123.32131502323
 30
0
 11
-273.9622579208826
 21
-124.22131502323
 31
0
  0
LINE
  8
1
 62
2
 10
-273.9622579208826
 20
-124.22131502323
 30
0
 11
-270.4955912542159
 21
-124.22131502323
 31
0
  0
LINE
  8
1
 62
2
 10
-269.2955912542159
 20
-120.77131502323
 30
0
 11
-268.6289245875493
 21
-120.77131502323
 31
0
  0
LINE
  8
1
 62
2
 10
-268.6289245875493
 20
-119.57131502323
 30
0
 11
-268.6289245875493
 21
-120.77131502323
 31
0
  0
LINE
  8
1
 62
2
 10
-268.6289245875493
 20
-120.77131502323
 30
0
 11
-269.0289245875492
 21
-121.97131502323
 31
0
  0
LINE
  8
1
 62
2
 10
-269.0289245875492
 20
-121.97131502323
 30
0
 11
-269.2955912542159
 21
-122.42131502323
 31
0
  0
LINE
  8
1
 62
2
 10
-269.2955912542159
 20
-122.42131502323
 30
0
 11
-269.4289245875493
 21
-122.72131502323
 31
0
  0
LINE
  8
1
 62
2
 10
-268.6289245875493
 20
-120.77131502323
 30
0
 11
-268.095591254216
 21
-121.97131502323
 31
0
  0
LINE
  8
1
 62
2
 10
-267.1622579208826
 20
-119.72131502323
 30
0
 11
-267.8289245875492
 21
-120.77131502323
 31
0
  0
LINE
  8
1
 62
2
 10
-266.8955912542159
 20
-120.62131502323
 30
0
 11
-267.2955912542159
 21
-121.37131502323
 31
0
  0
LINE
  8
1
 62
2
 10
-267.2955912542159
 20
-121.37131502323
 30
0
 11
-267.6955912542159
 21
-122.12131502323
 31
0
  0
LINE
  8
1
 62
2
 10
-267.6955912542159
 20
-122.12131502323
 30
0
 11
-268.095591254216
 21
-122.57131502323
 31
0
  0
LINE
  8
1
 62
2
 10
-267.4289245875493
 20
-121.67131502323
 30
0
 11
-267.4289245875493
 21
-124.07131502323
 31
0
  0
LINE
  8
1
 62
2
 10
-266.7622579208826
 20
-120.02131502323
 30
0
 11
-265.5622579208826
 21
-120.02131502323
 31
0
  0
LINE
  8
1
 62
2
 10
-266.8955912542159
 20
-121.22131502323
 30
0
 11
-265.9622579208826
 21
-121.22131502323
 31
0
  0
LINE
  8
1
 62
2
 10
-265.9622579208826
 20
-121.22131502323
 30
0
 11
-265.9622579208826
 21
-123.77131502323
 31
0
  0
LINE
  8
1
 62
2
 10
-265.9622579208826
 20
-123.77131502323
 30
0
 11
-266.095591254216
 21
-124.07131502323
 31
0
  0
LINE
  8
1
 62
2
 10
-266.095591254216
 20
-124.07131502323
 30
0
 11
-266.4955912542159
 21
-124.07131502323
 31
0
  0
LINE
  8
1
 62
2
 10
-265.9622579208826
 20
-121.22131502323
 30
0
 11
-265.2955912542159
 21
-121.22131502323
 31
0
  0
LINE
  8
1
 62
2
 10
-268.6289245875493
 20
-120.77131502323
 30
0
 11
-268.6289245875493
 21
-124.07131502323
 31
0
  0
LINE
  8
1
 62
2
 10
-268.6289245875493
 20
-120.77131502323
 30
0
 11
-267.9622579208826
 21
-120.77131502323
 31
0
  0
LINE
  8
1
 62
2
 10
-264.7622579208826
 20
-119.42131502323
 30
0
 11
-264.2822579208826
 21
-120.38131502323
 31
0
  0
LINE
  8
1
 62
2
 10
-264.2822579208826
 20
-120.38131502323
 30
0
 11
-264.0422579208826
 21
-121.34131502323
 31
0
  0
LINE
  8
1
 62
2
 10
-264.0422579208826
 20
-121.34131502323
 30
0
 11
-264.0422579208826
 21
-122.30131502323
 31
0
  0
LINE
  8
1
 62
2
 10
-264.0422579208826
 20
-122.30131502323
 30
0
 11
-264.2822579208826
 21
-123.26131502323
 31
0
  0
LINE
  8
1
 62
2
 10
-264.2822579208826
 20
-123.26131502323
 30
0
 11
-264.7622579208826
 21
-124.22131502323
 31
0
  0
LINE
  8
1
 62
2
 10
-248.7573143936256
 20
-122.5934789998129
 30
0
 11
-248.7573143936256
 21
-117.7934789998129
 31
0
  0
LINE
  8
1
 62
2
 10
-248.090647726959
 20
-119.1434789998129
 30
0
 11
-249.5573143936256
 21
-119.1434789998129
 31
0
  0
LINE
  8
1
 62
2
 10
-249.690647726959
 20
-121.0934789998129
 30
0
 11
-249.1573143936256
 21
-120.1934789998129
 31
0
  0
LINE
  8
1
 62
2
 10
-249.1573143936256
 20
-120.1934789998129
 30
0
 11
-248.7573143936256
 21
-119.2934789998129
 31
0
  0
LINE
  8
1
 62
2
 10
-248.7573143936256
 20
-119.2934789998129
 30
0
 11
-248.090647726959
 21
-120.3434789998129
 31
0
  0
LINE
  8
1
 62
2
 10
-247.9573143936256
 20
-121.6934789998129
 30
0
 11
-247.1573143936256
 21
-120.7934789998129
 31
0
  0
LINE
  8
1
 62
2
 10
-247.1573143936256
 20
-120.7934789998129
 30
0
 11
-246.4906477269589
 21
-119.4434789998129
 31
0
  0
LINE
  8
1
 62
2
 10
-245.690647726959
 20
-119.2934789998129
 30
0
 11
-247.690647726959
 21
-119.2934789998129
 31
0
  0
LINE
  8
1
 62
2
 10
-246.4906477269589
 20
-117.9434789998129
 30
0
 11
-246.3573143936256
 21
-122.2934789998129
 31
0
  0
LINE
  8
1
 62
2
 10
-246.3573143936256
 20
-122.2934789998129
 30
0
 11
-246.7573143936256
 21
-122.2934789998129
 31
0
  0
LINE
  8
1
 62
2
 10
-244.890647726959
 20
-121.6934789998129
 30
0
 11
-244.490647726959
 21
-120.9434789998129
 31
0
  0
LINE
  8
1
 62
2
 10
-244.490647726959
 20
-120.9434789998129
 30
0
 11
-243.9573143936256
 21
-119.5934789998129
 31
0
  0
LINE
  8
1
 62
2
 10
-243.0239810602923
 20
-119.5934789998129
 30
0
 11
-244.890647726959
 21
-119.5934789998129
 31
0
  0
LINE
  8
1
 62
2
 10
-244.7573143936256
 20
-118.3934789998129
 30
0
 11
-244.3573143936256
 21
-118.9934789998129
 31
0
  0
LINE
  8
1
 62
2
 10
-243.5573143936256
 20
-118.8434789998129
 30
0
 11
-243.290647726959
 21
-118.2434789998129
 31
0
  0
LINE
  8
1
 62
2
 10
-243.9573143936256
 20
-117.9434789998129
 30
0
 11
-243.9573143936256
 21
-119.5934789998129
 31
0
  0
LINE
  8
1
 62
2
 10
-243.5573143936256
 20
-120.1934789998129
 30
0
 11
-243.290647726959
 21
-120.7934789998129
 31
0
  0
LINE
  8
1
 62
2
 10
-243.0239810602923
 20
-120.9434789998129
 30
0
 11
-240.7573143936256
 21
-120.4934789998129
 31
0
  0
LINE
  8
1
 62
2
 10
-242.2239810602923
 20
-119.8934789998129
 30
0
 11
-242.6239810602923
 21
-119.2934789998129
 31
0
  0
LINE
  8
1
 62
2
 10
-242.2239810602923
 20
-118.6934789998129
 30
0
 11
-242.6239810602923
 21
-118.0934789998129
 31
0
  0
LINE
  8
1
 62
2
 10
-241.5573143936256
 20
-117.7934789998129
 30
0
 11
-241.5573143936256
 21
-122.5934789998129
 31
0
  0
LINE
  8
1
 62
2
 10
-243.9573143936256
 20
-119.5934789998129
 30
0
 11
-243.9573143936256
 21
-122.4434789998129
 31
0
  0
LINE
  8
1
 62
2
 10
-239.9573143936256
 20
-122.2934789998129
 30
0
 11
-239.9573143936256
 21
-121.0934789998129
 31
0
  0
LINE
  8
1
 62
2
 10
-239.9573143936256
 20
-121.0934789998129
 30
0
 11
-238.890647726959
 21
-121.0934789998129
 31
0
  0
LINE
  8
1
 62
2
 10
-238.890647726959
 20
-121.0934789998129
 30
0
 11
-238.890647726959
 21
-122.2934789998129
 31
0
  0
LINE
  8
1
 62
2
 10
-238.890647726959
 20
-122.2934789998129
 30
0
 11
-239.9573143936256
 21
-122.2934789998129
 31
0
  0
LINE
  8
1
 62
2
 10
-239.9573143936256
 20
-120.4934789998129
 30
0
 11
-238.890647726959
 21
-120.4934789998129
 31
0
  0
LINE
  8
1
 62
2
 10
-238.890647726959
 20
-119.7434789998129
 30
0
 11
-239.9573143936256
 21
-119.7434789998129
 31
0
  0
LINE
  8
1
 62
2
 10
-240.2239810602923
 20
-119.1434789998129
 30
0
 11
-238.490647726959
 21
-119.1434789998129
 31
0
  0
LINE
  8
1
 62
2
 10
-240.090647726959
 20
-118.3934789998129
 30
0
 11
-238.890647726959
 21
-118.3934789998129
 31
0
  0
LINE
  8
1
 62
2
 10
-238.090647726959
 20
-118.5434789998129
 30
0
 11
-236.6239810602923
 21
-118.5434789998129
 31
0
  0
LINE
  8
1
 62
2
 10
-236.6239810602923
 20
-118.5434789998129
 30
0
 11
-236.6239810602923
 21
-120.0434789998129
 31
0
  0
LINE
  8
1
 62
2
 10
-236.6239810602923
 20
-120.0434789998129
 30
0
 11
-238.090647726959
 21
-120.0434789998129
 31
0
  0
LINE
  8
1
 62
2
 10
-238.090647726959
 20
-120.0434789998129
 30
0
 11
-238.090647726959
 21
-122.2934789998129
 31
0
  0
LINE
  8
1
 62
2
 10
-238.090647726959
 20
-122.2934789998129
 30
0
 11
-237.5573143936256
 21
-122.2934789998129
 31
0
  0
LINE
  8
1
 62
2
 10
-237.5573143936256
 20
-122.2934789998129
 30
0
 11
-236.2239810602923
 21
-122.2934789998129
 31
0
  0
LINE
  8
1
 62
2
 10
-236.2239810602923
 20
-122.2934789998129
 30
0
 11
-236.2239810602923
 21
-121.8434789998129
 31
0
  0
LINE
  8
1
 62
2
 10
-234.3573143936256
 20
-118.0934789998129
 30
0
 11
-234.3573143936256
 21
-119.1434789998129
 31
0
  0
LINE
  8
1
 62
2
 10
-234.3573143936256
 20
-119.1434789998129
 30
0
 11
-232.2239810602923
 21
-119.1434789998129
 31
0
  0
LINE
  8
1
 62
2
 10
-232.2239810602923
 20
-119.1434789998129
 30
0
 11
-232.2239810602923
 21
-118.0934789998129
 31
0
  0
LINE
  8
1
 62
2
 10
-232.2239810602923
 20
-118.0934789998129
 30
0
 11
-234.3573143936256
 21
-118.0934789998129
 31
0
  0
LINE
  8
1
 62
2
 10
-235.290647726959
 20
-119.8934789998129
 30
0
 11
-233.8239810602923
 21
-119.8934789998129
 31
0
  0
LINE
  8
1
 62
2
 10
-233.8239810602923
 20
-119.8934789998129
 30
0
 11
-234.2239810602923
 21
-121.3934789998129
 31
0
  0
LINE
  8
1
 62
2
 10
-234.090647726959
 20
-120.7934789998129
 30
0
 11
-232.2239810602923
 21
-120.7934789998129
 31
0
  0
LINE
  8
1
 62
2
 10
-232.2239810602923
 20
-120.7934789998129
 30
0
 11
-232.490647726959
 21
-121.6934789998129
 31
0
  0
LINE
  8
1
 62
2
 10
-232.490647726959
 20
-121.6934789998129
 30
0
 11
-232.890647726959
 21
-122.4434789998129
 31
0
  0
LINE
  8
1
 62
2
 10
-232.890647726959
 20
-122.4434789998129
 30
0
 11
-233.1573143936256
 21
-122.5934789998129
 31
0
  0
LINE
  8
1
 62
2
 10
-233.1573143936256
 20
-122.5934789998129
 30
0
 11
-233.690647726959
 21
-122.2934789998129
 31
0
  0
LINE
  8
1
 62
2
 10
-233.8239810602923
 20
-119.8934789998129
 30
0
 11
-231.4239810602923
 21
-119.8934789998129
 31
0
  0
LINE
  8
1
 62
2
 10
-241.3379009216273
 20
-127.86664534378
 30
0
 11
-244.2179009216273
 21
-127.86664534378
 31
0
  0
LINE
  8
1
 62
2
 10
-240.8579009216273
 20
-125.70664534378
 30
0
 11
-244.2179009216273
 21
-125.70664534378
 31
0
  0
LINE
  8
1
 62
2
 10
-244.2179009216273
 20
-125.70664534378
 30
0
 11
-244.2179009216273
 21
-127.86664534378
 31
0
  0
LINE
  8
1
 62
2
 10
-244.2179009216273
 20
-128.10664534378
 30
0
 11
-244.2179009216273
 21
-130.50664534378
 31
0
  0
LINE
  8
1
 62
2
 10
-244.2179009216273
 20
-130.50664534378
 30
0
 11
-240.8579009216273
 21
-130.50664534378
 31
0
  0
LINE
  8
1
 62
2
 10
-244.2179009216273
 20
-127.86664534378
 30
0
 11
-244.2179009216273
 21
-128.10664534378
 31
0
  0
LINE
  8
1
 62
2
 10
-284.1489245875493
 20
-115.6470201272
 30
0
 11
-282.6822579208826
 21
-115.0470201272
 31
0
  0
LINE
  8
1
 62
2
 10
-282.9489245875493
 20
-114.8970201272
 30
0
 11
-282.8155912542159
 21
-114.1470201272
 31
0
  0
LINE
  8
1
 62
2
 10
-282.6822579208826
 20
-113.6970201272
 30
0
 11
-284.015591254216
 21
-113.6970201272
 31
0
  0
LINE
  8
1
 62
2
 10
-283.8822579208826
 20
-112.9470201272
 30
0
 11
-283.3489245875493
 21
-112.9470201272
 31
0
  0
LINE
  8
1
 62
2
 10
-282.5489245875493
 20
-112.1970201272
 30
0
 11
-283.3489245875493
 21
-111.2970201272
 31
0
  0
LINE
  8
1
 62
2
 10
-283.3489245875493
 20
-111.2970201272
 30
0
 11
-283.8822579208826
 21
-112.3470201272
 31
0
  0
LINE
  8
1
 62
2
 10
-283.8822579208826
 20
-112.3470201272
 30
0
 11
-284.4155912542159
 21
-113.3970201272
 31
0
  0
LINE
  8
1
 62
2
 10
-284.015591254216
 20
-114.1470201272
 30
0
 11
-283.7489245875493
 21
-114.8970201272
 31
0
  0
LINE
  8
1
 62
2
 10
-283.3489245875493
 20
-115.3470201272
 30
0
 11
-283.3489245875493
 21
-112.9470201272
 31
0
  0
LINE
  8
1
 62
2
 10
-282.5489245875493
 20
-113.0970201272
 30
0
 11
-280.1489245875493
 21
-113.0970201272
 31
0
  0
LINE
  8
1
 62
2
 10
-280.1489245875493
 20
-113.9970201272
 30
0
 11
-282.4155912542159
 21
-113.9970201272
 31
0
  0
LINE
  8
1
 62
2
 10
-282.5489245875493
 20
-115.4970201272
 30
0
 11
-282.015591254216
 21
-114.5970201272
 31
0
  0
LINE
  8
1
 62
2
 10
-282.015591254216
 20
-114.5970201272
 30
0
 11
-281.6155912542159
 21
-113.0970201272
 31
0
  0
LINE
  8
1
 62
2
 10
-281.6155912542159
 20
-113.0970201272
 30
0
 11
-281.4822579208826
 21
-111.2970201272
 31
0
  0
LINE
  8
1
 62
2
 10
-282.4155912542159
 20
-111.7470201272
 30
0
 11
-280.4155912542159
 21
-111.7470201272
 31
0
  0
LINE
  8
1
 62
2
 10
-280.4155912542159
 20
-112.4970201272
 30
0
 11
-282.2822579208826
 21
-112.4970201272
 31
0
  0
LINE
  8
1
 62
2
 10
-280.6822579208826
 20
-113.3970201272
 30
0
 11
-280.6822579208826
 21
-115.7970201272
 31
0
  0
LINE
  8
1
 62
2
 10
-280.6822579208826
 20
-115.7970201272
 30
0
 11
-281.215591254216
 21
-115.7970201272
 31
0
  0
LINE
  8
1
 62
2
 10
-281.215591254216
 20
-115.1970201272
 30
0
 11
-281.4822579208826
 21
-114.4470201272
 31
0
  0
LINE
  8
1
 62
2
 10
-283.3489245875493
 20
-112.9470201272
 30
0
 11
-282.6822579208826
 21
-112.9470201272
 31
0
  0
LINE
  8
1
 62
2
 10
-279.3489245875493
 20
-115.3470201272
 30
0
 11
-278.6822579208826
 21
-114.7470201272
 31
0
  0
LINE
  8
1
 62
2
 10
-278.6822579208826
 20
-114.7470201272
 30
0
 11
-278.6822579208826
 21
-113.0970201272
 31
0
  0
LINE
  8
1
 62
2
 10
-278.6822579208826
 20
-113.0970201272
 30
0
 11
-279.3489245875493
 21
-113.0970201272
 31
0
  0
LINE
  8
1
 62
2
 10
-278.6822579208826
 20
-114.7470201272
 30
0
 11
-278.4155912542159
 21
-115.3470201272
 31
0
  0
LINE
  8
1
 62
2
 10
-278.4155912542159
 20
-115.3470201272
 30
0
 11
-278.1489245875493
 21
-115.4970201272
 31
0
  0
LINE
  8
1
 62
2
 10
-278.1489245875493
 20
-115.4970201272
 30
0
 11
-275.4822579208826
 21
-115.4970201272
 31
0
  0
LINE
  8
1
 62
2
 10
-276.1489245875493
 20
-114.7470201272
 30
0
 11
-276.1489245875493
 21
-113.5470201272
 31
0
  0
LINE
  8
1
 62
2
 10
-276.1489245875493
 20
-113.5470201272
 30
0
 11
-277.6155912542159
 21
-113.5470201272
 31
0
  0
LINE
  8
1
 62
2
 10
-277.6155912542159
 20
-113.5470201272
 30
0
 11
-277.6155912542159
 21
-114.7470201272
 31
0
  0
LINE
  8
1
 62
2
 10
-277.6155912542159
 20
-114.7470201272
 30
0
 11
-276.1489245875493
 21
-114.7470201272
 31
0
  0
LINE
  8
1
 62
2
 10
-275.6155912542159
 20
-112.9470201272
 30
0
 11
-276.9489245875492
 21
-112.9470201272
 31
0
  0
LINE
  8
1
 62
2
 10
-276.9489245875492
 20
-112.9470201272
 30
0
 11
-276.9489245875492
 21
-110.9970201272
 31
0
  0
LINE
  8
1
 62
2
 10
-275.8822579208826
 20
-111.8970201272
 30
0
 11
-277.8822579208826
 21
-111.8970201272
 31
0
  0
LINE
  8
1
 62
2
 10
-277.6155912542159
 20
-111.1470201272
 30
0
 11
-277.8822579208826
 21
-111.8970201272
 31
0
  0
LINE
  8
1
 62
2
 10
-277.8822579208826
 20
-111.8970201272
 30
0
 11
-278.1489245875493
 21
-112.3470201272
 31
0
  0
LINE
  8
1
 62
2
 10
-278.6822579208826
 20
-111.7470201272
 30
0
 11
-279.0822579208826
 21
-111.1470201272
 31
0
  0
LINE
  8
1
 62
2
 10
-279.3489245875493
 20
-115.3470201272
 30
0
 11
-279.4822579208826
 21
-115.4970201272
 31
0
  0
LINE
  8
1
 62
2
 10
-279.3489245875493
 20
-113.0970201272
 30
0
 11
-279.4822579208826
 21
-113.0970201272
 31
0
  0
LINE
  8
1
 62
2
 10
-276.9489245875492
 20
-112.9470201272
 30
0
 11
-278.1489245875493
 21
-112.9470201272
 31
0
  0
LINE
  8
1
 62
2
 10
-273.4822579208826
 20
-110.9970201272
 30
0
 11
-273.7489245875493
 21
-111.4470201272
 31
0
  0
LINE
  8
1
 62
2
 10
-273.7489245875493
 20
-111.4470201272
 30
0
 11
-274.1489245875492
 21
-112.0470201272
 31
0
  0
LINE
  8
1
 62
2
 10
-274.1489245875492
 20
-112.0470201272
 30
0
 11
-274.5489245875493
 21
-112.4970201272
 31
0
  0
LINE
  8
1
 62
2
 10
-273.8822579208826
 20
-111.7470201272
 30
0
 11
-272.6822579208826
 21
-111.7470201272
 31
0
  0
LINE
  8
1
 62
2
 10
-272.6822579208826
 20
-111.7470201272
 30
0
 11
-272.6822579208826
 21
-115.7970201272
 31
0
  0
LINE
  8
1
 62
2
 10
-274.0155912542159
 20
-112.9470201272
 30
0
 11
-271.3489245875493
 21
-112.9470201272
 31
0
  0
LINE
  8
1
 62
2
 10
-274.0155912542159
 20
-113.0970201272
 30
0
 11
-274.0155912542159
 21
-114.1470201272
 31
0
  0
LINE
  8
1
 62
2
 10
-274.8155912542159
 20
-114.1470201272
 30
0
 11
-274.0155912542159
 21
-114.1470201272
 31
0
  0
LINE
  8
1
 62
2
 10
-274.0155912542159
 20
-114.1470201272
 30
0
 11
-270.5489245875493
 21
-114.1470201272
 31
0
  0
LINE
  8
1
 62
2
 10
-272.6822579208826
 20
-111.7470201272
 30
0
 11
-271.2155912542159
 21
-111.7470201272
 31
0
  0
ARC
  8
1
 62
7
 10
-184.6631847604385
 20
103.0524623545123
 30
0
 40
0.5
 50
90
 51
180
  0
ARC
  8
1
 62
7
 10
-184.6631847604385
 20
96.98139454264683
 30
0
 40
0.5
 50
180
 51
270
  0
ARC
  8
1
 62
7
 10
-160.1631847604385
 20
96.98139454264683
 30
0
 40
0.5
 50
270
 51
0
  0
ARC
  8
1
 62
7
 10
-160.1631847604385
 20
103.0524623545123
 30
0
 40
0.5
 50
0
 51
90
  0
ARC
  8
1
 62
7
 10
-184.6631847604382
 20
25.03104988558499
 30
0
 40
0.5
 50
90
 51
180
  0
ARC
  8
1
 62
7
 10
-184.6631847604382
 20
18.95998207371969
 30
0
 40
0.5
 50
180
 51
270
  0
ARC
  8
1
 62
7
 10
-160.1631847604382
 20
18.95998207371969
 30
0
 40
0.5
 50
270
 51
0
  0
ARC
  8
1
 62
7
 10
-160.1631847604382
 20
25.03104988558499
 30
0
 40
0.5
 50
0
 51
90
  0
ARC
  8
1
 62
7
 10
-207.6290274143389
 20
92.09003760729483
 30
0
 40
9.999999999999979
 50
79.11481341517205
 51
81.11005613152541
  0
ARC
  8
1
 62
7
 10
-207.629027414337
 20
176.5848759390142
 30
0
 40
10.00000000000003
 50
278.8899438684635
 51
280.8851865848156
  0
ARC
  8
1
 62
7
 10
-88.41318476043841
 20
111.8174880968499
 30
0
 40
4
 50
0
 51
105.0964620905948
  0
ARC
  8
1
 62
7
 10
-88.41318476043841
 20
156.8574254494588
 30
0
 40
4.000000000000105
 50
254.9035379094048
 51
0
  0
ARC
  8
1
 62
7
 10
-174.4131847604382
 20
-115.9237528737069
 30
0
 40
0.5
 50
0
 51
89.54795760217282
  0
ARC
  8
1
 62
7
 10
-170.4131847604382
 20
-115.9237528737069
 30
0
 40
0.5000000000000687
 50
90.45204239782385
 51
180
  0
ARC
  8
1
 62
7
 10
-88.41318476043824
 20
-98.36096221411616
 30
0
 40
4
 50
0
 51
80.7701137562717
  0
ARC
  8
1
 62
7
 10
-125.4131847604382
 20
-90.32222802232077
 30
0
 40
2.000000000000004
 50
80.77011375627197
 51
180
  0
ARC
  8
1
 62
7
 10
-221.3964179630783
 20
-48.4316425428328
 30
0
 40
4.999999999999993
 50
284.447978903533
 51
348.4615369536959
  0
ARC
  8
1
 62
7
 10
-88.41318476043824
 20
-54.03009497885678
 30
0
 40
3.999999999999901
 50
257.0498660790535
 51
0
  0
ARC
  8
1
 62
7
 10
-124.3295926474257
 20
-44.74495906970289
 30
0
 40
4.999999999999889
 50
195.8886603483812
 51
257.0498660790551
  0
ARC
  8
1
 62
7
 10
-221.3964179630783
 20
-48.4316425428328
 30
0
 40
4.999999999999993
 50
270
 51
284.447978903533
  0
ARC
  8
1
 62
7
 10
-276.4131847604382
 20
-52.7316425428328
 30
0
 40
4
 50
180
 51
275.5933398251876
  0
ARC
  8
1
 62
7
 10
-169.4131847604382
 20
-33.43164254283282
 30
0
 40
1
 50
270
 51
0
  0
ARC
  8
1
 62
7
 10
-175.4131847604382
 20
-33.43164254283282
 30
0
 40
1
 50
180
 51
270
  0
ARC
  8
1
 62
7
 10
-169.4131847604382
 20
-19.43164254283282
 30
0
 40
1
 50
0
 51
90
  0
ARC
  8
1
 62
7
 10
-175.4131847604382
 20
-19.43164254283282
 30
0
 40
1
 50
90
 51
180
  0
ARC
  8
1
 62
7
 10
-225.4131847604382
 20
-19.43164254283282
 30
0
 40
1
 50
90
 51
180
  0
ARC
  8
1
 62
7
 10
-216.9131847604382
 20
-15.43164254283282
 30
0
 40
1.999999999999771
 50
90
 51
180
  0
ARC
  8
1
 62
7
 10
-119.4131847604382
 20
-19.43164254283282
 30
0
 40
1
 50
0
 51
90
  0
ARC
  8
1
 62
7
 10
-127.9131847604383
 20
-15.43164254283282
 30
0
 40
2.0000000000001
 50
0
 51
90
  0
ARC
  8
1
 62
7
 10
-225.4131847604382
 20
-33.43164254283282
 30
0
 40
1
 50
180
 51
270
  0
ARC
  8
1
 62
7
 10
-119.4131847604383
 20
-33.43164254283282
 30
0
 40
1
 50
270
 51
0
  0
ARC
  8
1
 62
7
 10
-225.4131847604385
 20
137.3374567731544
 30
0
 40
1
 50
90
 51
180
  0
ARC
  8
1
 62
7
 10
-175.4131847604385
 20
187.3374567731544
 30
0
 40
1
 50
90
 51
180
  0
ARC
  8
1
 62
7
 10
-169.4131847604385
 20
187.3374567731544
 30
0
 40
1
 50
0
 51
90
  0
ARC
  8
1
 62
7
 10
-119.4131847604385
 20
137.3374567731544
 30
0
 40
1
 50
0
 51
90
  0
ARC
  8
1
 62
7
 10
-225.4131847604385
 20
131.3374567731544
 30
0
 40
1
 50
180
 51
270
  0
ARC
  8
1
 62
7
 10
-175.4131847604385
 20
81.33745677315417
 30
0
 40
1
 50
180
 51
270
  0
ARC
  8
1
 62
7
 10
-169.4131847604385
 20
81.33745677315417
 30
0
 40
1
 50
270
 51
0
  0
ARC
  8
1
 62
7
 10
-119.4131847604385
 20
131.3374567731544
 30
0
 40
1
 50
270
 51
0
  0
ARC
  8
1
 62
7
 10
-191.7091263064574
 20
36.77241591115016
 30
0
 40
9.999999999999716
 50
180.0000000000084
 51
202.4130884471013
  0
ARC
  8
1
 62
7
 10
-153.1631847604382
 20
36.7724159111487
 30
0
 40
10
 50
270
 51
322.3315491906257
  0
ARC
  8
1
 62
7
 10
-153.1631847604382
 20
36.7724159111487
 30
0
 40
9.999999999999554
 50
322.3315491906257
 51
324.8488137824392
  0
ARC
  8
1
 62
7
 10
-153.1631847604367
 20
36.77241591115122
 30
0
 40
9.999999999999805
 50
324.8488137824224
 51
331.9871279193021
  0
ARC
  8
1
 62
7
 10
-153.1631847604382
 20
36.7724159111487
 30
0
 40
9.999999999999981
 50
341.8051276612335
 51
357.9913424883852
  0
ARC
  8
1
 62
7
 10
-153.1631847604382
 20
36.7724159111487
 30
0
 40
9.999999999999954
 50
331.9871279193189
 51
341.8051276612335
  0
ARC
  8
1
 62
7
 10
-204.9131847604382
 20
-12.43164254283289
 30
0
 40
1
 50
180
 51
270
  0
ARC
  8
1
 62
7
 10
-139.9131847604382
 20
-12.43164254283289
 30
0
 40
1
 50
270
 51
0
  0
ARC
  8
1
 62
7
 10
-137.9131847604382
 20
-7.43164254283289
 30
0
 40
1
 50
90
 51
180
  0
ARC
  8
1
 62
7
 10
-206.9131847604382
 20
-7.43164254283289
 30
0
 40
1
 50
0
 51
90
  0
ARC
  8
1
 62
7
 10
-145.1631847604382
 20
42.45008544081253
 30
0
 40
2
 50
0
 51
90
  0
ARC
  8
1
 62
7
 10
-199.7091263064571
 20
42.45008544081253
 30
0
 40
2
 50
90
 51
180
  0
ARC
  8
1
 62
7
 10
-199.7091263064571
 20
41.74297865962564
 30
0
 40
2
 50
90
 51
180
  0
ARC
  8
1
 62
7
 10
-145.1631847604382
 20
41.74297865962564
 30
0
 40
2
 50
0
 51
90
  0
ARC
  8
1
 62
7
 10
-191.7091263064571
 20
36.7724159111487
 30
0
 40
9.999999999999417
 50
202.4130884470929
 51
270
  0
ARC
  8
1
 62
7
 10
-153.1631847604382
 20
36.7724159111487
 30
0
 40
9.999999999999968
 50
357.9913424883852
 51
0
  0
ARC
  8
1
 62
7
 10
-138.0150709655231
 20
43.56835745716711
 30
0
 40
2.999999999999333
 50
8.130102354158744
 51
57.33037977074071
  0
ARC
  8
1
 62
7
 10
-206.8112985553532
 20
43.56835745716711
 30
0
 40
3
 50
90
 51
122.6696202292797
  0
ARC
  8
1
 62
7
 10
-206.8112985553532
 20
43.56835745716711
 30
0
 40
2.999999999999894
 50
122.6696202292797
 51
171.8698976458442
  0
ARC
  8
1
 62
7
 10
-138.0150709655231
 20
43.56835745716711
 30
0
 40
2.999999999999986
 50
57.33037977072333
 51
90
  0
ARC
  8
1
 62
7
 10
-215.4131847604382
 20
4.06835745716711
 30
0
 40
1.5
 50
270
 51
0
  0
ARC
  8
1
 62
7
 10
-129.4131847604382
 20
4.06835745716711
 30
0
 40
1.5
 50
180
 51
270
  0
ARC
  8
1
 62
7
 10
-215.9131847604382
 20
1.06835745716711
 30
0
 40
1.5
 50
90
 51
180
  0
ARC
  8
1
 62
7
 10
-128.9131847604382
 20
1.06835745716711
 30
0
 40
1.500000000000014
 50
0
 51
90
  0
ARC
  8
1
 62
7
 10
-136.9984286253422
 20
-8.76048626267891
 30
0
 40
1.500818181818032
 50
8.170915410686085
 51
85.00000000002147
  0
ARC
  8
1
 62
7
 10
-136.9984286253422
 20
-11.17795437913941
 30
0
 40
1.500818181818158
 50
274.9999999999785
 51
351.8290845893098
  0
ARC
  8
1
 62
7
 10
-199.7091263064576
 20
119.762077975613
 30
0
 40
2
 50
90
 51
180
  0
ARC
  8
1
 62
7
 10
-145.1631847604385
 20
119.762077975613
 30
0
 40
2
 50
0
 51
90
  0
ARC
  8
1
 62
7
 10
-151.6631847604385
 20
113.6450686177292
 30
0
 40
8.5
 50
270
 51
0
  0
ARC
  8
1
 62
7
 10
-151.6631847604385
 20
113.2915152271358
 30
0
 40
8.5
 50
270
 51
0
  0
ARC
  8
1
 62
7
 10
-193.2091263064576
 20
113.6450686177292
 30
0
 40
8.5
 50
180
 51
270
  0
ARC
  8
1
 62
7
 10
-193.2091263064576
 20
113.2915152271358
 30
0
 40
8.5
 50
180
 51
270
  0
ARC
  8
1
 62
7
 10
-153.1631847604384
 20
114.4256512353193
 30
0
 40
9.999999999999917
 50
357.9913424883473
 51
359.9999999999628
  0
ARC
  8
1
 62
7
 10
-153.1631847604385
 20
114.4256512353128
 30
0
 40
9.999999999999913
 50
331.9871279193169
 51
341.8051276612327
  0
ARC
  8
1
 62
7
 10
-153.1631847604385
 20
114.4256512353128
 30
0
 40
10.00000000000003
 50
341.8051276612327
 51
357.9913424883845
  0
ARC
  8
1
 62
7
 10
-153.1631847604366
 20
114.4256512353159
 30
0
 40
9.99999999999968
 50
324.8488137824172
 51
331.9871279192961
  0
ARC
  8
1
 62
7
 10
-153.1631847604429
 20
114.4256512353069
 30
0
 40
9.999999999999661
 50
322.331549190666
 51
324.8488137824801
  0
ARC
  8
1
 62
7
 10
-191.7091263064579
 20
114.4256512353146
 30
0
 40
9.999999999999687
 50
180.0000000000103
 51
202.4130884471044
  0
ARC
  8
0
 62
7
 10
-170.0659199541368
 20
97.40017770424207
 30
0
 40
6.860544223979615
 50
175.8733282604638
 51
177.630670143064
  0
ARC
  8
0
 62
7
 10
-165.5653091895486
 20
97.09345846816804
 30
0
 40
11.37157288764643
 50
172.205114628276
 51
175.9637585386761
  0
ARC
  8
0
 62
7
 10
-170.8463956288819
 20
97.80156658507391
 30
0
 40
6.043263133884735
 50
170.3340838835514
 51
172.0658069809505
  0
ARC
  8
0
 62
7
 10
-173.6923411905587
 20
98.28090877022636
 30
0
 40
3.15724144452871
 50
168.2816227570834
 51
170.2378023401832
  0
ARC
  8
0
 62
7
 10
-171.2305013324637
 20
97.75037620097453
 30
0
 40
5.675556232523738
 50
165.1809136620576
 51
168.0850487025577
  0
ARC
  8
0
 62
7
 10
-163.2543339009483
 20
95.66476975525104
 30
0
 40
13.91987366734397
 50
164.7591934709275
 51
165.2789240547269
  0
ARC
  8
0
 62
7
 10
-174.4009853423415
 20
97.66386480485872
 30
0
 40
3.606660128929767
 50
165.4054527325616
 51
172.2633508748596
  0
ARC
  8
0
 62
7
 10
-173.8740144673775
 20
97.5761471520382
 30
0
 40
4.140673525547976
 50
172.0422530222012
 51
178.5102310641999
  0
ARC
  8
0
 62
7
 10
-178.2984795426932
 20
99.80582420803312
 30
0
 40
1.684238487387794
 50
343.3758325417513
 51
347.9824194735496
  0
ARC
  8
0
 62
7
 10
-178.1811118567922
 20
99.78536229764706
 30
0
 40
1.565139749771598
 50
348.2748028406306
 51
359.8981928379373
  0
ARC
  8
0
 62
7
 10
-177.8635356768221
 20
99.7769493239411
 30
0
 40
1.247573811189719
 50
0.2586513337415419
 51
16.67996079804476
  0
ARC
  8
0
 62
7
 10
-177.6480318440306
 20
99.82940505142616
 30
0
 40
1.026147256177814
 50
17.32803600308503
 51
39.46464000307427
  0
ARC
  8
0
 62
7
 10
-177.6300140741805
 20
99.8346771588958
 30
0
 40
1.008913276633306
 50
39.88386297062019
 51
66.7758874493358
  0
ARC
  8
0
 62
7
 10
-177.7203051640056
 20
99.64897977867852
 30
0
 40
1.215206972509301
 50
66.31622934562351
 51
81.74384487552128
  0
ARC
  8
0
 62
7
 10
-177.7781881082506
 20
99.33873649869801
 30
0
 40
1.530599768771463
 50
81.26721903970612
 51
94.33168826279922
  0
ARC
  8
0
 62
7
 10
-177.7627680835835
 20
98.94829853355091
 30
0
 40
1.921138976257099
 50
93.91075382842078
 51
106.3708778797131
  0
ARC
  8
0
 62
7
 10
-177.6561400793617
 20
98.53150899286268
 30
0
 40
2.351133210703946
 50
106.001222665054
 51
120.3919484940622
  0
ARC
  8
0
 62
7
 10
-177.5019921453345
 20
98.23378989139948
 30
0
 40
2.685984567160176
 50
120.015357815422
 51
129.9085230286205
  0
ARC
  8
0
 62
7
 10
-177.5000790544586
 20
98.22422351000623
 30
0
 40
2.69455406524305
 50
129.8092228613305
 51
146.5729906533332
  0
ARC
  8
0
 62
7
 10
-177.8566611052895
 20
98.47931627776839
 30
0
 40
2.256490911131909
 50
146.9910805581013
 51
160.2087359000039
  0
ARC
  8
0
 62
7
 10
-178.2877438534782
 20
98.64975478414469
 30
0
 40
1.793219539981697
 50
160.6691240869746
 51
173.4029826217688
  0
ARC
  8
0
 62
7
 10
-178.6747985594436
 20
98.70686621028042
 30
0
 40
1.402220002369434
 50
173.9042005076362
 51
187.5362258922347
  0
ARC
  8
0
 62
7
 10
-178.9552116041519
 20
98.67997329216486
 30
0
 40
1.120747698474445
 50
188.0534115958776
 51
206.0652615779601
  0
ARC
  8
0
 62
7
 10
-179.0732537070555
 20
98.63295575238882
 30
0
 40
0.9940985738780039
 50
206.6203896219447
 51
219.764706238948
  0
ARC
  8
0
 62
7
 10
-179.0659144318456
 20
98.64132940454968
 30
0
 40
1.005097712873271
 50
219.8640191530083
 51
245.1564369362349
  0
ARC
  8
0
 62
7
 10
-178.9851270583039
 20
98.79779605274662
 30
0
 40
1.181051132215963
 50
244.7890520892383
 51
258.4029213812349
  0
ARC
  8
0
 62
7
 10
-178.9257238962136
 20
99.04604062815432
 30
0
 40
1.436193521345999
 50
258.0723414311307
 51
269.8752782836618
  0
ARC
  8
0
 62
7
 10
-178.9150216376656
 20
99.36189480724337
 30
0
 40
1.752098870096569
 50
269.5477841660244
 51
279.8304615114179
  0
ARC
  8
0
 62
7
 10
-178.9566768297545
 20
99.65820527602912
 30
0
 40
2.051192838085592
 50
279.5637989053975
 51
286.1150326430901
  0
ARC
  8
0
 62
7
 10
-178.9675910267367
 20
99.99019904805509
 30
0
 40
1.481241139788568
 50
309.6662680092999
 51
319.0399120093014
  0
ARC
  8
0
 62
7
 10
-178.9787330499166
 20
99.99653567367218
 30
0
 40
1.493237914075093
 50
296.1544208457057
 51
309.8401654848196
  0
ARC
  8
0
 62
7
 10
-178.8355167864227
 20
99.72175201751841
 30
0
 40
1.183484294856402
 50
284.6152944584176
 51
295.7947196417118
  0
ARC
  8
0
 62
7
 10
-178.7478943869996
 20
99.41562679129189
 30
0
 40
0.8651880430951932
 50
274.9711386414775
 51
284.1157486436396
  0
ARC
  8
0
 62
7
 10
-178.7239002861586
 20
99.18268349004691
 30
0
 40
0.6310527362782481
 50
263.2987180137523
 51
274.6335288138094
  0
ARC
  8
0
 62
7
 10
-178.7420083463417
 20
98.99456270932822
 30
0
 40
0.4421219130836054
 50
247.2764159789251
 51
262.784484107908
  0
ARC
  8
0
 62
7
 10
-178.785220706378
 20
98.87973431064991
 30
0
 40
0.3195459364716584
 50
220.6282556548313
 51
246.4698107104172
  0
ARC
  8
0
 62
7
 10
-178.795638394108
 20
98.86455270685168
 30
0
 40
0.301791154103429
 50
193.6230941253733
 51
219.7285802382382
  0
ARC
  8
0
 62
7
 10
-178.7160233195466
 20
98.88787303200658
 30
0
 40
0.3846789697927302
 50
180.8058706513107
 51
194.2058027618726
  0
ARC
  8
0
 62
7
 10
-178.5974571117865
 20
98.89301867396571
 30
0
 40
0.5033178352440537
 50
171.0155787770784
 51
181.2017439945912
  0
ARC
  8
0
 62
7
 10
-178.4297687680146
 20
98.86979597546772
 30
0
 40
0.6725832268998376
 50
160.1645618234418
 51
171.2923908491303
  0
ARC
  8
0
 62
7
 10
-178.1831164487169
 20
98.78832460557725
 30
0
 40
0.9322734827399989
 50
149.4231422426351
 51
160.5982301665346
  0
ARC
  8
0
 62
7
 10
-177.9097029077279
 20
98.63818581732733
 30
0
 40
1.244081636064746
 50
138.6880272628953
 51
149.8755017774733
  0
ARC
  8
0
 62
7
 10
-177.7228355590151
 20
98.48598081290065
 30
0
 40
1.484949544720043
 50
129.6852084722883
 51
139.0367132110068
  0
ARC
  8
0
 62
7
 10
-177.7145862421455
 20
98.48189523419458
 30
0
 40
1.493366102081631
 50
116.145786147915
 51
129.8286798460937
  0
ARC
  8
0
 62
7
 10
-177.8573184720026
 20
98.75570063439378
 30
0
 40
1.184705303379565
 50
104.617361885808
 51
115.7843637294279
  0
ARC
  8
0
 62
7
 10
-177.9453869208441
 20
99.06344186150002
 30
0
 40
0.864732642861872
 50
94.96820649528362
 51
104.1167374818117
  0
ARC
  8
0
 62
7
 10
-177.9692885331306
 20
99.29585083271022
 30
0
 40
0.6311376587331086
 50
83.30232621070444
 51
94.63371819153745
  0
ARC
  8
0
 62
7
 10
-177.9510939701327
 20
99.48452978551208
 30
0
 40
0.4416418610453614
 50
67.27116060165004
 51
82.79177730260443
  0
ARC
  8
0
 62
7
 10
-177.9078695877715
 20
99.59924574283619
 30
0
 40
0.3191647926645873
 50
40.60921836480625
 51
66.47136353234859
  0
ARC
  8
0
 62
7
 10
-177.8975319774286
 20
99.61401981710307
 30
0
 40
0.301733801279305
 50
13.64492152399017
 51
39.75710585984093
  0
ARC
  8
0
 62
7
 10
-177.9769829422141
 20
99.59071775618358
 30
0
 40
0.3844592183435633
 50
0.8182449045694722
 51
14.22638281496236
  0
ARC
  8
0
 62
7
 10
-178.0956964413348
 20
99.58554008957691
 30
0
 40
0.5032465971689175
 50
351.0269993736797
 51
1.214663622579984
  0
ARC
  8
0
 62
7
 10
-178.263357986121
 20
99.60874913126844
 30
0
 40
0.6724839156708563
 50
340.1719483447586
 51
351.3017710468307
  0
ARC
  8
0
 62
7
 10
-178.5099377074579
 20
99.69019839574843
 30
0
 40
0.9320990102606127
 50
329.4263044563547
 51
340.603404619982
  0
ARC
  8
0
 62
7
 10
-178.7828430251116
 20
99.84006205971193
 30
0
 40
1.243329913602746
 50
318.6836905085536
 51
329.8771477120258
  0
ARC
  8
0
 62
7
 10
-178.6169096596468
 20
101.6740608036096
 30
0
 40
7.513814030817868
 50
346.3901430215378
 51
347.4086018942365
  0
ARC
  8
0
 62
7
 10
-173.2583178384902
 20
100.4770670652142
 30
0
 40
2.023158304381764
 50
347.4100174323631
 51
349.0341789673651
  0
ARC
  8
0
 62
7
 10
-171.0059855375318
 20
98.69084215657547
 30
0
 40
1.582879495224298
 50
167.4930455576879
 51
179.280737417686
  0
ARC
  8
0
 62
7
 10
-171.3245918502948
 20
98.70301736834577
 30
0
 40
1.264171880385842
 50
179.6512415986695
 51
195.0619020303683
  0
ARC
  8
0
 62
7
 10
-171.5475304597005
 20
98.65403469014407
 30
0
 40
1.036217985892877
 50
195.6498705971007
 51
219.3542134098073
  0
ARC
  8
0
 62
7
 10
-171.5746517957716
 20
98.64393735063831
 30
0
 40
1.008887518229185
 50
219.8875068774145
 51
246.7793060059983
  0
ARC
  8
0
 62
7
 10
-171.4842094446487
 20
98.83010772081623
 30
0
 40
1.215674648289048
 50
246.3214825405498
 51
261.7429072666967
  0
ARC
  8
0
 62
7
 10
-171.4264525310616
 20
99.13963033532772
 30
0
 40
1.530336147994111
 50
261.2671872514391
 51
274.333910726509
  0
ARC
  8
0
 62
7
 10
-171.4418017907976
 20
99.53001174572037
 30
0
 40
1.92081367594987
 50
273.9104758042406
 51
286.373057590351
  0
ARC
  8
0
 62
7
 10
-171.5484560085516
 20
99.94714679676984
 30
0
 40
2.351146794140253
 50
286.0012452983827
 51
300.392743187287
  0
ARC
  8
0
 62
7
 10
-171.7034562380266
 20
100.2462179007848
 30
0
 40
2.687594970265575
 50
300.0173698478315
 51
309.9056720958234
  0
ARC
  8
0
 62
7
 10
-171.7043881586376
 20
100.2544684114963
 30
0
 40
2.694525690599184
 50
309.8083257403432
 51
326.5709153524489
  0
ARC
  8
0
 62
7
 10
-171.3471015325508
 20
99.99894403584744
 30
0
 40
2.255635852824701
 50
326.9880507262822
 51
340.2102073502798
  0
ARC
  8
0
 62
7
 10
-170.9170157320294
 20
99.82887500650766
 30
0
 40
1.793428022426714
 50
340.6705988788851
 51
353.4026518461866
  0
ARC
  8
0
 62
7
 10
-170.5296119918367
 20
99.77165957057241
 30
0
 40
1.402070281665601
 50
353.9064145924988
 51
7.539966323198322
  0
ARC
  8
0
 62
7
 10
-170.2487585634347
 20
99.79870090841681
 30
0
 40
1.120141973489334
 50
8.053801308405584
 51
26.07664009820264
  0
ARC
  8
0
 62
7
 10
-170.1315906332015
 20
99.84534829376489
 30
0
 40
0.9944423882446183
 50
26.63004200772548
 51
39.77164100773499
  0
ARC
  8
0
 62
7
 10
-170.1387019573715
 20
99.83752080356268
 30
0
 40
1.004916699688792
 50
39.85527632884785
 51
65.15113638195228
  0
ARC
  8
0
 62
7
 10
-170.2190196453596
 20
99.68220950511628
 30
0
 40
1.179625364309964
 50
64.78121738906789
 51
78.41109638415441
  0
ARC
  8
0
 62
7
 10
-170.2787710570285
 20
99.43308347380278
 30
0
 40
1.435701193764923
 50
78.07240234269891
 51
89.87991658819854
  0
ARC
  8
0
 62
7
 10
-170.2894431087507
 20
99.1153040085496
 30
0
 40
1.753530876510062
 50
89.55297322840741
 51
99.82871253910626
  0
ARC
  8
0
 62
7
 10
-170.2478705906256
 20
98.81944176932367
 30
0
 40
2.052169342365203
 50
99.56229361215237
 51
106.1118571840445
  0
ARC
  8
0
 62
7
 10
-171.4791671072357
 20
99.9902961455403
 30
0
 40
1.48141812843909
 50
309.6686390001049
 51
319.040326000085
  0
ARC
  8
0
 62
7
 10
-171.4900904881447
 20
99.99646402579637
 30
0
 40
1.493145445414572
 50
296.1534329117538
 51
309.8402035231645
  0
ARC
  8
0
 62
7
 10
-171.3469869173287
 20
99.72191818330802
 30
0
 40
1.18365514541882
 50
284.6151470680661
 51
295.7933475219462
  0
ARC
  8
0
 62
7
 10
-171.2593396665607
 20
99.41574305632551
 30
0
 40
0.8653044590230805
 50
274.9710524254182
 51
284.1148556552413
  0
ARC
  8
0
 62
7
 10
-171.2353402702056
 20
99.18275485283542
 30
0
 40
0.6311239745826265
 50
263.2992076499568
 51
274.6333230083396
  0
ARC
  8
0
 62
7
 10
-171.2534429109455
 20
98.99462086117828
 30
0
 40
0.442180674465872
 50
247.2777339517368
 51
262.784354109416
  0
ARC
  8
0
 62
7
 10
-171.2966591528916
 20
98.87975469795001
 30
0
 40
0.3195683745209926
 50
220.6296218986982
 51
246.4697174738383
  0
ARC
  8
0
 62
7
 10
-171.3070514400671
 20
98.86450650450104
 30
0
 40
0.3017904497083206
 50
193.6132487493957
 51
219.7172885494559
  0
ARC
  8
0
 62
7
 10
-171.2272118116516
 20
98.8878705966786
 30
0
 40
0.3849061667725062
 50
180.8034192554873
 51
194.1961976252118
  0
ARC
  8
0
 62
7
 10
-171.1085009160547
 20
98.89299469268551
 30
0
 40
0.5036891186005601
 50
171.0174981449289
 51
181.1968966379194
  0
ARC
  8
0
 62
7
 10
-170.94107007699
 20
98.86981190937762
 30
0
 40
0.6726940078413892
 50
160.1670523942438
 51
171.2937153163606
  0
ARC
  8
0
 62
7
 10
-170.6941572195387
 20
98.78824406050138
 30
0
 40
0.932662273698864
 50
149.4293381749125
 51
160.5997014659264
  0
ARC
  8
0
 62
7
 10
-170.4217342143656
 20
98.6387470219635
 30
0
 40
1.243292382762644
 50
138.6890265669361
 51
149.8826782970305
  0
ARC
  8
0
 62
7
 10
-170.2357227886546
 20
98.48749175931673
 30
0
 40
1.482891488819954
 50
129.6808000714454
 51
139.0437663056364
  0
ARC
  8
0
 62
7
 10
-170.2254745903851
 20
98.48074102205551
 30
0
 40
1.494634804062409
 50
116.1438864370426
 51
129.8179120069538
  0
ARC
  8
0
 62
7
 10
-170.3683761632835
 20
98.75472720412958
 30
0
 40
1.185737852983801
 50
104.6198037180181
 51
115.7787876144165
  0
ARC
  8
0
 62
7
 10
-170.4564390513185
 20
99.06161370262848
 30
0
 40
0.866594995089227
 50
94.97732764181362
 51
104.1072484950626
  0
ARC
  8
0
 62
7
 10
-170.4806351337458
 20
99.29575739057418
 30
0
 40
0.6312463271342577
 50
83.30279098569588
 51
94.63330600919286
  0
ARC
  8
0
 62
7
 10
-170.4624309695187
 20
99.4845190551529
 30
0
 40
0.4416672167133897
 50
67.27129166732631
 51
82.79245651185876
  0
ARC
  8
0
 62
7
 10
-170.4193174684035
 20
99.59908266559367
 30
0
 40
0.3193740796733433
 50
40.61554558049588
 51
66.46428072260706
  0
ARC
  8
0
 62
7
 10
-170.4092540172496
 20
99.61403695625862
 30
0
 40
0.3020381730731425
 50
13.61827017960974
 51
39.70484417387663
  0
ARC
  8
0
 62
7
 10
-170.4888216522986
 20
99.5907478979872
 30
0
 40
0.3848720572158844
 50
0.804174466340123
 51
14.1988640326458
  0
ARC
  8
0
 62
7
 10
-170.6072803745257
 20
99.58559342749341
 30
0
 40
0.5034035624387877
 50
351.016685149047
 51
1.201556572460167
  0
ARC
  8
0
 62
7
 10
-170.7750449260993
 20
99.60882202777327
 30
0
 40
0.6727452230285079
 50
340.1684731597113
 51
351.2936691956067
  0
ARC
  8
0
 62
7
 10
-171.0213719074957
 20
99.69017991958503
 30
0
 40
0.9320912622316669
 50
329.4248679770025
 51
340.6009138197957
  0
ARC
  8
0
 62
7
 10
-171.2937312402125
 20
99.83963844231718
 30
0
 40
1.242646409920496
 50
318.6813280027688
 51
329.8795967184983
  0
ARC
  8
0
 62
7
 10
-168.5231675529448
 20
93.00522399007231
 30
0
 40
9.061711948053173
 50
130.5243367854209
 51
133.4173308559194
  0
ARC
  8
0
 62
7
 10
-169.1851663112004
 20
93.74077310077004
 30
0
 40
8.072474711275483
 50
133.5926032836094
 51
134.972725181906
  0
ARC
  8
0
 62
7
 10
-166.2884198808747
 20
90.84139493483704
 30
0
 40
12.17095413971098
 50
134.9731493495061
 51
135.6945381183068
  0
ARC
  8
0
 62
7
 10
-150.086824386411
 20
75.0277407413716
 30
0
 40
34.81081623098546
 50
135.6943451356457
 51
136.1047651244454
  0
ARC
  8
0
 62
7
 10
-178.5910339319177
 20
103.4088738216561
 30
0
 40
6.295907913288562
 50
309.9909255904126
 51
315.2272604207119
  0
ARC
  8
0
 62
7
 10
-181.9223942077247
 20
106.7139150799641
 30
0
 40
10.98858934359451
 50
315.2272455760909
 51
316.5557673688922
  0
ARC
  8
0
 62
7
 10
-218.7102784411811
 20
141.6946175145
 30
0
 40
61.75271225771531
 50
316.462607560322
 51
316.6639949017221
  0
ARC
  8
0
 62
7
 10
-168.5102376415666
 20
102.53146771357
 30
0
 40
2.459003052388965
 50
286.5182793796546
 51
298.9539196960704
  0
ARC
  8
0
 62
7
 10
-168.3877850191566
 20
102.158662375864
 30
0
 40
2.066799309328661
 50
275.7240983540125
 51
286.2021801110951
  0
ARC
  8
0
 62
7
 10
-168.3440528206445
 20
101.8132816513048
 30
0
 40
1.718802892878572
 50
266.6750457458392
 51
275.4218690389405
  0
ARC
  8
0
 62
7
 10
-170.0659199541356
 20
19.37876523534362
 30
0
 40
6.860544223979423
 50
175.8733282607039
 51
177.630670143304
  0
ARC
  8
0
 62
7
 10
-165.5653091895501
 20
19.0720459992211
 30
0
 40
11.371572887647
 50
172.2051146281768
 51
175.9637585385762
  0
ARC
  8
0
 62
7
 10
-170.846395628881
 20
19.78015411615061
 30
0
 40
6.043263133884484
 50
170.3340838835894
 51
172.065806980989
  0
ARC
  8
0
 62
7
 10
-173.6923411905521
 20
20.25949630133123
 30
0
 40
3.157241444529278
 50
168.2816227576762
 51
170.2378023407774
  0
ARC
  8
0
 62
7
 10
-171.230501332464
 20
19.72896373204827
 30
0
 40
5.675556232523863
 50
165.1809136620686
 51
168.0850487025656
  0
ARC
  8
0
 62
7
 10
-163.2543339009492
 20
17.64335728632296
 30
0
 40
13.91987366734398
 50
164.7591934709242
 51
165.2789240547235
  0
ARC
  8
0
 62
7
 10
-174.4009853423426
 20
19.64245233592427
 30
0
 40
3.606660128929174
 50
165.4054527324401
 51
172.263350874742
  0
ARC
  8
0
 62
7
 10
-173.8740144673772
 20
19.55473468311089
 30
0
 40
4.140673525547796
 50
172.0422530221992
 51
178.5102310641982
  0
ARC
  8
0
 62
7
 10
-178.2984795426928
 20
21.78441173910633
 30
0
 40
1.684238487386881
 50
343.3758325417235
 51
347.9824194735329
  0
ARC
  8
0
 62
7
 10
-178.1811118567929
 20
21.76394982871972
 30
0
 40
1.565139749772596
 50
348.274802840639
 51
359.8981928379384
  0
ARC
  8
0
 62
7
 10
-177.8635356768222
 20
21.7555368550168
 30
0
 40
1.247573811190104
 50
0.2586513336032634
 51
16.67996079790153
  0
ARC
  8
0
 62
7
 10
-177.6480318440294
 20
21.80799258249613
 30
0
 40
1.02614725617888
 50
17.32803600323851
 51
39.46464000323007
  0
ARC
  8
0
 62
7
 10
-177.6300140741811
 20
21.81326468996861
 30
0
 40
1.008913276633982
 50
39.88386297058812
 51
66.77588744929503
  0
ARC
  8
0
 62
7
 10
-177.7203051640051
 20
21.6275673097513
 30
0
 40
1.215206972509319
 50
66.31622934563704
 51
81.74384487557178
  0
ARC
  8
0
 62
7
 10
-177.7781881082503
 20
21.31732402977079
 30
0
 40
1.530599768771343
 50
81.26721903973882
 51
94.33168826279785
  0
ARC
  8
0
 62
7
 10
-177.7627680835842
 20
20.92688606462369
 30
0
 40
1.921138976257135
 50
93.91075382839011
 51
106.3708778796846
  0
ARC
  8
0
 62
7
 10
-177.6561400793623
 20
20.51009652393549
 30
0
 40
2.351133210703682
 50
106.0012226650335
 51
120.3919484940433
  0
ARC
  8
0
 62
7
 10
-177.5019921453357
 20
20.2123774224714
 30
0
 40
2.685984567160182
 50
120.0153578153848
 51
129.9085230285969
  0
ARC
  8
0
 62
7
 10
-177.5000790544572
 20
20.20281104107909
 30
0
 40
2.694554065244078
 50
129.8092228613626
 51
146.5729906533465
  0
ARC
  8
0
 62
7
 10
-177.856661105291
 20
20.45790380883748
 30
0
 40
2.256490911132568
 50
146.9910805579961
 51
160.2087358999048
  0
ARC
  8
0
 62
7
 10
-178.2877438534785
 20
20.62834231521865
 30
0
 40
1.793219539981648
 50
160.6691240870093
 51
173.4029826218057
  0
ARC
  8
0
 62
7
 10
-178.6747985594442
 20
20.6854537413532
 30
0
 40
1.402220002369212
 50
173.9042005076341
 51
187.5362258922313
  0
ARC
  8
0
 62
7
 10
-178.9552116041526
 20
20.65856082324091
 30
0
 40
1.120747698474807
 50
188.0534115960395
 51
206.0652615781373
  0
ARC
  8
0
 62
7
 10
-179.0732537070552
 20
20.6115432834616
 30
0
 40
0.9940985738778262
 50
206.6203896219498
 51
219.7647062389467
  0
ARC
  8
0
 62
7
 10
-179.0659144318442
 20
20.61991693562248
 30
0
 40
1.005097712874119
 50
219.8640191529677
 51
245.1564369361709
  0
ARC
  8
0
 62
7
 10
-178.9851270583033
 20
20.7763835838191
 30
0
 40
1.181051132215814
 50
244.7890520892136
 51
258.4029213812267
  0
ARC
  8
0
 62
7
 10
-178.9257238962122
 20
21.02462815922709
 30
0
 40
1.436193521346186
 50
258.0723414310941
 51
269.8752782835813
  0
ARC
  8
0
 62
7
 10
-178.9150216376656
 20
21.34048233831611
 30
0
 40
1.752098870096538
 50
269.5477841660048
 51
279.8304615113991
  0
ARC
  8
0
 62
7
 10
-178.9566768297552
 20
21.6367928071019
 30
0
 40
2.051192838085581
 50
279.5637989054
 51
286.1150326430932
  0
ARC
  8
0
 62
7
 10
-178.9675910267392
 20
21.96878657912501
 30
0
 40
1.481241139788049
 50
309.6662680094321
 51
319.0399120094371
  0
ARC
  8
0
 62
7
 10
-178.9787330499173
 20
21.97512320474499
 30
0
 40
1.493237914075566
 50
296.1544208457442
 51
309.8401654848273
  0
ARC
  8
0
 62
7
 10
-178.8355167864222
 20
21.70033954859119
 30
0
 40
1.18348429485639
 50
284.6152944584093
 51
295.794719641709
  0
ARC
  8
0
 62
7
 10
-178.747894386999
 20
21.3942143223649
 30
0
 40
0.8651880430952375
 50
274.9711386415301
 51
284.1157486436169
  0
ARC
  8
0
 62
7
 10
-178.7239002861567
 20
21.16127102111965
 30
0
 40
0.63105273627807
 50
263.2987180136023
 51
274.6335288137653
  0
ARC
  8
0
 62
7
 10
-178.7420083463436
 20
20.97315024040133
 30
0
 40
0.4421219130830913
 50
247.2764159791926
 51
262.7844841081895
  0
ARC
  8
0
 62
7
 10
-178.7852207063775
 20
20.85832184172246
 30
0
 40
0.319545936471585
 50
220.6282556547847
 51
246.469810710349
  0
ARC
  8
0
 62
7
 10
-178.7956383941072
 20
20.84314023792359
 30
0
 40
0.3017911541032189
 50
193.6230941251859
 51
219.7285802380563
  0
ARC
  8
0
 62
7
 10
-178.7160233195472
 20
20.8664605630795
 30
0
 40
0.3846789697929308
 50
180.8058706513277
 51
194.2058027619234
  0
ARC
  8
0
 62
7
 10
-178.5974571117862
 20
20.87160620503849
 30
0
 40
0.5033178352442266
 50
171.0155787770783
 51
181.2017439945861
  0
ARC
  8
0
 62
7
 10
-178.4297687680144
 20
20.84838350654346
 30
0
 40
0.6725832268996237
 50
160.1645618236707
 51
171.2923908493782
  0
ARC
  8
0
 62
7
 10
-178.1831164487209
 20
20.76691213664219
 30
0
 40
0.932273482739421
 50
149.4231422421115
 51
160.5982301659886
  0
ARC
  8
0
 62
7
 10
-177.9097029077232
 20
20.61677334840634
 30
0
 40
1.244081636064583
 50
138.6880272632052
 51
149.8755017778432
  0
ARC
  8
0
 62
7
 10
-177.7228355590196
 20
20.46456834396864
 30
0
 40
1.484949544720197
 50
129.6852084720582
 51
139.0367132107124
  0
ARC
  8
0
 62
7
 10
-177.7145862421436
 20
20.46048276526854
 30
0
 40
1.493366102081294
 50
116.1457861479505
 51
129.8286798461992
  0
ARC
  8
0
 62
7
 10
-177.8573184720012
 20
20.73428816546669
 30
0
 40
1.184705303380082
 50
104.6173618859066
 51
115.7843637294296
  0
ARC
  8
0
 62
7
 10
-177.9453869208462
 20
21.0420293925726
 30
0
 40
0.8647326428618619
 50
94.9682064951835
 51
104.116737481717
  0
ARC
  8
0
 62
7
 10
-177.9692885331336
 20
21.27443836378317
 30
0
 40
0.6311376587327593
 50
83.30232621048766
 51
94.63371819132073
  0
ARC
  8
0
 62
7
 10
-177.9510939701312
 20
21.463117316585
 30
0
 40
0.4416418610439749
 50
67.27116060189451
 51
82.79177730287285
  0
ARC
  8
0
 62
7
 10
-177.9078695877699
 20
21.57783327390802
 30
0
 40
0.3191647926642947
 50
40.60921836518397
 51
66.47136353277999
  0
ARC
  8
0
 62
7
 10
-177.8975319774283
 20
21.5926073481759
 30
0
 40
0.3017338012794112
 50
13.6449215239818
 51
39.75710585993854
  0
ARC
  8
0
 62
7
 10
-177.9769829422132
 20
21.56930528725349
 30
0
 40
0.3844592183429793
 50
0.8182449050006799
 51
14.22638281539988
  0
ARC
  8
0
 62
7
 10
-178.095696441334
 20
21.5641276206547
 30
0
 40
0.5032465971682993
 50
351.0269993731087
 51
1.214663622012641
  0
ARC
  8
0
 62
7
 10
-178.2633579861212
 20
21.58733666233908
 30
0
 40
0.6724839156701815
 50
340.171948344918
 51
351.3017710470186
  0
ARC
  8
0
 62
7
 10
-178.5099377074548
 20
21.66878592682943
 30
0
 40
0.9320990102615503
 50
329.4263044558691
 51
340.6034046194293
  0
ARC
  8
0
 62
7
 10
-178.7828430251122
 20
21.81864959078479
 30
0
 40
1.243329913602713
 50
318.6836905085553
 51
329.8771477120713
  0
ARC
  8
0
 62
7
 10
-178.6169096596329
 20
23.65264833474078
 30
0
 40
7.513814030817509
 50
346.3901430210794
 51
347.4086018937805
  0
ARC
  8
0
 62
7
 10
-173.2583178384985
 20
22.45565459624619
 30
0
 40
2.023158304381449
 50
347.4100174335479
 51
349.0341789685408
  0
ARC
  8
0
 62
7
 10
-171.0059855375299
 20
20.66942968765324
 30
0
 40
1.582879495225659
 50
167.4930455578839
 51
179.2807374178661
  0
ARC
  8
0
 62
7
 10
-171.3245918502952
 20
20.68160489941741
 30
0
 40
1.264171880384968
 50
179.6512415986164
 51
195.0619020303207
  0
ARC
  8
0
 62
7
 10
-171.5475304597002
 20
20.63262222121691
 30
0
 40
1.036217985892884
 50
195.6498705970961
 51
219.3542134098088
  0
ARC
  8
0
 62
7
 10
-171.5746517957722
 20
20.62252488171109
 30
0
 40
1.008887518228452
 50
219.8875068774478
 51
246.7793060060445
  0
ARC
  8
0
 62
7
 10
-171.4842094446478
 20
20.80869525188916
 30
0
 40
1.215674648289384
 50
246.3214825405246
 51
261.7429072666273
  0
ARC
  8
0
 62
7
 10
-171.4264525310622
 20
21.1182178664005
 30
0
 40
1.530336147994079
 50
261.2671872514389
 51
274.3339107265877
  0
ARC
  8
0
 62
7
 10
-171.4418017907971
 20
21.50859927679329
 30
0
 40
1.920813675950048
 50
273.9104758042699
 51
286.3730575903501
  0
ARC
  8
0
 62
7
 10
-171.5484560085534
 20
21.92573432784164
 30
0
 40
2.351146794139918
 50
286.0012452984435
 51
300.3927431873255
  0
ARC
  8
0
 62
7
 10
-171.7034562380249
 20
22.22480543185864
 30
0
 40
2.687594970265251
 50
300.0173698477789
 51
309.9056720957846
  0
ARC
  8
0
 62
7
 10
-171.7043881586382
 20
22.23305594256911
 30
0
 40
2.694525690599694
 50
309.8083257403561
 51
326.5709153524465
  0
ARC
  8
0
 62
7
 10
-171.3471015325512
 20
21.97753156691888
 30
0
 40
2.255635852823829
 50
326.9880507263056
 51
340.21020735031
  0
ARC
  8
0
 62
7
 10
-170.917015732029
 20
21.80746253758533
 30
0
 40
1.793428022427396
 50
340.670598878727
 51
353.4026518460289
  0
ARC
  8
0
 62
7
 10
-170.5296119918373
 20
21.75024710164042
 30
0
 40
1.402070281666207
 50
353.9064145926939
 51
7.539966323393065
  0
ARC
  8
0
 62
7
 10
-170.248758563436
 20
21.77728843949168
 30
0
 40
1.12014197348972
 50
8.053801308296155
 51
26.07664009807546
  0
ARC
  8
0
 62
7
 10
-170.1315906332022
 20
21.8239358248378
 30
0
 40
0.9944423882455011
 50
26.63004200769906
 51
39.77164100769297
  0
ARC
  8
0
 62
7
 10
-170.1387019573712
 20
21.8161083346356
 30
0
 40
1.004916699688734
 50
39.85527632884137
 51
65.15113638199711
  0
ARC
  8
0
 62
7
 10
-170.2190196453602
 20
21.66079703618919
 30
0
 40
1.179625364309939
 50
64.78121738906731
 51
78.41109638411535
  0
ARC
  8
0
 62
7
 10
-170.2787710570282
 20
21.4116710048757
 30
0
 40
1.435701193764778
 50
78.07240234270232
 51
89.87991658823482
  0
ARC
  8
0
 62
7
 10
-170.2894431087502
 20
21.09389153962241
 30
0
 40
1.753530876510153
 50
89.55297322844366
 51
99.82871253914202
  0
ARC
  8
0
 62
7
 10
-170.2478705906262
 20
20.79802930039651
 30
0
 40
2.052169342365162
 50
99.56229361215257
 51
106.1118571840449
  0
ARC
  8
0
 62
7
 10
-171.4791671072316
 20
21.96888367661741
 30
0
 40
1.4814181284399
 50
309.6686389998518
 51
319.0403259998917
  0
ARC
  8
0
 62
7
 10
-171.4900904881427
 20
21.97505155687015
 30
0
 40
1.493145445414202
 50
296.1534329116756
 51
309.8402035230572
  0
ARC
  8
0
 62
7
 10
-171.3469869173293
 20
21.70050571438088
 30
0
 40
1.183655145418896
 50
284.6151470680651
 51
295.7933475219795
  0
ARC
  8
0
 62
7
 10
-171.2593396665631
 20
21.3943305873979
 30
0
 40
0.8653044590233104
 50
274.9710524256096
 51
284.1148556553645
  0
ARC
  8
0
 62
7
 10
-171.2353402702042
 20
21.16134238390819
 30
0
 40
0.6311239745829801
 50
263.2992076497969
 51
274.6333230082547
  0
ARC
  8
0
 62
7
 10
-171.2534429109452
 20
20.97320839225108
 30
0
 40
0.4421806744662977
 50
247.2777339516241
 51
262.7843541093312
  0
ARC
  8
0
 62
7
 10
-171.2966591528922
 20
20.85834222902278
 30
0
 40
0.319568374520951
 50
220.629621898713
 51
246.4697174738263
  0
ARC
  8
0
 62
7
 10
-171.3070514400671
 20
20.84309403557271
 30
0
 40
0.3017904497080238
 50
193.613248749163
 51
219.7172885492382
  0
ARC
  8
0
 62
7
 10
-171.2272118116508
 20
20.86645812775577
 30
0
 40
0.3849061667730809
 50
180.8034192561562
 51
194.1961976257939
  0
ARC
  8
0
 62
7
 10
-171.1085009160543
 20
20.87158222375659
 30
0
 40
0.503689118600713
 50
171.017498144736
 51
181.1968966377386
  0
ARC
  8
0
 62
7
 10
-170.9410700769888
 20
20.84839944045417
 30
0
 40
0.6726940078414977
 50
160.1670523945679
 51
171.2937153166868
  0
ARC
  8
0
 62
7
 10
-170.6941572195373
 20
20.76683159157399
 30
0
 40
0.9326622737005222
 50
149.4293381749598
 51
160.5997014659359
  0
ARC
  8
0
 62
7
 10
-170.4217342143666
 20
20.61733455303278
 30
0
 40
1.243292382763869
 50
138.6890265668024
 51
149.882678296877
  0
ARC
  8
0
 62
7
 10
-170.2357227886532
 20
20.4660792903895
 30
0
 40
1.482891488820863
 50
129.6808000714776
 51
139.0437663056871
  0
ARC
  8
0
 62
7
 10
-170.2254745903857
 20
20.45932855312837
 30
0
 40
1.494634804061976
 50
116.1438864370119
 51
129.8179120069283
  0
ARC
  8
0
 62
7
 10
-170.3683761632832
 20
20.7333147352025
 30
0
 40
1.185737852983767
 50
104.6198037180185
 51
115.7787876144186
  0
ARC
  8
0
 62
7
 10
-170.4564390513182
 20
21.04020123370128
 30
0
 40
0.8665949950891714
 50
94.97732764187428
 51
104.1072484950612
  0
ARC
  8
0
 62
7
 10
-170.4806351337485
 20
21.27434492164691
 30
0
 40
0.6312463271340268
 50
83.30279098541809
 51
94.63330600900308
  0
ARC
  8
0
 62
7
 10
-170.4624309695172
 20
21.46310658622559
 30
0
 40
0.4416672167123803
 50
67.27129166757926
 51
82.79245651200355
  0
ARC
  8
0
 62
7
 10
-170.4193174684018
 20
21.57767019666558
 30
0
 40
0.3193740796732913
 50
40.61554558087666
 51
66.46428072304273
  0
ARC
  8
0
 62
7
 10
-170.4092540172503
 20
21.59262448733139
 30
0
 40
0.3020381730744207
 50
13.61827017955724
 51
39.7048441738603
  0
ARC
  8
0
 62
7
 10
-170.4888216522992
 20
21.56933542906
 30
0
 40
0.3848720572170784
 50
0.8041744663429172
 51
14.19886403260272
  0
ARC
  8
0
 62
7
 10
-170.607280374526
 20
21.56418095857246
 30
0
 40
0.5034035624395684
 50
351.0166851483606
 51
1.201556571750525
  0
ARC
  8
0
 62
7
 10
-170.7750449261003
 20
21.58740955884103
 30
0
 40
0.6727452230282234
 50
340.1684731601281
 51
351.2936691960523
  0
ARC
  8
0
 62
7
 10
-171.0213719074972
 20
21.66876745065591
 30
0
 40
0.9320912622330216
 50
329.4248679771638
 51
340.6009138199264
  0
ARC
  8
0
 62
7
 10
-171.2937312402123
 20
21.8182259733901
 30
0
 40
1.242646409921486
 50
318.6813280028022
 51
329.8795967184979
  0
ARC
  8
0
 62
7
 10
-168.523167552937
 20
14.98381152115266
 30
0
 40
9.061711948052107
 50
130.5243367854867
 51
133.4173308559817
  0
ARC
  8
0
 62
7
 10
-169.1851663112222
 20
15.71936063182014
 30
0
 40
8.072474711275937
 50
133.592603283379
 51
134.9727251816812
  0
ARC
  8
0
 62
7
 10
-166.2884198808672
 20
12.81998246591808
 30
0
 40
12.17095413971025
 50
134.9731493495575
 51
135.6945381183575
  0
ARC
  8
0
 62
7
 10
-150.0868243864699
 20
-2.993671727616782
 30
0
 40
34.81081623098569
 50
135.6943451355053
 51
136.1047651243061
  0
ARC
  8
0
 62
7
 10
-178.5910339319173
 20
25.3874613527299
 30
0
 40
6.295907913288682
 50
309.9909255903999
 51
315.2272604206988
  0
ARC
  8
0
 62
7
 10
-181.9223942077268
 20
28.69250261103419
 30
0
 40
10.9885893435937
 50
315.2272455761062
 51
316.5557673689081
  0
ARC
  8
0
 62
7
 10
-218.7102784410481
 20
63.6732050457118
 30
0
 40
61.75271225771418
 50
316.4626075601432
 51
316.6639949015437
  0
ARC
  8
0
 62
7
 10
-168.5102376415688
 20
24.51005524464222
 30
0
 40
2.459003052389297
 50
286.5182793797215
 51
298.9539196961092
  0
ARC
  8
0
 62
7
 10
-168.3877850191552
 20
24.1372499069368
 30
0
 40
2.066799309328591
 50
275.7240983539557
 51
286.2021801110733
  0
ARC
  8
0
 62
7
 10
-168.3440528206442
 20
23.79186918237758
 30
0
 40
1.71880289287857
 50
266.6750457458401
 51
275.42186903891
  0
ARC
  8
1
 62
7
 10
-276.8032694121314
 20
157.795828793081
 30
0
 40
3.637011304445742
 50
186.9982191900019
 51
298.2769120539782
  0
ARC
  8
1
 62
7
 10
-264.1844282051154
 20
134.3374567731544
 30
0
 40
22.99999999999991
 50
98.88994386846316
 51
118.2769120539747
  0
ARC
  8
1
 62
7
 10
-264.1844282051154
 20
134.3374567731544
 30
0
 40
22.99999999999999
 50
241.7230879460254
 51
261.1100561315369
  0
ARC
  8
1
 62
7
 10
-276.8032694121314
 20
110.8790847532273
 30
0
 40
3.637011304445986
 50
61.72308794602466
 51
173.001780809992
  0
ARC
  8
1
 62
7
 10
-276.4131847604384
 20
158.0374567731544
 30
0
 40
4
 50
180
 51
187.1807557814583
  0
ARC
  8
1
 62
7
 10
-88.41318476043847
 20
158.0374567731534
 30
0
 40
4.00000000000006
 50
352.8192442185562
 51
1.424888497295635e-011
  0
ARC
  8
1
 62
7
 10
-259.2428959553706
 20
-91.07235374980333
 30
0
 40
55.99999999999993
 50
2.06605614432196
 51
39.47845321976945
  0
ARC
  8
1
 62
7
 10
-95.27480866425944
 20
-67.3199880366427
 30
0
 40
37.89373851055664
 50
154.0126827103338
 51
209.658866770758
  0
ARC
  8
1
 62
7
 10
-127.414156124657
 20
-39.05491900794836
 30
0
 40
3.99999999999993
 50
128.6643657850759
 51
203.2968637744961
  0
ARC
  8
1
 62
7
 10
-217.4122133962194
 20
-39.05491900794836
 30
0
 40
4.0000000000001
 50
336.703136225504
 51
51.33563421492425
  0
ARC
  8
1
 62
7
 10
-172.4131847604382
 20
-58.43164254283279
 30
0
 40
44.99357093651361
 50
156.7031362255064
 51
160.8354027205421
  0
ARC
  8
1
 62
7
 10
-172.4131847604382
 20
-58.43164254283279
 30
0
 40
44.99357093651361
 50
160.8354027205421
 51
168.461536953697
  0
ARC
  8
1
 62
7
 10
-172.4131847604382
 20
-58.43164254283279
 30
0
 40
44.9935709365136
 50
15.88866034837856
 51
23.29686377449361
  0
ARC
  8
1
 62
7
 10
-276.4131847604382
 20
-100.1316425428328
 30
0
 40
4.000000000000017
 50
172.8192442185415
 51
180
  0
ARC
  8
1
 62
7
 10
-276.4131847604382
 20
-100.5035662945949
 30
0
 40
4.000000000000608
 50
65.17085797115459
 51
171.4161767142471
  0
ARC
  8
1
 62
7
 10
-264.1844282051152
 20
-76.43164254283281
 30
0
 40
23.00000000000001
 50
90
 51
120.9796934188509
  0
ARC
  8
1
 62
7
 10
-156.3575107385631
 20
235.4551251624697
 30
0
 40
353.0000000000002
 50
251.170332626092
 51
261.1729015505662
  0
ARC
  8
1
 62
7
 10
-156.3575107385563
 20
235.4551251624688
 30
0
 40
353.0000000000001
 50
261.1729015505651
 51
261.9100469730718
  0
ARC
  8
1
 62
7
 10
-178.7265983346956
 20
137.4898201569228
 30
0
 40
253
 50
263.8080731904543
 51
271.4288244001414
  0
ARC
  8
1
 62
7
 10
-140.4131847604382
 20
-101.1316425428328
 30
0
 40
13.00000000000002
 50
321.1541360226468
 51
3.519707971116735
  0
ARC
  8
1
 62
7
 10
-166.1295808227444
 20
137.4903218504078
 30
0
 40
253
 50
268.5757393657277
 51
276.2492324798988
  0
ARC
  8
1
 62
7
 10
-140.4131847604382
 20
-101.1316425428328
 30
0
 40
13.00000000000004
 50
300.9216009524902
 51
321.1541360226468
  0
ARC
  8
1
 62
7
 10
-140.4131847604382
 20
-101.1316425428328
 30
0
 40
12.99999999999998
 50
277.7413584794509
 51
300.9216009524902
  0
ARC
  8
1
 62
7
 10
-166.1295808330176
 20
137.4903218506632
 30
0
 40
253
 50
268.5753632930695
 51
268.575739368055
  0
ARC
  8
1
 62
7
 10
-255.5300858041087
 20
-55.36870378261858
 30
0
 40
45.73187746299948
 50
245.1708579711555
 51
251.170332626092
  0
ARC
  8
1
 62
7
 10
-88.4131847604383
 20
-100.1316425428318
 30
0
 40
4.000000000000057
 50
359.9999999999857
 51
7.180755781444016
  0
ARC
  8
1
 62
7
 10
-187.2316061869118
 20
-78.72695874380374
 30
0
 40
3.899999999999864
 50
270
 51
84.02303072492708
  0
ARC
  8
1
 62
7
 10
-188.4316061869117
 20
-78.72695874380374
 30
0
 40
3.900000000000104
 50
201.2900331220163
 51
270
  0
ARC
  8
1
 62
7
 10
-188.4316061869117
 20
-78.72695874380374
 30
0
 40
2.099999999999913
 50
191.9689272668002
 51
270
  0
ARC
  8
1
 62
7
 10
-187.2316061869118
 20
-78.72695874380374
 30
0
 40
2.099999999999909
 50
270
 51
90
  0
ARC
  8
1
 62
7
 10
-204.4131847604411
 20
-101.1316425428324
 30
0
 40
12.99999999999998
 50
261.7086091535301
 51
262.2586415205622
  0
ARC
  8
1
 62
7
 10
-204.413184760437
 20
-101.1316425428329
 30
0
 40
13.00000000000003
 50
262.2586415205439
 51
264.3278025658141
  0
ARC
  8
1
 62
7
 10
-204.4131847604394
 20
-101.1316425428327
 30
0
 40
12.99999999999991
 50
262.2586415205545
 51
263.3818366363582
  0
ARC
  8
1
 62
7
 10
-219.6492938296665
 20
139.3374567731544
 30
0
 40
1
 50
270
 51
353.9576715809536
  0
ARC
  8
1
 62
7
 10
-167.4131847604385
 20
181.5735658423826
 30
0
 40
1
 50
180
 51
263.9576715809585
  0
ARC
  8
1
 62
7
 10
-177.4131847604385
 20
181.5735658423826
 30
0
 40
1.000000000000089
 50
276.0423284190571
 51
0
  0
ARC
  8
1
 62
7
 10
-125.1770756912105
 20
139.3374567731544
 30
0
 40
0.9999999999998772
 50
186.0423284190583
 51
270
  0
ARC
  8
1
 62
7
 10
-172.4131847604385
 20
134.3374567731544
 30
0
 40
46.5000000000002
 50
0
 51
6.042328419054011
  0
ARC
  8
1
 62
7
 10
-172.4131847604385
 20
134.3374567731544
 30
0
 40
46.5000000000002
 50
180
 51
353.9576715809454
  0
ARC
  8
1
 62
7
 10
-219.6492938296665
 20
129.3374567731544
 30
0
 40
1.000000000000038
 50
6.042328419029481
 51
90
  0
ARC
  8
1
 62
7
 10
-167.4131847604385
 20
87.101347703926
 30
0
 40
1.000000000000257
 50
96.04232841903962
 51
180
  0
ARC
  8
1
 62
7
 10
-177.4131847604385
 20
87.101347703926
 30
0
 40
1
 50
0
 51
83.95767158094249
  0
ARC
  8
1
 62
7
 10
-125.1770756912105
 20
129.3374567731544
 30
0
 40
1
 50
90
 51
173.9576715809692
  0
ARC
  8
1
 62
7
 10
-172.4131847604385
 20
134.3374567731544
 30
0
 40
46.50000000000021
 50
353.9576715809454
 51
0
  0
ARC
  8
1
 62
7
 10
-172.4131847604385
 20
134.3374567731544
 30
0
 40
46.50000000000016
 50
6.042328419054011
 51
180
  0
ARC
  8
1
 62
7
 10
-171.7506691235053
 20
42.00368208726974
 30
0
 40
0.8775000000001114
 50
0
 51
142.6431480270834
  0
ARC
  8
1
 62
7
 10
-171.7506691235053
 20
42.00368208726974
 30
0
 40
0.5175000000002115
 50
0
 51
180
  0
ARC
  8
1
 62
7
 10
-173.1456691235052
 20
42.00368208726974
 30
0
 40
0.8775000000001065
 50
37.35685197291328
 51
126.1388146631173
  0
ARC
  8
1
 62
7
 10
-173.1456691235052
 20
42.00368208726974
 30
0
 40
0.5174999999989893
 50
0
 51
180
  0
ARC
  8
1
 62
7
 10
-172.4131847604382
 20
50.90589707987766
 30
0
 40
36.33753962271118
 50
187.6099843283901
 51
352.3900156716101
  0
ARC
  8
1
 62
7
 10
-145.4167302149842
 20
-9.969220320909074
 30
0
 40
10.00545454545494
 50
351.8290845893098
 51
8.170915410688586
  0
ARC
  8
1
 62
7
 10
-172.4131847604385
 20
134.3374567731544
 30
0
 40
40.80000000000021
 50
90
 51
164.3590674270527
  0
ARC
  8
1
 62
7
 10
-172.4131847604385
 20
134.3374567731544
 30
0
 40
37
 50
0
 51
180
  0
ARC
  8
1
 62
7
 10
-172.4131847604385
 20
134.3374567731544
 30
0
 40
45
 50
180
 51
0
  0
ARC
  8
1
 62
7
 10
-173.8406847604397
 20
119.917025997143
 30
0
 40
0.5175000000002115
 50
0
 51
180
  0
ARC
  8
1
 62
7
 10
-173.8406847604397
 20
119.917025997143
 30
0
 40
0.877500000001163
 50
37.35685197279874
 51
126.1388146630747
  0
ARC
  8
1
 62
7
 10
-172.4456847604386
 20
119.917025997143
 30
0
 40
0.5175000000000125
 50
0
 51
180
  0
ARC
  8
1
 62
7
 10
-172.4456847604386
 20
119.917025997143
 30
0
 40
0.877499999999003
 50
0
 51
142.6431480270943
  0
ARC
  8
1
 62
7
 10
-172.4131847604385
 20
134.3374567731544
 30
0
 40
45
 50
0
 51
180
  0
ARC
  8
1
 62
7
 10
-172.4131847604385
 20
134.3374567731544
 30
0
 40
40.8000000000002
 50
15.64093257294747
 51
90
  0
CIRCLE
  8
1
 62
7
 10
-220.6923931867542
 20
-49.82343464278588
 30
0
 40
1
  0
CIRCLE
  8
1
 62
7
 10
-172.4131847604385
 20
134.3374567731544
 30
0
 40
41.49999999999989
  0
DIMENSION
  8
1
  6
CONTINUOUS
 62
2
  2
*D0
  3
DMST_1
 10
-67.41318476043824
 20
-40.22164254283282
 30
0
 11
-75.91318476043824
 21
-38.53164254283282
 31
0
 12
0
 22
0
 32
0
 70
0
 13
-84.41318476043824
 23
-51.7316425428328
 33
0
 14
-67.41318476043824
 24
-53.2316425428328
 34
0
 53
0
  0
DIMENSION
  8
1
  6
CONTINUOUS
 62
2
  2
*D1
  3
DMST_2
 10
-67.41318476043819
 20
-135.093196133769
 30
0
 11
-172.6864810311621
 21
-133.503196133769
 31
0
 12
0
 22
0
 32
0
 70
0
 13
-297.4131847604382
 23
-99.63164254283278
 33
0
 14
-67.41318476043824
 24
-99.63164254283278
 34
0
 53
0
  0
DIMENSION
  8
1
  6
CONTINUOUS
 62
2
  2
*D2
  3
DMST_2
 10
-108.296848475781
 20
-116.4316425428328
 30
0
 11
-109.886848475781
 21
-100.123839326616
 31
0
 12
0
 22
0
 32
0
 70
0
 13
-106.023638432966
 23
-76.43164254283282
 33
0
 14
-137.4131847604382
 24
-116.4316425428328
 34
0
 50
90
 53
0
  0
DIMENSION
  8
1
  6
CONTINUOUS
 62
2
  2
*D3
  3
DMST_3
 10
-50.1776891082642
 20
-116.4316425428328
 30
0
 11
-51.7676891082642
 21
-43.00059080417531
 31
0
 12
0
 22
0
 32
0
 70
0
  1
163
 13
-138.0150709655231
 23
46.56835745716711
 33
0
 14
-137.4131847604382
 24
-116.4316425428328
 34
0
 50
90
 53
0
  0
DIMENSION
  8
1
  6
CONTINUOUS
 62
2
  2
*D4
  3
DMST_2
 10
-49.6098978039163
 20
188.3374567731544
 30
0
 11
-51.1998978039163
 21
134.3374567731543
 31
0
 12
0
 22
0
 32
0
 70
0
 13
-169.4131847604385
 23
80.33745677315417
 33
0
 14
-169.4131847604385
 24
188.3374567731544
 34
0
 50
90
 53
0
  0
ENDSEC
  0
EOF
