  0
SECTION
  2
HEADER
  9
$ACADVER
  1
AC1009
  9
$INSBASE
 10
0
 20
0
  9
$EXTMIN
 10
51.56161423499778
 20
-161.2465918459581
  9
$EXTMAX
 10
317.4798387427813
 20
211.0330081540423
  9
$LIMMIN
 10
51.56161423499778
 20
-161.2465918459581
  9
$LIMMAX
 10
317.4798387427813
 20
211.0330081540423
  9
$VIEWCTR
 10
10
 20
10
  9
$VIEWSIZE
 40
10
  9
$SNAPMODE
 70
0
  9
$SNAPUNIT
 10
1
 20
1
  9
$SNAPBASE
 10
0
 20
0
  9
$SNAPANG
 50
0
  9
$SNAPSTYLE
 70
0
  9
$SNAPISOPAIR
 70
0
  9
$GRIDMODE
 70
0
  9
$GRIDUNIT
 10
0
 20
0
  9
$ORTHOMODE
 70
0
  9
$REGENMODE
 70
1
  9
$FILLMODE
 70
1
  9
$QTEXTMODE
 70
0
  9
$DRAGMODE
 70
2
  9
$LTSCALE
 40
1
  9
$OSMODE
 70
0
  9
$ATTMODE
 70
1
  9
$TEXTSIZE
 40
3.5
  9
$TRACEWID
 40
0.5
  9
$TEXTSTYLE
  7
STANDARD
  9
$CLAYER
  8
0
  9
$CELTYPE
  6
BYLAYER
  9
$CECOLOR
 62
256
  9
$DIMSCALE
 40
1
  9
$DIMASZ
 40
0.18
  9
$DIMEXO
 40
0.0625
  9
$DIMDLI
 40
0.38
  9
$DIMRND
 40
0
  9
$DIMDLE
 40
0
  9
$DIMEXE
 40
0.18
  9
$DIMTP
 40
0
  9
$DIMTM
 40
0
  9
$DIMTXT
 40
0.18
  9
$DIMCEN
 40
0.09
  9
$DIMTSZ
 40
0
  9
$DIMTOL
 70
0
  9
$DIMLIM
 70
0
  9
$DIMTIH
 70
1
  9
$DIMTOH
 70
1
  9
$DIMSE1
 70
0
  9
$DIMSE2
 70
0
  9
$DIMTAD
 70
0
  9
$DIMZIN
 70
0
  9
$DIMBLK
  1

  9
$DIMASO
 70
1
  9
$DIMSHO
 70
1
  9
$DIMPOST
  1

  9
$DIMAPOST
  1

  9
$DIMALT
 70
0
  9
$DIMALTD
 70
2
  9
$DIMALTF
 40
25.4
  9
$DIMLFAC
 40
1
  9
$DIMTOFL
 70
0
  9
$DIMTVP
 40
0
  9
$DIMTIX
 70
0
  9
$DIMSOXD
 70
0
  9
$DIMSAH
 70
0
  9
$DIMBLK1
  1

  9
$DIMBLK2
  1

  9
$DIMSTYLE
  2
*UNNAMED
  9
$DIMCLRD
 70
0
  9
$DIMCLRE
 70
0
  9
$DIMCLRT
 70
0
  9
$DIMTFAC
 40
1
  9
$DIMGAP
 40
0.09
  9
$LUNITS
 70
2
  9
$LUPREC
 70
4
  9
$AXISMODE
 70
0
  9
$AXISUNIT
 10
0
 20
0
  9
$SKETCHINC
 40
0.1
  9
$FILLETRAD
 40
2
  9
$AUNITS
 70
0
  9
$AUPREC
 70
0
  9
$MENU
  1
ACAD
  9
$ELEVATION
 40
0
  9
$THICKNESS
 40
0
  9
$VIEWDIR
 10
0
 20
0
 30
1
  9
$LIMCHECK
 70
0
  9
$BLIPMODE
 70
1
  9
$CHAMFERA
 40
0
  9
$CHAMFERB
 40
0
  9
$FASTZOOM
 70
1
  9
$SKPOLY
 70
0
  9
$ANGBASE
 50
0
  9
$ANGDIR
 70
0
  9
$PDMODE
 70
0
  9
$PDSIZE
 40
0
  9
$PLINEWID
 40
0
  9
$COORDS
 70
2
  0
ENDSEC
  0
SECTION
  2
TABLES
  0
TABLE
  2
DIMSTYLE
 70
3
  0
DIMSTYLE
  2
DMST_1
 70
0
  3
)
  4

  5

  6

  7

 40
1
 41
3
 42
0.5000000000000001
 43
7
 44
1.000000000000001
 45
0
 46
0
 47
0
 48
0
140
3
141
0
142
0
143
25.4
144
1
145
0
146
1
147
0.09
 71
0
 72
0
 73
0
 74
0
 75
0
 76
0
 77
1
 78
1
170
0
171
2
172
0
173
0
174
0
175
0
176
2
177
2
178
2
  0
DIMSTYLE
  2
DMST_2
 70
0
  3

  4

  5

  6

  7

 40
1
 41
3
 42
0.5000000000000001
 43
7
 44
1.000000000000001
 45
0
 46
0
 47
0
 48
0
140
3.000000000000001
141
0
142
0
143
25.4
144
1
145
0
146
1
147
0.09
 71
0
 72
0
 73
0
 74
0
 75
0
 76
0
 77
1
 78
1
170
0
171
2
172
0
173
0
174
0
175
0
176
2
177
2
178
2
  0
DIMSTYLE
  2
DMST_3
 70
0
  3

  4

  5

  6

  7

 40
1
 41
3.200000000000001
 42
0.4999999999999998
 43
7
 44
1.5
 45
0
 46
0
 47
0
 48
0
140
3.200000000000001
141
0
142
0
143
25.4
144
1
145
0
146
1
147
0.09
 71
0
 72
0
 73
0
 74
0
 75
0
 76
0
 77
1
 78
1
170
0
171
2
172
0
173
0
174
0
175
0
176
2
177
2
178
2
  0
ENDTAB
  0
TABLE
  2
LTYPE
 70
9
  0
LTYPE
  2
CONTINUOUS
 70
64
  3
Solid line
 72
65
 73
0
 40
0
  0
LTYPE
  2
BORDER
 70
64
  3
__ __ . __ __ .
 72
65
 73
6
 40
17.14445526315792
 49
4.89841578947369
 49
-2.449207894736845
 49
4.89841578947369
 49
-2.449207894736845
 49
0
 49
-2.449207894736845
  0
LTYPE
  2
CENTER
 70
64
  3
____ _ ____ _
 72
65
 73
4
 40
19.59366315789476
 49
12.24603947368422
 49
-2.449207894736845
 49
2.449207894736845
 49
-2.449207894736845
  0
LTYPE
  2
DASHDOT
 70
64
  3
__ . __ . __ .
 72
65
 73
4
 40
9.79683157894738
 49
4.89841578947369
 49
-2.449207894736845
 49
0
 49
-2.449207894736845
  0
LTYPE
  2
DASHED
 70
64
  3
__ __ __ __ __
 72
65
 73
2
 40
7.347623684210535
 49
4.89841578947369
 49
-2.449207894736845
  0
LTYPE
  2
DIVIDE
 70
64
  3
__ . . __ . . 
 72
65
 73
6
 40
12.24603947368422
 49
4.89841578947369
 49
-2.449207894736845
 49
0
 49
-2.449207894736845
 49
0
 49
-2.449207894736845
  0
LTYPE
  2
DOT
 70
64
  3
..............
 72
65
 73
4
 40
4.89841578947369
 49
0
 49
-2.449207894736845
 49
0
 49
-2.449207894736845
  0
LTYPE
  2
HIDDEN
 70
64
  3
_ _ _ _ _ _ _
 72
65
 73
2
 40
3.673811842105268
 49
2.449207894736845
 49
-1.224603947368423
  0
LTYPE
  2
PHANTOM
 70
64
  3
_____ _ _ _____ _ _ 
 72
65
 73
6
 40
24.49207894736845
 49
12.24603947368422
 49
-2.449207894736845
 49
2.449207894736845
 49
-2.449207894736845
 49
2.449207894736845
 49
-2.449207894736845
  0
ENDTAB
  0
TABLE
  2
LAYER
 70
3
  0
LAYER
  2
0
 70
0
 62
7
  6
CONTINUOUS
  0
LAYER
  2
1
 70
0
 62
7
  6
CONTINUOUS
  0
ENDTAB
  0
TABLE
  2
STYLE
 70
4
  0
STYLE
  2
STANDARD
 70
0
 40
0
 41
1
 50
0
 71
0
 42
3.5
  3
txt
  4

  0
STYLE
  2
SIMPLEX
 70
0
 40
0
 41
1
 50
0
 71
0
 42
3.5
  3
simplex
  4

  0
STYLE
  2
COMPLEX
 70
0
 40
0
 41
1
 50
0
 71
0
 42
3.5
  3
complex
  4

  0
STYLE
  2
ITALIC
 70
0
 40
0
 41
1
 50
0
 71
0
 42
3.5
  3
italic
  4

  0
ENDTAB
  0
TABLE
  2
VIEW
 70
0
  0
ENDTAB
  0
ENDSEC
  0
SECTION
  2
BLOCKS
  0
BLOCK
  8
1
  2
*D0
 70
1
 10
0
 20
0
 30
0
  0
LINE
  8
1
 62
2
 10
316.675991165488
 20
-114.5022450614981
 30
0
 11
316.675991165488
 21
53.50253843010924
 31
0
  0
LINE
  8
1
 62
2
 10
216.8474290344768
 20
53.50253843010924
 30
0
 11
317.175991165488
 21
53.50253843010924
 31
0
  0
LINE
  8
1
 62
2
 10
217.4493152395617
 20
-114.5022450614981
 30
0
 11
317.175991165488
 21
-114.5022450614981
 31
0
  0
LINE
  8
1
 62
2
 10
316.675991165488
 20
-114.5022450614981
 30
0
 11
315.865991165488
 21
-111.5022450614981
 31
0
  0
LINE
  8
1
 62
2
 10
316.675991165488
 20
-114.5022450614981
 30
0
 11
317.485991165488
 21
-111.5022450614981
 31
0
  0
LINE
  8
1
 62
2
 10
316.675991165488
 20
53.50253843010924
 30
0
 11
317.485991165488
 21
50.50253843010924
 31
0
  0
LINE
  8
1
 62
2
 10
316.675991165488
 20
53.50253843010924
 30
0
 11
315.865991165488
 21
50.50253843010924
 31
0
  0
TEXT
  8
1
 62
2
 10
316.585991165488
 20
-12.20596181019981
 30
0
 40
3
  1
168
 50
90
 41
0.8910000000000001
 51
15
  0
TEXT
  8
1
 62
2
 10
316.585991165488
 20
-14.95530938749318
 30
0
 40
3
  1
(
 50
90
 41
0.8910000000000001
 51
15
  0
TEXT
  8
1
 62
2
 10
316.585991165488
 20
-3.665114232906445
 30
0
 40
3
  1
)
 50
90
 41
0.8910000000000001
 51
15
  0
ENDBLK
  8
0
  0
BLOCK
  8
1
  2
*D1
 70
1
 10
0
 20
0
 30
0
  0
LINE
  8
1
 62
2
 10
253.954567427737
 20
-114.5022450614981
 30
0
 11
253.954567427737
 21
-69.50124916074461
 31
0
  0
LINE
  8
1
 62
2
 10
259.3189341558783
 20
-69.50124916074461
 30
0
 11
253.454567427737
 21
-69.50124916074461
 31
0
  0
LINE
  8
1
 62
2
 10
217.4493152395617
 20
-114.5022450614981
 30
0
 11
254.454567427737
 21
-114.5022450614981
 31
0
  0
LINE
  8
1
 62
2
 10
253.954567427737
 20
-114.5022450614981
 30
0
 11
253.144567427737
 21
-111.5022450614981
 31
0
  0
LINE
  8
1
 62
2
 10
253.954567427737
 20
-114.5022450614981
 30
0
 11
254.764567427737
 21
-111.5022450614981
 31
0
  0
LINE
  8
1
 62
2
 10
253.954567427737
 20
-69.50124916074461
 30
0
 11
254.764567427737
 21
-72.50124916074461
 31
0
  0
LINE
  8
1
 62
2
 10
253.954567427737
 20
-69.50124916074461
 30
0
 11
253.144567427737
 21
-72.50124916074461
 31
0
  0
TEXT
  8
1
 62
2
 10
253.864567427737
 20
-104.6402236217201
 30
0
 40
3.000000000000001
  1
45
 50
90
 41
0.8910000000000001
 51
15
  0
ENDBLK
  8
0
  0
BLOCK
  8
1
  2
*D2
 70
1
 10
0
 20
0
 30
0
  0
LINE
  8
1
 62
2
 10
316.675991165488
 20
87.27163774609653
 30
0
 11
316.675991165488
 21
195.2716377460965
 31
0
  0
LINE
  8
1
 62
2
 10
184.9493152395617
 20
195.2716377460965
 30
0
 11
317.175991165488
 21
195.2716377460965
 31
0
  0
LINE
  8
1
 62
2
 10
184.9493152395617
 20
87.27163774609653
 30
0
 11
317.175991165488
 21
87.27163774609653
 31
0
  0
LINE
  8
1
 62
2
 10
316.675991165488
 20
87.27163774609653
 30
0
 11
315.865991165488
 21
90.27163774609653
 31
0
  0
LINE
  8
1
 62
2
 10
316.675991165488
 20
87.27163774609653
 30
0
 11
317.485991165488
 21
90.27163774609653
 31
0
  0
LINE
  8
1
 62
2
 10
316.675991165488
 20
195.2716377460965
 30
0
 11
317.485991165488
 21
192.2716377460965
 31
0
  0
LINE
  8
1
 62
2
 10
316.675991165488
 20
195.2716377460965
 30
0
 11
315.865991165488
 21
192.2716377460965
 31
0
  0
TEXT
  8
1
 62
2
 10
316.585991165488
 20
137.7512139574499
 30
0
 40
3
  1
108
 50
90
 41
0.8910000000000001
 51
15
  0
ENDBLK
  8
0
  0
BLOCK
  8
1
  2
*D3
 70
1
 10
0
 20
0
 30
0
  0
LINE
  8
1
 62
2
 10
58.94931523956171
 20
-136.7374346003073
 30
0
 11
303.9493152395614
 21
-136.7374346003073
 31
0
  0
LINE
  8
1
 62
2
 10
303.9493152395614
 20
-96.50224506149803
 30
0
 11
303.9493152395614
 21
-137.2374346003073
 31
0
  0
LINE
  8
1
 62
2
 10
58.94931523956171
 20
-96.50224506149803
 30
0
 11
58.94931523956171
 21
-137.2374346003073
 31
0
  0
LINE
  8
1
 62
2
 10
58.94931523956171
 20
-136.7374346003073
 30
0
 11
61.94931523956171
 21
-135.9274346003073
 31
0
  0
LINE
  8
1
 62
2
 10
58.94931523956171
 20
-136.7374346003073
 30
0
 11
61.94931523956171
 21
-137.5474346003073
 31
0
  0
LINE
  8
1
 62
2
 10
303.9493152395614
 20
-136.7374346003073
 30
0
 11
300.9493152395614
 21
-137.5474346003073
 31
0
  0
LINE
  8
1
 62
2
 10
303.9493152395614
 20
-136.7374346003073
 30
0
 11
300.9493152395614
 21
-135.9274346003073
 31
0
  0
TEXT
  8
1
 62
2
 10
178.6680608057542
 20
-136.6474346003073
 30
0
 40
3
  1
245
 41
0.8910000000000001
 51
15
  0
ENDBLK
  8
0
  0
BLOCK
  8
1
  2
*D4
 70
1
 10
0
 20
0
 30
0
  0
LINE
  8
1
 62
2
 10
283.9493152395614
 20
-29.94224506149804
 30
0
 11
303.9493152395614
 21
-29.94224506149804
 31
0
  0
LINE
  8
1
 62
2
 10
303.9493152395614
 20
-42.50224506149804
 30
0
 11
303.9493152395614
 21
-29.44224506149804
 31
0
  0
LINE
  8
1
 62
2
 10
283.9493152395614
 20
-41.00224506149804
 30
0
 11
283.9493152395614
 21
-29.44224506149804
 31
0
  0
LINE
  8
1
 62
2
 10
283.9493152395614
 20
-29.94224506149804
 30
0
 11
287.1493152395614
 21
-29.07824506149804
 31
0
  0
LINE
  8
1
 62
2
 10
283.9493152395614
 20
-29.94224506149804
 30
0
 11
287.1493152395614
 21
-30.80624506149804
 31
0
  0
LINE
  8
1
 62
2
 10
303.9493152395614
 20
-29.94224506149804
 30
0
 11
300.7493152395614
 21
-30.80624506149804
 31
0
  0
LINE
  8
1
 62
2
 10
303.9493152395614
 20
-29.94224506149804
 30
0
 11
300.7493152395614
 21
-29.07824506149804
 31
0
  0
TEXT
  8
1
 62
2
 10
291.1445965316716
 20
-29.85224506149804
 30
0
 40
3.200000000000001
  1
20
 41
0.8910000000000001
 51
15
  0
ENDBLK
  8
0
  0
ENDSEC
  0
SECTION
  2
ENTITIES
  0
POLYLINE
  8
1
 62
7
 66
1
 70
1
  0
VERTEX
  8
1
 10
186.0447854812407
 20
108.8411380200112
 30
0
 42
0.03571986069840788
  0
VERTEX
  8
1
 10
185.9349716265107
 20
108.6816229141528
 30
0
 42
0.05001447801925989
  0
VERTEX
  8
1
 10
185.8539667567425
 20
108.5058753383032
 30
0
 42
0.04733296127638455
  0
VERTEX
  8
1
 10
185.8229291839505
 20
108.3775912933221
 30
0
 42
0.04357203114786593
  0
VERTEX
  8
1
 10
185.8180978182744
 20
108.2872924041463
 30
0
 42
0.05357212706396063
  0
VERTEX
  8
1
 10
185.8298164925417
 20
108.2039442078846
 30
0
 42
0.1094247059504769
  0
VERTEX
  8
1
 10
185.8921365195209
 20
108.0799066126978
 30
0
 42
0.1133878202654536
  0
VERTEX
  8
1
 10
186.0091937057554
 20
107.9934104286306
 30
0
 42
0.07195778157306342
  0
VERTEX
  8
1
 10
186.1265867086333
 20
107.9620132618756
 30
0
 42
0.05145352632562897
  0
VERTEX
  8
1
 10
186.2535296631816
 20
107.9597102160491
 30
0
 42
0.04142594342839669
  0
VERTEX
  8
1
 10
186.3921090847559
 20
107.9829960625599
 30
0
 42
0.05088981411613092
  0
VERTEX
  8
1
 10
186.6125482742579
 20
108.0640932618861
 30
0
 42
0.0420382092645314
  0
VERTEX
  8
1
 10
186.8207210687508
 20
108.1875350868914
 30
0
 42
0.03827686564679956
  0
VERTEX
  8
1
 10
187.0082572844613
 20
108.3441410360095
 30
0
 42
0.04264275054445117
  0
VERTEX
  8
1
 10
187.1697314165055
 20
108.5307239620616
 30
0
 42
0.05310791305875533
  0
VERTEX
  8
1
 10
187.2800458948295
 20
108.7164018823854
 30
0
 42
0.05427745626949409
  0
VERTEX
  8
1
 10
187.3345434449748
 20
108.8656387601858
 30
0
 42
0.05418238078883295
  0
VERTEX
  8
1
 10
187.3529300440596
 20
108.9760434122567
 30
0
 42
0.04895675332586789
  0
VERTEX
  8
1
 10
187.3507135840918
 20
109.0672172728153
 30
0
 42
0.06590206661319316
  0
VERTEX
  8
1
 10
187.317784899591
 20
109.1777787421188
 30
0
 42
0.1185715814428605
  0
VERTEX
  8
1
 10
187.2262940813286
 20
109.2862411748463
 30
0
 42
0.1025971211070041
  0
VERTEX
  8
1
 10
187.105165720078
 20
109.3427422496963
 30
0
 42
0.05839274882827202
  0
VERTEX
  8
1
 10
186.9819562164887
 20
109.3585986176034
 30
0
 42
0.04342770515362251
  0
VERTEX
  8
1
 10
186.8486663376795
 20
109.347697446183
 30
0
 42
0.03505393695977919
  0
VERTEX
  8
1
 10
186.6676581170954
 20
109.2982473471177
 30
0
 42
0.04373616893351744
  0
VERTEX
  8
1
 10
186.442744671223
 20
109.1888183810784
 30
0
 42
0.04404853925455252
  0
VERTEX
  8
1
 10
186.228796939766
 20
109.0318414911247
 30
0
 42
0.04130223793571918
  0
VERTEX
  8
1
 10
186.0447854812407
 20
108.8411380200112
 30
0
  0
SEQEND
  8
1
  0
POLYLINE
  8
1
 62
7
 66
1
 70
1
  0
VERTEX
  8
1
 10
186.0447854812418
 20
30.81972555108412
 30
0
 42
0.0357198607011145
  0
VERTEX
  8
1
 10
185.9349716265103
 20
30.66021044522559
 30
0
 42
0.05001447801946124
  0
VERTEX
  8
1
 10
185.853966756742
 20
30.484462869376
 30
0
 42
0.04733296127844618
  0
VERTEX
  8
1
 10
185.8229291839499
 20
30.35617882439495
 30
0
 42
0.04357203114630199
  0
VERTEX
  8
1
 10
185.8180978182741
 20
30.26587993521915
 30
0
 42
0.0535721270621078
  0
VERTEX
  8
1
 10
185.8298164925411
 20
30.1825317389574
 30
0
 42
0.1094247059517426
  0
VERTEX
  8
1
 10
185.8921365195201
 20
30.05849414377059
 30
0
 42
0.1133878202654016
  0
VERTEX
  8
1
 10
186.0091937057545
 20
29.97199795970337
 30
0
 42
0.07195778157329821
  0
VERTEX
  8
1
 10
186.1265867086326
 20
29.94060079294838
 30
0
 42
0.05145352632558489
  0
VERTEX
  8
1
 10
186.2535296631814
 20
29.9382977471219
 30
0
 42
0.04142594342889158
  0
VERTEX
  8
1
 10
186.3921090847554
 20
29.96158359363276
 30
0
 42
0.05088981411557727
  0
VERTEX
  8
1
 10
186.6125482742571
 20
30.04268079295892
 30
0
 42
0.04203820926435144
  0
VERTEX
  8
1
 10
186.8207210687505
 20
30.1661226179642
 30
0
 42
0.03827686564762611
  0
VERTEX
  8
1
 10
187.0082572844613
 20
30.32272856708225
 30
0
 42
0.0426427505445041
  0
VERTEX
  8
1
 10
187.1697314165055
 20
30.50931149313436
 30
0
 42
0.05310791305977739
  0
VERTEX
  8
1
 10
187.2800458948291
 20
30.69498941345824
 30
0
 42
0.05427745626816235
  0
VERTEX
  8
1
 10
187.334543444974
 20
30.84422629125858
 30
0
 42
0.05418238078764866
  0
VERTEX
  8
1
 10
187.3529300440592
 20
30.95463094332955
 30
0
 42
0.04895675332926709
  0
VERTEX
  8
1
 10
187.3507135840913
 20
31.04580480388806
 30
0
 42
0.0659020666119344
  0
VERTEX
  8
1
 10
187.3177848995901
 20
31.15636627319165
 30
0
 42
0.1185715814423761
  0
VERTEX
  8
1
 10
187.2262940813279
 20
31.26482870591908
 30
0
 42
0.1025971211071326
  0
VERTEX
  8
1
 10
187.1051657200782
 20
31.32132978076906
 30
0
 42
0.05839274882875399
  0
VERTEX
  8
1
 10
186.9819562164888
 20
31.33718614867622
 30
0
 42
0.04342770515361462
  0
VERTEX
  8
1
 10
186.8486663376786
 20
31.32628497725581
 30
0
 42
0.03505393696000902
  0
VERTEX
  8
1
 10
186.6676581170944
 20
31.27683487819057
 30
0
 42
0.04373616893368074
  0
VERTEX
  8
1
 10
186.4427446712223
 20
31.1674059121512
 30
0
 42
0.04404853925496187
  0
VERTEX
  8
1
 10
186.228796939766
 20
31.01042902219762
 30
0
 42
0.04130223793616814
  0
VERTEX
  8
1
 10
186.0447854812418
 20
30.81972555108412
 30
0
  0
SEQEND
  8
1
  0
POLYLINE
  8
1
 62
7
 66
1
  0
VERTEX
  8
1
 10
218.9493152395618
 20
141.2716377460965
 30
0
 42
-0.0009881598652038777
  0
VERTEX
  8
1
 10
218.8824833301739
 20
139.8247450510612
 30
0
 42
-0.007858628446314901
  0
VERTEX
  8
1
 10
218.8042537412056
 20
138.3792555611258
 30
0
 42
-6.381788828617301e-005
  0
VERTEX
  8
1
 10
218.7032287930763
 20
136.9365724813903
 30
0
 42
-0.01184373752923786
  0
VERTEX
  8
1
 10
218.5680108062055
 20
135.4980990169546
 30
0
 42
-0.00405591995636994
  0
VERTEX
  8
1
 10
218.3872021010128
 20
134.0652383729187
 30
0
 42
-0.01492370530687699
  0
VERTEX
  8
1
 10
218.1534419748523
 20
132.6481058499928
 30
0
 42
-0.003800815716178888
  0
VERTEX
  8
1
 10
217.86651233609
 20
131.2393498415638
 30
0
 42
-0.01392492966939578
  0
VERTEX
  8
1
 10
217.5295367711707
 20
129.840416437114
 30
0
 42
-0.002837302141564529
  0
VERTEX
  8
1
 10
217.1456388665393
 20
128.4527517261257
 30
0
 42
-0.02049561125513934
  0
VERTEX
  8
1
 10
216.2546589398439
 20
125.7328326144021
 30
0
 42
-0.0100442827871379
  0
VERTEX
  8
1
 10
215.2065072930118
 20
123.0904627757414
 30
0
 42
-0.04667480678560916
  0
VERTEX
  8
1
 10
211.8919547753541
 20
116.8912987923665
 30
0
 42
-0.02889772470837806
  0
VERTEX
  8
1
 10
208.5752448104664
 20
112.4557568927199
 30
0
 42
-0.0314298205052214
  0
VERTEX
  8
1
 10
205.7324567979637
 20
109.4807933566588
 30
0
 42
-0.03069653508416671
  0
VERTEX
  8
1
 10
201.5648122284152
 20
106.0836063550747
 30
0
 42
-0.1866489170745948
  0
VERTEX
  8
1
 10
178.0785853128149
 20
99.99955551016649
 30
0
 42
-0.04967186749534592
  0
VERTEX
  8
1
 10
171.7424136893208
 20
101.3821408442821
 30
0
 42
-0.03691308997153846
  0
VERTEX
  8
1
 10
166.8886018945281
 20
103.3653765883427
 30
0
 42
-0.03820232382375533
  0
VERTEX
  8
1
 10
162.3338182507084
 20
106.0836063550747
 30
0
 42
-0.03475430443888006
  0
VERTEX
  8
1
 10
158.1661736811597
 20
109.4807933566588
 30
0
 42
-0.02737288823458158
  0
VERTEX
  8
1
 10
155.323385668657
 20
112.4557568927199
 30
0
 42
-0.04145297279564825
  0
VERTEX
  8
1
 10
151.2662186997172
 20
118.0780257614211
 30
0
 42
-0.02561435964804261
  0
VERTEX
  8
1
 10
149.2781876604296
 20
121.7960981519855
 30
0
 42
-0.03862938488848173
  0
VERTEX
  8
1
 10
146.7529916125838
 20
128.4527517261257
 30
0
 42
-0.007729126242947691
  0
VERTEX
  8
1
 10
146.3690937079522
 20
129.840416437114
 30
0
 42
-0.009032597570948578
  0
VERTEX
  8
1
 10
146.0321181430326
 20
131.2393498415638
 30
0
 42
-0.008692694161940268
  0
VERTEX
  8
1
 10
145.7451885042702
 20
132.6481058499928
 30
0
 42
-0.01003125617298816
  0
VERTEX
  8
1
 10
145.5114283781096
 20
134.0652383729187
 30
0
 42
-0.008947814311453672
  0
VERTEX
  8
1
 10
145.330619672917
 20
135.4980990169546
 30
0
 42
-0.006951617952107766
  0
VERTEX
  8
1
 10
145.1954016860464
 20
136.9365724813902
 30
0
 42
-0.004955536262061808
  0
VERTEX
  8
1
 10
145.0943767379173
 20
138.3792555611258
 30
0
 42
-0.002966797569402193
  0
VERTEX
  8
1
 10
145.0161471489493
 20
139.8247450510611
 30
0
 42
-0.0009881598652421804
  0
VERTEX
  8
1
 10
144.9493152395618
 20
141.2716377460965
 30
0
  0
SEQEND
  8
1
  0
LINE
  8
1
 62
2
 10
223.3668152395618
 20
-29.00224506149801
 30
0
 11
223.3668152395617
 21
-28.4974615698907
 31
0
  0
LINE
  8
1
 62
2
 10
192.2911912641789
 20
-148.91679562989
 30
0
 11
192.4300801530678
 21
-148.76054562989
 31
0
  0
LINE
  8
1
 62
2
 10
192.2911912641789
 20
-147.97929562989
 30
0
 11
191.4578579308455
 21
-147.97929562989
 31
0
  0
LINE
  8
1
 62
2
 10
194.3745245975122
 20
-151.57304562989
 30
0
 11
195.6245245975122
 21
-151.57304562989
 31
0
  0
LINE
  8
1
 62
2
 10
192.9856357086233
 20
-151.57304562989
 30
0
 11
194.3745245975122
 21
-151.57304562989
 31
0
  0
LINE
  8
1
 62
2
 10
194.3745245975122
 20
-147.04179562989
 30
0
 11
194.3745245975122
 21
-151.57304562989
 31
0
  0
LINE
  8
1
 62
2
 10
193.40230237529
 20
-148.91679562989
 30
0
 11
195.3467468197344
 21
-148.91679562989
 31
0
  0
LINE
  8
1
 62
2
 10
192.5689690419567
 20
-149.07304562989
 30
0
 11
193.2634134864011
 21
-149.85429562989
 31
0
  0
LINE
  8
1
 62
2
 10
192.2911912641789
 20
-147.97929562989
 30
0
 11
192.2911912641789
 21
-147.04179562989
 31
0
  0
LINE
  8
1
 62
2
 10
192.9856357086233
 20
-147.97929562989
 30
0
 11
192.2911912641789
 21
-147.97929562989
 31
0
  0
LINE
  8
1
 62
2
 10
192.4300801530678
 20
-148.76054562989
 30
0
 11
192.9856357086233
 21
-147.97929562989
 31
0
  0
LINE
  8
1
 62
2
 10
191.7356357086233
 20
-149.54179562989
 30
0
 11
192.2911912641789
 21
-148.91679562989
 31
0
  0
LINE
  8
1
 62
2
 10
191.1800801530678
 20
-150.01054562989
 30
0
 11
191.7356357086233
 21
-149.54179562989
 31
0
  0
LINE
  8
1
 62
2
 10
192.2911912641789
 20
-151.72929562989
 30
0
 11
192.2911912641789
 21
-148.91679562989
 31
0
  0
LINE
  8
1
 62
2
 10
188.40230237529
 20
-150.01054562989
 30
0
 11
187.0134134864011
 21
-151.72929562989
 31
0
  0
LINE
  8
1
 62
2
 10
189.65230237529
 20
-151.41679562989
 30
0
 11
189.0967468197344
 21
-150.79179562989
 31
0
  0
LINE
  8
1
 62
2
 10
190.0689690419567
 20
-151.88554562989
 30
0
 11
189.65230237529
 21
-151.41679562989
 31
0
  0
LINE
  8
1
 62
2
 10
186.5967468197344
 20
-151.72929562989
 30
0
 11
189.65230237529
 21
-151.41679562989
 31
0
  0
LINE
  8
1
 62
2
 10
186.8745245975122
 20
-149.85429562989
 30
0
 11
190.0689690419567
 21
-149.85429562989
 31
0
  0
LINE
  8
1
 62
2
 10
187.4300801530678
 20
-149.07304562989
 30
0
 11
189.3745245975122
 21
-149.07304562989
 31
0
  0
LINE
  8
1
 62
2
 10
188.40230237529
 20
-147.04179562989
 30
0
 11
190.6245245975122
 21
-149.38554562989
 31
0
  0
LINE
  8
1
 62
2
 10
188.40230237529
 20
-147.04179562989
 30
0
 11
186.1800801530678
 21
-149.38554562989
 31
0
  0
LINE
  8
1
 62
2
 10
182.4300801530678
 20
-149.22929562989
 30
0
 11
181.4578579308455
 21
-149.22929562989
 31
0
  0
LINE
  8
1
 62
2
 10
182.4300801530678
 20
-150.94804562989
 30
0
 11
183.40230237529
 21
-150.63554562989
 31
0
  0
LINE
  8
1
 62
2
 10
185.2078579308455
 20
-151.72929562989
 30
0
 11
185.6245245975122
 21
-151.26054562989
 31
0
  0
LINE
  8
1
 62
2
 10
184.65230237529
 20
-151.10429562989
 30
0
 11
185.2078579308455
 21
-151.72929562989
 31
0
  0
LINE
  8
1
 62
2
 10
184.0967468197344
 20
-150.01054562989
 30
0
 11
184.65230237529
 21
-151.10429562989
 31
0
  0
LINE
  8
1
 62
2
 10
183.8189690419567
 20
-148.76054562989
 30
0
 11
184.0967468197344
 21
-150.01054562989
 31
0
  0
LINE
  8
1
 62
2
 10
183.6800801530678
 20
-146.88554562989
 30
0
 11
183.8189690419567
 21
-148.76054562989
 31
0
  0
LINE
  8
1
 62
2
 10
184.5134134864011
 20
-147.51054562989
 30
0
 11
184.0967468197344
 21
-147.04179562989
 31
0
  0
LINE
  8
1
 62
2
 10
181.1800801530678
 20
-147.97929562989
 30
0
 11
185.2078579308455
 21
-147.97929562989
 31
0
  0
LINE
  8
1
 62
2
 10
182.4300801530678
 20
-149.22929562989
 30
0
 11
182.4300801530678
 21
-150.94804562989
 31
0
  0
LINE
  8
1
 62
2
 10
183.40230237529
 20
-149.22929562989
 30
0
 11
182.4300801530678
 21
-149.22929562989
 31
0
  0
LINE
  8
1
 62
2
 10
181.4578579308455
 20
-151.26054562989
 30
0
 11
182.4300801530678
 21
-150.94804562989
 31
0
  0
LINE
  8
1
 62
2
 10
177.15230237529
 20
-148.29179562989
 30
0
 11
177.15230237529
 21
-146.88554562989
 31
0
  0
LINE
  8
1
 62
2
 10
177.15230237529
 20
-148.29179562989
 30
0
 11
176.4578579308455
 21
-148.29179562989
 31
0
  0
LINE
  8
1
 62
2
 10
179.9300801530678
 20
-150.63554562989
 30
0
 11
180.4856357086233
 21
-151.72929562989
 31
0
  0
LINE
  8
1
 62
2
 10
179.2356357086233
 20
-149.22929562989
 30
0
 11
179.9300801530678
 21
-150.63554562989
 31
0
  0
LINE
  8
1
 62
2
 10
178.8189690419567
 20
-150.32304562989
 30
0
 11
179.2356357086233
 21
-149.22929562989
 31
0
  0
LINE
  8
1
 62
2
 10
178.2634134864011
 20
-151.10429562989
 30
0
 11
178.8189690419567
 21
-150.32304562989
 31
0
  0
LINE
  8
1
 62
2
 10
177.8467468197344
 20
-151.72929562989
 30
0
 11
178.2634134864011
 21
-151.10429562989
 31
0
  0
LINE
  8
1
 62
2
 10
179.2356357086233
 20
-146.88554562989
 30
0
 11
179.2356357086233
 21
-151.88554562989
 31
0
  0
LINE
  8
1
 62
2
 10
180.4856357086233
 20
-149.22929562989
 30
0
 11
178.1245245975122
 21
-149.22929562989
 31
0
  0
LINE
  8
1
 62
2
 10
178.5411912641789
 20
-148.13554562989
 30
0
 11
180.3467468197344
 21
-148.13554562989
 31
0
  0
LINE
  8
1
 62
2
 10
178.5411912641789
 20
-148.13554562989
 30
0
 11
178.6800801530678
 21
-147.35429562989
 31
0
  0
LINE
  8
1
 62
2
 10
178.1245245975122
 20
-148.91679562989
 30
0
 11
178.5411912641789
 21
-148.13554562989
 31
0
  0
LINE
  8
1
 62
2
 10
177.15230237529
 20
-148.29179562989
 30
0
 11
177.8467468197344
 21
-149.54179562989
 31
0
  0
LINE
  8
1
 62
2
 10
176.3189690419567
 20
-150.47929562989
 30
0
 11
177.15230237529
 21
-148.29179562989
 31
0
  0
LINE
  8
1
 62
2
 10
177.8467468197344
 20
-148.29179562989
 30
0
 11
177.15230237529
 21
-148.29179562989
 31
0
  0
LINE
  8
1
 62
2
 10
177.15230237529
 20
-151.72929562989
 30
0
 11
177.15230237529
 21
-148.29179562989
 31
0
  0
LINE
  8
1
 62
2
 10
171.5967468197344
 20
-148.76054562989
 30
0
 11
171.5967468197344
 21
-147.97929562989
 31
0
  0
LINE
  8
1
 62
2
 10
172.9856357086233
 20
-147.97929562989
 30
0
 11
172.9856357086233
 21
-148.76054562989
 31
0
  0
LINE
  8
1
 62
2
 10
171.5967468197344
 20
-147.97929562989
 30
0
 11
171.5967468197344
 21
-147.19804562989
 31
0
  0
LINE
  8
1
 62
2
 10
175.2078579308455
 20
-148.76054562989
 30
0
 11
175.2078579308455
 21
-147.97929562989
 31
0
  0
LINE
  8
1
 62
2
 10
173.8189690419567
 20
-147.97929562989
 30
0
 11
173.8189690419567
 21
-148.76054562989
 31
0
  0
LINE
  8
1
 62
2
 10
175.2078579308455
 20
-147.97929562989
 30
0
 11
175.2078579308455
 21
-147.19804562989
 31
0
  0
LINE
  8
1
 62
2
 10
171.5967468197344
 20
-151.57304562989
 30
0
 11
171.5967468197344
 21
-151.72929562989
 31
0
  0
LINE
  8
1
 62
2
 10
173.8189690419567
 20
-147.97929562989
 30
0
 11
175.2078579308455
 21
-147.97929562989
 31
0
  0
LINE
  8
1
 62
2
 10
173.8189690419567
 20
-148.76054562989
 30
0
 11
175.2078579308455
 21
-148.76054562989
 31
0
  0
LINE
  8
1
 62
2
 10
173.8189690419567
 20
-147.19804562989
 30
0
 11
173.8189690419567
 21
-147.97929562989
 31
0
  0
LINE
  8
1
 62
2
 10
175.2078579308455
 20
-147.19804562989
 30
0
 11
173.8189690419567
 21
-147.19804562989
 31
0
  0
LINE
  8
1
 62
2
 10
175.2078579308455
 20
-151.57304562989
 30
0
 11
175.2078579308455
 21
-148.76054562989
 31
0
  0
LINE
  8
1
 62
2
 10
175.0689690419567
 20
-151.72929562989
 30
0
 11
175.2078579308455
 21
-151.57304562989
 31
0
  0
LINE
  8
1
 62
2
 10
174.65230237529
 20
-151.72929562989
 30
0
 11
175.0689690419567
 21
-151.72929562989
 31
0
  0
LINE
  8
1
 62
2
 10
172.9856357086233
 20
-147.97929562989
 30
0
 11
171.5967468197344
 21
-147.97929562989
 31
0
  0
LINE
  8
1
 62
2
 10
172.9856357086233
 20
-148.76054562989
 30
0
 11
171.5967468197344
 21
-148.76054562989
 31
0
  0
LINE
  8
1
 62
2
 10
172.9856357086233
 20
-147.19804562989
 30
0
 11
172.9856357086233
 21
-147.97929562989
 31
0
  0
LINE
  8
1
 62
2
 10
171.5967468197344
 20
-147.19804562989
 30
0
 11
172.9856357086233
 21
-147.19804562989
 31
0
  0
LINE
  8
1
 62
2
 10
171.5967468197344
 20
-151.57304562989
 30
0
 11
171.5967468197344
 21
-148.76054562989
 31
0
  0
LINE
  8
1
 62
2
 10
168.40230237529
 20
-151.72929562989
 30
0
 11
170.0689690419567
 21
-151.72929562989
 31
0
  0
LINE
  8
1
 62
2
 10
168.40230237529
 20
-148.76054562989
 30
0
 11
169.3745245975122
 21
-148.76054562989
 31
0
  0
LINE
  8
1
 62
2
 10
170.0689690419567
 20
-148.91679562989
 30
0
 11
170.6245245975122
 21
-149.38554562989
 31
0
  0
LINE
  8
1
 62
2
 10
169.0967468197344
 20
-147.82304562989
 30
0
 11
170.0689690419567
 21
-148.91679562989
 31
0
  0
LINE
  8
1
 62
2
 10
168.40230237529
 20
-146.88554562989
 30
0
 11
169.0967468197344
 21
-147.82304562989
 31
0
  0
LINE
  8
1
 62
2
 10
167.7078579308455
 20
-147.82304562989
 30
0
 11
168.40230237529
 21
-146.88554562989
 31
0
  0
LINE
  8
1
 62
2
 10
166.7356357086233
 20
-148.91679562989
 30
0
 11
167.7078579308455
 21
-147.82304562989
 31
0
  0
LINE
  8
1
 62
2
 10
166.1800801530678
 20
-149.38554562989
 30
0
 11
166.7356357086233
 21
-148.91679562989
 31
0
  0
LINE
  8
1
 62
2
 10
169.0967468197344
 20
-151.10429562989
 30
0
 11
169.3745245975122
 21
-150.32304562989
 31
0
  0
LINE
  8
1
 62
2
 10
167.4300801530678
 20
-150.32304562989
 30
0
 11
167.7078579308455
 21
-151.10429562989
 31
0
  0
LINE
  8
1
 62
2
 10
169.7911912641789
 20
-149.69804562989
 30
0
 11
167.0134134864011
 21
-149.69804562989
 31
0
  0
LINE
  8
1
 62
2
 10
167.4300801530678
 20
-148.76054562989
 30
0
 11
168.40230237529
 21
-148.76054562989
 31
0
  0
LINE
  8
1
 62
2
 10
168.40230237529
 20
-151.72929562989
 30
0
 11
168.40230237529
 21
-148.76054562989
 31
0
  0
LINE
  8
1
 62
2
 10
166.5967468197344
 20
-151.72929562989
 30
0
 11
168.40230237529
 21
-151.72929562989
 31
0
  0
LINE
  8
1
 62
2
 10
164.65230237529
 20
-150.32304562989
 30
0
 11
165.3467468197344
 21
-149.38554562989
 31
0
  0
LINE
  8
1
 62
2
 10
163.5411912641789
 20
-150.94804562989
 30
0
 11
164.65230237529
 21
-150.32304562989
 31
0
  0
LINE
  8
1
 62
2
 10
163.5411912641789
 20
-148.13554562989
 30
0
 11
163.5411912641789
 21
-150.94804562989
 31
0
  0
LINE
  8
1
 62
2
 10
162.4300801530678
 20
-149.38554562989
 30
0
 11
162.5689690419567
 21
-148.13554562989
 31
0
  0
LINE
  8
1
 62
2
 10
162.15230237529
 20
-150.32304562989
 30
0
 11
162.4300801530678
 21
-149.38554562989
 31
0
  0
LINE
  8
1
 62
2
 10
161.7356357086233
 20
-151.10429562989
 30
0
 11
162.15230237529
 21
-150.32304562989
 31
0
  0
LINE
  8
1
 62
2
 10
157.0134134864011
 20
-149.85429562989
 30
0
 11
157.0134134864011
 21
-150.79179562989
 31
0
  0
LINE
  8
1
 62
2
 10
158.5411912641789
 20
-151.41679562989
 30
0
 11
159.3745245975122
 21
-151.26054562989
 31
0
  0
LINE
  8
1
 62
2
 10
157.15230237529
 20
-151.26054562989
 30
0
 11
158.5411912641789
 21
-151.41679562989
 31
0
  0
LINE
  8
1
 62
2
 10
157.0134134864011
 20
-150.79179562989
 30
0
 11
157.15230237529
 21
-151.26054562989
 31
0
  0
LINE
  8
1
 62
2
 10
157.0134134864011
 20
-148.13554562989
 30
0
 11
157.0134134864011
 21
-149.85429562989
 31
0
  0
LINE
  8
1
 62
2
 10
159.65230237529
 20
-147.82304562989
 30
0
 11
160.0689690419567
 21
-148.29179562989
 31
0
  0
LINE
  8
1
 62
2
 10
159.7911912641789
 20
-148.60429562989
 30
0
 11
159.3745245975122
 21
-148.13554562989
 31
0
  0
LINE
  8
1
 62
2
 10
158.2634134864011
 20
-149.38554562989
 30
0
 11
159.0967468197344
 21
-148.91679562989
 31
0
  0
LINE
  8
1
 62
2
 10
157.0134134864011
 20
-149.85429562989
 30
0
 11
158.2634134864011
 21
-149.38554562989
 31
0
  0
LINE
  8
1
 62
2
 10
153.9578579308455
 20
-150.32304562989
 30
0
 11
154.7911912641789
 21
-151.26054562989
 31
0
  0
LINE
  8
1
 62
2
 10
153.2634134864011
 20
-149.69804562989
 30
0
 11
153.9578579308455
 21
-150.32304562989
 31
0
  0
LINE
  8
1
 62
2
 10
154.9300801530678
 20
-147.51054562989
 30
0
 11
155.3467468197344
 21
-147.97929562989
 31
0
  0
LINE
  8
1
 62
2
 10
154.65230237529
 20
-147.82304562989
 30
0
 11
155.0689690419567
 21
-148.29179562989
 31
0
  0
LINE
  8
1
 62
2
 10
154.0967468197344
 20
-148.13554562989
 30
0
 11
152.2911912641789
 21
-148.13554562989
 31
0
  0
LINE
  8
1
 62
2
 10
153.6800801530678
 20
-149.07304562989
 30
0
 11
154.0967468197344
 21
-148.13554562989
 31
0
  0
LINE
  8
1
 62
2
 10
152.7078579308455
 20
-150.47929562989
 30
0
 11
153.6800801530678
 21
-149.07304562989
 31
0
  0
LINE
  8
1
 62
2
 10
151.7356357086233
 20
-151.26054562989
 30
0
 11
152.7078579308455
 21
-150.47929562989
 31
0
  0
LINE
  8
1
 62
2
 10
150.0689690419567
 20
-148.29179562989
 30
0
 11
148.8189690419567
 21
-149.69804562989
 31
0
  0
LINE
  8
1
 62
2
 10
146.8745245975122
 20
-148.29179562989
 30
0
 11
150.0689690419567
 21
-148.29179562989
 31
0
  0
LINE
  8
1
 62
2
 10
148.40230237529
 20
-149.69804562989
 30
0
 11
148.5411912641789
 21
-148.91679562989
 31
0
  0
LINE
  8
1
 62
2
 10
148.1245245975122
 20
-150.63554562989
 30
0
 11
148.40230237529
 21
-149.69804562989
 31
0
  0
LINE
  8
1
 62
2
 10
147.5689690419567
 20
-151.57304562989
 30
0
 11
148.1245245975122
 21
-150.63554562989
 31
0
  0
LINE
  8
1
 62
2
 10
76.85831528440144
 20
-40.06799038969529
 30
0
 11
74.10348598589084
 21
-41.50224506149804
 31
0
  0
LINE
  8
1
 62
2
 10
75.77211080558931
 20
-38.88272943096504
 30
0
 11
74.10348598589084
 21
-41.50224506149804
 31
0
  0
LINE
  8
1
 62
2
 10
112.1580436728818
 20
-6.628042301030892
 30
0
 11
74.10348598589084
 21
-41.50224506149804
 31
0
  0
LINE
  8
1
 62
2
 10
51.56161423499778
 20
-6.628042301030892
 30
0
 11
112.1580436728818
 21
-6.628042301030892
 31
0
  0
LINE
  8
1
 62
2
 10
129.4542072466983
 20
-76.37642250606376
 30
0
 11
130.8563897644872
 21
-73.60513127013647
 31
0
  0
LINE
  8
1
 62
2
 10
131.0277097013032
 20
-76.70623114062916
 30
0
 11
130.8563897644872
 21
-73.60513127013647
 31
0
  0
LINE
  8
1
 62
2
 10
121.1286932164408
 20
-120.0155426172302
 30
0
 11
130.8563897644872
 21
-73.60513127013647
 31
0
  0
LINE
  8
1
 62
2
 10
99.68030870044279
 20
-120.0155426172302
 30
0
 11
121.1286932164408
 21
-120.0155426172302
 31
0
  0
LINE
  8
1
 62
2
 10
119.3157916317126
 20
-75.02410133623616
 30
0
 11
121.7760538179946
 21
-73.12850620481399
 31
0
  0
LINE
  8
1
 62
2
 10
120.5932018304152
 20
-76.00027083705668
 30
0
 11
121.7760538179946
 21
-73.12850620481399
 31
0
  0
LINE
  8
1
 62
2
 10
90.80235635487369
 20
-113.6605213903562
 30
0
 11
121.7760538179946
 21
-73.12850620481399
 31
0
  0
LINE
  8
1
 62
2
 10
61.8056555987301
 20
-113.6605213903562
 30
0
 11
90.80235635487369
 21
-113.6605213903562
 31
0
  0
LINE
  8
1
 62
2
  6
DASHDOT
 10
136.1678622117088
 20
-69.47565210135934
 30
0
 11
158.0363107067914
 21
-69.4801790978988
 31
0
  0
LINE
  8
1
 62
2
  6
DASHDOT
 10
206.1034501970243
 20
-69.49012949626305
 30
0
 11
259.8189341558783
 21
-69.50124916074459
 31
0
  0
LINE
  8
1
 62
2
  6
DASHDOT
 10
259.8189341558783
 20
-69.50124916074459
 30
0
 11
312.4818152395617
 21
-69.51215092547095
 31
0
  0
LINE
  8
1
 62
2
  6
DASHDOT
 10
58.16116232597781
 20
-69.50224506149802
 30
0
 11
63.32441695796481
 21
-69.50224506149802
 31
0
  0
LINE
  8
1
 62
2
  6
DASHDOT
 10
181.9493152395617
 20
-119.7617683464798
 30
0
 11
181.9493152395617
 21
57.10565931304046
 31
0
  0
LINE
  8
1
 62
2
  6
DASHDOT
 10
55.14931523956184
 20
-69.45888041854622
 30
0
 11
113.649901993527
 21
-69.47099064913029
 31
0
  0
LINE
  8
1
 62
7
 10
194.1993152395618
 20
110.4866433274544
 30
0
 11
169.6993152395618
 21
110.4866433274544
 31
0
  0
LINE
  8
1
 62
7
 10
194.6993152395618
 20
103.9155755155889
 30
0
 11
194.6993152395618
 21
109.9866433274544
 31
0
  0
LINE
  8
1
 62
7
 10
169.6993152395618
 20
103.4155755155889
 30
0
 11
194.1993152395618
 21
103.4155755155889
 31
0
  0
LINE
  8
1
 62
7
 10
169.1993152395618
 20
109.9866433274544
 30
0
 11
169.1993152395618
 21
103.9155755155889
 31
0
  0
LINE
  8
0
 62
7
 10
188.2196601686498
 20
109.2845617994372
 30
0
 11
187.3969370465288
 21
104.6179792169753
 31
0
  0
LINE
  8
0
 62
7
 10
187.3969370465288
 20
104.6179792169753
 30
0
 11
188.4709767339727
 21
104.6179792169753
 31
0
  0
LINE
  8
0
 62
7
 10
188.4709767339727
 20
104.6179792169753
 30
0
 11
189.2938736301098
 21
109.2845617994372
 31
0
  0
LINE
  8
0
 62
7
 10
189.2938736301098
 20
109.2845617994372
 30
0
 11
188.2196601686498
 21
109.2845617994372
 31
0
  0
LINE
  8
0
 62
7
 10
176.3492116236907
 20
104.6179791909626
 30
0
 11
177.4419008820668
 21
104.6179792169753
 31
0
  0
LINE
  8
0
 62
7
 10
177.7113467688898
 20
106.3893268303945
 30
0
 11
177.7138689599169
 21
106.4014788388541
 31
0
  0
LINE
  8
0
 62
7
 10
175.9751660435967
 20
104.6217922391411
 30
0
 11
176.4604147167008
 21
105.5068420551198
 31
0
  0
LINE
  8
0
 62
7
 10
176.4604147167008
 20
105.5068420551198
 30
0
 11
176.4712300718217
 21
105.5068421221375
 31
0
  0
LINE
  8
0
 62
7
 10
183.0903992807977
 20
107.0263960151166
 30
0
 11
183.5280004734897
 21
109.2845617994372
 31
0
  0
LINE
  8
0
 62
7
 10
183.5280004734897
 20
109.2845617994372
 30
0
 11
182.4538913503417
 21
109.2845617994372
 31
0
  0
LINE
  8
0
 62
7
 10
182.4538913503417
 20
109.2845617994372
 30
0
 11
181.8111971267228
 21
105.9678085262968
 31
0
  0
LINE
  8
0
 62
7
 10
183.5451247584858
 20
107.7251864522075
 30
0
 11
183.0600666191637
 21
106.8401712867215
 31
0
  0
LINE
  8
0
 62
7
 10
183.0600666191637
 20
106.8401712867215
 30
0
 11
183.0484204789167
 21
106.8401712867215
 31
0
  0
LINE
  8
0
 62
7
 10
179.1906958885597
 20
106.0977191708364
 30
0
 11
178.4077269624738
 21
105.3075221734635
 31
0
  0
LINE
  8
0
 62
7
 10
178.4077269624738
 20
105.3075221734635
 30
0
 11
178.2861765123018
 21
104.6179792169753
 31
0
  0
LINE
  8
0
 62
7
 10
178.2861765123018
 20
104.6179792169753
 30
0
 11
180.9712587313347
 21
104.6179792169753
 31
0
  0
LINE
  8
0
 62
7
 10
180.9712587313347
 20
104.6179792169753
 30
0
 11
181.1279415787387
 21
105.5067727425847
 31
0
  0
LINE
  8
0
 62
7
 10
181.1279415787387
 20
105.5067727425847
 30
0
 11
179.8114940336247
 21
105.5067727425847
 31
0
  0
LINE
  8
0
 62
7
 10
179.8114940336247
 20
105.5067727425847
 30
0
 11
179.8176337657257
 21
105.5194686374782
 31
0
  0
LINE
  8
0
 62
7
 10
180.5675406028049
 20
106.2494215882808
 30
0
 11
181.3420285924687
 21
107.0624736265388
 31
0
  0
LINE
  8
0
 62
7
 10
181.3420285924687
 20
107.0624736265388
 30
0
 11
181.4712919046628
 21
107.7290342172078
 31
0
  0
LINE
  8
0
 62
7
 10
181.4712919046628
 20
107.7290342172078
 30
0
 11
178.8602005188838
 21
107.7290342172078
 31
0
  0
LINE
  8
0
 62
7
 10
178.8602005188838
 20
107.7290342172078
 30
0
 11
178.7035523276767
 21
106.8401019536582
 31
0
  0
LINE
  8
0
 62
7
 10
178.7035523276767
 20
106.8401019536582
 30
0
 11
179.9637743883627
 21
106.8401019536582
 31
0
  0
LINE
  8
0
 62
7
 10
179.9637743883627
 20
106.8401019536582
 30
0
 11
179.9512950165867
 21
106.8274844229863
 31
0
  0
LINE
  8
0
 62
7
 10
185.9187586170878
 20
107.0315530767705
 30
0
 11
185.4932538594787
 21
104.6179792169753
 31
0
  0
LINE
  8
0
 62
7
 10
185.4932538594787
 20
104.6179792169753
 30
0
 11
186.5673631879808
 21
104.6179792169753
 31
0
  0
LINE
  8
0
 62
7
 10
186.5673631879808
 20
104.6179792169753
 30
0
 11
187.0426806081088
 21
107.3139980637344
 31
0
  0
LINE
  8
1
 62
7
 10
194.1993152395618
 20
32.46523085852711
 30
0
 11
169.6993152395618
 21
32.46523085852711
 31
0
  0
LINE
  8
1
 62
7
 10
194.6993152395618
 20
25.8941630466618
 30
0
 11
194.6993152395618
 21
31.96523085852711
 31
0
  0
LINE
  8
1
 62
7
 10
169.6993152395618
 20
25.3941630466618
 30
0
 11
194.1993152395618
 21
25.3941630466618
 31
0
  0
LINE
  8
1
 62
7
 10
169.1993152395618
 20
31.96523085852711
 30
0
 11
169.1993152395618
 21
25.8941630466618
 31
0
  0
LINE
  8
0
 62
7
 10
188.2196601686497
 20
31.26314933051002
 30
0
 11
187.3969370465278
 21
26.59656674804812
 31
0
  0
LINE
  8
0
 62
7
 10
187.3969370465278
 20
26.59656674804812
 30
0
 11
188.4709767339717
 21
26.59656674804812
 31
0
  0
LINE
  8
0
 62
7
 10
188.4709767339717
 20
26.59656674804812
 30
0
 11
189.2938736301088
 21
31.26314933051002
 31
0
  0
LINE
  8
0
 62
7
 10
189.2938736301088
 20
31.26314933051002
 30
0
 11
188.2196601686497
 21
31.26314933051002
 31
0
  0
LINE
  8
0
 62
7
 10
176.3492116236909
 20
26.59656672203541
 30
0
 11
177.4419008820668
 21
26.59656674804812
 31
0
  0
LINE
  8
0
 62
7
 10
177.7113467688888
 20
28.36791436146741
 30
0
 11
177.7138689599168
 21
28.38006636992681
 31
0
  0
LINE
  8
0
 62
7
 10
175.9751660435958
 20
26.60037977021402
 30
0
 11
176.4604147167019
 21
27.48542958619261
 31
0
  0
LINE
  8
0
 62
7
 10
176.4604147167019
 20
27.48542958619261
 30
0
 11
176.4712300718228
 21
27.48542965321032
 31
0
  0
LINE
  8
0
 62
7
 10
183.0903992807968
 20
29.00498354618942
 30
0
 11
183.5280004734908
 21
31.26314933051002
 31
0
  0
LINE
  8
0
 62
7
 10
183.5280004734908
 20
31.26314933051002
 30
0
 11
182.4538913503428
 21
31.26314933051002
 31
0
  0
LINE
  8
0
 62
7
 10
182.4538913503428
 20
31.26314933051002
 30
0
 11
181.8111971267218
 21
27.9463960573696
 31
0
  0
LINE
  8
0
 62
7
 10
183.5451247584848
 20
29.7037739832803
 30
0
 11
183.0600666191627
 21
28.81875881779432
 31
0
  0
LINE
  8
0
 62
7
 10
183.0600666191627
 20
28.81875881779432
 30
0
 11
183.0484204789158
 21
28.81875881779432
 31
0
  0
LINE
  8
0
 62
7
 10
179.1906958885589
 20
28.07630670190922
 30
0
 11
178.4077269624728
 21
27.28610970453632
 31
0
  0
LINE
  8
0
 62
7
 10
178.4077269624728
 20
27.28610970453632
 30
0
 11
178.286176512302
 21
26.59656674804812
 31
0
  0
LINE
  8
0
 62
7
 10
178.286176512302
 20
26.59656674804812
 30
0
 11
180.9712587313348
 21
26.59656674804812
 31
0
  0
LINE
  8
0
 62
7
 10
180.9712587313348
 20
26.59656674804812
 30
0
 11
181.1279415787388
 21
27.48536027365752
 31
0
  0
LINE
  8
0
 62
7
 10
181.1279415787388
 20
27.48536027365752
 30
0
 11
179.8114940336249
 21
27.48536027365752
 31
0
  0
LINE
  8
0
 62
7
 10
179.8114940336249
 20
27.48536027365752
 30
0
 11
179.8176337657247
 21
27.498056168551
 31
0
  0
LINE
  8
0
 62
7
 10
180.5675406028048
 20
28.22800911935362
 30
0
 11
181.3420285924698
 21
29.04106115761171
 31
0
  0
LINE
  8
0
 62
7
 10
181.3420285924698
 20
29.04106115761171
 30
0
 11
181.4712919046618
 21
29.70762174828072
 31
0
  0
LINE
  8
0
 62
7
 10
181.4712919046618
 20
29.70762174828072
 30
0
 11
178.8602005188828
 21
29.70762174828072
 31
0
  0
LINE
  8
0
 62
7
 10
178.8602005188828
 20
29.70762174828072
 30
0
 11
178.7035523276769
 21
28.81868948473102
 31
0
  0
LINE
  8
0
 62
7
 10
178.7035523276769
 20
28.81868948473102
 30
0
 11
179.9637743883619
 21
28.81868948473102
 31
0
  0
LINE
  8
0
 62
7
 10
179.9637743883619
 20
28.81868948473102
 30
0
 11
179.9512950165869
 21
28.80607195405911
 31
0
  0
LINE
  8
0
 62
7
 10
185.9187586170878
 20
29.0101406078433
 30
0
 11
185.4932538594798
 21
26.59656674804812
 31
0
  0
LINE
  8
0
 62
7
 10
185.4932538594798
 20
26.59656674804812
 30
0
 11
186.5673631879798
 21
26.59656674804812
 31
0
  0
LINE
  8
0
 62
7
 10
186.5673631879798
 20
26.59656674804812
 30
0
 11
187.0426806081078
 21
29.29258559480731
 31
0
  0
LINE
  8
1
 62
7
 10
177.9493152395617
 20
-12.4974615698907
 30
0
 11
177.9493152395617
 21
-26.4974615698907
 31
0
  0
LINE
  8
1
 62
7
 10
184.9493152395617
 20
-11.4974615698907
 30
0
 11
178.9493152395617
 21
-11.4974615698907
 31
0
  0
LINE
  8
1
 62
7
 10
185.9493152395617
 20
-26.4974615698907
 30
0
 11
185.9493152395617
 21
-12.4974615698907
 31
0
  0
LINE
  8
1
 62
7
 10
178.9493152395617
 20
-27.4974615698907
 30
0
 11
184.9493152395617
 21
-27.4974615698907
 31
0
  0
LINE
  8
1
 62
7
 10
226.4493152395617
 20
-6.49746156989093
 30
0
 11
137.4493152395617
 21
-6.49746156989093
 31
0
  0
LINE
  8
1
 62
7
 10
223.3668152395617
 20
-28.4974615698907
 30
0
 11
140.5318152395617
 21
-28.4974615698907
 31
0
  0
LINE
  8
1
 62
7
 10
136.4493152395617
 20
-28.4974615698907
 30
0
 11
135.4493152395617
 21
-27.4974615698907
 31
0
  0
LINE
  8
1
 62
7
 10
135.4493152395617
 20
-27.4974615698907
 30
0
 11
128.9493152395617
 21
-27.4974615698907
 31
0
  0
LINE
  8
1
 62
7
 10
127.9493152395617
 20
-26.4974615698907
 30
0
 11
127.9493152395617
 21
-12.4974615698907
 31
0
  0
LINE
  8
1
 62
7
 10
135.4493152395617
 20
-27.4974615698907
 30
0
 11
135.4493152395617
 21
-11.4974615698907
 31
0
  0
LINE
  8
1
 62
7
 10
128.9493152395617
 20
-11.4974615698907
 30
0
 11
135.4493152395617
 21
-11.4974615698907
 31
0
  0
LINE
  8
1
 62
7
 10
136.4493152395617
 20
-28.4974615698907
 30
0
 11
140.5318152395617
 21
-28.4974615698907
 31
0
  0
LINE
  8
1
 62
7
 10
135.4493152395617
 20
-11.4974615698907
 30
0
 11
135.4493152395617
 21
-8.497461569890703
 31
0
  0
LINE
  8
1
 62
7
 10
228.4493152395617
 20
-27.4974615698907
 30
0
 11
227.4493152395617
 21
-28.4974615698907
 31
0
  0
LINE
  8
1
 62
7
 10
234.9493152395616
 20
-27.4974615698907
 30
0
 11
228.4493152395617
 21
-27.4974615698907
 31
0
  0
LINE
  8
1
 62
7
 10
235.9493152395617
 20
-12.4974615698907
 30
0
 11
235.9493152395616
 21
-26.4974615698907
 31
0
  0
LINE
  8
1
 62
7
 10
228.4493152395617
 20
-11.4974615698907
 30
0
 11
228.4493152395617
 21
-27.4974615698907
 31
0
  0
LINE
  8
1
 62
7
 10
228.4493152395617
 20
-11.4974615698907
 30
0
 11
234.9493152395616
 21
-11.4974615698907
 31
0
  0
LINE
  8
1
 62
7
 10
227.4493152395617
 20
-28.4974615698907
 30
0
 11
223.3668152395617
 21
-28.4974615698907
 31
0
  0
LINE
  8
1
 62
7
 10
228.4493152395617
 20
-8.497461569890703
 30
0
 11
228.4493152395617
 21
-11.4974615698907
 31
0
  0
LINE
  8
1
 62
7
 10
184.7085238876356
 20
49.50319826008447
 30
0
 11
184.7085238876356
 21
49.32038576008441
 31
0
  0
LINE
  8
1
 62
7
 10
184.7897738876356
 20
49.50319826008447
 30
0
 11
184.7085238876356
 21
49.50319826008447
 31
0
  0
LINE
  8
1
 62
7
 10
184.8710238876358
 20
49.52351076008441
 30
0
 11
184.7897738876356
 21
49.50319826008447
 31
0
  0
LINE
  8
1
 62
7
 10
184.9319613876357
 20
49.56413576008438
 30
0
 11
184.8710238876358
 21
49.52351076008441
 31
0
  0
LINE
  8
1
 62
7
 10
184.9725863876358
 20
49.62507326008441
 30
0
 11
184.9319613876357
 21
49.56413576008438
 31
0
  0
LINE
  8
1
 62
7
 10
184.9928988876356
 20
49.68601076008443
 30
0
 11
184.9725863876358
 21
49.62507326008441
 31
0
  0
LINE
  8
1
 62
7
 10
184.9928988876356
 20
49.76726076008438
 30
0
 11
184.9928988876356
 21
49.68601076008443
 31
0
  0
LINE
  8
1
 62
7
 10
184.9725863876358
 20
49.82819826008441
 30
0
 11
184.9928988876356
 21
49.76726076008438
 31
0
  0
LINE
  8
1
 62
7
 10
184.9319613876357
 20
49.88913576008443
 30
0
 11
184.9725863876358
 21
49.82819826008441
 31
0
  0
LINE
  8
1
 62
7
 10
184.8710238876358
 20
49.92976076008441
 30
0
 11
184.9319613876357
 21
49.88913576008443
 31
0
  0
LINE
  8
1
 62
7
 10
184.7897738876356
 20
49.95007326008434
 30
0
 11
184.8710238876358
 21
49.92976076008441
 31
0
  0
LINE
  8
1
 62
7
 10
184.7085238876356
 20
49.95007326008434
 30
0
 11
184.7897738876356
 21
49.95007326008434
 31
0
  0
LINE
  8
1
 62
7
 10
184.6272738876357
 20
49.92976076008441
 30
0
 11
184.7085238876356
 21
49.95007326008434
 31
0
  0
LINE
  8
1
 62
7
 10
184.5663363876358
 20
49.88913576008443
 30
0
 11
184.6272738876357
 21
49.92976076008441
 31
0
  0
LINE
  8
1
 62
7
 10
184.5257113876357
 20
49.82819826008441
 30
0
 11
184.5663363876358
 21
49.88913576008443
 31
0
  0
LINE
  8
1
 62
7
 10
184.5053988876356
 20
49.76726076008438
 30
0
 11
184.5257113876357
 21
49.82819826008441
 31
0
  0
LINE
  8
1
 62
7
 10
184.5053988876356
 20
49.68601076008443
 30
0
 11
184.5053988876356
 21
49.76726076008438
 31
0
  0
LINE
  8
1
 62
7
 10
184.2819613876356
 20
49.68601076008443
 30
0
 11
184.5053988876356
 21
49.68601076008443
 31
0
  0
LINE
  8
1
 62
7
 10
184.2819613876356
 20
49.76726076008438
 30
0
 11
184.2819613876356
 21
49.68601076008443
 31
0
  0
LINE
  8
1
 62
7
 10
184.3022738876356
 20
49.86882326008438
 30
0
 11
184.2819613876356
 21
49.76726076008438
 31
0
  0
LINE
  8
1
 62
7
 10
184.3835238876356
 20
49.99069826008443
 30
0
 11
184.3022738876356
 21
49.86882326008438
 31
0
  0
LINE
  8
1
 62
7
 10
184.4647738876358
 20
50.07194826008438
 30
0
 11
184.3835238876356
 21
49.99069826008443
 31
0
  0
LINE
  8
1
 62
7
 10
184.5866488876356
 20
50.13288576008441
 30
0
 11
184.4647738876358
 21
50.07194826008438
 31
0
  0
LINE
  8
1
 62
7
 10
184.6882113876356
 20
50.15319826008434
 30
0
 11
184.5866488876356
 21
50.13288576008441
 31
0
  0
LINE
  8
1
 62
7
 10
184.8100863876356
 20
50.15319826008434
 30
0
 11
184.6882113876356
 21
50.15319826008434
 31
0
  0
LINE
  8
1
 62
7
 10
184.9116488876356
 20
50.13288576008441
 30
0
 11
184.8100863876356
 21
50.15319826008434
 31
0
  0
LINE
  8
1
 62
7
 10
185.0335238876357
 20
50.07194826008438
 30
0
 11
184.9116488876356
 21
50.13288576008441
 31
0
  0
LINE
  8
1
 62
7
 10
185.1147738876356
 20
49.99069826008443
 30
0
 11
185.0335238876357
 21
50.07194826008438
 31
0
  0
LINE
  8
1
 62
7
 10
185.1960238876356
 20
49.86882326008438
 30
0
 11
185.1147738876356
 21
49.99069826008443
 31
0
  0
LINE
  8
1
 62
7
 10
185.2163363876356
 20
49.76726076008438
 30
0
 11
185.1960238876356
 21
49.86882326008438
 31
0
  0
LINE
  8
1
 62
7
 10
185.2163363876356
 20
49.68601076008443
 30
0
 11
185.2163363876356
 21
49.76726076008438
 31
0
  0
LINE
  8
1
 62
7
 10
185.1960238876356
 20
49.58444826008443
 30
0
 11
185.2163363876356
 21
49.68601076008443
 31
0
  0
LINE
  8
1
 62
7
 10
185.1147738876356
 20
49.46257326008438
 30
0
 11
185.1960238876356
 21
49.58444826008443
 31
0
  0
LINE
  8
1
 62
7
 10
185.0741488876358
 20
49.42194826008441
 30
0
 11
185.1147738876356
 21
49.46257326008438
 31
0
  0
LINE
  8
1
 62
7
 10
185.1757113876358
 20
49.34069826008434
 30
0
 11
185.0741488876358
 21
49.42194826008441
 31
0
  0
LINE
  8
1
 62
7
 10
185.2569613876346
 20
49.21882326008441
 30
0
 11
185.1757113876358
 21
49.34069826008434
 31
0
  0
LINE
  8
1
 62
7
 10
185.2975863876356
 20
49.07663576008443
 30
0
 11
185.2569613876346
 21
49.21882326008441
 31
0
  0
LINE
  8
1
 62
7
 10
185.2975863876356
 20
48.97507326008443
 30
0
 11
185.2975863876356
 21
49.07663576008443
 31
0
  0
LINE
  8
1
 62
7
 10
185.2569613876346
 20
48.83288576008434
 30
0
 11
185.2975863876356
 21
48.97507326008443
 31
0
  0
LINE
  8
1
 62
7
 10
185.1960238876356
 20
48.73132326008434
 30
0
 11
185.2569613876346
 21
48.83288576008434
 31
0
  0
LINE
  8
1
 62
7
 10
185.0944613876356
 20
48.62976076008434
 30
0
 11
185.1960238876356
 21
48.73132326008434
 31
0
  0
LINE
  8
1
 62
7
 10
184.9725863876358
 20
48.56882326008443
 30
0
 11
185.0944613876356
 21
48.62976076008434
 31
0
  0
LINE
  8
1
 62
7
 10
184.8100863876356
 20
48.52819826008434
 30
0
 11
184.9725863876358
 21
48.56882326008443
 31
0
  0
LINE
  8
1
 62
7
 10
184.6882113876356
 20
48.52819826008434
 30
0
 11
184.8100863876356
 21
48.52819826008434
 31
0
  0
LINE
  8
1
 62
7
 10
184.5257113876357
 20
48.56882326008443
 30
0
 11
184.6882113876356
 21
48.52819826008434
 31
0
  0
LINE
  8
1
 62
7
 10
184.4038363876356
 20
48.62976076008434
 30
0
 11
184.5257113876357
 21
48.56882326008443
 31
0
  0
LINE
  8
1
 62
7
 10
184.3022738876356
 20
48.73132326008434
 30
0
 11
184.4038363876356
 21
48.62976076008434
 31
0
  0
LINE
  8
1
 62
7
 10
184.2413363876346
 20
48.83288576008434
 30
0
 11
184.3022738876356
 21
48.73132326008434
 31
0
  0
LINE
  8
1
 62
7
 10
184.2007113876356
 20
48.97507326008443
 30
0
 11
184.2413363876346
 21
48.83288576008434
 31
0
  0
LINE
  8
1
 62
7
 10
184.2007113876356
 20
49.07663576008443
 30
0
 11
184.2007113876356
 21
48.97507326008443
 31
0
  0
LINE
  8
1
 62
7
 10
184.4444613876346
 20
49.07663576008443
 30
0
 11
184.2007113876356
 21
49.07663576008443
 31
0
  0
LINE
  8
1
 62
7
 10
184.4444613876346
 20
48.99538576008447
 30
0
 11
184.4444613876346
 21
49.07663576008443
 31
0
  0
LINE
  8
1
 62
7
 10
184.4647738876358
 20
48.91413576008441
 30
0
 11
184.4444613876346
 21
48.99538576008447
 31
0
  0
LINE
  8
1
 62
7
 10
184.5257113876357
 20
48.83288576008434
 30
0
 11
184.4647738876358
 21
48.91413576008441
 31
0
  0
LINE
  8
1
 62
7
 10
184.6069613876356
 20
48.77194826008443
 30
0
 11
184.5257113876357
 21
48.83288576008434
 31
0
  0
LINE
  8
1
 62
7
 10
184.7085238876356
 20
48.75163576008438
 30
0
 11
184.6069613876356
 21
48.77194826008443
 31
0
  0
LINE
  8
1
 62
7
 10
184.7897738876356
 20
48.75163576008438
 30
0
 11
184.7085238876356
 21
48.75163576008438
 31
0
  0
LINE
  8
1
 62
7
 10
184.8913363876356
 20
48.77194826008443
 30
0
 11
184.7897738876356
 21
48.75163576008438
 31
0
  0
LINE
  8
1
 62
7
 10
184.9725863876358
 20
48.83288576008434
 30
0
 11
184.8913363876356
 21
48.77194826008443
 31
0
  0
LINE
  8
1
 62
7
 10
185.0335238876357
 20
48.91413576008441
 30
0
 11
184.9725863876358
 21
48.83288576008434
 31
0
  0
LINE
  8
1
 62
7
 10
185.0538363876346
 20
48.99538576008447
 30
0
 11
185.0335238876357
 21
48.91413576008441
 31
0
  0
LINE
  8
1
 62
7
 10
185.0538363876346
 20
49.07663576008443
 30
0
 11
185.0538363876346
 21
48.99538576008447
 31
0
  0
LINE
  8
1
 62
7
 10
185.0335238876357
 20
49.15788576008438
 30
0
 11
185.0538363876346
 21
49.07663576008443
 31
0
  0
LINE
  8
1
 62
7
 10
184.9725863876358
 20
49.23913576008434
 30
0
 11
185.0335238876357
 21
49.15788576008438
 31
0
  0
LINE
  8
1
 62
7
 10
184.8913363876356
 20
49.30007326008447
 30
0
 11
184.9725863876358
 21
49.23913576008434
 31
0
  0
LINE
  8
1
 62
7
 10
184.7897738876356
 20
49.32038576008441
 30
0
 11
184.8913363876356
 21
49.30007326008447
 31
0
  0
LINE
  8
1
 62
7
 10
184.7085238876356
 20
49.32038576008441
 30
0
 11
184.7897738876356
 21
49.32038576008441
 31
0
  0
LINE
  8
1
 62
7
 10
208.7500127024787
 20
47.66744919809563
 30
0
 11
206.8122002024788
 21
47.66744919809563
 31
0
  0
LINE
  8
1
 62
7
 10
208.7500127024787
 20
47.94869919809563
 30
0
 11
208.7500127024787
 21
47.66744919809563
 31
0
  0
LINE
  8
1
 62
7
 10
207.2143877024786
 20
47.94869919809563
 30
0
 11
208.7500127024787
 21
47.94869919809563
 31
0
  0
LINE
  8
1
 62
7
 10
207.2143877024786
 20
49.91744919809563
 30
0
 11
207.2143877024786
 21
47.94869919809563
 31
0
  0
LINE
  8
1
 62
7
 10
206.8122002024788
 20
49.91744919809563
 30
0
 11
207.2143877024786
 21
49.91744919809563
 31
0
  0
LINE
  8
1
 62
7
 10
206.8122002024788
 20
47.66744919809563
 30
0
 11
206.8122002024788
 21
49.91744919809563
 31
0
  0
LINE
  8
1
 62
7
 10
207.9083502617727
 20
43.05244225585867
 30
0
 11
207.9083502617727
 21
44.62111602291637
 31
0
  0
LINE
  8
1
 62
7
 10
206.6349562626317
 20
43.05244225585867
 30
0
 11
207.9083502617727
 21
43.05244225585867
 31
0
  0
LINE
  8
1
 62
7
 10
207.9083502617727
 20
44.62111602291637
 30
0
 11
206.6349562626317
 21
43.05244225585867
 31
0
  0
LINE
  8
1
 62
7
 10
206.0259417413038
 20
43.09857971959562
 30
0
 11
207.9083502617727
 21
45.45159037018223
 31
0
  0
LINE
  8
1
 62
7
 10
206.0259417413038
 20
42.59106761848867
 30
0
 11
206.0259417413038
 21
43.09857971959562
 31
0
  0
LINE
  8
1
 62
7
 10
207.9083502617727
 20
42.59106761848867
 30
0
 11
206.0259417413038
 21
42.59106761848867
 31
0
  0
LINE
  8
1
 62
7
 10
207.9083502617727
 20
41.76059327122269
 30
0
 11
207.9083502617727
 21
42.59106761848867
 31
0
  0
LINE
  8
1
 62
7
 10
208.5173647831018
 20
41.76059327122269
 30
0
 11
207.9083502617727
 21
41.76059327122269
 31
0
  0
LINE
  8
1
 62
7
 10
208.5173647831018
 20
42.59106761848867
 30
0
 11
208.5173647831018
 21
41.76059327122269
 31
0
  0
LINE
  8
1
 62
7
 10
209.0710143479448
 20
42.59106761848867
 30
0
 11
208.5173647831018
 21
42.59106761848867
 31
0
  0
LINE
  8
1
 62
7
 10
209.0710143479448
 20
43.05244225585867
 30
0
 11
209.0710143479448
 21
42.59106761848867
 31
0
  0
LINE
  8
1
 62
7
 10
208.5173647831018
 20
43.05244225585867
 30
0
 11
209.0710143479448
 21
43.05244225585867
 31
0
  0
LINE
  8
1
 62
7
 10
208.5173647831018
 20
45.45159037018223
 30
0
 11
208.5173647831018
 21
43.05244225585867
 31
0
  0
LINE
  8
1
 62
7
 10
207.9083502617727
 20
45.45159037018223
 30
0
 11
208.5173647831018
 21
45.45159037018223
 31
0
  0
LINE
  8
1
 62
7
 10
199.5929052308426
 20
43.97519153059844
 30
0
 11
199.5929052308426
 21
43.55995435696551
 31
0
  0
LINE
  8
1
 62
7
 10
199.8143650567797
 20
43.97519153059844
 30
0
 11
199.5929052308426
 21
43.97519153059844
 31
0
  0
LINE
  8
1
 62
7
 10
200.0358248827176
 20
44.02132899433539
 30
0
 11
199.8143650567797
 21
43.97519153059844
 31
0
  0
LINE
  8
1
 62
7
 10
200.2019197521718
 20
44.11360392180953
 30
0
 11
200.0358248827176
 21
44.02132899433539
 31
0
  0
LINE
  8
1
 62
7
 10
200.3126496651407
 20
44.25201631302028
 30
0
 11
200.2019197521718
 21
44.11360392180953
 31
0
  0
LINE
  8
1
 62
7
 10
200.3680146216236
 20
44.39042870423148
 30
0
 11
200.3126496651407
 21
44.25201631302028
 31
0
  0
LINE
  8
1
 62
7
 10
200.3680146216236
 20
44.57497855917941
 30
0
 11
200.3680146216236
 21
44.39042870423148
 31
0
  0
LINE
  8
1
 62
7
 10
200.3126496651407
 20
44.71339095039028
 30
0
 11
200.3680146216236
 21
44.57497855917941
 31
0
  0
LINE
  8
1
 62
7
 10
200.2019197521718
 20
44.85180334160148
 30
0
 11
200.3126496651407
 21
44.71339095039028
 31
0
  0
LINE
  8
1
 62
7
 10
200.0358248827176
 20
44.94407826907516
 30
0
 11
200.2019197521718
 21
44.85180334160148
 31
0
  0
LINE
  8
1
 62
7
 10
199.8143650567797
 20
44.99021573281246
 30
0
 11
200.0358248827176
 21
44.94407826907516
 31
0
  0
LINE
  8
1
 62
7
 10
199.5929052308426
 20
44.99021573281246
 30
0
 11
199.8143650567797
 21
44.99021573281246
 31
0
  0
LINE
  8
1
 62
7
 10
199.3714454049057
 20
44.94407826907516
 30
0
 11
199.5929052308426
 21
44.99021573281246
 31
0
  0
LINE
  8
1
 62
7
 10
199.2053505354527
 20
44.85180334160148
 30
0
 11
199.3714454049057
 21
44.94407826907516
 31
0
  0
LINE
  8
1
 62
7
 10
199.0946206224837
 20
44.71339095039028
 30
0
 11
199.2053505354527
 21
44.85180334160148
 31
0
  0
LINE
  8
1
 62
7
 10
199.0392556659988
 20
44.57497855917941
 30
0
 11
199.0946206224837
 21
44.71339095039028
 31
0
  0
LINE
  8
1
 62
7
 10
199.0392556659988
 20
44.39042870423148
 30
0
 11
199.0392556659988
 21
44.57497855917941
 31
0
  0
LINE
  8
1
 62
7
 10
198.4302411446706
 20
44.39042870423148
 30
0
 11
199.0392556659988
 21
44.39042870423148
 31
0
  0
LINE
  8
1
 62
7
 10
198.4302411446706
 20
44.57497855917941
 30
0
 11
198.4302411446706
 21
44.39042870423148
 31
0
  0
LINE
  8
1
 62
7
 10
198.4856061011558
 20
44.80566587786441
 30
0
 11
198.4302411446706
 21
44.57497855917941
 31
0
  0
LINE
  8
1
 62
7
 10
198.7070659270927
 20
45.08249066028637
 30
0
 11
198.4856061011558
 21
44.80566587786441
 31
0
  0
LINE
  8
1
 62
7
 10
198.9285257530307
 20
45.26704051523419
 30
0
 11
198.7070659270927
 21
45.08249066028637
 31
0
  0
LINE
  8
1
 62
7
 10
199.2607154919367
 20
45.40545290644516
 30
0
 11
198.9285257530307
 21
45.26704051523419
 31
0
  0
LINE
  8
1
 62
7
 10
199.5375402743587
 20
45.45159037018223
 30
0
 11
199.2607154919367
 21
45.40545290644516
 31
0
  0
LINE
  8
1
 62
7
 10
199.8697300132646
 20
45.45159037018223
 30
0
 11
199.5375402743587
 21
45.45159037018223
 31
0
  0
LINE
  8
1
 62
7
 10
200.1465547956856
 20
45.40545290644516
 30
0
 11
199.8697300132646
 21
45.45159037018223
 31
0
  0
LINE
  8
1
 62
7
 10
200.4787445345937
 20
45.26704051523419
 30
0
 11
200.1465547956856
 21
45.40545290644516
 31
0
  0
LINE
  8
1
 62
7
 10
200.7002043605307
 20
45.08249066028637
 30
0
 11
200.4787445345937
 21
45.26704051523419
 31
0
  0
LINE
  8
1
 62
7
 10
200.9216641864687
 20
44.80566587786441
 30
0
 11
200.7002043605307
 21
45.08249066028637
 31
0
  0
LINE
  8
1
 62
7
 10
200.9770291429526
 20
44.57497855917941
 30
0
 11
200.9216641864687
 21
44.80566587786441
 31
0
  0
LINE
  8
1
 62
7
 10
200.9770291429526
 20
44.39042870423148
 30
0
 11
200.9770291429526
 21
44.57497855917941
 31
0
  0
LINE
  8
1
 62
7
 10
200.9216641864687
 20
44.15974138554637
 30
0
 11
200.9770291429526
 21
44.39042870423148
 31
0
  0
LINE
  8
1
 62
7
 10
200.7002043605307
 20
43.88291660312453
 30
0
 11
200.9216641864687
 21
44.15974138554637
 31
0
  0
LINE
  8
1
 62
7
 10
200.5894744475606
 20
43.79064167565051
 30
0
 11
200.7002043605307
 21
43.88291660312453
 31
0
  0
LINE
  8
1
 62
7
 10
200.8662992299846
 20
43.60609182070246
 30
0
 11
200.5894744475606
 21
43.79064167565051
 31
0
  0
LINE
  8
1
 62
7
 10
201.0877590559216
 20
43.32926703828051
 30
0
 11
200.8662992299846
 21
43.60609182070246
 31
0
  0
LINE
  8
1
 62
7
 10
201.1984889688906
 20
43.00630479212148
 30
0
 11
201.0877590559216
 21
43.32926703828051
 31
0
  0
LINE
  8
1
 62
7
 10
201.1984889688906
 20
42.77561747343648
 30
0
 11
201.1984889688906
 21
43.00630479212148
 31
0
  0
LINE
  8
1
 62
7
 10
201.0877590559216
 20
42.45265522727758
 30
0
 11
201.1984889688906
 21
42.77561747343648
 31
0
  0
LINE
  8
1
 62
7
 10
200.9216641864687
 20
42.22196790859269
 30
0
 11
201.0877590559216
 21
42.45265522727758
 31
0
  0
LINE
  8
1
 62
7
 10
200.6448394040467
 20
41.99128058990758
 30
0
 11
200.9216641864687
 21
42.22196790859269
 31
0
  0
LINE
  8
1
 62
7
 10
200.3126496651407
 20
41.85286819869671
 30
0
 11
200.6448394040467
 21
41.99128058990758
 31
0
  0
LINE
  8
1
 62
7
 10
199.8697300132646
 20
41.76059327122269
 30
0
 11
200.3126496651407
 21
41.85286819869671
 31
0
  0
LINE
  8
1
 62
7
 10
199.5375402743587
 20
41.76059327122269
 30
0
 11
199.8697300132646
 21
41.76059327122269
 31
0
  0
LINE
  8
1
 62
7
 10
199.0946206224837
 20
41.85286819869671
 30
0
 11
199.5375402743587
 21
41.76059327122269
 31
0
  0
LINE
  8
1
 62
7
 10
198.7624308835777
 20
41.99128058990758
 30
0
 11
199.0946206224837
 21
41.85286819869671
 31
0
  0
LINE
  8
1
 62
7
 10
198.4856061011558
 20
42.22196790859269
 30
0
 11
198.7624308835777
 21
41.99128058990758
 31
0
  0
LINE
  8
1
 62
7
 10
198.3195112317027
 20
42.45265522727758
 30
0
 11
198.4856061011558
 21
42.22196790859269
 31
0
  0
LINE
  8
1
 62
7
 10
198.2087813187338
 20
42.77561747343648
 30
0
 11
198.3195112317027
 21
42.45265522727758
 31
0
  0
LINE
  8
1
 62
7
 10
198.2087813187338
 20
43.00630479212148
 30
0
 11
198.2087813187338
 21
42.77561747343648
 31
0
  0
LINE
  8
1
 62
7
 10
198.8731607965457
 20
43.00630479212148
 30
0
 11
198.2087813187338
 21
43.00630479212148
 31
0
  0
LINE
  8
1
 62
7
 10
198.8731607965457
 20
42.82175493717367
 30
0
 11
198.8731607965457
 21
43.00630479212148
 31
0
  0
LINE
  8
1
 62
7
 10
198.9285257530307
 20
42.63720508222562
 30
0
 11
198.8731607965457
 21
42.82175493717367
 31
0
  0
LINE
  8
1
 62
7
 10
199.0946206224837
 20
42.45265522727758
 30
0
 11
198.9285257530307
 21
42.63720508222562
 31
0
  0
LINE
  8
1
 62
7
 10
199.3160804484216
 20
42.31424283606671
 30
0
 11
199.0946206224837
 21
42.45265522727758
 31
0
  0
LINE
  8
1
 62
7
 10
199.5929052308426
 20
42.26810537232976
 30
0
 11
199.3160804484216
 21
42.31424283606671
 31
0
  0
LINE
  8
1
 62
7
 10
199.8143650567797
 20
42.26810537232976
 30
0
 11
199.5929052308426
 21
42.26810537232976
 31
0
  0
LINE
  8
1
 62
7
 10
200.0911898392027
 20
42.31424283606671
 30
0
 11
199.8143650567797
 21
42.26810537232976
 31
0
  0
LINE
  8
1
 62
7
 10
200.3126496651407
 20
42.45265522727758
 30
0
 11
200.0911898392027
 21
42.31424283606671
 31
0
  0
LINE
  8
1
 62
7
 10
200.4787445345937
 20
42.63720508222562
 30
0
 11
200.3126496651407
 21
42.45265522727758
 31
0
  0
LINE
  8
1
 62
7
 10
200.5341094910777
 20
42.82175493717367
 30
0
 11
200.4787445345937
 21
42.63720508222562
 31
0
  0
LINE
  8
1
 62
7
 10
200.5341094910777
 20
43.00630479212148
 30
0
 11
200.5341094910777
 21
42.82175493717367
 31
0
  0
LINE
  8
1
 62
7
 10
200.4787445345937
 20
43.19085464706953
 30
0
 11
200.5341094910777
 21
43.00630479212148
 31
0
  0
LINE
  8
1
 62
7
 10
200.3126496651407
 20
43.37540450201757
 30
0
 11
200.4787445345937
 21
43.19085464706953
 31
0
  0
LINE
  8
1
 62
7
 10
200.0911898392027
 20
43.51381689322844
 30
0
 11
200.3126496651407
 21
43.37540450201757
 31
0
  0
LINE
  8
1
 62
7
 10
199.8143650567797
 20
43.55995435696551
 30
0
 11
200.0911898392027
 21
43.51381689322844
 31
0
  0
LINE
  8
1
 62
7
 10
199.5929052308426
 20
43.55995435696551
 30
0
 11
199.8143650567797
 21
43.55995435696551
 31
0
  0
LINE
  8
1
 62
7
 10
194.5458064906476
 20
41.76059327122269
 30
0
 11
191.6114637969747
 21
41.76059327122269
 31
0
  0
LINE
  8
1
 62
7
 10
194.5458064906476
 20
42.22196790859269
 30
0
 11
194.5458064906476
 21
41.76059327122269
 31
0
  0
LINE
  8
1
 62
7
 10
192.3865731877556
 20
42.22196790859269
 30
0
 11
194.5458064906476
 21
42.22196790859269
 31
0
  0
LINE
  8
1
 62
7
 10
192.4973031007257
 20
42.49879269101476
 30
0
 11
192.3865731877556
 21
42.22196790859269
 31
0
  0
LINE
  8
1
 62
7
 10
192.7741278831476
 20
42.82175493717367
 30
0
 11
192.4973031007257
 21
42.49879269101476
 31
0
  0
LINE
  8
1
 62
7
 10
193.1616825785388
 20
43.19085464706953
 30
0
 11
192.7741278831476
 21
42.82175493717367
 31
0
  0
LINE
  8
1
 62
7
 10
193.5492372739286
 20
43.46767942949148
 30
0
 11
193.1616825785388
 21
43.19085464706953
 31
0
  0
LINE
  8
1
 62
7
 10
193.9921569258046
 20
43.79064167565051
 30
0
 11
193.5492372739286
 21
43.46767942949148
 31
0
  0
LINE
  8
1
 62
7
 10
194.1028868387727
 20
43.88291660312453
 30
0
 11
193.9921569258046
 21
43.79064167565051
 31
0
  0
LINE
  8
1
 62
7
 10
194.3243466647107
 20
44.15974138554637
 30
0
 11
194.1028868387727
 21
43.88291660312453
 31
0
  0
LINE
  8
1
 62
7
 10
194.3797116211956
 20
44.39042870423148
 30
0
 11
194.3243466647107
 21
44.15974138554637
 31
0
  0
LINE
  8
1
 62
7
 10
194.3797116211956
 20
44.57497855917941
 30
0
 11
194.3797116211956
 21
44.39042870423148
 31
0
  0
LINE
  8
1
 62
7
 10
194.3243466647107
 20
44.80566587786441
 30
0
 11
194.3797116211956
 21
44.57497855917941
 31
0
  0
LINE
  8
1
 62
7
 10
194.1028868387727
 20
45.08249066028637
 30
0
 11
194.3243466647107
 21
44.80566587786441
 31
0
  0
LINE
  8
1
 62
7
 10
193.8814270128357
 20
45.26704051523419
 30
0
 11
194.1028868387727
 21
45.08249066028637
 31
0
  0
LINE
  8
1
 62
7
 10
193.5492372739286
 20
45.40545290644516
 30
0
 11
193.8814270128357
 21
45.26704051523419
 31
0
  0
LINE
  8
1
 62
7
 10
193.2724124915077
 20
45.45159037018223
 30
0
 11
193.5492372739286
 21
45.40545290644516
 31
0
  0
LINE
  8
1
 62
7
 10
192.9402227526007
 20
45.45159037018223
 30
0
 11
193.2724124915077
 21
45.45159037018223
 31
0
  0
LINE
  8
1
 62
7
 10
192.6633979701787
 20
45.40545290644516
 30
0
 11
192.9402227526007
 21
45.45159037018223
 31
0
  0
LINE
  8
1
 62
7
 10
192.3312082312727
 20
45.26704051523419
 30
0
 11
192.6633979701787
 21
45.40545290644516
 31
0
  0
LINE
  8
1
 62
7
 10
192.1097484053348
 20
45.08249066028637
 30
0
 11
192.3312082312727
 21
45.26704051523419
 31
0
  0
LINE
  8
1
 62
7
 10
191.8882885793977
 20
44.80566587786441
 30
0
 11
192.1097484053348
 21
45.08249066028637
 31
0
  0
LINE
  8
1
 62
7
 10
191.8329236229126
 20
44.57497855917941
 30
0
 11
191.8882885793977
 21
44.80566587786441
 31
0
  0
LINE
  8
1
 62
7
 10
191.8329236229126
 20
44.39042870423148
 30
0
 11
191.8329236229126
 21
44.57497855917941
 31
0
  0
LINE
  8
1
 62
7
 10
192.4419381442417
 20
44.39042870423148
 30
0
 11
191.8329236229126
 21
44.39042870423148
 31
0
  0
LINE
  8
1
 62
7
 10
192.4419381442417
 20
44.57497855917941
 30
0
 11
192.4419381442417
 21
44.39042870423148
 31
0
  0
LINE
  8
1
 62
7
 10
192.4973031007257
 20
44.71339095039028
 30
0
 11
192.4419381442417
 21
44.57497855917941
 31
0
  0
LINE
  8
1
 62
7
 10
192.6080330136946
 20
44.85180334160148
 30
0
 11
192.4973031007257
 21
44.71339095039028
 31
0
  0
LINE
  8
1
 62
7
 10
192.7741278831476
 20
44.94407826907516
 30
0
 11
192.6080330136946
 21
44.85180334160148
 31
0
  0
LINE
  8
1
 62
7
 10
192.9955877090856
 20
44.99021573281246
 30
0
 11
192.7741278831476
 21
44.94407826907516
 31
0
  0
LINE
  8
1
 62
7
 10
193.2170475350226
 20
44.99021573281246
 30
0
 11
192.9955877090856
 21
44.99021573281246
 31
0
  0
LINE
  8
1
 62
7
 10
193.4385073609607
 20
44.94407826907516
 30
0
 11
193.2170475350226
 21
44.99021573281246
 31
0
  0
LINE
  8
1
 62
7
 10
193.6046022304138
 20
44.85180334160148
 30
0
 11
193.4385073609607
 21
44.94407826907516
 31
0
  0
LINE
  8
1
 62
7
 10
193.7153321433827
 20
44.71339095039028
 30
0
 11
193.6046022304138
 21
44.85180334160148
 31
0
  0
LINE
  8
1
 62
7
 10
193.7706970998668
 20
44.57497855917941
 30
0
 11
193.7153321433827
 21
44.71339095039028
 31
0
  0
LINE
  8
1
 62
7
 10
193.7706970998668
 20
44.39042870423148
 30
0
 11
193.7706970998668
 21
44.57497855917941
 31
0
  0
LINE
  8
1
 62
7
 10
193.7153321433827
 20
44.25201631302028
 30
0
 11
193.7706970998668
 21
44.39042870423148
 31
0
  0
LINE
  8
1
 62
7
 10
193.6046022304138
 20
44.11360392180953
 30
0
 11
193.7153321433827
 21
44.25201631302028
 31
0
  0
LINE
  8
1
 62
7
 10
193.2170475350226
 20
43.79064167565051
 30
0
 11
193.6046022304138
 21
44.11360392180953
 31
0
  0
LINE
  8
1
 62
7
 10
192.8848577961166
 20
43.51381689322844
 30
0
 11
193.2170475350226
 21
43.79064167565051
 31
0
  0
LINE
  8
1
 62
7
 10
192.5526680572107
 20
43.28312957454367
 30
0
 11
192.8848577961166
 21
43.51381689322844
 31
0
  0
LINE
  8
1
 62
7
 10
192.2204783183038
 20
42.96016732838453
 30
0
 11
192.5526680572107
 21
43.28312957454367
 31
0
  0
LINE
  8
1
 62
7
 10
191.9436535358806
 20
42.68334254596269
 30
0
 11
192.2204783183038
 21
42.96016732838453
 31
0
  0
LINE
  8
1
 62
7
 10
191.7221937099437
 20
42.36038029980367
 30
0
 11
191.9436535358806
 21
42.68334254596269
 31
0
  0
LINE
  8
1
 62
7
 10
191.6114637969747
 20
42.03741805364476
 30
0
 11
191.7221937099437
 21
42.36038029980367
 31
0
  0
LINE
  8
1
 62
7
 10
191.6114637969747
 20
41.76059327122269
 30
0
 11
191.6114637969747
 21
42.03741805364476
 31
0
  0
LINE
  8
1
 62
7
 10
156.5750291827957
 20
41.89900566243367
 30
0
 11
156.7411240522476
 21
41.99128058990758
 31
0
  0
LINE
  8
1
 62
7
 10
156.2982044003726
 20
41.80673073495976
 30
0
 11
156.5750291827957
 21
41.89900566243367
 31
0
  0
LINE
  8
1
 62
7
 10
156.0767445744357
 20
41.76059327122269
 30
0
 11
156.2982044003726
 21
41.80673073495976
 31
0
  0
LINE
  8
1
 62
7
 10
155.6891898790457
 20
41.76059327122269
 30
0
 11
156.0767445744357
 21
41.76059327122269
 31
0
  0
LINE
  8
1
 62
7
 10
155.4677300531077
 20
41.80673073495976
 30
0
 11
155.6891898790457
 21
41.76059327122269
 31
0
  0
LINE
  8
1
 62
7
 10
155.1909052706857
 20
41.89900566243367
 30
0
 11
155.4677300531077
 21
41.80673073495976
 31
0
  0
LINE
  8
1
 62
7
 10
155.0248104012327
 20
41.99128058990758
 30
0
 11
155.1909052706857
 21
41.89900566243367
 31
0
  0
LINE
  8
1
 62
7
 10
154.8587155317798
 20
42.12969298111878
 30
0
 11
155.0248104012327
 21
41.99128058990758
 31
0
  0
LINE
  8
1
 62
7
 10
154.6926206623268
 20
42.31424283606671
 30
0
 11
154.8587155317798
 21
42.12969298111878
 31
0
  0
LINE
  8
1
 62
7
 10
154.5818907493576
 20
42.49879269101476
 30
0
 11
154.6926206623268
 21
42.31424283606671
 31
0
  0
LINE
  8
1
 62
7
 10
154.4711608363887
 20
42.72948000969953
 30
0
 11
154.5818907493576
 21
42.49879269101476
 31
0
  0
LINE
  8
1
 62
7
 10
154.4157958799046
 20
43.00630479212148
 30
0
 11
154.4711608363887
 21
42.72948000969953
 31
0
  0
LINE
  8
1
 62
7
 10
154.3604309234208
 20
43.42154196575453
 30
0
 11
154.4157958799046
 21
43.00630479212148
 31
0
  0
LINE
  8
1
 62
7
 10
154.3604309234208
 20
43.79064167565051
 30
0
 11
154.3604309234208
 21
43.42154196575453
 31
0
  0
LINE
  8
1
 62
7
 10
154.4157958799046
 20
44.20587884928344
 30
0
 11
154.3604309234208
 21
43.79064167565051
 31
0
  0
LINE
  8
1
 62
7
 10
154.4711608363887
 20
44.48270363170516
 30
0
 11
154.4157958799046
 21
44.20587884928344
 31
0
  0
LINE
  8
1
 62
7
 10
154.5818907493576
 20
44.71339095039028
 30
0
 11
154.4711608363887
 21
44.48270363170516
 31
0
  0
LINE
  8
1
 62
7
 10
154.6926206623268
 20
44.89794080533832
 30
0
 11
154.5818907493576
 21
44.71339095039028
 31
0
  0
LINE
  8
1
 62
7
 10
154.8587155317798
 20
45.08249066028637
 30
0
 11
154.6926206623268
 21
44.89794080533832
 31
0
  0
LINE
  8
1
 62
7
 10
155.0248104012327
 20
45.22090305149723
 30
0
 11
154.8587155317798
 21
45.08249066028637
 31
0
  0
LINE
  8
1
 62
7
 10
155.1909052706857
 20
45.31317797897137
 30
0
 11
155.0248104012327
 21
45.22090305149723
 31
0
  0
LINE
  8
1
 62
7
 10
155.4677300531077
 20
45.40545290644516
 30
0
 11
155.1909052706857
 21
45.31317797897137
 31
0
  0
LINE
  8
1
 62
7
 10
155.6891898790457
 20
45.45159037018223
 30
0
 11
155.4677300531077
 21
45.40545290644516
 31
0
  0
LINE
  8
1
 62
7
 10
156.0767445744357
 20
45.45159037018223
 30
0
 11
155.6891898790457
 21
45.45159037018223
 31
0
  0
LINE
  8
1
 62
7
 10
156.2982044003726
 20
45.40545290644516
 30
0
 11
156.0767445744357
 21
45.45159037018223
 31
0
  0
LINE
  8
1
 62
7
 10
156.5750291827957
 20
45.31317797897137
 30
0
 11
156.2982044003726
 21
45.40545290644516
 31
0
  0
LINE
  8
1
 62
7
 10
156.7411240522476
 20
45.22090305149723
 30
0
 11
156.5750291827957
 21
45.31317797897137
 31
0
  0
LINE
  8
1
 62
7
 10
156.9072189217018
 20
45.08249066028637
 30
0
 11
156.7411240522476
 21
45.22090305149723
 31
0
  0
LINE
  8
1
 62
7
 10
157.0733137911557
 20
44.89794080533832
 30
0
 11
156.9072189217018
 21
45.08249066028637
 31
0
  0
LINE
  8
1
 62
7
 10
157.1840437041246
 20
44.71339095039028
 30
0
 11
157.0733137911557
 21
44.89794080533832
 31
0
  0
LINE
  8
1
 62
7
 10
157.2947736170926
 20
44.48270363170516
 30
0
 11
157.1840437041246
 21
44.71339095039028
 31
0
  0
LINE
  8
1
 62
7
 10
157.3501385735776
 20
44.20587884928344
 30
0
 11
157.2947736170926
 21
44.48270363170516
 31
0
  0
LINE
  8
1
 62
7
 10
157.4055035300616
 20
43.79064167565051
 30
0
 11
157.3501385735776
 21
44.20587884928344
 31
0
  0
LINE
  8
1
 62
7
 10
157.4055035300616
 20
43.42154196575453
 30
0
 11
157.4055035300616
 21
43.79064167565051
 31
0
  0
LINE
  8
1
 62
7
 10
157.3501385735776
 20
43.00630479212148
 30
0
 11
157.4055035300616
 21
43.42154196575453
 31
0
  0
LINE
  8
1
 62
7
 10
157.2947736170926
 20
42.72948000969953
 30
0
 11
157.3501385735776
 21
43.00630479212148
 31
0
  0
LINE
  8
1
 62
7
 10
157.1840437041246
 20
42.49879269101476
 30
0
 11
157.2947736170926
 21
42.72948000969953
 31
0
  0
LINE
  8
1
 62
7
 10
157.0733137911557
 20
42.31424283606671
 30
0
 11
157.1840437041246
 21
42.49879269101476
 31
0
  0
LINE
  8
1
 62
7
 10
156.9072189217018
 20
42.12969298111878
 30
0
 11
157.0733137911557
 21
42.31424283606671
 31
0
  0
LINE
  8
1
 62
7
 10
156.7411240522476
 20
41.99128058990758
 30
0
 11
156.9072189217018
 21
42.12969298111878
 31
0
  0
LINE
  8
1
 62
7
 10
155.4677300531077
 20
42.31424283606671
 30
0
 11
155.6891898790457
 21
42.22196790859269
 31
0
  0
LINE
  8
1
 62
7
 10
155.2462702271707
 20
42.45265522727758
 30
0
 11
155.4677300531077
 21
42.31424283606671
 31
0
  0
LINE
  8
1
 62
7
 10
155.1355403142018
 20
42.59106761848867
 30
0
 11
155.2462702271707
 21
42.45265522727758
 31
0
  0
LINE
  8
1
 62
7
 10
155.0248104012327
 20
42.82175493717367
 30
0
 11
155.1355403142018
 21
42.59106761848867
 31
0
  0
LINE
  8
1
 62
7
 10
154.9694454447488
 20
43.32926703828051
 30
0
 11
155.0248104012327
 21
42.82175493717367
 31
0
  0
LINE
  8
1
 62
7
 10
154.9694454447488
 20
43.88291660312453
 30
0
 11
154.9694454447488
 21
43.32926703828051
 31
0
  0
LINE
  8
1
 62
7
 10
155.0248104012327
 20
44.39042870423148
 30
0
 11
154.9694454447488
 21
43.88291660312453
 31
0
  0
LINE
  8
1
 62
7
 10
155.1355403142018
 20
44.62111602291637
 30
0
 11
155.0248104012327
 21
44.39042870423148
 31
0
  0
LINE
  8
1
 62
7
 10
155.2462702271707
 20
44.75952841412746
 30
0
 11
155.1355403142018
 21
44.62111602291637
 31
0
  0
LINE
  8
1
 62
7
 10
155.4677300531077
 20
44.89794080533832
 30
0
 11
155.2462702271707
 21
44.75952841412746
 31
0
  0
LINE
  8
1
 62
7
 10
155.6891898790457
 20
44.99021573281246
 30
0
 11
155.4677300531077
 21
44.89794080533832
 31
0
  0
LINE
  8
1
 62
7
 10
156.0767445744357
 20
44.99021573281246
 30
0
 11
155.6891898790457
 21
44.99021573281246
 31
0
  0
LINE
  8
1
 62
7
 10
156.2982044003726
 20
44.89794080533832
 30
0
 11
156.0767445744357
 21
44.99021573281246
 31
0
  0
LINE
  8
1
 62
7
 10
156.5196642263106
 20
44.75952841412746
 30
0
 11
156.2982044003726
 21
44.89794080533832
 31
0
  0
LINE
  8
1
 62
7
 10
156.6303941392807
 20
44.62111602291637
 30
0
 11
156.5196642263106
 21
44.75952841412746
 31
0
  0
LINE
  8
1
 62
7
 10
156.7411240522476
 20
44.39042870423148
 30
0
 11
156.6303941392807
 21
44.62111602291637
 31
0
  0
LINE
  8
1
 62
7
 10
156.7964890087337
 20
43.88291660312453
 30
0
 11
156.7411240522476
 21
44.39042870423148
 31
0
  0
LINE
  8
1
 62
7
 10
156.7964890087337
 20
43.32926703828051
 30
0
 11
156.7964890087337
 21
43.88291660312453
 31
0
  0
LINE
  8
1
 62
7
 10
156.7411240522476
 20
42.82175493717367
 30
0
 11
156.7964890087337
 21
43.32926703828051
 31
0
  0
LINE
  8
1
 62
7
 10
156.6303941392807
 20
42.59106761848867
 30
0
 11
156.7411240522476
 21
42.82175493717367
 31
0
  0
LINE
  8
1
 62
7
 10
156.5196642263106
 20
42.45265522727758
 30
0
 11
156.6303941392807
 21
42.59106761848867
 31
0
  0
LINE
  8
1
 62
7
 10
156.2982044003726
 20
42.31424283606671
 30
0
 11
156.5196642263106
 21
42.45265522727758
 31
0
  0
LINE
  8
1
 62
7
 10
156.0767445744357
 20
42.22196790859269
 30
0
 11
156.2982044003726
 21
42.31424283606671
 31
0
  0
LINE
  8
1
 62
7
 10
155.6891898790457
 20
42.22196790859269
 30
0
 11
156.0767445744357
 21
42.22196790859269
 31
0
  0
LINE
  8
1
 62
7
 10
163.2000291827966
 20
41.89900566243367
 30
0
 11
163.3661240522496
 21
41.99128058990758
 31
0
  0
LINE
  8
1
 62
7
 10
162.9232044003738
 20
41.80673073495976
 30
0
 11
163.2000291827966
 21
41.89900566243367
 31
0
  0
LINE
  8
1
 62
7
 10
162.7017445744357
 20
41.76059327122269
 30
0
 11
162.9232044003738
 21
41.80673073495976
 31
0
  0
LINE
  8
1
 62
7
 10
162.3141898790457
 20
41.76059327122269
 30
0
 11
162.7017445744357
 21
41.76059327122269
 31
0
  0
LINE
  8
1
 62
7
 10
162.0927300531087
 20
41.80673073495976
 30
0
 11
162.3141898790457
 21
41.76059327122269
 31
0
  0
LINE
  8
1
 62
7
 10
161.8159052706866
 20
41.89900566243367
 30
0
 11
162.0927300531087
 21
41.80673073495976
 31
0
  0
LINE
  8
1
 62
7
 10
161.6498104012337
 20
41.99128058990758
 30
0
 11
161.8159052706866
 21
41.89900566243367
 31
0
  0
LINE
  8
1
 62
7
 10
161.4837155317798
 20
42.12969298111878
 30
0
 11
161.6498104012337
 21
41.99128058990758
 31
0
  0
LINE
  8
1
 62
7
 10
161.3176206623268
 20
42.31424283606671
 30
0
 11
161.4837155317798
 21
42.12969298111878
 31
0
  0
LINE
  8
1
 62
7
 10
161.2068907493588
 20
42.49879269101476
 30
0
 11
161.3176206623268
 21
42.31424283606671
 31
0
  0
LINE
  8
1
 62
7
 10
161.0961608363897
 20
42.72948000969953
 30
0
 11
161.2068907493588
 21
42.49879269101476
 31
0
  0
LINE
  8
1
 62
7
 10
161.0407958799046
 20
43.00630479212148
 30
0
 11
161.0961608363897
 21
42.72948000969953
 31
0
  0
LINE
  8
1
 62
7
 10
160.9854309234208
 20
43.42154196575453
 30
0
 11
161.0407958799046
 21
43.00630479212148
 31
0
  0
LINE
  8
1
 62
7
 10
160.9854309234208
 20
43.79064167565051
 30
0
 11
160.9854309234208
 21
43.42154196575453
 31
0
  0
LINE
  8
1
 62
7
 10
161.0407958799046
 20
44.20587884928344
 30
0
 11
160.9854309234208
 21
43.79064167565051
 31
0
  0
LINE
  8
1
 62
7
 10
161.0961608363897
 20
44.48270363170516
 30
0
 11
161.0407958799046
 21
44.20587884928344
 31
0
  0
LINE
  8
1
 62
7
 10
161.2068907493588
 20
44.71339095039028
 30
0
 11
161.0961608363897
 21
44.48270363170516
 31
0
  0
LINE
  8
1
 62
7
 10
161.3176206623268
 20
44.89794080533832
 30
0
 11
161.2068907493588
 21
44.71339095039028
 31
0
  0
LINE
  8
1
 62
7
 10
161.4837155317798
 20
45.08249066028637
 30
0
 11
161.3176206623268
 21
44.89794080533832
 31
0
  0
LINE
  8
1
 62
7
 10
161.6498104012337
 20
45.22090305149723
 30
0
 11
161.4837155317798
 21
45.08249066028637
 31
0
  0
LINE
  8
1
 62
7
 10
161.8159052706866
 20
45.31317797897137
 30
0
 11
161.6498104012337
 21
45.22090305149723
 31
0
  0
LINE
  8
1
 62
7
 10
162.0927300531087
 20
45.40545290644516
 30
0
 11
161.8159052706866
 21
45.31317797897137
 31
0
  0
LINE
  8
1
 62
7
 10
162.3141898790457
 20
45.45159037018223
 30
0
 11
162.0927300531087
 21
45.40545290644516
 31
0
  0
LINE
  8
1
 62
7
 10
162.7017445744357
 20
45.45159037018223
 30
0
 11
162.3141898790457
 21
45.45159037018223
 31
0
  0
LINE
  8
1
 62
7
 10
162.9232044003738
 20
45.40545290644516
 30
0
 11
162.7017445744357
 21
45.45159037018223
 31
0
  0
LINE
  8
1
 62
7
 10
163.2000291827966
 20
45.31317797897137
 30
0
 11
162.9232044003738
 21
45.40545290644516
 31
0
  0
LINE
  8
1
 62
7
 10
163.3661240522496
 20
45.22090305149723
 30
0
 11
163.2000291827966
 21
45.31317797897137
 31
0
  0
LINE
  8
1
 62
7
 10
163.5322189217027
 20
45.08249066028637
 30
0
 11
163.3661240522496
 21
45.22090305149723
 31
0
  0
LINE
  8
1
 62
7
 10
163.6983137911557
 20
44.89794080533832
 30
0
 11
163.5322189217027
 21
45.08249066028637
 31
0
  0
LINE
  8
1
 62
7
 10
163.8090437041246
 20
44.71339095039028
 30
0
 11
163.6983137911557
 21
44.89794080533832
 31
0
  0
LINE
  8
1
 62
7
 10
163.9197736170938
 20
44.48270363170516
 30
0
 11
163.8090437041246
 21
44.71339095039028
 31
0
  0
LINE
  8
1
 62
7
 10
163.9751385735776
 20
44.20587884928344
 30
0
 11
163.9197736170938
 21
44.48270363170516
 31
0
  0
LINE
  8
1
 62
7
 10
164.0305035300627
 20
43.79064167565051
 30
0
 11
163.9751385735776
 21
44.20587884928344
 31
0
  0
LINE
  8
1
 62
7
 10
164.0305035300627
 20
43.42154196575453
 30
0
 11
164.0305035300627
 21
43.79064167565051
 31
0
  0
LINE
  8
1
 62
7
 10
163.9751385735776
 20
43.00630479212148
 30
0
 11
164.0305035300627
 21
43.42154196575453
 31
0
  0
LINE
  8
1
 62
7
 10
163.9197736170938
 20
42.72948000969953
 30
0
 11
163.9751385735776
 21
43.00630479212148
 31
0
  0
LINE
  8
1
 62
7
 10
163.8090437041246
 20
42.49879269101476
 30
0
 11
163.9197736170938
 21
42.72948000969953
 31
0
  0
LINE
  8
1
 62
7
 10
163.6983137911557
 20
42.31424283606671
 30
0
 11
163.8090437041246
 21
42.49879269101476
 31
0
  0
LINE
  8
1
 62
7
 10
163.5322189217027
 20
42.12969298111878
 30
0
 11
163.6983137911557
 21
42.31424283606671
 31
0
  0
LINE
  8
1
 62
7
 10
163.3661240522496
 20
41.99128058990758
 30
0
 11
163.5322189217027
 21
42.12969298111878
 31
0
  0
LINE
  8
1
 62
7
 10
162.0927300531087
 20
42.31424283606671
 30
0
 11
162.3141898790457
 21
42.22196790859269
 31
0
  0
LINE
  8
1
 62
7
 10
161.8712702271707
 20
42.45265522727758
 30
0
 11
162.0927300531087
 21
42.31424283606671
 31
0
  0
LINE
  8
1
 62
7
 10
161.7605403142018
 20
42.59106761848867
 30
0
 11
161.8712702271707
 21
42.45265522727758
 31
0
  0
LINE
  8
1
 62
7
 10
161.6498104012337
 20
42.82175493717367
 30
0
 11
161.7605403142018
 21
42.59106761848867
 31
0
  0
LINE
  8
1
 62
7
 10
161.5944454447488
 20
43.32926703828051
 30
0
 11
161.6498104012337
 21
42.82175493717367
 31
0
  0
LINE
  8
1
 62
7
 10
161.5944454447488
 20
43.88291660312453
 30
0
 11
161.5944454447488
 21
43.32926703828051
 31
0
  0
LINE
  8
1
 62
7
 10
161.6498104012337
 20
44.39042870423148
 30
0
 11
161.5944454447488
 21
43.88291660312453
 31
0
  0
LINE
  8
1
 62
7
 10
161.7605403142018
 20
44.62111602291637
 30
0
 11
161.6498104012337
 21
44.39042870423148
 31
0
  0
LINE
  8
1
 62
7
 10
161.8712702271707
 20
44.75952841412746
 30
0
 11
161.7605403142018
 21
44.62111602291637
 31
0
  0
LINE
  8
1
 62
7
 10
162.0927300531087
 20
44.89794080533832
 30
0
 11
161.8712702271707
 21
44.75952841412746
 31
0
  0
LINE
  8
1
 62
7
 10
162.3141898790457
 20
44.99021573281246
 30
0
 11
162.0927300531087
 21
44.89794080533832
 31
0
  0
LINE
  8
1
 62
7
 10
162.7017445744357
 20
44.99021573281246
 30
0
 11
162.3141898790457
 21
44.99021573281246
 31
0
  0
LINE
  8
1
 62
7
 10
162.9232044003738
 20
44.89794080533832
 30
0
 11
162.7017445744357
 21
44.99021573281246
 31
0
  0
LINE
  8
1
 62
7
 10
163.1446642263106
 20
44.75952841412746
 30
0
 11
162.9232044003738
 21
44.89794080533832
 31
0
  0
LINE
  8
1
 62
7
 10
163.2553941392807
 20
44.62111602291637
 30
0
 11
163.1446642263106
 21
44.75952841412746
 31
0
  0
LINE
  8
1
 62
7
 10
163.3661240522496
 20
44.39042870423148
 30
0
 11
163.2553941392807
 21
44.62111602291637
 31
0
  0
LINE
  8
1
 62
7
 10
163.4214890087337
 20
43.88291660312453
 30
0
 11
163.3661240522496
 21
44.39042870423148
 31
0
  0
LINE
  8
1
 62
7
 10
163.4214890087337
 20
43.32926703828051
 30
0
 11
163.4214890087337
 21
43.88291660312453
 31
0
  0
LINE
  8
1
 62
7
 10
163.3661240522496
 20
42.82175493717367
 30
0
 11
163.4214890087337
 21
43.32926703828051
 31
0
  0
LINE
  8
1
 62
7
 10
163.2553941392807
 20
42.59106761848867
 30
0
 11
163.3661240522496
 21
42.82175493717367
 31
0
  0
LINE
  8
1
 62
7
 10
163.1446642263106
 20
42.45265522727758
 30
0
 11
163.2553941392807
 21
42.59106761848867
 31
0
  0
LINE
  8
1
 62
7
 10
162.9232044003738
 20
42.31424283606671
 30
0
 11
163.1446642263106
 21
42.45265522727758
 31
0
  0
LINE
  8
1
 62
7
 10
162.7017445744357
 20
42.22196790859269
 30
0
 11
162.9232044003738
 21
42.31424283606671
 31
0
  0
LINE
  8
1
 62
7
 10
162.3141898790457
 20
42.22196790859269
 30
0
 11
162.7017445744357
 21
42.22196790859269
 31
0
  0
LINE
  8
1
 62
7
 10
169.8250291827966
 20
41.89900566243367
 30
0
 11
169.9911240522496
 21
41.99128058990758
 31
0
  0
LINE
  8
1
 62
7
 10
169.5482044003738
 20
41.80673073495976
 30
0
 11
169.8250291827966
 21
41.89900566243367
 31
0
  0
LINE
  8
1
 62
7
 10
169.3267445744377
 20
41.76059327122269
 30
0
 11
169.5482044003738
 21
41.80673073495976
 31
0
  0
LINE
  8
1
 62
7
 10
168.9391898790468
 20
41.76059327122269
 30
0
 11
169.3267445744377
 21
41.76059327122269
 31
0
  0
LINE
  8
1
 62
7
 10
168.7177300531087
 20
41.80673073495976
 30
0
 11
168.9391898790468
 21
41.76059327122269
 31
0
  0
LINE
  8
1
 62
7
 10
168.4409052706866
 20
41.89900566243367
 30
0
 11
168.7177300531087
 21
41.80673073495976
 31
0
  0
LINE
  8
1
 62
7
 10
168.2748104012337
 20
41.99128058990758
 30
0
 11
168.4409052706866
 21
41.89900566243367
 31
0
  0
LINE
  8
1
 62
7
 10
168.1087155317807
 20
42.12969298111878
 30
0
 11
168.2748104012337
 21
41.99128058990758
 31
0
  0
LINE
  8
1
 62
7
 10
167.9426206623277
 20
42.31424283606671
 30
0
 11
168.1087155317807
 21
42.12969298111878
 31
0
  0
LINE
  8
1
 62
7
 10
167.8318907493588
 20
42.49879269101476
 30
0
 11
167.9426206623277
 21
42.31424283606671
 31
0
  0
LINE
  8
1
 62
7
 10
167.7211608363897
 20
42.72948000969953
 30
0
 11
167.8318907493588
 21
42.49879269101476
 31
0
  0
LINE
  8
1
 62
7
 10
167.6657958799058
 20
43.00630479212148
 30
0
 11
167.7211608363897
 21
42.72948000969953
 31
0
  0
LINE
  8
1
 62
7
 10
167.6104309234208
 20
43.42154196575453
 30
0
 11
167.6657958799058
 21
43.00630479212148
 31
0
  0
LINE
  8
1
 62
7
 10
167.6104309234208
 20
43.79064167565051
 30
0
 11
167.6104309234208
 21
43.42154196575453
 31
0
  0
LINE
  8
1
 62
7
 10
167.6657958799058
 20
44.20587884928344
 30
0
 11
167.6104309234208
 21
43.79064167565051
 31
0
  0
LINE
  8
1
 62
7
 10
167.7211608363897
 20
44.48270363170516
 30
0
 11
167.6657958799058
 21
44.20587884928344
 31
0
  0
LINE
  8
1
 62
7
 10
167.8318907493588
 20
44.71339095039028
 30
0
 11
167.7211608363897
 21
44.48270363170516
 31
0
  0
LINE
  8
1
 62
7
 10
167.9426206623277
 20
44.89794080533832
 30
0
 11
167.8318907493588
 21
44.71339095039028
 31
0
  0
LINE
  8
1
 62
7
 10
168.1087155317807
 20
45.08249066028637
 30
0
 11
167.9426206623277
 21
44.89794080533832
 31
0
  0
LINE
  8
1
 62
7
 10
168.2748104012337
 20
45.22090305149723
 30
0
 11
168.1087155317807
 21
45.08249066028637
 31
0
  0
LINE
  8
1
 62
7
 10
168.4409052706866
 20
45.31317797897137
 30
0
 11
168.2748104012337
 21
45.22090305149723
 31
0
  0
LINE
  8
1
 62
7
 10
168.7177300531087
 20
45.40545290644516
 30
0
 11
168.4409052706866
 21
45.31317797897137
 31
0
  0
LINE
  8
1
 62
7
 10
168.9391898790468
 20
45.45159037018223
 30
0
 11
168.7177300531087
 21
45.40545290644516
 31
0
  0
LINE
  8
1
 62
7
 10
169.3267445744377
 20
45.45159037018223
 30
0
 11
168.9391898790468
 21
45.45159037018223
 31
0
  0
LINE
  8
1
 62
7
 10
169.5482044003738
 20
45.40545290644516
 30
0
 11
169.3267445744377
 21
45.45159037018223
 31
0
  0
LINE
  8
1
 62
7
 10
169.8250291827966
 20
45.31317797897137
 30
0
 11
169.5482044003738
 21
45.40545290644516
 31
0
  0
LINE
  8
1
 62
7
 10
169.9911240522496
 20
45.22090305149723
 30
0
 11
169.8250291827966
 21
45.31317797897137
 31
0
  0
LINE
  8
1
 62
7
 10
170.1572189217027
 20
45.08249066028637
 30
0
 11
169.9911240522496
 21
45.22090305149723
 31
0
  0
LINE
  8
1
 62
7
 10
170.3233137911568
 20
44.89794080533832
 30
0
 11
170.1572189217027
 21
45.08249066028637
 31
0
  0
LINE
  8
1
 62
7
 10
170.4340437041258
 20
44.71339095039028
 30
0
 11
170.3233137911568
 21
44.89794080533832
 31
0
  0
LINE
  8
1
 62
7
 10
170.5447736170938
 20
44.48270363170516
 30
0
 11
170.4340437041258
 21
44.71339095039028
 31
0
  0
LINE
  8
1
 62
7
 10
170.6001385735788
 20
44.20587884928344
 30
0
 11
170.5447736170938
 21
44.48270363170516
 31
0
  0
LINE
  8
1
 62
7
 10
170.6555035300627
 20
43.79064167565051
 30
0
 11
170.6001385735788
 21
44.20587884928344
 31
0
  0
LINE
  8
1
 62
7
 10
170.6555035300627
 20
43.42154196575453
 30
0
 11
170.6555035300627
 21
43.79064167565051
 31
0
  0
LINE
  8
1
 62
7
 10
170.6001385735788
 20
43.00630479212148
 30
0
 11
170.6555035300627
 21
43.42154196575453
 31
0
  0
LINE
  8
1
 62
7
 10
170.5447736170938
 20
42.72948000969953
 30
0
 11
170.6001385735788
 21
43.00630479212148
 31
0
  0
LINE
  8
1
 62
7
 10
170.4340437041258
 20
42.49879269101476
 30
0
 11
170.5447736170938
 21
42.72948000969953
 31
0
  0
LINE
  8
1
 62
7
 10
170.3233137911568
 20
42.31424283606671
 30
0
 11
170.4340437041258
 21
42.49879269101476
 31
0
  0
LINE
  8
1
 62
7
 10
170.1572189217027
 20
42.12969298111878
 30
0
 11
170.3233137911568
 21
42.31424283606671
 31
0
  0
LINE
  8
1
 62
7
 10
169.9911240522496
 20
41.99128058990758
 30
0
 11
170.1572189217027
 21
42.12969298111878
 31
0
  0
LINE
  8
1
 62
7
 10
168.7177300531087
 20
42.31424283606671
 30
0
 11
168.9391898790468
 21
42.22196790859269
 31
0
  0
LINE
  8
1
 62
7
 10
168.4962702271716
 20
42.45265522727758
 30
0
 11
168.7177300531087
 21
42.31424283606671
 31
0
  0
LINE
  8
1
 62
7
 10
168.3855403142027
 20
42.59106761848867
 30
0
 11
168.4962702271716
 21
42.45265522727758
 31
0
  0
LINE
  8
1
 62
7
 10
168.2748104012337
 20
42.82175493717367
 30
0
 11
168.3855403142027
 21
42.59106761848867
 31
0
  0
LINE
  8
1
 62
7
 10
168.2194454447497
 20
43.32926703828051
 30
0
 11
168.2748104012337
 21
42.82175493717367
 31
0
  0
LINE
  8
1
 62
7
 10
168.2194454447497
 20
43.88291660312453
 30
0
 11
168.2194454447497
 21
43.32926703828051
 31
0
  0
LINE
  8
1
 62
7
 10
168.2748104012337
 20
44.39042870423148
 30
0
 11
168.2194454447497
 21
43.88291660312453
 31
0
  0
LINE
  8
1
 62
7
 10
168.3855403142027
 20
44.62111602291637
 30
0
 11
168.2748104012337
 21
44.39042870423148
 31
0
  0
LINE
  8
1
 62
7
 10
168.4962702271716
 20
44.75952841412746
 30
0
 11
168.3855403142027
 21
44.62111602291637
 31
0
  0
LINE
  8
1
 62
7
 10
168.7177300531087
 20
44.89794080533832
 30
0
 11
168.4962702271716
 21
44.75952841412746
 31
0
  0
LINE
  8
1
 62
7
 10
168.9391898790468
 20
44.99021573281246
 30
0
 11
168.7177300531087
 21
44.89794080533832
 31
0
  0
LINE
  8
1
 62
7
 10
169.3267445744377
 20
44.99021573281246
 30
0
 11
168.9391898790468
 21
44.99021573281246
 31
0
  0
LINE
  8
1
 62
7
 10
169.5482044003738
 20
44.89794080533832
 30
0
 11
169.3267445744377
 21
44.99021573281246
 31
0
  0
LINE
  8
1
 62
7
 10
169.7696642263127
 20
44.75952841412746
 30
0
 11
169.5482044003738
 21
44.89794080533832
 31
0
  0
LINE
  8
1
 62
7
 10
169.8803941392816
 20
44.62111602291637
 30
0
 11
169.7696642263127
 21
44.75952841412746
 31
0
  0
LINE
  8
1
 62
7
 10
169.9911240522496
 20
44.39042870423148
 30
0
 11
169.8803941392816
 21
44.62111602291637
 31
0
  0
LINE
  8
1
 62
7
 10
170.0464890087346
 20
43.88291660312453
 30
0
 11
169.9911240522496
 21
44.39042870423148
 31
0
  0
LINE
  8
1
 62
7
 10
170.0464890087346
 20
43.32926703828051
 30
0
 11
170.0464890087346
 21
43.88291660312453
 31
0
  0
LINE
  8
1
 62
7
 10
169.9911240522496
 20
42.82175493717367
 30
0
 11
170.0464890087346
 21
43.32926703828051
 31
0
  0
LINE
  8
1
 62
7
 10
169.8803941392816
 20
42.59106761848867
 30
0
 11
169.9911240522496
 21
42.82175493717367
 31
0
  0
LINE
  8
1
 62
7
 10
169.7696642263127
 20
42.45265522727758
 30
0
 11
169.8803941392816
 21
42.59106761848867
 31
0
  0
LINE
  8
1
 62
7
 10
169.5482044003738
 20
42.31424283606671
 30
0
 11
169.7696642263127
 21
42.45265522727758
 31
0
  0
LINE
  8
1
 62
7
 10
169.3267445744377
 20
42.22196790859269
 30
0
 11
169.5482044003738
 21
42.31424283606671
 31
0
  0
LINE
  8
1
 62
7
 10
168.9391898790468
 20
42.22196790859269
 30
0
 11
169.3267445744377
 21
42.22196790859269
 31
0
  0
LINE
  8
1
 62
7
 10
176.4500291827978
 20
41.89900566243367
 30
0
 11
176.6161240522508
 21
41.99128058990758
 31
0
  0
LINE
  8
1
 62
7
 10
176.1732044003757
 20
41.80673073495976
 30
0
 11
176.4500291827978
 21
41.89900566243367
 31
0
  0
LINE
  8
1
 62
7
 10
175.9517445744377
 20
41.76059327122269
 30
0
 11
176.1732044003757
 21
41.80673073495976
 31
0
  0
LINE
  8
1
 62
7
 10
175.5641898790468
 20
41.76059327122269
 30
0
 11
175.9517445744377
 21
41.76059327122269
 31
0
  0
LINE
  8
1
 62
7
 10
175.3427300531097
 20
41.80673073495976
 30
0
 11
175.5641898790468
 21
41.76059327122269
 31
0
  0
LINE
  8
1
 62
7
 10
175.0659052706866
 20
41.89900566243367
 30
0
 11
175.3427300531097
 21
41.80673073495976
 31
0
  0
LINE
  8
1
 62
7
 10
174.8998104012346
 20
41.99128058990758
 30
0
 11
175.0659052706866
 21
41.89900566243367
 31
0
  0
LINE
  8
1
 62
7
 10
174.7337155317807
 20
42.12969298111878
 30
0
 11
174.8998104012346
 21
41.99128058990758
 31
0
  0
LINE
  8
1
 62
7
 10
174.5676206623277
 20
42.31424283606671
 30
0
 11
174.7337155317807
 21
42.12969298111878
 31
0
  0
LINE
  8
1
 62
7
 10
174.4568907493588
 20
42.49879269101476
 30
0
 11
174.5676206623277
 21
42.31424283606671
 31
0
  0
LINE
  8
1
 62
7
 10
174.3461608363907
 20
42.72948000969953
 30
0
 11
174.4568907493588
 21
42.49879269101476
 31
0
  0
LINE
  8
1
 62
7
 10
174.2907958799058
 20
43.00630479212148
 30
0
 11
174.3461608363907
 21
42.72948000969953
 31
0
  0
LINE
  8
1
 62
7
 10
174.2354309234217
 20
43.42154196575453
 30
0
 11
174.2907958799058
 21
43.00630479212148
 31
0
  0
LINE
  8
1
 62
7
 10
174.2354309234217
 20
43.79064167565051
 30
0
 11
174.2354309234217
 21
43.42154196575453
 31
0
  0
LINE
  8
1
 62
7
 10
174.2907958799058
 20
44.20587884928344
 30
0
 11
174.2354309234217
 21
43.79064167565051
 31
0
  0
LINE
  8
1
 62
7
 10
174.3461608363907
 20
44.48270363170516
 30
0
 11
174.2907958799058
 21
44.20587884928344
 31
0
  0
LINE
  8
1
 62
7
 10
174.4568907493588
 20
44.71339095039028
 30
0
 11
174.3461608363907
 21
44.48270363170516
 31
0
  0
LINE
  8
1
 62
7
 10
174.5676206623277
 20
44.89794080533832
 30
0
 11
174.4568907493588
 21
44.71339095039028
 31
0
  0
LINE
  8
1
 62
7
 10
174.7337155317807
 20
45.08249066028637
 30
0
 11
174.5676206623277
 21
44.89794080533832
 31
0
  0
LINE
  8
1
 62
7
 10
174.8998104012346
 20
45.22090305149723
 30
0
 11
174.7337155317807
 21
45.08249066028637
 31
0
  0
LINE
  8
1
 62
7
 10
175.0659052706866
 20
45.31317797897137
 30
0
 11
174.8998104012346
 21
45.22090305149723
 31
0
  0
LINE
  8
1
 62
7
 10
175.3427300531097
 20
45.40545290644516
 30
0
 11
175.0659052706866
 21
45.31317797897137
 31
0
  0
LINE
  8
1
 62
7
 10
175.5641898790468
 20
45.45159037018223
 30
0
 11
175.3427300531097
 21
45.40545290644516
 31
0
  0
LINE
  8
1
 62
7
 10
175.9517445744377
 20
45.45159037018223
 30
0
 11
175.5641898790468
 21
45.45159037018223
 31
0
  0
LINE
  8
1
 62
7
 10
176.1732044003757
 20
45.40545290644516
 30
0
 11
175.9517445744377
 21
45.45159037018223
 31
0
  0
LINE
  8
1
 62
7
 10
176.4500291827978
 20
45.31317797897137
 30
0
 11
176.1732044003757
 21
45.40545290644516
 31
0
  0
LINE
  8
1
 62
7
 10
176.6161240522508
 20
45.22090305149723
 30
0
 11
176.4500291827978
 21
45.31317797897137
 31
0
  0
LINE
  8
1
 62
7
 10
176.7822189217038
 20
45.08249066028637
 30
0
 11
176.6161240522508
 21
45.22090305149723
 31
0
  0
LINE
  8
1
 62
7
 10
176.9483137911568
 20
44.89794080533832
 30
0
 11
176.7822189217038
 21
45.08249066028637
 31
0
  0
LINE
  8
1
 62
7
 10
177.0590437041258
 20
44.71339095039028
 30
0
 11
176.9483137911568
 21
44.89794080533832
 31
0
  0
LINE
  8
1
 62
7
 10
177.1697736170947
 20
44.48270363170516
 30
0
 11
177.0590437041258
 21
44.71339095039028
 31
0
  0
LINE
  8
1
 62
7
 10
177.2251385735788
 20
44.20587884928344
 30
0
 11
177.1697736170947
 21
44.48270363170516
 31
0
  0
LINE
  8
1
 62
7
 10
177.2805035300627
 20
43.79064167565051
 30
0
 11
177.2251385735788
 21
44.20587884928344
 31
0
  0
LINE
  8
1
 62
7
 10
177.2805035300627
 20
43.42154196575453
 30
0
 11
177.2805035300627
 21
43.79064167565051
 31
0
  0
LINE
  8
1
 62
7
 10
177.2251385735788
 20
43.00630479212148
 30
0
 11
177.2805035300627
 21
43.42154196575453
 31
0
  0
LINE
  8
1
 62
7
 10
177.1697736170947
 20
42.72948000969953
 30
0
 11
177.2251385735788
 21
43.00630479212148
 31
0
  0
LINE
  8
1
 62
7
 10
177.0590437041258
 20
42.49879269101476
 30
0
 11
177.1697736170947
 21
42.72948000969953
 31
0
  0
LINE
  8
1
 62
7
 10
176.9483137911568
 20
42.31424283606671
 30
0
 11
177.0590437041258
 21
42.49879269101476
 31
0
  0
LINE
  8
1
 62
7
 10
176.7822189217038
 20
42.12969298111878
 30
0
 11
176.9483137911568
 21
42.31424283606671
 31
0
  0
LINE
  8
1
 62
7
 10
176.6161240522508
 20
41.99128058990758
 30
0
 11
176.7822189217038
 21
42.12969298111878
 31
0
  0
LINE
  8
1
 62
7
 10
175.3427300531097
 20
42.31424283606671
 30
0
 11
175.5641898790468
 21
42.22196790859269
 31
0
  0
LINE
  8
1
 62
7
 10
175.1212702271716
 20
42.45265522727758
 30
0
 11
175.3427300531097
 21
42.31424283606671
 31
0
  0
LINE
  8
1
 62
7
 10
175.0105403142027
 20
42.59106761848867
 30
0
 11
175.1212702271716
 21
42.45265522727758
 31
0
  0
LINE
  8
1
 62
7
 10
174.8998104012346
 20
42.82175493717367
 30
0
 11
175.0105403142027
 21
42.59106761848867
 31
0
  0
LINE
  8
1
 62
7
 10
174.8444454447497
 20
43.32926703828051
 30
0
 11
174.8998104012346
 21
42.82175493717367
 31
0
  0
LINE
  8
1
 62
7
 10
174.8444454447497
 20
43.88291660312453
 30
0
 11
174.8444454447497
 21
43.32926703828051
 31
0
  0
LINE
  8
1
 62
7
 10
174.8998104012346
 20
44.39042870423148
 30
0
 11
174.8444454447497
 21
43.88291660312453
 31
0
  0
LINE
  8
1
 62
7
 10
175.0105403142027
 20
44.62111602291637
 30
0
 11
174.8998104012346
 21
44.39042870423148
 31
0
  0
LINE
  8
1
 62
7
 10
175.1212702271716
 20
44.75952841412746
 30
0
 11
175.0105403142027
 21
44.62111602291637
 31
0
  0
LINE
  8
1
 62
7
 10
175.3427300531097
 20
44.89794080533832
 30
0
 11
175.1212702271716
 21
44.75952841412746
 31
0
  0
LINE
  8
1
 62
7
 10
175.5641898790468
 20
44.99021573281246
 30
0
 11
175.3427300531097
 21
44.89794080533832
 31
0
  0
LINE
  8
1
 62
7
 10
175.9517445744377
 20
44.99021573281246
 30
0
 11
175.5641898790468
 21
44.99021573281246
 31
0
  0
LINE
  8
1
 62
7
 10
176.1732044003757
 20
44.89794080533832
 30
0
 11
175.9517445744377
 21
44.99021573281246
 31
0
  0
LINE
  8
1
 62
7
 10
176.3946642263127
 20
44.75952841412746
 30
0
 11
176.1732044003757
 21
44.89794080533832
 31
0
  0
LINE
  8
1
 62
7
 10
176.5053941392816
 20
44.62111602291637
 30
0
 11
176.3946642263127
 21
44.75952841412746
 31
0
  0
LINE
  8
1
 62
7
 10
176.6161240522508
 20
44.39042870423148
 30
0
 11
176.5053941392816
 21
44.62111602291637
 31
0
  0
LINE
  8
1
 62
7
 10
176.6714890087346
 20
43.88291660312453
 30
0
 11
176.6161240522508
 21
44.39042870423148
 31
0
  0
LINE
  8
1
 62
7
 10
176.6714890087346
 20
43.32926703828051
 30
0
 11
176.6714890087346
 21
43.88291660312453
 31
0
  0
LINE
  8
1
 62
7
 10
176.6161240522508
 20
42.82175493717367
 30
0
 11
176.6714890087346
 21
43.32926703828051
 31
0
  0
LINE
  8
1
 62
7
 10
176.5053941392816
 20
42.59106761848867
 30
0
 11
176.6161240522508
 21
42.82175493717367
 31
0
  0
LINE
  8
1
 62
7
 10
176.3946642263127
 20
42.45265522727758
 30
0
 11
176.5053941392816
 21
42.59106761848867
 31
0
  0
LINE
  8
1
 62
7
 10
176.1732044003757
 20
42.31424283606671
 30
0
 11
176.3946642263127
 21
42.45265522727758
 31
0
  0
LINE
  8
1
 62
7
 10
175.9517445744377
 20
42.22196790859269
 30
0
 11
176.1732044003757
 21
42.31424283606671
 31
0
  0
LINE
  8
1
 62
7
 10
175.5641898790468
 20
42.22196790859269
 30
0
 11
175.9517445744377
 21
42.22196790859269
 31
0
  0
LINE
  8
1
 62
7
 10
182.1569338263778
 20
41.76059327122292
 30
0
 11
182.6183084637466
 21
41.76059327122292
 31
0
  0
LINE
  8
1
 62
7
 10
182.1569338263778
 20
44.43656616796866
 30
0
 11
182.1569338263778
 21
41.76059327122292
 31
0
  0
LINE
  8
1
 62
7
 10
181.2803220153758
 20
44.43656616796866
 30
0
 11
182.1569338263778
 21
44.43656616796866
 31
0
  0
LINE
  8
1
 62
7
 10
181.2803220153758
 20
44.80566587786453
 30
0
 11
181.2803220153758
 21
44.43656616796866
 31
0
  0
LINE
  8
1
 62
7
 10
181.3725969428476
 20
44.80566587786453
 30
0
 11
181.2803220153758
 21
44.80566587786453
 31
0
  0
LINE
  8
1
 62
7
 10
181.6032842615336
 20
44.85180334160148
 30
0
 11
181.3725969428476
 21
44.80566587786453
 31
0
  0
LINE
  8
1
 62
7
 10
181.7416966527446
 20
44.89794080533844
 30
0
 11
181.6032842615336
 21
44.85180334160148
 31
0
  0
LINE
  8
1
 62
7
 10
181.9262465076927
 20
44.99021573281246
 30
0
 11
181.7416966527446
 21
44.89794080533844
 31
0
  0
LINE
  8
1
 62
7
 10
182.0646588989036
 20
45.12862812402344
 30
0
 11
181.9262465076927
 21
44.99021573281246
 31
0
  0
LINE
  8
1
 62
7
 10
182.2030712901146
 20
45.31317797897148
 30
0
 11
182.0646588989036
 21
45.12862812402344
 31
0
  0
LINE
  8
1
 62
7
 10
182.2492087538516
 20
45.45159037018246
 30
0
 11
182.2030712901146
 21
45.31317797897148
 31
0
  0
LINE
  8
1
 62
7
 10
182.6183084637466
 20
45.45159037018246
 30
0
 11
182.2492087538516
 21
45.45159037018246
 31
0
  0
LINE
  8
1
 62
7
 10
182.6183084637466
 20
41.76059327122292
 30
0
 11
182.6183084637466
 21
45.45159037018246
 31
0
  0
LINE
  8
1
 62
7
 10
152.6533736935427
 20
47.31840242193269
 30
0
 11
152.6533736935427
 21
43.70659688409083
 31
0
  0
LINE
  8
1
 62
7
 10
211.1993152395617
 20
47.31840242193201
 30
0
 11
211.1993152395617
 21
48.67715963256777
 31
0
  0
LINE
  8
1
 62
7
 10
211.1993152395617
 20
46.96484903133867
 30
0
 11
211.1993152395617
 21
47.31840242193201
 31
0
  0
LINE
  8
1
 62
7
 10
209.1149166652597
 20
37.59568418061693
 30
0
 11
203.6993152395617
 21
37.59568418061693
 31
0
  0
LINE
  8
1
 62
7
 10
210.6993152395617
 20
40.58409788489169
 30
0
 11
210.6993152395617
 21
43.35609182070166
 31
0
  0
LINE
  8
1
 62
7
 10
211.1993152395617
 20
43.85609182070166
 30
0
 11
210.6993152395617
 21
43.85609182070166
 31
0
  0
LINE
  8
1
 62
7
 10
211.1993152395617
 20
46.96484903133867
 30
0
 11
186.5473769544917
 21
46.96484903133958
 31
0
  0
LINE
  8
1
 62
7
 10
152.6533736935427
 20
47.31840242193269
 30
0
 11
211.1993152395617
 21
47.31840242193201
 31
0
  0
LINE
  8
1
 62
7
 10
203.6993152395617
 20
37.59568418061693
 30
0
 11
203.6993152395617
 21
39.89378121947246
 31
0
  0
LINE
  8
1
 62
7
 10
203.6993152395617
 20
39.89378121947246
 30
0
 11
153.4087841024556
 21
39.89378121947337
 31
0
  0
LINE
  8
1
 62
7
 10
205.6993152395617
 20
39.00989774298992
 30
0
 11
210.0277362296358
 21
39.00989774298992
 31
0
  0
LINE
  8
1
 62
7
 10
210.6993152395617
 20
45.90418885955776
 30
0
 11
188.0473769544917
 21
45.90418885955867
 31
0
  0
LINE
  8
1
 62
7
 10
188.0473769544917
 20
45.90418885955867
 30
0
 11
188.0473769544917
 21
41.30799478184648
 31
0
  0
LINE
  8
1
 62
7
 10
188.0473769544917
 20
41.30799478184648
 30
0
 11
205.6993152395617
 21
41.30799478184557
 31
0
  0
LINE
  8
1
 62
7
 10
205.6993152395617
 20
41.30799478184557
 30
0
 11
205.6993152395617
 21
39.00989774298992
 31
0
  0
LINE
  8
1
 62
7
 10
186.5473769544917
 20
40.24733461006738
 30
0
 11
204.1993152395617
 21
40.24733461006647
 31
0
  0
LINE
  8
1
 62
7
 10
204.1993152395617
 20
40.24733461006647
 30
0
 11
204.1993152395617
 21
37.94923757121026
 31
0
  0
LINE
  8
1
 62
7
 10
204.1993152395617
 20
37.94923757121026
 30
0
 11
209.3756722365608
 21
37.94923757121003
 31
0
  0
LINE
  8
1
 62
7
 10
210.6993152395617
 20
43.85609182070166
 30
0
 11
210.6993152395617
 21
45.90418885955776
 31
0
  0
LINE
  8
1
 62
7
 10
210.6993152395617
 20
43.35609182070166
 30
0
 11
211.1931706617967
 21
43.35609182070166
 31
0
  0
LINE
  8
1
 62
7
 10
210.6993152395617
 20
43.35609182070166
 30
0
 11
210.6993152395617
 21
43.85609182070166
 31
0
  0
LINE
  8
1
 62
7
 10
186.5473769544917
 20
46.96484903133958
 30
0
 11
186.5473769544917
 21
40.24733461006738
 31
0
  0
LINE
  8
1
 62
7
 10
153.1993152395617
 20
41.30799478184648
 30
0
 11
184.5473769544917
 21
41.30799478184602
 31
0
  0
LINE
  8
1
 62
7
 10
153.1993152395617
 20
45.90418885955867
 30
0
 11
153.1993152395617
 21
41.30799478184648
 31
0
  0
LINE
  8
1
 62
7
 10
184.5473769544917
 20
41.30799478184602
 30
0
 11
184.5473769544917
 21
45.90418885955867
 31
0
  0
LINE
  8
1
 62
7
 10
184.5473769544917
 20
45.90418885955867
 30
0
 11
153.1993152395617
 21
45.90418885955867
 31
0
  0
LINE
  8
1
 62
7
 10
210.4739317981337
 20
43.40609182070253
 30
0
 11
210.4739317981337
 21
43.80609182070251
 31
0
  0
LINE
  8
1
 62
7
 10
209.2139269345748
 20
43.40609182070253
 30
0
 11
210.4739317981337
 21
43.40609182070253
 31
0
  0
LINE
  8
1
 62
7
 10
209.2139269345748
 20
43.80609182070251
 30
0
 11
209.2139269345748
 21
43.40609182070253
 31
0
  0
LINE
  8
1
 62
7
 10
210.4739317981337
 20
43.80609182070251
 30
0
 11
209.2139269345748
 21
43.80609182070251
 31
0
  0
LINE
  8
1
 62
7
 10
180.3393308764946
 20
49.81536306021226
 30
0
 11
180.6993308764947
 21
49.81536306021226
 31
0
  0
LINE
  8
1
 62
7
 10
183.1293308764948
 20
47.58336306021218
 30
0
 11
183.4893308764947
 21
47.58336306021218
 31
0
  0
LINE
  8
1
 62
7
 10
181.7343308764936
 20
47.58336306021218
 30
0
 11
182.0943308764947
 21
47.58336306021218
 31
0
  0
LINE
  8
1
 62
7
 10
180.3393308764946
 20
47.58336306021218
 30
0
 11
180.6993308764947
 21
47.58336306021218
 31
0
  0
LINE
  8
1
 62
7
 10
183.4893308764947
 20
47.58336306021218
 30
0
 11
183.4893308764947
 21
48.93786306021187
 31
0
  0
LINE
  8
1
 62
7
 10
183.1293308764948
 20
47.58336306021218
 30
0
 11
183.1293308764948
 21
48.93786306021187
 31
0
  0
LINE
  8
1
 62
7
 10
182.0943308764947
 20
47.58336306021218
 30
0
 11
182.0943308764947
 21
48.93786306021187
 31
0
  0
LINE
  8
1
 62
7
 10
181.7343308764936
 20
47.58336306021218
 30
0
 11
181.7343308764936
 21
48.93786306021187
 31
0
  0
LINE
  8
1
 62
7
 10
180.6993308764947
 20
49.64652376887332
 30
0
 11
180.6993308764947
 21
49.81536306021226
 31
0
  0
LINE
  8
1
 62
7
 10
180.6993308764947
 20
47.58336306021218
 30
0
 11
180.6993308764947
 21
48.93786306021187
 31
0
  0
LINE
  8
1
 62
7
 10
180.3393308764946
 20
47.58336306021218
 30
0
 11
180.3393308764946
 21
49.81536306021226
 31
0
  0
LINE
  8
1
 62
7
 10
183.1293308764948
 20
47.58336306021218
 30
0
 11
183.4893308764947
 21
47.58336306021218
 31
0
  0
LINE
  8
1
 62
7
 10
181.7343308764936
 20
47.58336306021218
 30
0
 11
182.0943308764947
 21
47.58336306021218
 31
0
  0
LINE
  8
1
 62
7
 10
180.3393308764946
 20
47.58336306021218
 30
0
 11
180.6993308764947
 21
47.58336306021218
 31
0
  0
LINE
  8
1
 62
7
 10
216.4493152395617
 20
0.5025384301092402
 30
0
 11
147.4493152395617
 21
0.5025384301092402
 31
0
  0
LINE
  8
1
 62
7
 10
147.4493152395617
 20
0.5025384301092402
 30
0
 11
136.9493152395617
 21
0.5025384301092402
 31
0
  0
LINE
  8
1
 62
7
 10
148.4493152395617
 20
-5.49746156989076
 30
0
 11
148.4493152395617
 21
-0.4974615698907599
 31
0
  0
LINE
  8
1
 62
7
 10
215.4493152395617
 20
-5.49746156989076
 30
0
 11
215.4493152395617
 21
-0.4974615698907599
 31
0
  0
LINE
  8
1
 62
7
 10
149.4493152395617
 20
-6.49746156989076
 30
0
 11
214.4493152395617
 21
-6.49746156989076
 31
0
  0
LINE
  8
1
 62
7
 10
152.6533736935427
 20
48.67715963256777
 30
0
 11
152.6533736935427
 21
49.38426641375466
 31
0
  0
LINE
  8
1
 62
7
 10
211.1993152395617
 20
48.67715963256777
 30
0
 11
211.1993152395617
 21
49.38426641375466
 31
0
  0
LINE
  8
1
 62
7
 10
152.6533736935427
 20
48.67715963256777
 30
0
 11
152.6533736935427
 21
47.31840242193269
 31
0
  0
LINE
  8
1
 62
7
 10
154.6533736935427
 20
50.67715963256777
 30
0
 11
209.1993152395617
 21
50.67715963256777
 31
0
  0
LINE
  8
1
 62
7
 10
209.1993152395617
 20
51.38426641375466
 30
0
 11
154.6533736935427
 21
51.38426641375466
 31
0
  0
LINE
  8
1
 62
7
 10
211.1993152395617
 20
43.70659688409083
 30
0
 11
211.1993152395617
 21
46.96484903133867
 31
0
  0
LINE
  8
1
 62
7
 10
162.6533736935427
 20
33.70659688409083
 30
0
 11
201.1993152395617
 21
33.70659688409083
 31
0
  0
LINE
  8
1
 62
7
 10
187.9566057787906
 20
22.00253843010924
 30
0
 11
223.4493152395617
 21
22.00253843010924
 31
0
  0
LINE
  8
1
 62
7
 10
138.9493152395617
 20
9.50253843010924
 30
0
 11
224.9493152395617
 21
9.50253843010924
 31
0
  0
LINE
  8
1
 62
7
 10
144.5813529636628
 20
50.92680249882122
 30
0
 11
140.4493152395617
 21
22.00253843010924
 31
0
  0
LINE
  8
1
 62
7
 10
223.4493152395617
 20
22.00253843010924
 30
0
 11
219.3172775154596
 21
50.92680249882122
 31
0
  0
LINE
  8
1
 62
7
 10
147.5512014446467
 20
53.50253843010924
 30
0
 11
216.3474290344768
 21
53.50253843010924
 31
0
  0
LINE
  8
1
 62
7
 10
140.4493152395617
 20
22.00253843010924
 30
0
 11
140.4493152395617
 21
11.00253843010924
 31
0
  0
LINE
  8
1
 62
7
 10
224.9493152395617
 20
9.50253843010924
 30
0
 11
225.4493152395617
 21
9.50253843010924
 31
0
  0
LINE
  8
1
 62
7
 10
223.4493152395617
 20
22.00253843010924
 30
0
 11
223.4493152395617
 21
11.00253843010924
 31
0
  0
LINE
  8
1
 62
7
 10
140.4493152395617
 20
22.00253843010924
 30
0
 11
175.9420247003326
 21
22.00253843010924
 31
0
  0
LINE
  8
1
 62
7
 10
136.9493152395617
 20
0.5025384301092402
 30
0
 11
136.9493152395617
 21
8.00253843010924
 31
0
  0
LINE
  8
1
 62
7
 10
226.9493152395617
 20
0.5025384301092402
 30
0
 11
216.4493152395617
 21
0.5025384301092402
 31
0
  0
LINE
  8
1
 62
7
 10
226.9493152395617
 20
8.00253843010924
 30
0
 11
226.9493152395617
 21
0.5025384301092402
 31
0
  0
LINE
  8
1
 62
7
 10
138.4493152395617
 20
9.50253843010924
 30
0
 11
138.9493152395617
 21
9.50253843010924
 31
0
  0
LINE
  8
1
 62
2
  6
DASHDOT
 10
214.1438631393928
 20
-3.035039347966944
 30
0
 11
219.7425483472437
 21
-3.035039347966944
 31
0
  0
LINE
  8
1
 62
7
 10
216.9501334213796
 20
-0.283539347966979
 30
0
 11
216.9501334213796
 21
-5.786539347967079
 31
0
  0
LINE
  8
1
 62
7
 10
216.9501334213796
 20
-5.786539347967079
 30
0
 11
217.4948762980227
 21
-5.738880521724269
 31
0
  0
LINE
  8
1
 62
7
 10
216.9501334213796
 20
-0.283539347966979
 30
0
 11
217.4948762980227
 21
-0.3311981742097885
 31
0
  0
LINE
  8
1
 62
2
 10
215.4493152395617
 20
-4.235693893421598
 30
0
 11
216.9501334213796
 21
-4.235693893421598
 31
0
  0
LINE
  8
1
 62
2
 10
215.4493152395617
 20
-1.834384802512574
 30
0
 11
216.9501334213796
 21
-1.834384802512574
 31
0
  0
LINE
  8
1
 62
2
 10
218.0286387917737
 20
-3.035039347966944
 30
0
 11
218.8496540081237
 21
-1.612999279460979
 31
0
  0
LINE
  8
1
 62
2
 10
218.8496540081237
 20
-4.457079416473192
 30
0
 11
218.0286387917737
 21
-3.035039347966944
 31
0
  0
LINE
  8
1
 62
7
 10
216.9501334213796
 20
-4.535857529785034
 30
0
 11
215.4493152395617
 21
-4.535857529785034
 31
0
  0
LINE
  8
1
 62
7
 10
216.9501334213796
 20
-1.53422116614874
 30
0
 11
215.4493152395617
 21
-1.53422116614874
 31
0
  0
LINE
  8
1
 62
7
 10
184.0135082507028
 20
127.4165421699572
 30
0
 11
184.0135082507028
 21
127.2337296699571
 31
0
  0
LINE
  8
1
 62
7
 10
184.0947582507027
 20
127.4165421699572
 30
0
 11
184.0135082507028
 21
127.4165421699572
 31
0
  0
LINE
  8
1
 62
7
 10
184.1760082507027
 20
127.4368546699571
 30
0
 11
184.0947582507027
 21
127.4165421699572
 31
0
  0
LINE
  8
1
 62
7
 10
184.2369457507017
 20
127.4774796699573
 30
0
 11
184.1760082507027
 21
127.4368546699571
 31
0
  0
LINE
  8
1
 62
7
 10
184.2775707507027
 20
127.5384171699571
 30
0
 11
184.2369457507017
 21
127.4774796699573
 31
0
  0
LINE
  8
1
 62
7
 10
184.2978832507027
 20
127.5993546699573
 30
0
 11
184.2775707507027
 21
127.5384171699571
 31
0
  0
LINE
  8
1
 62
7
 10
184.2978832507027
 20
127.6806046699573
 30
0
 11
184.2978832507027
 21
127.5993546699573
 31
0
  0
LINE
  8
1
 62
7
 10
184.2775707507027
 20
127.7415421699571
 30
0
 11
184.2978832507027
 21
127.6806046699573
 31
0
  0
LINE
  8
1
 62
7
 10
184.2369457507017
 20
127.8024796699573
 30
0
 11
184.2775707507027
 21
127.7415421699571
 31
0
  0
LINE
  8
1
 62
7
 10
184.1760082507027
 20
127.8431046699571
 30
0
 11
184.2369457507017
 21
127.8024796699573
 31
0
  0
LINE
  8
1
 62
7
 10
184.0947582507027
 20
127.8634171699573
 30
0
 11
184.1760082507027
 21
127.8431046699571
 31
0
  0
LINE
  8
1
 62
7
 10
184.0135082507028
 20
127.8634171699573
 30
0
 11
184.0947582507027
 21
127.8634171699573
 31
0
  0
LINE
  8
1
 62
7
 10
183.9322582507017
 20
127.8431046699571
 30
0
 11
184.0135082507028
 21
127.8634171699573
 31
0
  0
LINE
  8
1
 62
7
 10
183.8713207507027
 20
127.8024796699573
 30
0
 11
183.9322582507017
 21
127.8431046699571
 31
0
  0
LINE
  8
1
 62
7
 10
183.8306957507017
 20
127.7415421699571
 30
0
 11
183.8713207507027
 21
127.8024796699573
 31
0
  0
LINE
  8
1
 62
7
 10
183.8103832507028
 20
127.6806046699573
 30
0
 11
183.8306957507017
 21
127.7415421699571
 31
0
  0
LINE
  8
1
 62
7
 10
183.8103832507028
 20
127.5993546699573
 30
0
 11
183.8103832507028
 21
127.6806046699573
 31
0
  0
LINE
  8
1
 62
7
 10
183.5869457507027
 20
127.5993546699573
 30
0
 11
183.8103832507028
 21
127.5993546699573
 31
0
  0
LINE
  8
1
 62
7
 10
183.5869457507027
 20
127.6806046699573
 30
0
 11
183.5869457507027
 21
127.5993546699573
 31
0
  0
LINE
  8
1
 62
7
 10
183.6072582507028
 20
127.7821671699573
 30
0
 11
183.5869457507027
 21
127.6806046699573
 31
0
  0
LINE
  8
1
 62
7
 10
183.6885082507027
 20
127.9040421699573
 30
0
 11
183.6072582507028
 21
127.7821671699573
 31
0
  0
LINE
  8
1
 62
7
 10
183.7697582507027
 20
127.9852921699573
 30
0
 11
183.6885082507027
 21
127.9040421699573
 31
0
  0
LINE
  8
1
 62
7
 10
183.8916332507027
 20
128.0462296699571
 30
0
 11
183.7697582507027
 21
127.9852921699573
 31
0
  0
LINE
  8
1
 62
7
 10
183.9931957507027
 20
128.0665421699573
 30
0
 11
183.8916332507027
 21
128.0462296699571
 31
0
  0
LINE
  8
1
 62
7
 10
184.1150707507028
 20
128.0665421699573
 30
0
 11
183.9931957507027
 21
128.0665421699573
 31
0
  0
LINE
  8
1
 62
7
 10
184.2166332507028
 20
128.0462296699571
 30
0
 11
184.1150707507028
 21
128.0665421699573
 31
0
  0
LINE
  8
1
 62
7
 10
184.3385082507017
 20
127.9852921699573
 30
0
 11
184.2166332507028
 21
128.0462296699571
 31
0
  0
LINE
  8
1
 62
7
 10
184.4197582507028
 20
127.9040421699573
 30
0
 11
184.3385082507017
 21
127.9852921699573
 31
0
  0
LINE
  8
1
 62
7
 10
184.5010082507027
 20
127.7821671699573
 30
0
 11
184.4197582507028
 21
127.9040421699573
 31
0
  0
LINE
  8
1
 62
7
 10
184.5213207507028
 20
127.6806046699573
 30
0
 11
184.5010082507027
 21
127.7821671699573
 31
0
  0
LINE
  8
1
 62
7
 10
184.5213207507028
 20
127.5993546699573
 30
0
 11
184.5213207507028
 21
127.6806046699573
 31
0
  0
LINE
  8
1
 62
7
 10
184.5010082507027
 20
127.4977921699573
 30
0
 11
184.5213207507028
 21
127.5993546699573
 31
0
  0
LINE
  8
1
 62
7
 10
184.4197582507028
 20
127.3759171699573
 30
0
 11
184.5010082507027
 21
127.4977921699573
 31
0
  0
LINE
  8
1
 62
7
 10
184.3791332507027
 20
127.3352921699571
 30
0
 11
184.4197582507028
 21
127.3759171699573
 31
0
  0
LINE
  8
1
 62
7
 10
184.4806957507027
 20
127.2540421699573
 30
0
 11
184.3791332507027
 21
127.3352921699571
 31
0
  0
LINE
  8
1
 62
7
 10
184.5619457507017
 20
127.1321671699571
 30
0
 11
184.4806957507027
 21
127.2540421699573
 31
0
  0
LINE
  8
1
 62
7
 10
184.6025707507027
 20
126.9899796699573
 30
0
 11
184.5619457507017
 21
127.1321671699571
 31
0
  0
LINE
  8
1
 62
7
 10
184.6025707507027
 20
126.8884171699573
 30
0
 11
184.6025707507027
 21
126.9899796699573
 31
0
  0
LINE
  8
1
 62
7
 10
184.5619457507017
 20
126.7462296699573
 30
0
 11
184.6025707507027
 21
126.8884171699573
 31
0
  0
LINE
  8
1
 62
7
 10
184.5010082507027
 20
126.6446671699573
 30
0
 11
184.5619457507017
 21
126.7462296699573
 31
0
  0
LINE
  8
1
 62
7
 10
184.3994457507027
 20
126.5431046699573
 30
0
 11
184.5010082507027
 21
126.6446671699573
 31
0
  0
LINE
  8
1
 62
7
 10
184.2775707507027
 20
126.4821671699573
 30
0
 11
184.3994457507027
 21
126.5431046699573
 31
0
  0
LINE
  8
1
 62
7
 10
184.1150707507028
 20
126.4415421699573
 30
0
 11
184.2775707507027
 21
126.4821671699573
 31
0
  0
LINE
  8
1
 62
7
 10
183.9931957507027
 20
126.4415421699573
 30
0
 11
184.1150707507028
 21
126.4415421699573
 31
0
  0
LINE
  8
1
 62
7
 10
183.8306957507017
 20
126.4821671699573
 30
0
 11
183.9931957507027
 21
126.4415421699573
 31
0
  0
LINE
  8
1
 62
7
 10
183.7088207507028
 20
126.5431046699573
 30
0
 11
183.8306957507017
 21
126.4821671699573
 31
0
  0
LINE
  8
1
 62
7
 10
183.6072582507028
 20
126.6446671699573
 30
0
 11
183.7088207507028
 21
126.5431046699573
 31
0
  0
LINE
  8
1
 62
7
 10
183.5463207507017
 20
126.7462296699573
 30
0
 11
183.6072582507028
 21
126.6446671699573
 31
0
  0
LINE
  8
1
 62
7
 10
183.5056957507028
 20
126.8884171699573
 30
0
 11
183.5463207507017
 21
126.7462296699573
 31
0
  0
LINE
  8
1
 62
7
 10
183.5056957507028
 20
126.9899796699573
 30
0
 11
183.5056957507028
 21
126.8884171699573
 31
0
  0
LINE
  8
1
 62
7
 10
183.7494457507017
 20
126.9899796699573
 30
0
 11
183.5056957507028
 21
126.9899796699573
 31
0
  0
LINE
  8
1
 62
7
 10
183.7494457507017
 20
126.9087296699572
 30
0
 11
183.7494457507017
 21
126.9899796699573
 31
0
  0
LINE
  8
1
 62
7
 10
183.7697582507027
 20
126.8274796699571
 30
0
 11
183.7494457507017
 21
126.9087296699572
 31
0
  0
LINE
  8
1
 62
7
 10
183.8306957507017
 20
126.7462296699573
 30
0
 11
183.7697582507027
 21
126.8274796699571
 31
0
  0
LINE
  8
1
 62
7
 10
183.9119457507028
 20
126.6852921699573
 30
0
 11
183.8306957507017
 21
126.7462296699573
 31
0
  0
LINE
  8
1
 62
7
 10
184.0135082507028
 20
126.6649796699573
 30
0
 11
183.9119457507028
 21
126.6852921699573
 31
0
  0
LINE
  8
1
 62
7
 10
184.0947582507027
 20
126.6649796699573
 30
0
 11
184.0135082507028
 21
126.6649796699573
 31
0
  0
LINE
  8
1
 62
7
 10
184.1963207507027
 20
126.6852921699573
 30
0
 11
184.0947582507027
 21
126.6649796699573
 31
0
  0
LINE
  8
1
 62
7
 10
184.2775707507027
 20
126.7462296699573
 30
0
 11
184.1963207507027
 21
126.6852921699573
 31
0
  0
LINE
  8
1
 62
7
 10
184.3385082507017
 20
126.8274796699571
 30
0
 11
184.2775707507027
 21
126.7462296699573
 31
0
  0
LINE
  8
1
 62
7
 10
184.3588207507017
 20
126.9087296699572
 30
0
 11
184.3385082507017
 21
126.8274796699571
 31
0
  0
LINE
  8
1
 62
7
 10
184.3588207507017
 20
126.9899796699573
 30
0
 11
184.3588207507017
 21
126.9087296699572
 31
0
  0
LINE
  8
1
 62
7
 10
184.3385082507017
 20
127.0712296699573
 30
0
 11
184.3588207507017
 21
126.9899796699573
 31
0
  0
LINE
  8
1
 62
7
 10
184.2775707507027
 20
127.1524796699573
 30
0
 11
184.3385082507017
 21
127.0712296699573
 31
0
  0
LINE
  8
1
 62
7
 10
184.1963207507027
 20
127.2134171699572
 30
0
 11
184.2775707507027
 21
127.1524796699573
 31
0
  0
LINE
  8
1
 62
7
 10
184.0947582507027
 20
127.2337296699571
 30
0
 11
184.1963207507027
 21
127.2134171699572
 31
0
  0
LINE
  8
1
 62
7
 10
184.0135082507028
 20
127.2337296699571
 30
0
 11
184.0947582507027
 21
127.2337296699571
 31
0
  0
LINE
  8
1
 62
7
 10
208.7500127024788
 20
125.3206845222594
 30
0
 11
206.8122002024787
 21
125.3206845222594
 31
0
  0
LINE
  8
1
 62
7
 10
208.7500127024788
 20
125.6019345222594
 30
0
 11
208.7500127024788
 21
125.3206845222594
 31
0
  0
LINE
  8
1
 62
7
 10
207.2143877024788
 20
125.6019345222594
 30
0
 11
208.7500127024788
 21
125.6019345222594
 31
0
  0
LINE
  8
1
 62
7
 10
207.2143877024788
 20
127.5706845222594
 30
0
 11
207.2143877024788
 21
125.6019345222594
 31
0
  0
LINE
  8
1
 62
7
 10
206.8122002024787
 20
127.5706845222594
 30
0
 11
207.2143877024788
 21
127.5706845222594
 31
0
  0
LINE
  8
1
 62
7
 10
206.8122002024787
 20
125.3206845222594
 30
0
 11
206.8122002024787
 21
127.5706845222594
 31
0
  0
LINE
  8
1
 62
7
 10
172.9493152395618
 20
150.2716377460965
 30
0
 11
190.9493152395618
 21
150.2716377460965
 31
0
  0
LINE
  8
1
 62
7
 10
172.9493152395618
 20
150.2716377460965
 30
0
 11
172.9493152395618
 21
150.7716377460965
 31
0
  0
LINE
  8
1
 62
7
 10
173.9493152395618
 20
151.7716377460965
 30
0
 11
173.9493152395618
 21
152.2716377460965
 31
0
  0
LINE
  8
1
 62
7
 10
189.9493152395618
 20
151.7716377460965
 30
0
 11
189.9493152395618
 21
152.2716377460965
 31
0
  0
LINE
  8
1
 62
7
 10
190.9493152395618
 20
150.2716377460965
 30
0
 11
190.9493152395618
 21
150.7716377460965
 31
0
  0
LINE
  8
1
 62
7
 10
172.9493152395618
 20
150.7716377460965
 30
0
 11
173.9493152395618
 21
151.7716377460965
 31
0
  0
LINE
  8
1
 62
7
 10
189.9493152395618
 20
151.7716377460965
 30
0
 11
190.9493152395618
 21
150.7716377460965
 31
0
  0
LINE
  8
1
 62
7
 10
142.6601309772226
 20
152.2716377460965
 30
0
 11
173.9493152395618
 21
152.2716377460965
 31
0
  0
LINE
  8
1
 62
7
 10
189.9493152395618
 20
152.2716377460965
 30
0
 11
221.2384995019007
 21
152.2716377460965
 31
0
  0
LINE
  8
1
 62
7
 10
154.6533736935427
 20
128.6962589485551
 30
0
 11
209.1993152395618
 21
128.6962589485551
 31
0
  0
LINE
  8
1
 62
7
 10
217.9668111928708
 20
131.7716377460965
 30
0
 11
145.9318192862517
 21
131.7716377460965
 31
0
  0
LINE
  8
1
 62
7
 10
161.1533736935427
 20
111.7256962000779
 30
0
 11
202.6993152395618
 21
111.7256962000779
 31
0
  0
LINE
  8
1
 62
7
 10
211.1993152395618
 20
120.5792495906713
 30
0
 11
211.1993152395618
 21
126.6962589485551
 31
0
  0
LINE
  8
1
 62
7
 10
211.1993152395618
 20
120.2256962000779
 30
0
 11
211.1993152395618
 21
120.5792495906713
 31
0
  0
LINE
  8
1
 62
7
 10
161.1533736935427
 20
112.0792495906713
 30
0
 11
202.6993152395618
 21
112.0792495906713
 31
0
  0
LINE
  8
1
 62
7
 10
152.6533736935427
 20
120.5792495906713
 30
0
 11
152.6533736935427
 21
126.6962589485551
 31
0
  0
LINE
  8
1
 62
7
 10
152.6533736935427
 20
120.2256962000779
 30
0
 11
152.6533736935427
 21
120.5792495906713
 31
0
  0
LINE
  8
1
 62
7
 10
179.6443152395617
 20
125.4967069700851
 30
0
 11
180.0043152395616
 21
125.4967069700851
 31
0
  0
LINE
  8
1
 62
7
 10
181.0393152395608
 20
125.4967069700851
 30
0
 11
181.3993152395616
 21
125.4967069700851
 31
0
  0
LINE
  8
1
 62
7
 10
182.4343152395617
 20
125.4967069700851
 30
0
 11
182.7943152395607
 21
125.4967069700851
 31
0
  0
LINE
  8
1
 62
7
 10
179.6443152395617
 20
125.4967069700851
 30
0
 11
179.6443152395617
 21
127.7287069700853
 31
0
  0
LINE
  8
1
 62
7
 10
180.0043152395616
 20
125.4967069700851
 30
0
 11
180.0043152395616
 21
126.8512069700851
 31
0
  0
LINE
  8
1
 62
7
 10
180.0043152395616
 20
127.5598676787463
 30
0
 11
180.0043152395616
 21
127.7287069700853
 31
0
  0
LINE
  8
1
 62
7
 10
181.0393152395608
 20
125.4967069700851
 30
0
 11
181.0393152395608
 21
126.8512069700851
 31
0
  0
LINE
  8
1
 62
7
 10
181.3993152395616
 20
125.4967069700851
 30
0
 11
181.3993152395616
 21
126.8512069700851
 31
0
  0
LINE
  8
1
 62
7
 10
182.4343152395617
 20
125.4967069700851
 30
0
 11
182.4343152395617
 21
126.8512069700851
 31
0
  0
LINE
  8
1
 62
7
 10
182.7943152395607
 20
125.4967069700851
 30
0
 11
182.7943152395607
 21
126.8512069700851
 31
0
  0
LINE
  8
1
 62
7
 10
179.6443152395617
 20
125.4967069700851
 30
0
 11
180.0043152395616
 21
125.4967069700851
 31
0
  0
LINE
  8
1
 62
7
 10
181.0393152395608
 20
125.4967069700851
 30
0
 11
181.3993152395616
 21
125.4967069700851
 31
0
  0
LINE
  8
1
 62
7
 10
182.4343152395617
 20
125.4967069700851
 30
0
 11
182.7943152395607
 21
125.4967069700851
 31
0
  0
LINE
  8
1
 62
7
 10
179.6443152395617
 20
127.7287069700853
 30
0
 11
180.0043152395616
 21
127.7287069700853
 31
0
  0
LINE
  8
1
 62
7
 10
211.1993152395618
 20
121.3598322082549
 30
0
 11
211.1993152395618
 21
124.6180843555025
 31
0
  0
LINE
  8
1
 62
7
 10
210.4739317981338
 20
121.4593271448664
 30
0
 11
209.2139269345747
 21
121.4593271448664
 31
0
  0
LINE
  8
1
 62
7
 10
209.2139269345747
 20
121.4593271448664
 30
0
 11
209.2139269345747
 21
121.0593271448663
 31
0
  0
LINE
  8
1
 62
7
 10
209.2139269345747
 20
121.0593271448663
 30
0
 11
210.4739317981338
 21
121.0593271448663
 31
0
  0
LINE
  8
1
 62
7
 10
210.4739317981338
 20
121.0593271448663
 30
0
 11
210.4739317981338
 21
121.4593271448664
 31
0
  0
LINE
  8
1
 62
7
 10
184.5473769544916
 20
123.5574241837228
 30
0
 11
153.1993152395618
 21
123.5574241837228
 31
0
  0
LINE
  8
1
 62
7
 10
184.5473769544916
 20
118.9612301060103
 30
0
 11
184.5473769544916
 21
123.5574241837228
 31
0
  0
LINE
  8
1
 62
7
 10
153.1993152395618
 20
123.5574241837228
 30
0
 11
153.1993152395618
 21
118.9612301060106
 31
0
  0
LINE
  8
1
 62
7
 10
153.1993152395618
 20
118.9612301060106
 30
0
 11
184.5473769544916
 21
118.9612301060103
 31
0
  0
LINE
  8
1
 62
7
 10
186.5473769544916
 20
124.6180843555032
 30
0
 11
186.5473769544916
 21
117.900569934231
 31
0
  0
LINE
  8
1
 62
7
 10
210.6993152395618
 20
121.0093271448656
 30
0
 11
210.6993152395618
 21
121.5093271448656
 31
0
  0
LINE
  8
1
 62
7
 10
210.6993152395618
 20
121.0093271448656
 30
0
 11
211.1931706617967
 21
121.0093271448656
 31
0
  0
LINE
  8
1
 62
7
 10
210.6993152395618
 20
121.5093271448656
 30
0
 11
210.6993152395618
 21
123.5574241837217
 31
0
  0
LINE
  8
1
 62
7
 10
204.1993152395618
 20
115.6024728953742
 30
0
 11
209.3756722365607
 21
115.6024728953741
 31
0
  0
LINE
  8
1
 62
7
 10
204.1993152395618
 20
117.9005699342303
 30
0
 11
204.1993152395618
 21
115.6024728953742
 31
0
  0
LINE
  8
1
 62
7
 10
186.5473769544916
 20
117.900569934231
 30
0
 11
204.1993152395618
 21
117.9005699342303
 31
0
  0
LINE
  8
1
 62
7
 10
205.6993152395618
 20
118.9612301060095
 30
0
 11
205.6993152395618
 21
116.6631330671537
 31
0
  0
LINE
  8
1
 62
7
 10
188.0473769544916
 20
118.9612301060106
 30
0
 11
205.6993152395618
 21
118.9612301060095
 31
0
  0
LINE
  8
1
 62
7
 10
188.0473769544916
 20
123.5574241837228
 30
0
 11
188.0473769544916
 21
118.9612301060106
 31
0
  0
LINE
  8
1
 62
7
 10
210.6993152395618
 20
123.5574241837217
 30
0
 11
188.0473769544916
 21
123.5574241837228
 31
0
  0
LINE
  8
1
 62
7
 10
205.6993152395618
 20
116.6631330671537
 30
0
 11
210.0277362296357
 21
116.6631330671537
 31
0
  0
LINE
  8
1
 62
7
 10
203.6993152395618
 20
117.5470165436363
 30
0
 11
153.4087841024558
 21
117.5470165436373
 31
0
  0
LINE
  8
1
 62
7
 10
203.6993152395618
 20
115.2489195047806
 30
0
 11
203.6993152395618
 21
117.5470165436363
 31
0
  0
LINE
  8
1
 62
7
 10
152.6533736935427
 20
124.9716377460968
 30
0
 11
211.1993152395618
 21
124.9716377460959
 31
0
  0
LINE
  8
1
 62
7
 10
211.1993152395618
 20
124.6180843555025
 30
0
 11
186.5473769544916
 21
124.6180843555032
 31
0
  0
LINE
  8
1
 62
7
 10
211.1993152395618
 20
121.5093271448656
 30
0
 11
210.6993152395618
 21
121.5093271448656
 31
0
  0
LINE
  8
1
 62
7
 10
210.6993152395618
 20
118.2373332090556
 30
0
 11
210.6993152395618
 21
121.0093271448656
 31
0
  0
LINE
  8
1
 62
7
 10
209.1149166652598
 20
115.2489195047806
 30
0
 11
203.6993152395618
 21
115.2489195047806
 31
0
  0
LINE
  8
1
 62
7
 10
211.1993152395618
 20
124.6180843555025
 30
0
 11
211.1993152395618
 21
124.9716377460959
 31
0
  0
LINE
  8
1
 62
7
 10
152.6533736935427
 20
124.9716377460968
 30
0
 11
152.6533736935427
 21
121.3598322082549
 31
0
  0
LINE
  8
1
 62
7
 10
182.6183084637468
 20
119.4138285953868
 30
0
 11
182.6183084637468
 21
123.1048256943463
 31
0
  0
LINE
  8
1
 62
7
 10
182.6183084637468
 20
123.1048256943463
 30
0
 11
182.2492087538518
 21
123.1048256943463
 31
0
  0
LINE
  8
1
 62
7
 10
182.2492087538518
 20
123.1048256943463
 30
0
 11
182.2030712901147
 21
122.9664133031356
 31
0
  0
LINE
  8
1
 62
7
 10
182.2030712901147
 20
122.9664133031356
 30
0
 11
182.0646588989026
 21
122.7818634481875
 31
0
  0
LINE
  8
1
 62
7
 10
182.0646588989026
 20
122.7818634481875
 30
0
 11
181.9262465076928
 21
122.6434510569763
 31
0
  0
LINE
  8
1
 62
7
 10
181.9262465076928
 20
122.6434510569763
 30
0
 11
181.7416966527447
 21
122.5511761295026
 31
0
  0
LINE
  8
1
 62
7
 10
181.7416966527447
 20
122.5511761295026
 30
0
 11
181.6032842615338
 21
122.5050386657656
 31
0
  0
LINE
  8
1
 62
7
 10
181.6032842615338
 20
122.5050386657656
 30
0
 11
181.3725969428477
 21
122.4589012020286
 31
0
  0
LINE
  8
1
 62
7
 10
181.3725969428477
 20
122.4589012020286
 30
0
 11
181.2803220153757
 21
122.4589012020286
 31
0
  0
LINE
  8
1
 62
7
 10
181.2803220153757
 20
122.4589012020286
 30
0
 11
181.2803220153757
 21
122.0898014921326
 31
0
  0
LINE
  8
1
 62
7
 10
181.2803220153757
 20
122.0898014921326
 30
0
 11
182.1569338263777
 21
122.0898014921326
 31
0
  0
LINE
  8
1
 62
7
 10
182.1569338263777
 20
122.0898014921326
 30
0
 11
182.1569338263777
 21
119.4138285953868
 31
0
  0
LINE
  8
1
 62
7
 10
182.1569338263777
 20
119.4138285953868
 30
0
 11
182.6183084637468
 21
119.4138285953868
 31
0
  0
LINE
  8
1
 62
7
 10
175.5641898790467
 20
119.8752032327566
 30
0
 11
175.9517445744376
 21
119.8752032327566
 31
0
  0
LINE
  8
1
 62
7
 10
175.9517445744376
 20
119.8752032327566
 30
0
 11
176.1732044003758
 21
119.9674781602305
 31
0
  0
LINE
  8
1
 62
7
 10
176.1732044003758
 20
119.9674781602305
 30
0
 11
176.3946642263128
 21
120.1058905514417
 31
0
  0
LINE
  8
1
 62
7
 10
176.3946642263128
 20
120.1058905514417
 30
0
 11
176.5053941392818
 21
120.2443029426526
 31
0
  0
LINE
  8
1
 62
7
 10
176.5053941392818
 20
120.2443029426526
 30
0
 11
176.6161240522507
 21
120.4749902613376
 31
0
  0
LINE
  8
1
 62
7
 10
176.6161240522507
 20
120.4749902613376
 30
0
 11
176.6714890087347
 21
120.9825023624444
 31
0
  0
LINE
  8
1
 62
7
 10
176.6714890087347
 20
120.9825023624444
 30
0
 11
176.6714890087347
 21
121.5361519272883
 31
0
  0
LINE
  8
1
 62
7
 10
176.6714890087347
 20
121.5361519272883
 30
0
 11
176.6161240522507
 21
122.0436640283953
 31
0
  0
LINE
  8
1
 62
7
 10
176.6161240522507
 20
122.0436640283953
 30
0
 11
176.5053941392818
 21
122.2743513470803
 31
0
  0
LINE
  8
1
 62
7
 10
176.5053941392818
 20
122.2743513470803
 30
0
 11
176.3946642263128
 21
122.4127637382913
 31
0
  0
LINE
  8
1
 62
7
 10
176.3946642263128
 20
122.4127637382913
 30
0
 11
176.1732044003758
 21
122.5511761295024
 31
0
  0
LINE
  8
1
 62
7
 10
176.1732044003758
 20
122.5511761295024
 30
0
 11
175.9517445744376
 21
122.6434510569763
 31
0
  0
LINE
  8
1
 62
7
 10
175.9517445744376
 20
122.6434510569763
 30
0
 11
175.5641898790467
 21
122.6434510569763
 31
0
  0
LINE
  8
1
 62
7
 10
175.5641898790467
 20
122.6434510569763
 30
0
 11
175.3427300531097
 21
122.5511761295024
 31
0
  0
LINE
  8
1
 62
7
 10
175.3427300531097
 20
122.5511761295024
 30
0
 11
175.1212702271718
 21
122.4127637382913
 31
0
  0
LINE
  8
1
 62
7
 10
175.1212702271718
 20
122.4127637382913
 30
0
 11
175.0105403142028
 21
122.2743513470803
 31
0
  0
LINE
  8
1
 62
7
 10
175.0105403142028
 20
122.2743513470803
 30
0
 11
174.8998104012347
 21
122.0436640283953
 31
0
  0
LINE
  8
1
 62
7
 10
174.8998104012347
 20
122.0436640283953
 30
0
 11
174.8444454447487
 21
121.5361519272883
 31
0
  0
LINE
  8
1
 62
7
 10
174.8444454447487
 20
121.5361519272883
 30
0
 11
174.8444454447487
 21
120.9825023624444
 31
0
  0
LINE
  8
1
 62
7
 10
174.8444454447487
 20
120.9825023624444
 30
0
 11
174.8998104012347
 21
120.4749902613376
 31
0
  0
LINE
  8
1
 62
7
 10
174.8998104012347
 20
120.4749902613376
 30
0
 11
175.0105403142028
 21
120.2443029426526
 31
0
  0
LINE
  8
1
 62
7
 10
175.0105403142028
 20
120.2443029426526
 30
0
 11
175.1212702271718
 21
120.1058905514417
 31
0
  0
LINE
  8
1
 62
7
 10
175.1212702271718
 20
120.1058905514417
 30
0
 11
175.3427300531097
 21
119.9674781602305
 31
0
  0
LINE
  8
1
 62
7
 10
175.3427300531097
 20
119.9674781602305
 30
0
 11
175.5641898790467
 21
119.8752032327566
 31
0
  0
LINE
  8
1
 62
7
 10
176.6161240522507
 20
119.6445159140717
 30
0
 11
176.7822189217037
 21
119.7829283052826
 31
0
  0
LINE
  8
1
 62
7
 10
176.7822189217037
 20
119.7829283052826
 30
0
 11
176.9483137911567
 21
119.9674781602305
 31
0
  0
LINE
  8
1
 62
7
 10
176.9483137911567
 20
119.9674781602305
 30
0
 11
177.0590437041257
 21
120.1520280151786
 31
0
  0
LINE
  8
1
 62
7
 10
177.0590437041257
 20
120.1520280151786
 30
0
 11
177.1697736170946
 21
120.3827153338636
 31
0
  0
LINE
  8
1
 62
7
 10
177.1697736170946
 20
120.3827153338636
 30
0
 11
177.2251385735787
 21
120.6595401162856
 31
0
  0
LINE
  8
1
 62
7
 10
177.2251385735787
 20
120.6595401162856
 30
0
 11
177.2805035300627
 21
121.0747772899186
 31
0
  0
LINE
  8
1
 62
7
 10
177.2805035300627
 20
121.0747772899186
 30
0
 11
177.2805035300627
 21
121.4438769998144
 31
0
  0
LINE
  8
1
 62
7
 10
177.2805035300627
 20
121.4438769998144
 30
0
 11
177.2251385735787
 21
121.8591141734474
 31
0
  0
LINE
  8
1
 62
7
 10
177.2251385735787
 20
121.8591141734474
 30
0
 11
177.1697736170946
 21
122.1359389558693
 31
0
  0
LINE
  8
1
 62
7
 10
177.1697736170946
 20
122.1359389558693
 30
0
 11
177.0590437041257
 21
122.3666262745544
 31
0
  0
LINE
  8
1
 62
7
 10
177.0590437041257
 20
122.3666262745544
 30
0
 11
176.9483137911567
 21
122.5511761295024
 31
0
  0
LINE
  8
1
 62
7
 10
176.9483137911567
 20
122.5511761295024
 30
0
 11
176.7822189217037
 21
122.7357259844503
 31
0
  0
LINE
  8
1
 62
7
 10
176.7822189217037
 20
122.7357259844503
 30
0
 11
176.6161240522507
 21
122.8741383756613
 31
0
  0
LINE
  8
1
 62
7
 10
176.6161240522507
 20
122.8741383756613
 30
0
 11
176.4500291827977
 21
122.9664133031353
 31
0
  0
LINE
  8
1
 62
7
 10
176.4500291827977
 20
122.9664133031353
 30
0
 11
176.1732044003758
 21
123.0586882306091
 31
0
  0
LINE
  8
1
 62
7
 10
176.1732044003758
 20
123.0586882306091
 30
0
 11
175.9517445744376
 21
123.1048256943463
 31
0
  0
LINE
  8
1
 62
7
 10
175.9517445744376
 20
123.1048256943463
 30
0
 11
175.5641898790467
 21
123.1048256943463
 31
0
  0
LINE
  8
1
 62
7
 10
175.5641898790467
 20
123.1048256943463
 30
0
 11
175.3427300531097
 21
123.0586882306091
 31
0
  0
LINE
  8
1
 62
7
 10
175.3427300531097
 20
123.0586882306091
 30
0
 11
175.0659052706868
 21
122.9664133031353
 31
0
  0
LINE
  8
1
 62
7
 10
175.0659052706868
 20
122.9664133031353
 30
0
 11
174.8998104012347
 21
122.8741383756613
 31
0
  0
LINE
  8
1
 62
7
 10
174.8998104012347
 20
122.8741383756613
 30
0
 11
174.7337155317797
 21
122.7357259844503
 31
0
  0
LINE
  8
1
 62
7
 10
174.7337155317797
 20
122.7357259844503
 30
0
 11
174.5676206623276
 21
122.5511761295024
 31
0
  0
LINE
  8
1
 62
7
 10
174.5676206623276
 20
122.5511761295024
 30
0
 11
174.4568907493587
 21
122.3666262745544
 31
0
  0
LINE
  8
1
 62
7
 10
174.4568907493587
 20
122.3666262745544
 30
0
 11
174.3461608363906
 21
122.1359389558693
 31
0
  0
LINE
  8
1
 62
7
 10
174.3461608363906
 20
122.1359389558693
 30
0
 11
174.2907958799057
 21
121.8591141734474
 31
0
  0
LINE
  8
1
 62
7
 10
174.2907958799057
 20
121.8591141734474
 30
0
 11
174.2354309234216
 21
121.4438769998144
 31
0
  0
LINE
  8
1
 62
7
 10
174.2354309234216
 20
121.4438769998144
 30
0
 11
174.2354309234216
 21
121.0747772899186
 31
0
  0
LINE
  8
1
 62
7
 10
174.2354309234216
 20
121.0747772899186
 30
0
 11
174.2907958799057
 21
120.6595401162856
 31
0
  0
LINE
  8
1
 62
7
 10
174.2907958799057
 20
120.6595401162856
 30
0
 11
174.3461608363906
 21
120.3827153338636
 31
0
  0
LINE
  8
1
 62
7
 10
174.3461608363906
 20
120.3827153338636
 30
0
 11
174.4568907493587
 21
120.1520280151786
 31
0
  0
LINE
  8
1
 62
7
 10
174.4568907493587
 20
120.1520280151786
 30
0
 11
174.5676206623276
 21
119.9674781602305
 31
0
  0
LINE
  8
1
 62
7
 10
174.5676206623276
 20
119.9674781602305
 30
0
 11
174.7337155317797
 21
119.7829283052826
 31
0
  0
LINE
  8
1
 62
7
 10
174.7337155317797
 20
119.7829283052826
 30
0
 11
174.8998104012347
 21
119.6445159140717
 31
0
  0
LINE
  8
1
 62
7
 10
174.8998104012347
 20
119.6445159140717
 30
0
 11
175.0659052706868
 21
119.5522409865976
 31
0
  0
LINE
  8
1
 62
7
 10
175.0659052706868
 20
119.5522409865976
 30
0
 11
175.3427300531097
 21
119.4599660591236
 31
0
  0
LINE
  8
1
 62
7
 10
175.3427300531097
 20
119.4599660591236
 30
0
 11
175.5641898790467
 21
119.4138285953866
 31
0
  0
LINE
  8
1
 62
7
 10
175.5641898790467
 20
119.4138285953866
 30
0
 11
175.9517445744376
 21
119.4138285953866
 31
0
  0
LINE
  8
1
 62
7
 10
175.9517445744376
 20
119.4138285953866
 30
0
 11
176.1732044003758
 21
119.4599660591236
 31
0
  0
LINE
  8
1
 62
7
 10
176.1732044003758
 20
119.4599660591236
 30
0
 11
176.4500291827977
 21
119.5522409865976
 31
0
  0
LINE
  8
1
 62
7
 10
176.4500291827977
 20
119.5522409865976
 30
0
 11
176.6161240522507
 21
119.6445159140717
 31
0
  0
LINE
  8
1
 62
7
 10
168.9391898790467
 20
119.8752032327566
 30
0
 11
169.3267445744376
 21
119.8752032327566
 31
0
  0
LINE
  8
1
 62
7
 10
169.3267445744376
 20
119.8752032327566
 30
0
 11
169.5482044003737
 21
119.9674781602305
 31
0
  0
LINE
  8
1
 62
7
 10
169.5482044003737
 20
119.9674781602305
 30
0
 11
169.7696642263128
 21
120.1058905514417
 31
0
  0
LINE
  8
1
 62
7
 10
169.7696642263128
 20
120.1058905514417
 30
0
 11
169.8803941392818
 21
120.2443029426526
 31
0
  0
LINE
  8
1
 62
7
 10
169.8803941392818
 20
120.2443029426526
 30
0
 11
169.9911240522498
 21
120.4749902613376
 31
0
  0
LINE
  8
1
 62
7
 10
169.9911240522498
 20
120.4749902613376
 30
0
 11
170.0464890087347
 21
120.9825023624444
 31
0
  0
LINE
  8
1
 62
7
 10
170.0464890087347
 20
120.9825023624444
 30
0
 11
170.0464890087347
 21
121.5361519272883
 31
0
  0
LINE
  8
1
 62
7
 10
170.0464890087347
 20
121.5361519272883
 30
0
 11
169.9911240522498
 21
122.0436640283953
 31
0
  0
LINE
  8
1
 62
7
 10
169.9911240522498
 20
122.0436640283953
 30
0
 11
169.8803941392818
 21
122.2743513470803
 31
0
  0
LINE
  8
1
 62
7
 10
169.8803941392818
 20
122.2743513470803
 30
0
 11
169.7696642263128
 21
122.4127637382913
 31
0
  0
LINE
  8
1
 62
7
 10
169.7696642263128
 20
122.4127637382913
 30
0
 11
169.5482044003737
 21
122.5511761295024
 31
0
  0
LINE
  8
1
 62
7
 10
169.5482044003737
 20
122.5511761295024
 30
0
 11
169.3267445744376
 21
122.6434510569763
 31
0
  0
LINE
  8
1
 62
7
 10
169.3267445744376
 20
122.6434510569763
 30
0
 11
168.9391898790467
 21
122.6434510569763
 31
0
  0
LINE
  8
1
 62
7
 10
168.9391898790467
 20
122.6434510569763
 30
0
 11
168.7177300531088
 21
122.5511761295024
 31
0
  0
LINE
  8
1
 62
7
 10
168.7177300531088
 20
122.5511761295024
 30
0
 11
168.4962702271718
 21
122.4127637382913
 31
0
  0
LINE
  8
1
 62
7
 10
168.4962702271718
 20
122.4127637382913
 30
0
 11
168.3855403142028
 21
122.2743513470803
 31
0
  0
LINE
  8
1
 62
7
 10
168.3855403142028
 20
122.2743513470803
 30
0
 11
168.2748104012336
 21
122.0436640283953
 31
0
  0
LINE
  8
1
 62
7
 10
168.2748104012336
 20
122.0436640283953
 30
0
 11
168.2194454447487
 21
121.5361519272883
 31
0
  0
LINE
  8
1
 62
7
 10
168.2194454447487
 20
121.5361519272883
 30
0
 11
168.2194454447487
 21
120.9825023624444
 31
0
  0
LINE
  8
1
 62
7
 10
168.2194454447487
 20
120.9825023624444
 30
0
 11
168.2748104012336
 21
120.4749902613376
 31
0
  0
LINE
  8
1
 62
7
 10
168.2748104012336
 20
120.4749902613376
 30
0
 11
168.3855403142028
 21
120.2443029426526
 31
0
  0
LINE
  8
1
 62
7
 10
168.3855403142028
 20
120.2443029426526
 30
0
 11
168.4962702271718
 21
120.1058905514417
 31
0
  0
LINE
  8
1
 62
7
 10
168.4962702271718
 20
120.1058905514417
 30
0
 11
168.7177300531088
 21
119.9674781602305
 31
0
  0
LINE
  8
1
 62
7
 10
168.7177300531088
 20
119.9674781602305
 30
0
 11
168.9391898790467
 21
119.8752032327566
 31
0
  0
LINE
  8
1
 62
7
 10
169.9911240522498
 20
119.6445159140717
 30
0
 11
170.1572189217037
 21
119.7829283052826
 31
0
  0
LINE
  8
1
 62
7
 10
170.1572189217037
 20
119.7829283052826
 30
0
 11
170.3233137911567
 21
119.9674781602305
 31
0
  0
LINE
  8
1
 62
7
 10
170.3233137911567
 20
119.9674781602305
 30
0
 11
170.4340437041257
 21
120.1520280151786
 31
0
  0
LINE
  8
1
 62
7
 10
170.4340437041257
 20
120.1520280151786
 30
0
 11
170.5447736170937
 21
120.3827153338636
 31
0
  0
LINE
  8
1
 62
7
 10
170.5447736170937
 20
120.3827153338636
 30
0
 11
170.6001385735787
 21
120.6595401162856
 31
0
  0
LINE
  8
1
 62
7
 10
170.6001385735787
 20
120.6595401162856
 30
0
 11
170.6555035300627
 21
121.0747772899186
 31
0
  0
LINE
  8
1
 62
7
 10
170.6555035300627
 20
121.0747772899186
 30
0
 11
170.6555035300627
 21
121.4438769998144
 31
0
  0
LINE
  8
1
 62
7
 10
170.6555035300627
 20
121.4438769998144
 30
0
 11
170.6001385735787
 21
121.8591141734474
 31
0
  0
LINE
  8
1
 62
7
 10
170.6001385735787
 20
121.8591141734474
 30
0
 11
170.5447736170937
 21
122.1359389558693
 31
0
  0
LINE
  8
1
 62
7
 10
170.5447736170937
 20
122.1359389558693
 30
0
 11
170.4340437041257
 21
122.3666262745544
 31
0
  0
LINE
  8
1
 62
7
 10
170.4340437041257
 20
122.3666262745544
 30
0
 11
170.3233137911567
 21
122.5511761295024
 31
0
  0
LINE
  8
1
 62
7
 10
170.3233137911567
 20
122.5511761295024
 30
0
 11
170.1572189217037
 21
122.7357259844503
 31
0
  0
LINE
  8
1
 62
7
 10
170.1572189217037
 20
122.7357259844503
 30
0
 11
169.9911240522498
 21
122.8741383756613
 31
0
  0
LINE
  8
1
 62
7
 10
169.9911240522498
 20
122.8741383756613
 30
0
 11
169.8250291827968
 21
122.9664133031353
 31
0
  0
LINE
  8
1
 62
7
 10
169.8250291827968
 20
122.9664133031353
 30
0
 11
169.5482044003737
 21
123.0586882306091
 31
0
  0
LINE
  8
1
 62
7
 10
169.5482044003737
 20
123.0586882306091
 30
0
 11
169.3267445744376
 21
123.1048256943463
 31
0
  0
LINE
  8
1
 62
7
 10
169.3267445744376
 20
123.1048256943463
 30
0
 11
168.9391898790467
 21
123.1048256943463
 31
0
  0
LINE
  8
1
 62
7
 10
168.9391898790467
 20
123.1048256943463
 30
0
 11
168.7177300531088
 21
123.0586882306091
 31
0
  0
LINE
  8
1
 62
7
 10
168.7177300531088
 20
123.0586882306091
 30
0
 11
168.4409052706857
 21
122.9664133031353
 31
0
  0
LINE
  8
1
 62
7
 10
168.4409052706857
 20
122.9664133031353
 30
0
 11
168.2748104012336
 21
122.8741383756613
 31
0
  0
LINE
  8
1
 62
7
 10
168.2748104012336
 20
122.8741383756613
 30
0
 11
168.1087155317797
 21
122.7357259844503
 31
0
  0
LINE
  8
1
 62
7
 10
168.1087155317797
 20
122.7357259844503
 30
0
 11
167.9426206623276
 21
122.5511761295024
 31
0
  0
LINE
  8
1
 62
7
 10
167.9426206623276
 20
122.5511761295024
 30
0
 11
167.8318907493587
 21
122.3666262745544
 31
0
  0
LINE
  8
1
 62
7
 10
167.8318907493587
 20
122.3666262745544
 30
0
 11
167.7211608363897
 21
122.1359389558693
 31
0
  0
LINE
  8
1
 62
7
 10
167.7211608363897
 20
122.1359389558693
 30
0
 11
167.6657958799057
 21
121.8591141734474
 31
0
  0
LINE
  8
1
 62
7
 10
167.6657958799057
 20
121.8591141734474
 30
0
 11
167.6104309234207
 21
121.4438769998144
 31
0
  0
LINE
  8
1
 62
7
 10
167.6104309234207
 20
121.4438769998144
 30
0
 11
167.6104309234207
 21
121.0747772899186
 31
0
  0
LINE
  8
1
 62
7
 10
167.6104309234207
 20
121.0747772899186
 30
0
 11
167.6657958799057
 21
120.6595401162856
 31
0
  0
LINE
  8
1
 62
7
 10
167.6657958799057
 20
120.6595401162856
 30
0
 11
167.7211608363897
 21
120.3827153338636
 31
0
  0
LINE
  8
1
 62
7
 10
167.7211608363897
 20
120.3827153338636
 30
0
 11
167.8318907493587
 21
120.1520280151786
 31
0
  0
LINE
  8
1
 62
7
 10
167.8318907493587
 20
120.1520280151786
 30
0
 11
167.9426206623276
 21
119.9674781602305
 31
0
  0
LINE
  8
1
 62
7
 10
167.9426206623276
 20
119.9674781602305
 30
0
 11
168.1087155317797
 21
119.7829283052826
 31
0
  0
LINE
  8
1
 62
7
 10
168.1087155317797
 20
119.7829283052826
 30
0
 11
168.2748104012336
 21
119.6445159140717
 31
0
  0
LINE
  8
1
 62
7
 10
168.2748104012336
 20
119.6445159140717
 30
0
 11
168.4409052706857
 21
119.5522409865976
 31
0
  0
LINE
  8
1
 62
7
 10
168.4409052706857
 20
119.5522409865976
 30
0
 11
168.7177300531088
 21
119.4599660591236
 31
0
  0
LINE
  8
1
 62
7
 10
168.7177300531088
 20
119.4599660591236
 30
0
 11
168.9391898790467
 21
119.4138285953866
 31
0
  0
LINE
  8
1
 62
7
 10
168.9391898790467
 20
119.4138285953866
 30
0
 11
169.3267445744376
 21
119.4138285953866
 31
0
  0
LINE
  8
1
 62
7
 10
169.3267445744376
 20
119.4138285953866
 30
0
 11
169.5482044003737
 21
119.4599660591236
 31
0
  0
LINE
  8
1
 62
7
 10
169.5482044003737
 20
119.4599660591236
 30
0
 11
169.8250291827968
 21
119.5522409865976
 31
0
  0
LINE
  8
1
 62
7
 10
169.8250291827968
 20
119.5522409865976
 30
0
 11
169.9911240522498
 21
119.6445159140717
 31
0
  0
LINE
  8
1
 62
7
 10
162.3141898790458
 20
119.8752032327566
 30
0
 11
162.7017445744358
 21
119.8752032327566
 31
0
  0
LINE
  8
1
 62
7
 10
162.7017445744358
 20
119.8752032327566
 30
0
 11
162.9232044003737
 21
119.9674781602305
 31
0
  0
LINE
  8
1
 62
7
 10
162.9232044003737
 20
119.9674781602305
 30
0
 11
163.1446642263107
 21
120.1058905514417
 31
0
  0
LINE
  8
1
 62
7
 10
163.1446642263107
 20
120.1058905514417
 30
0
 11
163.2553941392806
 21
120.2443029426526
 31
0
  0
LINE
  8
1
 62
7
 10
163.2553941392806
 20
120.2443029426526
 30
0
 11
163.3661240522498
 21
120.4749902613376
 31
0
  0
LINE
  8
1
 62
7
 10
163.3661240522498
 20
120.4749902613376
 30
0
 11
163.4214890087336
 21
120.9825023624444
 31
0
  0
LINE
  8
1
 62
7
 10
163.4214890087336
 20
120.9825023624444
 30
0
 11
163.4214890087336
 21
121.5361519272883
 31
0
  0
LINE
  8
1
 62
7
 10
163.4214890087336
 20
121.5361519272883
 30
0
 11
163.3661240522498
 21
122.0436640283953
 31
0
  0
LINE
  8
1
 62
7
 10
163.3661240522498
 20
122.0436640283953
 30
0
 11
163.2553941392806
 21
122.2743513470803
 31
0
  0
LINE
  8
1
 62
7
 10
163.2553941392806
 20
122.2743513470803
 30
0
 11
163.1446642263107
 21
122.4127637382913
 31
0
  0
LINE
  8
1
 62
7
 10
163.1446642263107
 20
122.4127637382913
 30
0
 11
162.9232044003737
 21
122.5511761295024
 31
0
  0
LINE
  8
1
 62
7
 10
162.9232044003737
 20
122.5511761295024
 30
0
 11
162.7017445744358
 21
122.6434510569763
 31
0
  0
LINE
  8
1
 62
7
 10
162.7017445744358
 20
122.6434510569763
 30
0
 11
162.3141898790458
 21
122.6434510569763
 31
0
  0
LINE
  8
1
 62
7
 10
162.3141898790458
 20
122.6434510569763
 30
0
 11
162.0927300531088
 21
122.5511761295024
 31
0
  0
LINE
  8
1
 62
7
 10
162.0927300531088
 20
122.5511761295024
 30
0
 11
161.8712702271706
 21
122.4127637382913
 31
0
  0
LINE
  8
1
 62
7
 10
161.8712702271706
 20
122.4127637382913
 30
0
 11
161.7605403142017
 21
122.2743513470803
 31
0
  0
LINE
  8
1
 62
7
 10
161.7605403142017
 20
122.2743513470803
 30
0
 11
161.6498104012336
 21
122.0436640283953
 31
0
  0
LINE
  8
1
 62
7
 10
161.6498104012336
 20
122.0436640283953
 30
0
 11
161.5944454447487
 21
121.5361519272883
 31
0
  0
LINE
  8
1
 62
7
 10
161.5944454447487
 20
121.5361519272883
 30
0
 11
161.5944454447487
 21
120.9825023624444
 31
0
  0
LINE
  8
1
 62
7
 10
161.5944454447487
 20
120.9825023624444
 30
0
 11
161.6498104012336
 21
120.4749902613376
 31
0
  0
LINE
  8
1
 62
7
 10
161.6498104012336
 20
120.4749902613376
 30
0
 11
161.7605403142017
 21
120.2443029426526
 31
0
  0
LINE
  8
1
 62
7
 10
161.7605403142017
 20
120.2443029426526
 30
0
 11
161.8712702271706
 21
120.1058905514417
 31
0
  0
LINE
  8
1
 62
7
 10
161.8712702271706
 20
120.1058905514417
 30
0
 11
162.0927300531088
 21
119.9674781602305
 31
0
  0
LINE
  8
1
 62
7
 10
162.0927300531088
 20
119.9674781602305
 30
0
 11
162.3141898790458
 21
119.8752032327566
 31
0
  0
LINE
  8
1
 62
7
 10
163.3661240522498
 20
119.6445159140717
 30
0
 11
163.5322189217028
 21
119.7829283052826
 31
0
  0
LINE
  8
1
 62
7
 10
163.5322189217028
 20
119.7829283052826
 30
0
 11
163.6983137911558
 21
119.9674781602305
 31
0
  0
LINE
  8
1
 62
7
 10
163.6983137911558
 20
119.9674781602305
 30
0
 11
163.8090437041248
 21
120.1520280151786
 31
0
  0
LINE
  8
1
 62
7
 10
163.8090437041248
 20
120.1520280151786
 30
0
 11
163.9197736170937
 21
120.3827153338636
 31
0
  0
LINE
  8
1
 62
7
 10
163.9197736170937
 20
120.3827153338636
 30
0
 11
163.9751385735777
 21
120.6595401162856
 31
0
  0
LINE
  8
1
 62
7
 10
163.9751385735777
 20
120.6595401162856
 30
0
 11
164.0305035300627
 21
121.0747772899186
 31
0
  0
LINE
  8
1
 62
7
 10
164.0305035300627
 20
121.0747772899186
 30
0
 11
164.0305035300627
 21
121.4438769998144
 31
0
  0
LINE
  8
1
 62
7
 10
164.0305035300627
 20
121.4438769998144
 30
0
 11
163.9751385735777
 21
121.8591141734474
 31
0
  0
LINE
  8
1
 62
7
 10
163.9751385735777
 20
121.8591141734474
 30
0
 11
163.9197736170937
 21
122.1359389558693
 31
0
  0
LINE
  8
1
 62
7
 10
163.9197736170937
 20
122.1359389558693
 30
0
 11
163.8090437041248
 21
122.3666262745544
 31
0
  0
LINE
  8
1
 62
7
 10
163.8090437041248
 20
122.3666262745544
 30
0
 11
163.6983137911558
 21
122.5511761295024
 31
0
  0
LINE
  8
1
 62
7
 10
163.6983137911558
 20
122.5511761295024
 30
0
 11
163.5322189217028
 21
122.7357259844503
 31
0
  0
LINE
  8
1
 62
7
 10
163.5322189217028
 20
122.7357259844503
 30
0
 11
163.3661240522498
 21
122.8741383756613
 31
0
  0
LINE
  8
1
 62
7
 10
163.3661240522498
 20
122.8741383756613
 30
0
 11
163.2000291827968
 21
122.9664133031353
 31
0
  0
LINE
  8
1
 62
7
 10
163.2000291827968
 20
122.9664133031353
 30
0
 11
162.9232044003737
 21
123.0586882306091
 31
0
  0
LINE
  8
1
 62
7
 10
162.9232044003737
 20
123.0586882306091
 30
0
 11
162.7017445744358
 21
123.1048256943463
 31
0
  0
LINE
  8
1
 62
7
 10
162.7017445744358
 20
123.1048256943463
 30
0
 11
162.3141898790458
 21
123.1048256943463
 31
0
  0
LINE
  8
1
 62
7
 10
162.3141898790458
 20
123.1048256943463
 30
0
 11
162.0927300531088
 21
123.0586882306091
 31
0
  0
LINE
  8
1
 62
7
 10
162.0927300531088
 20
123.0586882306091
 30
0
 11
161.8159052706857
 21
122.9664133031353
 31
0
  0
LINE
  8
1
 62
7
 10
161.8159052706857
 20
122.9664133031353
 30
0
 11
161.6498104012336
 21
122.8741383756613
 31
0
  0
LINE
  8
1
 62
7
 10
161.6498104012336
 20
122.8741383756613
 30
0
 11
161.4837155317797
 21
122.7357259844503
 31
0
  0
LINE
  8
1
 62
7
 10
161.4837155317797
 20
122.7357259844503
 30
0
 11
161.3176206623267
 21
122.5511761295024
 31
0
  0
LINE
  8
1
 62
7
 10
161.3176206623267
 20
122.5511761295024
 30
0
 11
161.2068907493587
 21
122.3666262745544
 31
0
  0
LINE
  8
1
 62
7
 10
161.2068907493587
 20
122.3666262745544
 30
0
 11
161.0961608363897
 21
122.1359389558693
 31
0
  0
LINE
  8
1
 62
7
 10
161.0961608363897
 20
122.1359389558693
 30
0
 11
161.0407958799048
 21
121.8591141734474
 31
0
  0
LINE
  8
1
 62
7
 10
161.0407958799048
 20
121.8591141734474
 30
0
 11
160.9854309234207
 21
121.4438769998144
 31
0
  0
LINE
  8
1
 62
7
 10
160.9854309234207
 20
121.4438769998144
 30
0
 11
160.9854309234207
 21
121.0747772899186
 31
0
  0
LINE
  8
1
 62
7
 10
160.9854309234207
 20
121.0747772899186
 30
0
 11
161.0407958799048
 21
120.6595401162856
 31
0
  0
LINE
  8
1
 62
7
 10
161.0407958799048
 20
120.6595401162856
 30
0
 11
161.0961608363897
 21
120.3827153338636
 31
0
  0
LINE
  8
1
 62
7
 10
161.0961608363897
 20
120.3827153338636
 30
0
 11
161.2068907493587
 21
120.1520280151786
 31
0
  0
LINE
  8
1
 62
7
 10
161.2068907493587
 20
120.1520280151786
 30
0
 11
161.3176206623267
 21
119.9674781602305
 31
0
  0
LINE
  8
1
 62
7
 10
161.3176206623267
 20
119.9674781602305
 30
0
 11
161.4837155317797
 21
119.7829283052826
 31
0
  0
LINE
  8
1
 62
7
 10
161.4837155317797
 20
119.7829283052826
 30
0
 11
161.6498104012336
 21
119.6445159140717
 31
0
  0
LINE
  8
1
 62
7
 10
161.6498104012336
 20
119.6445159140717
 30
0
 11
161.8159052706857
 21
119.5522409865976
 31
0
  0
LINE
  8
1
 62
7
 10
161.8159052706857
 20
119.5522409865976
 30
0
 11
162.0927300531088
 21
119.4599660591236
 31
0
  0
LINE
  8
1
 62
7
 10
162.0927300531088
 20
119.4599660591236
 30
0
 11
162.3141898790458
 21
119.4138285953866
 31
0
  0
LINE
  8
1
 62
7
 10
162.3141898790458
 20
119.4138285953866
 30
0
 11
162.7017445744358
 21
119.4138285953866
 31
0
  0
LINE
  8
1
 62
7
 10
162.7017445744358
 20
119.4138285953866
 30
0
 11
162.9232044003737
 21
119.4599660591236
 31
0
  0
LINE
  8
1
 62
7
 10
162.9232044003737
 20
119.4599660591236
 30
0
 11
163.2000291827968
 21
119.5522409865976
 31
0
  0
LINE
  8
1
 62
7
 10
163.2000291827968
 20
119.5522409865976
 30
0
 11
163.3661240522498
 21
119.6445159140717
 31
0
  0
LINE
  8
1
 62
7
 10
155.6891898790458
 20
119.8752032327566
 30
0
 11
156.0767445744358
 21
119.8752032327566
 31
0
  0
LINE
  8
1
 62
7
 10
156.0767445744358
 20
119.8752032327566
 30
0
 11
156.2982044003728
 21
119.9674781602305
 31
0
  0
LINE
  8
1
 62
7
 10
156.2982044003728
 20
119.9674781602305
 30
0
 11
156.5196642263107
 21
120.1058905514417
 31
0
  0
LINE
  8
1
 62
7
 10
156.5196642263107
 20
120.1058905514417
 30
0
 11
156.6303941392806
 21
120.2443029426526
 31
0
  0
LINE
  8
1
 62
7
 10
156.6303941392806
 20
120.2443029426526
 30
0
 11
156.7411240522478
 21
120.4749902613376
 31
0
  0
LINE
  8
1
 62
7
 10
156.7411240522478
 20
120.4749902613376
 30
0
 11
156.7964890087336
 21
120.9825023624444
 31
0
  0
LINE
  8
1
 62
7
 10
156.7964890087336
 20
120.9825023624444
 30
0
 11
156.7964890087336
 21
121.5361519272883
 31
0
  0
LINE
  8
1
 62
7
 10
156.7964890087336
 20
121.5361519272883
 30
0
 11
156.7411240522478
 21
122.0436640283953
 31
0
  0
LINE
  8
1
 62
7
 10
156.7411240522478
 20
122.0436640283953
 30
0
 11
156.6303941392806
 21
122.2743513470803
 31
0
  0
LINE
  8
1
 62
7
 10
156.6303941392806
 20
122.2743513470803
 30
0
 11
156.5196642263107
 21
122.4127637382913
 31
0
  0
LINE
  8
1
 62
7
 10
156.5196642263107
 20
122.4127637382913
 30
0
 11
156.2982044003728
 21
122.5511761295024
 31
0
  0
LINE
  8
1
 62
7
 10
156.2982044003728
 20
122.5511761295024
 30
0
 11
156.0767445744358
 21
122.6434510569763
 31
0
  0
LINE
  8
1
 62
7
 10
156.0767445744358
 20
122.6434510569763
 30
0
 11
155.6891898790458
 21
122.6434510569763
 31
0
  0
LINE
  8
1
 62
7
 10
155.6891898790458
 20
122.6434510569763
 30
0
 11
155.4677300531076
 21
122.5511761295024
 31
0
  0
LINE
  8
1
 62
7
 10
155.4677300531076
 20
122.5511761295024
 30
0
 11
155.2462702271706
 21
122.4127637382913
 31
0
  0
LINE
  8
1
 62
7
 10
155.2462702271706
 20
122.4127637382913
 30
0
 11
155.1355403142017
 21
122.2743513470803
 31
0
  0
LINE
  8
1
 62
7
 10
155.1355403142017
 20
122.2743513470803
 30
0
 11
155.0248104012327
 21
122.0436640283953
 31
0
  0
LINE
  8
1
 62
7
 10
155.0248104012327
 20
122.0436640283953
 30
0
 11
154.9694454447487
 21
121.5361519272883
 31
0
  0
LINE
  8
1
 62
7
 10
154.9694454447487
 20
121.5361519272883
 30
0
 11
154.9694454447487
 21
120.9825023624444
 31
0
  0
LINE
  8
1
 62
7
 10
154.9694454447487
 20
120.9825023624444
 30
0
 11
155.0248104012327
 21
120.4749902613376
 31
0
  0
LINE
  8
1
 62
7
 10
155.0248104012327
 20
120.4749902613376
 30
0
 11
155.1355403142017
 21
120.2443029426526
 31
0
  0
LINE
  8
1
 62
7
 10
155.1355403142017
 20
120.2443029426526
 30
0
 11
155.2462702271706
 21
120.1058905514417
 31
0
  0
LINE
  8
1
 62
7
 10
155.2462702271706
 20
120.1058905514417
 30
0
 11
155.4677300531076
 21
119.9674781602305
 31
0
  0
LINE
  8
1
 62
7
 10
155.4677300531076
 20
119.9674781602305
 30
0
 11
155.6891898790458
 21
119.8752032327566
 31
0
  0
LINE
  8
1
 62
7
 10
156.7411240522478
 20
119.6445159140717
 30
0
 11
156.9072189217028
 21
119.7829283052826
 31
0
  0
LINE
  8
1
 62
7
 10
156.9072189217028
 20
119.7829283052826
 30
0
 11
157.0733137911558
 21
119.9674781602305
 31
0
  0
LINE
  8
1
 62
7
 10
157.0733137911558
 20
119.9674781602305
 30
0
 11
157.1840437041248
 21
120.1520280151786
 31
0
  0
LINE
  8
1
 62
7
 10
157.1840437041248
 20
120.1520280151786
 30
0
 11
157.2947736170928
 21
120.3827153338636
 31
0
  0
LINE
  8
1
 62
7
 10
157.2947736170928
 20
120.3827153338636
 30
0
 11
157.3501385735777
 21
120.6595401162856
 31
0
  0
LINE
  8
1
 62
7
 10
157.3501385735777
 20
120.6595401162856
 30
0
 11
157.4055035300618
 21
121.0747772899186
 31
0
  0
LINE
  8
1
 62
7
 10
157.4055035300618
 20
121.0747772899186
 30
0
 11
157.4055035300618
 21
121.4438769998144
 31
0
  0
LINE
  8
1
 62
7
 10
157.4055035300618
 20
121.4438769998144
 30
0
 11
157.3501385735777
 21
121.8591141734474
 31
0
  0
LINE
  8
1
 62
7
 10
157.3501385735777
 20
121.8591141734474
 30
0
 11
157.2947736170928
 21
122.1359389558693
 31
0
  0
LINE
  8
1
 62
7
 10
157.2947736170928
 20
122.1359389558693
 30
0
 11
157.1840437041248
 21
122.3666262745544
 31
0
  0
LINE
  8
1
 62
7
 10
157.1840437041248
 20
122.3666262745544
 30
0
 11
157.0733137911558
 21
122.5511761295024
 31
0
  0
LINE
  8
1
 62
7
 10
157.0733137911558
 20
122.5511761295024
 30
0
 11
156.9072189217028
 21
122.7357259844503
 31
0
  0
LINE
  8
1
 62
7
 10
156.9072189217028
 20
122.7357259844503
 30
0
 11
156.7411240522478
 21
122.8741383756613
 31
0
  0
LINE
  8
1
 62
7
 10
156.7411240522478
 20
122.8741383756613
 30
0
 11
156.5750291827957
 21
122.9664133031353
 31
0
  0
LINE
  8
1
 62
7
 10
156.5750291827957
 20
122.9664133031353
 30
0
 11
156.2982044003728
 21
123.0586882306091
 31
0
  0
LINE
  8
1
 62
7
 10
156.2982044003728
 20
123.0586882306091
 30
0
 11
156.0767445744358
 21
123.1048256943463
 31
0
  0
LINE
  8
1
 62
7
 10
156.0767445744358
 20
123.1048256943463
 30
0
 11
155.6891898790458
 21
123.1048256943463
 31
0
  0
LINE
  8
1
 62
7
 10
155.6891898790458
 20
123.1048256943463
 30
0
 11
155.4677300531076
 21
123.0586882306091
 31
0
  0
LINE
  8
1
 62
7
 10
155.4677300531076
 20
123.0586882306091
 30
0
 11
155.1909052706857
 21
122.9664133031353
 31
0
  0
LINE
  8
1
 62
7
 10
155.1909052706857
 20
122.9664133031353
 30
0
 11
155.0248104012327
 21
122.8741383756613
 31
0
  0
LINE
  8
1
 62
7
 10
155.0248104012327
 20
122.8741383756613
 30
0
 11
154.8587155317797
 21
122.7357259844503
 31
0
  0
LINE
  8
1
 62
7
 10
154.8587155317797
 20
122.7357259844503
 30
0
 11
154.6926206623267
 21
122.5511761295024
 31
0
  0
LINE
  8
1
 62
7
 10
154.6926206623267
 20
122.5511761295024
 30
0
 11
154.5818907493577
 21
122.3666262745544
 31
0
  0
LINE
  8
1
 62
7
 10
154.5818907493577
 20
122.3666262745544
 30
0
 11
154.4711608363888
 21
122.1359389558693
 31
0
  0
LINE
  8
1
 62
7
 10
154.4711608363888
 20
122.1359389558693
 30
0
 11
154.4157958799048
 21
121.8591141734474
 31
0
  0
LINE
  8
1
 62
7
 10
154.4157958799048
 20
121.8591141734474
 30
0
 11
154.3604309234207
 21
121.4438769998144
 31
0
  0
LINE
  8
1
 62
7
 10
154.3604309234207
 20
121.4438769998144
 30
0
 11
154.3604309234207
 21
121.0747772899186
 31
0
  0
LINE
  8
1
 62
7
 10
154.3604309234207
 20
121.0747772899186
 30
0
 11
154.4157958799048
 21
120.6595401162856
 31
0
  0
LINE
  8
1
 62
7
 10
154.4157958799048
 20
120.6595401162856
 30
0
 11
154.4711608363888
 21
120.3827153338636
 31
0
  0
LINE
  8
1
 62
7
 10
154.4711608363888
 20
120.3827153338636
 30
0
 11
154.5818907493577
 21
120.1520280151786
 31
0
  0
LINE
  8
1
 62
7
 10
154.5818907493577
 20
120.1520280151786
 30
0
 11
154.6926206623267
 21
119.9674781602305
 31
0
  0
LINE
  8
1
 62
7
 10
154.6926206623267
 20
119.9674781602305
 30
0
 11
154.8587155317797
 21
119.7829283052826
 31
0
  0
LINE
  8
1
 62
7
 10
154.8587155317797
 20
119.7829283052826
 30
0
 11
155.0248104012327
 21
119.6445159140717
 31
0
  0
LINE
  8
1
 62
7
 10
155.0248104012327
 20
119.6445159140717
 30
0
 11
155.1909052706857
 21
119.5522409865976
 31
0
  0
LINE
  8
1
 62
7
 10
155.1909052706857
 20
119.5522409865976
 30
0
 11
155.4677300531076
 21
119.4599660591236
 31
0
  0
LINE
  8
1
 62
7
 10
155.4677300531076
 20
119.4599660591236
 30
0
 11
155.6891898790458
 21
119.4138285953866
 31
0
  0
LINE
  8
1
 62
7
 10
155.6891898790458
 20
119.4138285953866
 30
0
 11
156.0767445744358
 21
119.4138285953866
 31
0
  0
LINE
  8
1
 62
7
 10
156.0767445744358
 20
119.4138285953866
 30
0
 11
156.2982044003728
 21
119.4599660591236
 31
0
  0
LINE
  8
1
 62
7
 10
156.2982044003728
 20
119.4599660591236
 30
0
 11
156.5750291827957
 21
119.5522409865976
 31
0
  0
LINE
  8
1
 62
7
 10
156.5750291827957
 20
119.5522409865976
 30
0
 11
156.7411240522478
 21
119.6445159140717
 31
0
  0
LINE
  8
1
 62
7
 10
191.6114637969746
 20
119.4138285953866
 30
0
 11
191.6114637969746
 21
119.6906533778086
 31
0
  0
LINE
  8
1
 62
7
 10
191.6114637969746
 20
119.6906533778086
 30
0
 11
191.7221937099438
 21
120.0136156239676
 31
0
  0
LINE
  8
1
 62
7
 10
191.7221937099438
 20
120.0136156239676
 30
0
 11
191.9436535358808
 21
120.3365778701264
 31
0
  0
LINE
  8
1
 62
7
 10
191.9436535358808
 20
120.3365778701264
 30
0
 11
192.2204783183037
 21
120.6134026525486
 31
0
  0
LINE
  8
1
 62
7
 10
192.2204783183037
 20
120.6134026525486
 30
0
 11
192.5526680572108
 21
120.9363648987076
 31
0
  0
LINE
  8
1
 62
7
 10
192.5526680572108
 20
120.9363648987076
 30
0
 11
192.8848577961168
 21
121.1670522173926
 31
0
  0
LINE
  8
1
 62
7
 10
192.8848577961168
 20
121.1670522173926
 30
0
 11
193.2170475350227
 21
121.4438769998144
 31
0
  0
LINE
  8
1
 62
7
 10
193.2170475350227
 20
121.4438769998144
 30
0
 11
193.6046022304137
 21
121.7668392459732
 31
0
  0
LINE
  8
1
 62
7
 10
193.6046022304137
 20
121.7668392459732
 30
0
 11
193.7153321433826
 21
121.9052516371844
 31
0
  0
LINE
  8
1
 62
7
 10
193.7153321433826
 20
121.9052516371844
 30
0
 11
193.7706970998667
 21
122.0436640283953
 31
0
  0
LINE
  8
1
 62
7
 10
193.7706970998667
 20
122.0436640283953
 30
0
 11
193.7706970998667
 21
122.2282138833432
 31
0
  0
LINE
  8
1
 62
7
 10
193.7706970998667
 20
122.2282138833432
 30
0
 11
193.7153321433826
 21
122.3666262745544
 31
0
  0
LINE
  8
1
 62
7
 10
193.7153321433826
 20
122.3666262745544
 30
0
 11
193.6046022304137
 21
122.5050386657653
 31
0
  0
LINE
  8
1
 62
7
 10
193.6046022304137
 20
122.5050386657653
 30
0
 11
193.4385073609607
 21
122.5973135932391
 31
0
  0
LINE
  8
1
 62
7
 10
193.4385073609607
 20
122.5973135932391
 30
0
 11
193.2170475350227
 21
122.6434510569763
 31
0
  0
LINE
  8
1
 62
7
 10
193.2170475350227
 20
122.6434510569763
 30
0
 11
192.9955877090857
 21
122.6434510569763
 31
0
  0
LINE
  8
1
 62
7
 10
192.9955877090857
 20
122.6434510569763
 30
0
 11
192.7741278831478
 21
122.5973135932391
 31
0
  0
LINE
  8
1
 62
7
 10
192.7741278831478
 20
122.5973135932391
 30
0
 11
192.6080330136948
 21
122.5050386657653
 31
0
  0
LINE
  8
1
 62
7
 10
192.6080330136948
 20
122.5050386657653
 30
0
 11
192.4973031007256
 21
122.3666262745544
 31
0
  0
LINE
  8
1
 62
7
 10
192.4973031007256
 20
122.3666262745544
 30
0
 11
192.4419381442416
 21
122.2282138833432
 31
0
  0
LINE
  8
1
 62
7
 10
192.4419381442416
 20
122.2282138833432
 30
0
 11
192.4419381442416
 21
122.0436640283953
 31
0
  0
LINE
  8
1
 62
7
 10
192.4419381442416
 20
122.0436640283953
 30
0
 11
191.8329236229127
 21
122.0436640283953
 31
0
  0
LINE
  8
1
 62
7
 10
191.8329236229127
 20
122.0436640283953
 30
0
 11
191.8329236229127
 21
122.2282138833432
 31
0
  0
LINE
  8
1
 62
7
 10
191.8329236229127
 20
122.2282138833432
 30
0
 11
191.8882885793977
 21
122.4589012020283
 31
0
  0
LINE
  8
1
 62
7
 10
191.8882885793977
 20
122.4589012020283
 30
0
 11
192.1097484053347
 21
122.7357259844503
 31
0
  0
LINE
  8
1
 62
7
 10
192.1097484053347
 20
122.7357259844503
 30
0
 11
192.3312082312726
 21
122.9202758393983
 31
0
  0
LINE
  8
1
 62
7
 10
192.3312082312726
 20
122.9202758393983
 30
0
 11
192.6633979701786
 21
123.0586882306091
 31
0
  0
LINE
  8
1
 62
7
 10
192.6633979701786
 20
123.0586882306091
 30
0
 11
192.9402227526008
 21
123.1048256943463
 31
0
  0
LINE
  8
1
 62
7
 10
192.9402227526008
 20
123.1048256943463
 30
0
 11
193.2724124915077
 21
123.1048256943463
 31
0
  0
LINE
  8
1
 62
7
 10
193.2724124915077
 20
123.1048256943463
 30
0
 11
193.5492372739287
 21
123.0586882306091
 31
0
  0
LINE
  8
1
 62
7
 10
193.5492372739287
 20
123.0586882306091
 30
0
 11
193.8814270128356
 21
122.9202758393983
 31
0
  0
LINE
  8
1
 62
7
 10
193.8814270128356
 20
122.9202758393983
 30
0
 11
194.1028868387726
 21
122.7357259844503
 31
0
  0
LINE
  8
1
 62
7
 10
194.1028868387726
 20
122.7357259844503
 30
0
 11
194.3243466647097
 21
122.4589012020283
 31
0
  0
LINE
  8
1
 62
7
 10
194.3243466647097
 20
122.4589012020283
 30
0
 11
194.3797116211957
 21
122.2282138833432
 31
0
  0
LINE
  8
1
 62
7
 10
194.3797116211957
 20
122.2282138833432
 30
0
 11
194.3797116211957
 21
122.0436640283953
 31
0
  0
LINE
  8
1
 62
7
 10
194.3797116211957
 20
122.0436640283953
 30
0
 11
194.3243466647097
 21
121.8129767097103
 31
0
  0
LINE
  8
1
 62
7
 10
194.3243466647097
 20
121.8129767097103
 30
0
 11
194.1028868387726
 21
121.5361519272883
 31
0
  0
LINE
  8
1
 62
7
 10
194.1028868387726
 20
121.5361519272883
 30
0
 11
193.9921569258037
 21
121.4438769998144
 31
0
  0
LINE
  8
1
 62
7
 10
193.9921569258037
 20
121.4438769998144
 30
0
 11
193.5492372739287
 21
121.1209147536556
 31
0
  0
LINE
  8
1
 62
7
 10
193.5492372739287
 20
121.1209147536556
 30
0
 11
193.1616825785387
 21
120.8440899712336
 31
0
  0
LINE
  8
1
 62
7
 10
193.1616825785387
 20
120.8440899712336
 30
0
 11
192.7741278831478
 21
120.4749902613376
 31
0
  0
LINE
  8
1
 62
7
 10
192.7741278831478
 20
120.4749902613376
 30
0
 11
192.4973031007256
 21
120.1520280151786
 31
0
  0
LINE
  8
1
 62
7
 10
192.4973031007256
 20
120.1520280151786
 30
0
 11
192.3865731877557
 21
119.8752032327566
 31
0
  0
LINE
  8
1
 62
7
 10
192.3865731877557
 20
119.8752032327566
 30
0
 11
194.5458064906478
 21
119.8752032327566
 31
0
  0
LINE
  8
1
 62
7
 10
194.5458064906478
 20
119.8752032327566
 30
0
 11
194.5458064906478
 21
119.4138285953866
 31
0
  0
LINE
  8
1
 62
7
 10
194.5458064906478
 20
119.4138285953866
 30
0
 11
191.6114637969746
 21
119.4138285953866
 31
0
  0
LINE
  8
1
 62
7
 10
199.5929052308428
 20
121.2131896811295
 30
0
 11
199.8143650567796
 21
121.2131896811295
 31
0
  0
LINE
  8
1
 62
7
 10
199.8143650567796
 20
121.2131896811295
 30
0
 11
200.0911898392027
 21
121.1670522173926
 31
0
  0
LINE
  8
1
 62
7
 10
200.0911898392027
 20
121.1670522173926
 30
0
 11
200.3126496651406
 21
121.0286398261814
 31
0
  0
LINE
  8
1
 62
7
 10
200.3126496651406
 20
121.0286398261814
 30
0
 11
200.4787445345936
 21
120.8440899712336
 31
0
  0
LINE
  8
1
 62
7
 10
200.4787445345936
 20
120.8440899712336
 30
0
 11
200.5341094910776
 21
120.6595401162856
 31
0
  0
LINE
  8
1
 62
7
 10
200.5341094910776
 20
120.6595401162856
 30
0
 11
200.5341094910776
 21
120.4749902613376
 31
0
  0
LINE
  8
1
 62
7
 10
200.5341094910776
 20
120.4749902613376
 30
0
 11
200.4787445345936
 21
120.2904404063897
 31
0
  0
LINE
  8
1
 62
7
 10
200.4787445345936
 20
120.2904404063897
 30
0
 11
200.3126496651406
 21
120.1058905514417
 31
0
  0
LINE
  8
1
 62
7
 10
200.3126496651406
 20
120.1058905514417
 30
0
 11
200.0911898392027
 21
119.9674781602305
 31
0
  0
LINE
  8
1
 62
7
 10
200.0911898392027
 20
119.9674781602305
 30
0
 11
199.8143650567796
 21
119.9213406964936
 31
0
  0
LINE
  8
1
 62
7
 10
199.8143650567796
 20
119.9213406964936
 30
0
 11
199.5929052308428
 21
119.9213406964936
 31
0
  0
LINE
  8
1
 62
7
 10
199.5929052308428
 20
119.9213406964936
 30
0
 11
199.3160804484218
 21
119.9674781602305
 31
0
  0
LINE
  8
1
 62
7
 10
199.3160804484218
 20
119.9674781602305
 30
0
 11
199.0946206224836
 21
120.1058905514417
 31
0
  0
LINE
  8
1
 62
7
 10
199.0946206224836
 20
120.1058905514417
 30
0
 11
198.9285257530306
 21
120.2904404063897
 31
0
  0
LINE
  8
1
 62
7
 10
198.9285257530306
 20
120.2904404063897
 30
0
 11
198.8731607965457
 21
120.4749902613376
 31
0
  0
LINE
  8
1
 62
7
 10
198.8731607965457
 20
120.4749902613376
 30
0
 11
198.8731607965457
 21
120.6595401162856
 31
0
  0
LINE
  8
1
 62
7
 10
198.8731607965457
 20
120.6595401162856
 30
0
 11
198.2087813187337
 21
120.6595401162856
 31
0
  0
LINE
  8
1
 62
7
 10
198.2087813187337
 20
120.6595401162856
 30
0
 11
198.2087813187337
 21
120.4288527976005
 31
0
  0
LINE
  8
1
 62
7
 10
198.2087813187337
 20
120.4288527976005
 30
0
 11
198.3195112317027
 21
120.1058905514417
 31
0
  0
LINE
  8
1
 62
7
 10
198.3195112317027
 20
120.1058905514417
 30
0
 11
198.4856061011557
 21
119.8752032327566
 31
0
  0
LINE
  8
1
 62
7
 10
198.4856061011557
 20
119.8752032327566
 30
0
 11
198.7624308835776
 21
119.6445159140717
 31
0
  0
LINE
  8
1
 62
7
 10
198.7624308835776
 20
119.6445159140717
 30
0
 11
199.0946206224836
 21
119.5061035228605
 31
0
  0
LINE
  8
1
 62
7
 10
199.0946206224836
 20
119.5061035228605
 30
0
 11
199.5375402743588
 21
119.4138285953866
 31
0
  0
LINE
  8
1
 62
7
 10
199.5375402743588
 20
119.4138285953866
 30
0
 11
199.8697300132648
 21
119.4138285953866
 31
0
  0
LINE
  8
1
 62
7
 10
199.8697300132648
 20
119.4138285953866
 30
0
 11
200.3126496651406
 21
119.5061035228605
 31
0
  0
LINE
  8
1
 62
7
 10
200.3126496651406
 20
119.5061035228605
 30
0
 11
200.6448394040466
 21
119.6445159140717
 31
0
  0
LINE
  8
1
 62
7
 10
200.6448394040466
 20
119.6445159140717
 30
0
 11
200.9216641864688
 21
119.8752032327566
 31
0
  0
LINE
  8
1
 62
7
 10
200.9216641864688
 20
119.8752032327566
 30
0
 11
201.0877590559218
 21
120.1058905514417
 31
0
  0
LINE
  8
1
 62
7
 10
201.0877590559218
 20
120.1058905514417
 30
0
 11
201.1984889688907
 21
120.4288527976005
 31
0
  0
LINE
  8
1
 62
7
 10
201.1984889688907
 20
120.4288527976005
 30
0
 11
201.1984889688907
 21
120.6595401162856
 31
0
  0
LINE
  8
1
 62
7
 10
201.1984889688907
 20
120.6595401162856
 30
0
 11
201.0877590559218
 21
120.9825023624444
 31
0
  0
LINE
  8
1
 62
7
 10
201.0877590559218
 20
120.9825023624444
 30
0
 11
200.8662992299848
 21
121.2593271448664
 31
0
  0
LINE
  8
1
 62
7
 10
200.8662992299848
 20
121.2593271448664
 30
0
 11
200.5894744475628
 21
121.4438769998144
 31
0
  0
LINE
  8
1
 62
7
 10
200.5894744475628
 20
121.4438769998144
 30
0
 11
200.7002043605306
 21
121.5361519272883
 31
0
  0
LINE
  8
1
 62
7
 10
200.7002043605306
 20
121.5361519272883
 30
0
 11
200.9216641864688
 21
121.8129767097103
 31
0
  0
LINE
  8
1
 62
7
 10
200.9216641864688
 20
121.8129767097103
 30
0
 11
200.9770291429528
 21
122.0436640283953
 31
0
  0
LINE
  8
1
 62
7
 10
200.9770291429528
 20
122.0436640283953
 30
0
 11
200.9770291429528
 21
122.2282138833432
 31
0
  0
LINE
  8
1
 62
7
 10
200.9770291429528
 20
122.2282138833432
 30
0
 11
200.9216641864688
 21
122.4589012020283
 31
0
  0
LINE
  8
1
 62
7
 10
200.9216641864688
 20
122.4589012020283
 30
0
 11
200.7002043605306
 21
122.7357259844503
 31
0
  0
LINE
  8
1
 62
7
 10
200.7002043605306
 20
122.7357259844503
 30
0
 11
200.4787445345936
 21
122.9202758393983
 31
0
  0
LINE
  8
1
 62
7
 10
200.4787445345936
 20
122.9202758393983
 30
0
 11
200.1465547956858
 21
123.0586882306091
 31
0
  0
LINE
  8
1
 62
7
 10
200.1465547956858
 20
123.0586882306091
 30
0
 11
199.8697300132648
 21
123.1048256943463
 31
0
  0
LINE
  8
1
 62
7
 10
199.8697300132648
 20
123.1048256943463
 30
0
 11
199.5375402743588
 21
123.1048256943463
 31
0
  0
LINE
  8
1
 62
7
 10
199.5375402743588
 20
123.1048256943463
 30
0
 11
199.2607154919357
 21
123.0586882306091
 31
0
  0
LINE
  8
1
 62
7
 10
199.2607154919357
 20
123.0586882306091
 30
0
 11
198.9285257530306
 21
122.9202758393983
 31
0
  0
LINE
  8
1
 62
7
 10
198.9285257530306
 20
122.9202758393983
 30
0
 11
198.7070659270927
 21
122.7357259844503
 31
0
  0
LINE
  8
1
 62
7
 10
198.7070659270927
 20
122.7357259844503
 30
0
 11
198.4856061011557
 21
122.4589012020283
 31
0
  0
LINE
  8
1
 62
7
 10
198.4856061011557
 20
122.4589012020283
 30
0
 11
198.4302411446707
 21
122.2282138833432
 31
0
  0
LINE
  8
1
 62
7
 10
198.4302411446707
 20
122.2282138833432
 30
0
 11
198.4302411446707
 21
122.0436640283953
 31
0
  0
LINE
  8
1
 62
7
 10
198.4302411446707
 20
122.0436640283953
 30
0
 11
199.0392556659987
 21
122.0436640283953
 31
0
  0
LINE
  8
1
 62
7
 10
199.0392556659987
 20
122.0436640283953
 30
0
 11
199.0392556659987
 21
122.2282138833432
 31
0
  0
LINE
  8
1
 62
7
 10
199.0392556659987
 20
122.2282138833432
 30
0
 11
199.0946206224836
 21
122.3666262745544
 31
0
  0
LINE
  8
1
 62
7
 10
199.0946206224836
 20
122.3666262745544
 30
0
 11
199.2053505354528
 21
122.5050386657653
 31
0
  0
LINE
  8
1
 62
7
 10
199.2053505354528
 20
122.5050386657653
 30
0
 11
199.3714454049047
 21
122.5973135932391
 31
0
  0
LINE
  8
1
 62
7
 10
199.3714454049047
 20
122.5973135932391
 30
0
 11
199.5929052308428
 21
122.6434510569763
 31
0
  0
LINE
  8
1
 62
7
 10
199.5929052308428
 20
122.6434510569763
 30
0
 11
199.8143650567796
 21
122.6434510569763
 31
0
  0
LINE
  8
1
 62
7
 10
199.8143650567796
 20
122.6434510569763
 30
0
 11
200.0358248827178
 21
122.5973135932391
 31
0
  0
LINE
  8
1
 62
7
 10
200.0358248827178
 20
122.5973135932391
 30
0
 11
200.2019197521717
 21
122.5050386657653
 31
0
  0
LINE
  8
1
 62
7
 10
200.2019197521717
 20
122.5050386657653
 30
0
 11
200.3126496651406
 21
122.3666262745544
 31
0
  0
LINE
  8
1
 62
7
 10
200.3126496651406
 20
122.3666262745544
 30
0
 11
200.3680146216237
 21
122.2282138833432
 31
0
  0
LINE
  8
1
 62
7
 10
200.3680146216237
 20
122.2282138833432
 30
0
 11
200.3680146216237
 21
122.0436640283953
 31
0
  0
LINE
  8
1
 62
7
 10
200.3680146216237
 20
122.0436640283953
 30
0
 11
200.3126496651406
 21
121.9052516371844
 31
0
  0
LINE
  8
1
 62
7
 10
200.3126496651406
 20
121.9052516371844
 30
0
 11
200.2019197521717
 21
121.7668392459732
 31
0
  0
LINE
  8
1
 62
7
 10
200.2019197521717
 20
121.7668392459732
 30
0
 11
200.0358248827178
 21
121.6745643184993
 31
0
  0
LINE
  8
1
 62
7
 10
200.0358248827178
 20
121.6745643184993
 30
0
 11
199.8143650567796
 21
121.6284268547626
 31
0
  0
LINE
  8
1
 62
7
 10
199.8143650567796
 20
121.6284268547626
 30
0
 11
199.5929052308428
 21
121.6284268547626
 31
0
  0
LINE
  8
1
 62
7
 10
199.5929052308428
 20
121.6284268547626
 30
0
 11
199.5929052308428
 21
121.2131896811295
 31
0
  0
LINE
  8
1
 62
7
 10
207.9083502617726
 20
123.1048256943463
 30
0
 11
208.5173647831017
 21
123.1048256943463
 31
0
  0
LINE
  8
1
 62
7
 10
208.5173647831017
 20
123.1048256943463
 30
0
 11
208.5173647831017
 21
120.7056775800226
 31
0
  0
LINE
  8
1
 62
7
 10
208.5173647831017
 20
120.7056775800226
 30
0
 11
209.0710143479447
 21
120.7056775800226
 31
0
  0
LINE
  8
1
 62
7
 10
209.0710143479447
 20
120.7056775800226
 30
0
 11
209.0710143479447
 21
120.2443029426526
 31
0
  0
LINE
  8
1
 62
7
 10
209.0710143479447
 20
120.2443029426526
 30
0
 11
208.5173647831017
 21
120.2443029426526
 31
0
  0
LINE
  8
1
 62
7
 10
208.5173647831017
 20
120.2443029426526
 30
0
 11
208.5173647831017
 21
119.4138285953866
 31
0
  0
LINE
  8
1
 62
7
 10
208.5173647831017
 20
119.4138285953866
 30
0
 11
207.9083502617726
 21
119.4138285953866
 31
0
  0
LINE
  8
1
 62
7
 10
207.9083502617726
 20
119.4138285953866
 30
0
 11
207.9083502617726
 21
120.2443029426526
 31
0
  0
LINE
  8
1
 62
7
 10
207.9083502617726
 20
120.2443029426526
 30
0
 11
206.0259417413037
 21
120.2443029426526
 31
0
  0
LINE
  8
1
 62
7
 10
206.0259417413037
 20
120.2443029426526
 30
0
 11
206.0259417413037
 21
120.7518150437595
 31
0
  0
LINE
  8
1
 62
7
 10
206.0259417413037
 20
120.7518150437595
 30
0
 11
207.9083502617726
 21
123.1048256943463
 31
0
  0
LINE
  8
1
 62
7
 10
207.9083502617726
 20
122.2743513470803
 30
0
 11
206.6349562626307
 21
120.7056775800226
 31
0
  0
LINE
  8
1
 62
7
 10
206.6349562626307
 20
120.7056775800226
 30
0
 11
207.9083502617726
 21
120.7056775800226
 31
0
  0
LINE
  8
1
 62
7
 10
207.9083502617726
 20
120.7056775800226
 30
0
 11
207.9083502617726
 21
122.2743513470803
 31
0
  0
LINE
  8
1
 62
7
 10
217.2201457840187
 20
152.2716377460965
 30
0
 11
220.3681023187068
 21
152.2716377460965
 31
0
  0
LINE
  8
1
 62
2
  6
DASHDOT
 10
308.58374488512
 20
141.2716377460965
 30
0
 11
52.27319667623527
 21
141.2716377460965
 31
0
  0
LINE
  8
1
 62
2
  6
DASHDOT
 10
181.9493152395618
 20
199.8879069929631
 30
0
 11
181.9493152395618
 21
83.63387175666853
 31
0
  0
LINE
  8
1
 62
7
 10
132.9147952901027
 20
-71.835995061498
 30
0
 11
132.9147952901027
 21
-72.70224506149799
 31
0
  0
LINE
  8
1
 62
7
 10
129.1691302901027
 20
-71.835995061498
 30
0
 11
132.9147952901027
 21
-71.835995061498
 31
0
  0
LINE
  8
1
 62
7
 10
129.1691302901027
 20
-69.58374506149799
 30
0
 11
129.1691302901027
 21
-71.835995061498
 31
0
  0
LINE
  8
1
 62
7
 10
132.5163202901027
 20
-69.58374506149799
 30
0
 11
129.1691302901027
 21
-69.58374506149799
 31
0
  0
LINE
  8
1
 62
7
 10
132.5163202901027
 20
-68.71749506149799
 30
0
 11
132.5163202901027
 21
-69.58374506149799
 31
0
  0
LINE
  8
1
 62
7
 10
129.1691302901027
 20
-68.71749506149799
 30
0
 11
132.5163202901027
 21
-68.71749506149799
 31
0
  0
LINE
  8
1
 62
7
 10
129.1691302901027
 20
-66.63849506149799
 30
0
 11
129.1691302901027
 21
-68.71749506149799
 31
0
  0
LINE
  8
1
 62
7
 10
132.8351002901027
 20
-66.63849506149799
 30
0
 11
129.1691302901027
 21
-66.63849506149799
 31
0
  0
LINE
  8
1
 62
7
 10
132.8351002901027
 20
-65.77224506149798
 30
0
 11
132.8351002901027
 21
-66.63849506149799
 31
0
  0
LINE
  8
1
 62
7
 10
128.2924852901027
 20
-65.77224506149798
 30
0
 11
132.8351002901027
 21
-65.77224506149798
 31
0
  0
LINE
  8
1
 62
7
 10
128.2924852901027
 20
-72.70224506149799
 30
0
 11
128.2924852901027
 21
-65.77224506149798
 31
0
  0
LINE
  8
1
 62
7
 10
132.9147952901027
 20
-72.70224506149799
 30
0
 11
128.2924852901027
 21
-72.70224506149799
 31
0
  0
LINE
  8
1
 62
7
 10
167.4934030598688
 20
-71.30874449818475
 30
0
 11
167.4934030598688
 21
-66.22468199818475
 31
0
  0
LINE
  8
1
 62
7
 10
163.7446546223688
 20
-71.30874449818475
 30
0
 11
167.4934030598688
 21
-71.30874449818475
 31
0
  0
LINE
  8
1
 62
7
 10
167.4934030598688
 20
-66.22468199818475
 30
0
 11
163.7446546223688
 21
-71.30874449818475
 31
0
  0
LINE
  8
1
 62
7
 10
161.9517749348688
 20
-71.15921324818476
 30
0
 11
167.4934030598688
 21
-63.53311949818475
 31
0
  0
LINE
  8
1
 62
7
 10
161.9517749348688
 20
-72.80405699818475
 30
0
 11
161.9517749348688
 21
-71.15921324818476
 31
0
  0
LINE
  8
1
 62
7
 10
167.4934030598688
 20
-72.80405699818475
 30
0
 11
161.9517749348688
 21
-72.80405699818475
 31
0
  0
LINE
  8
1
 62
7
 10
167.4934030598688
 20
-75.49561949818475
 30
0
 11
167.4934030598688
 21
-72.80405699818475
 31
0
  0
LINE
  8
1
 62
7
 10
169.2862827473688
 20
-75.49561949818475
 30
0
 11
167.4934030598688
 21
-75.49561949818475
 31
0
  0
LINE
  8
1
 62
7
 10
169.2862827473688
 20
-72.80405699818475
 30
0
 11
169.2862827473688
 21
-75.49561949818475
 31
0
  0
LINE
  8
1
 62
7
 10
170.9161733723688
 20
-72.80405699818475
 30
0
 11
169.2862827473688
 21
-72.80405699818475
 31
0
  0
LINE
  8
1
 62
7
 10
170.9161733723688
 20
-71.30874449818475
 30
0
 11
170.9161733723688
 21
-72.80405699818475
 31
0
  0
LINE
  8
1
 62
7
 10
169.2862827473688
 20
-71.30874449818475
 30
0
 11
170.9161733723688
 21
-71.30874449818475
 31
0
  0
LINE
  8
1
 62
7
 10
169.2862827473688
 20
-63.53311949818475
 30
0
 11
169.2862827473688
 21
-71.30874449818475
 31
0
  0
LINE
  8
1
 62
7
 10
167.4934030598688
 20
-63.53311949818475
 30
0
 11
169.2862827473688
 21
-63.53311949818475
 31
0
  0
LINE
  8
1
 62
7
 10
179.4713374348688
 20
-75.04702574818475
 30
0
 11
179.9603046223688
 21
-74.74796324818475
 31
0
  0
LINE
  8
1
 62
7
 10
178.6563921223688
 20
-75.34608824818476
 30
0
 11
179.4713374348688
 21
-75.04702574818475
 31
0
  0
LINE
  8
1
 62
7
 10
178.0044358723688
 20
-75.49561949818475
 30
0
 11
178.6563921223688
 21
-75.34608824818476
 31
0
  0
LINE
  8
1
 62
7
 10
176.8635124348688
 20
-75.49561949818475
 30
0
 11
178.0044358723688
 21
-75.49561949818475
 31
0
  0
LINE
  8
1
 62
7
 10
176.2115561848688
 20
-75.34608824818476
 30
0
 11
176.8635124348688
 21
-75.49561949818475
 31
0
  0
LINE
  8
1
 62
7
 10
175.3966108723688
 20
-75.04702574818475
 30
0
 11
176.2115561848688
 21
-75.34608824818476
 31
0
  0
LINE
  8
1
 62
7
 10
174.9076436848688
 20
-74.74796324818475
 30
0
 11
175.3966108723688
 21
-75.04702574818475
 31
0
  0
LINE
  8
1
 62
7
 10
174.4186764973688
 20
-74.29936949818475
 30
0
 11
174.9076436848688
 21
-74.74796324818475
 31
0
  0
LINE
  8
1
 62
7
 10
173.9297093098688
 20
-73.70124449818475
 30
0
 11
174.4186764973688
 21
-74.29936949818475
 31
0
  0
LINE
  8
1
 62
7
 10
173.6037311848688
 20
-73.10311949818475
 30
0
 11
173.9297093098688
 21
-73.70124449818475
 31
0
  0
LINE
  8
1
 62
7
 10
173.2777530598688
 20
-72.35546324818475
 30
0
 11
173.6037311848688
 21
-73.10311949818475
 31
0
  0
LINE
  8
1
 62
7
 10
173.1147639973688
 20
-71.45827574818475
 30
0
 11
173.2777530598688
 21
-72.35546324818475
 31
0
  0
LINE
  8
1
 62
7
 10
172.9517749348688
 20
-70.11249449818476
 30
0
 11
173.1147639973688
 21
-71.45827574818475
 31
0
  0
LINE
  8
1
 62
7
 10
172.9517749348688
 20
-68.91624449818475
 30
0
 11
172.9517749348688
 21
-70.11249449818476
 31
0
  0
LINE
  8
1
 62
7
 10
173.1147639973688
 20
-67.57046324818475
 30
0
 11
172.9517749348688
 21
-68.91624449818475
 31
0
  0
LINE
  8
1
 62
7
 10
173.2777530598688
 20
-66.67327574818475
 30
0
 11
173.1147639973688
 21
-67.57046324818475
 31
0
  0
LINE
  8
1
 62
7
 10
173.6037311848688
 20
-65.92561949818476
 30
0
 11
173.2777530598688
 21
-66.67327574818475
 31
0
  0
LINE
  8
1
 62
7
 10
173.9297093098688
 20
-65.32749449818475
 30
0
 11
173.6037311848688
 21
-65.92561949818476
 31
0
  0
LINE
  8
1
 62
7
 10
174.4186764973688
 20
-64.72936949818475
 30
0
 11
173.9297093098688
 21
-65.32749449818475
 31
0
  0
LINE
  8
1
 62
7
 10
174.9076436848688
 20
-64.28077574818475
 30
0
 11
174.4186764973688
 21
-64.72936949818475
 31
0
  0
LINE
  8
1
 62
7
 10
175.3966108723688
 20
-63.98171324818475
 30
0
 11
174.9076436848688
 21
-64.28077574818475
 31
0
  0
LINE
  8
1
 62
7
 10
176.2115561848688
 20
-63.68265074818476
 30
0
 11
175.3966108723688
 21
-63.98171324818475
 31
0
  0
LINE
  8
1
 62
7
 10
176.8635124348688
 20
-63.53311949818475
 30
0
 11
176.2115561848688
 21
-63.68265074818476
 31
0
  0
LINE
  8
1
 62
7
 10
178.0044358723688
 20
-63.53311949818475
 30
0
 11
176.8635124348688
 21
-63.53311949818475
 31
0
  0
LINE
  8
1
 62
7
 10
178.6563921223688
 20
-63.68265074818476
 30
0
 11
178.0044358723688
 21
-63.53311949818475
 31
0
  0
LINE
  8
1
 62
7
 10
179.4713374348688
 20
-63.98171324818475
 30
0
 11
178.6563921223688
 21
-63.68265074818476
 31
0
  0
LINE
  8
1
 62
7
 10
179.9603046223688
 20
-64.28077574818475
 30
0
 11
179.4713374348688
 21
-63.98171324818475
 31
0
  0
LINE
  8
1
 62
7
 10
180.4492718098688
 20
-64.72936949818475
 30
0
 11
179.9603046223688
 21
-64.28077574818475
 31
0
  0
LINE
  8
1
 62
7
 10
180.9382389973688
 20
-65.32749449818475
 30
0
 11
180.4492718098688
 21
-64.72936949818475
 31
0
  0
LINE
  8
1
 62
7
 10
181.2642171223688
 20
-65.92561949818476
 30
0
 11
180.9382389973688
 21
-65.32749449818475
 31
0
  0
LINE
  8
1
 62
7
 10
181.5901952473688
 20
-66.67327574818475
 30
0
 11
181.2642171223688
 21
-65.92561949818476
 31
0
  0
LINE
  8
1
 62
7
 10
181.7531843098688
 20
-67.57046324818475
 30
0
 11
181.5901952473688
 21
-66.67327574818475
 31
0
  0
LINE
  8
1
 62
7
 10
181.9161733723688
 20
-68.91624449818475
 30
0
 11
181.7531843098688
 21
-67.57046324818475
 31
0
  0
LINE
  8
1
 62
7
 10
181.9161733723688
 20
-70.11249449818476
 30
0
 11
181.9161733723688
 21
-68.91624449818475
 31
0
  0
LINE
  8
1
 62
7
 10
181.7531843098688
 20
-71.45827574818475
 30
0
 11
181.9161733723688
 21
-70.11249449818476
 31
0
  0
LINE
  8
1
 62
7
 10
181.5901952473688
 20
-72.35546324818475
 30
0
 11
181.7531843098688
 21
-71.45827574818475
 31
0
  0
LINE
  8
1
 62
7
 10
181.2642171223688
 20
-73.10311949818475
 30
0
 11
181.5901952473688
 21
-72.35546324818475
 31
0
  0
LINE
  8
1
 62
7
 10
180.9382389973688
 20
-73.70124449818475
 30
0
 11
181.2642171223688
 21
-73.10311949818475
 31
0
  0
LINE
  8
1
 62
7
 10
180.4492718098688
 20
-74.29936949818475
 30
0
 11
180.9382389973688
 21
-73.70124449818475
 31
0
  0
LINE
  8
1
 62
7
 10
179.9603046223688
 20
-74.74796324818475
 30
0
 11
180.4492718098688
 21
-74.29936949818475
 31
0
  0
LINE
  8
1
 62
7
 10
176.2115561848688
 20
-73.70124449818475
 30
0
 11
176.8635124348688
 21
-74.00030699818476
 31
0
  0
LINE
  8
1
 62
7
 10
175.5595999348688
 20
-73.25265074818475
 30
0
 11
176.2115561848688
 21
-73.70124449818475
 31
0
  0
LINE
  8
1
 62
7
 10
175.2336218098688
 20
-72.80405699818475
 30
0
 11
175.5595999348688
 21
-73.25265074818475
 31
0
  0
LINE
  8
1
 62
7
 10
174.9076436848688
 20
-72.05640074818476
 30
0
 11
175.2336218098688
 21
-72.80405699818475
 31
0
  0
LINE
  8
1
 62
7
 10
174.7446546223688
 20
-70.41155699818475
 30
0
 11
174.9076436848688
 21
-72.05640074818476
 31
0
  0
LINE
  8
1
 62
7
 10
174.7446546223688
 20
-68.61718199818475
 30
0
 11
174.7446546223688
 21
-70.41155699818475
 31
0
  0
LINE
  8
1
 62
7
 10
174.9076436848688
 20
-66.97233824818476
 30
0
 11
174.7446546223688
 21
-68.61718199818475
 31
0
  0
LINE
  8
1
 62
7
 10
175.2336218098688
 20
-66.22468199818475
 30
0
 11
174.9076436848688
 21
-66.97233824818476
 31
0
  0
LINE
  8
1
 62
7
 10
175.5595999348688
 20
-65.77608824818475
 30
0
 11
175.2336218098688
 21
-66.22468199818475
 31
0
  0
LINE
  8
1
 62
7
 10
176.2115561848688
 20
-65.32749449818475
 30
0
 11
175.5595999348688
 21
-65.77608824818475
 31
0
  0
LINE
  8
1
 62
7
 10
176.8635124348688
 20
-65.02843199818476
 30
0
 11
176.2115561848688
 21
-65.32749449818475
 31
0
  0
LINE
  8
1
 62
7
 10
178.0044358723688
 20
-65.02843199818476
 30
0
 11
176.8635124348688
 21
-65.02843199818476
 31
0
  0
LINE
  8
1
 62
7
 10
178.6563921223688
 20
-65.32749449818475
 30
0
 11
178.0044358723688
 21
-65.02843199818476
 31
0
  0
LINE
  8
1
 62
7
 10
179.3083483723688
 20
-65.77608824818475
 30
0
 11
178.6563921223688
 21
-65.32749449818475
 31
0
  0
LINE
  8
1
 62
7
 10
179.6343264973688
 20
-66.22468199818475
 30
0
 11
179.3083483723688
 21
-65.77608824818475
 31
0
  0
LINE
  8
1
 62
7
 10
179.9603046223688
 20
-66.97233824818476
 30
0
 11
179.6343264973688
 21
-66.22468199818475
 31
0
  0
LINE
  8
1
 62
7
 10
180.1232936848688
 20
-68.61718199818475
 30
0
 11
179.9603046223688
 21
-66.97233824818476
 31
0
  0
LINE
  8
1
 62
7
 10
180.1232936848688
 20
-70.41155699818475
 30
0
 11
180.1232936848688
 21
-68.61718199818475
 31
0
  0
LINE
  8
1
 62
7
 10
179.9603046223688
 20
-72.05640074818476
 30
0
 11
180.1232936848688
 21
-70.41155699818475
 31
0
  0
LINE
  8
1
 62
7
 10
179.6343264973688
 20
-72.80405699818475
 30
0
 11
179.9603046223688
 21
-72.05640074818476
 31
0
  0
LINE
  8
1
 62
7
 10
179.3083483723688
 20
-73.25265074818475
 30
0
 11
179.6343264973688
 21
-72.80405699818475
 31
0
  0
LINE
  8
1
 62
7
 10
178.6563921223688
 20
-73.70124449818475
 30
0
 11
179.3083483723688
 21
-73.25265074818475
 31
0
  0
LINE
  8
1
 62
7
 10
178.0044358723688
 20
-74.00030699818476
 30
0
 11
178.6563921223688
 21
-73.70124449818475
 31
0
  0
LINE
  8
1
 62
7
 10
176.8635124348688
 20
-74.00030699818476
 30
0
 11
178.0044358723688
 21
-74.00030699818476
 31
0
  0
LINE
  8
1
 62
7
 10
190.3152152395617
 20
-67.95924449818475
 30
0
 11
189.9513902395617
 21
-68.34905699818475
 31
0
  0
LINE
  8
1
 62
7
 10
190.7699964895617
 20
-67.69936949818475
 30
0
 11
190.3152152395617
 21
-67.95924449818475
 31
0
  0
LINE
  8
1
 62
7
 10
191.1338214895617
 20
-67.69936949818475
 30
0
 11
190.7699964895617
 21
-67.69936949818475
 31
0
  0
LINE
  8
1
 62
7
 10
191.7705152395617
 20
-67.95924449818475
 30
0
 11
191.1338214895617
 21
-67.69936949818475
 31
0
  0
LINE
  8
1
 62
7
 10
192.3162527395617
 20
-68.47899449818475
 30
0
 11
191.7705152395617
 21
-67.95924449818475
 31
0
  0
LINE
  8
1
 62
7
 10
192.5891214895617
 20
-68.99874449818475
 30
0
 11
192.3162527395617
 21
-68.47899449818475
 31
0
  0
LINE
  8
1
 62
7
 10
192.8619902395617
 20
-69.77836949818476
 30
0
 11
192.5891214895617
 21
-68.99874449818475
 31
0
  0
LINE
  8
1
 62
7
 10
192.9529464895617
 20
-70.81786949818475
 30
0
 11
192.8619902395617
 21
-69.77836949818476
 31
0
  0
LINE
  8
1
 62
7
 10
192.9529464895617
 20
-75.49561949818475
 30
0
 11
192.9529464895617
 21
-70.81786949818475
 31
0
  0
LINE
  8
1
 62
7
 10
191.9524277395617
 20
-75.49561949818475
 30
0
 11
192.9529464895617
 21
-75.49561949818475
 31
0
  0
LINE
  8
1
 62
7
 10
191.9524277395617
 20
-70.68793199818475
 30
0
 11
191.9524277395617
 21
-75.49561949818475
 31
0
  0
LINE
  8
1
 62
7
 10
191.8614714895617
 20
-70.16818199818475
 30
0
 11
191.9524277395617
 21
-70.68793199818475
 31
0
  0
LINE
  8
1
 62
7
 10
191.5886027395617
 20
-69.51849449818475
 30
0
 11
191.8614714895617
 21
-70.16818199818475
 31
0
  0
LINE
  8
1
 62
7
 10
191.3157339895617
 20
-69.12868199818475
 30
0
 11
191.5886027395617
 21
-69.51849449818475
 31
0
  0
LINE
  8
1
 62
7
 10
190.8609527395617
 20
-68.99874449818475
 30
0
 11
191.3157339895617
 21
-69.12868199818475
 31
0
  0
LINE
  8
1
 62
7
 10
190.4971277395617
 20
-69.12868199818475
 30
0
 11
190.8609527395617
 21
-68.99874449818475
 31
0
  0
LINE
  8
1
 62
7
 10
190.1333027395617
 20
-69.51849449818475
 30
0
 11
190.4971277395617
 21
-69.12868199818475
 31
0
  0
LINE
  8
1
 62
7
 10
189.9513902395617
 20
-70.16818199818475
 30
0
 11
190.1333027395617
 21
-69.51849449818475
 31
0
  0
LINE
  8
1
 62
7
 10
189.9513902395617
 20
-75.49561949818475
 30
0
 11
189.9513902395617
 21
-70.16818199818475
 31
0
  0
LINE
  8
1
 62
7
 10
188.9508714895617
 20
-75.49561949818475
 30
0
 11
189.9513902395617
 21
-75.49561949818475
 31
0
  0
LINE
  8
1
 62
7
 10
188.9508714895617
 20
-70.68793199818475
 30
0
 11
188.9508714895617
 21
-75.49561949818475
 31
0
  0
LINE
  8
1
 62
7
 10
188.8599152395617
 20
-70.16818199818475
 30
0
 11
188.9508714895617
 21
-70.68793199818475
 31
0
  0
LINE
  8
1
 62
7
 10
188.5870464895617
 20
-69.51849449818475
 30
0
 11
188.8599152395617
 21
-70.16818199818475
 31
0
  0
LINE
  8
1
 62
7
 10
188.3141777395617
 20
-69.12868199818475
 30
0
 11
188.5870464895617
 21
-69.51849449818475
 31
0
  0
LINE
  8
1
 62
7
 10
187.8593964895617
 20
-68.99874449818475
 30
0
 11
188.3141777395617
 21
-69.12868199818475
 31
0
  0
LINE
  8
1
 62
7
 10
187.4955714895617
 20
-69.12868199818475
 30
0
 11
187.8593964895617
 21
-68.99874449818475
 31
0
  0
LINE
  8
1
 62
7
 10
187.1317464895617
 20
-69.51849449818475
 30
0
 11
187.4955714895617
 21
-69.12868199818475
 31
0
  0
LINE
  8
1
 62
7
 10
186.9498339895617
 20
-70.16818199818475
 30
0
 11
187.1317464895617
 21
-69.51849449818475
 31
0
  0
LINE
  8
1
 62
7
 10
186.9498339895617
 20
-75.49561949818475
 30
0
 11
186.9498339895617
 21
-70.16818199818475
 31
0
  0
LINE
  8
1
 62
7
 10
185.9493152395617
 20
-75.49561949818475
 30
0
 11
186.9498339895617
 21
-75.49561949818475
 31
0
  0
LINE
  8
1
 62
7
 10
185.9493152395617
 20
-67.82930699818475
 30
0
 11
185.9493152395617
 21
-75.49561949818475
 31
0
  0
LINE
  8
1
 62
7
 10
186.9498339895617
 20
-67.82930699818475
 30
0
 11
185.9493152395617
 21
-67.82930699818475
 31
0
  0
LINE
  8
1
 62
7
 10
186.9498339895617
 20
-68.47899449818475
 30
0
 11
186.9498339895617
 21
-67.82930699818475
 31
0
  0
LINE
  8
1
 62
7
 10
187.2227027395617
 20
-67.95924449818475
 30
0
 11
186.9498339895617
 21
-68.47899449818475
 31
0
  0
LINE
  8
1
 62
7
 10
187.7684402395617
 20
-67.69936949818475
 30
0
 11
187.2227027395617
 21
-67.95924449818475
 31
0
  0
LINE
  8
1
 62
7
 10
188.1322652395617
 20
-67.69936949818475
 30
0
 11
187.7684402395617
 21
-67.69936949818475
 31
0
  0
LINE
  8
1
 62
7
 10
188.7689589895617
 20
-67.95924449818475
 30
0
 11
188.1322652395617
 21
-67.69936949818475
 31
0
  0
LINE
  8
1
 62
7
 10
189.3146964895617
 20
-68.47899449818475
 30
0
 11
188.7689589895617
 21
-67.95924449818475
 31
0
  0
LINE
  8
1
 62
7
 10
189.6785214895617
 20
-68.99874449818475
 30
0
 11
189.3146964895617
 21
-68.47899449818475
 31
0
  0
LINE
  8
1
 62
7
 10
189.9513902395617
 20
-68.34905699818475
 30
0
 11
189.6785214895617
 21
-68.99874449818475
 31
0
  0
LINE
  8
1
 62
7
 10
199.3152152395617
 20
-67.95924449818475
 30
0
 11
198.9513902395617
 21
-68.34905699818475
 31
0
  0
LINE
  8
1
 62
7
 10
199.7699964895617
 20
-67.69936949818475
 30
0
 11
199.3152152395617
 21
-67.95924449818475
 31
0
  0
LINE
  8
1
 62
7
 10
200.1338214895617
 20
-67.69936949818475
 30
0
 11
199.7699964895617
 21
-67.69936949818475
 31
0
  0
LINE
  8
1
 62
7
 10
200.7705152395617
 20
-67.95924449818475
 30
0
 11
200.1338214895617
 21
-67.69936949818475
 31
0
  0
LINE
  8
1
 62
7
 10
201.3162527395617
 20
-68.47899449818475
 30
0
 11
200.7705152395617
 21
-67.95924449818475
 31
0
  0
LINE
  8
1
 62
7
 10
201.5891214895617
 20
-68.99874449818475
 30
0
 11
201.3162527395617
 21
-68.47899449818475
 31
0
  0
LINE
  8
1
 62
7
 10
201.8619902395617
 20
-69.77836949818476
 30
0
 11
201.5891214895617
 21
-68.99874449818475
 31
0
  0
LINE
  8
1
 62
7
 10
201.9529464895617
 20
-70.81786949818475
 30
0
 11
201.8619902395617
 21
-69.77836949818476
 31
0
  0
LINE
  8
1
 62
7
 10
201.9529464895617
 20
-75.49561949818475
 30
0
 11
201.9529464895617
 21
-70.81786949818475
 31
0
  0
LINE
  8
1
 62
7
 10
200.9524277395617
 20
-75.49561949818475
 30
0
 11
201.9529464895617
 21
-75.49561949818475
 31
0
  0
LINE
  8
1
 62
7
 10
200.9524277395617
 20
-70.68793199818475
 30
0
 11
200.9524277395617
 21
-75.49561949818475
 31
0
  0
LINE
  8
1
 62
7
 10
200.8614714895617
 20
-70.16818199818475
 30
0
 11
200.9524277395617
 21
-70.68793199818475
 31
0
  0
LINE
  8
1
 62
7
 10
200.5886027395617
 20
-69.51849449818475
 30
0
 11
200.8614714895617
 21
-70.16818199818475
 31
0
  0
LINE
  8
1
 62
7
 10
200.3157339895617
 20
-69.12868199818475
 30
0
 11
200.5886027395617
 21
-69.51849449818475
 31
0
  0
LINE
  8
1
 62
7
 10
199.8609527395617
 20
-68.99874449818475
 30
0
 11
200.3157339895617
 21
-69.12868199818475
 31
0
  0
LINE
  8
1
 62
7
 10
199.4971277395617
 20
-69.12868199818475
 30
0
 11
199.8609527395617
 21
-68.99874449818475
 31
0
  0
LINE
  8
1
 62
7
 10
199.1333027395617
 20
-69.51849449818475
 30
0
 11
199.4971277395617
 21
-69.12868199818475
 31
0
  0
LINE
  8
1
 62
7
 10
198.9513902395617
 20
-70.16818199818475
 30
0
 11
199.1333027395617
 21
-69.51849449818475
 31
0
  0
LINE
  8
1
 62
7
 10
198.9513902395617
 20
-75.49561949818475
 30
0
 11
198.9513902395617
 21
-70.16818199818475
 31
0
  0
LINE
  8
1
 62
7
 10
197.9508714895617
 20
-75.49561949818475
 30
0
 11
198.9513902395617
 21
-75.49561949818475
 31
0
  0
LINE
  8
1
 62
7
 10
197.9508714895617
 20
-70.68793199818475
 30
0
 11
197.9508714895617
 21
-75.49561949818475
 31
0
  0
LINE
  8
1
 62
7
 10
197.8599152395617
 20
-70.16818199818475
 30
0
 11
197.9508714895617
 21
-70.68793199818475
 31
0
  0
LINE
  8
1
 62
7
 10
197.5870464895617
 20
-69.51849449818475
 30
0
 11
197.8599152395617
 21
-70.16818199818475
 31
0
  0
LINE
  8
1
 62
7
 10
197.3141777395617
 20
-69.12868199818475
 30
0
 11
197.5870464895617
 21
-69.51849449818475
 31
0
  0
LINE
  8
1
 62
7
 10
196.8593964895617
 20
-68.99874449818475
 30
0
 11
197.3141777395617
 21
-69.12868199818475
 31
0
  0
LINE
  8
1
 62
7
 10
196.4955714895617
 20
-69.12868199818475
 30
0
 11
196.8593964895617
 21
-68.99874449818475
 31
0
  0
LINE
  8
1
 62
7
 10
196.1317464895617
 20
-69.51849449818475
 30
0
 11
196.4955714895617
 21
-69.12868199818475
 31
0
  0
LINE
  8
1
 62
7
 10
195.9498339895617
 20
-70.16818199818475
 30
0
 11
196.1317464895617
 21
-69.51849449818475
 31
0
  0
LINE
  8
1
 62
7
 10
195.9498339895617
 20
-75.49561949818475
 30
0
 11
195.9498339895617
 21
-70.16818199818475
 31
0
  0
LINE
  8
1
 62
7
 10
194.9493152395617
 20
-75.49561949818475
 30
0
 11
195.9498339895617
 21
-75.49561949818475
 31
0
  0
LINE
  8
1
 62
7
 10
194.9493152395617
 20
-67.82930699818475
 30
0
 11
194.9493152395617
 21
-75.49561949818475
 31
0
  0
LINE
  8
1
 62
7
 10
195.9498339895617
 20
-67.82930699818475
 30
0
 11
194.9493152395617
 21
-67.82930699818475
 31
0
  0
LINE
  8
1
 62
7
 10
195.9498339895617
 20
-68.47899449818475
 30
0
 11
195.9498339895617
 21
-67.82930699818475
 31
0
  0
LINE
  8
1
 62
7
 10
196.2227027395617
 20
-67.95924449818475
 30
0
 11
195.9498339895617
 21
-68.47899449818475
 31
0
  0
LINE
  8
1
 62
7
 10
196.7684402395617
 20
-67.69936949818475
 30
0
 11
196.2227027395617
 21
-67.95924449818475
 31
0
  0
LINE
  8
1
 62
7
 10
197.1322652395617
 20
-67.69936949818475
 30
0
 11
196.7684402395617
 21
-67.69936949818475
 31
0
  0
LINE
  8
1
 62
7
 10
197.7689589895617
 20
-67.95924449818475
 30
0
 11
197.1322652395617
 21
-67.69936949818475
 31
0
  0
LINE
  8
1
 62
7
 10
198.3146964895617
 20
-68.47899449818475
 30
0
 11
197.7689589895617
 21
-67.95924449818475
 31
0
  0
LINE
  8
1
 62
7
 10
198.6785214895617
 20
-68.99874449818475
 30
0
 11
198.3146964895617
 21
-68.47899449818475
 31
0
  0
LINE
  8
1
 62
7
 10
198.9513902395617
 20
-68.34905699818475
 30
0
 11
198.6785214895617
 21
-68.99874449818475
 31
0
  0
LINE
  8
1
 62
7
 10
303.083289835777
 20
-41.50224506149804
 30
0
 11
303.083289835777
 21
-97.50224506149803
 31
0
  0
LINE
  8
1
 62
7
 10
283.9493152395614
 20
-41.50224506149804
 30
0
 11
283.9493152395614
 21
-97.50224506149803
 31
0
  0
LINE
  8
1
 62
2
 10
303.9493152395614
 20
-96.00224506149803
 30
0
 11
283.3589209634567
 21
-96.00224506149803
 31
0
  0
LINE
  8
1
 62
2
 10
303.9493152395614
 20
-43.00224506149804
 30
0
 11
283.5422286176473
 21
-43.00224506149804
 31
0
  0
LINE
  8
1
 62
7
 10
303.9493152395614
 20
-96.00224506149803
 30
0
 11
303.9493152395614
 21
-43.00224506149804
 31
0
  0
LINE
  8
1
 62
7
 10
283.9493152395614
 20
-41.50224506149804
 30
0
 11
283.9230012208724
 21
-41.50224506149804
 31
0
  0
LINE
  8
1
 62
7
 10
303.9493152395614
 20
-43.00224506149804
 30
0
 11
303.083289835777
 21
-41.50224506149804
 31
0
  0
LINE
  8
1
 62
7
 10
283.9493152395614
 20
-41.50224506149804
 30
0
 11
303.083289835777
 21
-41.50224506149804
 31
0
  0
LINE
  8
1
 62
7
 10
303.9493152395614
 20
-96.00224506149803
 30
0
 11
303.083289835777
 21
-97.50224506149803
 31
0
  0
LINE
  8
1
 62
7
 10
283.9493152395614
 20
-97.50224506149803
 30
0
 11
303.083289835777
 21
-97.50224506149803
 31
0
  0
LINE
  8
1
 62
7
 10
78.93374359641061
 20
-41.50224506149804
 30
0
 11
59.81534064334615
 21
-41.50224506149804
 31
0
  0
LINE
  8
1
 62
7
 10
78.93374359641061
 20
-97.50224506149803
 30
0
 11
78.94931523956174
 21
-97.50224506149803
 31
0
  0
LINE
  8
1
 62
7
 10
78.93374359641061
 20
-41.50224506149804
 30
0
 11
78.93374359641061
 21
-97.50224506149803
 31
0
  0
LINE
  8
1
 62
7
 10
59.81534064334615
 20
-41.50224506149804
 30
0
 11
59.81534064334615
 21
-97.50224506149802
 31
0
  0
LINE
  8
1
 62
7
 10
59.81534064334615
 20
-41.50224506149804
 30
0
 11
58.94931523956173
 21
-43.00224506149804
 31
0
  0
LINE
  8
1
 62
7
 10
78.94931523956174
 20
-41.50224506149804
 30
0
 11
78.93374359641061
 21
-41.50224506149804
 31
0
  0
LINE
  8
1
 62
2
 10
58.94931523956173
 20
-96.00224506149803
 30
0
 11
79.89715195430139
 21
-96.00224506149803
 31
0
  0
LINE
  8
1
 62
7
 10
58.94931523956173
 20
-43.00224506149804
 30
0
 11
58.94931523956173
 21
-96.00224506149803
 31
0
  0
LINE
  8
1
 62
2
 10
58.94931523956173
 20
-43.00224506149804
 30
0
 11
79.87796049477365
 21
-43.00224506149804
 31
0
  0
LINE
  8
1
 62
7
 10
58.94931523956173
 20
-96.00224506149803
 30
0
 11
59.81534064334615
 21
-97.50224506149802
 31
0
  0
LINE
  8
1
 62
7
 10
59.84063976816909
 20
-97.50224506149803
 30
0
 11
78.93374359641061
 21
-97.50224506149803
 31
0
  0
LINE
  8
1
 62
7
 10
140.5318152395614
 20
-28.70224506149803
 30
0
 11
140.5318152395614
 21
-29.00224506149801
 31
0
  0
LINE
  8
1
 62
7
 10
181.9493152395617
 20
-114.5022450614981
 30
0
 11
183.4493152395617
 21
-114.5022450614981
 31
0
  0
LINE
  8
1
 62
7
 10
216.9493152395617
 20
-114.5022450614981
 30
0
 11
224.1280953969356
 21
-104.1993201151928
 31
0
  0
LINE
  8
1
 62
7
 10
183.9493152395617
 20
-113.4951902999996
 30
0
 11
183.4493152395617
 21
-114.5022450614981
 31
0
  0
LINE
  8
1
 62
7
 10
183.4493152395617
 20
-114.5022450614981
 30
0
 11
216.9493152395617
 21
-114.5022450614981
 31
0
  0
LINE
  8
1
 62
7
 10
139.4493152395617
 20
-29.00224506149801
 30
0
 11
139.4493152395617
 21
-28.4974615698907
 31
0
  0
LINE
  8
1
 62
7
 10
180.4493152395617
 20
-114.5022450614981
 30
0
 11
181.9493152395617
 21
-114.5022450614981
 31
0
  0
LINE
  8
1
 62
7
 10
180.4493152395617
 20
-114.5022450614981
 30
0
 11
179.9493152395617
 21
-113.4951902999996
 31
0
  0
LINE
  8
1
 62
7
 10
146.9493152395617
 20
-114.5022450614981
 30
0
 11
180.4493152395617
 21
-114.5022450614981
 31
0
  0
LINE
  8
1
 62
7
 10
226.5573416359303
 20
-35.69070964364533
 30
0
 11
278.1467763036426
 21
-45.97276244117431
 31
0
  0
LINE
  8
1
 62
7
 10
279.826581561453
 20
-93.39195568571586
 30
0
 11
230.9756750326965
 21
-84.68585353207614
 31
0
  0
LINE
  8
1
 62
7
 10
227.4493152395617
 20
-87.63931681577732
 30
0
 11
227.4493152395617
 21
-93.62318504920076
 31
0
  0
LINE
  8
1
 62
7
 10
104.5452331818269
 20
-38.00224506149802
 30
0
 11
126.1628522681693
 21
-38.00224506149802
 31
0
  0
LINE
  8
1
 62
7
 10
144.5237274337594
 20
-111.0210618289704
 30
0
 11
146.9493152395617
 21
-114.5022450614981
 31
0
  0
LINE
  8
1
 62
7
 10
140.3642181975851
 20
-33.00224506149802
 30
0
 11
133.5594731679801
 21
-33.00224506149802
 31
0
  0
LINE
  8
1
 62
7
 10
133.5594731679801
 20
-33.00224506149802
 30
0
 11
126.1628522681693
 21
-38.00224506149802
 31
0
  0
LINE
  8
1
 62
7
 10
126.1628522681693
 20
-38.00224506149802
 30
0
 11
135.6513672840178
 21
-38.00224506149802
 31
0
  0
LINE
  8
1
 62
2
  6
DASHDOT
 10
132.3562512405827
 20
-35.53894174065274
 30
0
 11
136.4394983551873
 21
-35.53894174065274
 31
0
  0
LINE
  8
1
 62
2
  6
DASHDOT
 10
134.4694481589853
 20
-33.60484711861652
 30
0
 11
134.4694481589853
 21
-37.16617542909872
 31
0
  0
LINE
  8
1
 62
2
 10
140.5318152395617
 20
-28.4974615698907
 30
0
 11
140.5318152395614
 21
-29.00224506149801
 31
0
  0
LINE
  8
1
 62
7
 10
224.4493152395617
 20
-28.4974615698907
 30
0
 11
224.4493152395617
 21
-29.00224506149801
 31
0
  0
LINE
  8
1
 62
7
 10
224.4493152395617
 20
-29.00224506149801
 30
0
 11
139.4493152395617
 21
-29.00224506149801
 31
0
  0
LINE
  8
1
 62
7
 10
141.7835557477776
 20
-31.87060251866525
 30
0
 11
222.1150747313457
 21
-31.87060251866525
 31
0
  0
LINE
  8
1
 62
7
 10
161.9493152395618
 20
-53.50224506149804
 30
0
 11
181.9493152395617
 21
-53.50224506149804
 31
0
  0
LINE
  8
1
 62
7
 10
161.9493152395618
 20
-45.50224506149793
 30
0
 11
181.9493152395617
 21
-45.50224506149793
 31
0
  0
LINE
  8
1
 62
7
 10
181.9493152395617
 20
-53.50224506149804
 30
0
 11
183.3926909125359
 21
-51.00224506149793
 31
0
  0
LINE
  8
1
 62
7
 10
181.9493152395617
 20
-45.50224506149793
 30
0
 11
183.3926909125359
 21
-48.00224506149793
 31
0
  0
LINE
  8
1
 62
7
 10
163.3926909125359
 20
-51.00224506149793
 30
0
 11
191.9493152395618
 21
-51.00224506149793
 31
0
  0
LINE
  8
1
 62
7
 10
161.9493152395618
 20
-53.50224506149804
 30
0
 11
163.3926909125359
 21
-51.00224506149793
 31
0
  0
LINE
  8
1
 62
7
 10
163.3926909125359
 20
-48.00224506149793
 30
0
 11
161.9493152395618
 21
-48.00224506149793
 31
0
  0
LINE
  8
1
 62
7
 10
161.9493152395618
 20
-45.50224506149793
 30
0
 11
163.3926909125359
 21
-48.00224506149793
 31
0
  0
LINE
  8
1
 62
7
 10
191.9493152395618
 20
-53.50224506149804
 30
0
 11
201.9493152395618
 21
-49.50224506149793
 31
0
  0
LINE
  8
1
 62
7
 10
191.9493152395618
 20
-51.00224506149793
 30
0
 11
191.9493152395618
 21
-53.50224506149804
 31
0
  0
LINE
  8
1
 62
7
 10
161.9493152395618
 20
-51.00224506149793
 30
0
 11
163.3926909125359
 21
-51.00224506149793
 31
0
  0
LINE
  8
1
 62
7
 10
161.9493152395618
 20
-48.00224506149793
 30
0
 11
161.9493152395618
 21
-51.00224506149793
 31
0
  0
LINE
  8
1
 62
7
 10
191.9493152395618
 20
-48.00224506149793
 30
0
 11
163.3926909125359
 21
-48.00224506149793
 31
0
  0
LINE
  8
1
 62
7
 10
191.9493152395618
 20
-45.50224506149793
 30
0
 11
191.9493152395618
 21
-48.00224506149793
 31
0
  0
LINE
  8
1
 62
7
 10
201.9493152395618
 20
-49.50224506149793
 30
0
 11
191.9493152395618
 21
-45.50224506149793
 31
0
  0
LINE
  8
1
 62
2
  6
DIVIDE
 10
116.920774384271
 20
-65.77312262383241
 30
0
 11
116.920774384271
 21
-72.70743790001249
 31
0
  0
LINE
  8
1
 62
2
  6
DIVIDE
 10
116.920774384271
 20
-72.70743790001249
 30
0
 11
127.001214183903
 21
-72.70743790001249
 31
0
  0
LINE
  8
1
 62
2
  6
DIVIDE
 10
127.001214183903
 20
-72.70743790001249
 30
0
 11
127.001214183903
 21
-65.77312262383241
 31
0
  0
LINE
  8
1
 62
2
  6
DIVIDE
 10
127.001214183903
 20
-65.77312262383241
 30
0
 11
116.920774384271
 21
-65.77312262383241
 31
0
  0
LINE
  8
1
 62
7
 10
129.4493152395618
 20
145.2716377460965
 30
0
 11
134.2654605296079
 21
145.2716377460965
 31
0
  0
LINE
  8
1
 62
7
 10
127.9493152395618
 20
138.7716377460965
 30
0
 11
127.9493152395618
 21
143.7716377460965
 31
0
  0
LINE
  8
1
 62
7
 10
134.2654605296079
 20
137.2716377460965
 30
0
 11
129.4493152395618
 21
137.2716377460965
 31
0
  0
LINE
  8
1
 62
7
 10
229.6331699495156
 20
145.2716377460965
 30
0
 11
234.4493152395617
 21
145.2716377460965
 31
0
  0
LINE
  8
1
 62
7
 10
185.9493152395617
 20
193.7716377460965
 30
0
 11
185.9493152395617
 21
188.9554924560505
 31
0
  0
LINE
  8
1
 62
7
 10
177.9493152395617
 20
193.7716377460965
 30
0
 11
177.9493152395617
 21
188.9554924560505
 31
0
  0
LINE
  8
1
 62
7
 10
179.4493152395617
 20
195.2716377460965
 30
0
 11
184.4493152395617
 21
195.2716377460965
 31
0
  0
LINE
  8
1
 62
7
 10
235.9493152395617
 20
143.7716377460965
 30
0
 11
235.9493152395617
 21
138.7716377460965
 31
0
  0
LINE
  8
1
 62
7
 10
234.4493152395617
 20
137.2716377460965
 30
0
 11
229.6331699495156
 21
137.2716377460965
 31
0
  0
LINE
  8
1
 62
7
 10
185.9493152395617
 20
93.5877830361426
 30
0
 11
185.9493152395617
 21
88.77163774609653
 31
0
  0
LINE
  8
1
 62
7
 10
177.9493152395617
 20
93.5877830361426
 30
0
 11
177.9493152395617
 21
88.77163774609653
 31
0
  0
LINE
  8
1
 62
7
 10
184.4493152395617
 20
87.27163774609653
 30
0
 11
179.4493152395617
 21
87.27163774609653
 31
0
  0
LINE
  8
1
 62
7
 10
117.8897655184448
 20
108.3466103891415
 30
0
 11
117.7942571338525
 21
107.3511817636375
 31
0
  0
LINE
  8
1
 62
7
 10
117.7942571338525
 20
107.3511817636375
 30
0
 11
121.7759716358682
 21
106.9691482252686
 31
0
  0
LINE
  8
1
 62
7
 10
121.7759716358682
 20
106.9691482252686
 30
0
 11
121.8714800204604
 21
107.9645768507727
 31
0
  0
LINE
  8
1
 62
7
 10
123.8623372714681
 20
107.7735600815876
 30
0
 11
123.7668288868757
 21
106.7781314560836
 31
0
  0
LINE
  8
1
 62
7
 10
123.7668288868757
 20
106.7781314560836
 30
0
 11
127.7485433888913
 21
106.3960979177137
 31
0
  0
LINE
  8
1
 62
7
 10
127.7485433888913
 20
106.3960979177137
 30
0
 11
127.8440517734834
 21
107.3915265432179
 31
0
  0
LINE
  8
1
 62
7
 10
129.899714992446
 20
107.1942918361994
 30
0
 11
129.8042066078536
 21
106.1988632106954
 31
0
  0
LINE
  8
1
 62
7
 10
129.8042066078536
 20
106.1988632106954
 30
0
 11
133.7859211098692
 21
105.8168296723255
 31
0
  0
LINE
  8
1
 62
7
 10
133.7859211098692
 20
105.8168296723255
 30
0
 11
133.8814294944613
 21
106.8122582978297
 31
0
  0
LINE
  8
1
 62
7
 10
303.083289835777
 20
169.2716377460966
 30
0
 11
303.083289835777
 21
113.2716377460965
 31
0
  0
LINE
  8
1
 62
7
 10
283.9493152395614
 20
169.2716377460966
 30
0
 11
283.9493152395614
 21
113.2716377460965
 31
0
  0
LINE
  8
1
 62
2
 10
283.3589209634567
 20
167.7716377460966
 30
0
 11
303.9493152395614
 21
167.7716377460966
 31
0
  0
LINE
  8
1
 62
2
 10
283.5422286176473
 20
114.7716377460965
 30
0
 11
303.9493152395614
 21
114.7716377460965
 31
0
  0
LINE
  8
1
 62
7
 10
303.9493152395614
 20
114.7716377460965
 30
0
 11
303.9493152395614
 21
167.7716377460966
 31
0
  0
LINE
  8
1
 62
7
 10
283.9230012208724
 20
113.2716377460965
 30
0
 11
283.9493152395614
 21
113.2716377460965
 31
0
  0
LINE
  8
1
 62
7
 10
303.083289835777
 20
113.2716377460965
 30
0
 11
303.9493152395614
 21
114.7716377460965
 31
0
  0
LINE
  8
1
 62
7
 10
303.083289835777
 20
113.2716377460965
 30
0
 11
283.9493152395614
 21
113.2716377460965
 31
0
  0
LINE
  8
1
 62
7
 10
303.083289835777
 20
169.2716377460966
 30
0
 11
303.9493152395614
 21
167.7716377460966
 31
0
  0
LINE
  8
1
 62
7
 10
303.083289835777
 20
169.2716377460966
 30
0
 11
283.9493152395614
 21
169.2716377460966
 31
0
  0
LINE
  8
1
 62
7
 10
59.81534064334615
 20
113.2716377460965
 30
0
 11
78.93374359641061
 21
113.2716377460965
 31
0
  0
LINE
  8
1
 62
7
 10
78.94931523956174
 20
169.2716377460966
 30
0
 11
78.93374359641061
 21
169.2716377460966
 31
0
  0
LINE
  8
1
 62
7
 10
78.93374359641061
 20
169.2716377460966
 30
0
 11
78.93374359641061
 21
113.2716377460965
 31
0
  0
LINE
  8
1
 62
7
 10
59.81534064334615
 20
169.2716377460966
 30
0
 11
59.81534064334615
 21
113.2716377460965
 31
0
  0
LINE
  8
1
 62
7
 10
58.94931523956173
 20
114.7716377460965
 30
0
 11
59.81534064334615
 21
113.2716377460965
 31
0
  0
LINE
  8
1
 62
7
 10
78.93374359641061
 20
113.2716377460965
 30
0
 11
78.94931523956174
 21
113.2716377460965
 31
0
  0
LINE
  8
1
 62
2
 10
79.89715195430139
 20
167.7716377460966
 30
0
 11
58.94931523956173
 21
167.7716377460966
 31
0
  0
LINE
  8
1
 62
7
 10
58.94931523956173
 20
167.7716377460966
 30
0
 11
58.94931523956173
 21
114.7716377460965
 31
0
  0
LINE
  8
1
 62
2
 10
79.87796049477365
 20
114.7716377460965
 30
0
 11
58.94931523956173
 21
114.7716377460965
 31
0
  0
LINE
  8
1
 62
7
 10
59.81534064334615
 20
169.2716377460966
 30
0
 11
58.94931523956173
 21
167.7716377460966
 31
0
  0
LINE
  8
1
 62
7
 10
78.93374359641061
 20
169.2716377460966
 30
0
 11
59.84063976816909
 21
169.2716377460966
 31
0
  0
LINE
  8
1
 62
7
 10
278.0629566370314
 20
117.7357820812646
 30
0
 11
212.3669978290046
 21
105.9023275481065
 31
0
  0
LINE
  8
1
 62
7
 10
212.3669978290049
 20
176.6409479440865
 30
0
 11
278.0629566370314
 21
164.8074934109285
 31
0
  0
LINE
  8
1
 62
7
 10
152.0916973514906
 20
105.0650378327366
 30
0
 11
101.5367190671667
 21
109.9156360427246
 31
0
  0
LINE
  8
1
 62
7
 10
101.5367190671667
 20
172.6276394494696
 30
0
 11
152.0916973514906
 21
177.4782376594566
 31
0
  0
LINE
  8
1
 62
2
 10
142.1247675064996
 20
207.0111331540423
 30
0
 11
142.8122675064996
 21
207.3205081540424
 31
0
  0
LINE
  8
1
 62
2
 10
142.8122675064996
 20
207.3205081540424
 30
0
 11
143.6372675064996
 21
207.9392581540423
 31
0
  0
LINE
  8
1
 62
2
 10
143.6372675064996
 20
207.9392581540423
 30
0
 11
144.0497675064996
 21
208.5580081540423
 31
0
  0
LINE
  8
1
 62
2
 10
142.1247675064996
 20
208.5580081540423
 30
0
 11
144.0497675064996
 21
208.5580081540423
 31
0
  0
LINE
  8
1
 62
2
 10
145.6997675064996
 20
209.3314456540423
 30
0
 11
142.8122675064996
 21
209.3314456540423
 31
0
  0
LINE
  8
1
 62
2
 10
142.5372675064996
 20
210.1048831540423
 30
0
 11
145.9747675064996
 21
210.1048831540423
 31
0
  0
LINE
  8
1
 62
2
 10
144.1872675064996
 20
210.8783206540423
 30
0
 11
144.1872675064996
 21
208.5580081540423
 31
0
  0
LINE
  8
1
 62
2
 10
143.6372675064996
 20
207.9392581540423
 30
0
 11
143.6372675064996
 21
206.3923831540423
 31
0
  0
LINE
  8
1
 62
2
 10
142.9497675064996
 20
206.0830081540424
 30
0
 11
144.5997675064996
 21
206.8564456540424
 31
0
  0
LINE
  8
1
 62
2
 10
144.8747675064996
 20
207.3205081540424
 30
0
 11
145.8372675064996
 21
208.0939456540424
 31
0
  0
LINE
  8
1
 62
2
 10
144.3247675064996
 20
208.2486331540424
 30
0
 11
144.7372675064996
 21
207.4751956540424
 31
0
  0
LINE
  8
1
 62
2
 10
144.7372675064996
 20
207.4751956540424
 30
0
 11
144.8747675064996
 21
207.3205081540424
 31
0
  0
LINE
  8
1
 62
2
 10
145.5622675064996
 20
206.5470706540424
 30
0
 11
146.2497675064996
 21
206.2376956540423
 31
0
  0
LINE
  8
1
 62
2
 10
144.8747675064996
 20
207.3205081540424
 30
0
 11
145.5622675064996
 21
206.5470706540424
 31
0
  0
LINE
  8
1
 62
2
 10
144.1872675064996
 20
208.5580081540423
 30
0
 11
146.3872675064996
 21
208.5580081540423
 31
0
  0
LINE
  8
1
 62
2
 10
144.0497675064996
 20
208.5580081540423
 30
0
 11
144.1872675064996
 21
208.5580081540423
 31
0
  0
LINE
  8
1
 62
2
 10
147.7622675064996
 20
210.5689456540424
 30
0
 11
150.7872675064996
 21
210.5689456540424
 31
0
  0
LINE
  8
1
 62
2
 10
151.4747675064996
 20
209.3314456540423
 30
0
 11
149.4122675064996
 21
209.3314456540423
 31
0
  0
LINE
  8
1
 62
2
 10
149.4122675064996
 20
209.3314456540423
 30
0
 11
149.4122675064996
 21
206.2376956540423
 31
0
  0
LINE
  8
1
 62
2
 10
149.4122675064996
 20
206.2376956540423
 30
0
 11
148.8622675064996
 21
206.2376956540423
 31
0
  0
LINE
  8
1
 62
2
 10
147.4872675064996
 20
206.7017581540424
 30
0
 11
148.0372675064996
 21
207.3205081540424
 31
0
  0
LINE
  8
1
 62
2
 10
148.0372675064996
 20
207.3205081540424
 30
0
 11
148.4497675064996
 21
208.0939456540424
 31
0
  0
LINE
  8
1
 62
2
 10
150.2372675064996
 20
208.2486331540424
 30
0
 11
150.7872675064996
 21
207.4751956540424
 31
0
  0
LINE
  8
1
 62
2
 10
150.7872675064996
 20
207.4751956540424
 30
0
 11
151.3372675064996
 21
206.7017581540424
 31
0
  0
LINE
  8
1
 62
2
 10
149.4122675064996
 20
209.3314456540423
 30
0
 11
147.3497675064996
 21
209.3314456540423
 31
0
  0
LINE
  8
1
 62
2
 10
152.9872675064996
 20
209.1767581540424
 30
0
 11
154.7747675064996
 21
209.1767581540424
 31
0
  0
LINE
  8
1
 62
2
 10
154.7747675064996
 20
209.1767581540424
 30
0
 11
154.4997675064996
 21
207.0111331540423
 31
0
  0
LINE
  8
1
 62
2
 10
152.2997675064996
 20
207.0111331540423
 30
0
 11
154.4997675064996
 21
207.0111331540423
 31
0
  0
LINE
  8
1
 62
2
 10
154.4997675064996
 20
207.0111331540423
 30
0
 11
156.1497675064996
 21
207.0111331540423
 31
0
  0
LINE
  8
1
 62
2
 10
157.5247675064996
 20
207.3205081540424
 30
0
 11
160.8247675064996
 21
207.3205081540424
 31
0
  0
LINE
  8
1
 62
2
 10
158.0747675064996
 20
209.1767581540424
 30
0
 11
160.4122675064996
 21
209.1767581540424
 31
0
  0
LINE
  8
1
 62
2
 10
163.5747675064996
 20
206.2376956540423
 30
0
 11
164.2622675064996
 21
206.7017581540424
 31
0
  0
LINE
  8
1
 62
2
 10
164.2622675064996
 20
206.7017581540424
 30
0
 11
165.0872675064996
 21
207.7845706540423
 31
0
  0
LINE
  8
1
 62
2
 10
165.0872675064996
 20
207.7845706540423
 30
0
 11
165.3622675064996
 21
208.5580081540423
 31
0
  0
LINE
  8
1
 62
2
 10
164.1247675064996
 20
208.7126956540423
 30
0
 11
164.2622675064996
 21
208.0939456540424
 31
0
  0
LINE
  8
1
 62
2
 10
163.1622675064996
 20
208.5580081540423
 30
0
 11
163.4372675064996
 21
207.9392581540423
 31
0
  0
LINE
  8
1
 62
2
 10
168.7997675064996
 20
210.4142581540424
 30
0
 11
168.7997675064996
 21
206.5470706540424
 31
0
  0
LINE
  8
1
 62
2
 10
169.3497675064996
 20
209.0220706540424
 30
0
 11
169.7622675064996
 21
208.5580081540423
 31
0
  0
LINE
  8
1
 62
2
 10
169.7622675064996
 20
208.5580081540423
 30
0
 11
170.0372675064996
 21
207.9392581540423
 31
0
  0
LINE
  8
1
 62
2
 10
172.7872675064996
 20
206.5470706540424
 30
0
 11
172.6497675064996
 21
207.6298831540424
 31
0
  0
LINE
  8
1
 62
2
 10
172.6497675064996
 20
207.6298831540424
 30
0
 11
172.6497675064996
 21
209.0220706540424
 31
0
  0
LINE
  8
1
 62
2
 10
172.6497675064996
 20
209.0220706540424
 30
0
 11
172.9247675064996
 21
210.4142581540424
 31
0
  0
LINE
  8
1
 62
2
 10
173.7497675064996
 20
209.3314456540423
 30
0
 11
174.9872675064996
 21
209.4861331540423
 31
0
  0
LINE
  8
1
 62
2
 10
174.9872675064996
 20
209.4861331540423
 30
0
 11
175.6747675064996
 21
209.6408206540424
 31
0
  0
LINE
  8
1
 62
2
 10
174.8497675064996
 20
210.4142581540424
 30
0
 11
174.9872675064996
 21
207.6298831540424
 31
0
  0
LINE
  8
1
 62
2
 10
174.9872675064996
 20
207.6298831540424
 30
0
 11
174.8497675064996
 21
207.0111331540423
 31
0
  0
LINE
  8
1
 62
2
 10
174.8497675064996
 20
207.0111331540423
 30
0
 11
174.5747675064996
 21
206.7017581540424
 31
0
  0
LINE
  8
1
 62
2
 10
174.5747675064996
 20
206.7017581540424
 30
0
 11
174.0247675064996
 21
206.5470706540424
 31
0
  0
LINE
  8
1
 62
2
 10
174.0247675064996
 20
206.5470706540424
 30
0
 11
173.6122675064996
 21
206.8564456540424
 31
0
  0
LINE
  8
1
 62
2
 10
173.6122675064996
 20
206.8564456540424
 30
0
 11
173.6122675064996
 21
207.1658206540423
 31
0
  0
LINE
  8
1
 62
2
 10
173.6122675064996
 20
207.1658206540423
 30
0
 11
174.2997675064996
 21
207.3205081540424
 31
0
  0
LINE
  8
1
 62
2
 10
174.2997675064996
 20
207.3205081540424
 30
0
 11
174.9872675064996
 21
207.1658206540423
 31
0
  0
LINE
  8
1
 62
2
 10
174.9872675064996
 20
207.1658206540423
 30
0
 11
175.6747675064996
 21
206.7017581540424
 31
0
  0
LINE
  8
1
 62
2
 10
177.5997675064996
 20
206.0830081540424
 30
0
 11
177.5997675064996
 21
209.6408206540424
 31
0
  0
LINE
  8
1
 62
2
 10
176.7747675064996
 20
208.2486331540424
 30
0
 11
177.1872675064996
 21
208.8673831540424
 31
0
  0
LINE
  8
1
 62
2
 10
177.1872675064996
 20
208.8673831540424
 30
0
 11
178.1497675064996
 21
210.8783206540423
 31
0
  0
LINE
  8
1
 62
2
 10
178.5622675064996
 20
209.4861331540423
 30
0
 11
179.3872675064996
 21
209.7955081540424
 31
0
  0
LINE
  8
1
 62
2
 10
179.3872675064996
 20
209.7955081540424
 30
0
 11
180.6247675064996
 21
210.4142581540424
 31
0
  0
LINE
  8
1
 62
2
 10
179.7997675064996
 20
209.9501956540424
 30
0
 11
179.7997675064996
 21
206.3923831540423
 31
0
  0
LINE
  8
1
 62
2
 10
181.1747675064996
 20
208.4033206540424
 30
0
 11
178.2872675064996
 21
208.4033206540424
 31
0
  0
LINE
  8
1
 62
2
 10
178.5622675064996
 20
206.3923831540423
 30
0
 11
179.7997675064996
 21
206.3923831540423
 31
0
  0
LINE
  8
1
 62
2
 10
179.7997675064996
 20
206.3923831540423
 30
0
 11
181.0372675064996
 21
206.3923831540423
 31
0
  0
LINE
  8
1
 62
2
 10
181.9997675064996
 20
206.2376956540423
 30
0
 11
182.2747675064996
 21
206.7017581540424
 31
0
  0
LINE
  8
1
 62
2
 10
182.2747675064996
 20
206.7017581540424
 30
0
 11
182.4122675064996
 21
207.1658206540423
 31
0
  0
LINE
  8
1
 62
2
 10
183.0997675064996
 20
207.1658206540423
 30
0
 11
183.0997675064996
 21
206.3923831540423
 31
0
  0
LINE
  8
1
 62
2
 10
183.0997675064996
 20
206.3923831540423
 30
0
 11
183.2372675064996
 21
206.2376956540423
 31
0
  0
LINE
  8
1
 62
2
 10
183.2372675064996
 20
206.2376956540423
 30
0
 11
184.1997675064996
 21
206.0830081540424
 31
0
  0
LINE
  8
1
 62
2
 10
184.1997675064996
 20
206.0830081540424
 30
0
 11
185.0247675064996
 21
206.2376956540423
 31
0
  0
LINE
  8
1
 62
2
 10
185.0247675064996
 20
206.2376956540423
 30
0
 11
185.1622675064996
 21
206.3923831540423
 31
0
  0
LINE
  8
1
 62
2
 10
185.1622675064996
 20
206.3923831540423
 30
0
 11
185.1622675064996
 21
206.7017581540424
 31
0
  0
LINE
  8
1
 62
2
 10
185.7122675064996
 20
206.5470706540424
 30
0
 11
185.4372675064996
 21
206.8564456540424
 31
0
  0
LINE
  8
1
 62
2
 10
185.4372675064996
 20
206.8564456540424
 30
0
 11
185.1622675064996
 21
207.3205081540424
 31
0
  0
LINE
  8
1
 62
2
 10
184.3372675064996
 20
206.8564456540424
 30
0
 11
184.0622675064996
 21
207.3205081540424
 31
0
  0
LINE
  8
1
 62
2
 10
182.8247675064996
 20
207.6298831540424
 30
0
 11
185.0247675064996
 21
207.6298831540424
 31
0
  0
LINE
  8
1
 62
2
 10
185.0247675064996
 20
207.6298831540424
 30
0
 11
185.0247675064996
 21
208.2486331540424
 31
0
  0
LINE
  8
1
 62
2
 10
185.0247675064996
 20
208.8673831540424
 30
0
 11
182.8247675064996
 21
208.8673831540424
 31
0
  0
LINE
  8
1
 62
2
 10
182.8247675064996
 20
208.8673831540424
 30
0
 11
182.8247675064996
 21
208.2486331540424
 31
0
  0
LINE
  8
1
 62
2
 10
182.8247675064996
 20
208.2486331540424
 30
0
 11
185.0247675064996
 21
208.2486331540424
 31
0
  0
LINE
  8
1
 62
2
 10
186.1247675064996
 20
209.3314456540423
 30
0
 11
181.7247675064996
 21
209.3314456540423
 31
0
  0
LINE
  8
1
 62
2
 10
182.1372675064996
 20
210.4142581540424
 30
0
 11
183.9247675064996
 21
210.4142581540424
 31
0
  0
LINE
  8
1
 62
2
 10
183.9247675064996
 20
211.0330081540423
 30
0
 11
183.9247675064996
 21
210.4142581540424
 31
0
  0
LINE
  8
1
 62
2
 10
182.9622675064996
 20
210.1048831540423
 30
0
 11
183.2372675064996
 21
209.4861331540423
 31
0
  0
LINE
  8
1
 62
2
 10
184.7497675064996
 20
210.1048831540423
 30
0
 11
184.4747675064996
 21
209.4861331540423
 31
0
  0
LINE
  8
1
 62
2
 10
183.9247675064996
 20
210.4142581540424
 30
0
 11
185.7122675064996
 21
210.4142581540424
 31
0
  0
LINE
  8
1
 62
2
 10
185.0247675064996
 20
208.2486331540424
 30
0
 11
185.0247675064996
 21
208.8673831540424
 31
0
  0
LINE
  8
1
 62
2
 10
182.8247675064996
 20
208.2486331540424
 30
0
 11
182.8247675064996
 21
207.6298831540424
 31
0
  0
LINE
  8
1
 62
2
 10
189.0122675064996
 20
209.9501956540424
 30
0
 11
188.5997675064996
 21
208.4033206540424
 31
0
  0
LINE
  8
1
 62
2
 10
188.5997675064996
 20
208.4033206540424
 30
0
 11
187.9122675064996
 21
206.8564456540424
 31
0
  0
LINE
  8
1
 62
2
 10
187.9122675064996
 20
206.8564456540424
 30
0
 11
187.3622675064996
 21
207.1658206540423
 31
0
  0
LINE
  8
1
 62
2
 10
187.3622675064996
 20
207.1658206540423
 30
0
 11
187.2247675064996
 21
207.9392581540423
 31
0
  0
LINE
  8
1
 62
2
 10
187.2247675064996
 20
207.9392581540423
 30
0
 11
187.3622675064996
 21
208.8673831540424
 31
0
  0
LINE
  8
1
 62
2
 10
187.3622675064996
 20
208.8673831540424
 30
0
 11
187.9122675064996
 21
209.6408206540424
 31
0
  0
LINE
  8
1
 62
2
 10
187.9122675064996
 20
209.6408206540424
 30
0
 11
188.7372675064996
 21
209.9501956540424
 31
0
  0
LINE
  8
1
 62
2
 10
188.7372675064996
 20
209.9501956540424
 30
0
 11
189.0122675064996
 21
209.9501956540424
 31
0
  0
LINE
  8
1
 62
2
 10
189.5622675064996
 20
209.9501956540424
 30
0
 11
190.1122675064996
 21
209.6408206540424
 31
0
  0
LINE
  8
1
 62
2
 10
190.1122675064996
 20
209.6408206540424
 30
0
 11
190.5247675064996
 21
209.0220706540424
 31
0
  0
LINE
  8
1
 62
2
 10
190.5247675064996
 20
209.0220706540424
 30
0
 11
190.5247675064996
 21
207.9392581540423
 31
0
  0
LINE
  8
1
 62
2
 10
190.5247675064996
 20
207.9392581540423
 30
0
 11
190.1122675064996
 21
207.1658206540423
 31
0
  0
LINE
  8
1
 62
2
 10
190.1122675064996
 20
207.1658206540423
 30
0
 11
189.4247675064996
 21
206.5470706540424
 31
0
  0
LINE
  8
1
 62
2
 10
189.0122675064996
 20
209.9501956540424
 30
0
 11
189.5622675064996
 21
209.9501956540424
 31
0
  0
LINE
  8
1
 62
2
 10
192.0372675064996
 20
206.2376956540423
 30
0
 11
192.0372675064996
 21
209.9501956540424
 31
0
  0
LINE
  8
1
 62
2
 10
192.0372675064996
 20
209.9501956540424
 30
0
 11
192.7247675064996
 21
209.9501956540424
 31
0
  0
LINE
  8
1
 62
2
 10
195.6122675064996
 20
209.9501956540424
 30
0
 11
195.6122675064996
 21
206.2376956540423
 31
0
  0
LINE
  8
1
 62
2
 10
195.6122675064996
 20
206.2376956540423
 30
0
 11
194.9247675064996
 21
206.2376956540423
 31
0
  0
LINE
  8
1
 62
2
 10
193.2747675064996
 20
207.6298831540424
 30
0
 11
193.2747675064996
 21
208.8673831540424
 31
0
  0
LINE
  8
1
 62
2
 10
193.2747675064996
 20
208.8673831540424
 30
0
 11
194.3747675064996
 21
208.8673831540424
 31
0
  0
LINE
  8
1
 62
2
 10
194.3747675064996
 20
208.8673831540424
 30
0
 11
194.3747675064996
 21
207.6298831540424
 31
0
  0
LINE
  8
1
 62
2
 10
194.3747675064996
 20
207.6298831540424
 30
0
 11
193.2747675064996
 21
207.6298831540424
 31
0
  0
LINE
  8
1
 62
2
 10
192.7247675064996
 20
209.9501956540424
 30
0
 11
193.4122675064996
 21
210.8783206540423
 31
0
  0
LINE
  8
1
 62
2
 10
192.7247675064996
 20
209.9501956540424
 30
0
 11
195.6122675064996
 21
209.9501956540424
 31
0
  0
LINE
  8
1
 62
2
 10
197.8122675064996
 20
208.7126956540423
 30
0
 11
199.0497675064996
 21
209.0220706540424
 31
0
  0
LINE
  8
1
 62
2
 10
199.0497675064996
 20
209.0220706540424
 30
0
 11
200.0122675064996
 21
209.4861331540423
 31
0
  0
LINE
  8
1
 62
2
 10
199.3247675064996
 20
210.2595706540423
 30
0
 11
198.7747675064996
 21
209.9501956540424
 31
0
  0
LINE
  8
1
 62
2
 10
198.7747675064996
 20
209.9501956540424
 30
0
 11
197.8122675064996
 21
209.6408206540424
 31
0
  0
LINE
  8
1
 62
2
 10
198.2247675064996
 20
210.7236331540424
 30
0
 11
198.9122675064996
 21
209.6408206540424
 31
0
  0
LINE
  8
1
 62
2
 10
198.9122675064996
 20
209.6408206540424
 30
0
 11
199.8747675064996
 21
207.7845706540423
 31
0
  0
LINE
  8
1
 62
2
 10
199.8747675064996
 20
207.7845706540423
 30
0
 11
199.3247675064996
 21
207.9392581540423
 31
0
  0
LINE
  8
1
 62
2
 10
199.3247675064996
 20
207.9392581540423
 30
0
 11
198.7747675064996
 21
207.9392581540423
 31
0
  0
LINE
  8
1
 62
2
 10
198.7747675064996
 20
207.9392581540423
 30
0
 11
198.2247675064996
 21
207.6298831540424
 31
0
  0
LINE
  8
1
 62
2
 10
198.2247675064996
 20
207.6298831540424
 30
0
 11
197.9497675064996
 21
207.0111331540423
 31
0
  0
LINE
  8
1
 62
2
 10
197.9497675064996
 20
207.0111331540423
 30
0
 11
198.4997675064996
 21
206.5470706540424
 31
0
  0
LINE
  8
1
 62
2
 10
198.4997675064996
 20
206.5470706540424
 30
0
 11
199.4622675064996
 21
206.3923831540423
 31
0
  0
LINE
  8
1
 62
2
 10
202.4872675064996
 20
206.5470706540424
 30
0
 11
202.3497675064996
 21
207.6298831540424
 31
0
  0
LINE
  8
1
 62
2
 10
202.3497675064996
 20
207.6298831540424
 30
0
 11
202.3497675064996
 21
208.8673831540424
 31
0
  0
LINE
  8
1
 62
2
 10
202.3497675064996
 20
208.8673831540424
 30
0
 11
202.6247675064996
 21
209.9501956540424
 31
0
  0
LINE
  8
1
 62
2
 10
203.7247675064996
 20
209.4861331540423
 30
0
 11
204.2747675064996
 21
209.6408206540424
 31
0
  0
LINE
  8
1
 62
2
 10
204.2747675064996
 20
209.6408206540424
 30
0
 11
205.0997675064996
 21
209.6408206540424
 31
0
  0
LINE
  8
1
 62
2
 10
203.4497675064996
 20
207.4751956540424
 30
0
 11
203.7247675064996
 21
207.0111331540423
 31
0
  0
LINE
  8
1
 62
2
 10
203.7247675064996
 20
207.0111331540423
 30
0
 11
204.4122675064996
 21
206.8564456540424
 31
0
  0
LINE
  8
1
 62
2
 10
204.4122675064996
 20
206.8564456540424
 30
0
 11
205.5122675064996
 21
206.8564456540424
 31
0
  0
LINE
  8
1
 62
2
 10
207.0247675064996
 20
206.2376956540423
 30
0
 11
207.4372675064996
 21
206.3923831540423
 31
0
  0
LINE
  8
1
 62
2
 10
207.4372675064996
 20
206.3923831540423
 30
0
 11
207.9872675064996
 21
206.7017581540424
 31
0
  0
LINE
  8
1
 62
2
 10
207.9872675064996
 20
206.7017581540424
 30
0
 11
208.8122675064996
 21
207.3205081540424
 31
0
  0
LINE
  8
1
 62
2
 10
208.8122675064996
 20
207.3205081540424
 30
0
 11
209.4997675064996
 21
208.0939456540424
 31
0
  0
LINE
  8
1
 62
2
 10
209.4997675064996
 20
208.0939456540424
 30
0
 11
207.7122675064996
 21
208.0939456540424
 31
0
  0
LINE
  8
1
 62
2
 10
208.2622675064996
 20
208.7126956540423
 30
0
 11
207.7122675064996
 21
208.0939456540424
 31
0
  0
LINE
  8
1
 62
2
 10
207.5747675064996
 20
207.9392581540423
 30
0
 11
207.1622675064996
 21
207.6298831540424
 31
0
  0
LINE
  8
1
 62
2
 10
207.1622675064996
 20
207.6298831540424
 30
0
 11
206.7497675064996
 21
207.3205081540424
 31
0
  0
LINE
  8
1
 62
2
 10
208.1247675064996
 20
207.9392581540423
 30
0
 11
208.5372675064996
 21
207.4751956540424
 31
0
  0
LINE
  8
1
 62
2
 10
208.5372675064996
 20
207.4751956540424
 30
0
 11
209.3622675064996
 21
206.8564456540424
 31
0
  0
LINE
  8
1
 62
2
 10
209.3622675064996
 20
206.8564456540424
 30
0
 11
210.0497675064996
 21
206.5470706540424
 31
0
  0
LINE
  8
1
 62
2
 10
210.0497675064996
 20
206.5470706540424
 30
0
 11
210.7372675064996
 21
206.2376956540423
 31
0
  0
LINE
  8
1
 62
2
 10
210.5997675064996
 20
209.0220706540424
 30
0
 11
209.9122675064996
 21
209.6408206540424
 31
0
  0
LINE
  8
1
 62
2
 10
208.6747675064996
 20
208.7126956540423
 30
0
 11
208.9497675064996
 21
208.7126956540423
 31
0
  0
LINE
  8
1
 62
2
 10
208.9497675064996
 20
208.7126956540423
 30
0
 11
209.0872675064996
 21
209.0220706540424
 31
0
  0
LINE
  8
1
 62
2
 10
209.0872675064996
 20
209.0220706540424
 30
0
 11
209.0872675064996
 21
210.2595706540423
 31
0
  0
LINE
  8
1
 62
2
 10
208.2622675064996
 20
210.2595706540423
 30
0
 11
208.1247675064996
 21
209.4861331540423
 31
0
  0
LINE
  8
1
 62
2
 10
208.1247675064996
 20
209.4861331540423
 30
0
 11
207.8497675064996
 21
208.8673831540424
 31
0
  0
LINE
  8
1
 62
2
 10
207.8497675064996
 20
208.8673831540424
 30
0
 11
207.4372675064996
 21
208.5580081540423
 31
0
  0
LINE
  8
1
 62
2
 10
207.4372675064996
 20
208.5580081540423
 30
0
 11
207.1622675064996
 21
208.4033206540424
 31
0
  0
LINE
  8
1
 62
2
 10
206.7497675064996
 20
209.0220706540424
 30
0
 11
207.2997675064996
 21
209.6408206540424
 31
0
  0
LINE
  8
1
 62
2
 10
206.7497675064996
 20
210.2595706540423
 30
0
 11
208.2622675064996
 21
210.2595706540423
 31
0
  0
LINE
  8
1
 62
2
 10
208.6747675064996
 20
210.4142581540424
 30
0
 11
208.6747675064996
 21
210.8783206540423
 31
0
  0
LINE
  8
1
 62
2
 10
208.2622675064996
 20
210.2595706540423
 30
0
 11
210.5997675064996
 21
210.2595706540423
 31
0
  0
LINE
  8
1
 62
2
 10
207.7122675064996
 20
208.0939456540424
 30
0
 11
207.5747675064996
 21
207.9392581540423
 31
0
  0
LINE
  8
1
 62
2
 10
212.2497675064996
 20
206.5470706540424
 30
0
 11
214.4497675064996
 21
209.1767581540424
 31
0
  0
LINE
  8
1
 62
2
 10
214.4497675064996
 20
209.1767581540424
 30
0
 11
213.7622675064996
 21
209.0220706540424
 31
0
  0
LINE
  8
1
 62
2
 10
213.7622675064996
 20
209.0220706540424
 30
0
 11
212.6622675064996
 21
208.8673831540424
 31
0
  0
LINE
  8
1
 62
2
 10
213.2122675064996
 20
210.5689456540424
 30
0
 11
213.6247675064996
 21
210.2595706540423
 31
0
  0
LINE
  8
1
 62
2
 10
213.6247675064996
 20
210.2595706540423
 30
0
 11
214.1747675064996
 21
209.9501956540424
 31
0
  0
LINE
  8
1
 62
2
 10
213.3497675064996
 20
207.7845706540423
 30
0
 11
213.6247675064996
 21
207.9392581540423
 31
0
  0
LINE
  8
1
 62
2
 10
213.6247675064996
 20
207.9392581540423
 30
0
 11
213.8997675064996
 21
207.9392581540423
 31
0
  0
LINE
  8
1
 62
2
 10
213.8997675064996
 20
207.9392581540423
 30
0
 11
213.8997675064996
 21
206.8564456540424
 31
0
  0
LINE
  8
1
 62
2
 10
213.8997675064996
 20
206.8564456540424
 30
0
 11
214.0372675064996
 21
206.3923831540423
 31
0
  0
LINE
  8
1
 62
2
 10
214.0372675064996
 20
206.3923831540423
 30
0
 11
214.7247675064996
 21
206.3923831540423
 31
0
  0
LINE
  8
1
 62
2
 10
214.7247675064996
 20
206.3923831540423
 30
0
 11
215.2747675064996
 21
206.5470706540424
 31
0
  0
LINE
  8
1
 62
2
 10
218.4372675064996
 20
206.3923831540423
 30
0
 11
219.1247675064996
 21
206.5470706540424
 31
0
  0
LINE
  8
1
 62
2
 10
219.1247675064996
 20
206.5470706540424
 30
0
 11
219.8122675064996
 21
207.0111331540423
 31
0
  0
LINE
  8
1
 62
2
 10
219.8122675064996
 20
207.0111331540423
 30
0
 11
220.0872675064996
 21
207.4751956540424
 31
0
  0
LINE
  8
1
 62
2
 10
220.0872675064996
 20
207.4751956540424
 30
0
 11
219.9497675064996
 21
208.0939456540424
 31
0
  0
LINE
  8
1
 62
2
 10
219.9497675064996
 20
208.0939456540424
 30
0
 11
219.3997675064996
 21
208.4033206540424
 31
0
  0
LINE
  8
1
 62
2
 10
219.3997675064996
 20
208.4033206540424
 30
0
 11
218.8497675064996
 21
208.4033206540424
 31
0
  0
LINE
  8
1
 62
2
 10
218.8497675064996
 20
208.4033206540424
 30
0
 11
218.2997675064996
 21
208.0939456540424
 31
0
  0
LINE
  8
1
 62
2
 10
218.2997675064996
 20
208.0939456540424
 30
0
 11
217.6122675064996
 21
207.6298831540424
 31
0
  0
LINE
  8
1
 62
2
 10
217.6122675064996
 20
207.6298831540424
 30
0
 11
217.7497675064996
 21
208.7126956540423
 31
0
  0
LINE
  8
1
 62
2
 10
217.7497675064996
 20
208.7126956540423
 30
0
 11
218.0247675064996
 21
209.6408206540424
 31
0
  0
LINE
  8
1
 62
2
 10
218.2997675064996
 20
210.5689456540424
 30
0
 11
218.7122675064996
 21
210.2595706540423
 31
0
  0
LINE
  8
1
 62
2
 10
218.7122675064996
 20
210.2595706540423
 30
0
 11
218.9872675064996
 21
209.9501956540424
 31
0
  0
LINE
  8
1
 62
2
 10
222.8372675064996
 20
210.4142581540424
 30
0
 11
222.6997675064996
 21
208.2486331540424
 31
0
  0
LINE
  8
1
 62
2
 10
222.6997675064996
 20
208.2486331540424
 30
0
 11
222.6997675064996
 21
206.3923831540423
 31
0
  0
LINE
  8
1
 62
2
 10
221.8747675064996
 20
208.5580081540423
 30
0
 11
222.9747675064996
 21
209.3314456540423
 31
0
  0
LINE
  8
1
 62
2
 10
222.9747675064996
 20
209.3314456540423
 30
0
 11
222.6997675064996
 21
208.4033206540424
 31
0
  0
LINE
  8
1
 62
2
 10
222.6997675064996
 20
208.4033206540424
 30
0
 11
221.8747675064996
 21
206.8564456540424
 31
0
  0
LINE
  8
1
 62
2
 10
222.5622675064996
 20
208.0939456540424
 30
0
 11
223.3872675064996
 21
209.1767581540424
 31
0
  0
LINE
  8
1
 62
2
 10
223.3872675064996
 20
209.1767581540424
 30
0
 11
223.9372675064996
 21
209.6408206540424
 31
0
  0
LINE
  8
1
 62
2
 10
223.9372675064996
 20
209.6408206540424
 30
0
 11
224.3497675064996
 21
209.6408206540424
 31
0
  0
LINE
  8
1
 62
2
 10
224.3497675064996
 20
209.6408206540424
 30
0
 11
224.4872675064996
 21
209.1767581540424
 31
0
  0
LINE
  8
1
 62
2
 10
224.4872675064996
 20
209.1767581540424
 30
0
 11
224.3497675064996
 21
207.3205081540424
 31
0
  0
LINE
  8
1
 62
2
 10
224.3497675064996
 20
207.3205081540424
 30
0
 11
224.6247675064996
 21
206.8564456540424
 31
0
  0
LINE
  8
1
 62
2
 10
224.6247675064996
 20
206.8564456540424
 30
0
 11
225.0372675064996
 21
206.8564456540424
 31
0
  0
LINE
  8
1
 62
2
 10
225.0372675064996
 20
206.8564456540424
 30
0
 11
225.3122675064996
 21
207.1658206540423
 31
0
  0
LINE
  8
1
 62
2
 10
227.2372675064996
 20
208.7126956540423
 30
0
 11
228.4747675064996
 21
208.7126956540423
 31
0
  0
LINE
  8
1
 62
2
 10
228.4747675064996
 20
208.7126956540423
 30
0
 11
229.5747675064996
 21
209.0220706540424
 31
0
  0
LINE
  8
1
 62
2
 10
229.4372675064996
 20
209.9501956540424
 30
0
 11
228.4747675064996
 21
209.7955081540424
 31
0
  0
LINE
  8
1
 62
2
 10
228.4747675064996
 20
209.7955081540424
 30
0
 11
227.6497675064996
 21
209.7955081540424
 31
0
  0
LINE
  8
1
 62
2
 10
228.6122675064996
 20
210.7236331540424
 30
0
 11
228.6122675064996
 21
209.4861331540423
 31
0
  0
LINE
  8
1
 62
2
 10
228.6122675064996
 20
209.4861331540423
 30
0
 11
228.7497675064996
 21
207.3205081540424
 31
0
  0
LINE
  8
1
 62
2
 10
228.7497675064996
 20
207.3205081540424
 30
0
 11
228.4747675064996
 21
206.7017581540424
 31
0
  0
LINE
  8
1
 62
2
 10
228.4747675064996
 20
206.7017581540424
 30
0
 11
227.9247675064996
 21
206.3923831540423
 31
0
  0
LINE
  8
1
 62
2
 10
227.9247675064996
 20
206.3923831540423
 30
0
 11
227.3747675064996
 21
206.5470706540424
 31
0
  0
LINE
  8
1
 62
2
 10
227.3747675064996
 20
206.5470706540424
 30
0
 11
227.2372675064996
 21
206.8564456540424
 31
0
  0
LINE
  8
1
 62
2
 10
227.2372675064996
 20
206.8564456540424
 30
0
 11
227.5122675064996
 21
207.1658206540423
 31
0
  0
LINE
  8
1
 62
2
 10
227.5122675064996
 20
207.1658206540423
 30
0
 11
228.1997675064996
 21
207.3205081540424
 31
0
  0
LINE
  8
1
 62
2
 10
228.1997675064996
 20
207.3205081540424
 30
0
 11
228.8872675064996
 21
207.0111331540423
 31
0
  0
LINE
  8
1
 62
2
 10
228.8872675064996
 20
207.0111331540423
 30
0
 11
229.4372675064996
 21
206.5470706540424
 31
0
  0
LINE
  8
1
 62
2
 10
233.1497675064996
 20
206.2376956540423
 30
0
 11
233.5622675064996
 21
207.0111331540423
 31
0
  0
LINE
  8
1
 62
2
 10
233.5622675064996
 20
207.0111331540423
 30
0
 11
233.8372675064996
 21
207.6298831540424
 31
0
  0
LINE
  8
1
 62
2
 10
233.8372675064996
 20
207.6298831540424
 30
0
 11
233.8372675064996
 21
208.5580081540423
 31
0
  0
LINE
  8
1
 62
2
 10
233.8372675064996
 20
208.5580081540423
 30
0
 11
233.5622675064996
 21
208.8673831540424
 31
0
  0
LINE
  8
1
 62
2
 10
233.5622675064996
 20
208.8673831540424
 30
0
 11
233.1497675064996
 21
208.7126956540423
 31
0
  0
LINE
  8
1
 62
2
 10
233.1497675064996
 20
208.7126956540423
 30
0
 11
233.0122675064996
 21
208.2486331540424
 31
0
  0
LINE
  8
1
 62
2
 10
233.0122675064996
 20
208.2486331540424
 30
0
 11
233.4247675064996
 21
207.6298831540424
 31
0
  0
LINE
  8
1
 62
2
 10
233.4247675064996
 20
207.6298831540424
 30
0
 11
233.8372675064996
 21
207.9392581540423
 31
0
  0
LINE
  8
1
 62
2
 10
233.8372675064996
 20
207.9392581540423
 30
0
 11
233.8372675064996
 21
210.7236331540424
 31
0
  0
LINE
  8
1
 62
2
 10
231.7747675064996
 20
209.3314456540423
 30
0
 11
233.2872675064996
 21
209.6408206540424
 31
0
  0
LINE
  8
1
 62
2
 10
233.2872675064996
 20
209.6408206540424
 30
0
 11
235.3497675064996
 21
209.6408206540424
 31
0
  0
LINE
  8
1
 62
2
 10
237.4122675064996
 20
206.8564456540424
 30
0
 11
237.9622675064996
 21
206.8564456540424
 31
0
  0
LINE
  8
1
 62
2
 10
237.9622675064996
 20
206.8564456540424
 30
0
 11
237.9622675064996
 21
207.4751956540424
 31
0
  0
LINE
  8
1
 62
2
 10
237.9622675064996
 20
207.4751956540424
 30
0
 11
237.4122675064996
 21
207.4751956540424
 31
0
  0
LINE
  8
1
 62
2
 10
237.4122675064996
 20
207.4751956540424
 30
0
 11
237.4122675064996
 21
206.8564456540424
 31
0
  0
LINE
  8
1
 62
2
 10
60.66611569839135
 20
-1.261960374147264
 30
0
 11
60.67500054864476
 21
-0.7669603741472639
 31
0
  0
LINE
  8
1
 62
2
 10
60.67500054864476
 20
-0.7669603741472639
 30
0
 11
60.52697668633481
 21
-0.3957103741472645
 31
0
  0
LINE
  8
1
 62
2
 10
60.52697668633481
 20
-0.3957103741472645
 30
0
 11
60.34579411146152
 21
-0.148210374147264
 31
0
  0
LINE
  8
1
 62
2
 10
60.34579411146152
 20
-0.148210374147264
 30
0
 11
60.04086153658822
 21
0.0992896258527356
 31
0
  0
LINE
  8
1
 62
2
 10
60.04086153658822
 20
0.0992896258527356
 30
0
 11
59.70277024915157
 21
0.2230396258527359
 31
0
  0
LINE
  8
1
 62
2
 10
59.70277024915157
 20
0.2230396258527359
 30
0
 11
58.96027024915157
 21
0.2230396258527359
 31
0
  0
LINE
  8
1
 62
2
 10
58.96027024915157
 20
0.2230396258527359
 30
0
 11
58.55586153658822
 21
0.0992896258527356
 31
0
  0
LINE
  8
1
 62
2
 10
58.55586153658822
 20
0.0992896258527356
 30
0
 11
58.11829411146152
 21
-0.148210374147264
 31
0
  0
LINE
  8
1
 62
2
 10
58.11829411146152
 20
-0.148210374147264
 30
0
 11
57.80447668633481
 21
-0.3957103741472645
 31
0
  0
LINE
  8
1
 62
2
 10
57.80447668633481
 20
-0.3957103741472645
 30
0
 11
57.45750054864476
 21
-0.7669603741472639
 31
0
  0
LINE
  8
1
 62
2
 10
57.45750054864476
 20
-0.7669603741472639
 30
0
 11
57.20111569839135
 21
-1.261960374147264
 31
0
  0
LINE
  8
1
 62
2
 10
57.20111569839135
 20
-1.261960374147264
 30
0
 11
56.67057629737773
 21
-3.241960374147264
 31
0
  0
LINE
  8
1
 62
2
 10
56.67057629737773
 20
-3.241960374147264
 30
0
 11
56.66169144712433
 21
-3.736960374147264
 31
0
  0
LINE
  8
1
 62
2
 10
56.66169144712433
 20
-3.736960374147264
 30
0
 11
56.80971530943427
 21
-4.108210374147264
 31
0
  0
LINE
  8
1
 62
2
 10
56.80971530943427
 20
-4.108210374147264
 30
0
 11
56.99089788430756
 21
-4.355710374147264
 31
0
  0
LINE
  8
1
 62
2
 10
56.99089788430756
 20
-4.355710374147264
 30
0
 11
57.29583045918086
 21
-4.603210374147263
 31
0
  0
LINE
  8
1
 62
2
 10
57.29583045918086
 20
-4.603210374147263
 30
0
 11
57.63392174661751
 21
-4.726960374147263
 31
0
  0
LINE
  8
1
 62
2
 10
57.63392174661751
 20
-4.726960374147263
 30
0
 11
58.37642174661751
 21
-4.726960374147263
 31
0
  0
LINE
  8
1
 62
2
 10
58.37642174661751
 20
-4.726960374147263
 30
0
 11
58.78083045918086
 21
-4.603210374147263
 31
0
  0
LINE
  8
1
 62
2
 10
58.78083045918086
 20
-4.603210374147263
 30
0
 11
59.21839788430756
 21
-4.355710374147264
 31
0
  0
LINE
  8
1
 62
2
 10
59.21839788430756
 20
-4.355710374147264
 30
0
 11
59.53221530943427
 21
-4.108210374147264
 31
0
  0
LINE
  8
1
 62
2
 10
59.53221530943427
 20
-4.108210374147264
 30
0
 11
59.87919144712432
 21
-3.736960374147264
 31
0
  0
LINE
  8
1
 62
2
 10
59.87919144712432
 20
-3.736960374147264
 30
0
 11
60.13557629737773
 21
-3.241960374147264
 31
0
  0
LINE
  8
1
 62
2
 10
60.13557629737773
 20
-3.241960374147264
 30
0
 11
60.40084599788454
 21
-2.251960374147264
 31
0
  0
LINE
  8
1
 62
2
 10
60.40084599788454
 20
-2.251960374147264
 30
0
 11
58.91584599788454
 21
-2.251960374147264
 31
0
  0
LINE
  8
1
 62
2
 10
62.35006797377146
 20
-0.5194603741472639
 30
0
 11
62.69704411146151
 21
-0.148210374147264
 31
0
  0
LINE
  8
1
 62
2
 10
62.69704411146151
 20
-0.148210374147264
 30
0
 11
63.13461153658821
 21
0.0992896258527356
 31
0
  0
LINE
  8
1
 62
2
 10
63.13461153658821
 20
0.0992896258527356
 30
0
 11
63.66277024915156
 21
0.2230396258527359
 31
0
  0
LINE
  8
1
 62
2
 10
63.66277024915156
 20
0.2230396258527359
 30
0
 11
64.40527024915157
 21
0.2230396258527359
 31
0
  0
LINE
  8
1
 62
2
 10
64.40527024915157
 20
0.2230396258527359
 30
0
 11
64.86711153658821
 21
0.0992896258527356
 31
0
  0
LINE
  8
1
 62
2
 10
64.86711153658821
 20
0.0992896258527356
 30
0
 11
65.1720441114615
 21
-0.148210374147264
 31
0
  0
LINE
  8
1
 62
2
 10
65.1720441114615
 20
-0.148210374147264
 30
0
 11
65.32006797377146
 21
-0.5194603741472639
 31
0
  0
LINE
  8
1
 62
2
 10
65.32006797377146
 20
-0.5194603741472639
 30
0
 11
65.18743312351805
 21
-1.014460374147264
 31
0
  0
LINE
  8
1
 62
2
 10
65.18743312351805
 20
-1.014460374147264
 30
0
 11
64.80729827326465
 21
-1.509460374147264
 31
0
  0
LINE
  8
1
 62
2
 10
64.80729827326465
 20
-1.509460374147264
 30
0
 11
61.22267174661751
 21
-4.726960374147263
 31
0
  0
LINE
  8
1
 62
2
 10
61.22267174661751
 20
-4.726960374147263
 30
0
 11
64.19267174661751
 21
-4.726960374147263
 31
0
  0
LINE
  8
1
 62
2
 10
71.70652024915157
 20
0.2230396258527359
 30
0
 11
70.94625054864476
 21
-0.7669603741472639
 31
0
  0
LINE
  8
1
 62
2
 10
70.94625054864476
 20
-0.7669603741472639
 30
0
 11
70.43348084813795
 21
-1.756960374147264
 31
0
  0
LINE
  8
1
 62
2
 10
70.43348084813795
 20
-1.756960374147264
 30
0
 11
70.16821114763114
 21
-2.746960374147264
 31
0
  0
LINE
  8
1
 62
2
 10
70.16821114763114
 20
-2.746960374147264
 30
0
 11
70.15044144712432
 21
-3.736960374147264
 31
0
  0
LINE
  8
1
 62
2
 10
70.15044144712432
 20
-3.736960374147264
 30
0
 11
70.38017174661752
 21
-4.726960374147263
 31
0
  0
LINE
  8
1
 62
2
 10
76.16152024915157
 20
0.2230396258527359
 30
0
 11
73.43902024915157
 21
0.2230396258527359
 31
0
  0
LINE
  8
1
 62
2
 10
73.43902024915157
 20
0.2230396258527359
 30
0
 11
72.77584599788453
 21
-2.251960374147264
 31
0
  0
LINE
  8
1
 62
2
 10
72.77584599788453
 20
-2.251960374147264
 30
0
 11
73.12282213557459
 21
-1.880710374147264
 31
0
  0
LINE
  8
1
 62
2
 10
73.12282213557459
 20
-1.880710374147264
 30
0
 11
73.5603895607013
 21
-1.633210374147264
 31
0
  0
LINE
  8
1
 62
2
 10
73.5603895607013
 20
-1.633210374147264
 30
0
 11
74.08854827326465
 21
-1.509460374147264
 31
0
  0
LINE
  8
1
 62
2
 10
74.08854827326465
 20
-1.509460374147264
 30
0
 11
74.83104827326464
 21
-1.509460374147264
 31
0
  0
LINE
  8
1
 62
2
 10
74.83104827326464
 20
-1.509460374147264
 30
0
 11
75.1691395607013
 21
-1.633210374147264
 31
0
  0
LINE
  8
1
 62
2
 10
75.1691395607013
 20
-1.633210374147264
 30
0
 11
75.47407213557459
 21
-1.880710374147264
 31
0
  0
LINE
  8
1
 62
2
 10
75.47407213557459
 20
-1.880710374147264
 30
0
 11
75.62209599788454
 21
-2.251960374147264
 31
0
  0
LINE
  8
1
 62
2
 10
75.62209599788454
 20
-2.251960374147264
 30
0
 11
75.61321114763113
 21
-2.746960374147264
 31
0
  0
LINE
  8
1
 62
2
 10
75.61321114763113
 20
-2.746960374147264
 30
0
 11
75.41425887225103
 21
-3.489460374147264
 31
0
  0
LINE
  8
1
 62
2
 10
75.41425887225103
 20
-3.489460374147264
 30
0
 11
75.15787402199761
 21
-3.984460374147264
 31
0
  0
LINE
  8
1
 62
2
 10
75.15787402199761
 20
-3.984460374147264
 30
0
 11
74.81089788430757
 21
-4.355710374147264
 31
0
  0
LINE
  8
1
 62
2
 10
74.81089788430757
 20
-4.355710374147264
 30
0
 11
74.37333045918086
 21
-4.603210374147263
 31
0
  0
LINE
  8
1
 62
2
 10
74.37333045918086
 20
-4.603210374147263
 30
0
 11
73.96892174661751
 21
-4.726960374147263
 31
0
  0
LINE
  8
1
 62
2
 10
73.96892174661751
 20
-4.726960374147263
 30
0
 11
73.2264217466175
 21
-4.726960374147263
 31
0
  0
LINE
  8
1
 62
2
 10
73.2264217466175
 20
-4.726960374147263
 30
0
 11
72.76458045918086
 21
-4.603210374147263
 31
0
  0
LINE
  8
1
 62
2
 10
72.76458045918086
 20
-4.603210374147263
 30
0
 11
72.45964788430756
 21
-4.355710374147264
 31
0
  0
LINE
  8
1
 62
2
 10
72.45964788430756
 20
-4.355710374147264
 30
0
 11
72.31162402199762
 21
-3.984460374147264
 31
0
  0
LINE
  8
1
 62
2
 10
80.33348084813794
 20
-1.756960374147264
 30
0
 11
80.07709599788453
 21
-2.251960374147264
 31
0
  0
LINE
  8
1
 62
2
 10
80.07709599788453
 20
-2.251960374147264
 30
0
 11
79.73011986019448
 21
-2.623210374147264
 31
0
  0
LINE
  8
1
 62
2
 10
79.73011986019448
 20
-2.623210374147264
 30
0
 11
79.29255243506778
 21
-2.870710374147264
 31
0
  0
LINE
  8
1
 62
2
 10
79.29255243506778
 20
-2.870710374147264
 30
0
 11
78.88814372250442
 21
-2.994460374147264
 31
0
  0
LINE
  8
1
 62
2
 10
78.88814372250442
 20
-2.994460374147264
 30
0
 11
78.14564372250443
 21
-2.994460374147264
 31
0
  0
LINE
  8
1
 62
2
 10
78.14564372250443
 20
-2.994460374147264
 30
0
 11
77.80755243506778
 21
-2.870710374147264
 31
0
  0
LINE
  8
1
 62
2
 10
77.80755243506778
 20
-2.870710374147264
 30
0
 11
77.50261986019449
 21
-2.623210374147264
 31
0
  0
LINE
  8
1
 62
2
 10
77.50261986019449
 20
-2.623210374147264
 30
0
 11
77.35459599788453
 21
-2.251960374147264
 31
0
  0
LINE
  8
1
 62
2
 10
77.35459599788453
 20
-2.251960374147264
 30
0
 11
77.36348084813794
 21
-1.756960374147264
 31
0
  0
LINE
  8
1
 62
2
 10
77.36348084813794
 20
-1.756960374147264
 30
0
 11
77.56243312351805
 21
-1.014460374147264
 31
0
  0
LINE
  8
1
 62
2
 10
77.56243312351805
 20
-1.014460374147264
 30
0
 11
77.81881797377146
 21
-0.5194603741472639
 31
0
  0
LINE
  8
1
 62
2
 10
77.81881797377146
 20
-0.5194603741472639
 30
0
 11
78.16579411146151
 21
-0.148210374147264
 31
0
  0
LINE
  8
1
 62
2
 10
78.16579411146151
 20
-0.148210374147264
 30
0
 11
78.60336153658821
 21
0.0992896258527356
 31
0
  0
LINE
  8
1
 62
2
 10
78.60336153658821
 20
0.0992896258527356
 30
0
 11
79.00777024915156
 21
0.2230396258527359
 31
0
  0
LINE
  8
1
 62
2
 10
79.00777024915156
 20
0.2230396258527359
 30
0
 11
79.75027024915157
 21
0.2230396258527359
 31
0
  0
LINE
  8
1
 62
2
 10
79.75027024915157
 20
0.2230396258527359
 30
0
 11
80.08836153658821
 21
0.0992896258527356
 31
0
  0
LINE
  8
1
 62
2
 10
80.08836153658821
 20
0.0992896258527356
 30
0
 11
80.39329411146152
 21
-0.148210374147264
 31
0
  0
LINE
  8
1
 62
2
 10
80.39329411146152
 20
-0.148210374147264
 30
0
 11
80.54131797377146
 21
-0.5194603741472639
 31
0
  0
LINE
  8
1
 62
2
 10
80.54131797377146
 20
-0.5194603741472639
 30
0
 11
80.53243312351805
 21
-1.014460374147264
 31
0
  0
LINE
  8
1
 62
2
 10
80.53243312351805
 20
-1.014460374147264
 30
0
 11
80.33348084813794
 21
-1.756960374147264
 31
0
  0
LINE
  8
1
 62
2
 10
79.86925887225102
 20
-3.489460374147264
 30
0
 11
79.61287402199761
 21
-3.984460374147264
 31
0
  0
LINE
  8
1
 62
2
 10
79.61287402199761
 20
-3.984460374147264
 30
0
 11
79.26589788430756
 21
-4.355710374147264
 31
0
  0
LINE
  8
1
 62
2
 10
79.26589788430756
 20
-4.355710374147264
 30
0
 11
78.82833045918086
 21
-4.603210374147263
 31
0
  0
LINE
  8
1
 62
2
 10
78.82833045918086
 20
-4.603210374147263
 30
0
 11
78.42392174661751
 21
-4.726960374147263
 31
0
  0
LINE
  8
1
 62
2
 10
78.42392174661751
 20
-4.726960374147263
 30
0
 11
77.6814217466175
 21
-4.726960374147263
 31
0
  0
LINE
  8
1
 62
2
 10
77.6814217466175
 20
-4.726960374147263
 30
0
 11
77.34333045918086
 21
-4.603210374147263
 31
0
  0
LINE
  8
1
 62
2
 10
77.34333045918086
 20
-4.603210374147263
 30
0
 11
77.03839788430756
 21
-4.355710374147264
 31
0
  0
LINE
  8
1
 62
2
 10
77.03839788430756
 20
-4.355710374147264
 30
0
 11
76.89037402199762
 21
-3.984460374147264
 31
0
  0
LINE
  8
1
 62
2
 10
80.33348084813794
 20
-1.756960374147264
 30
0
 11
79.86925887225102
 21
-3.489460374147264
 31
0
  0
LINE
  8
1
 62
2
 10
81.02267174661751
 20
-4.726960374147263
 30
0
 11
81.05583045918085
 21
-4.603210374147263
 31
0
  0
LINE
  8
1
 62
2
 10
81.05583045918085
 20
-4.603210374147263
 30
0
 11
81.17958045918086
 21
-4.603210374147263
 31
0
  0
LINE
  8
1
 62
2
 10
81.17958045918086
 20
-4.603210374147263
 30
0
 11
81.14642174661751
 21
-4.726960374147263
 31
0
  0
LINE
  8
1
 62
2
 10
81.14642174661751
 20
-4.726960374147263
 30
0
 11
81.02267174661751
 21
-4.726960374147263
 31
0
  0
LINE
  8
1
 62
2
 10
83.28571114763113
 20
-2.746960374147264
 30
0
 11
83.54209599788453
 21
-2.251960374147264
 31
0
  0
LINE
  8
1
 62
2
 10
83.54209599788453
 20
-2.251960374147264
 30
0
 11
83.88907213557459
 21
-1.880710374147264
 31
0
  0
LINE
  8
1
 62
2
 10
83.88907213557459
 20
-1.880710374147264
 30
0
 11
84.3266395607013
 21
-1.633210374147264
 31
0
  0
LINE
  8
1
 62
2
 10
84.3266395607013
 20
-1.633210374147264
 30
0
 11
84.73104827326465
 21
-1.509460374147264
 31
0
  0
LINE
  8
1
 62
2
 10
84.73104827326465
 20
-1.509460374147264
 30
0
 11
85.47354827326464
 21
-1.509460374147264
 31
0
  0
LINE
  8
1
 62
2
 10
85.47354827326464
 20
-1.509460374147264
 30
0
 11
85.8116395607013
 21
-1.633210374147264
 31
0
  0
LINE
  8
1
 62
2
 10
85.8116395607013
 20
-1.633210374147264
 30
0
 11
86.11657213557459
 21
-1.880710374147264
 31
0
  0
LINE
  8
1
 62
2
 10
86.11657213557459
 20
-1.880710374147264
 30
0
 11
86.26459599788453
 21
-2.251960374147264
 31
0
  0
LINE
  8
1
 62
2
 10
86.26459599788453
 20
-2.251960374147264
 30
0
 11
86.25571114763113
 21
-2.746960374147264
 31
0
  0
LINE
  8
1
 62
2
 10
86.25571114763113
 20
-2.746960374147264
 30
0
 11
86.05675887225102
 21
-3.489460374147264
 31
0
  0
LINE
  8
1
 62
2
 10
86.05675887225102
 20
-3.489460374147264
 30
0
 11
85.80037402199761
 21
-3.984460374147264
 31
0
  0
LINE
  8
1
 62
2
 10
85.80037402199761
 20
-3.984460374147264
 30
0
 11
85.45339788430756
 21
-4.355710374147264
 31
0
  0
LINE
  8
1
 62
2
 10
85.45339788430756
 20
-4.355710374147264
 30
0
 11
85.01583045918086
 21
-4.603210374147263
 31
0
  0
LINE
  8
1
 62
2
 10
85.01583045918086
 20
-4.603210374147263
 30
0
 11
84.61142174661751
 21
-4.726960374147263
 31
0
  0
LINE
  8
1
 62
2
 10
84.61142174661751
 20
-4.726960374147263
 30
0
 11
83.8689217466175
 21
-4.726960374147263
 31
0
  0
LINE
  8
1
 62
2
 10
83.8689217466175
 20
-4.726960374147263
 30
0
 11
83.53083045918086
 21
-4.603210374147263
 31
0
  0
LINE
  8
1
 62
2
 10
83.53083045918086
 20
-4.603210374147263
 30
0
 11
83.22589788430756
 21
-4.355710374147264
 31
0
  0
LINE
  8
1
 62
2
 10
83.22589788430756
 20
-4.355710374147264
 30
0
 11
83.07787402199762
 21
-3.984460374147264
 31
0
  0
LINE
  8
1
 62
2
 10
83.07787402199762
 20
-3.984460374147264
 30
0
 11
83.08675887225103
 21
-3.489460374147264
 31
0
  0
LINE
  8
1
 62
2
 10
83.08675887225103
 20
-3.489460374147264
 30
0
 11
83.28571114763113
 21
-2.746960374147264
 31
0
  0
LINE
  8
1
 62
2
 10
83.74993312351805
 20
-1.014460374147264
 30
0
 11
84.00631797377146
 21
-0.5194603741472639
 31
0
  0
LINE
  8
1
 62
2
 10
84.00631797377146
 20
-0.5194603741472639
 30
0
 11
84.35329411146151
 21
-0.148210374147264
 31
0
  0
LINE
  8
1
 62
2
 10
84.35329411146151
 20
-0.148210374147264
 30
0
 11
84.79086153658821
 21
0.0992896258527356
 31
0
  0
LINE
  8
1
 62
2
 10
84.79086153658821
 20
0.0992896258527356
 30
0
 11
85.19527024915156
 21
0.2230396258527359
 31
0
  0
LINE
  8
1
 62
2
 10
85.19527024915156
 20
0.2230396258527359
 30
0
 11
85.93777024915157
 21
0.2230396258527359
 31
0
  0
LINE
  8
1
 62
2
 10
85.93777024915157
 20
0.2230396258527359
 30
0
 11
86.27586153658821
 21
0.0992896258527356
 31
0
  0
LINE
  8
1
 62
2
 10
86.27586153658821
 20
0.0992896258527356
 30
0
 11
86.58079411146152
 21
-0.148210374147264
 31
0
  0
LINE
  8
1
 62
2
 10
86.58079411146152
 20
-0.148210374147264
 30
0
 11
86.72881797377146
 21
-0.5194603741472639
 31
0
  0
LINE
  8
1
 62
2
 10
83.28571114763113
 20
-2.746960374147264
 30
0
 11
83.74993312351805
 21
-1.014460374147264
 31
0
  0
LINE
  8
1
 62
2
 10
88.13861569839135
 20
-1.261960374147264
 30
0
 11
90.02152024915156
 21
0.2230396258527359
 31
0
  0
LINE
  8
1
 62
2
 10
90.02152024915156
 20
0.2230396258527359
 30
0
 11
88.6951717466175
 21
-4.726960374147263
 31
0
  0
LINE
  8
1
 62
2
 10
93.73402024915156
 20
0.2230396258527359
 30
0
 11
90.44544144712431
 21
-3.736960374147264
 31
0
  0
LINE
  8
1
 62
2
 10
90.44544144712431
 20
-3.736960374147264
 30
0
 11
93.41544144712431
 21
-3.736960374147264
 31
0
  0
LINE
  8
1
 62
2
 10
92.93821114763112
 20
-2.746960374147264
 30
0
 11
92.40767174661751
 21
-4.726960374147263
 31
0
  0
LINE
  8
1
 62
2
 10
96.00098473281386
 20
-1.169147874147264
 30
0
 11
95.13056852802589
 21
-4.417585374147263
 31
0
  0
LINE
  8
1
 62
2
 10
95.13056852802589
 20
-4.417585374147263
 30
0
 11
96.9180685280259
 21
-4.417585374147263
 31
0
  0
LINE
  8
1
 62
2
 10
98.70556852802589
 20
-4.417585374147263
 30
0
 11
99.57598473281387
 21
-1.169147874147264
 31
0
  0
LINE
  8
1
 62
2
 10
98.0786234677432
 20
-0.08633537414726433
 30
0
 11
96.9180685280259
 21
-4.417585374147263
 31
0
  0
LINE
  8
1
 62
2
 10
96.9180685280259
 20
-4.417585374147263
 30
0
 11
98.70556852802589
 21
-4.417585374147263
 31
0
  0
LINE
  8
1
 62
2
 10
100.5136156983914
 20
-1.261960374147264
 30
0
 11
102.3965202491516
 21
0.2230396258527359
 31
0
  0
LINE
  8
1
 62
2
 10
102.3965202491516
 20
0.2230396258527359
 30
0
 11
101.0701717466175
 21
-4.726960374147263
 31
0
  0
LINE
  8
1
 62
2
 10
103.4836156983914
 20
-1.261960374147264
 30
0
 11
105.3665202491516
 21
0.2230396258527359
 31
0
  0
LINE
  8
1
 62
2
 10
105.3665202491516
 20
0.2230396258527359
 30
0
 11
104.0401717466175
 21
-4.726960374147263
 31
0
  0
LINE
  8
1
 62
2
 10
106.8515202491516
 20
0.2230396258527359
 30
0
 11
107.0812505486448
 21
-0.7669603741472639
 31
0
  0
LINE
  8
1
 62
2
 10
107.0812505486448
 20
-0.7669603741472639
 30
0
 11
107.0634808481379
 21
-1.756960374147264
 31
0
  0
LINE
  8
1
 62
2
 10
107.0634808481379
 20
-1.756960374147264
 30
0
 11
106.7982111476311
 21
-2.746960374147264
 31
0
  0
LINE
  8
1
 62
2
 10
106.7982111476311
 20
-2.746960374147264
 30
0
 11
106.2854414471243
 21
-3.736960374147264
 31
0
  0
LINE
  8
1
 62
2
 10
106.2854414471243
 20
-3.736960374147264
 30
0
 11
105.5251717466175
 21
-4.726960374147263
 31
0
  0
LINE
  8
1
 62
2
 10
146.7583501151947
 20
-161.2465918459581
 30
0
 11
146.7583501151947
 21
-156.2965918459582
 31
0
  0
LINE
  8
1
 62
2
 10
146.7583501151947
 20
-156.2965918459582
 30
0
 11
150.2233501151947
 21
-161.2465918459581
 31
0
  0
LINE
  8
1
 62
2
 10
150.2233501151947
 20
-161.2465918459581
 30
0
 11
150.2233501151947
 21
-156.2965918459582
 31
0
  0
LINE
  8
1
 62
2
 10
152.6983501151946
 20
-158.7715918459581
 30
0
 11
151.7083501151946
 21
-159.7615918459581
 31
0
  0
LINE
  8
1
 62
2
 10
155.1733501151946
 20
-156.2965918459582
 30
0
 11
152.6983501151946
 21
-158.7715918459581
 31
0
  0
LINE
  8
1
 62
2
 10
152.6983501151946
 20
-158.7715918459581
 30
0
 11
155.1733501151946
 21
-161.2465918459581
 31
0
  0
LINE
  8
1
 62
2
 10
151.7083501151946
 20
-161.2465918459581
 30
0
 11
151.7083501151946
 21
-159.7615918459581
 31
0
  0
LINE
  8
1
 62
2
 10
151.7083501151946
 20
-159.7615918459581
 30
0
 11
151.7083501151946
 21
-156.2965918459582
 31
0
  0
LINE
  8
1
 62
2
 10
160.1233501151947
 20
-156.2965918459582
 30
0
 11
160.1233501151947
 21
-158.5240918459581
 31
0
  0
LINE
  8
1
 62
2
 10
156.6583501151947
 20
-158.5240918459581
 30
0
 11
160.1233501151947
 21
-158.5240918459581
 31
0
  0
LINE
  8
1
 62
2
 10
156.6583501151947
 20
-156.2965918459582
 30
0
 11
156.6583501151947
 21
-158.5240918459581
 31
0
  0
LINE
  8
1
 62
2
 10
156.6583501151947
 20
-158.7715918459581
 30
0
 11
156.6583501151947
 21
-161.2465918459581
 31
0
  0
LINE
  8
1
 62
2
 10
160.1233501151947
 20
-158.5240918459581
 30
0
 11
160.1233501151947
 21
-161.2465918459581
 31
0
  0
LINE
  8
1
 62
2
 10
156.6583501151947
 20
-158.5240918459581
 30
0
 11
156.6583501151947
 21
-158.7715918459581
 31
0
  0
LINE
  8
1
 62
2
 10
162.2271001151947
 20
-159.7615918459581
 30
0
 11
164.9496001151946
 21
-159.7615918459581
 31
0
  0
LINE
  8
1
 62
2
 10
161.6083501151946
 20
-161.2465918459581
 30
0
 11
163.5883501151946
 21
-156.2965918459582
 31
0
  0
LINE
  8
1
 62
2
 10
163.5883501151946
 20
-156.2965918459582
 30
0
 11
165.5683501151947
 21
-161.2465918459581
 31
0
  0
LINE
  8
1
 62
2
 10
167.3283501151946
 20
-161.0919043459581
 30
0
 11
169.3908501151946
 21
-161.0919043459581
 31
0
  0
LINE
  8
1
 62
2
 10
170.7658501151946
 20
-160.0090918459581
 30
0
 11
167.7408501151946
 21
-160.0090918459581
 31
0
  0
LINE
  8
1
 62
2
 10
167.3283501151946
 20
-159.3903418459582
 30
0
 11
167.7408501151946
 21
-158.7715918459581
 31
0
  0
LINE
  8
1
 62
2
 10
167.7408501151946
 20
-158.7715918459581
 30
0
 11
168.0158501151946
 21
-157.6887793459581
 31
0
  0
LINE
  8
1
 62
2
 10
168.0158501151946
 20
-157.6887793459581
 30
0
 11
168.0158501151946
 21
-156.6059668459581
 31
0
  0
LINE
  8
1
 62
2
 10
169.3908501151946
 20
-156.6059668459581
 30
0
 11
168.7033501151946
 21
-156.6059668459581
 31
0
  0
LINE
  8
1
 62
2
 10
167.1908501151946
 20
-157.6887793459581
 30
0
 11
169.5283501151946
 21
-157.6887793459581
 31
0
  0
LINE
  8
1
 62
2
 10
168.7033501151946
 20
-156.6059668459581
 30
0
 11
168.7033501151946
 21
-159.2356543459581
 31
0
  0
LINE
  8
1
 62
2
 10
170.0783501151946
 20
-158.6169043459582
 30
0
 11
170.0783501151946
 21
-156.6059668459581
 31
0
  0
LINE
  8
1
 62
2
 10
171.0408501151946
 20
-156.4512793459581
 30
0
 11
171.0408501151946
 21
-159.2356543459581
 31
0
  0
LINE
  8
1
 62
2
 10
171.0408501151946
 20
-159.2356543459581
 30
0
 11
170.6283501151946
 21
-159.2356543459581
 31
0
  0
LINE
  8
1
 62
2
 10
169.3908501151946
 20
-159.2356543459581
 30
0
 11
169.3908501151946
 21
-161.0919043459581
 31
0
  0
LINE
  8
1
 62
2
 10
169.3908501151946
 20
-161.0919043459581
 30
0
 11
171.3158501151946
 21
-161.0919043459581
 31
0
  0
LINE
  8
1
 62
2
 10
168.7033501151946
 20
-156.6059668459581
 30
0
 11
167.3283501151946
 21
-156.6059668459581
 31
0
  0
LINE
  8
1
 62
2
 10
174.2308501151946
 20
-156.2965918459582
 30
0
 11
172.0033501151947
 21
-160.2565918459581
 31
0
  0
LINE
  8
1
 62
2
 10
172.0033501151947
 20
-160.2565918459581
 30
0
 11
174.9733501151947
 21
-160.2565918459581
 31
0
  0
LINE
  8
1
 62
2
 10
174.2308501151946
 20
-159.2665918459582
 30
0
 11
174.2308501151946
 21
-161.2465918459581
 31
0
  0
LINE
  8
1
 62
2
 10
179.4283501151946
 20
-159.3903418459582
 30
0
 11
179.3046001151946
 21
-160.1328418459581
 31
0
  0
LINE
  8
1
 62
2
 10
179.3046001151946
 20
-160.1328418459581
 30
0
 11
179.0571001151946
 21
-160.6278418459581
 31
0
  0
LINE
  8
1
 62
2
 10
179.0571001151946
 20
-160.6278418459581
 30
0
 11
178.8096001151946
 21
-160.8753418459581
 31
0
  0
LINE
  8
1
 62
2
 10
178.8096001151946
 20
-160.8753418459581
 30
0
 11
178.4383501151946
 21
-161.1228418459581
 31
0
  0
LINE
  8
1
 62
2
 10
178.4383501151946
 20
-161.1228418459581
 30
0
 11
178.0671001151946
 21
-161.2465918459581
 31
0
  0
LINE
  8
1
 62
2
 10
178.0671001151946
 20
-161.2465918459581
 30
0
 11
177.8196001151947
 21
-161.2465918459581
 31
0
  0
LINE
  8
1
 62
2
 10
177.8196001151947
 20
-161.2465918459581
 30
0
 11
177.4483501151946
 21
-161.1228418459581
 31
0
  0
LINE
  8
1
 62
2
 10
177.4483501151946
 20
-161.1228418459581
 30
0
 11
177.0771001151946
 21
-160.8753418459581
 31
0
  0
LINE
  8
1
 62
2
 10
177.0771001151946
 20
-160.8753418459581
 30
0
 11
176.8296001151946
 21
-160.6278418459581
 31
0
  0
LINE
  8
1
 62
2
 10
176.8296001151946
 20
-160.6278418459581
 30
0
 11
176.5821001151946
 21
-160.1328418459581
 31
0
  0
LINE
  8
1
 62
2
 10
176.5821001151946
 20
-160.1328418459581
 30
0
 11
176.4583501151946
 21
-159.3903418459582
 31
0
  0
LINE
  8
1
 62
2
 10
176.4583501151946
 20
-159.3903418459582
 30
0
 11
176.4583501151946
 21
-158.1528418459581
 31
0
  0
LINE
  8
1
 62
2
 10
176.4583501151946
 20
-158.1528418459581
 30
0
 11
176.5821001151946
 21
-157.4103418459581
 31
0
  0
LINE
  8
1
 62
2
 10
176.5821001151946
 20
-157.4103418459581
 30
0
 11
176.8296001151946
 21
-156.9153418459581
 31
0
  0
LINE
  8
1
 62
2
 10
176.8296001151946
 20
-156.9153418459581
 30
0
 11
177.0771001151946
 21
-156.6678418459581
 31
0
  0
LINE
  8
1
 62
2
 10
177.0771001151946
 20
-156.6678418459581
 30
0
 11
177.4483501151946
 21
-156.4203418459582
 31
0
  0
LINE
  8
1
 62
2
 10
177.4483501151946
 20
-156.4203418459582
 30
0
 11
177.8196001151947
 21
-156.2965918459582
 31
0
  0
LINE
  8
1
 62
2
 10
177.8196001151947
 20
-156.2965918459582
 30
0
 11
178.0671001151946
 21
-156.2965918459582
 31
0
  0
LINE
  8
1
 62
2
 10
178.0671001151946
 20
-156.2965918459582
 30
0
 11
178.4383501151946
 21
-156.4203418459582
 31
0
  0
LINE
  8
1
 62
2
 10
178.4383501151946
 20
-156.4203418459582
 30
0
 11
178.8096001151946
 21
-156.6678418459581
 31
0
  0
LINE
  8
1
 62
2
 10
178.8096001151946
 20
-156.6678418459581
 30
0
 11
179.0571001151946
 21
-156.9153418459581
 31
0
  0
LINE
  8
1
 62
2
 10
179.0571001151946
 20
-156.9153418459581
 30
0
 11
179.3046001151946
 21
-157.4103418459581
 31
0
  0
LINE
  8
1
 62
2
 10
179.3046001151946
 20
-157.4103418459581
 30
0
 11
179.4283501151946
 21
-158.1528418459581
 31
0
  0
LINE
  8
1
 62
2
 10
179.4283501151946
 20
-158.1528418459581
 30
0
 11
179.4283501151946
 21
-159.3903418459582
 31
0
  0
LINE
  8
1
 62
2
 10
180.9133501151947
 20
-161.2465918459581
 30
0
 11
180.9133501151947
 21
-157.7815918459581
 31
0
  0
LINE
  8
1
 62
2
 10
180.9133501151947
 20
-157.7815918459581
 30
0
 11
182.6458501151946
 21
-157.7815918459581
 31
0
  0
LINE
  8
1
 62
2
 10
183.6358501151946
 20
-157.7815918459581
 30
0
 11
184.0071001151947
 21
-157.9053418459581
 31
0
  0
LINE
  8
1
 62
2
 10
184.0071001151947
 20
-157.9053418459581
 30
0
 11
184.2546001151947
 21
-158.1528418459581
 31
0
  0
LINE
  8
1
 62
2
 10
184.2546001151947
 20
-158.1528418459581
 30
0
 11
184.3783501151947
 21
-158.4003418459581
 31
0
  0
LINE
  8
1
 62
2
 10
184.3783501151947
 20
-158.4003418459581
 30
0
 11
184.3783501151947
 21
-161.2465918459581
 31
0
  0
LINE
  8
1
 62
2
 10
182.6458501151946
 20
-157.7815918459581
 30
0
 11
182.6458501151946
 21
-161.2465918459581
 31
0
  0
LINE
  8
1
 62
2
 10
182.6458501151946
 20
-157.7815918459581
 30
0
 11
183.6358501151946
 21
-157.7815918459581
 31
0
  0
LINE
  8
1
 62
2
 10
185.8633501151946
 20
-161.2465918459581
 30
0
 11
185.8633501151946
 21
-157.7815918459581
 31
0
  0
LINE
  8
1
 62
2
 10
185.8633501151946
 20
-157.7815918459581
 30
0
 11
187.5958501151946
 21
-157.7815918459581
 31
0
  0
LINE
  8
1
 62
2
 10
188.5858501151946
 20
-157.7815918459581
 30
0
 11
188.9571001151946
 21
-157.9053418459581
 31
0
  0
LINE
  8
1
 62
2
 10
188.9571001151946
 20
-157.9053418459581
 30
0
 11
189.2046001151946
 21
-158.1528418459581
 31
0
  0
LINE
  8
1
 62
2
 10
189.2046001151946
 20
-158.1528418459581
 30
0
 11
189.3283501151946
 21
-158.4003418459581
 31
0
  0
LINE
  8
1
 62
2
 10
189.3283501151946
 20
-158.4003418459581
 30
0
 11
189.3283501151946
 21
-161.2465918459581
 31
0
  0
LINE
  8
1
 62
2
 10
187.5958501151946
 20
-157.7815918459581
 30
0
 11
187.5958501151946
 21
-161.2465918459581
 31
0
  0
LINE
  8
1
 62
2
 10
187.5958501151946
 20
-157.7815918459581
 30
0
 11
188.5858501151946
 21
-157.7815918459581
 31
0
  0
LINE
  8
1
 62
2
 10
190.9508501151946
 20
-161.0919043459581
 30
0
 11
191.6383501151946
 21
-159.2356543459581
 31
0
  0
LINE
  8
1
 62
2
 10
191.3633501151947
 20
-158.6169043459582
 30
0
 11
190.8133501151947
 21
-158.1528418459581
 31
0
  0
LINE
  8
1
 62
2
 10
191.6383501151946
 20
-157.2247168459581
 30
0
 11
191.0883501151947
 21
-156.7606543459581
 31
0
  0
LINE
  8
1
 62
2
 10
192.6008501151947
 20
-156.7606543459581
 30
0
 11
192.6008501151947
 21
-157.6887793459581
 31
0
  0
LINE
  8
1
 62
2
 10
192.6008501151947
 20
-158.6169043459582
 30
0
 11
194.2508501151947
 21
-158.6169043459582
 31
0
  0
LINE
  8
1
 62
2
 10
194.2508501151947
 20
-158.6169043459582
 30
0
 11
194.2508501151947
 21
-157.6887793459581
 31
0
  0
LINE
  8
1
 62
2
 10
194.2508501151947
 20
-156.7606543459581
 30
0
 11
192.6008501151947
 21
-156.7606543459581
 31
0
  0
LINE
  8
1
 62
2
 10
192.6008501151947
 20
-157.6887793459581
 30
0
 11
194.2508501151947
 21
-157.6887793459581
 31
0
  0
LINE
  8
1
 62
2
 10
192.4633501151947
 20
-161.0919043459581
 30
0
 11
192.4633501151947
 21
-159.3903418459582
 31
0
  0
LINE
  8
1
 62
2
 10
192.4633501151947
 20
-159.3903418459582
 30
0
 11
193.1508501151947
 21
-159.3903418459582
 31
0
  0
LINE
  8
1
 62
2
 10
194.5258501151947
 20
-159.3903418459582
 30
0
 11
194.5258501151947
 21
-161.0919043459581
 31
0
  0
LINE
  8
1
 62
2
 10
193.8383501151947
 20
-161.0919043459581
 30
0
 11
193.8383501151947
 21
-159.3903418459582
 31
0
  0
LINE
  8
1
 62
2
 10
193.1508501151947
 20
-159.3903418459582
 30
0
 11
193.1508501151947
 21
-161.0919043459581
 31
0
  0
LINE
  8
1
 62
2
 10
191.7758501151947
 20
-161.0919043459581
 30
0
 11
192.4633501151947
 21
-161.0919043459581
 31
0
  0
LINE
  8
1
 62
2
 10
193.1508501151947
 20
-161.0919043459581
 30
0
 11
195.2133501151947
 21
-161.0919043459581
 31
0
  0
LINE
  8
1
 62
2
 10
193.1508501151947
 20
-159.3903418459582
 30
0
 11
194.5258501151947
 21
-159.3903418459582
 31
0
  0
LINE
  8
1
 62
2
 10
192.4633501151947
 20
-161.0919043459581
 30
0
 11
193.1508501151947
 21
-161.0919043459581
 31
0
  0
LINE
  8
1
 62
2
 10
194.2508501151947
 20
-157.6887793459581
 30
0
 11
194.2508501151947
 21
-156.7606543459581
 31
0
  0
LINE
  8
1
 62
2
 10
192.6008501151947
 20
-157.6887793459581
 30
0
 11
192.6008501151947
 21
-158.6169043459582
 31
0
  0
LINE
  8
1
 62
2
 10
196.0383501151947
 20
-160.4731543459581
 30
0
 11
196.5883501151946
 21
-159.8544043459581
 31
0
  0
LINE
  8
1
 62
2
 10
196.5883501151946
 20
-159.8544043459581
 30
0
 11
197.1383501151946
 21
-158.9262793459581
 31
0
  0
LINE
  8
1
 62
2
 10
197.1383501151946
 20
-158.9262793459581
 30
0
 11
197.4133501151947
 21
-157.9981543459581
 31
0
  0
LINE
  8
1
 62
2
 10
197.4133501151947
 20
-157.9981543459581
 30
0
 11
196.0383501151947
 21
-157.9981543459581
 31
0
  0
LINE
  8
1
 62
2
 10
198.1008501151947
 20
-156.4512793459581
 30
0
 11
198.1008501151947
 21
-161.2465918459581
 31
0
  0
LINE
  8
1
 62
2
 10
198.1008501151947
 20
-161.2465918459581
 30
0
 11
197.6883501151947
 21
-161.0919043459581
 31
0
  0
LINE
  8
1
 62
2
 10
199.7508501151947
 20
-157.5340918459581
 30
0
 11
198.7883501151947
 21
-158.3075293459581
 31
0
  0
LINE
  8
1
 62
2
 10
198.5133501151946
 20
-157.6887793459581
 30
0
 11
198.9258501151946
 21
-158.7715918459581
 31
0
  0
LINE
  8
1
 62
2
 10
198.9258501151946
 20
-158.7715918459581
 30
0
 11
199.4758501151947
 21
-159.6997168459581
 31
0
  0
LINE
  8
1
 62
2
 10
199.4758501151947
 20
-159.6997168459581
 30
0
 11
200.1633501151947
 21
-160.4731543459581
 31
0
  0
LINE
  8
1
 62
2
 10
201.5383501151947
 20
-160.6278418459581
 30
0
 11
202.5008501151947
 21
-159.8544043459581
 31
0
  0
LINE
  8
1
 62
2
 10
202.5008501151947
 20
-159.8544043459581
 30
0
 11
203.6008501151947
 21
-158.4622168459581
 31
0
  0
LINE
  8
1
 62
2
 10
203.6008501151947
 20
-158.4622168459581
 30
0
 11
204.2883501151947
 21
-157.0700293459582
 31
0
  0
LINE
  8
1
 62
2
 10
202.6383501151947
 20
-157.9981543459581
 30
0
 11
203.3258501151947
 21
-158.7715918459581
 31
0
  0
LINE
  8
1
 62
2
 10
203.3258501151947
 20
-158.7715918459581
 30
0
 11
204.0133501151947
 21
-159.8544043459581
 31
0
  0
LINE
  8
1
 62
2
 10
206.3508501151947
 20
-158.6169043459582
 30
0
 11
206.6258501151947
 21
-158.7715918459581
 31
0
  0
LINE
  8
1
 62
2
 10
206.6258501151947
 20
-158.7715918459581
 30
0
 11
209.1008501151947
 21
-158.7715918459581
 31
0
  0
LINE
  8
1
 62
2
 10
209.1008501151947
 20
-158.7715918459581
 30
0
 11
209.3758501151947
 21
-158.9262793459581
 31
0
  0
LINE
  8
1
 62
2
 10
211.4383501151947
 20
-160.6278418459581
 30
0
 11
212.6758501151947
 21
-159.6997168459581
 31
0
  0
LINE
  8
1
 62
2
 10
212.6758501151947
 20
-159.6997168459581
 30
0
 11
213.7758501151947
 21
-158.4622168459581
 31
0
  0
LINE
  8
1
 62
2
 10
213.7758501151947
 20
-158.4622168459581
 30
0
 11
214.3258501151947
 21
-157.3794043459581
 31
0
  0
LINE
  8
1
 62
2
 10
214.3258501151947
 20
-157.3794043459581
 30
0
 11
212.5383501151947
 21
-157.3794043459581
 31
0
  0
LINE
  8
1
 62
2
 10
212.9508501151947
 20
-156.7606543459581
 30
0
 11
212.2633501151947
 21
-157.6887793459581
 31
0
  0
LINE
  8
1
 62
2
 10
212.2633501151947
 20
-157.6887793459581
 30
0
 11
211.5758501151947
 21
-158.4622168459581
 31
0
  0
LINE
  8
1
 62
2
 10
212.6758501151947
 20
-158.3075293459581
 30
0
 11
213.7758501151947
 21
-159.5450293459581
 31
0
  0
LINE
  8
1
 62
2
 10
216.2508501151947
 20
-158.6169043459582
 30
0
 11
216.5258501151947
 21
-158.7715918459581
 31
0
  0
LINE
  8
1
 62
2
 10
216.5258501151947
 20
-158.7715918459581
 30
0
 11
219.0008501151947
 21
-158.7715918459581
 31
0
  0
LINE
  8
1
 62
2
 10
219.0008501151947
 20
-158.7715918459581
 30
0
 11
219.2758501151947
 21
-158.9262793459581
 31
0
  0
LINE
  8
1
 62
2
 10
69.35100697987377
 20
-111.7235763935022
 30
0
 11
70.86350697987376
 21
-111.1048263935022
 31
0
  0
LINE
  8
1
 62
2
 10
70.58850697987377
 20
-110.9501388935022
 30
0
 11
70.72600697987377
 21
-110.1767013935022
 31
0
  0
LINE
  8
1
 62
2
 10
70.86350697987376
 20
-109.7126388935022
 30
0
 11
69.48850697987376
 21
-109.7126388935022
 31
0
  0
LINE
  8
1
 62
2
 10
69.62600697987377
 20
-108.9392013935022
 30
0
 11
70.17600697987376
 21
-108.9392013935022
 31
0
  0
LINE
  8
1
 62
2
 10
71.00100697987377
 20
-108.1657638935022
 30
0
 11
70.17600697987376
 21
-107.2376388935022
 31
0
  0
LINE
  8
1
 62
2
 10
70.17600697987376
 20
-107.2376388935022
 30
0
 11
69.62600697987377
 21
-108.3204513935022
 31
0
  0
LINE
  8
1
 62
2
 10
69.62600697987377
 20
-108.3204513935022
 30
0
 11
69.07600697987377
 21
-109.4032638935022
 31
0
  0
LINE
  8
1
 62
2
 10
69.48850697987376
 20
-110.1767013935022
 30
0
 11
69.76350697987377
 21
-110.9501388935022
 31
0
  0
LINE
  8
1
 62
2
 10
70.17600697987376
 20
-111.4142013935022
 30
0
 11
70.17600697987376
 21
-108.9392013935022
 31
0
  0
LINE
  8
1
 62
2
 10
71.00100697987377
 20
-109.0938888935022
 30
0
 11
73.47600697987377
 21
-109.0938888935022
 31
0
  0
LINE
  8
1
 62
2
 10
73.47600697987377
 20
-110.0220138935022
 30
0
 11
71.13850697987377
 21
-110.0220138935022
 31
0
  0
LINE
  8
1
 62
2
 10
71.00100697987377
 20
-111.5688888935022
 30
0
 11
71.55100697987376
 21
-110.6407638935022
 31
0
  0
LINE
  8
1
 62
2
 10
71.55100697987376
 20
-110.6407638935022
 30
0
 11
71.96350697987377
 21
-109.0938888935022
 31
0
  0
LINE
  8
1
 62
2
 10
71.96350697987377
 20
-109.0938888935022
 30
0
 11
72.10100697987377
 21
-107.2376388935022
 31
0
  0
LINE
  8
1
 62
2
 10
71.13850697987377
 20
-107.7017013935022
 30
0
 11
73.20100697987377
 21
-107.7017013935022
 31
0
  0
LINE
  8
1
 62
2
 10
73.20100697987377
 20
-108.4751388935022
 30
0
 11
71.27600697987377
 21
-108.4751388935022
 31
0
  0
LINE
  8
1
 62
2
 10
72.92600697987376
 20
-109.4032638935022
 30
0
 11
72.92600697987376
 21
-111.8782638935022
 31
0
  0
LINE
  8
1
 62
2
 10
72.92600697987376
 20
-111.8782638935022
 30
0
 11
72.37600697987377
 21
-111.8782638935022
 31
0
  0
LINE
  8
1
 62
2
 10
72.37600697987377
 20
-111.2595138935022
 30
0
 11
72.10100697987377
 21
-110.4860763935022
 31
0
  0
LINE
  8
1
 62
2
 10
70.17600697987376
 20
-108.9392013935022
 30
0
 11
70.86350697987376
 21
-108.9392013935022
 31
0
  0
LINE
  8
1
 62
2
 10
74.30100697987378
 20
-111.4142013935022
 30
0
 11
74.98850697987378
 21
-110.7954513935022
 31
0
  0
LINE
  8
1
 62
2
 10
74.98850697987378
 20
-110.7954513935022
 30
0
 11
74.98850697987378
 21
-109.0938888935022
 31
0
  0
LINE
  8
1
 62
2
 10
74.98850697987378
 20
-109.0938888935022
 30
0
 11
74.30100697987378
 21
-109.0938888935022
 31
0
  0
LINE
  8
1
 62
2
 10
74.98850697987378
 20
-110.7954513935022
 30
0
 11
75.26350697987377
 21
-111.4142013935022
 31
0
  0
LINE
  8
1
 62
2
 10
75.26350697987377
 20
-111.4142013935022
 30
0
 11
75.53850697987377
 21
-111.5688888935022
 31
0
  0
LINE
  8
1
 62
2
 10
75.53850697987377
 20
-111.5688888935022
 30
0
 11
78.28850697987377
 21
-111.5688888935022
 31
0
  0
LINE
  8
1
 62
2
 10
77.60100697987377
 20
-110.7954513935022
 30
0
 11
77.60100697987377
 21
-109.5579513935022
 31
0
  0
LINE
  8
1
 62
2
 10
77.60100697987377
 20
-109.5579513935022
 30
0
 11
76.08850697987377
 21
-109.5579513935022
 31
0
  0
LINE
  8
1
 62
2
 10
76.08850697987377
 20
-109.5579513935022
 30
0
 11
76.08850697987377
 21
-110.7954513935022
 31
0
  0
LINE
  8
1
 62
2
 10
76.08850697987377
 20
-110.7954513935022
 30
0
 11
77.60100697987377
 21
-110.7954513935022
 31
0
  0
LINE
  8
1
 62
2
 10
78.15100697987377
 20
-108.9392013935022
 30
0
 11
76.77600697987377
 21
-108.9392013935022
 31
0
  0
LINE
  8
1
 62
2
 10
76.77600697987377
 20
-108.9392013935022
 30
0
 11
76.77600697987377
 21
-106.9282638935022
 31
0
  0
LINE
  8
1
 62
2
 10
77.87600697987377
 20
-107.8563888935022
 30
0
 11
75.81350697987377
 21
-107.8563888935022
 31
0
  0
LINE
  8
1
 62
2
 10
76.08850697987377
 20
-107.0829513935022
 30
0
 11
75.81350697987377
 21
-107.8563888935022
 31
0
  0
LINE
  8
1
 62
2
 10
75.81350697987377
 20
-107.8563888935022
 30
0
 11
75.53850697987377
 21
-108.3204513935022
 31
0
  0
LINE
  8
1
 62
2
 10
74.98850697987378
 20
-107.7017013935022
 30
0
 11
74.57600697987377
 21
-107.0829513935022
 31
0
  0
LINE
  8
1
 62
2
 10
74.30100697987378
 20
-111.4142013935022
 30
0
 11
74.16350697987377
 21
-111.5688888935022
 31
0
  0
LINE
  8
1
 62
2
 10
74.30100697987378
 20
-109.0938888935022
 30
0
 11
74.16350697987377
 21
-109.0938888935022
 31
0
  0
LINE
  8
1
 62
2
 10
76.77600697987377
 20
-108.9392013935022
 30
0
 11
75.53850697987377
 21
-108.9392013935022
 31
0
  0
LINE
  8
1
 62
2
 10
80.35100697987377
 20
-106.9282638935022
 30
0
 11
80.07600697987377
 21
-107.3923263935022
 31
0
  0
LINE
  8
1
 62
2
 10
80.07600697987377
 20
-107.3923263935022
 30
0
 11
79.66350697987377
 21
-108.0110763935022
 31
0
  0
LINE
  8
1
 62
2
 10
79.66350697987377
 20
-108.0110763935022
 30
0
 11
79.25100697987378
 21
-108.4751388935022
 31
0
  0
LINE
  8
1
 62
2
 10
79.93850697987378
 20
-107.7017013935022
 30
0
 11
81.17600697987378
 21
-107.7017013935022
 31
0
  0
LINE
  8
1
 62
2
 10
81.17600697987378
 20
-107.7017013935022
 30
0
 11
81.17600697987378
 21
-111.8782638935022
 31
0
  0
LINE
  8
1
 62
2
 10
79.80100697987378
 20
-108.9392013935022
 30
0
 11
82.55100697987378
 21
-108.9392013935022
 31
0
  0
LINE
  8
1
 62
2
 10
79.80100697987378
 20
-109.0938888935022
 30
0
 11
79.80100697987378
 21
-110.1767013935022
 31
0
  0
LINE
  8
1
 62
2
 10
78.97600697987377
 20
-110.1767013935022
 30
0
 11
79.80100697987378
 21
-110.1767013935022
 31
0
  0
LINE
  8
1
 62
2
 10
79.80100697987378
 20
-110.1767013935022
 30
0
 11
83.37600697987378
 21
-110.1767013935022
 31
0
  0
LINE
  8
1
 62
2
 10
81.17600697987378
 20
-107.7017013935022
 30
0
 11
82.68850697987378
 21
-107.7017013935022
 31
0
  0
LINE
  8
1
 62
2
 10
109.9620990783728
 20
-123.8297478624452
 30
0
 11
106.9920990783728
 21
-123.8297478624452
 31
0
  0
LINE
  8
1
 62
2
 10
110.4570990783728
 20
-121.6022478624452
 30
0
 11
106.9920990783728
 21
-121.6022478624452
 31
0
  0
LINE
  8
1
 62
2
 10
106.9920990783728
 20
-121.6022478624452
 30
0
 11
106.9920990783728
 21
-123.8297478624452
 31
0
  0
LINE
  8
1
 62
2
 10
106.9920990783728
 20
-124.0772478624452
 30
0
 11
106.9920990783728
 21
-126.5522478624452
 31
0
  0
LINE
  8
1
 62
2
 10
106.9920990783728
 20
-126.5522478624452
 30
0
 11
110.4570990783728
 21
-126.5522478624452
 31
0
  0
LINE
  8
1
 62
2
 10
106.9920990783728
 20
-123.8297478624452
 30
0
 11
106.9920990783728
 21
-124.0772478624452
 31
0
  0
LINE
  8
1
 62
2
 10
102.2510189397078
 20
-118.6390815184781
 30
0
 11
102.2510189397078
 21
-113.6890815184781
 31
0
  0
LINE
  8
1
 62
2
 10
102.9385189397078
 20
-115.0812690184781
 30
0
 11
101.4260189397078
 21
-115.0812690184781
 31
0
  0
LINE
  8
1
 62
2
 10
101.2885189397078
 20
-117.0922065184781
 30
0
 11
101.8385189397078
 21
-116.1640815184781
 31
0
  0
LINE
  8
1
 62
2
 10
101.8385189397078
 20
-116.1640815184781
 30
0
 11
102.2510189397078
 21
-115.2359565184781
 31
0
  0
LINE
  8
1
 62
2
 10
102.2510189397078
 20
-115.2359565184781
 30
0
 11
102.9385189397078
 21
-116.3187690184781
 31
0
  0
LINE
  8
1
 62
2
 10
103.0760189397078
 20
-117.7109565184781
 30
0
 11
103.9010189397078
 21
-116.7828315184781
 31
0
  0
LINE
  8
1
 62
2
 10
103.9010189397078
 20
-116.7828315184781
 30
0
 11
104.5885189397078
 21
-115.3906440184781
 31
0
  0
LINE
  8
1
 62
2
 10
105.4135189397078
 20
-115.2359565184781
 30
0
 11
103.3510189397078
 21
-115.2359565184781
 31
0
  0
LINE
  8
1
 62
2
 10
104.5885189397078
 20
-113.8437690184781
 30
0
 11
104.7260189397078
 21
-118.3297065184781
 31
0
  0
LINE
  8
1
 62
2
 10
104.7260189397078
 20
-118.3297065184781
 30
0
 11
104.3135189397078
 21
-118.3297065184781
 31
0
  0
LINE
  8
1
 62
2
 10
106.2385189397078
 20
-117.7109565184781
 30
0
 11
106.6510189397078
 21
-116.9375190184781
 31
0
  0
LINE
  8
1
 62
2
 10
106.6510189397078
 20
-116.9375190184781
 30
0
 11
107.2010189397078
 21
-115.5453315184781
 31
0
  0
LINE
  8
1
 62
2
 10
108.1635189397078
 20
-115.5453315184781
 30
0
 11
106.2385189397078
 21
-115.5453315184781
 31
0
  0
LINE
  8
1
 62
2
 10
106.3760189397078
 20
-114.3078315184781
 30
0
 11
106.7885189397078
 21
-114.9265815184781
 31
0
  0
LINE
  8
1
 62
2
 10
107.6135189397078
 20
-114.7718940184781
 30
0
 11
107.8885189397078
 21
-114.1531440184781
 31
0
  0
LINE
  8
1
 62
2
 10
107.2010189397078
 20
-113.8437690184781
 30
0
 11
107.2010189397078
 21
-115.5453315184781
 31
0
  0
LINE
  8
1
 62
2
 10
107.6135189397078
 20
-116.1640815184781
 30
0
 11
107.8885189397078
 21
-116.7828315184781
 31
0
  0
LINE
  8
1
 62
2
 10
108.1635189397078
 20
-116.9375190184781
 30
0
 11
110.5010189397078
 21
-116.4734565184781
 31
0
  0
LINE
  8
1
 62
2
 10
108.9885189397078
 20
-115.8547065184781
 30
0
 11
108.5760189397078
 21
-115.2359565184781
 31
0
  0
LINE
  8
1
 62
2
 10
108.9885189397078
 20
-114.6172065184781
 30
0
 11
108.5760189397078
 21
-113.9984565184781
 31
0
  0
LINE
  8
1
 62
2
 10
109.6760189397078
 20
-113.6890815184781
 30
0
 11
109.6760189397078
 21
-118.6390815184781
 31
0
  0
LINE
  8
1
 62
2
 10
107.2010189397078
 20
-115.5453315184781
 30
0
 11
107.2010189397078
 21
-118.4843940184781
 31
0
  0
LINE
  8
1
 62
2
 10
111.3260189397078
 20
-118.3297065184781
 30
0
 11
111.3260189397078
 21
-117.0922065184781
 31
0
  0
LINE
  8
1
 62
2
 10
111.3260189397078
 20
-117.0922065184781
 30
0
 11
112.4260189397078
 21
-117.0922065184781
 31
0
  0
LINE
  8
1
 62
2
 10
112.4260189397078
 20
-117.0922065184781
 30
0
 11
112.4260189397078
 21
-118.3297065184781
 31
0
  0
LINE
  8
1
 62
2
 10
112.4260189397078
 20
-118.3297065184781
 30
0
 11
111.3260189397078
 21
-118.3297065184781
 31
0
  0
LINE
  8
1
 62
2
 10
111.3260189397078
 20
-116.4734565184781
 30
0
 11
112.4260189397078
 21
-116.4734565184781
 31
0
  0
LINE
  8
1
 62
2
 10
112.4260189397078
 20
-115.7000190184781
 30
0
 11
111.3260189397078
 21
-115.7000190184781
 31
0
  0
LINE
  8
1
 62
2
 10
111.0510189397078
 20
-115.0812690184781
 30
0
 11
112.8385189397078
 21
-115.0812690184781
 31
0
  0
LINE
  8
1
 62
2
 10
111.1885189397078
 20
-114.3078315184781
 30
0
 11
112.4260189397078
 21
-114.3078315184781
 31
0
  0
LINE
  8
1
 62
2
 10
113.2510189397078
 20
-114.4625190184781
 30
0
 11
114.7635189397078
 21
-114.4625190184781
 31
0
  0
LINE
  8
1
 62
2
 10
114.7635189397078
 20
-114.4625190184781
 30
0
 11
114.7635189397078
 21
-116.0093940184781
 31
0
  0
LINE
  8
1
 62
2
 10
114.7635189397078
 20
-116.0093940184781
 30
0
 11
113.2510189397078
 21
-116.0093940184781
 31
0
  0
LINE
  8
1
 62
2
 10
113.2510189397078
 20
-116.0093940184781
 30
0
 11
113.2510189397078
 21
-118.3297065184781
 31
0
  0
LINE
  8
1
 62
2
 10
113.2510189397078
 20
-118.3297065184781
 30
0
 11
113.8010189397078
 21
-118.3297065184781
 31
0
  0
LINE
  8
1
 62
2
 10
113.8010189397078
 20
-118.3297065184781
 30
0
 11
115.1760189397078
 21
-118.3297065184781
 31
0
  0
LINE
  8
1
 62
2
 10
115.1760189397078
 20
-118.3297065184781
 30
0
 11
115.1760189397078
 21
-117.8656440184781
 31
0
  0
LINE
  8
1
 62
2
 10
117.1010189397078
 20
-113.9984565184781
 30
0
 11
117.1010189397078
 21
-115.0812690184781
 31
0
  0
LINE
  8
1
 62
2
 10
117.1010189397078
 20
-115.0812690184781
 30
0
 11
119.3010189397078
 21
-115.0812690184781
 31
0
  0
LINE
  8
1
 62
2
 10
119.3010189397078
 20
-115.0812690184781
 30
0
 11
119.3010189397078
 21
-113.9984565184781
 31
0
  0
LINE
  8
1
 62
2
 10
119.3010189397078
 20
-113.9984565184781
 30
0
 11
117.1010189397078
 21
-113.9984565184781
 31
0
  0
LINE
  8
1
 62
2
 10
116.1385189397078
 20
-115.8547065184781
 30
0
 11
117.6510189397078
 21
-115.8547065184781
 31
0
  0
LINE
  8
1
 62
2
 10
117.6510189397078
 20
-115.8547065184781
 30
0
 11
117.2385189397078
 21
-117.4015815184781
 31
0
  0
LINE
  8
1
 62
2
 10
117.3760189397078
 20
-116.7828315184781
 30
0
 11
119.3010189397078
 21
-116.7828315184781
 31
0
  0
LINE
  8
1
 62
2
 10
119.3010189397078
 20
-116.7828315184781
 30
0
 11
119.0260189397078
 21
-117.7109565184781
 31
0
  0
LINE
  8
1
 62
2
 10
119.0260189397078
 20
-117.7109565184781
 30
0
 11
118.6135189397078
 21
-118.4843940184781
 31
0
  0
LINE
  8
1
 62
2
 10
118.6135189397078
 20
-118.4843940184781
 30
0
 11
118.3385189397078
 21
-118.6390815184781
 31
0
  0
LINE
  8
1
 62
2
 10
118.3385189397078
 20
-118.6390815184781
 30
0
 11
117.7885189397078
 21
-118.3297065184781
 31
0
  0
LINE
  8
1
 62
2
 10
117.6510189397078
 20
-115.8547065184781
 30
0
 11
120.1260189397078
 21
-115.8547065184781
 31
0
  0
LINE
  8
1
 62
2
 10
63.89897893639557
 20
-115.0964741108942
 30
0
 11
63.40397893639558
 21
-116.0864741108942
 31
0
  0
LINE
  8
1
 62
2
 10
63.40397893639558
 20
-116.0864741108942
 30
0
 11
63.15647893639557
 21
-117.0764741108942
 31
0
  0
LINE
  8
1
 62
2
 10
63.15647893639557
 20
-117.0764741108942
 30
0
 11
63.15647893639557
 21
-118.0664741108942
 31
0
  0
LINE
  8
1
 62
2
 10
63.15647893639557
 20
-118.0664741108942
 30
0
 11
63.40397893639558
 21
-119.0564741108942
 31
0
  0
LINE
  8
1
 62
2
 10
63.40397893639558
 20
-119.0564741108942
 30
0
 11
63.89897893639557
 21
-120.0464741108942
 31
0
  0
LINE
  8
1
 62
2
 10
65.93397893639558
 20
-119.7370991108942
 30
0
 11
65.93397893639558
 21
-116.7980366108942
 31
0
  0
LINE
  8
1
 62
2
 10
65.93397893639558
 20
-116.7980366108942
 30
0
 11
69.23397893639557
 21
-116.7980366108942
 31
0
  0
LINE
  8
1
 62
2
 10
69.23397893639557
 20
-116.7980366108942
 30
0
 11
69.23397893639557
 21
-119.7370991108942
 31
0
  0
LINE
  8
1
 62
2
 10
69.23397893639557
 20
-119.7370991108942
 30
0
 11
65.93397893639558
 21
-119.7370991108942
 31
0
  0
LINE
  8
1
 62
2
 10
66.20897893639558
 20
-118.6542866108942
 30
0
 11
66.62147893639558
 21
-118.1902241108942
 31
0
  0
LINE
  8
1
 62
2
 10
66.62147893639558
 20
-118.1902241108942
 30
0
 11
67.03397893639558
 21
-117.2620991108942
 31
0
  0
LINE
  8
1
 62
2
 10
67.03397893639558
 20
-117.2620991108942
 30
0
 11
67.03397893639558
 21
-115.5605366108942
 31
0
  0
LINE
  8
1
 62
2
 10
65.52147893639558
 20
-115.5605366108942
 30
0
 11
67.03397893639558
 21
-115.5605366108942
 31
0
  0
LINE
  8
1
 62
2
 10
67.99647893639558
 20
-115.5605366108942
 30
0
 11
67.99647893639558
 21
-118.0355366108942
 31
0
  0
LINE
  8
1
 62
2
 10
67.99647893639558
 20
-118.0355366108942
 30
0
 11
68.13397893639558
 21
-118.3449116108942
 31
0
  0
LINE
  8
1
 62
2
 10
68.13397893639558
 20
-118.3449116108942
 30
0
 11
68.82147893639558
 21
-118.3449116108942
 31
0
  0
LINE
  8
1
 62
2
 10
68.82147893639558
 20
-118.3449116108942
 30
0
 11
68.95897893639558
 21
-118.0355366108942
 31
0
  0
LINE
  8
1
 62
2
 10
67.99647893639558
 20
-115.5605366108942
 30
0
 11
69.64647893639558
 21
-115.5605366108942
 31
0
  0
LINE
  8
1
 62
2
 10
67.03397893639558
 20
-115.5605366108942
 30
0
 11
67.99647893639558
 21
-115.5605366108942
 31
0
  0
LINE
  8
1
 62
2
 10
70.33397893639557
 20
-119.7370991108942
 30
0
 11
70.47147893639557
 21
-119.2730366108942
 31
0
  0
LINE
  8
1
 62
2
 10
70.47147893639557
 20
-119.2730366108942
 30
0
 11
70.60897893639557
 21
-117.8808491108942
 31
0
  0
LINE
  8
1
 62
2
 10
70.60897893639557
 20
-117.8808491108942
 30
0
 11
70.60897893639557
 21
-115.2511616108942
 31
0
  0
LINE
  8
1
 62
2
 10
70.60897893639557
 20
-115.2511616108942
 30
0
 11
74.45897893639557
 21
-115.2511616108942
 31
0
  0
LINE
  8
1
 62
2
 10
74.45897893639557
 20
-116.3339741108942
 30
0
 11
73.63397893639557
 21
-116.3339741108942
 31
0
  0
LINE
  8
1
 62
2
 10
72.53397893639557
 20
-116.3339741108942
 30
0
 11
71.15897893639557
 21
-116.3339741108942
 31
0
  0
LINE
  8
1
 62
2
 10
71.84647893639557
 20
-115.5605366108942
 30
0
 11
71.84647893639557
 21
-116.3339741108942
 31
0
  0
LINE
  8
1
 62
2
 10
71.02147893639557
 20
-117.5714741108942
 30
0
 11
71.43397893639556
 21
-117.1074116108942
 31
0
  0
LINE
  8
1
 62
2
 10
71.43397893639556
 20
-117.1074116108942
 30
0
 11
71.84647893639557
 21
-116.3339741108942
 31
0
  0
LINE
  8
1
 62
2
 10
72.12147893639556
 20
-116.7980366108942
 30
0
 11
72.53397893639557
 21
-117.2620991108942
 31
0
  0
LINE
  8
1
 62
2
 10
72.53397893639557
 20
-117.7261616108942
 30
0
 11
72.94647893639557
 21
-117.4167866108942
 31
0
  0
LINE
  8
1
 62
2
 10
72.94647893639557
 20
-117.4167866108942
 30
0
 11
73.63397893639557
 21
-116.3339741108942
 31
0
  0
LINE
  8
1
 62
2
 10
73.63397893639557
 20
-115.5605366108942
 30
0
 11
73.63397893639557
 21
-116.3339741108942
 31
0
  0
LINE
  8
1
 62
2
 10
73.63397893639557
 20
-116.3339741108942
 30
0
 11
74.04647893639557
 21
-116.9527241108942
 31
0
  0
LINE
  8
1
 62
2
 10
74.04647893639557
 20
-116.9527241108942
 30
0
 11
74.73397893639557
 21
-117.7261616108942
 31
0
  0
LINE
  8
1
 62
2
 10
73.90897893639557
 20
-118.3449116108942
 30
0
 11
71.70897893639557
 21
-118.3449116108942
 31
0
  0
LINE
  8
1
 62
2
 10
71.70897893639557
 20
-118.3449116108942
 30
0
 11
71.70897893639557
 21
-119.1183491108942
 31
0
  0
LINE
  8
1
 62
2
 10
71.70897893639557
 20
-119.8917866108942
 30
0
 11
73.90897893639557
 21
-119.8917866108942
 31
0
  0
LINE
  8
1
 62
2
 10
73.90897893639557
 20
-119.8917866108942
 30
0
 11
73.90897893639557
 21
-119.1183491108942
 31
0
  0
LINE
  8
1
 62
2
 10
71.70897893639557
 20
-119.1183491108942
 30
0
 11
73.90897893639557
 21
-119.1183491108942
 31
0
  0
LINE
  8
1
 62
2
 10
73.90897893639557
 20
-119.1183491108942
 30
0
 11
73.90897893639557
 21
-118.3449116108942
 31
0
  0
LINE
  8
1
 62
2
 10
71.70897893639557
 20
-119.1183491108942
 30
0
 11
71.70897893639557
 21
-119.8917866108942
 31
0
  0
LINE
  8
1
 62
2
 10
73.63397893639557
 20
-116.3339741108942
 30
0
 11
73.63397893639557
 21
-117.8808491108942
 31
0
  0
LINE
  8
1
 62
2
 10
73.63397893639557
 20
-116.3339741108942
 30
0
 11
72.80897893639556
 21
-116.3339741108942
 31
0
  0
LINE
  8
1
 62
2
 10
71.84647893639557
 20
-116.3339741108942
 30
0
 11
71.84647893639557
 21
-117.8808491108942
 31
0
  0
LINE
  8
1
 62
2
 10
77.48397893639557
 20
-120.0464741108942
 30
0
 11
77.48397893639557
 21
-115.7152241108942
 31
0
  0
LINE
  8
1
 62
2
 10
79.54647893639557
 20
-115.7152241108942
 30
0
 11
77.48397893639557
 21
-115.7152241108942
 31
0
  0
LINE
  8
1
 62
2
 10
78.17147893639557
 20
-116.7980366108942
 30
0
 11
78.99647893639558
 21
-117.7261616108942
 31
0
  0
LINE
  8
1
 62
2
 10
77.48397893639557
 20
-115.7152241108942
 30
0
 11
75.42147893639557
 21
-115.7152241108942
 31
0
  0
LINE
  8
1
 62
2
 10
80.78397893639557
 20
-116.7980366108942
 30
0
 11
80.92147893639557
 21
-116.4886616108942
 31
0
  0
LINE
  8
1
 62
2
 10
80.92147893639557
 20
-116.4886616108942
 30
0
 11
81.47147893639557
 21
-116.1792866108942
 31
0
  0
LINE
  8
1
 62
2
 10
81.47147893639557
 20
-116.1792866108942
 30
0
 11
82.02147893639557
 21
-116.0245991108942
 31
0
  0
LINE
  8
1
 62
2
 10
82.02147893639557
 20
-116.0245991108942
 30
0
 11
82.98397893639557
 21
-116.0245991108942
 31
0
  0
LINE
  8
1
 62
2
 10
82.98397893639557
 20
-116.0245991108942
 30
0
 11
83.53397893639557
 21
-116.1792866108942
 31
0
  0
LINE
  8
1
 62
2
 10
83.53397893639557
 20
-116.1792866108942
 30
0
 11
84.08397893639557
 21
-116.4886616108942
 31
0
  0
LINE
  8
1
 62
2
 10
84.08397893639557
 20
-116.4886616108942
 30
0
 11
84.22147893639557
 21
-116.7980366108942
 31
0
  0
LINE
  8
1
 62
2
 10
84.22147893639557
 20
-116.7980366108942
 30
0
 11
84.22147893639557
 21
-117.5714741108942
 31
0
  0
LINE
  8
1
 62
2
 10
84.22147893639557
 20
-117.5714741108942
 30
0
 11
84.08397893639557
 21
-117.8808491108942
 31
0
  0
LINE
  8
1
 62
2
 10
84.08397893639557
 20
-117.8808491108942
 30
0
 11
83.53397893639557
 21
-118.1902241108942
 31
0
  0
LINE
  8
1
 62
2
 10
83.53397893639557
 20
-118.1902241108942
 30
0
 11
81.33397893639557
 21
-118.4995991108942
 31
0
  0
LINE
  8
1
 62
2
 10
81.33397893639557
 20
-118.4995991108942
 30
0
 11
80.92147893639557
 21
-118.8089741108942
 31
0
  0
LINE
  8
1
 62
2
 10
80.92147893639557
 20
-118.8089741108942
 30
0
 11
80.78397893639557
 21
-119.1183491108942
 31
0
  0
LINE
  8
1
 62
2
 10
80.78397893639557
 20
-119.1183491108942
 30
0
 11
80.64647893639557
 21
-120.0464741108942
 31
0
  0
LINE
  8
1
 62
2
 10
80.64647893639557
 20
-120.0464741108942
 30
0
 11
84.22147893639557
 21
-120.0464741108942
 31
0
  0
LINE
  8
1
 62
2
 10
85.45897893639557
 20
-116.4886616108942
 30
0
 11
86.14647893639557
 21
-116.4886616108942
 31
0
  0
LINE
  8
1
 62
2
 10
86.14647893639557
 20
-115.2511616108942
 30
0
 11
86.14647893639557
 21
-116.4886616108942
 31
0
  0
LINE
  8
1
 62
2
 10
86.14647893639557
 20
-116.4886616108942
 30
0
 11
85.73397893639556
 21
-117.7261616108942
 31
0
  0
LINE
  8
1
 62
2
 10
85.73397893639556
 20
-117.7261616108942
 30
0
 11
85.45897893639557
 21
-118.1902241108942
 31
0
  0
LINE
  8
1
 62
2
 10
85.45897893639557
 20
-118.1902241108942
 30
0
 11
85.32147893639557
 21
-118.4995991108942
 31
0
  0
LINE
  8
1
 62
2
 10
86.14647893639557
 20
-116.4886616108942
 30
0
 11
86.69647893639557
 21
-117.7261616108942
 31
0
  0
LINE
  8
1
 62
2
 10
87.65897893639556
 20
-115.4058491108942
 30
0
 11
86.97147893639556
 21
-116.4886616108942
 31
0
  0
LINE
  8
1
 62
2
 10
87.93397893639556
 20
-116.3339741108942
 30
0
 11
87.52147893639557
 21
-117.1074116108942
 31
0
  0
LINE
  8
1
 62
2
 10
87.52147893639557
 20
-117.1074116108942
 30
0
 11
87.10897893639556
 21
-117.8808491108942
 31
0
  0
LINE
  8
1
 62
2
 10
87.10897893639556
 20
-117.8808491108942
 30
0
 11
86.69647893639557
 21
-118.3449116108942
 31
0
  0
LINE
  8
1
 62
2
 10
87.38397893639557
 20
-117.4167866108942
 30
0
 11
87.38397893639557
 21
-119.8917866108942
 31
0
  0
LINE
  8
1
 62
2
 10
88.07147893639557
 20
-115.7152241108942
 30
0
 11
89.30897893639556
 21
-115.7152241108942
 31
0
  0
LINE
  8
1
 62
2
 10
87.93397893639556
 20
-116.9527241108942
 30
0
 11
88.89647893639557
 21
-116.9527241108942
 31
0
  0
LINE
  8
1
 62
2
 10
88.89647893639557
 20
-116.9527241108942
 30
0
 11
88.89647893639557
 21
-119.5824116108942
 31
0
  0
LINE
  8
1
 62
2
 10
88.89647893639557
 20
-119.5824116108942
 30
0
 11
88.75897893639557
 21
-119.8917866108942
 31
0
  0
LINE
  8
1
 62
2
 10
88.75897893639557
 20
-119.8917866108942
 30
0
 11
88.34647893639556
 21
-119.8917866108942
 31
0
  0
LINE
  8
1
 62
2
 10
88.89647893639557
 20
-116.9527241108942
 30
0
 11
89.58397893639557
 21
-116.9527241108942
 31
0
  0
LINE
  8
1
 62
2
 10
86.14647893639557
 20
-116.4886616108942
 30
0
 11
86.14647893639557
 21
-119.8917866108942
 31
0
  0
LINE
  8
1
 62
2
 10
86.14647893639557
 20
-116.4886616108942
 30
0
 11
86.83397893639557
 21
-116.4886616108942
 31
0
  0
LINE
  8
1
 62
2
 10
90.13397893639557
 20
-115.0964741108942
 30
0
 11
90.62897893639557
 21
-116.0864741108942
 31
0
  0
LINE
  8
1
 62
2
 10
90.62897893639557
 20
-116.0864741108942
 30
0
 11
90.87647893639557
 21
-117.0764741108942
 31
0
  0
LINE
  8
1
 62
2
 10
90.87647893639557
 20
-117.0764741108942
 30
0
 11
90.87647893639557
 21
-118.0664741108942
 31
0
  0
LINE
  8
1
 62
2
 10
90.87647893639557
 20
-118.0664741108942
 30
0
 11
90.62897893639557
 21
-119.0564741108942
 31
0
  0
LINE
  8
1
 62
2
 10
90.62897893639557
 20
-119.0564741108942
 30
0
 11
90.13397893639557
 21
-120.0464741108942
 31
0
  0
ARC
  8
1
 62
7
 10
181.9493152395618
 20
141.2716377460965
 30
0
 40
46.49999999999989
 50
263.4204070550222
 51
276.5795929449775
  0
ARC
  8
1
 62
7
 10
181.9493152395618
 20
141.2716377460965
 30
0
 40
46.49999999999998
 50
173.4204070550225
 51
186.5795929449775
  0
ARC
  8
1
 62
7
 10
181.9493152395618
 20
141.2716377460965
 30
0
 40
46.49999999999987
 50
83.42040705502247
 51
96.57959294497772
  0
ARC
  8
1
 62
7
 10
181.9493152395618
 20
141.2716377460965
 30
0
 40
46.49999999999989
 50
353.4204070550222
 51
6.579592944977507
  0
ARC
  8
1
 62
7
 10
169.6993152395618
 20
109.9866433274544
 30
0
 40
0.5
 50
90
 51
180
  0
ARC
  8
1
 62
7
 10
169.6993152395618
 20
103.9155755155889
 30
0
 40
0.5
 50
180
 51
270
  0
ARC
  8
1
 62
7
 10
194.1993152395618
 20
103.9155755155889
 30
0
 40
0.5
 50
270
 51
0
  0
ARC
  8
1
 62
7
 10
194.1993152395618
 20
109.9866433274544
 30
0
 40
0.5
 50
0
 51
90
  0
ARC
  8
1
 62
7
 10
169.6993152395618
 20
31.96523085852711
 30
0
 40
0.4999999999999965
 50
90
 51
180
  0
ARC
  8
1
 62
7
 10
169.6993152395618
 20
25.8941630466618
 30
0
 40
0.5
 50
180
 51
270
  0
ARC
  8
1
 62
7
 10
194.1993152395618
 20
25.8941630466618
 30
0
 40
0.5
 50
270
 51
0
  0
ARC
  8
1
 62
7
 10
194.1993152395618
 20
31.96523085852711
 30
0
 40
0.5
 50
0
 51
90
  0
ARC
  8
1
 62
7
 10
184.9493152395617
 20
-26.4974615698907
 30
0
 40
1
 50
270
 51
0
  0
ARC
  8
1
 62
7
 10
178.9493152395617
 20
-26.4974615698907
 30
0
 40
1
 50
180
 51
270
  0
ARC
  8
1
 62
7
 10
184.9493152395617
 20
-12.4974615698907
 30
0
 40
1
 50
0
 51
90
  0
ARC
  8
1
 62
7
 10
178.9493152395617
 20
-12.4974615698907
 30
0
 40
1
 50
90
 51
180
  0
ARC
  8
1
 62
7
 10
128.9493152395617
 20
-12.4974615698907
 30
0
 40
1
 50
90
 51
180
  0
ARC
  8
1
 62
7
 10
137.4493152395617
 20
-8.497461569890703
 30
0
 40
1.999999999999773
 50
90
 51
180
  0
ARC
  8
1
 62
7
 10
234.9493152395617
 20
-12.4974615698907
 30
0
 40
1
 50
0
 51
90
  0
ARC
  8
1
 62
7
 10
226.4493152395616
 20
-8.497461569890703
 30
0
 40
2.000000000000114
 50
0
 51
90
  0
ARC
  8
1
 62
7
 10
128.9493152395617
 20
-26.4974615698907
 30
0
 40
1.000000000000014
 50
180
 51
270
  0
ARC
  8
1
 62
7
 10
234.9493152395616
 20
-26.4974615698907
 30
0
 40
1
 50
270
 51
0
  0
ARC
  8
1
 62
7
 10
162.6533736935424
 20
43.70659688409229
 30
0
 40
9.999999999999687
 50
180.0000000000084
 51
202.4130884471014
  0
ARC
  8
1
 62
7
 10
201.1993152395617
 20
43.70659688409083
 30
0
 40
10
 50
270
 51
322.3315491906256
  0
ARC
  8
1
 62
7
 10
201.1993152395617
 20
43.70659688409083
 30
0
 40
9.999999999999533
 50
322.3315491906256
 51
324.848813782439
  0
ARC
  8
1
 62
7
 10
201.1993152395633
 20
43.70659688409332
 30
0
 40
9.999999999999698
 50
324.8488137824221
 51
331.9871279193019
  0
ARC
  8
1
 62
7
 10
201.1993152395617
 20
43.70659688409083
 30
0
 40
9.999999999999981
 50
341.8051276612335
 51
357.9913424883852
  0
ARC
  8
1
 62
7
 10
201.1993152395617
 20
43.70659688409083
 30
0
 40
9.999999999999929
 50
331.9871279193188
 51
341.8051276612335
  0
ARC
  8
1
 62
7
 10
149.4493152395617
 20
-5.49746156989076
 30
0
 40
1
 50
180
 51
270
  0
ARC
  8
1
 62
7
 10
214.4493152395617
 20
-5.49746156989076
 30
0
 40
1
 50
270
 51
0
  0
ARC
  8
1
 62
7
 10
216.4493152395617
 20
-0.4974615698907599
 30
0
 40
1
 50
90
 51
180
  0
ARC
  8
1
 62
7
 10
147.4493152395617
 20
-0.4974615698907599
 30
0
 40
1
 50
0
 51
90
  0
ARC
  8
1
 62
7
 10
209.1993152395617
 20
49.38426641375466
 30
0
 40
2
 50
0
 51
90
  0
ARC
  8
1
 62
7
 10
154.6533736935427
 20
49.38426641375466
 30
0
 40
2
 50
90
 51
180
  0
ARC
  8
1
 62
7
 10
154.6533736935427
 20
48.67715963256777
 30
0
 40
2
 50
90
 51
180
  0
ARC
  8
1
 62
7
 10
209.1993152395617
 20
48.67715963256777
 30
0
 40
2
 50
0
 51
90
  0
ARC
  8
1
 62
7
 10
162.6533736935427
 20
43.70659688409083
 30
0
 40
9.999999999999417
 50
202.4130884470929
 51
270
  0
ARC
  8
1
 62
7
 10
201.1993152395618
 20
43.70659688409498
 30
0
 40
9.999999999999915
 50
357.9913424883615
 51
359.9999999999763
  0
ARC
  8
1
 62
7
 10
216.3474290344768
 20
50.50253843010924
 30
0
 40
2.999999999999333
 50
8.130102354158744
 51
57.33037977074129
  0
ARC
  8
1
 62
7
 10
147.5512014446467
 20
50.50253843010924
 30
0
 40
3
 50
90
 51
122.6696202292798
  0
ARC
  8
1
 62
7
 10
147.5512014446467
 20
50.50253843010924
 30
0
 40
2.999999999999889
 50
122.6696202292798
 51
171.8698976458442
  0
ARC
  8
1
 62
7
 10
216.3474290344768
 20
50.50253843010924
 30
0
 40
2.99999999999961
 50
57.33037977074129
 51
90
  0
ARC
  8
1
 62
7
 10
138.9493152395617
 20
11.00253843010924
 30
0
 40
1.5
 50
270
 51
0
  0
ARC
  8
1
 62
7
 10
224.9493152395617
 20
11.00253843010924
 30
0
 40
1.5
 50
180
 51
270
  0
ARC
  8
1
 62
7
 10
138.4493152395617
 20
8.00253843010924
 30
0
 40
1.5
 50
90
 51
180
  0
ARC
  8
1
 62
7
 10
225.4493152395617
 20
8.00253843010924
 30
0
 40
1.5
 50
0
 51
90
  0
ARC
  8
1
 62
7
 10
217.3640713746577
 20
-1.82630528973678
 30
0
 40
1.500818181818032
 50
8.170915410686085
 51
85.00000000002147
  0
ARC
  8
1
 62
7
 10
217.3640713746577
 20
-4.243773406197278
 30
0
 40
1.500818181818158
 50
274.9999999999785
 51
351.8290845893096
  0
ARC
  8
1
 62
7
 10
154.6533736935427
 20
126.6962589485551
 30
0
 40
2.000000000000014
 50
90
 51
180
  0
ARC
  8
1
 62
7
 10
209.1993152395618
 20
126.6962589485551
 30
0
 40
2
 50
0
 51
90
  0
ARC
  8
1
 62
7
 10
202.6993152395618
 20
120.5792495906713
 30
0
 40
8.5
 50
270
 51
0
  0
ARC
  8
1
 62
7
 10
202.6993152395618
 20
120.2256962000779
 30
0
 40
8.5
 50
270
 51
0
  0
ARC
  8
1
 62
7
 10
161.1533736935427
 20
120.5792495906713
 30
0
 40
8.5
 50
180
 51
270
  0
ARC
  8
1
 62
7
 10
161.1533736935427
 20
120.2256962000779
 30
0
 40
8.5
 50
180
 51
270
  0
ARC
  8
1
 62
7
 10
201.1993152395619
 20
121.3598322082613
 30
0
 40
9.999999999999883
 50
357.9913424883478
 51
359.9999999999634
  0
ARC
  8
1
 62
7
 10
201.1993152395618
 20
121.3598322082549
 30
0
 40
9.999999999999918
 50
331.9871279193168
 51
341.8051276612327
  0
ARC
  8
1
 62
7
 10
201.1993152395618
 20
121.3598322082549
 30
0
 40
10.00000000000003
 50
341.8051276612327
 51
357.9913424883844
  0
ARC
  8
1
 62
7
 10
201.199315239564
 20
121.3598322082585
 30
0
 40
9.999999999999677
 50
324.8488137824144
 51
331.9871279192927
  0
ARC
  8
1
 62
7
 10
201.1993152395563
 20
121.3598322082475
 30
0
 40
9.999999999999618
 50
322.3315491906766
 51
324.8488137824912
  0
ARC
  8
1
 62
7
 10
162.6533736935424
 20
121.3598322082567
 30
0
 40
9.999999999999687
 50
180.0000000000103
 51
202.4130884471044
  0
ARC
  8
1
 62
7
 10
129.4493152395618
 20
143.7716377460965
 30
0
 40
1.5
 50
90
 51
180
  0
ARC
  8
1
 62
7
 10
134.2654605296079
 20
146.7716377460964
 30
0
 40
1.499999999999886
 50
270
 51
353.420407055022
  0
ARC
  8
1
 62
7
 10
129.4493152395618
 20
138.7716377460965
 30
0
 40
1.5
 50
180
 51
270
  0
ARC
  8
1
 62
7
 10
134.2654605296079
 20
135.7716377460965
 30
0
 40
1.500000000000044
 50
6.579592944980714
 51
90
  0
ARC
  8
1
 62
7
 10
234.4493152395617
 20
143.7716377460965
 30
0
 40
1.5
 50
0
 51
90
  0
ARC
  8
1
 62
7
 10
229.6331699495156
 20
146.7716377460964
 30
0
 40
1.49999999999995
 50
186.5795929449779
 51
270
  0
ARC
  8
1
 62
7
 10
176.4493152395617
 20
188.9554924560505
 30
0
 40
1.500000000000034
 50
276.5795929449775
 51
0
  0
ARC
  8
1
 62
7
 10
187.4493152395617
 20
188.9554924560505
 30
0
 40
1.5
 50
180
 51
263.420407055023
  0
ARC
  8
1
 62
7
 10
184.4493152395617
 20
193.7716377460965
 30
0
 40
1.5
 50
0
 51
90
  0
ARC
  8
1
 62
7
 10
179.4493152395617
 20
193.7716377460965
 30
0
 40
1.5
 50
90
 51
180
  0
ARC
  8
1
 62
7
 10
234.4493152395617
 20
138.7716377460965
 30
0
 40
1.5
 50
270
 51
0
  0
ARC
  8
1
 62
7
 10
229.6331699495156
 20
135.7716377460965
 30
0
 40
1.5
 50
90
 51
173.4204070550265
  0
ARC
  8
1
 62
7
 10
176.4493152395617
 20
93.5877830361425
 30
0
 40
1.5
 50
0
 51
83.42040705502302
  0
ARC
  8
1
 62
7
 10
187.4493152395617
 20
93.5877830361425
 30
0
 40
1.500000000000091
 50
96.57959294497722
 51
180
  0
ARC
  8
1
 62
7
 10
184.4493152395617
 20
88.7716377460965
 30
0
 40
1.499999999999972
 50
270
 51
0
  0
ARC
  8
1
 62
7
 10
179.4493152395617
 20
88.7716377460965
 30
0
 40
1.5
 50
180
 51
270
  0
ARC
  8
1
 62
7
 10
214.1397150340654
 20
96.0607080822426
 30
0
 40
9.999999999999494
 50
100.2108853957782
 51
101.9592470479849
  0
ARC
  8
1
 62
7
 10
151.1366135055668
 20
187.4325239144957
 30
0
 40
10.00000000000026
 50
275.48058115612
 51
280.2315741871777
  0
ARC
  8
1
 62
7
 10
214.1397150340773
 20
186.4825674099492
 30
0
 40
10.00000000000039
 50
258.0407529519417
 51
259.7891146041552
  0
ARC
  8
1
 62
7
 10
151.1366135055665
 20
95.11075157769867
 30
0
 40
9.999999999999204
 50
79.76842581282212
 51
84.51941884387759
  0
ARC
  8
0
 62
7
 10
184.2965800458636
 20
104.3343586771841
 30
0
 40
6.860544223979733
 50
175.8733282604635
 51
177.6306701430632
  0
ARC
  8
0
 62
7
 10
188.7971908104518
 20
104.0276394411102
 30
0
 40
11.37157288764654
 50
172.2051146282762
 51
175.9637585386765
  0
ARC
  8
0
 62
7
 10
183.516104371118
 20
104.7357475580123
 30
0
 40
6.043263133884856
 50
170.3340838835158
 51
172.0658069809149
  0
ARC
  8
0
 62
7
 10
180.6701588094417
 20
105.2150897431682
 30
0
 40
3.157241444528729
 50
168.2816227570792
 51
170.2378023401783
  0
ARC
  8
0
 62
7
 10
183.1319986675374
 20
104.6845571739192
 30
0
 40
5.675556232523864
 50
165.1809136620842
 51
168.0850487025848
  0
ARC
  8
0
 62
7
 10
191.1081660990517
 20
102.5989507281916
 30
0
 40
13.91987366734407
 50
164.759193470921
 51
165.2789240547202
  0
ARC
  8
0
 62
7
 10
179.9615146576588
 20
104.5980457778008
 30
0
 40
3.606660128929771
 50
165.4054527325614
 51
172.2633508748589
  0
ARC
  8
0
 62
7
 10
180.4884855326229
 20
104.5103281249803
 30
0
 40
4.140673525547951
 50
172.0422530222009
 51
178.5102310641997
  0
ARC
  8
0
 62
7
 10
176.0640204573075
 20
106.7400051809765
 30
0
 40
1.684238487387778
 50
343.3758325417058
 51
347.9824194735055
  0
ARC
  8
0
 62
7
 10
176.1813881432081
 20
106.719543270589
 30
0
 40
1.565139749771678
 50
348.2748028406371
 51
359.8981928379424
  0
ARC
  8
0
 62
7
 10
176.4989643231783
 20
106.7111302968833
 30
0
 40
1.24757381118969
 50
0.2586513337363267
 51
16.67996079804039
  0
ARC
  8
0
 62
7
 10
176.7144681559699
 20
106.7635860243682
 30
0
 40
1.026147256177726
 50
17.32803600309071
 51
39.46464000308238
  0
ARC
  8
0
 62
7
 10
176.7324859258198
 20
106.7688581318379
 30
0
 40
1.008913276633371
 50
39.88386297061709
 51
66.77588744933433
  0
ARC
  8
0
 62
7
 10
176.6421948359948
 20
106.5831607516206
 30
0
 40
1.215206972509304
 50
66.3162293456265
 51
81.74384487552014
  0
ARC
  8
0
 62
7
 10
176.5843118917498
 20
106.2729174716401
 30
0
 40
1.530599768771481
 50
81.26721903970515
 51
94.33168826280237
  0
ARC
  8
0
 62
7
 10
176.5997319164168
 20
105.882479506493
 30
0
 40
1.921138976257113
 50
93.91075382842072
 51
106.370877879713
  0
ARC
  8
0
 62
7
 10
176.7063599206387
 20
105.4656899658048
 30
0
 40
2.351133210703964
 50
106.0012226650567
 51
120.3919484940643
  0
ARC
  8
0
 62
7
 10
176.8605078546659
 20
105.1679708643416
 30
0
 40
2.685984567160194
 50
120.0153578154239
 51
129.9085230286206
  0
ARC
  8
0
 62
7
 10
176.8624209455417
 20
105.1584044829483
 30
0
 40
2.694554065242999
 50
129.8092228613282
 51
146.5729906533324
  0
ARC
  8
0
 62
7
 10
176.5058388947109
 20
105.4134972507105
 30
0
 40
2.256490911132005
 50
146.9910805581029
 51
160.2087359000038
  0
ARC
  8
0
 62
7
 10
176.0747561465223
 20
105.5839357570869
 30
0
 40
1.793219539981777
 50
160.6691240869784
 51
173.4029826217722
  0
ARC
  8
0
 62
7
 10
175.6877014405567
 20
105.6410471832225
 30
0
 40
1.402220002369326
 50
173.904200507634
 51
187.5362258922349
  0
ARC
  8
0
 62
7
 10
175.4072883958483
 20
105.6141542651072
 30
0
 40
1.12074769847437
 50
188.053411595892
 51
206.0652615779769
  0
ARC
  8
0
 62
7
 10
175.2892462929448
 20
105.5671367253309
 30
0
 40
0.9940985738779025
 50
206.6203896219476
 51
219.7647062389509
  0
ARC
  8
0
 62
7
 10
175.2965855681547
 20
105.5755103774918
 30
0
 40
1.005097712873215
 50
219.8640191530121
 51
245.156436936233
  0
ARC
  8
0
 62
7
 10
175.3773729416965
 20
105.7319770256887
 30
0
 40
1.181051132215972
 50
244.7890520892325
 51
258.4029213812336
  0
ARC
  8
0
 62
7
 10
175.4367761037867
 20
105.9802216010964
 30
0
 40
1.436193521345987
 50
258.072341431133
 51
269.8752782836652
  0
ARC
  8
0
 62
7
 10
175.4474783623347
 20
106.2960757801855
 30
0
 40
1.752098870096611
 50
269.5477841660281
 51
279.8304615114214
  0
ARC
  8
0
 62
7
 10
175.4058231702458
 20
106.5923862489712
 30
0
 40
2.051192838085578
 50
279.5637989054
 51
286.1150326430894
  0
ARC
  8
0
 62
7
 10
175.3949089732635
 20
106.9243800209971
 30
0
 40
1.481241139788641
 50
309.6662680093075
 51
319.0399120093085
  0
ARC
  8
0
 62
7
 10
175.3837669500837
 20
106.9307166466143
 30
0
 40
1.493237914075143
 50
296.1544208457096
 51
309.8401654848222
  0
ARC
  8
0
 62
7
 10
175.5269832135777
 20
106.6559329904605
 30
0
 40
1.183484294856395
 50
284.6152944584192
 51
295.7947196417136
  0
ARC
  8
0
 62
7
 10
175.6146056130007
 20
106.349807764234
 30
0
 40
0.8651880430951865
 50
274.9711386414832
 51
284.1157486436466
  0
ARC
  8
0
 62
7
 10
175.6385997138418
 20
106.116864462989
 30
0
 40
0.631052736278223
 50
263.2987180137495
 51
274.6335288138071
  0
ARC
  8
0
 62
7
 10
175.6204916536587
 20
105.9287436822703
 30
0
 40
0.4421219130835683
 50
247.276415978927
 51
262.7844841079074
  0
ARC
  8
0
 62
7
 10
175.5772792936226
 20
105.8139152835919
 30
0
 40
0.3195459364716428
 50
220.6282556547967
 51
246.4698107103763
  0
ARC
  8
0
 62
7
 10
175.5668616058921
 20
105.7987336797941
 30
0
 40
0.3017911541033026
 50
193.6230941254347
 51
219.728580238326
  0
ARC
  8
0
 62
7
 10
175.6464766804538
 20
105.8220540049487
 30
0
 40
0.3846789697928155
 50
180.8058706513105
 51
194.2058027618674
  0
ARC
  8
0
 62
7
 10
175.7650428882138
 20
105.8271996469078
 30
0
 40
0.5033178352440278
 50
171.0155787770763
 51
181.201743994588
  0
ARC
  8
0
 62
7
 10
175.9327312319858
 20
105.8039769484098
 30
0
 40
0.6725832268998789
 50
160.1645618234392
 51
171.292390849129
  0
ARC
  8
0
 62
7
 10
176.1793835512835
 20
105.7225055785193
 30
0
 40
0.9322734827400278
 50
149.4231422426321
 51
160.5982301665319
  0
ARC
  8
0
 62
7
 10
176.4527970922729
 20
105.57236679027
 30
0
 40
1.244081636064801
 50
138.6880272629281
 51
149.8755017775046
  0
ARC
  8
0
 62
7
 10
176.6396644409849
 20
105.4201617858425
 30
0
 40
1.484949544720019
 50
129.6852084722734
 51
139.0367132109894
  0
ARC
  8
0
 62
7
 10
176.6479137578548
 20
105.4160762071367
 30
0
 40
1.493366102081631
 50
116.145786147915
 51
129.8286798460948
  0
ARC
  8
0
 62
7
 10
176.5051815279978
 20
105.6898816073359
 30
0
 40
1.184705303379559
 50
104.6173618858123
 51
115.7843637294319
  0
ARC
  8
0
 62
7
 10
176.417113079156
 20
105.9976228344421
 30
0
 40
0.8647326428618589
 50
94.96820649526289
 51
104.1167374817984
  0
ARC
  8
0
 62
7
 10
176.3932114668698
 20
106.2300318056523
 30
0
 40
0.6311376587331118
 50
83.30232621070186
 51
94.63371819153488
  0
ARC
  8
0
 62
7
 10
176.4114060298677
 20
106.4187107584542
 30
0
 40
0.4416418610452958
 50
67.27116060164649
 51
82.79177730260031
  0
ARC
  8
0
 62
7
 10
176.4546304122288
 20
106.5334267157783
 30
0
 40
0.3191647926647106
 50
40.60921836480071
 51
66.47136353232946
  0
ARC
  8
0
 62
7
 10
176.4649680225728
 20
106.5482007900432
 30
0
 40
0.301733801279838
 50
13.64492152440712
 51
39.75710586026045
  0
ARC
  8
0
 62
7
 10
176.3855170577863
 20
106.5248987291257
 30
0
 40
0.3844592183435346
 50
0.8182449045674149
 51
14.22638281496545
  0
ARC
  8
0
 62
7
 10
176.2668035586656
 20
106.5197210625189
 30
0
 40
0.5032465971688909
 50
351.0269993736989
 51
1.214663622592993
  0
ARC
  8
0
 62
7
 10
176.0991420138796
 20
106.5429301042111
 30
0
 40
0.6724839156707311
 50
340.1719483447097
 51
351.3017710467862
  0
ARC
  8
0
 62
7
 10
175.8525622925422
 20
106.6243793686902
 30
0
 40
0.9320990102606765
 50
329.4263044563824
 51
340.6034046200084
  0
ARC
  8
0
 62
7
 10
175.5796569748888
 20
106.774243032654
 30
0
 40
1.243329913602718
 50
318.6836905085551
 51
329.8771477120281
  0
ARC
  8
0
 62
7
 10
175.7455903403533
 20
108.6082417765505
 30
0
 40
7.513814030817799
 50
346.3901430215474
 51
347.4086018942459
  0
ARC
  8
0
 62
7
 10
181.1041821615101
 20
107.4112480381563
 30
0
 40
2.023158304381764
 50
347.4100174323631
 51
349.0341789673651
  0
ARC
  8
0
 62
7
 10
183.3565144624685
 20
105.6250231295176
 30
0
 40
1.582879495224236
 50
167.4930455576885
 51
179.280737417687
  0
ARC
  8
0
 62
7
 10
183.0379081497057
 20
105.6371983412867
 30
0
 40
1.264171880385963
 50
179.6512415986167
 51
195.0619020303143
  0
ARC
  8
0
 62
7
 10
182.8149695402998
 20
105.5882156630862
 30
0
 40
1.036217985892908
 50
195.649870597101
 51
219.3542134098075
  0
ARC
  8
0
 62
7
 10
182.7878482042287
 20
105.5781183235804
 30
0
 40
1.008887518229176
 50
219.8875068774139
 51
246.7793060060018
  0
ARC
  8
0
 62
7
 10
182.8782905553517
 20
105.7642886937583
 30
0
 40
1.215674648289008
 50
246.3214825405476
 51
261.7429072666965
  0
ARC
  8
0
 62
7
 10
182.9360474689387
 20
106.0738113082698
 30
0
 40
1.530336147994056
 50
261.267187251442
 51
274.3339107265123
  0
ARC
  8
0
 62
7
 10
182.9206982092027
 20
106.4641927186625
 30
0
 40
1.920813675949906
 50
273.9104758042438
 51
286.3730575903542
  0
ARC
  8
0
 62
7
 10
182.8140439914489
 20
106.881327769712
 30
0
 40
2.35114679414027
 50
286.0012452983804
 51
300.3927431872843
  0
ARC
  8
0
 62
7
 10
182.6590437619727
 20
107.1803988737261
 30
0
 40
2.687594970265453
 50
300.0173698478603
 51
309.9056720958506
  0
ARC
  8
0
 62
7
 10
182.6581118413628
 20
107.1886493844384
 30
0
 40
2.694525690599111
 50
309.8083257403413
 51
326.5709153524483
  0
ARC
  8
0
 62
7
 10
183.0153984674496
 20
106.9331250087896
 30
0
 40
2.25563585282474
 50
326.9880507262806
 51
340.2102073502783
  0
ARC
  8
0
 62
7
 10
183.4454842679709
 20
106.7630559794498
 30
0
 40
1.79342802242684
 50
340.6705988788846
 51
353.4026518461853
  0
ARC
  8
0
 62
7
 10
183.8328880081637
 20
106.7058405435144
 30
0
 40
1.402070281665591
 50
353.9064145925029
 51
7.539966323203082
  0
ARC
  8
0
 62
7
 10
184.1137414365657
 20
106.7328818813589
 30
0
 40
1.120141973489306
 50
8.053801308405786
 51
26.07664009820519
  0
ARC
  8
0
 62
7
 10
184.2309093667988
 20
106.779529266707
 30
0
 40
0.9944423882445865
 50
26.63004200772549
 51
39.77164100773121
  0
ARC
  8
0
 62
7
 10
184.2237980426289
 20
106.7717017765048
 30
0
 40
1.004916699688783
 50
39.85527632884723
 51
65.15113638195194
  0
ARC
  8
0
 62
7
 10
184.1434803546408
 20
106.6163904780584
 30
0
 40
1.179625364309951
 50
64.78121738906607
 51
78.41109638415804
  0
ARC
  8
0
 62
7
 10
184.0837289429719
 20
106.3672644467449
 30
0
 40
1.435701193764872
 50
78.07240234270311
 51
89.87991658819853
  0
ARC
  8
0
 62
7
 10
184.0730568912497
 20
106.0494849814917
 30
0
 40
1.753530876510062
 50
89.55297322840741
 51
99.82871253910724
  0
ARC
  8
0
 62
7
 10
184.1146294093748
 20
105.7536227422658
 30
0
 40
2.052169342365166
 50
99.56229361215334
 51
106.1118571840448
  0
ARC
  8
0
 62
7
 10
182.8833328927648
 20
106.9244771184824
 30
0
 40
1.481418128438941
 50
309.6686390000996
 51
319.04032600008
  0
ARC
  8
0
 62
7
 10
182.8724095118557
 20
106.9306449987385
 30
0
 40
1.493145445414573
 50
296.1534329117513
 51
309.8402035231619
  0
ARC
  8
0
 62
7
 10
183.0155130826717
 20
106.6560991562501
 30
0
 40
1.183655145418765
 50
284.6151470680668
 51
295.793347521943
  0
ARC
  8
0
 62
7
 10
183.1031603334397
 20
106.3499240292676
 30
0
 40
0.8653044590230447
 50
274.9710524254127
 51
284.1148556552438
  0
ARC
  8
0
 62
7
 10
183.1271597297948
 20
106.1169358257775
 30
0
 40
0.6311239745825841
 50
263.2992076499564
 51
274.6333230083295
  0
ARC
  8
0
 62
7
 10
183.1090570890548
 20
105.9288018341204
 30
0
 40
0.4421806744659113
 50
247.2777339517389
 51
262.7843541094306
  0
ARC
  8
0
 62
7
 10
183.0658408471088
 20
105.8139356708921
 30
0
 40
0.3195683745208816
 50
220.6296218986985
 51
246.4697174738206
  0
ARC
  8
0
 62
7
 10
183.0554485599331
 20
105.7986874774434
 30
0
 40
0.3017904497082042
 50
193.613248749465
 51
219.7172885495174
  0
ARC
  8
0
 62
7
 10
183.1352881883487
 20
105.8220515696207
 30
0
 40
0.3849061667724212
 50
180.8034192554896
 51
194.1961976252251
  0
ARC
  8
0
 62
7
 10
183.2539990839456
 20
105.8271756656276
 30
0
 40
0.50368911860045
 50
171.0174981449253
 51
181.1968966379213
  0
ARC
  8
0
 62
7
 10
183.4214299230104
 20
105.8039928823197
 30
0
 40
0.6726940078413989
 50
160.1670523942416
 51
171.2937153163582
  0
ARC
  8
0
 62
7
 10
183.6683427804619
 20
105.7224250334439
 30
0
 40
0.9326622736989281
 50
149.4293381749402
 51
160.5997014659535
  0
ARC
  8
0
 62
7
 10
183.9407657856347
 20
105.5729279949056
 30
0
 40
1.243292382762611
 50
138.6890265669339
 51
149.8826782970282
  0
ARC
  8
0
 62
7
 10
184.1267772113448
 20
105.4216727322578
 30
0
 40
1.482891488820085
 50
129.6808000713913
 51
139.0437663055816
  0
ARC
  8
0
 62
7
 10
184.1370254096157
 20
105.4149219949979
 30
0
 40
1.494634804062418
 50
116.1438864370631
 51
129.8179120069723
  0
ARC
  8
0
 62
7
 10
183.9941238367168
 20
105.6889081770717
 30
0
 40
1.185737852983786
 50
104.6198037180126
 51
115.7787876144156
  0
ARC
  8
0
 62
7
 10
183.9060609486818
 20
105.9957946755706
 30
0
 40
0.8665949950892011
 50
94.97732764181563
 51
104.1072484950569
  0
ARC
  8
0
 62
7
 10
183.8818648662547
 20
106.2299383635163
 30
0
 40
0.6312463271342577
 50
83.30279098569588
 51
94.63330600921108
  0
ARC
  8
0
 62
7
 10
183.9000690304817
 20
106.418700028095
 30
0
 40
0.4416672167133876
 50
67.2712916673222
 51
82.79245651184438
  0
ARC
  8
0
 62
7
 10
183.9431825315969
 20
106.5332636385358
 30
0
 40
0.3193740796732384
 50
40.61554558050529
 51
66.464280722604
  0
ARC
  8
0
 62
7
 10
183.9532459827507
 20
106.5482179292007
 30
0
 40
0.302038173073263
 50
13.61827017961253
 51
39.70484417387871
  0
ARC
  8
0
 62
7
 10
183.8736783477017
 20
106.5249288709293
 30
0
 40
0.38487205721597
 50
0.8041744663441754
 51
14.19886403264679
  0
ARC
  8
0
 62
7
 10
183.7552196254746
 20
106.5197744004355
 30
0
 40
0.5034035624388978
 50
351.0166851490506
 51
1.201556572464747
  0
ARC
  8
0
 62
7
 10
183.5874550739008
 20
106.543003000714
 30
0
 40
0.6727452230284193
 50
340.1684731598322
 51
351.2936691957268
  0
ARC
  8
0
 62
7
 10
183.3411280925051
 20
106.6243608925281
 30
0
 40
0.9320912622317037
 50
329.4248679769369
 51
340.6009138197324
  0
ARC
  8
0
 62
7
 10
183.0687687597878
 20
106.7738194152593
 30
0
 40
1.242646409920505
 50
318.6813280027683
 51
329.8795967184989
  0
ARC
  8
0
 62
7
 10
185.8393324470554
 20
99.93940496301427
 30
0
 40
9.061711948053141
 50
130.5243367854194
 51
133.4173308559178
  0
ARC
  8
0
 62
7
 10
185.1773336887976
 20
100.6749540737098
 30
0
 40
8.072474711275515
 50
133.5926032835855
 51
134.9727251818826
  0
ARC
  8
0
 62
7
 10
188.0740801191257
 20
97.77557590777913
 30
0
 40
12.17095413971107
 50
134.9731493495064
 51
135.694538118307
  0
ARC
  8
0
 62
7
 10
204.2756756135992
 20
81.96192171432377
 30
0
 40
34.81081623098551
 50
135.6943451356689
 51
136.1047651244685
  0
ARC
  8
0
 62
7
 10
175.7714660680837
 20
110.3430547945992
 30
0
 40
6.295907913288674
 50
309.9909255904
 51
315.2272604206989
  0
ARC
  8
0
 62
7
 10
172.4401057922727
 20
113.6480960529031
 30
0
 40
10.98858934359449
 50
315.2272455761133
 51
316.5557673689146
  0
ARC
  8
0
 62
7
 10
135.6522215588352
 20
148.628798487459
 30
0
 40
61.75271225771534
 50
316.4626075603004
 51
316.6639949017006
  0
ARC
  8
0
 62
7
 10
185.8522623584337
 20
109.4656486865121
 30
0
 40
2.459003052389093
 50
286.5182793796566
 51
298.953919696071
  0
ARC
  8
0
 62
7
 10
185.9747149808451
 20
109.0928433488064
 30
0
 40
2.066799309328825
 50
275.7240983539748
 51
286.2021801110572
  0
ARC
  8
0
 62
7
 10
186.0184471793559
 20
108.7474626242469
 30
0
 40
1.718802892878556
 50
266.6750457458401
 51
275.4218690389405
  0
ARC
  8
0
 62
7
 10
184.2965800458644
 20
26.31294620828571
 30
0
 40
6.860544223979338
 50
175.8733282607037
 51
177.6306701433038
  0
ARC
  8
0
 62
7
 10
188.7971908104501
 20
26.00622697216584
 30
0
 40
11.37157288764693
 50
172.20511462819
 51
175.9637585385895
  0
ARC
  8
0
 62
7
 10
183.5161043711186
 20
26.71433508908987
 30
0
 40
6.043263133884543
 50
170.334083883562
 51
172.0658069809616
  0
ARC
  8
0
 62
7
 10
180.6701588094475
 20
27.19367727427096
 30
0
 40
3.15724144452929
 50
168.281622757632
 51
170.2378023407335
  0
ARC
  8
0
 62
7
 10
183.1319986675358
 20
26.66314470498984
 30
0
 40
5.675556232523698
 50
165.1809136620625
 51
168.0850487025595
  0
ARC
  8
0
 62
7
 10
191.1081660990518
 20
24.57753825926862
 30
0
 40
13.91987366734393
 50
164.7591934709393
 51
165.2789240547386
  0
ARC
  8
0
 62
7
 10
179.9615146576574
 20
26.57663330886665
 30
0
 40
3.606660128929137
 50
165.4054527324442
 51
172.2633508747461
  0
ARC
  8
0
 62
7
 10
180.4884855326228
 20
26.48891565605301
 30
0
 40
4.140673525547796
 50
172.0422530221992
 51
178.5102310641982
  0
ARC
  8
0
 62
7
 10
176.0640204573068
 20
28.718592712047
 30
0
 40
1.684238487386929
 50
343.3758325417754
 51
347.9824194735836
  0
ARC
  8
0
 62
7
 10
176.1813881432072
 20
28.69813080166197
 30
0
 40
1.565139749772511
 50
348.2748028406335
 51
359.8981928379332
  0
ARC
  8
0
 62
7
 10
176.4989643231776
 20
28.68971782796017
 30
0
 40
1.247573811190297
 50
0.2586513335453005
 51
16.6799607978423
  0
ARC
  8
0
 62
7
 10
176.7144681559707
 20
28.74217355543807
 30
0
 40
1.026147256178929
 50
17.32803600324742
 51
39.4646400032403
  0
ARC
  8
0
 62
7
 10
176.7324859258189
 20
28.74744566291072
 30
0
 40
1.00891327663398
 50
39.88386297058796
 51
66.77588744929049
  0
ARC
  8
0
 62
7
 10
176.6421948359949
 20
28.56174828269342
 30
0
 40
1.215206972509343
 50
66.31622934563315
 51
81.74384487557171
  0
ARC
  8
0
 62
7
 10
176.5843118917497
 20
28.2515050027129
 30
0
 40
1.530599768771343
 50
81.26721903973882
 51
94.33168826279889
  0
ARC
  8
0
 62
7
 10
176.5997319164159
 20
27.8610670375658
 30
0
 40
1.921138976257154
 50
93.91075382839347
 51
106.3708778796869
  0
ARC
  8
0
 62
7
 10
176.7063599206377
 20
27.4442774968776
 30
0
 40
2.351133210703693
 50
106.0012226650334
 51
120.3919484940433
  0
ARC
  8
0
 62
7
 10
176.8605078546642
 20
27.14655839541343
 30
0
 40
2.685984567160193
 50
120.0153578153818
 51
129.9085230285943
  0
ARC
  8
0
 62
7
 10
176.8624209455439
 20
27.13699201402235
 30
0
 40
2.694554065243911
 50
129.8092228613962
 51
146.5729906533786
  0
ARC
  8
0
 62
7
 10
176.5058388947088
 20
27.39208478177931
 30
0
 40
2.25649091113248
 50
146.9910805579863
 51
160.2087358998962
  0
ARC
  8
0
 62
7
 10
176.0747561465215
 20
27.56252328816077
 30
0
 40
1.793219539981648
 50
160.6691240870093
 51
173.4029826218057
  0
ARC
  8
0
 62
7
 10
175.6877014405558
 20
27.61963471429532
 30
0
 40
1.402220002369212
 50
173.9042005076341
 51
187.5362258922317
  0
ARC
  8
0
 62
7
 10
175.4072883958474
 20
27.59274179618302
 30
0
 40
1.120747698474779
 50
188.0534115960397
 51
206.0652615781375
  0
ARC
  8
0
 62
7
 10
175.2892462929448
 20
27.54572425640372
 30
0
 40
0.9940985738778008
 50
206.6203896219506
 51
219.764706238947
  0
ARC
  8
0
 62
7
 10
175.2965855681558
 20
27.5540979085646
 30
0
 40
1.005097712874124
 50
219.864019152968
 51
245.1564369361768
  0
ARC
  8
0
 62
7
 10
175.3773729416968
 20
27.71056455676121
 30
0
 40
1.181051132215804
 50
244.7890520892133
 51
258.4029213812225
  0
ARC
  8
0
 62
7
 10
175.4367761037878
 20
27.95880913216921
 30
0
 40
1.43619352134619
 50
258.0723414310953
 51
269.8752782835824
  0
ARC
  8
0
 62
7
 10
175.4474783623345
 20
28.27466331125821
 30
0
 40
1.752098870096514
 50
269.547784166002
 51
279.8304615113964
  0
ARC
  8
0
 62
7
 10
175.4058231702448
 20
28.57097378004401
 30
0
 40
2.051192838085576
 50
279.5637989054007
 51
286.115032643094
  0
ARC
  8
0
 62
7
 10
175.3949089732608
 20
28.90296755206713
 30
0
 40
1.481241139788045
 50
309.6662680094309
 51
319.0399120094364
  0
ARC
  8
0
 62
7
 10
175.3837669500828
 20
28.90930417768711
 30
0
 40
1.493237914075604
 50
296.1544208457447
 51
309.8401654848234
  0
ARC
  8
0
 62
7
 10
175.5269832135779
 20
28.6345205215333
 30
0
 40
1.183484294856369
 50
284.6152944584096
 51
295.7947196417098
  0
ARC
  8
0
 62
7
 10
175.6146056130011
 20
28.32839529530701
 30
0
 40
0.8651880430952275
 50
274.9711386415226
 51
284.1157486436173
  0
ARC
  8
0
 62
7
 10
175.6385997138434
 20
28.09545199406174
 30
0
 40
0.6310527362780383
 50
263.298718013602
 51
274.6335288137551
  0
ARC
  8
0
 62
7
 10
175.6204916536565
 20
27.90733121334342
 30
0
 40
0.4421219130830618
 50
247.276415979191
 51
262.7844841081889
  0
ARC
  8
0
 62
7
 10
175.5772792936224
 20
27.79250281466466
 30
0
 40
0.3195459364715735
 50
220.6282556548057
 51
246.4698107103875
  0
ARC
  8
0
 62
7
 10
175.5668616058928
 20
27.77732121086571
 30
0
 40
0.3017911541031914
 50
193.6230941251872
 51
219.7285802380568
  0
ARC
  8
0
 62
7
 10
175.6464766804534
 20
27.80064153601733
 30
0
 40
0.3846789697923586
 50
180.805870650687
 51
194.2058027612824
  0
ARC
  8
0
 62
7
 10
175.7650428882138
 20
27.80578717798061
 30
0
 40
0.503317835244139
 50
171.0155787770791
 51
181.201743994586
  0
ARC
  8
0
 62
7
 10
175.9327312319857
 20
27.78256447948606
 30
0
 40
0.6725832268995738
 50
160.164561823711
 51
171.2923908494207
  0
ARC
  8
0
 62
7
 10
176.1793835512791
 20
27.70109310958443
 30
0
 40
0.932273482739384
 50
149.4231422421187
 51
160.5982301659945
  0
ARC
  8
0
 62
7
 10
176.4527970922765
 20
27.55095432134802
 30
0
 40
1.244081636064556
 50
138.6880272631788
 51
149.8755017778191
  0
ARC
  8
0
 62
7
 10
176.6396644409806
 20
27.39874931691102
 30
0
 40
1.484949544720082
 50
129.6852084720662
 51
139.0367132107229
  0
ARC
  8
0
 62
7
 10
176.6479137578565
 20
27.39466373821072
 30
0
 40
1.49336610208128
 50
116.1457861479556
 51
129.8286798461997
  0
ARC
  8
0
 62
7
 10
176.5051815279988
 20
27.66846913840881
 30
0
 40
1.184705303380064
 50
104.6173618859011
 51
115.7843637294298
  0
ARC
  8
0
 62
7
 10
176.4171130791539
 20
27.97621036551472
 30
0
 40
0.8647326428618609
 50
94.96820649519106
 51
104.1167374817168
  0
ARC
  8
0
 62
7
 10
176.3932114668664
 20
28.20861933672528
 30
0
 40
0.631137658732756
 50
83.30232621049024
 51
94.63371819132334
  0
ARC
  8
0
 62
7
 10
176.4114060298678
 20
28.39729828952737
 30
0
 40
0.4416418610440992
 50
67.27116060176535
 51
82.79177730274425
  0
ARC
  8
0
 62
7
 10
176.4546304122302
 20
28.51201424685006
 30
0
 40
0.3191647926642947
 50
40.60921836520748
 51
66.47136353280303
  0
ARC
  8
0
 62
7
 10
176.4649680225717
 20
28.52678832111802
 30
0
 40
0.3017338012795217
 50
13.64492152397671
 51
39.75710585993819
  0
ARC
  8
0
 62
7
 10
176.3855170577868
 20
28.5034862601956
 30
0
 40
0.3844592183429793
 50
0.8182449050001505
 51
14.22638281539778
  0
ARC
  8
0
 62
7
 10
176.2668035586661
 20
28.49830859359681
 30
0
 40
0.503246597168186
 50
351.0269993731075
 51
1.214663622012511
  0
ARC
  8
0
 62
7
 10
176.0991420138788
 20
28.5215176352812
 30
0
 40
0.6724839156701535
 50
340.1719483449175
 51
351.3017710470186
  0
ARC
  8
0
 62
7
 10
175.8525622925453
 20
28.60296689977152
 30
0
 40
0.9320990102614569
 50
329.4263044558684
 51
340.6034046194288
  0
ARC
  8
0
 62
7
 10
175.5796569748878
 20
28.7528305637269
 30
0
 40
1.243329913602706
 50
318.6836905085557
 51
329.8771477120727
  0
ARC
  8
0
 62
7
 10
175.7455903403671
 20
30.5868293076829
 30
0
 40
7.51381403081751
 50
346.3901430210794
 51
347.4086018937805
  0
ARC
  8
0
 62
7
 10
181.1041821615022
 20
29.38983556919123
 30
0
 40
2.02315830438142
 50
347.4100174334629
 51
349.0341789684561
  0
ARC
  8
0
 62
7
 10
183.3565144624702
 20
27.60361066059549
 30
0
 40
1.582879495225742
 50
167.4930455578895
 51
179.2807374178712
  0
ARC
  8
0
 62
7
 10
183.0379081497048
 20
27.61578587235952
 30
0
 40
1.264171880384968
 50
179.6512415986162
 51
195.0619020303202
  0
ARC
  8
0
 62
7
 10
182.8149695402998
 20
27.56680319415902
 30
0
 40
1.036217985892882
 50
195.6498705970957
 51
219.3542134098075
  0
ARC
  8
0
 62
7
 10
182.7878482042278
 20
27.5567058546532
 30
0
 40
1.008887518228467
 50
219.8875068774462
 51
246.7793060060445
  0
ARC
  8
0
 62
7
 10
182.8782905553522
 20
27.74287622483127
 30
0
 40
1.215674648289387
 50
246.3214825405246
 51
261.742907266626
  0
ARC
  8
0
 62
7
 10
182.9360474689378
 20
28.05239883934262
 30
0
 40
1.530336147994094
 50
261.2671872514379
 51
274.3339107265875
  0
ARC
  8
0
 62
7
 10
182.9206982092029
 20
28.44278024973541
 30
0
 40
1.920813675950057
 50
273.9104758042707
 51
286.3730575903501
  0
ARC
  8
0
 62
7
 10
182.8140439914465
 20
28.85991530078373
 30
0
 40
2.35114679413992
 50
286.0012452984456
 51
300.3927431873276
  0
ARC
  8
0
 62
7
 10
182.6590437619755
 20
29.15898640480096
 30
0
 40
2.68759497026521
 50
300.0173698477688
 51
309.9056720957768
  0
ARC
  8
0
 62
7
 10
182.6581118413618
 20
29.16723691551123
 30
0
 40
2.694525690599749
 50
309.8083257403575
 51
326.5709153524466
  0
ARC
  8
0
 62
7
 10
183.0153984674488
 20
28.911712539861
 30
0
 40
2.255635852823851
 50
326.9880507263061
 51
340.2102073503103
  0
ARC
  8
0
 62
7
 10
183.4454842679711
 20
28.74164351052731
 30
0
 40
1.793428022427269
 50
340.6705988787302
 51
353.4026518460329
  0
ARC
  8
0
 62
7
 10
183.8328880081627
 20
28.68442807458264
 30
0
 40
1.402070281666189
 50
353.9064145926896
 51
7.539966323388458
  0
ARC
  8
0
 62
7
 10
184.1137414365641
 20
28.7114694124337
 30
0
 40
1.12014197348962
 50
8.053801308301468
 51
26.07664009808322
  0
ARC
  8
0
 62
7
 10
184.2309093667979
 20
28.75811679777992
 30
0
 40
0.9944423882453994
 50
26.630042007702
 51
39.77164100769249
  0
ARC
  8
0
 62
7
 10
184.2237980426288
 20
28.75028930757772
 30
0
 40
1.004916699688793
 50
39.85527632883778
 51
65.15113638199865
  0
ARC
  8
0
 62
7
 10
184.1434803546398
 20
28.59497800913131
 30
0
 40
1.179625364309942
 50
64.78121738906739
 51
78.41109638410983
  0
ARC
  8
0
 62
7
 10
184.0837289429718
 20
28.34585197781782
 30
0
 40
1.435701193764791
 50
78.0724023426978
 51
89.87991658823368
  0
ARC
  8
0
 62
7
 10
184.0730568912499
 20
28.02807251256452
 30
0
 40
1.753530876510148
 50
89.55297322844645
 51
99.82871253914568
  0
ARC
  8
0
 62
7
 10
184.1146294093738
 20
27.73221027333862
 30
0
 40
2.05216934236517
 50
99.56229361215333
 51
106.1118571840448
  0
ARC
  8
0
 62
7
 10
182.8833328927679
 20
28.90306464955905
 30
0
 40
1.481418128439955
 50
309.6686389998815
 51
319.0403259999176
  0
ARC
  8
0
 62
7
 10
182.8724095118576
 20
28.90923252981248
 30
0
 40
1.493145445414274
 50
296.1534329116671
 51
309.8402035230462
  0
ARC
  8
0
 62
7
 10
183.0155130826707
 20
28.634686687323
 30
0
 40
1.183655145418889
 50
284.6151470680638
 51
295.7933475219855
  0
ARC
  8
0
 62
7
 10
183.1031603334368
 20
28.32851156033999
 30
0
 40
0.865304459023299
 50
274.9710524256172
 51
284.1148556553704
  0
ARC
  8
0
 62
7
 10
183.1271597297958
 20
28.09552335685031
 30
0
 40
0.6311239745829836
 50
263.2992076497969
 51
274.6333230082546
  0
ARC
  8
0
 62
7
 10
183.1090570890538
 20
27.90738936519346
 30
0
 40
0.4421806744661833
 50
247.2777339517537
 51
262.7843541094633
  0
ARC
  8
0
 62
7
 10
183.0658408471078
 20
27.7925232019649
 30
0
 40
0.3195683745209372
 50
220.6296218987101
 51
246.4697174738232
  0
ARC
  8
0
 62
7
 10
183.0554485599329
 20
27.77727500851482
 30
0
 40
0.3017904497080238
 50
193.613248749163
 51
219.7172885492335
  0
ARC
  8
0
 62
7
 10
183.1352881883492
 20
27.80063910069788
 30
0
 40
0.3849061667730525
 50
180.8034192561558
 51
194.196197625796
  0
ARC
  8
0
 62
7
 10
183.2539990839457
 20
27.80576319669871
 30
0
 40
0.5036891186007113
 50
171.0174981447372
 51
181.1968966377393
  0
ARC
  8
0
 62
7
 10
183.4214299230112
 20
27.78258041339588
 30
0
 40
0.6726940078415499
 50
160.1670523945341
 51
171.2937153166533
  0
ARC
  8
0
 62
7
 10
183.6683427804629
 20
27.70101256451652
 30
0
 40
0.9326622737004595
 50
149.4293381749869
 51
160.5997014659626
  0
ARC
  8
0
 62
7
 10
183.9407657856334
 20
27.55151552597498
 30
0
 40
1.24329238276383
 50
138.6890265668064
 51
149.8826782968803
  0
ARC
  8
0
 62
7
 10
184.1267772113469
 20
27.40026026333162
 30
0
 40
1.482891488820918
 50
129.6808000714802
 51
139.0437663056903
  0
ARC
  8
0
 62
7
 10
184.1370254096143
 20
27.39350952607041
 30
0
 40
1.494634804062011
 50
116.1438864370113
 51
129.8179120069255
  0
ARC
  8
0
 62
7
 10
183.9941238367168
 20
27.66749570814461
 30
0
 40
1.185737852983759
 50
104.6198037180129
 51
115.7787876144192
  0
ARC
  8
0
 62
7
 10
183.9060609486818
 20
27.9743822066434
 30
0
 40
0.8665949950891785
 50
94.97732764187424
 51
104.1072484950557
  0
ARC
  8
0
 62
7
 10
183.8818648662515
 20
28.20852589458903
 30
0
 40
0.6312463271340261
 50
83.30279098541028
 51
94.63330600900298
  0
ARC
  8
0
 62
7
 10
183.9000690304828
 20
28.39728755916771
 30
0
 40
0.441667216712377
 50
67.27129166757908
 51
82.79245651198869
  0
ARC
  8
0
 62
7
 10
183.943182531598
 20
28.51185116960779
 30
0
 40
0.319374079673299
 50
40.61554558084693
 51
66.46428072300807
  0
ARC
  8
0
 62
7
 10
183.9532459827498
 20
28.52680546027351
 30
0
 40
0.3020381730743352
 50
13.61827017955909
 51
39.70484417387629
  0
ARC
  8
0
 62
7
 10
183.8736783477008
 20
28.50351640200212
 30
0
 40
0.3848720572170783
 50
0.8041744663413306
 51
14.1988640326017
  0
ARC
  8
0
 62
7
 10
183.755219625474
 20
28.49836193151475
 30
0
 40
0.5034035624395652
 50
351.0166851483421
 51
1.201556571729907
  0
ARC
  8
0
 62
7
 10
183.5874550738997
 20
28.52159053178301
 30
0
 40
0.6727452230282007
 50
340.1684731601407
 51
351.2936691960652
  0
ARC
  8
0
 62
7
 10
183.3411280925028
 20
28.60294842359802
 30
0
 40
0.9320912622330216
 50
329.4248679771638
 51
340.6009138199272
  0
ARC
  8
0
 62
7
 10
183.0687687597878
 20
28.75240694633222
 30
0
 40
1.242646409921408
 50
318.6813280027984
 51
329.8795967184954
  0
ARC
  8
0
 62
7
 10
185.8393324470638
 20
21.91799249409554
 30
0
 40
9.061711948052047
 50
130.5243367854936
 51
133.4173308559882
  0
ARC
  8
0
 62
7
 10
185.1773336887761
 20
22.65354160476056
 30
0
 40
8.072474711275914
 50
133.5926032833613
 51
134.972725181664
  0
ARC
  8
0
 62
7
 10
188.0740801191339
 20
19.75416343886132
 30
0
 40
12.17095413971022
 50
134.9731493495648
 51
135.6945381183649
  0
ARC
  8
0
 62
7
 10
204.275675613528
 20
3.940509245323053
 30
0
 40
34.81081623098576
 50
135.6943451355002
 51
136.104765124301
  0
ARC
  8
0
 62
7
 10
175.7714660680828
 20
32.32164232567202
 30
0
 40
6.295907913288637
 50
309.9909255903992
 51
315.2272604206983
  0
ARC
  8
0
 62
7
 10
172.4401057922737
 20
35.62668358397674
 30
0
 40
10.98858934359366
 50
315.2272455761029
 51
316.5557673689047
  0
ARC
  8
0
 62
7
 10
135.6522215589505
 20
70.60738601865241
 30
0
 40
61.75271225771417
 50
316.4626075601451
 51
316.6639949015457
  0
ARC
  8
0
 62
7
 10
185.8522623584311
 20
31.44423621758431
 30
0
 40
2.459003052389311
 50
286.5182793797234
 51
298.9539196961113
  0
ARC
  8
0
 62
7
 10
185.9747149808449
 20
31.07143087987892
 30
0
 40
2.066799309328587
 50
275.7240983539533
 51
286.2021801110702
  0
ARC
  8
0
 62
7
 10
186.0184471793558
 20
30.7260501553197
 30
0
 40
1.718802892878566
 50
266.675045745843
 51
275.42186903891
  0
ARC
  8
1
 62
7
 10
182.6118308764946
 20
48.93786306021187
 30
0
 40
0.8775000000001114
 50
0
 51
142.6431480270834
  0
ARC
  8
1
 62
7
 10
182.6118308764946
 20
48.93786306021187
 30
0
 40
0.5175000000002115
 50
0
 51
180
  0
ARC
  8
1
 62
7
 10
181.2168308764947
 20
48.93786306021187
 30
0
 40
0.8775000000001065
 50
37.35685197291328
 51
126.1388146631159
  0
ARC
  8
1
 62
7
 10
181.2168308764947
 20
48.93786306021187
 30
0
 40
0.5174999999989041
 50
0
 51
180
  0
ARC
  8
1
 62
7
 10
181.9493152395617
 20
57.84007805281979
 30
0
 40
36.33753962271121
 50
187.6099843283901
 51
352.3900156716101
  0
ARC
  8
1
 62
7
 10
208.9457697850157
 20
-3.035039347966944
 30
0
 40
10.00545454545494
 50
351.8290845893098
 51
8.17091541068859
  0
ARC
  8
1
 62
7
 10
181.9493152395618
 20
141.2716377460965
 30
0
 40
45.00000000000003
 50
18.85622178174202
 51
180
  0
ARC
  8
1
 62
7
 10
181.9493152395618
 20
141.2716377460965
 30
0
 40
40.80000000000022
 50
15.64093257294763
 51
90
  0
ARC
  8
1
 62
7
 10
181.9493152395618
 20
141.2716377460965
 30
0
 40
40.7999999999997
 50
90
 51
164.3590674270525
  0
ARC
  8
1
 62
7
 10
181.9493152395618
 20
141.2716377460965
 30
0
 40
37
 50
0
 51
180
  0
ARC
  8
1
 62
7
 10
181.9493152395618
 20
141.2716377460965
 30
0
 40
45
 50
180
 51
0
  0
ARC
  8
1
 62
7
 10
180.5218152395606
 20
126.8512069700851
 30
0
 40
0.5175000000002115
 50
0
 51
180
  0
ARC
  8
1
 62
7
 10
180.5218152395606
 20
126.8512069700851
 30
0
 40
0.8775000000012534
 50
37.35685197279425
 51
126.1388146630752
  0
ARC
  8
1
 62
7
 10
181.9168152395617
 20
126.8512069700851
 30
0
 40
0.5174999999999841
 50
0
 51
180
  0
ARC
  8
1
 62
7
 10
181.9168152395617
 20
126.8512069700851
 30
0
 40
0.8774999999989745
 50
0
 51
142.6431480270909
  0
ARC
  8
1
 62
7
 10
181.9493152395618
 20
141.2716377460965
 30
0
 40
45
 50
0
 51
18.85622178174202
  0
ARC
  8
1
 62
7
 10
278.9447082844759
 20
-41.03684261261502
 30
0
 40
5.000000000000043
 50
260.8324032406166
 51
354.6591495962111
  0
ARC
  8
1
 62
7
 10
279.0258241952137
 20
-98.37358651938254
 30
0
 40
4.999999999999989
 50
10.03608002145953
 51
79.81829758841823
  0
ARC
  8
1
 62
7
 10
83.57030873927451
 20
-39.63081147304767
 30
0
 40
4.999999999999991
 50
222.3987842053214
 51
305.07550771158
  0
ARC
  8
1
 62
7
 10
83.58301115411288
 20
-99.38077165739512
 30
0
 40
5.000000000001858
 50
65.15535809547286
 51
137.4910537347068
  0
ARC
  8
1
 62
7
 10
83.57030873927451
 20
-39.63081147304767
 30
0
 40
5.000000000000076
 50
201.9802345002092
 51
222.3987842053214
  0
ARC
  8
1
 62
7
 10
83.58301115411288
 20
-99.38077165739512
 30
0
 40
5.000000000001894
 50
137.4910537347068
 51
157.9320874271052
  0
ARC
  8
1
 62
7
 10
83.57030873927292
 20
-39.63081147304879
 30
0
 40
4.999999999999751
 50
305.0755077116023
 51
305.4711292010175
  0
ARC
  8
1
 62
7
 10
136.559444494416
 20
-31.76786381258272
 30
0
 40
4.000000000000105
 50
342.0254021370578
 51
43.74140518597343
  0
ARC
  8
1
 62
7
 10
227.3391859847072
 20
-31.76786381258272
 30
0
 40
3.999999999999887
 50
136.2585948140243
 51
258.7283397247326
  0
ARC
  8
1
 62
7
 10
208.9493152395617
 20
-93.62318504920076
 30
0
 40
18.49999999999984
 50
325.1323315985268
 51
0
  0
ARC
  8
1
 62
7
 10
181.9493152395602
 20
169.9977549385018
 30
0
 40
283.4999999999999
 50
270.4042063829078
 51
275.8478307565212
  0
ARC
  8
1
 62
7
 10
208.9493152395617
 20
-93.62318504920076
 30
0
 40
18.50000000000002
 50
275.8478307565206
 51
325.1323315985268
  0
ARC
  8
1
 62
7
 10
181.9493152395509
 20
169.9977549385019
 30
0
 40
283.5000000000001
 50
270.0000000000022
 51
270.4042063829097
  0
ARC
  8
1
 62
7
 10
181.9493152395617
 20
169.9977549385019
 30
0
 40
283.5000000000001
 50
252.2232934360468
 51
269.5957936170925
  0
ARC
  8
1
 62
7
 10
181.9493152395725
 20
169.9977549385019
 30
0
 40
283.5000000000002
 50
269.5957936170903
 51
269.9999999999978
  0
ARC
  8
1
 62
7
 10
230.4493152395617
 20
-87.63931681577732
 30
0
 40
2.999999999999978
 50
79.89496363496349
 51
180
  0
ARC
  8
1
 62
7
 10
105.0116502968782
 20
-69.97015065132344
 30
0
 40
31.50000000000012
 50
232.1510192012058
 51
252.2232934360465
  0
ARC
  8
1
 62
7
 10
104.5452331818269
 20
-69.50224506149802
 30
0
 40
31.49999999999999
 50
90
 51
125.0755077115808
  0
ARC
  8
1
 62
7
 10
135.6513672840178
 20
-34.00224506149802
 30
0
 40
4
 50
270
 51
339.2786222402327
  0
ARC
  8
1
 62
7
 10
181.9493152395617
 20
-51.51652538087575
 30
0
 40
45.49999999999996
 50
156.4866421561078
 51
159.2786222402318
  0
ARC
  8
1
 62
7
 10
136.559444494416
 20
-31.76786381258272
 30
0
 40
4.000000000000132
 50
336.4866421561076
 51
342.0254021370578
  0
ARC
  8
1
 62
7
 10
102.9873267379339
 20
-76.65516258680273
 30
0
 40
50.00000000000006
 50
355.1929627963172
 51
43.23238083805224
  0
ARC
  8
1
 62
7
 10
261.4566413400551
 20
-59.93686901467777
 30
0
 40
45.00000000000001
 50
151.7271214029317
 51
209.8006755189268
  0
ARC
  8
1
 62
7
 10
181.9493152395618
 20
141.2716377460965
 30
0
 40
46.49999999999987
 50
6.579592944977507
 51
83.42040705502247
  0
ARC
  8
1
 62
7
 10
181.9493152395618
 20
141.2716377460965
 30
0
 40
46.49999999999987
 50
186.5795929449775
 51
263.4204070550222
  0
ARC
  8
1
 62
7
 10
181.9493152395618
 20
141.2716377460965
 30
0
 40
46.50000000000001
 50
96.57959294497772
 51
173.4204070550225
  0
ARC
  8
1
 62
7
 10
181.9493152395618
 20
141.2716377460965
 30
0
 40
46.49999999999993
 50
276.5795929449775
 51
353.4204070550222
  0
ARC
  8
1
 62
7
 10
83.58301115411288
 20
111.3931111501994
 30
0
 40
5.00000000000195
 50
56.2474506606222
 51
137.4910537347069
  0
ARC
  8
1
 62
7
 10
83.58301115411288
 20
171.1501643419936
 30
0
 40
5.000000000001836
 50
222.5089462652925
 51
303.7525493393781
  0
ARC
  8
1
 62
7
 10
83.57030873927451
 20
111.4002041576462
 30
0
 40
4.999999999999949
 50
137.6012157946792
 51
158.0197654997914
  0
ARC
  8
1
 62
7
 10
83.58301115411288
 20
171.1501643419936
 30
0
 40
5.00000000000203
 50
202.0679125728938
 51
222.5089462652925
  0
ARC
  8
1
 62
7
 10
278.9493152395617
 20
112.8149723483327
 30
0
 40
4.999999999999656
 50
5.240302814925326
 51
100.2108853957774
  0
ARC
  8
1
 62
7
 10
278.9493152395617
 20
169.7283031438604
 30
0
 40
4.999999999999683
 50
259.7891146042226
 51
354.7596971850747
  0
ARC
  8
1
 62
7
 10
104.5452331818272
 20
141.2716377460965
 30
0
 40
31.49999999999983
 50
234.7408398928421
 51
264.5194188438789
  0
ARC
  8
1
 62
7
 10
104.5452331818272
 20
141.2716377460965
 30
0
 40
31.50000000000076
 50
95.48058115612092
 51
125.2591601072235
  0
CIRCLE
  8
1
 62
7
 10
181.9493152395618
 20
141.2716377460965
 30
0
 40
41.5
  0
CIRCLE
  8
1
 62
7
 10
134.4694481589853
 20
-35.53894174065274
 30
0
 40
1
  0
DIMENSION
  8
1
  6
CONTINUOUS
 62
2
  2
*D0
  3
DMST_1
 10
316.675991165488
 20
53.50253843010925
 30
0
 11
315.085991165488
 21
-8.68553802155313
 31
0
 12
0
 22
0
 32
0
 70
0
  1
168
 13
216.9493152395617
 23
-114.5022450614981
 33
0
 14
216.3474290344768
 24
53.50253843010924
 34
0
 50
90
 53
0
  0
DIMENSION
  8
1
  6
CONTINUOUS
 62
2
  2
*D1
  3
DMST_2
 10
253.954567427737
 20
-114.5022450614981
 30
0
 11
252.364567427737
 21
-102.0107998330734
 31
0
 12
0
 22
0
 32
0
 70
0
 13
259.8189341558783
 23
-69.50124916074459
 33
0
 14
216.9493152395617
 24
-114.5022450614981
 34
0
 50
90
 53
0
  0
DIMENSION
  8
1
  6
CONTINUOUS
 62
2
  2
*D2
  3
DMST_2
 10
316.675991165488
 20
195.2716377460965
 30
0
 11
315.085991165488
 21
141.2716377460966
 31
0
 12
0
 22
0
 32
0
 70
0
 13
184.4493152395617
 23
87.27163774609653
 33
0
 14
184.4493152395617
 24
195.2716377460965
 34
0
 50
90
 53
0
  0
DIMENSION
  8
1
  6
CONTINUOUS
 62
2
  2
*D3
  3
DMST_2
 10
303.9493152395614
 20
-136.7374346003073
 30
0
 11
182.6339845944009
 21
-135.1474346003073
 31
0
 12
0
 22
0
 32
0
 70
0
 13
58.94931523956173
 23
-96.00224506149803
 33
0
 14
303.9493152395614
 24
-96.00224506149803
 34
0
 53
0
  0
DIMENSION
  8
1
  6
CONTINUOUS
 62
2
  2
*D4
  3
DMST_3
 10
303.9493152395614
 20
-29.94224506149804
 30
0
 11
293.9493152395614
 21
-28.25224506149804
 31
0
 12
0
 22
0
 32
0
 70
0
 13
283.9493152395614
 23
-41.50224506149804
 33
0
 14
303.9493152395614
 24
-43.00224506149804
 34
0
 53
0
  0
ENDSEC
  0
EOF
