  0
SECTION
  2
HEADER
  9
$ACADVER
  1
AC1009
  9
$INSBASE
 10
0
 20
0
  9
$EXTMIN
 10
16.13412649169999
 20
214.7559705842386
  9
$EXTMAX
 10
897.0680959334658
 20
818.4756494182
  9
$LIMMIN
 10
16.13412649169999
 20
214.7559705842386
  9
$LIMMAX
 10
897.0680959334658
 20
818.4756494182
  9
$VIEWCTR
 10
10
 20
10
  9
$VIEWSIZE
 40
10
  9
$SNAPMODE
 70
0
  9
$SNAPUNIT
 10
1
 20
1
  9
$SNAPBASE
 10
0
 20
0
  9
$SNAPANG
 50
0
  9
$SNAPSTYLE
 70
0
  9
$SNAPISOPAIR
 70
0
  9
$GRIDMODE
 70
0
  9
$GRIDUNIT
 10
0
 20
0
  9
$ORTHOMODE
 70
0
  9
$REGENMODE
 70
1
  9
$FILLMODE
 70
1
  9
$QTEXTMODE
 70
0
  9
$DRAGMODE
 70
2
  9
$LTSCALE
 40
1
  9
$OSMODE
 70
0
  9
$ATTMODE
 70
1
  9
$TEXTSIZE
 40
3.5
  9
$TRACEWID
 40
0.5
  9
$TEXTSTYLE
  7
STANDARD
  9
$CLAYER
  8
0
  9
$CELTYPE
  6
BYLAYER
  9
$CECOLOR
 62
256
  9
$DIMSCALE
 40
1
  9
$DIMASZ
 40
0.18
  9
$DIMEXO
 40
0.0625
  9
$DIMDLI
 40
0.38
  9
$DIMRND
 40
0
  9
$DIMDLE
 40
0
  9
$DIMEXE
 40
0.18
  9
$DIMTP
 40
0
  9
$DIMTM
 40
0
  9
$DIMTXT
 40
0.18
  9
$DIMCEN
 40
0.09
  9
$DIMTSZ
 40
0
  9
$DIMTOL
 70
0
  9
$DIMLIM
 70
0
  9
$DIMTIH
 70
1
  9
$DIMTOH
 70
1
  9
$DIMSE1
 70
0
  9
$DIMSE2
 70
0
  9
$DIMTAD
 70
0
  9
$DIMZIN
 70
0
  9
$DIMBLK
  1

  9
$DIMASO
 70
1
  9
$DIMSHO
 70
1
  9
$DIMPOST
  1

  9
$DIMAPOST
  1

  9
$DIMALT
 70
0
  9
$DIMALTD
 70
2
  9
$DIMALTF
 40
25.4
  9
$DIMLFAC
 40
1
  9
$DIMTOFL
 70
0
  9
$DIMTVP
 40
0
  9
$DIMTIX
 70
0
  9
$DIMSOXD
 70
0
  9
$DIMSAH
 70
0
  9
$DIMBLK1
  1

  9
$DIMBLK2
  1

  9
$DIMSTYLE
  2
*UNNAMED
  9
$DIMCLRD
 70
0
  9
$DIMCLRE
 70
0
  9
$DIMCLRT
 70
0
  9
$DIMTFAC
 40
1
  9
$DIMGAP
 40
0.09
  9
$LUNITS
 70
2
  9
$LUPREC
 70
4
  9
$AXISMODE
 70
0
  9
$AXISUNIT
 10
0
 20
0
  9
$SKETCHINC
 40
0.1
  9
$FILLETRAD
 40
2
  9
$AUNITS
 70
0
  9
$AUPREC
 70
0
  9
$MENU
  1
ACAD
  9
$ELEVATION
 40
0
  9
$THICKNESS
 40
0
  9
$VIEWDIR
 10
0
 20
0
 30
1
  9
$LIMCHECK
 70
0
  9
$BLIPMODE
 70
1
  9
$CHAMFERA
 40
0
  9
$CHAMFERB
 40
0
  9
$FASTZOOM
 70
1
  9
$SKPOLY
 70
0
  9
$ANGBASE
 50
0
  9
$ANGDIR
 70
0
  9
$PDMODE
 70
0
  9
$PDSIZE
 40
0
  9
$PLINEWID
 40
0
  9
$COORDS
 70
2
  0
ENDSEC
  0
SECTION
  2
TABLES
  0
TABLE
  2
DIMSTYLE
 70
3
  0
DIMSTYLE
  2
DMST_1
 70
0
  3

  4

  5

  6

  7

 40
1
 41
3.2
 42
0.5
 43
7
 44
1.5
 45
0
 46
0
 47
0
 48
0
140
3.2
141
0
142
0
143
25.4
144
1
145
0
146
1
147
0.09
 71
0
 72
0
 73
0
 74
0
 75
0
 76
0
 77
1
 78
9
170
0
171
2
172
0
173
0
174
0
175
0
176
2
177
2
178
2
  0
DIMSTYLE
  2
DMST_2
 70
0
  3

  4

  5

  6

  7

 40
1
 41
3
 42
0.5
 43
7
 44
1
 45
0
 46
0
 47
0
 48
0
140
3
141
0
142
0
143
25.4
144
1
145
0
146
1
147
0.09
 71
0
 72
0
 73
0
 74
0
 75
0
 76
0
 77
1
 78
9
170
0
171
2
172
0
173
0
174
0
175
0
176
2
177
2
178
2
  0
DIMSTYLE
  2
DMST_3
 70
0
  3

  4

  5

  6

  7

 40
1
 41
3.2
 42
0.5
 43
7
 44
1.5
 45
0
 46
0
 47
0
 48
0
140
3.2
141
0
142
0
143
25.4
144
1
145
0
146
1
147
0.09
 71
0
 72
0
 73
0
 74
0
 75
0
 76
0
 77
1
 78
9
170
0
171
2
172
1
173
0
174
0
175
0
176
2
177
2
178
2
  0
ENDTAB
  0
TABLE
  2
LTYPE
 70
9
  0
LTYPE
  2
CONTINUOUS
 70
64
  3
Solid line
 72
65
 73
0
 40
0
  0
LTYPE
  2
BORDER
 70
64
  3
__ __ . __ __ .
 72
65
 73
6
 40
40.56932754008131
 49
11.59123644002323
 49
-5.795618220011616
 49
11.59123644002323
 49
-5.795618220011616
 49
0
 49
-5.795618220011616
  0
LTYPE
  2
CENTER
 70
64
  3
____ _ ____ _
 72
65
 73
4
 40
46.36494576009293
 49
28.97809110005808
 49
-5.795618220011616
 49
5.795618220011616
 49
-5.795618220011616
  0
LTYPE
  2
DASHDOT
 70
64
  3
__ . __ . __ .
 72
65
 73
4
 40
23.18247288004647
 49
11.59123644002323
 49
-5.795618220011616
 49
0
 49
-5.795618220011616
  0
LTYPE
  2
DASHED
 70
64
  3
__ __ __ __ __
 72
65
 73
2
 40
17.38685466003485
 49
11.59123644002323
 49
-5.795618220011616
  0
LTYPE
  2
DIVIDE
 70
64
  3
__ . . __ . . 
 72
65
 73
6
 40
28.97809110005808
 49
11.59123644002323
 49
-5.795618220011616
 49
0
 49
-5.795618220011616
 49
0
 49
-5.795618220011616
  0
LTYPE
  2
DOT
 70
64
  3
..............
 72
65
 73
4
 40
11.59123644002323
 49
0
 49
-5.795618220011616
 49
0
 49
-5.795618220011616
  0
LTYPE
  2
HIDDEN
 70
64
  3
_ _ _ _ _ _ _
 72
65
 73
2
 40
8.693427330017425
 49
5.795618220011616
 49
-2.897809110005808
  0
LTYPE
  2
PHANTOM
 70
64
  3
_____ _ _ _____ _ _ 
 72
65
 73
6
 40
57.95618220011616
 49
28.97809110005808
 49
-5.795618220011616
 49
5.795618220011616
 49
-5.795618220011616
 49
5.795618220011616
 49
-5.795618220011616
  0
ENDTAB
  0
TABLE
  2
LAYER
 70
3
  0
LAYER
  2
0
 70
0
 62
7
  6
CONTINUOUS
  0
LAYER
  2
1
 70
0
 62
7
  6
CONTINUOUS
  0
ENDTAB
  0
TABLE
  2
STYLE
 70
4
  0
STYLE
  2
STANDARD
 70
0
 40
0
 41
1
 50
0
 71
0
 42
3.5
  3
txt
  4

  0
STYLE
  2
SIMPLEX
 70
0
 40
0
 41
1
 50
0
 71
0
 42
3.5
  3
simplex
  4

  0
STYLE
  2
COMPLEX
 70
0
 40
0
 41
1
 50
0
 71
0
 42
3.5
  3
complex
  4

  0
STYLE
  2
ITALIC
 70
0
 40
0
 41
1
 50
0
 71
0
 42
3.5
  3
italic
  4

  0
ENDTAB
  0
TABLE
  2
VIEW
 70
0
  0
ENDTAB
  0
ENDSEC
  0
SECTION
  2
BLOCKS
  0
BLOCK
  8
1
  2
*D0
 70
1
 10
0
 20
0
 30
0
  0
LINE
  8
1
 62
2
 10
609.2206109239
 20
356.2185340191
 30
0
 11
609.2206109239
 21
573.2185267473
 31
0
  0
LINE
  8
1
 62
2
 10
512.7206100298999
 20
356.2185340191
 30
0
 11
610.7206109239
 21
356.2185340191
 31
0
  0
LINE
  8
1
 62
2
 10
509.7206114008
 20
573.2185267473
 30
0
 11
610.7206109239
 21
573.2185267473
 31
0
  0
LINE
  8
1
 62
2
 10
609.2206109239
 20
356.2185340191
 30
0
 11
608.3566109239
 21
359.4185340191
 31
0
  0
LINE
  8
1
 62
2
 10
609.2206109239
 20
356.2185340191
 30
0
 11
610.0846109239001
 21
359.4185340191
 31
0
  0
LINE
  8
1
 62
2
 10
609.2206109239
 20
573.2185267473
 30
0
 11
610.0846109239001
 21
570.0185267472999
 31
0
  0
LINE
  8
1
 62
2
 10
609.2206109239
 20
573.2185267473
 30
0
 11
608.3566109239
 21
570.0185267472999
 31
0
  0
TEXT
  8
1
 62
2
 10
608.2206109239
 20
460.9298116753102
 30
0
 40
3.2
  1
217
 50
90
 41
0.9
 51
15
  0
ENDBLK
  8
0
  0
BLOCK
  8
1
  2
*D1
 70
1
 10
0
 20
0
 30
0
  0
LINE
  8
1
 62
2
 10
597.2206109239
 20
356.2185340191
 30
0
 11
597.2206109239
 21
436.218532231
 31
0
  0
LINE
  8
1
 62
2
 10
512.7206100298999
 20
356.2185340191
 30
0
 11
598.7206109239
 21
356.2185340191
 31
0
  0
LINE
  8
1
 62
2
 10
596.5202060411
 20
436.218532231
 30
0
 11
598.7206109239
 21
436.218532231
 31
0
  0
LINE
  8
1
 62
2
 10
597.2206109239
 20
356.2185340191
 30
0
 11
596.3566109239
 21
359.4185340191
 31
0
  0
LINE
  8
1
 62
2
 10
597.2206109239
 20
356.2185340191
 30
0
 11
598.0846109239001
 21
359.4185340191
 31
0
  0
LINE
  8
1
 62
2
 10
597.2206109239
 20
436.218532231
 30
0
 11
598.0846109239001
 21
433.018532231
 31
0
  0
LINE
  8
1
 62
2
 10
597.2206109239
 20
436.218532231
 30
0
 11
596.3566109239
 21
433.018532231
 31
0
  0
TEXT
  8
1
 62
2
 10
596.2206109239
 20
393.3898144171602
 30
0
 40
3.2
  1
80
 50
90
 41
0.9
 51
15
  0
ENDBLK
  8
0
  0
BLOCK
  8
1
  2
*D2
 70
1
 10
0
 20
0
 30
0
  0
LINE
  8
1
 62
2
 10
342.2206109239
 20
334.8093198761
 30
0
 11
472.2206130697
 21
334.8093198761
 31
0
  0
LINE
  8
1
 62
2
 10
342.2206109239
 20
399.218532231
 30
0
 11
342.2206109239
 21
333.3093198761
 31
0
  0
LINE
  8
1
 62
2
 10
472.2206130697
 20
340.2185311106
 30
0
 11
472.2206130697
 21
333.3093198761
 31
0
  0
LINE
  8
1
 62
2
 10
472.2206130697
 20
334.8093198761
 30
0
 11
469.0206130697
 21
333.9453198761
 31
0
  0
LINE
  8
1
 62
2
 10
472.2206130697
 20
334.8093198761
 30
0
 11
469.0206130697
 21
335.6733198761
 31
0
  0
LINE
  8
1
 62
2
 10
342.2206109239
 20
334.8093198761
 30
0
 11
345.4206109239
 21
335.6733198761
 31
0
  0
LINE
  8
1
 62
2
 10
342.2206109239
 20
334.8093198761
 30
0
 11
345.4206109239
 21
333.9453198761
 31
0
  0
TEXT
  8
1
 62
2
 10
403.4318932889102
 20
335.8093198761
 30
0
 40
3.2
  1
130
 41
0.9
 51
15
  0
ENDBLK
  8
0
  0
BLOCK
  8
1
  2
*D3
 70
1
 10
0
 20
0
 30
0
  0
LINE
  8
1
 62
2
 10
27.22061807650002
 20
326.0218107014
 30
0
 11
339.2206109239
 21
326.0218107014
 31
0
  0
LINE
  8
1
 62
2
 10
27.22061807650002
 20
385.7185314859
 30
0
 11
27.22061807650002
 21
324.5218107014
 31
0
  0
LINE
  8
1
 62
2
 10
339.2206109239
 20
399.468532231
 30
0
 11
339.2206109239
 21
324.5218107014
 31
0
  0
LINE
  8
1
 62
2
 10
339.2206109239
 20
326.0218107014
 30
0
 11
336.0206109239001
 21
325.1578107014
 31
0
  0
LINE
  8
1
 62
2
 10
339.2206109239
 20
326.0218107014
 30
0
 11
336.0206109239001
 21
326.8858107014
 31
0
  0
LINE
  8
1
 62
2
 10
27.22061807650002
 20
326.0218107014
 30
0
 11
30.42061807650002
 21
326.8858107014
 31
0
  0
LINE
  8
1
 62
2
 10
27.22061807650002
 20
326.0218107014
 30
0
 11
30.42061807650002
 21
325.1578107014
 31
0
  0
TEXT
  8
1
 62
2
 10
179.4318957923102
 20
327.0218107014
 30
0
 40
3.2
  1
312
 41
0.9
 51
15
  0
ENDBLK
  8
0
  0
BLOCK
  8
1
  2
*D4
 70
1
 10
0
 20
0
 30
0
  0
LINE
  8
1
 62
2
 10
27.22061807650005
 20
314.0218107014
 30
0
 11
587.2206130101
 21
314.0218107014
 31
0
  0
LINE
  8
1
 62
2
 10
27.22061807650005
 20
385.7185314859
 30
0
 11
27.22061807650005
 21
312.5218107014
 31
0
  0
LINE
  8
1
 62
2
 10
587.2206130101
 20
385.7185314859
 30
0
 11
587.2206130101
 21
312.5218107014
 31
0
  0
LINE
  8
1
 62
2
 10
27.22061807650005
 20
314.0218107014
 30
0
 11
30.42061807650005
 21
314.8858107014
 31
0
  0
LINE
  8
1
 62
2
 10
27.22061807650005
 20
314.0218107014
 30
0
 11
30.42061807650005
 21
313.1578107014
 31
0
  0
LINE
  8
1
 62
2
 10
587.2206130101
 20
314.0218107014
 30
0
 11
584.0206130101
 21
313.1578107014
 31
0
  0
LINE
  8
1
 62
2
 10
587.2206130101
 20
314.0218107014
 30
0
 11
584.0206130101
 21
314.8858107014
 31
0
  0
TEXT
  8
1
 62
2
 10
302.9518968354103
 20
315.0218107014
 30
0
 40
3.2
  1
560
 41
0.9
 51
15
  0
ENDBLK
  8
0
  0
BLOCK
  8
1
  2
*D5
 70
1
 10
0
 20
0
 30
0
  0
LINE
  8
1
 62
2
 10
472.2206130697
 20
334.8093198761
 30
0
 11
587.2206130101
 21
334.8093198761
 31
0
  0
LINE
  8
1
 62
2
 10
472.2206130697
 20
340.2185311106
 30
0
 11
472.2206130697
 21
333.3093198761
 31
0
  0
LINE
  8
1
 62
2
 10
587.2206130101
 20
385.7185314859
 30
0
 11
587.2206130101
 21
333.3093198761
 31
0
  0
LINE
  8
1
 62
2
 10
472.2206130697
 20
334.8093198761
 30
0
 11
475.4206130697
 21
335.6733198761
 31
0
  0
LINE
  8
1
 62
2
 10
472.2206130697
 20
334.8093198761
 30
0
 11
475.4206130697
 21
333.9453198761
 31
0
  0
LINE
  8
1
 62
2
 10
587.2206130101
 20
334.8093198761
 30
0
 11
584.0206130101
 21
333.9453198761
 31
0
  0
LINE
  8
1
 62
2
 10
587.2206130101
 20
334.8093198761
 30
0
 11
584.0206130101
 21
335.6733198761
 31
0
  0
TEXT
  8
1
 62
2
 10
526.4118943320101
 20
335.8093198761
 30
0
 40
3.2
  1
115
 41
0.9
 51
15
  0
ENDBLK
  8
0
  0
BLOCK
  8
1
  2
*D6
 70
1
 10
0
 20
0
 30
0
  0
LINE
  8
1
 62
2
 10
342.2206109239
 20
326.0218107014
 30
0
 11
587.2206130101
 21
326.0218107014
 31
0
  0
LINE
  8
1
 62
2
 10
342.2206109239
 20
399.218532231
 30
0
 11
342.2206109239
 21
324.5218107014
 31
0
  0
LINE
  8
1
 62
2
 10
587.2206130101
 20
385.7185314859
 30
0
 11
587.2206130101
 21
324.5218107014
 31
0
  0
LINE
  8
1
 62
2
 10
587.2206130101
 20
326.0218107014
 30
0
 11
584.0206130101
 21
325.1578107014
 31
0
  0
LINE
  8
1
 62
2
 10
587.2206130101
 20
326.0218107014
 30
0
 11
584.0206130101
 21
326.8858107014
 31
0
  0
LINE
  8
1
 62
2
 10
342.2206109239
 20
326.0218107014
 30
0
 11
345.4206109239
 21
326.8858107014
 31
0
  0
LINE
  8
1
 62
2
 10
342.2206109239
 20
326.0218107014
 30
0
 11
345.4206109239
 21
325.1578107014
 31
0
  0
TEXT
  8
1
 62
2
 10
460.4518932591103
 20
327.0218107014
 30
0
 40
3.2
  1
245
 41
0.9
 51
15
  0
ENDBLK
  8
0
  0
BLOCK
  8
1
  2
*D7
 70
1
 10
0
 20
0
 30
0
  0
LINE
  8
1
 62
2
 10
609.2206109239
 20
632.4756450075
 30
0
 11
609.2206109239
 21
818.4756494182
 31
0
  0
LINE
  8
1
 62
2
 10
585.7206185533
 20
632.4756450075
 30
0
 11
610.2206109239
 21
632.4756450075
 31
0
  0
LINE
  8
1
 62
2
 10
585.7206185533
 20
818.4756494182
 30
0
 11
610.2206109239
 21
818.4756494182
 31
0
  0
LINE
  8
1
 62
2
 10
609.2206109239
 20
818.4756494182
 30
0
 11
610.0306109239
 21
815.4756494182
 31
0
  0
LINE
  8
1
 62
2
 10
609.2206109239
 20
818.4756494182
 30
0
 11
608.4106109239001
 21
815.4756494182
 31
0
  0
LINE
  8
1
 62
2
 10
609.2206109239
 20
632.4756450075
 30
0
 11
608.4106109239001
 21
635.4756450075
 31
0
  0
LINE
  8
1
 62
2
 10
609.2206109239
 20
632.4756450075
 30
0
 11
610.0306109239
 21
635.4756450075
 31
0
  0
TEXT
  8
1
 62
2
 10
608.4206109239001
 20
721.9237234242032
 30
0
 40
3
  1
186
 50
90
 41
0.9
 51
15
  0
ENDBLK
  8
0
  0
BLOCK
  8
1
  2
*D8
 70
1
 10
0
 20
0
 30
0
  0
LINE
  8
1
 62
2
 10
684.7309939751528
 20
391.8519020784167
 30
0
 11
889.7412453707477
 21
503.1337214025368
 31
0
  0
LINE
  8
1
 62
2
 10
848.2008960870471
 20
480.5851629173832
 30
0
 11
845.8006909992804
 21
478.2992251368086
 31
0
  0
LINE
  8
1
 62
2
 10
848.2008960870471
 20
480.5851629173832
 30
0
 11
844.97633038812
 21
479.817913249216
 31
0
  0
LINE
  8
1
 62
2
 10
684.7309939751528
 20
391.8519020784167
 30
0
 11
687.1311990629196
 21
394.1378398589913
 31
0
  0
LINE
  8
1
 62
2
 10
684.7309939751528
 20
391.8519020784167
 30
0
 11
687.95555967408
 21
392.619151746584
 31
0
  0
TEXT
  8
1
 62
2
 10
884.8545074255784
 20
501.6189704406599
 30
0
 40
3.2
  1
D1
 50
28.49359650545831
 41
0.9
 51
15
  0
ENDBLK
  8
0
  0
BLOCK
  8
1
  2
*D9
 70
1
 10
0
 20
0
 30
0
  0
LINE
  8
1
 62
2
 10
698.1398267272334
 20
415.1521659646081
 30
0
 11
895.4545471785086
 21
475.9884082426793
 31
0
  0
LINE
  8
1
 62
2
 10
834.7920603487132
 20
457.2848987552609
 30
0
 11
831.9886724800342
 21
455.5164213147083
 31
0
  0
LINE
  8
1
 62
2
 10
834.7920603487132
 20
457.2848987552609
 30
0
 11
831.4795440741763
 21
457.1677154333767
 31
0
  0
LINE
  8
1
 62
2
 10
698.1398267272334
 20
415.1521659646081
 30
0
 11
700.9432145959124
 21
416.9206434051607
 31
0
  0
LINE
  8
1
 62
2
 10
698.1398267272334
 20
415.1521659646081
 30
0
 11
701.4523430017704
 21
415.2693492864923
 31
0
  0
TEXT
  8
1
 62
2
 10
889.4478135817246
 20
475.1828590158603
 30
0
 40
3.2
  1
D2
 50
17.13562134038695
 41
0.9
 51
15
  0
ENDBLK
  8
0
  0
BLOCK
  8
1
  2
*D10
 70
1
 10
0
 20
0
 30
0
  0
LINE
  8
1
 62
2
 10
718.1284693423405
 20
449.00481172801
 30
0
 11
895.9940488454174
 21
401.9556363185703
 31
0
  0
LINE
  8
1
 62
2
 10
814.8034166742594
 20
423.4322609993902
 30
0
 11
811.4888716526646
 21
423.4153110784298
 31
0
  0
LINE
  8
1
 62
2
 10
814.8034166742594
 20
423.4322609993902
 30
0
 11
811.9307653117473
 21
425.0858541021387
 31
0
  0
LINE
  8
1
 62
2
 10
718.1284693423405
 20
449.00481172801
 30
0
 11
721.4430143639354
 21
449.0217616489704
 31
0
  0
LINE
  8
1
 62
2
 10
718.1284693423405
 20
449.00481172801
 30
0
 11
721.0011207048526
 21
447.3512186252615
 31
0
  0
TEXT
  8
1
 62
2
 10
890.4710900980191
 20
404.4509689084465
 30
0
 40
3.2
  1
D3
 50
345.1834214917768
 41
0.9
 51
15
  0
ENDBLK
  8
0
  0
ENDSEC
  0
SECTION
  2
ENTITIES
  0
POLYLINE
  8
0
 62
7
 66
1
  0
VERTEX
  8
0
 10
335.2357857897
 20
404.0670380558
 30
0
  0
VERTEX
  8
0
 10
337.9229568912
 20
403.4514226581
 30
0
  0
VERTEX
  8
0
 10
340.7206052019
 20
403.2185324098
 30
0
  0
SEQEND
  8
0
  0
POLYLINE
  8
0
 62
7
 66
1
  0
VERTEX
  8
0
 10
346.2054395153
 20
404.0670380558
 30
0
  0
VERTEX
  8
0
 10
348.2015320136
 20
403.2858223284
 30
0
  0
VERTEX
  8
0
 10
348.9478492214
 20
403.2185324098
 30
0
  0
SEQEND
  8
0
  0
POLYLINE
  8
0
 62
7
 66
1
  0
VERTEX
  8
0
 10
348.9478492214
 20
403.2185324098
 30
0
  0
VERTEX
  8
0
 10
350.997265525
 20
403.7072681452
 30
0
  0
VERTEX
  8
0
 10
351.6902663781
 20
404.0670380558
 30
0
  0
SEQEND
  8
0
  0
POLYLINE
  8
0
 62
7
 66
1
  0
VERTEX
  8
0
 10
329.7509514763
 20
404.0670380558
 30
0
  0
VERTEX
  8
0
 10
331.0945444776
 20
403.4514226581
 30
0
  0
VERTEX
  8
0
 10
332.4933760836
 20
403.2185324098
 30
0
  0
SEQEND
  8
0
  0
POLYLINE
  8
0
 62
7
 66
1
  0
VERTEX
  8
0
 10
346.2054395153
 20
470.370026734
 30
0
  0
VERTEX
  8
0
 10
342.2132545187
 20
471.1512424613
 30
0
  0
VERTEX
  8
0
 10
340.7206052019
 20
471.21853238
 30
0
  0
SEQEND
  8
0
  0
POLYLINE
  8
0
 62
7
 66
1
  0
VERTEX
  8
0
 10
340.7206052019
 20
471.21853238
 30
0
  0
VERTEX
  8
0
 10
336.6217874958
 20
470.7297966446
 30
0
  0
VERTEX
  8
0
 10
335.2357857897
 20
470.370026734
 30
0
  0
SEQEND
  8
0
  0
POLYLINE
  8
0
 62
7
 66
1
  0
VERTEX
  8
0
 10
335.2357857897
 20
470.370026734
 30
0
  0
VERTEX
  8
0
 10
333.8921927883
 20
470.9856421317
 30
0
  0
VERTEX
  8
0
 10
332.4933611824
 20
471.21853238
 30
0
  0
SEQEND
  8
0
  0
POLYLINE
  8
0
 62
7
 66
1
  0
VERTEX
  8
0
 10
351.6902663781
 20
470.370026734
 30
0
  0
VERTEX
  8
0
 10
350.3466808273
 20
470.9856421317
 30
0
  0
VERTEX
  8
0
 10
348.9478492214
 20
471.21853238
 30
0
  0
SEQEND
  8
0
  0
POLYLINE
  8
0
 62
7
 66
1
  0
VERTEX
  8
0
 10
519.0616847052
 20
500.0670351649
 30
0
  0
VERTEX
  8
0
 10
521.7488558068
 20
499.4514234925
 30
0
  0
VERTEX
  8
0
 10
524.546511568
 20
499.2185332442
 30
0
  0
SEQEND
  8
0
  0
POLYLINE
  8
0
 62
7
 66
1
  0
VERTEX
  8
0
 10
516.3192712738
 20
499.2185332442
 30
0
  0
VERTEX
  8
0
 10
517.0655922069
 20
499.2858194376
 30
0
  0
VERTEX
  8
0
 10
519.0616847052
 20
500.0670351649
 30
0
  0
SEQEND
  8
0
  0
POLYLINE
  8
0
 62
7
 66
1
  0
VERTEX
  8
0
 10
530.0313384308
 20
500.0670351649
 30
0
  0
VERTEX
  8
0
 10
531.3749277069001
 20
499.4514234925
 30
0
  0
VERTEX
  8
0
 10
532.7737555875
 20
499.2185332442
 30
0
  0
SEQEND
  8
0
  0
POLYLINE
  8
0
 62
7
 66
1
  0
VERTEX
  8
0
 10
513.5768578424001
 20
500.0670351649
 30
0
  0
VERTEX
  8
0
 10
514.2698586954
 20
499.7072689797
 30
0
  0
VERTEX
  8
0
 10
516.3192712738
 20
499.2185332442
 30
0
  0
SEQEND
  8
0
  0
POLYLINE
  8
0
 62
7
 66
1
  0
VERTEX
  8
0
 10
414.4098834171
 20
500.0670351649
 30
0
  0
VERTEX
  8
0
 10
417.0970545186
 20
499.4514234925
 30
0
  0
VERTEX
  8
0
 10
419.8947102799
 20
499.2185332442
 30
0
  0
SEQEND
  8
0
  0
POLYLINE
  8
0
 62
7
 66
1
  0
VERTEX
  8
0
 10
425.3795371427
 20
500.0670351649
 30
0
  0
VERTEX
  8
0
 10
427.375629641
 20
499.2858194376
 30
0
  0
VERTEX
  8
0
 10
428.1219505741
 20
499.2185332442
 30
0
  0
SEQEND
  8
0
  0
POLYLINE
  8
0
 62
7
 66
1
  0
VERTEX
  8
0
 10
428.1219505741
 20
499.2185332442
 30
0
  0
VERTEX
  8
0
 10
430.1713631524
 20
499.7072689797
 30
0
  0
VERTEX
  8
0
 10
430.8643640055
 20
500.0670351649
 30
0
  0
SEQEND
  8
0
  0
POLYLINE
  8
0
 62
7
 66
1
  0
VERTEX
  8
0
 10
408.925052829
 20
500.0670351649
 30
0
  0
VERTEX
  8
0
 10
410.2686383798
 20
499.4514234925
 30
0
  0
VERTEX
  8
0
 10
411.6674662604
 20
499.2185332442
 30
0
  0
SEQEND
  8
0
  0
POLYLINE
  8
0
 62
7
 66
1
  0
VERTEX
  8
0
 10
414.4098834171
 20
545.8700232769
 30
0
  0
VERTEX
  8
0
 10
413.066294141
 20
546.4856423999
 30
0
  0
VERTEX
  8
0
 10
411.6674662604
 20
546.7185326482
 30
0
  0
SEQEND
  8
0
  0
POLYLINE
  8
0
 62
7
 66
1
  0
VERTEX
  8
0
 10
419.8947102799
 20
546.7185326482
 30
0
  0
VERTEX
  8
0
 10
415.7958813979
 20
546.2297969128
 30
0
  0
VERTEX
  8
0
 10
414.4098834171
 20
545.8700232769
 30
0
  0
SEQEND
  8
0
  0
POLYLINE
  8
0
 62
7
 66
1
  0
VERTEX
  8
0
 10
425.3795371427
 20
545.8700232769
 30
0
  0
VERTEX
  8
0
 10
421.3873484208
 20
546.6512464548
 30
0
  0
VERTEX
  8
0
 10
419.8947102799
 20
546.7185326482
 30
0
  0
SEQEND
  8
0
  0
POLYLINE
  8
0
 62
7
 66
1
  0
VERTEX
  8
0
 10
430.8643640055
 20
545.8700232769
 30
0
  0
VERTEX
  8
0
 10
429.5207784547
 20
546.4856423999
 30
0
  0
VERTEX
  8
0
 10
428.1219505741
 20
546.7185326482
 30
0
  0
SEQEND
  8
0
  0
POLYLINE
  8
0
 62
7
 66
1
  0
VERTEX
  8
0
 10
535.5161690189
 20
545.8700232769
 30
0
  0
VERTEX
  8
0
 10
534.1725834681
 20
546.4856423999
 30
0
  0
VERTEX
  8
0
 10
532.7737555875
 20
546.7185326482
 30
0
  0
SEQEND
  8
0
  0
POLYLINE
  8
0
 62
7
 66
1
  0
VERTEX
  8
0
 10
530.0313384308
 20
545.8700232769
 30
0
  0
VERTEX
  8
0
 10
526.0391534342
 20
546.6512464548
 30
0
  0
VERTEX
  8
0
 10
524.546511568
 20
546.7185326482
 30
0
  0
SEQEND
  8
0
  0
POLYLINE
  8
0
 62
7
 66
1
  0
VERTEX
  8
0
 10
519.0616847052
 20
545.8700232769
 30
0
  0
VERTEX
  8
0
 10
517.7180991544
 20
546.4856423999
 30
0
  0
VERTEX
  8
0
 10
516.3192712738
 20
546.7185326482
 30
0
  0
SEQEND
  8
0
  0
POLYLINE
  8
0
 62
7
 66
1
  0
VERTEX
  8
0
 10
524.546511568
 20
546.7185326482
 30
0
  0
VERTEX
  8
0
 10
520.4476864113
 20
546.2297969128
 30
0
  0
VERTEX
  8
0
 10
519.0616847052
 20
545.8700232769
 30
0
  0
SEQEND
  8
0
  0
POLYLINE
  8
0
 62
7
 66
1
  0
VERTEX
  8
0
 10
354.7437154724
 20
421.9029624577
 30
0
  0
VERTEX
  8
0
 10
354.3716111257
 20
421.3955127264
 30
0
  0
VERTEX
  8
0
 10
353.8620286657
 20
421.2185325662
 30
0
  0
SEQEND
  8
0
  0
POLYLINE
  8
0
 62
7
 66
1
  0
VERTEX
  8
0
 10
327.5791966392
 20
421.2185325662
 30
0
  0
VERTEX
  8
0
 10
327.0619326307
 20
421.401638035
 30
0
  0
VERTEX
  8
0
 10
326.6975098326
 20
421.9029624577
 30
0
  0
SEQEND
  8
0
  0
POLYLINE
  8
0
 62
7
 66
1
  0
VERTEX
  8
0
 10
346.7612230255
 20
421.2185325662
 30
0
  0
VERTEX
  8
0
 10
347.6512172295
 20
421.4750588502
 30
0
  0
VERTEX
  8
0
 10
348.1207751705
 20
422.02002598
 30
0
  0
VERTEX
  8
0
 10
348.447192557
 20
422.8575755472
 30
0
  0
VERTEX
  8
0
 10
348.5608437135
 20
423.3564887757
 30
0
  0
SEQEND
  8
0
  0
POLYLINE
  8
0
 62
7
 66
1
  0
VERTEX
  8
0
 10
332.8803741409
 20
423.3564887757
 30
0
  0
VERTEX
  8
0
 10
333.1174516155
 20
422.4667218144
 30
0
  0
VERTEX
  8
0
 10
333.4706687405
 20
421.789911073
 30
0
  0
VERTEX
  8
0
 10
333.9680247976
 20
421.3685881908
 30
0
  0
VERTEX
  8
0
 10
334.6799873783
 20
421.2185325662
 30
0
  0
SEQEND
  8
0
  0
POLYLINE
  8
0
 62
7
 66
1
  0
VERTEX
  8
0
 10
353.8620286657
 20
451.2185318957
 30
0
  0
VERTEX
  8
0
 10
354.3792852237
 20
451.0354264269
 30
0
  0
VERTEX
  8
0
 10
354.7437154724
 20
450.5341020043
 30
0
  0
SEQEND
  8
0
  0
POLYLINE
  8
0
 62
7
 66
1
  0
VERTEX
  8
0
 10
326.6975098326
 20
450.5341020043
 30
0
  0
VERTEX
  8
0
 10
327.0696067287
 20
451.0415517355
 30
0
  0
VERTEX
  8
0
 10
327.5791966392
 20
451.2185318957
 30
0
  0
SEQEND
  8
0
  0
POLYLINE
  8
0
 62
7
 66
1
  0
VERTEX
  8
0
 10
334.6799873783
 20
451.2185318957
 30
0
  0
VERTEX
  8
0
 10
333.7900006248
 20
450.9620056118
 30
0
  0
VERTEX
  8
0
 10
333.3204501345
 20
450.4170384819
 30
0
  0
VERTEX
  8
0
 10
332.9940252973
 20
449.5794889147
 30
0
  0
VERTEX
  8
0
 10
332.8803741409
 20
449.0805756862
 30
0
  0
SEQEND
  8
0
  0
POLYLINE
  8
0
 62
7
 66
1
  0
VERTEX
  8
0
 10
348.5608437135
 20
449.0805756862
 30
0
  0
VERTEX
  8
0
 10
348.3237662389
 20
449.9703426475
 30
0
  0
VERTEX
  8
0
 10
347.9705491139
 20
450.647153389
 30
0
  0
VERTEX
  8
0
 10
347.4731930568
 20
451.0684762711
 30
0
  0
VERTEX
  8
0
 10
346.7612230255
 20
451.2185318957
 30
0
  0
SEQEND
  8
0
  0
POLYLINE
  8
0
 62
7
 66
1
  0
VERTEX
  8
0
 10
459.2691381498
 20
460.4528084959
 30
0
  0
VERTEX
  8
0
 10
459.3842067792
 20
462.5577595646
 30
0
  0
VERTEX
  8
0
 10
459.6809177696
 20
464.1967531855
 30
0
  0
VERTEX
  8
0
 10
460.2280660568
 20
465.7619003768
 30
0
  0
VERTEX
  8
0
 10
461.5356764792
 20
467.6795065964
 30
0
  0
VERTEX
  8
0
 10
462.0189006476
 20
468.1172580088
 30
0
  0
SEQEND
  8
0
  0
POLYLINE
  8
0
 62
7
 66
1
  0
VERTEX
  8
0
 10
401.7238729669
 20
481.7799911464
 30
0
  0
VERTEX
  8
0
 10
401.4757760837
 20
481.242208239
 30
0
  0
VERTEX
  8
0
 10
401.0133781506
 20
479.8557743992
 30
0
  0
SEQEND
  8
0
  0
POLYLINE
  8
0
 62
7
 66
1
  0
VERTEX
  8
0
 10
531.4659067466
 20
499.2185332442
 30
0
  0
VERTEX
  8
0
 10
531.8971277251
 20
498.8126405145
 30
0
  0
VERTEX
  8
0
 10
532.6261931135
 20
497.1391246284
 30
0
  0
VERTEX
  8
0
 10
532.7206105961
 20
494.9845247532
 30
0
  0
VERTEX
  8
0
 10
532.7206105961
 20
488.4433620239
 30
0
  0
VERTEX
  8
0
 10
532.8301713838
 20
484.1001205708
 30
0
  0
VERTEX
  8
0
 10
533.0397785677
 20
482.6136068071
 30
0
  0
SEQEND
  8
0
  0
POLYLINE
  8
0
 62
7
 66
1
  0
VERTEX
  8
0
 10
410.0660123898
 20
378.2117948497
 30
0
  0
VERTEX
  8
0
 10
405.3883665277
 20
381.8830460871
 30
0
  0
VERTEX
  8
0
 10
400.91019506
 20
385.8304940726
 30
0
  0
VERTEX
  8
0
 10
396.6447078659
 20
390.0483050014
 30
0
  0
VERTEX
  8
0
 10
392.4744092895
 20
394.3794727887
 30
0
  0
VERTEX
  8
0
 10
387.8787421657
 20
398.1628515388
 30
0
  0
VERTEX
  8
0
 10
381.2356554939
 20
402.1280505325
 30
0
  0
VERTEX
  8
0
 10
374.0280234291
 20
404.9077503945
 30
0
  0
VERTEX
  8
0
 10
366.4123528673
 20
406.4328060116
 30
0
  0
SEQEND
  8
0
  0
POLYLINE
  8
0
 62
7
 66
1
  0
VERTEX
  8
0
 10
542.7198299243
 20
468.5224988128
 30
0
  0
VERTEX
  8
0
 10
545.9180065467
 20
467.3591223175
 30
0
  0
VERTEX
  8
0
 10
549.3207761123
 20
467.3194386626
 30
0
  0
VERTEX
  8
0
 10
552.9002809002
 20
468.257969674
 30
0
  0
VERTEX
  8
0
 10
556.4139970614
 20
469.4727458621
 30
0
  0
VERTEX
  8
0
 10
563.2527732326
 20
471.6635741855
 30
0
  0
SEQEND
  8
0
  0
POLYLINE
  8
0
 62
7
 66
1
  0
VERTEX
  8
0
 10
563.7879484369
 20
401.0151014293
 30
0
  0
VERTEX
  8
0
 10
555.5994697883
 20
404.1631393696
 30
0
  0
VERTEX
  8
0
 10
546.8111001923001
 20
407.5517491068
 30
0
  0
SEQEND
  8
0
  0
POLYLINE
  8
0
 62
7
 66
1
  0
VERTEX
  8
0
 10
533.0397785677
 20
482.6136068071
 30
0
  0
VERTEX
  8
0
 10
533.3884433879
 20
481.4719655181
 30
0
  0
VERTEX
  8
0
 10
533.6877257599
 20
480.8982447351
 30
0
  0
SEQEND
  8
0
  0
POLYLINE
  8
0
 62
7
 66
1
  0
VERTEX
  8
0
 10
420.4063677265
 20
563.7185298468
 30
0
  0
VERTEX
  8
0
 10
420.9212549998
 20
563.3034281994
 30
0
  0
VERTEX
  8
0
 10
421.4550034179
 20
562.1110968853
 30
0
  0
VERTEX
  8
0
 10
421.909920968
 20
560.2552168633
 30
0
  0
VERTEX
  8
0
 10
422.1703671886
 20
558.0111615921001
 30
0
  0
VERTEX
  8
0
 10
422.2088233604
 20
556.718530562
 30
0
  0
SEQEND
  8
0
  0
POLYLINE
  8
0
 62
7
 66
1
  0
VERTEX
  8
0
 10
472.2240303187
 20
428.2202464158
 30
0
  0
VERTEX
  8
0
 10
463.5899384542
 20
428.5395331311
 30
0
  0
VERTEX
  8
0
 10
454.9432192965
 20
430.003142413
 30
0
  0
VERTEX
  8
0
 10
449.2253308221
 20
431.4841278459
 30
0
  0
VERTEX
  8
0
 10
443.6934777572
 20
432.8995274476
 30
0
  0
VERTEX
  8
0
 10
438.5046922638
 20
434.5574451939
 30
0
  0
VERTEX
  8
0
 10
430.9376292898
 20
437.3140090241
 30
0
  0
VERTEX
  8
0
 10
423.7680808677
 20
440.2926927063
 30
0
  0
VERTEX
  8
0
 10
420.3394875898
 20
441.822138578
 30
0
  0
VERTEX
  8
0
 10
416.9881940855
 20
443.3429617996
 30
0
  0
VERTEX
  8
0
 10
413.7126208319
 20
444.8024197112
 30
0
  0
VERTEX
  8
0
 10
410.5954171194
 20
446.0888239185
 30
0
  0
SEQEND
  8
0
  0
POLYLINE
  8
0
 62
7
 66
1
  0
VERTEX
  8
0
 10
505.139365889
 20
428.8792684304
 30
0
  0
VERTEX
  8
0
 10
502.3294408842
 20
429.1357183459
 30
0
  0
VERTEX
  8
0
 10
499.2864747568
 20
429.2983449626
 30
0
  0
VERTEX
  8
0
 10
496.1880520954
 20
429.3659561875
 30
0
  0
VERTEX
  8
0
 10
493.0059053971
 20
429.3543910238
 30
0
  0
VERTEX
  8
0
 10
489.550784327
 20
429.2701226289
 30
0
  0
VERTEX
  8
0
 10
487.606396064
 20
429.1955330039
 30
0
  0
VERTEX
  8
0
 10
485.5314773543
 20
429.0980076979
 30
0
  0
VERTEX
  8
0
 10
483.3257720842
 20
428.9775471764
 30
0
  0
VERTEX
  8
0
 10
480.9899591877
 20
428.8341505083
 30
0
  0
VERTEX
  8
0
 10
478.9073756932
 20
428.6950220915
 30
0
  0
VERTEX
  8
0
 10
476.6307152844
 20
428.5338199328
 30
0
  0
VERTEX
  8
0
 10
473.9367496026
 20
428.3352181877
 30
0
  0
VERTEX
  8
0
 10
472.2206111643
 20
428.2008506919
 30
0
  0
SEQEND
  8
0
  0
POLYLINE
  8
0
 62
7
 66
1
  0
VERTEX
  8
0
 10
526.4907666518
 20
412.6023840721
 30
0
  0
VERTEX
  8
0
 10
525.8491561784
 20
412.9905388321
 30
0
  0
VERTEX
  8
0
 10
524.8096101953
 20
413.7210999246
 30
0
  0
VERTEX
  8
0
 10
523.794904448
 20
414.5092744942
 30
0
  0
VERTEX
  8
0
 10
522.5396902336
 20
415.5332692529
 30
0
  0
VERTEX
  8
0
 10
521.222233869
 20
416.633032691
 30
0
  0
VERTEX
  8
0
 10
519.6466074361
 20
417.9506883587
 30
0
  0
VERTEX
  8
0
 10
518.3570087923
 20
419.017244559
 30
0
  0
VERTEX
  8
0
 10
517.2454492225
 20
419.869125318
 30
0
  0
VERTEX
  8
0
 10
516.3293258323
 20
420.5621131326
 30
0
  0
VERTEX
  8
0
 10
515.2954460158001
 20
421.4399517144
 30
0
  0
VERTEX
  8
0
 10
514.146570213
 20
422.4925129304
 30
0
  0
VERTEX
  8
0
 10
512.969061829
 20
423.6756595413
 30
0
  0
VERTEX
  8
0
 10
511.74080009
 20
424.9174273203
 30
0
  0
VERTEX
  8
0
 10
510.4945414736
 20
425.9102674763
 30
0
  0
VERTEX
  8
0
 10
509.1692918016
 20
426.6574796851
 30
0
  0
VERTEX
  8
0
 10
507.8436435236
 20
427.3792211528
 30
0
  0
VERTEX
  8
0
 10
506.7487211003
 20
427.9890744577
 30
0
  0
VERTEX
  8
0
 10
505.139365889
 20
428.8792684304
 30
0
  0
SEQEND
  8
0
  0
POLYLINE
  8
0
 62
7
 66
1
  0
VERTEX
  8
0
 10
410.3058167769
 20
445.6681054647
 30
0
  0
VERTEX
  8
0
 10
406.9429301693
 20
448.5424882362
 30
0
  0
VERTEX
  8
0
 10
404.1702040507
 20
451.1448586921
 30
0
  0
VERTEX
  8
0
 10
402.9321261718
 20
452.3789626176
 30
0
  0
VERTEX
  8
0
 10
401.8245675637
 20
453.6173962618
 30
0
  0
VERTEX
  8
0
 10
400.6733858063
 20
455.0042920376
 30
0
  0
VERTEX
  8
0
 10
399.5597475244
 20
456.4487007077
 30
0
  0
VERTEX
  8
0
 10
397.8666552379
 20
458.9087781126
 30
0
  0
VERTEX
  8
0
 10
396.6984116508
 20
460.8041983659
 30
0
  0
VERTEX
  8
0
 10
396.0289918854
 20
461.9023301269
 30
0
  0
VERTEX
  8
0
 10
395.5795803143
 20
462.4952547814
 30
0
  0
SEQEND
  8
0
  0
POLYLINE
  8
0
 62
7
 66
1
  0
VERTEX
  8
0
 10
399.8542413189
 20
723.9750900361
 30
0
  0
VERTEX
  8
0
 10
400.3763258531
 20
718.1125224623
 30
0
  0
VERTEX
  8
0
 10
400.3969565107
 20
718.0045253652
 30
0
  0
SEQEND
  8
0
  0
POLYLINE
  8
0
 62
7
 66
1
  0
VERTEX
  8
0
 10
405.0609082057
 20
768.6589404064
 30
0
  0
VERTEX
  8
0
 10
400.0158816649
 20
766.5568820256
 30
0
  0
VERTEX
  8
0
 10
393.0347099974
 20
763.6480934042
 30
0
  0
VERTEX
  8
0
 10
387.1879637315
 20
761.2119733411
 30
0
  0
VERTEX
  8
0
 10
380.8176279141
 20
758.557685377
 30
0
  0
VERTEX
  8
0
 10
377.3641198947
 20
757.2609416264
 30
0
  0
VERTEX
  8
0
 10
373.6092135384
 20
756.2136470395
 30
0
  0
VERTEX
  8
0
 10
369.5725113227
 20
755.4593949634
 30
0
  0
VERTEX
  8
0
 10
366.6078694238
 20
755.17177275
 30
0
  0
SEQEND
  8
0
  0
POLYLINE
  8
0
 62
7
 66
1
  0
VERTEX
  8
0
 10
366.6071392669
 20
695.7736860084
 30
0
  0
VERTEX
  8
0
 10
369.9942737891
 20
695.429977687
 30
0
  0
VERTEX
  8
0
 10
374.4828164651
 20
694.5251549649
 30
0
  0
VERTEX
  8
0
 10
378.6989510133
 20
693.2293201852
 30
0
  0
VERTEX
  8
0
 10
384.5700159742
 20
690.8300991225
 30
0
  0
VERTEX
  8
0
 10
390.2422323896
 20
688.4666930008
 30
0
  0
VERTEX
  8
0
 10
401.0630607678
 20
683.9580672848
 30
0
  0
VERTEX
  8
0
 10
405.1298633291
 20
682.2636152673
 30
0
  0
SEQEND
  8
0
  0
POLYLINE
  8
0
 62
7
 66
1
  0
VERTEX
  8
0
 10
448.970614381
 20
623.5130733865
 30
0
  0
VERTEX
  8
0
 10
449.0383401586
 20
623.570889892
 30
0
  0
VERTEX
  8
0
 10
449.1060510351
 20
623.6287436503
 30
0
  0
VERTEX
  8
0
 10
449.1736874058
 20
623.6865080017
 30
0
  0
VERTEX
  8
0
 10
449.2412641718
 20
623.7440786379
 30
0
  0
VERTEX
  8
0
 10
449.2836728765
 20
623.7801170963001
 30
0
  0
VERTEX
  8
0
 10
449.3260368778
 20
623.8160139936
 30
0
  0
VERTEX
  8
0
 10
449.3683412744
 20
623.851732077
 30
0
  0
VERTEX
  8
0
 10
449.4105711653
 20
623.8872415441
 30
0
  0
VERTEX
  8
0
 10
449.4527265503
 20
623.9225274938
 30
0
  0
VERTEX
  8
0
 10
449.4878038837
 20
623.9517412203001
 30
0
  0
VERTEX
  8
0
 10
449.5228067114
 20
623.9807537812
 30
0
  0
VERTEX
  8
0
 10
449.5577499344
 20
624.0095577258001
 30
0
  0
VERTEX
  8
0
 10
449.5926335527
 20
624.0381381529001
 30
0
  0
VERTEX
  8
0
 10
449.6274277641
 20
624.0664727109
 30
0
  0
VERTEX
  8
0
 10
449.6621474697
 20
624.0945464986
 30
0
  0
VERTEX
  8
0
 10
449.694810815
 20
624.1207725423
 30
0
  0
VERTEX
  8
0
 10
449.7273996546
 20
624.1467378157
 30
0
  0
VERTEX
  8
0
 10
449.7598990871
 20
624.1724348682
 30
0
  0
VERTEX
  8
0
 10
449.7923240139
 20
624.197841348
 30
0
  0
VERTEX
  8
0
 10
449.8246595337
 20
624.2229572552
 30
0
  0
VERTEX
  8
0
 10
449.8539701177
 20
624.2455250639
 30
0
  0
VERTEX
  8
0
 10
449.883206196
 20
624.267817201
 30
0
  0
VERTEX
  8
0
 10
449.9123677685
 20
624.2898411172
 30
0
  0
VERTEX
  8
0
 10
449.941439934
 20
624.3115744608
 30
0
  0
VERTEX
  8
0
 10
449.9704226925
 20
624.3330097812
 30
0
  0
VERTEX
  8
0
 10
449.999316044
 20
624.3541396278
 30
0
  0
VERTEX
  8
0
 10
450.0281199886
 20
624.37495655
 30
0
  0
VERTEX
  8
0
 10
450.0544354393
 20
624.3937469142001
 30
0
  0
VERTEX
  8
0
 10
450.0806763842
 20
624.4122541564
 30
0
  0
VERTEX
  8
0
 10
450.1068428232
 20
624.4304782766
 30
0
  0
VERTEX
  8
0
 10
450.1329049541
 20
624.4484043735
 30
0
  0
VERTEX
  8
0
 10
450.1588925793
 20
624.466017546
 30
0
  0
VERTEX
  8
0
 10
450.1847907974
 20
624.4833252448
 30
0
  0
VERTEX
  8
0
 10
450.2105996086
 20
624.5003125685
 30
0
  0
VERTEX
  8
0
 10
450.2363041117
 20
624.5169646162
 30
0
  0
VERTEX
  8
0
 10
450.2619192078
 20
624.5332888382
 30
0
  0
VERTEX
  8
0
 10
450.2874299957
 20
624.549262883
 30
0
  0
VERTEX
  8
0
 10
450.3128513767
 20
624.5648942011
 30
0
  0
VERTEX
  8
0
 10
450.3381535484
 20
624.5801604408
 30
0
  0
VERTEX
  8
0
 10
450.3619358017
 20
624.5942122358
 30
0
  0
VERTEX
  8
0
 10
450.3856137468
 20
624.6079436558
 30
0
  0
VERTEX
  8
0
 10
450.4091873838
 20
624.6213248986001
 30
0
  0
VERTEX
  8
0
 10
450.4326716139
 20
624.6343708652
 30
0
  0
VERTEX
  8
0
 10
450.4560515358
 20
624.647059204
 30
0
  0
VERTEX
  8
0
 10
450.4771813824
 20
624.6582574266
 30
0
  0
VERTEX
  8
0
 10
450.498221822
 20
624.669157626
 30
0
  0
VERTEX
  8
0
 10
450.5191728546
 20
624.6797523516
 30
0
  0
VERTEX
  8
0
 10
450.5400493814
 20
624.6900416034
 30
0
  0
VERTEX
  8
0
 10
450.5608216001
 20
624.7000179308
 30
0
  0
VERTEX
  8
0
 10
450.581146784
 20
624.7094950694
 30
0
  0
VERTEX
  8
0
 10
450.6013676597
 20
624.7186667341
 30
0
  0
VERTEX
  8
0
 10
450.6215140297
 20
624.7275254744
 30
0
  0
VERTEX
  8
0
 10
450.6415709927
 20
624.7360563892
 30
0
  0
VERTEX
  8
0
 10
450.66194088
 20
624.7444308418
 30
0
  0
VERTEX
  8
0
 10
450.6822064592
 20
624.7524551171
 30
0
  0
VERTEX
  8
0
 10
450.7023826315
 20
624.7601292151001
 30
0
  0
VERTEX
  8
0
 10
450.7224544956
 20
624.7674531358
 30
0
  0
VERTEX
  8
0
 10
450.7424220516
 20
624.7744194287
 30
0
  0
VERTEX
  8
0
 10
450.7623002006
 20
624.7810206431
 30
0
  0
VERTEX
  8
0
 10
450.7820591404
 20
624.7872567791
 30
0
  0
VERTEX
  8
0
 10
450.7992699816
 20
624.7923976797
 30
0
  0
VERTEX
  8
0
 10
450.8164063169
 20
624.7972554582
 30
0
  0
VERTEX
  8
0
 10
450.8334532453
 20
624.8018226641
 30
0
  0
VERTEX
  8
0
 10
450.8504256679
 20
624.8060918468
 30
0
  0
VERTEX
  8
0
 10
450.8673086836
 20
624.8100630063
 30
0
  0
VERTEX
  8
0
 10
450.8841022922
 20
624.8137286919
 30
0
  0
VERTEX
  8
0
 10
450.9008064939
 20
624.8170963543
 30
0
  0
VERTEX
  8
0
 10
450.9174361898
 20
624.8201510924
 30
0
  0
VERTEX
  8
0
 10
450.9347662403
 20
624.8230121153
 30
0
  0
VERTEX
  8
0
 10
450.9519919826
 20
624.8255304116
 30
0
  0
VERTEX
  8
0
 10
450.969128318
 20
624.8276985305
 30
0
  0
VERTEX
  8
0
 10
450.9861603453
 20
624.8295164722
 30
0
  0
VERTEX
  8
0
 10
451.0030880644
 20
624.830976786
 30
0
  0
VERTEX
  8
0
 10
451.0199263765
 20
624.8320720213
 30
0
  0
VERTEX
  8
0
 10
451.0342463924
 20
624.8327202219
 30
0
  0
VERTEX
  8
0
 10
451.0484770014
 20
624.8331002015
 30
0
  0
VERTEX
  8
0
 10
451.0626480057
 20
624.8332119602
 30
0
  0
VERTEX
  8
0
 10
451.0767445042
 20
624.8330405968
 30
0
  0
VERTEX
  8
0
 10
451.0907515957
 20
624.8326010126
 30
0
  0
VERTEX
  8
0
 10
451.1044457628
 20
624.8318932074
 30
0
  0
VERTEX
  8
0
 10
451.118050523
 20
624.8309171814
 30
0
  0
VERTEX
  8
0
 10
451.1315956785
 20
624.8296729344
 30
0
  0
VERTEX
  8
0
 10
451.1450514271
 20
624.8281455654
 30
0
  0
VERTEX
  8
0
 10
451.1587008907
 20
624.826305272
 30
0
  0
VERTEX
  8
0
 10
451.1722758486
 20
624.8241669553
 30
0
  0
VERTEX
  8
0
 10
451.1857763006
 20
624.8217455166
 30
0
  0
VERTEX
  8
0
 10
451.1991873457
 20
624.8190186041001
 30
0
  0
VERTEX
  8
0
 10
451.2125089838
 20
624.8159936684
 30
0
  0
VERTEX
  8
0
 10
451.2257561161
 20
624.81267816
 30
0
  0
VERTEX
  8
0
 10
451.2389138414
 20
624.8090497273
 30
0
  0
VERTEX
  8
0
 10
451.251997061
 20
624.8051158207001
 30
0
  0
VERTEX
  8
0
 10
451.2649908735
 20
624.8008764404
 30
0
  0
VERTEX
  8
0
 10
451.2778952791
 20
624.7963315862
 30
0
  0
VERTEX
  8
0
 10
451.2907102777
 20
624.7914663571
 30
0
  0
VERTEX
  8
0
 10
451.3034358694
 20
624.7862882036
 30
0
  0
VERTEX
  8
0
 10
451.3160869553
 20
624.7807971257
 30
0
  0
VERTEX
  8
0
 10
451.328633733
 20
624.7749856728
 30
0
  0
VERTEX
  8
0
 10
451.3400629236
 20
624.769367935
 30
0
  0
VERTEX
  8
0
 10
451.3514176084
 20
624.7634894269
 30
0
  0
VERTEX
  8
0
 10
451.3626977875
 20
624.7573277968
 30
0
  0
VERTEX
  8
0
 10
451.3739034607
 20
624.7508904952
 30
0
  0
VERTEX
  8
0
 10
451.3850346281
 20
624.744177522
 30
0
  0
VERTEX
  8
0
 10
451.3960763885
 20
624.7371888773999
 30
0
  0
VERTEX
  8
0
 10
451.4069393351
 20
624.7299916166001
 30
0
  0
VERTEX
  8
0
 10
451.4177277758
 20
624.7225186842001
 30
0
  0
VERTEX
  8
0
 10
451.4284268095
 20
624.7147626298
 30
0
  0
VERTEX
  8
0
 10
451.4390513374
 20
624.706730904
 30
0
  0
VERTEX
  8
0
 10
451.4496013595
 20
624.698416056
 30
0
  0
VERTEX
  8
0
 10
451.4600619747
 20
624.689818086
 30
0
  0
VERTEX
  8
0
 10
451.4704629852
 20
624.6809295434
 30
0
  0
VERTEX
  8
0
 10
451.4818027689
 20
624.6708191055
 30
0
  0
VERTEX
  8
0
 10
451.4930382444
 20
624.6603808421
 30
0
  0
VERTEX
  8
0
 10
451.5041992142
 20
624.6496073025
 30
0
  0
VERTEX
  8
0
 10
451.5152707769
 20
624.638513388
 30
0
  0
VERTEX
  8
0
 10
451.5262678339
 20
624.6271139997
 30
0
  0
VERTEX
  8
0
 10
451.5371754839
 20
624.6154091376
 30
0
  0
VERTEX
  8
0
 10
451.5480235292
 20
624.6034211534
 30
0
  0
VERTEX
  8
0
 10
451.5587970688
 20
624.5911500472
 30
0
  0
VERTEX
  8
0
 10
451.5694961025
 20
624.5786181706
 30
0
  0
VERTEX
  8
0
 10
451.5801355316
 20
624.5658180731
 30
0
  0
VERTEX
  8
0
 10
451.5905365421
 20
624.5530105251
 30
0
  0
VERTEX
  8
0
 10
451.600877948
 20
624.5399645585
 30
0
  0
VERTEX
  8
0
 10
451.6111746504
 20
624.526702525
 30
0
  0
VERTEX
  8
0
 10
451.6214266493
 20
624.5132318753
 30
0
  0
VERTEX
  8
0
 10
451.6346737816
 20
624.4954249877
 30
0
  0
VERTEX
  8
0
 10
451.6478464081
 20
624.4773051756
 30
0
  0
VERTEX
  8
0
 10
451.6609892322
 20
624.4588798898
 30
0
  0
VERTEX
  8
0
 10
451.6740724518
 20
624.4401714819001
 30
0
  0
VERTEX
  8
0
 10
451.6871109678
 20
624.4212097543
 30
0
  0
VERTEX
  8
0
 10
451.7001196815
 20
624.4020021575
 30
0
  0
VERTEX
  8
0
 10
451.7131134941
 20
624.3825784939
 30
0
  0
VERTEX
  8
0
 10
451.730950184
 20
624.3555552381
 30
0
  0
VERTEX
  8
0
 10
451.7487719728
 20
624.3282116073
 30
0
  0
VERTEX
  8
0
 10
451.7666086628
 20
624.3005997556001
 30
0
  0
VERTEX
  8
0
 10
451.7844751551
 20
624.2727718371
 30
0
  0
VERTEX
  8
0
 10
451.8072888328
 20
624.2371357101
 30
0
  0
VERTEX
  8
0
 10
451.8302366211
 20
624.2013431209
 30
0
  0
VERTEX
  8
0
 10
451.8533483221
 20
624.1655207294
 30
0
  0
VERTEX
  8
0
 10
451.8766686394
 20
624.1297653931
 30
0
  0
VERTEX
  8
0
 10
451.8914654924
 20
624.1073763984
 30
0
  0
VERTEX
  8
0
 10
451.9063517525
 20
624.0850917119
 30
0
  0
VERTEX
  8
0
 10
451.9213721229
 20
624.0629262346
 30
0
  0
VERTEX
  8
0
 10
451.9365266039
 20
624.0409172195
 30
0
  0
VERTEX
  8
0
 10
451.9518151953
 20
624.0190944689
 30
0
  0
VERTEX
  8
0
 10
451.9646748974
 20
624.0010640639
 30
0
  0
VERTEX
  8
0
 10
451.9776389076
 20
623.9831975716
 30
0
  0
VERTEX
  8
0
 10
451.9907221271
 20
623.9655098933
 30
0
  0
VERTEX
  8
0
 10
452.0039394571
 20
623.9480084795
 30
0
  0
VERTEX
  8
0
 10
452.0172759964
 20
623.9307156819
 30
0
  0
VERTEX
  8
0
 10
452.0307466461
 20
623.9136538522999
 30
0
  0
VERTEX
  8
0
 10
452.0435914471
 20
623.8977841157
 30
0
  0
VERTEX
  8
0
 10
452.0565554573
 20
623.8821378964
 30
0
  0
VERTEX
  8
0
 10
452.069653578
 20
623.8667375463
 30
0
  0
VERTEX
  8
0
 10
452.0829007103
 20
623.8515905159001
 30
0
  0
VERTEX
  8
0
 10
452.0962968542
 20
623.8367042559
 30
0
  0
VERTEX
  8
0
 10
452.108575411
 20
623.823449673
 30
0
  0
VERTEX
  8
0
 10
452.1209731771
 20
623.8104335087
 30
0
  0
VERTEX
  8
0
 10
452.1335199549
 20
623.7976706642
 30
0
  0
VERTEX
  8
0
 10
452.1461859419
 20
623.7851611393
 30
0
  0
VERTEX
  8
0
 10
452.1590009405
 20
623.772927286
 30
0
  0
VERTEX
  8
0
 10
452.1717265322
 20
623.7611777204
 30
0
  0
VERTEX
  8
0
 10
452.1846011354
 20
623.7497112769
 30
0
  0
VERTEX
  8
0
 10
452.197594948
 20
623.7385205048
 30
0
  0
VERTEX
  8
0
 10
452.2107526733
 20
623.7275979537
 30
0
  0
VERTEX
  8
0
 10
452.2242978289
 20
623.7167275566
 30
0
  0
VERTEX
  8
0
 10
452.237991996
 20
623.7061402815
 30
0
  0
VERTEX
  8
0
 10
452.2518202736
 20
623.6958212274
 30
0
  0
VERTEX
  8
0
 10
452.2657975628
 20
623.6857778448
 30
0
  0
VERTEX
  8
0
 10
452.2799089624
 20
623.6759952324001
 30
0
  0
VERTEX
  8
0
 10
452.2941544725
 20
623.666480841
 30
0
  0
VERTEX
  8
0
 10
452.3085191919
 20
623.6572346705
 30
0
  0
VERTEX
  8
0
 10
452.3254618122
 20
623.6467666048
 30
0
  0
VERTEX
  8
0
 10
452.3425683453
 20
623.6366412657
 30
0
  0
VERTEX
  8
0
 10
452.3598685934
 20
623.626866104
 30
0
  0
VERTEX
  8
0
 10
452.3773178532
 20
623.6174262184001
 30
0
  0
VERTEX
  8
0
 10
452.394960828
 20
623.6083141583
 30
0
  0
VERTEX
  8
0
 10
452.4127528145
 20
623.5995373744
 30
0
  0
VERTEX
  8
0
 10
452.4296805336
 20
623.591550352
 30
0
  0
VERTEX
  8
0
 10
452.4467572643
 20
623.5838464516
 30
0
  0
VERTEX
  8
0
 10
452.4639830067
 20
623.5764256733
 30
0
  0
VERTEX
  8
0
 10
452.4813279583
 20
623.5692805666
 30
0
  0
VERTEX
  8
0
 10
452.4988368227
 20
623.5624036807
 30
0
  0
VERTEX
  8
0
 10
452.51753778
 20
623.5554001349
 30
0
  0
VERTEX
  8
0
 10
452.5363877489
 20
623.5486946124
 30
0
  0
VERTEX
  8
0
 10
452.5554016306
 20
623.5422796625001
 30
0
  0
VERTEX
  8
0
 10
452.5745496227
 20
623.5361478346
 30
0
  0
VERTEX
  8
0
 10
452.5938317253
 20
623.5302916783001
 30
0
  0
VERTEX
  8
0
 10
452.6132777407
 20
623.524718644
 30
0
  0
VERTEX
  8
0
 10
452.6317253782
 20
623.5197118538
 30
0
  0
VERTEX
  8
0
 10
452.6502922251
 20
623.5149360317
 30
0
  0
VERTEX
  8
0
 10
452.6689782812
 20
623.5103986281
 30
0
  0
VERTEX
  8
0
 10
452.6877835466
 20
623.5060847419001
 30
0
  0
VERTEX
  8
0
 10
452.7067080213
 20
623.5019943732
 30
0
  0
VERTEX
  8
0
 10
452.7279719784
 20
623.4976953882
 30
0
  0
VERTEX
  8
0
 10
452.7493551447
 20
623.4936646241
 30
0
  0
VERTEX
  8
0
 10
452.7708724214
 20
623.4898946303
 30
0
  0
VERTEX
  8
0
 10
452.7925387098
 20
623.4863779562
 30
0
  0
VERTEX
  8
0
 10
452.8143242075
 20
623.4831220525
 30
0
  0
VERTEX
  8
0
 10
452.8362289144
 20
623.4801045674
 30
0
  0
VERTEX
  8
0
 10
452.8582677318
 20
623.4773329513999
 30
0
  0
VERTEX
  8
0
 10
452.8804257585
 20
623.4747923034
 30
0
  0
VERTEX
  8
0
 10
452.9059067442
 20
623.4721696991001
 30
0
  0
VERTEX
  8
0
 10
452.9315367414
 20
623.4698376673
 30
0
  0
VERTEX
  8
0
 10
452.9573157503
 20
623.4677887577
 30
0
  0
VERTEX
  8
0
 10
452.9832288696
 20
623.4660155195001
 30
0
  0
VERTEX
  8
0
 10
453.0092910005
 20
623.4645030516
 30
0
  0
VERTEX
  8
0
 10
453.0354872419
 20
623.4632513541
 30
0
  0
VERTEX
  8
0
 10
453.0618026926
 20
623.4622529763
 30
0
  0
VERTEX
  8
0
 10
453.0908897592
 20
623.4614259618001
 30
0
  0
VERTEX
  8
0
 10
453.1201258375
 20
623.4608746189
 30
0
  0
VERTEX
  8
0
 10
453.1495109274
 20
623.4605989473999
 30
0
  0
VERTEX
  8
0
 10
453.1790152265
 20
623.4605840462
 30
0
  0
VERTEX
  8
0
 10
453.2086536362
 20
623.4608075636
 30
0
  0
VERTEX
  8
0
 10
453.2418683245
 20
623.4613365549
 30
0
  0
VERTEX
  8
0
 10
453.2752469255
 20
623.4621412176
 30
0
  0
VERTEX
  8
0
 10
453.3087447359
 20
623.4632066506
 30
0
  0
VERTEX
  8
0
 10
453.3423766567
 20
623.4645179528
 30
0
  0
VERTEX
  8
0
 10
453.3761277868
 20
623.466060223
 30
0
  0
VERTEX
  8
0
 10
453.4099981262
 20
623.4678111094
 30
0
  0
VERTEX
  8
0
 10
453.4439578726
 20
623.4697631615001
 30
0
  0
VERTEX
  8
0
 10
453.4780219271
 20
623.4719014781
 30
0
  0
VERTEX
  8
0
 10
453.523589678
 20
623.4750083703
 30
0
  0
VERTEX
  8
0
 10
453.5692766382
 20
623.4783685821
 30
0
  0
VERTEX
  8
0
 10
453.6150977089
 20
623.481959762
 30
0
  0
VERTEX
  8
0
 10
453.6610230877
 20
623.4857297557001
 30
0
  0
VERTEX
  8
0
 10
453.7070378734
 20
623.4896562117
 30
0
  0
VERTEX
  8
0
 10
453.7530973627
 20
623.4936869758
 30
0
  0
VERTEX
  8
0
 10
453.8255915119
 20
623.5001540798
 30
0
  0
VERTEX
  8
0
 10
453.8981154634
 20
623.5066658872
 30
0
  0
VERTEX
  8
0
 10
453.9706096126
 20
623.5130733865
 30
0
  0
SEQEND
  8
0
  0
POLYLINE
  8
0
 62
7
 66
1
  0
VERTEX
  8
0
 10
503.9416834785
 20
749.2312609273
 30
0
  0
VERTEX
  8
0
 10
503.58970315
 20
749.1921416539
 30
0
  0
VERTEX
  8
0
 10
503.3383801653
 20
749.0748471635
 30
0
  0
SEQEND
  8
0
  0
POLYLINE
  8
0
 62
7
 66
1
  0
VERTEX
  8
0
 10
503.3383801653
 20
749.0748471635
 30
0
  0
VERTEX
  8
0
 10
503.2123759462
 20
748.8294697422
 30
0
  0
VERTEX
  8
0
 10
503.1875506117
 20
748.6130564528
 30
0
  0
SEQEND
  8
0
  0
POLYLINE
  8
0
 62
7
 66
1
  0
VERTEX
  8
0
 10
503.1875506117
 20
748.6130564528
 30
0
  0
VERTEX
  8
0
 10
503.2778665497
 20
748.2676102835
 30
0
  0
VERTEX
  8
0
 10
503.438933201
 20
748.0358189958
 30
0
  0
SEQEND
  8
0
  0
POLYLINE
  8
0
 62
7
 66
1
  0
VERTEX
  8
0
 10
503.8914069607
 20
746.4027970153001
 30
0
  0
VERTEX
  8
0
 10
503.5743996574
 20
746.382274391
 30
0
  0
VERTEX
  8
0
 10
503.3383801653
 20
746.3041066247
 30
0
  0
SEQEND
  8
0
  0
POLYLINE
  8
0
 62
7
 66
1
  0
VERTEX
  8
0
 10
503.3383801653
 20
746.3041066247
 30
0
  0
VERTEX
  8
0
 10
503.2161161377
 20
746.0912323612
 30
0
  0
VERTEX
  8
0
 10
503.1875506117
 20
745.9000430125
 30
0
  0
SEQEND
  8
0
  0
POLYLINE
  8
0
 62
7
 66
1
  0
VERTEX
  8
0
 10
503.1875506117
 20
745.9000430125
 30
0
  0
VERTEX
  8
0
 10
503.2710716202
 20
745.5209947246
 30
0
  0
VERTEX
  8
0
 10
503.438933201
 20
745.265078457
 30
0
  0
SEQEND
  8
0
  0
POLYLINE
  8
0
 62
7
 66
1
  0
VERTEX
  8
0
 10
503.0869975759
 20
744.8610148448
 30
0
  0
VERTEX
  8
0
 10
502.4085179045
 20
745.5949491876
 30
0
  0
VERTEX
  8
0
 10
502.2323116733
 20
746.3618299979
 30
0
  0
SEQEND
  8
0
  0
POLYLINE
  8
0
 62
7
 66
1
  0
VERTEX
  8
0
 10
503.0869975759
 20
747.5740282851
 30
0
  0
VERTEX
  8
0
 10
502.4085179045
 20
748.307962628
 30
0
  0
VERTEX
  8
0
 10
502.2323116733
 20
749.0748471635
 30
0
  0
SEQEND
  8
0
  0
POLYLINE
  8
0
 62
7
 66
1
  0
VERTEX
  8
0
 10
502.2323116733
 20
749.0748471635
 30
0
  0
VERTEX
  8
0
 10
502.3105129673
 20
749.6864839512
 30
0
  0
VERTEX
  8
0
 10
502.5339707806
 20
750.1138753313001
 30
0
  0
SEQEND
  8
0
  0
POLYLINE
  8
0
 62
7
 66
1
  0
VERTEX
  8
0
 10
503.9416834785
 20
740.2312594521
 30
0
  0
VERTEX
  8
0
 10
503.58970315
 20
740.1921439039001
 30
0
  0
VERTEX
  8
0
 10
503.3383801653
 20
740.074847551
 30
0
  0
SEQEND
  8
0
  0
POLYLINE
  8
0
 62
7
 66
1
  0
VERTEX
  8
0
 10
503.3383801653
 20
740.074847551
 30
0
  0
VERTEX
  8
0
 10
503.2123759462
 20
739.8294719922
 30
0
  0
VERTEX
  8
0
 10
503.1875506117
 20
739.6130568403
 30
0
  0
SEQEND
  8
0
  0
POLYLINE
  8
0
 62
7
 66
1
  0
VERTEX
  8
0
 10
503.1875506117
 20
739.6130568403
 30
0
  0
VERTEX
  8
0
 10
503.2778665497
 20
739.2676106709
 30
0
  0
VERTEX
  8
0
 10
503.438933201
 20
739.0358193832
 30
0
  0
SEQEND
  8
0
  0
POLYLINE
  8
0
 62
7
 66
1
  0
VERTEX
  8
0
 10
503.8914069607
 20
737.4027974027
 30
0
  0
VERTEX
  8
0
 10
503.5743996574
 20
737.3822747785
 30
0
  0
VERTEX
  8
0
 10
503.3383801653
 20
737.3041070121
 30
0
  0
SEQEND
  8
0
  0
POLYLINE
  8
0
 62
7
 66
1
  0
VERTEX
  8
0
 10
503.3383801653
 20
737.3041070121
 30
0
  0
VERTEX
  8
0
 10
503.2161161377
 20
737.0912327486
 30
0
  0
VERTEX
  8
0
 10
503.1875506117
 20
736.9000415373
 30
0
  0
SEQEND
  8
0
  0
POLYLINE
  8
0
 62
7
 66
1
  0
VERTEX
  8
0
 10
503.1875506117
 20
736.9000415373
 30
0
  0
VERTEX
  8
0
 10
503.2710716202
 20
736.5209969747
 30
0
  0
VERTEX
  8
0
 10
503.438933201
 20
736.2650807071
 30
0
  0
SEQEND
  8
0
  0
POLYLINE
  8
0
 62
7
 66
1
  0
VERTEX
  8
0
 10
503.0869975759
 20
735.8610152322
 30
0
  0
VERTEX
  8
0
 10
502.4085179045
 20
736.5949477124
 30
0
  0
VERTEX
  8
0
 10
502.2323116733
 20
737.361832248
 30
0
  0
SEQEND
  8
0
  0
POLYLINE
  8
0
 62
7
 66
1
  0
VERTEX
  8
0
 10
503.0869975759
 20
738.5740305352
 30
0
  0
VERTEX
  8
0
 10
502.4085179045
 20
739.3079630154
 30
0
  0
VERTEX
  8
0
 10
502.2323116733
 20
740.074847551
 30
0
  0
SEQEND
  8
0
  0
POLYLINE
  8
0
 62
7
 66
1
  0
VERTEX
  8
0
 10
502.2323116733
 20
740.074847551
 30
0
  0
VERTEX
  8
0
 10
502.3105129673
 20
740.6864843386001
 30
0
  0
VERTEX
  8
0
 10
502.5339707806
 20
741.1138719934
 30
0
  0
SEQEND
  8
0
  0
POLYLINE
  8
0
 62
7
 66
1
  0
VERTEX
  8
0
 10
358.4247775449
 20
682.75270118
 30
0
  0
VERTEX
  8
0
 10
363.0034051909
 20
695.5447371173
 30
0
  0
VERTEX
  8
0
 10
363.220611967
 20
696.1968137938
 30
0
  0
SEQEND
  8
0
  0
POLYLINE
  8
0
 62
7
 66
1
  0
VERTEX
  8
0
 10
443.3144465162
 20
670.6264509874
 30
0
  0
VERTEX
  8
0
 10
447.8378728105
 20
668.4714189786
 30
0
  0
VERTEX
  8
0
 10
448.970614381
 20
668.0001064259
 30
0
  0
SEQEND
  8
0
  0
POLYLINE
  8
0
 62
7
 66
1
  0
VERTEX
  8
0
 10
675.4889999066
 20
552.2185350445
 30
0
  0
VERTEX
  8
0
 10
675.4369650517
 20
552.1594817427
 30
0
  0
VERTEX
  8
0
 10
675.3849525485
 20
552.1003986385
 30
0
  0
VERTEX
  8
0
 10
675.3330518041
 20
552.0412931827
 30
0
  0
VERTEX
  8
0
 10
675.2813373242
 20
551.9821802762
 30
0
  0
VERTEX
  8
0
 10
675.2299059663
 20
551.9230897215
 30
0
  0
VERTEX
  8
0
 10
675.1964230571
 20
551.884406307
 30
0
  0
VERTEX
  8
0
 10
675.1631115113
 20
551.8457377937
 30
0
  0
VERTEX
  8
0
 10
675.1300011311
 20
551.8070916322
 30
0
  0
VERTEX
  8
0
 10
675.0971142683
 20
551.7684752729
 30
0
  0
VERTEX
  8
0
 10
675.0644732748
 20
551.7298812655
 30
0
  0
VERTEX
  8
0
 10
675.0321079526
 20
551.6913170603
 30
0
  0
VERTEX
  8
0
 10
675.0046004091
 20
551.6582960871
 30
0
  0
VERTEX
  8
0
 10
674.9773163829
 20
551.6252974656001
 30
0
  0
VERTEX
  8
0
 10
674.9502782259
 20
551.5923360971
 30
0
  0
VERTEX
  8
0
 10
674.9235008393
 20
551.5594119814
 30
0
  0
VERTEX
  8
0
 10
674.8969991241
 20
551.5265251186
 30
0
  0
VERTEX
  8
0
 10
674.8707879816
 20
551.4936755088
 30
0
  0
VERTEX
  8
0
 10
674.8448823128
 20
551.4608706024
 30
0
  0
VERTEX
  8
0
 10
674.8214129839
 20
551.430837312
 30
0
  0
VERTEX
  8
0
 10
674.7982193265
 20
551.4008487251
 30
0
  0
VERTEX
  8
0
 10
674.7753162418001
 20
551.3708973911
 30
0
  0
VERTEX
  8
0
 10
674.7527186308
 20
551.3409982112
 30
0
  0
VERTEX
  8
0
 10
674.7304339443
 20
551.3111362842
 30
0
  0
VERTEX
  8
0
 10
674.7084696327
 20
551.2813265112
 30
0
  0
VERTEX
  8
0
 10
674.6899474893
 20
551.2558753279
 30
0
  0
VERTEX
  8
0
 10
674.6716861163
 20
551.2304613975
 30
0
  0
VERTEX
  8
0
 10
674.653678063
 20
551.2050847199
 30
0
  0
VERTEX
  8
0
 10
674.6359382306
 20
551.1797452953
 30
0
  0
VERTEX
  8
0
 10
674.6184740696
 20
551.1544580248
 30
0
  0
VERTEX
  8
0
 10
674.601591054
 20
551.129655042
 30
0
  0
VERTEX
  8
0
 10
674.5849837099
 20
551.1048967627
 30
0
  0
VERTEX
  8
0
 10
674.5686669383
 20
551.0801906374001
 30
0
  0
VERTEX
  8
0
 10
674.5526407395
 20
551.055521765
 30
0
  0
VERTEX
  8
0
 10
674.5365921889
 20
551.0303984073
 30
0
  0
VERTEX
  8
0
 10
674.5208565627
 20
551.0053346541
 30
0
  0
VERTEX
  8
0
 10
674.505448762
 20
550.9803081539
 30
0
  0
VERTEX
  8
0
 10
674.4903687869
 20
550.9553487089
 30
0
  0
VERTEX
  8
0
 10
674.4756315384
 20
550.9304339674
 30
0
  0
VERTEX
  8
0
 10
674.4612370167
 20
550.9055788305
 30
0
  0
VERTEX
  8
0
 10
674.4472001229
 20
550.8807758477
 30
0
  0
VERTEX
  8
0
 10
674.4352046881
 20
550.8591244605
 30
0
  0
VERTEX
  8
0
 10
674.423499826
 20
550.8375103262
 30
0
  0
VERTEX
  8
0
 10
674.4120706354
 20
550.815948346
 30
0
  0
VERTEX
  8
0
 10
674.4009320174
 20
550.7944385198
 30
0
  0
VERTEX
  8
0
 10
674.3900914226
 20
550.7729659465
 30
0
  0
VERTEX
  8
0
 10
674.3795488511
 20
550.7515529779
 30
0
  0
VERTEX
  8
0
 10
674.3693117533001
 20
550.7301847127
 30
0
  0
VERTEX
  8
0
 10
674.3593801294001
 20
550.708861151
 30
0
  0
VERTEX
  8
0
 10
674.349314395
 20
550.686583915
 30
0
  0
VERTEX
  8
0
 10
674.3395988379
 20
550.6643588331
 30
0
  0
VERTEX
  8
0
 10
674.3302334581
 20
550.6422008064
 30
0
  0
VERTEX
  8
0
 10
674.3212331567
 20
550.6200949338
 30
0
  0
VERTEX
  8
0
 10
674.3125979338
 20
550.5980486658
 30
0
  0
VERTEX
  8
0
 10
674.3043352399
 20
550.5760694531
 30
0
  0
VERTEX
  8
0
 10
674.2966834937
 20
550.554805496
 30
0
  0
VERTEX
  8
0
 10
674.2893893753
 20
550.5336085942
 30
0
  0
VERTEX
  8
0
 10
674.2824603353
 20
550.5124712971
 30
0
  0
VERTEX
  8
0
 10
674.2758963738
 20
550.4913936046
 30
0
  0
VERTEX
  8
0
 10
674.2697123919
 20
550.4703755167
 30
0
  0
VERTEX
  8
0
 10
674.263900939
 20
550.4494244841
 30
0
  0
VERTEX
  8
0
 10
674.2587823902001
 20
550.429725149
 30
0
  0
VERTEX
  8
0
 10
674.254006568
 20
550.4100854185
 30
0
  0
VERTEX
  8
0
 10
674.2495734725
 20
550.3905052927
 30
0
  0
VERTEX
  8
0
 10
674.2455054555001
 20
550.3709847715001
 30
0
  0
VERTEX
  8
0
 10
674.2417876158
 20
550.351523855
 30
0
  0
VERTEX
  8
0
 10
674.2384423051
 20
550.3321225431
 30
0
  0
VERTEX
  8
0
 10
674.2354546223
 20
550.3127882865
 30
0
  0
VERTEX
  8
0
 10
674.2328469191
 20
550.2935061839
 30
0
  0
VERTEX
  8
0
 10
674.2306042943
 20
550.2742911366
 30
0
  0
VERTEX
  8
0
 10
674.2287490998
 20
550.2551431444
 30
0
  0
VERTEX
  8
0
 10
674.2272962366
 20
550.2363974835999
 30
0
  0
VERTEX
  8
0
 10
674.226223353
 20
550.2177188781
 30
0
  0
VERTEX
  8
0
 10
674.2255229984
 20
550.1990998772
 30
0
  0
VERTEX
  8
0
 10
674.2252026234
 20
550.1805404809001
 30
0
  0
VERTEX
  8
0
 10
674.2252398763
 20
550.1648495582
 30
0
  0
VERTEX
  8
0
 10
674.2255528007
 20
550.1492033389
 30
0
  0
VERTEX
  8
0
 10
674.2261488471
 20
550.1336092737
 30
0
  0
VERTEX
  8
0
 10
674.2270280156999
 20
550.118059912
 30
0
  0
VERTEX
  8
0
 10
674.2281977568
 20
550.1025627044
 30
0
  0
VERTEX
  8
0
 10
674.2296580706
 20
550.0871102002
 30
0
  0
VERTEX
  8
0
 10
674.2313046489001
 20
550.0725815681
 30
0
  0
VERTEX
  8
0
 10
674.2332119976001
 20
550.05810509
 30
0
  0
VERTEX
  8
0
 10
674.2353801165
 20
550.0436733153
 30
0
  0
VERTEX
  8
0
 10
674.2378164564
 20
550.0292862442
 30
0
  0
VERTEX
  8
0
 10
674.2405210171
 20
550.0149438766
 30
0
  0
VERTEX
  8
0
 10
674.2434937988001
 20
550.0006462124001
 30
0
  0
VERTEX
  8
0
 10
674.2467422519
 20
549.9863932517
 30
0
  0
VERTEX
  8
0
 10
674.250258926
 20
549.9721924451
 30
0
  0
VERTEX
  8
0
 10
674.2540587221
 20
549.9580288914
 30
0
  0
VERTEX
  8
0
 10
674.2581341896
 20
549.9439249423
 30
0
  0
VERTEX
  8
0
 10
674.2624108229001
 20
549.9301115659
 30
0
  0
VERTEX
  8
0
 10
674.2669556771
 20
549.9163428929001
 30
0
  0
VERTEX
  8
0
 10
674.2717762027
 20
549.9026263741
 30
0
  0
VERTEX
  8
0
 10
674.2768798504
 20
549.8889545587
 30
0
  0
VERTEX
  8
0
 10
674.2826987539
 20
549.8742471126
 30
0
  0
VERTEX
  8
0
 10
674.2888380323
 20
549.8595918205
 30
0
  0
VERTEX
  8
0
 10
674.2953125868
 20
549.8449961331
 30
0
  0
VERTEX
  8
0
 10
674.3021224175
 20
549.8304525998
 30
0
  0
VERTEX
  8
0
 10
674.3092600737
 20
549.8159686711
 30
0
  0
VERTEX
  8
0
 10
674.3167330060001
 20
549.8015443471001
 30
0
  0
VERTEX
  8
0
 10
674.3240941797
 20
549.787991741
 30
0
  0
VERTEX
  8
0
 10
674.3317533765001
 20
549.774491289
 30
0
  0
VERTEX
  8
0
 10
674.3397254978
 20
549.7610504416
 30
0
  0
VERTEX
  8
0
 10
674.3479956422
 20
549.7476542976
 30
0
  0
VERTEX
  8
0
 10
674.3565787111
 20
549.7343177584
 30
0
  0
VERTEX
  8
0
 10
674.3654747043
 20
549.7210333732
 30
0
  0
VERTEX
  8
0
 10
674.3746836219
 20
549.707801142
 30
0
  0
VERTEX
  8
0
 10
674.3841980133
 20
549.694621065
 30
0
  0
VERTEX
  8
0
 10
674.3940178786
 20
549.6814931419
 30
0
  0
VERTEX
  8
0
 10
674.4041208659
 20
549.6684099224
 30
0
  0
VERTEX
  8
0
 10
674.4143207107001
 20
549.6556172755001
 30
0
  0
VERTEX
  8
0
 10
674.4247813259
 20
549.6428618815
 30
0
  0
VERTEX
  8
0
 10
674.4354952608001
 20
549.6301586416
 30
0
  0
VERTEX
  8
0
 10
674.4464625154
 20
549.6174926546
 30
0
  0
VERTEX
  8
0
 10
674.4592179094
 20
549.603150287
 30
0
  0
VERTEX
  8
0
 10
674.4722713266
 20
549.588867524
 30
0
  0
VERTEX
  8
0
 10
674.4856078659
 20
549.5746294644
 30
0
  0
VERTEX
  8
0
 10
674.4992275272
 20
549.5604361084
 30
0
  0
VERTEX
  8
0
 10
674.5131079588
 20
549.5462949064
 30
0
  0
VERTEX
  8
0
 10
674.5272342596001
 20
549.5321984079
 30
0
  0
VERTEX
  8
0
 10
674.5416064296001
 20
549.5181391624
 30
0
  0
VERTEX
  8
0
 10
674.5562095676
 20
549.5041320708
 30
0
  0
VERTEX
  8
0
 10
674.574873272
 20
549.4865636018
 30
0
  0
VERTEX
  8
0
 10
674.5938573513
 20
549.469062188
 30
0
  0
VERTEX
  8
0
 10
674.6131394539
 20
549.4516129282
 30
0
  0
VERTEX
  8
0
 10
674.6326897774
 20
549.4342158225001
 30
0
  0
VERTEX
  8
0
 10
674.6525008712
 20
549.4168634203001
 30
0
  0
VERTEX
  8
0
 10
674.6757019792
 20
549.3968362597
 30
0
  0
VERTEX
  8
0
 10
674.6991713081
 20
549.3768687037
 30
0
  0
VERTEX
  8
0
 10
674.7228790555
 20
549.3569458511
 30
0
  0
VERTEX
  8
0
 10
674.7467805181
 20
549.3370602515
 30
0
  0
VERTEX
  8
0
 10
674.7708458934
 20
549.3172119048001
 30
0
  0
VERTEX
  8
0
 10
674.7950379286
 20
549.2973933604
 30
0
  0
VERTEX
  8
0
 10
674.8193268214
 20
549.2775971678
 30
0
  0
VERTEX
  8
0
 10
674.85280228
 20
549.2504025486001
 30
0
  0
VERTEX
  8
0
 10
674.8862926398
 20
549.2232302812
 30
0
  0
VERTEX
  8
0
 10
674.9197010432
 20
549.1960580137001
 30
0
  0
VERTEX
  8
0
 10
674.9529306326
 20
549.1688782957
 30
0
  0
VERTEX
  8
0
 10
674.9749470983001
 20
549.150736132
 30
0
  0
VERTEX
  8
0
 10
674.9968145524
 20
549.1325865176
 30
0
  0
VERTEX
  8
0
 10
675.018510643
 20
549.1144145515
 30
0
  0
VERTEX
  8
0
 10
675.0400055681
 20
549.0962202337
 30
0
  0
VERTEX
  8
0
 10
675.0612695251
 20
549.077988663
 30
0
  0
VERTEX
  8
0
 10
675.0822801624
 20
549.05972729
 30
0
  0
VERTEX
  8
0
 10
675.1018304859
 20
549.0424791959
 30
0
  0
VERTEX
  8
0
 10
675.1211051379
 20
549.0251863983
 30
0
  0
VERTEX
  8
0
 10
675.1400817666
 20
549.0078563479
 30
0
  0
VERTEX
  8
0
 10
675.1587380205
 20
548.9904815939
 30
0
  0
VERTEX
  8
0
 10
675.177044097
 20
548.9730546859
 30
0
  0
VERTEX
  8
0
 10
675.1913492117
 20
548.9591519025
 30
0
  0
VERTEX
  8
0
 10
675.2054084573
 20
548.9452193168
 30
0
  0
VERTEX
  8
0
 10
675.2192143832
 20
548.9312494782
 30
0
  0
VERTEX
  8
0
 10
675.2327520881
 20
548.9172349361
 30
0
  0
VERTEX
  8
0
 10
675.2460141216
 20
548.903183141
 30
0
  0
VERTEX
  8
0
 10
675.2589781318
 20
548.8890940931
 30
0
  0
VERTEX
  8
0
 10
675.2716441188001
 20
548.8749528912
 30
0
  0
VERTEX
  8
0
 10
675.2839971815
 20
548.8607669857
 30
0
  0
VERTEX
  8
0
 10
675.2948154245
 20
548.84798924
 30
0
  0
VERTEX
  8
0
 10
675.305357996
 20
548.8351667908
 30
0
  0
VERTEX
  8
0
 10
675.3156248961
 20
548.8223070887
 30
0
  0
VERTEX
  8
0
 10
675.3256012235
 20
548.8094026831
 30
0
  0
VERTEX
  8
0
 10
675.3352869783
 20
548.796453574
 30
0
  0
VERTEX
  8
0
 10
675.3446598087
 20
548.7834597614
 30
0
  0
VERTEX
  8
0
 10
675.3537271653
 20
548.7704212454
 30
0
  0
VERTEX
  8
0
 10
675.3624666963
 20
548.7573305753
 30
0
  0
VERTEX
  8
0
 10
675.3708858524
 20
548.7441952017
 30
0
  0
VERTEX
  8
0
 10
675.3789622817
 20
548.7310002235
 30
0
  0
VERTEX
  8
0
 10
675.3866885338
 20
548.7177605417
 30
0
  0
VERTEX
  8
0
 10
675.3940646086001
 20
548.7044612554
 30
0
  0
VERTEX
  8
0
 10
675.401075605
 20
548.6911098149
 30
0
  0
VERTEX
  8
0
 10
675.4077140723
 20
548.6777062204
 30
0
  0
VERTEX
  8
0
 10
675.4134733711001
 20
548.6653606084
 30
0
  0
VERTEX
  8
0
 10
675.4188973937
 20
548.6529702929
 30
0
  0
VERTEX
  8
0
 10
675.4239935909
 20
548.6405278233
 30
0
  0
VERTEX
  8
0
 10
675.4287470613
 20
548.6280331996001
 30
0
  0
VERTEX
  8
0
 10
675.433157805
 20
548.6154864219
 30
0
  0
VERTEX
  8
0
 10
675.4372183714
 20
548.6028874901
 30
0
  0
VERTEX
  8
0
 10
675.4405040775
 20
548.5917339709
 30
0
  0
VERTEX
  8
0
 10
675.4435066615
 20
548.5805357483
 30
0
  0
VERTEX
  8
0
 10
675.4462410245
 20
548.5693002728
 30
0
  0
VERTEX
  8
0
 10
675.4487071667001
 20
548.5580275443
 30
0
  0
VERTEX
  8
0
 10
675.4508976374
 20
548.5467026618001
 30
0
  0
VERTEX
  8
0
 10
675.4528273378
 20
548.535347977
 30
0
  0
VERTEX
  8
0
 10
675.4547719393
 20
548.5219071296
 30
0
  0
VERTEX
  8
0
 10
675.4563514624
 20
548.5084066775
 30
0
  0
VERTEX
  8
0
 10
675.4575733576
 20
548.4948540714
 30
0
  0
VERTEX
  8
0
 10
675.4584450756
 20
548.4812493113
 30
0
  0
VERTEX
  8
0
 10
675.4589815174001
 20
548.4673092750001
 30
0
  0
VERTEX
  8
0
 10
675.4591603313
 20
548.4533170846
 30
0
  0
VERTEX
  8
0
 10
675.4589964185
 20
548.4392727402
 30
0
  0
VERTEX
  8
0
 10
675.4584823285001
 20
548.4251687911
 30
0
  0
VERTEX
  8
0
 10
675.4576255117
 20
548.411012688
 30
0
  0
VERTEX
  8
0
 10
675.4564334188
 20
548.3968044308
 30
0
  0
VERTEX
  8
0
 10
675.4549135004
 20
548.3825440195
 30
0
  0
VERTEX
  8
0
 10
675.4530657564
 20
548.3682314542
 30
0
  0
VERTEX
  8
0
 10
675.4508976374
 20
548.3538667348
 30
0
  0
VERTEX
  8
0
 10
675.4484091435
 20
548.3394573119
 30
0
  0
VERTEX
  8
0
 10
675.4456151758
 20
548.324995735
 30
0
  0
VERTEX
  8
0
 10
675.4425157342
 20
548.3104820040001
 30
0
  0
VERTEX
  8
0
 10
675.4391108189
 20
548.2959235695
 30
0
  0
VERTEX
  8
0
 10
675.4354078803
 20
548.2813204315
 30
0
  0
VERTEX
  8
0
 10
675.4309971366
 20
548.2652048257
 30
0
  0
VERTEX
  8
0
 10
675.4262436662
 20
548.2490221646
 30
0
  0
VERTEX
  8
0
 10
675.4211474691
 20
548.2327948001
 30
0
  0
VERTEX
  8
0
 10
675.4157234464
 20
548.2165078309
 30
0
  0
VERTEX
  8
0
 10
675.4099641476
 20
548.2001761582
 30
0
  0
VERTEX
  8
0
 10
675.4035119448
 20
548.1827865031
 30
0
  0
VERTEX
  8
0
 10
675.3967021141
 20
548.1653446940001
 30
0
  0
VERTEX
  8
0
 10
675.3895495568
 20
548.1478507307
 30
0
  0
VERTEX
  8
0
 10
675.3820617233
 20
548.1302971628001
 30
0
  0
VERTEX
  8
0
 10
675.3742386136
 20
548.1126914409
 30
0
  0
VERTEX
  8
0
 10
675.3660951291
 20
548.0950261143
 30
0
  0
VERTEX
  8
0
 10
675.3581304584
 20
548.0783293632001
 30
0
  0
VERTEX
  8
0
 10
675.3498901163
 20
548.061580458
 30
0
  0
VERTEX
  8
0
 10
675.3413890038
 20
548.0447942999
 30
0
  0
VERTEX
  8
0
 10
675.3326196704001
 20
548.0279559877
 30
0
  0
VERTEX
  8
0
 10
675.3236044679001
 20
548.0110804227001
 30
0
  0
VERTEX
  8
0
 10
675.3132407103
 20
547.9921932009
 30
0
  0
VERTEX
  8
0
 10
675.30258638
 20
547.9732612756
 30
0
  0
VERTEX
  8
0
 10
675.2916414772
 20
547.9542697456
 30
0
  0
VERTEX
  8
0
 10
675.2804134522
 20
547.9352409628
 30
0
  0
VERTEX
  8
0
 10
675.2689097557
 20
547.9161525753
 30
0
  0
VERTEX
  8
0
 10
675.2571527396
 20
547.8970269349001
 30
0
  0
VERTEX
  8
0
 10
675.2451349531
 20
547.8778491405
 30
0
  0
VERTEX
  8
0
 10
675.2328712974
 20
547.8586340931
 30
0
  0
VERTEX
  8
0
 10
675.2186034356
 20
547.8366697815
 30
0
  0
VERTEX
  8
0
 10
675.2040375505
 20
547.8146458653
 30
0
  0
VERTEX
  8
0
 10
675.1891959938999
 20
547.7925772455
 30
0
  0
VERTEX
  8
0
 10
675.1740862165
 20
547.7704490212
 30
0
  0
VERTEX
  8
0
 10
675.1587231193
 20
547.7482835439
 30
0
  0
VERTEX
  8
0
 10
675.143397275
 20
547.7264607933
 30
0
  0
VERTEX
  8
0
 10
675.1278553639
 20
547.7046007898
 30
0
  0
VERTEX
  8
0
 10
675.1121048365
 20
547.6826960829
 30
0
  0
VERTEX
  8
0
 10
675.0961680446
 20
547.660754123
 30
0
  0
VERTEX
  8
0
 10
675.0730786953
 20
547.6293424752
 30
0
  0
VERTEX
  8
0
 10
675.0496615205
 20
547.5978563216
 30
0
  0
VERTEX
  8
0
 10
675.0259463225
 20
547.5663031128
 30
0
  0
VERTEX
  8
0
 10
675.0019778047
 20
547.5346902993
 30
0
  0
VERTEX
  8
0
 10
674.9777783189001
 20
547.5030178812
 30
0
  0
VERTEX
  8
0
 10
674.9466572438
 20
547.4625463274
 30
0
  0
VERTEX
  8
0
 10
674.9153052006
 20
547.4220077184
 30
0
  0
VERTEX
  8
0
 10
674.8838115964001
 20
547.3813946035
 30
0
  0
VERTEX
  8
0
 10
674.8522434864
 20
547.3407367852
 30
0
  0
VERTEX
  8
0
 10
674.8206753765001
 20
547.3000268128
 30
0
  0
VERTEX
  8
0
 10
674.7891966734001
 20
547.2592944887
 30
0
  0
VERTEX
  8
0
 10
674.757866982
 20
547.2185323623
 30
0
  0
SEQEND
  8
0
  0
POLYLINE
  8
0
 62
7
 66
1
  0
VERTEX
  8
0
 10
828.2918472324
 20
545.8700219777001
 30
0
  0
VERTEX
  8
0
 10
825.9646881853
 20
546.4856411007
 30
0
  0
VERTEX
  8
0
 10
823.5418487821
 20
546.7185313490001
 30
0
  0
SEQEND
  8
0
  0
POLYLINE
  8
0
 62
7
 66
1
  0
VERTEX
  8
0
 10
818.7918428812
 20
545.8700219777001
 30
0
  0
VERTEX
  8
0
 10
816.4646838341
 20
546.4856411007
 30
0
  0
VERTEX
  8
0
 10
814.041844431
 20
546.7185313490001
 30
0
  0
SEQEND
  8
0
  0
POLYLINE
  8
0
 62
7
 66
1
  0
VERTEX
  8
0
 10
723.6400440816
 20
545.8700219777001
 30
0
  0
VERTEX
  8
0
 10
721.3128813092
 20
546.4856411007
 30
0
  0
VERTEX
  8
0
 10
718.890041906
 20
546.7185313490001
 30
0
  0
SEQEND
  8
0
  0
POLYLINE
  8
0
 62
7
 66
1
  0
VERTEX
  8
0
 10
714.1400415931
 20
545.8700219777001
 30
0
  0
VERTEX
  8
0
 10
711.812882546
 20
546.4856411007
 30
0
  0
VERTEX
  8
0
 10
709.3900394175
 20
546.7185313490001
 30
0
  0
SEQEND
  8
0
  0
POLYLINE
  8
0
 62
2
 66
1
  0
VERTEX
  8
0
 10
418.3528195249
 20
346.3441788296
 30
0
  0
VERTEX
  8
0
 10
435.3277967168
 20
346.3441788296
 30
0
  0
VERTEX
  8
0
 10
469.0000989932
 20
406.7483591645
 30
0
  0
SEQEND
  8
0
  0
POLYLINE
  8
0
 62
2
 66
1
  0
VERTEX
  8
0
 10
511.0907404191
 20
347.2973427954
 30
0
  0
VERTEX
  8
0
 10
496.6273796407
 20
347.2973427954
 30
0
  0
VERTEX
  8
0
 10
477.5364383988
 20
404.9726648549
 30
0
  0
SEQEND
  8
0
  0
POLYLINE
  8
0
 62
2
 66
1
  0
VERTEX
  8
0
 10
468.8783722975972
 20
406.5299956795085
 30
0
 42
0.9999999999998454
  0
VERTEX
  8
0
 10
469.1218256888029
 20
406.9667226494915
 30
0
 42
1.000000000000155
  0
VERTEX
  8
0
 10
468.8783722975972
 20
406.5299956795085
 30
0
  0
SEQEND
  8
0
  0
POLYLINE
  8
0
 62
7
 66
1
  0
VERTEX
  8
0
 10
139.4928827955
 20
468.9063378239998
 30
0
  0
VERTEX
  8
0
 10
140.1998236849
 20
468.940703627
 30
0
  0
VERTEX
  8
0
 10
140.8027842714
 20
469.0283783340999
 30
0
  0
SEQEND
  8
0
  0
POLYLINE
  8
0
 62
7
 66
1
  0
VERTEX
  8
0
 10
138.1795838548
 20
469.0283783340999
 30
0
  0
VERTEX
  8
0
 10
138.7846008016
 20
468.9408228363
 30
0
  0
VERTEX
  8
0
 10
139.4928827955
 20
468.9063378239998
 30
0
  0
SEQEND
  8
0
  0
POLYLINE
  8
0
 62
7
 66
1
  0
VERTEX
  8
0
 10
131.1791375353
 20
469.7152287329
 30
0
  0
VERTEX
  8
0
 10
131.2849357797
 20
469.7176538969
 30
0
  0
VERTEX
  8
0
 10
131.6232219412
 20
469.6055934393999
 30
0
  0
SEQEND
  8
0
  0
POLYLINE
  8
0
 62
7
 66
1
  0
VERTEX
  8
0
 10
126.8795564844
 20
469.6929738486999
 30
0
  0
VERTEX
  8
0
 10
125.969333954
 20
469.6981482768999
 30
0
  0
VERTEX
  8
0
 10
125.1484885885
 20
469.7104864384
 30
0
  0
VERTEX
  8
0
 10
124.4776979162
 20
469.7184511089999
 30
0
  0
VERTEX
  8
0
 10
123.9553526117
 20
469.7107621098999
 30
0
  0
SEQEND
  8
0
  0
POLYLINE
  8
0
 62
7
 66
1
  0
VERTEX
  8
0
 10
128.2920673563
 20
469.7106093729999
 30
0
  0
VERTEX
  8
0
 10
127.6400223448
 20
469.6983270907999
 30
0
  0
VERTEX
  8
0
 10
126.8795564844
 20
469.6929738486999
 30
0
  0
SEQEND
  8
0
  0
POLYLINE
  8
0
 62
7
 66
1
  0
VERTEX
  8
0
 10
126.3767913057
 20
468.9063378239998
 30
0
  0
VERTEX
  8
0
 10
127.3029282762
 20
468.9524494672999
 30
0
  0
VERTEX
  8
0
 10
128.0902758314
 20
469.0668754840999
 30
0
  0
SEQEND
  8
0
  0
POLYLINE
  8
0
 62
7
 66
1
  0
VERTEX
  8
0
 10
129.7045484258
 20
468.7971495653001
 30
0
  0
VERTEX
  8
0
 10
128.1146541311
 20
468.5444593990999
 30
0
  0
VERTEX
  8
0
 10
126.2741819097
 20
468.4573658371999
 30
0
  0
SEQEND
  8
0
  0
POLYLINE
  8
0
 62
7
 66
1
  0
VERTEX
  8
0
 10
139.4928827955
 20
468.4573658371999
 30
0
  0
VERTEX
  8
0
 10
137.8057733251
 20
468.5524166191999
 30
0
  0
VERTEX
  8
0
 10
136.3634899332
 20
468.7971495653001
 30
0
  0
SEQEND
  8
0
  0
POLYLINE
  8
0
 62
7
 66
1
  0
VERTEX
  8
0
 10
142.6188781931
 20
468.7971495653001
 30
0
  0
VERTEX
  8
0
 10
141.1781147196
 20
468.5525917077998
 30
0
  0
VERTEX
  8
0
 10
139.4928827955
 20
468.4573658371999
 30
0
  0
SEQEND
  8
0
  0
POLYLINE
  8
0
 62
7
 66
1
  0
VERTEX
  8
0
 10
152.7119711115
 20
469.6906902456999
 30
0
  0
VERTEX
  8
0
 10
152.2280708029
 20
469.6870320107
 30
0
  0
VERTEX
  8
0
 10
151.797576256
 20
469.6753271485
 30
0
  0
SEQEND
  8
0
  0
POLYLINE
  8
0
 62
7
 66
1
  0
VERTEX
  8
0
 10
153.4363761618
 20
469.6392104591
 30
0
  0
VERTEX
  8
0
 10
153.4125343038
 20
469.6632385814999
 30
0
  0
VERTEX
  8
0
 10
153.2938614561
 20
469.6818762088999
 30
0
  0
SEQEND
  8
0
  0
POLYLINE
  8
0
 62
7
 66
1
  0
VERTEX
  8
0
 10
157.2839751913
 20
469.6818762088999
 30
0
  0
VERTEX
  8
0
 10
156.9682493879
 20
469.6889468099
 30
0
  0
VERTEX
  8
0
 10
156.6189661695
 20
469.6906902456999
 30
0
  0
SEQEND
  8
0
  0
POLYLINE
  8
0
 62
7
 66
1
  0
VERTEX
  8
0
 10
157.5096085741
 20
469.6345277691999
 30
0
  0
VERTEX
  8
0
 10
157.4641302301
 20
469.6619198287999
 30
0
  0
VERTEX
  8
0
 10
157.2839751913
 20
469.6818762088999
 30
0
  0
SEQEND
  8
0
  0
POLYLINE
  8
0
 62
7
 66
1
  0
VERTEX
  8
0
 10
163.3522942736
 20
469.6906902456999
 30
0
  0
VERTEX
  8
0
 10
162.8683641626
 20
469.6870320107
 30
0
  0
VERTEX
  8
0
 10
162.4378994181
 20
469.6753271485
 30
0
  0
SEQEND
  8
0
  0
POLYLINE
  8
0
 62
7
 66
1
  0
VERTEX
  8
0
 10
164.0766695215
 20
469.6392104591
 30
0
  0
VERTEX
  8
0
 10
164.0528574659
 20
469.6632385814999
 30
0
  0
VERTEX
  8
0
 10
163.9341846182
 20
469.6818762088999
 30
0
  0
SEQEND
  8
0
  0
POLYLINE
  8
0
 62
7
 66
1
  0
VERTEX
  8
0
 10
167.9242983534
 20
469.6818762088999
 30
0
  0
VERTEX
  8
0
 10
167.60857255
 20
469.6889468099
 30
0
  0
VERTEX
  8
0
 10
167.2592893316
 20
469.6906902456999
 30
0
  0
SEQEND
  8
0
  0
POLYLINE
  8
0
 62
7
 66
1
  0
VERTEX
  8
0
 10
168.1499317362
 20
469.6345277691999
 30
0
  0
VERTEX
  8
0
 10
168.1044533922
 20
469.6619198287999
 30
0
  0
VERTEX
  8
0
 10
167.9242983534
 20
469.6818762088999
 30
0
  0
SEQEND
  8
0
  0
POLYLINE
  8
0
 62
7
 66
1
  0
VERTEX
  8
0
 10
168.7269643022
 20
403.5307266379
 30
0
  0
VERTEX
  8
0
 10
170.7531645967
 20
403.4593687023
 30
0
  0
VERTEX
  8
0
 10
172.5574866011
 20
403.2612689400999
 30
0
  0
SEQEND
  8
0
  0
POLYLINE
  8
0
 62
7
 66
1
  0
VERTEX
  8
0
 10
172.4378004743
 20
403.3527359927998
 30
0
  0
VERTEX
  8
0
 10
170.687003441
 20
403.5529032910999
 30
0
  0
VERTEX
  8
0
 10
168.7269643022
 20
403.6208339596999
 30
0
  0
SEQEND
  8
0
  0
POLYLINE
  8
0
 62
7
 66
1
  0
VERTEX
  8
0
 10
168.7269643022
 20
405.5295460487
 30
0
  0
VERTEX
  8
0
 10
171.8028321935
 20
405.4321073556998
 30
0
  0
VERTEX
  8
0
 10
174.5924487783
 20
405.1002529079999
 30
0
  0
SEQEND
  8
0
  0
POLYLINE
  8
0
 62
7
 66
1
  0
VERTEX
  8
0
 10
167.9242983534
 20
468.1835160220999
 30
0
  0
VERTEX
  8
0
 10
167.60857255
 20
468.1902699733998
 30
0
  0
VERTEX
  8
0
 10
167.2592893316
 20
468.1919351780998
 30
0
  0
SEQEND
  8
0
  0
POLYLINE
  8
0
 62
7
 66
1
  0
VERTEX
  8
0
 10
163.3522942736
 20
468.1919351780998
 30
0
  0
VERTEX
  8
0
 10
162.8683641626
 20
468.1884408557999
 30
0
  0
VERTEX
  8
0
 10
162.4378994181
 20
468.1772612596999
 30
0
  0
SEQEND
  8
0
  0
POLYLINE
  8
0
 62
7
 66
1
  0
VERTEX
  8
0
 10
157.2839751913
 20
468.1835160220999
 30
0
  0
VERTEX
  8
0
 10
156.9682493879
 20
468.1902699733998
 30
0
  0
VERTEX
  8
0
 10
156.6189661695
 20
468.1919351780998
 30
0
  0
SEQEND
  8
0
  0
POLYLINE
  8
0
 62
7
 66
1
  0
VERTEX
  8
0
 10
152.7119711115
 20
468.1919351780998
 30
0
  0
VERTEX
  8
0
 10
152.2280708029
 20
468.1884408557999
 30
0
  0
VERTEX
  8
0
 10
151.797576256
 20
468.1772612596999
 30
0
  0
SEQEND
  8
0
  0
POLYLINE
  8
0
 62
7
 66
1
  0
VERTEX
  8
0
 10
142.6188781931
 20
467.3384059781999
 30
0
  0
VERTEX
  8
0
 10
141.1781147196
 20
467.1047967488998
 30
0
  0
VERTEX
  8
0
 10
139.4928827955
 20
467.0138363356
 30
0
  0
SEQEND
  8
0
  0
POLYLINE
  8
0
 62
7
 66
1
  0
VERTEX
  8
0
 10
139.4928827955
 20
467.0138363356
 30
0
  0
VERTEX
  8
0
 10
137.8057733251
 20
467.1046291108
 30
0
  0
VERTEX
  8
0
 10
136.3634899332
 20
467.3384059781999
 30
0
  0
SEQEND
  8
0
  0
POLYLINE
  8
0
 62
7
 66
1
  0
VERTEX
  8
0
 10
129.7045484258
 20
467.3384059781999
 30
0
  0
VERTEX
  8
0
 10
128.1146541311
 20
467.0970295185998
 30
0
  0
VERTEX
  8
0
 10
126.2741819097
 20
467.0138363356
 30
0
  0
SEQEND
  8
0
  0
POLYLINE
  8
0
 62
7
 66
1
  0
VERTEX
  8
0
 10
129.7045505716
 20
717.6728441435
 30
0
  0
VERTEX
  8
0
 10
128.1146562769
 20
716.6844855118
 30
0
  0
VERTEX
  8
0
 10
126.2741840555
 20
716.3702852147999
 30
0
  0
SEQEND
  8
0
  0
POLYLINE
  8
0
 62
7
 66
1
  0
VERTEX
  8
0
 10
127.3857212736
 20
728.4238829332999
 30
0
  0
VERTEX
  8
0
 10
128.7965632154
 20
728.1605421621
 30
0
  0
VERTEX
  8
0
 10
130.0089514925
 20
727.363320725
 30
0
  0
SEQEND
  8
0
  0
POLYLINE
  8
0
 62
7
 66
1
  0
VERTEX
  8
0
 10
121.8075311853
 20
724.7542466092
 30
0
  0
VERTEX
  8
0
 10
122.1102333738
 20
729.9130267518999
 30
0
  0
VERTEX
  8
0
 10
122.41290576
 20
734.9662545192
 30
0
  0
SEQEND
  8
0
  0
POLYLINE
  8
0
 62
7
 66
1
  0
VERTEX
  8
0
 10
128.2920695021
 20
726.2042040992001
 30
0
  0
VERTEX
  8
0
 10
127.6400244905
 20
726.6389398890999
 30
0
  0
VERTEX
  8
0
 10
126.8795586302
 20
726.7839561271999
 30
0
  0
SEQEND
  8
0
  0
POLYLINE
  8
0
 62
7
 66
1
  0
VERTEX
  8
0
 10
126.3767934515
 20
718.1437022108
 30
0
  0
VERTEX
  8
0
 10
127.302930422
 20
718.3523957672999
 30
0
  0
VERTEX
  8
0
 10
128.0902779772
 20
718.9002071563
 30
0
  0
SEQEND
  8
0
  0
POLYLINE
  8
0
 62
7
 66
1
  0
VERTEX
  8
0
 10
139.4928849413
 20
733.1913697589
 30
0
  0
VERTEX
  8
0
 10
138.7833810522
 20
733.0392587054
 30
0
  0
VERTEX
  8
0
 10
138.1795860006
 20
732.6258073616
 30
0
  0
SEQEND
  8
0
  0
POLYLINE
  8
0
 62
7
 66
1
  0
VERTEX
  8
0
 10
140.8027864172
 20
732.6258073616
 30
0
  0
VERTEX
  8
0
 10
140.2010477259
 20
733.0397951472
 30
0
  0
VERTEX
  8
0
 10
139.4928849413
 20
733.1913697589
 30
0
  0
SEQEND
  8
0
  0
POLYLINE
  8
0
 62
7
 66
1
  0
VERTEX
  8
0
 10
139.4928849413
 20
718.1437022108
 30
0
  0
VERTEX
  8
0
 10
140.1998258306
 20
718.2986277210998
 30
0
  0
VERTEX
  8
0
 10
140.8027864172
 20
718.7107379603999
 30
0
  0
SEQEND
  8
0
  0
POLYLINE
  8
0
 62
7
 66
1
  0
VERTEX
  8
0
 10
138.1795860006
 20
718.7107379603999
 30
0
  0
VERTEX
  8
0
 10
138.7846029474
 20
718.2991688195
 30
0
  0
VERTEX
  8
0
 10
139.4928849413
 20
718.1437022108
 30
0
  0
SEQEND
  8
0
  0
POLYLINE
  8
0
 62
7
 66
1
  0
VERTEX
  8
0
 10
136.363492079
 20
717.6728469375
 30
0
  0
VERTEX
  8
0
 10
135.6632269098
 20
718.4623514356999
 30
0
  0
VERTEX
  8
0
 10
135.1135230734
 20
719.3733823540999
 30
0
  0
VERTEX
  8
0
 10
134.6930719091
 20
720.3593176845
 30
0
  0
VERTEX
  8
0
 10
134.3895650579
 20
721.3949670139
 30
0
  0
VERTEX
  8
0
 10
134.1748989298
 20
722.4584712701999
 30
0
  0
VERTEX
  8
0
 10
134.0393579676
 20
723.5390988233999
 30
0
  0
VERTEX
  8
0
 10
133.9648819639
 20
724.6282749865
 30
0
  0
VERTEX
  8
0
 10
133.942053385
 20
725.7209016996999
 30
0
  0
SEQEND
  8
0
  0
POLYLINE
  8
0
 62
7
 66
1
  0
VERTEX
  8
0
 10
139.4928849413
 20
716.3702852147999
 30
0
  0
VERTEX
  8
0
 10
137.8057754709
 20
716.7137951645
 30
0
  0
VERTEX
  8
0
 10
136.363492079
 20
717.6728441435
 30
0
  0
SEQEND
  8
0
  0
POLYLINE
  8
0
 62
7
 66
1
  0
VERTEX
  8
0
 10
142.6188803388
 20
717.6728441435
 30
0
  0
VERTEX
  8
0
 10
141.1781168653
 20
716.7144405710999
 30
0
  0
VERTEX
  8
0
 10
139.4928849413
 20
716.3702852147999
 30
0
  0
SEQEND
  8
0
  0
POLYLINE
  8
0
 62
7
 66
1
  0
VERTEX
  8
0
 10
142.6188803388
 20
733.6609127986999
 30
0
  0
VERTEX
  8
0
 10
143.3130956365
 20
732.8831243384
 30
0
  0
VERTEX
  8
0
 10
143.8624418451
 20
731.9876949357999
 30
0
  0
VERTEX
  8
0
 10
144.5890224649
 20
729.9956741798001
 30
0
  0
VERTEX
  8
0
 10
144.8046124651
 20
728.9458110052001
 30
0
  0
VERTEX
  8
0
 10
144.9420309736
 20
727.8783458339999
 30
0
  0
VERTEX
  8
0
 10
145.0171030237
 20
726.8016140032
 30
0
  0
VERTEX
  8
0
 10
145.0402892305
 20
725.7209016996999
 30
0
  0
SEQEND
  8
0
  0
POLYLINE
  8
0
 62
7
 66
1
  0
VERTEX
  8
0
 10
139.4928849413
 20
734.9662545192
 30
0
  0
VERTEX
  8
0
 10
141.1796963884
 20
734.6222835648
 30
0
  0
VERTEX
  8
0
 10
142.6188505365
 20
733.6609165238999
 30
0
  0
SEQEND
  8
0
  0
POLYLINE
  8
0
 62
7
 66
1
  0
VERTEX
  8
0
 10
136.363492079
 20
733.6609127986999
 30
0
  0
VERTEX
  8
0
 10
137.8041959478
 20
734.6229373532999
 30
0
  0
VERTEX
  8
0
 10
139.4928849413
 20
734.9662545192
 30
0
  0
SEQEND
  8
0
  0
POLYLINE
  8
0
 62
7
 66
1
  0
VERTEX
  8
0
 10
152.7119732572
 20
724.1100936252001
 30
0
  0
VERTEX
  8
0
 10
152.2280729486
 20
724.0231853964999
 30
0
  0
VERTEX
  8
0
 10
151.7975784017
 20
723.774784902
 30
0
  0
SEQEND
  8
0
  0
POLYLINE
  8
0
 62
7
 66
1
  0
VERTEX
  8
0
 10
153.4363783075
 20
723.1716753039
 30
0
  0
VERTEX
  8
0
 10
153.4125364496
 20
723.5517052057999
 30
0
  0
VERTEX
  8
0
 10
153.2938636019
 20
723.9088879021999
 30
0
  0
SEQEND
  8
0
  0
POLYLINE
  8
0
 62
7
 66
1
  0
VERTEX
  8
0
 10
157.2839773371
 20
723.9088879021999
 30
0
  0
VERTEX
  8
0
 10
156.9682515337
 20
724.0679978448
 30
0
  0
VERTEX
  8
0
 10
156.6189683153
 20
724.1100936252001
 30
0
  0
SEQEND
  8
0
  0
POLYLINE
  8
0
 62
7
 66
1
  0
VERTEX
  8
0
 10
157.5096107199
 20
723.1047057602
 30
0
  0
VERTEX
  8
0
 10
157.4641323759
 20
723.5289129483999
 30
0
  0
VERTEX
  8
0
 10
157.2839773371
 20
723.9088879021999
 30
0
  0
SEQEND
  8
0
  0
POLYLINE
  8
0
 62
7
 66
1
  0
VERTEX
  8
0
 10
163.3522964193
 20
724.1100936252001
 30
0
  0
VERTEX
  8
0
 10
162.8683663084
 20
724.0231853964999
 30
0
  0
VERTEX
  8
0
 10
162.4379015638
 20
723.774784902
 30
0
  0
SEQEND
  8
0
  0
POLYLINE
  8
0
 62
7
 66
1
  0
VERTEX
  8
0
 10
164.0766716673
 20
723.1716753039
 30
0
  0
VERTEX
  8
0
 10
164.0528596117
 20
723.5517052057999
 30
0
  0
VERTEX
  8
0
 10
163.9341867639
 20
723.9088879021999
 30
0
  0
SEQEND
  8
0
  0
POLYLINE
  8
0
 62
7
 66
1
  0
VERTEX
  8
0
 10
167.9243004991
 20
723.9088879021999
 30
0
  0
VERTEX
  8
0
 10
167.6085746958
 20
724.0679978448
 30
0
  0
VERTEX
  8
0
 10
167.2592914774
 20
724.1100936252001
 30
0
  0
SEQEND
  8
0
  0
POLYLINE
  8
0
 62
7
 66
1
  0
VERTEX
  8
0
 10
168.1499338819
 20
723.1047057602
 30
0
  0
VERTEX
  8
0
 10
168.104455538
 20
723.5289129483999
 30
0
  0
VERTEX
  8
0
 10
167.9243004991
 20
723.9088879021999
 30
0
  0
SEQEND
  8
0
  0
POLYLINE
  8
0
 62
7
 66
1
  0
VERTEX
  8
0
 10
133.9534974768
 20
724.9867121744001
 30
0
  0
VERTEX
  8
0
 10
133.953706093
 20
724.9680857229
 30
0
  0
VERTEX
  8
0
 10
133.9538849069
 20
724.9491426218001
 30
0
  0
SEQEND
  8
0
  0
POINT
  8
0
 62
7
  6
DASHED
 10
339.2206109239
 20
399.968532231
 30
0
  0
POINT
  8
0
 62
7
  6
DASHED
 10
342.2206109239
 20
399.718532231
 30
0
  0
POINT
  8
0
 62
7
  6
DASHED
 10
472.2206109239
 20
797.4756452697
 30
0
  0
POINT
  8
0
 62
7
  6
DASHED
 10
472.2206109239
 20
653.4756452697
 30
0
  0
LINE
  8
1
 62
7
 10
477.6367756203172
 20
410.44573949686
 30
0
 11
477.7386402036512
 21
409.91657283019
 31
0
  0
LINE
  8
1
 62
7
 10
477.4330464536492
 20
410.8426144968625
 30
0
 11
477.6367756203172
 21
410.44573949686
 31
0
  0
LINE
  8
1
 62
7
 10
477.2293172869813
 20
411.1071978301975
 30
0
 11
477.4330464536492
 21
410.8426144968625
 31
0
  0
LINE
  8
1
 62
7
 10
476.9237235369794
 20
411.3717811635326
 30
0
 11
477.2293172869813
 21
411.1071978301975
 31
0
  0
LINE
  8
1
 62
7
 10
476.5162652036435
 20
411.5040728302
 30
0
 11
476.9237235369794
 21
411.3717811635326
 31
0
  0
LINE
  8
1
 62
7
 10
474.8864318702999
 20
411.5040728302
 30
0
 11
476.5162652036435
 21
411.5040728302
 31
0
  0
LINE
  8
1
 62
7
 10
474.8864318702999
 20
406.2124061635
 30
0
 11
474.8864318702999
 21
411.5040728302
 31
0
  0
LINE
  8
1
 62
7
 10
476.5162652036435
 20
406.2124061635
 30
0
 11
474.8864318702999
 21
406.2124061635
 31
0
  0
LINE
  8
1
 62
7
 10
476.9237235369794
 20
406.3446978301676
 30
0
 11
476.5162652036435
 21
406.2124061635
 31
0
  0
LINE
  8
1
 62
7
 10
477.2293172869813
 20
406.6092811635025
 30
0
 11
476.9237235369794
 21
406.3446978301676
 31
0
  0
LINE
  8
1
 62
7
 10
477.4330464536492
 20
406.8738644968375
 30
0
 11
477.2293172869813
 21
406.6092811635025
 31
0
  0
LINE
  8
1
 62
7
 10
477.6367756203172
 20
407.27073949684
 30
0
 11
477.4330464536492
 21
406.8738644968375
 31
0
  0
LINE
  8
1
 62
7
 10
477.7386402036512
 20
407.79990616351
 30
0
 11
477.6367756203172
 21
407.27073949684
 31
0
  0
LINE
  8
1
 62
7
 10
477.7386402036512
 20
409.91657283019
 30
0
 11
477.7386402036512
 21
407.79990616351
 31
0
  0
LINE
  8
1
 62
2
 10
435.2139827692176
 20
342.8277670197001
 30
0
 11
434.9829827692176
 21
342.2277670197
 31
0
  0
LINE
  8
1
 62
2
 10
435.3294827692176
 20
343.4277670197
 30
0
 11
435.2139827692176
 21
342.8277670197001
 31
0
  0
LINE
  8
1
 62
2
 10
435.3294827692176
 20
344.0277670197
 30
0
 11
435.3294827692176
 21
343.4277670197
 31
0
  0
LINE
  8
1
 62
2
 10
435.2139827692176
 20
344.6277670197
 30
0
 11
435.3294827692176
 21
344.0277670197
 31
0
  0
LINE
  8
1
 62
2
 10
434.9829827692176
 20
345.2277670197
 30
0
 11
435.2139827692176
 21
344.6277670197
 31
0
  0
LINE
  8
1
 62
2
 10
432.6729827692176
 20
344.5277670197
 30
0
 11
433.0126886515706
 21
344.5277670197
 31
0
  0
LINE
  8
1
 62
2
 10
432.6729827692176
 20
344.5277670197
 30
0
 11
432.6729827692176
 21
342.2277670197
 31
0
  0
LINE
  8
1
 62
2
 10
433.2165121809823
 20
343.8277670197001
 30
0
 11
433.0126886515706
 21
343.2277670197
 31
0
  0
LINE
  8
1
 62
2
 10
434.0997474751
 20
344.1277670197
 30
0
 11
434.3715121809823
 21
344.1277670197
 31
0
  0
LINE
  8
1
 62
2
 10
434.0997474751
 20
342.2277670197
 30
0
 11
433.6241592398059
 21
342.5277670197
 31
0
  0
LINE
  8
1
 62
2
 10
434.0997474751
 20
344.1277670197
 30
0
 11
434.0997474751
 21
342.2277670197
 31
0
  0
LINE
  8
1
 62
2
 10
433.4882768868647
 20
344.1277670197
 30
0
 11
434.0997474751
 21
344.1277670197
 31
0
  0
LINE
  8
1
 62
2
 10
433.4882768868647
 20
345.0277670197
 30
0
 11
434.3035710045118
 21
345.0277670197
 31
0
  0
LINE
  8
1
 62
2
 10
433.2165121809823
 20
343.8277670197001
 30
0
 11
433.2165121809823
 21
342.2277670197
 31
0
  0
LINE
  8
1
 62
2
 10
433.4203357103941
 20
344.4277670197
 30
0
 11
433.2165121809823
 21
343.8277670197001
 31
0
  0
LINE
  8
1
 62
2
 10
433.3523945339235
 20
345.2277670197
 30
0
 11
433.0126886515706
 21
344.2277670197
 31
0
  0
LINE
  8
1
 62
2
 10
432.6729827692176
 20
344.5277670197
 30
0
 11
433.0126886515706
 21
343.4277670197
 31
0
  0
LINE
  8
1
 62
2
 10
432.6729827692176
 20
344.5277670197
 30
0
 11
432.3332768868647
 21
343.1277670197
 31
0
  0
LINE
  8
1
 62
2
 10
432.6729827692176
 20
345.2277670197
 30
0
 11
432.6729827692176
 21
344.5277670197
 31
0
  0
LINE
  8
1
 62
2
 10
432.3332768868647
 20
344.5277670197
 30
0
 11
432.6729827692176
 21
344.5277670197
 31
0
  0
LINE
  8
1
 62
2
 10
429.9553357103941
 20
342.2277670197
 30
0
 11
431.450041592747
 21
342.2277670197
 31
0
  0
LINE
  8
1
 62
2
 10
430.0912180633353
 20
342.7277670197
 30
0
 11
429.9553357103941
 21
342.2277670197
 31
0
  0
LINE
  8
1
 62
2
 10
430.2271004162765
 20
343.0277670197
 30
0
 11
430.0912180633353
 21
342.7277670197
 31
0
  0
LINE
  8
1
 62
2
 10
430.4988651221588
 20
343.3277670197001
 30
0
 11
430.2271004162765
 21
343.0277670197
 31
0
  0
LINE
  8
1
 62
2
 10
430.7706298280412
 20
343.5277670197
 30
0
 11
430.4988651221588
 21
343.3277670197001
 31
0
  0
LINE
  8
1
 62
2
 10
431.1103357103941
 20
343.8277670197001
 30
0
 11
430.7706298280412
 21
343.5277670197
 31
0
  0
LINE
  8
1
 62
2
 10
431.3141592398059
 20
344.2277670197
 30
0
 11
431.1103357103941
 21
343.8277670197001
 31
0
  0
LINE
  8
1
 62
2
 10
431.3821004162764
 20
344.6277670197
 30
0
 11
431.3141592398059
 21
344.2277670197
 31
0
  0
LINE
  8
1
 62
2
 10
431.1103357103941
 20
345.0277670197
 30
0
 11
431.3821004162764
 21
344.6277670197
 31
0
  0
LINE
  8
1
 62
2
 10
430.7026886515706
 20
345.2277670197
 30
0
 11
431.1103357103941
 21
345.0277670197
 31
0
  0
LINE
  8
1
 62
2
 10
430.2950415927471
 20
345.0277670197
 30
0
 11
430.7026886515706
 21
345.2277670197
 31
0
  0
LINE
  8
1
 62
2
 10
430.0232768868647
 20
344.6277670197
 30
0
 11
430.2950415927471
 21
345.0277670197
 31
0
  0
LINE
  8
1
 62
2
 10
427.9171004162764
 20
345.2277670197
 30
0
 11
428.9362180633353
 21
345.2277670197
 31
0
  0
LINE
  8
1
 62
2
 10
427.9171004162764
 20
344.5277670197
 30
0
 11
427.9171004162764
 21
342.2277670197
 31
0
  0
LINE
  8
1
 62
2
 10
427.9171004162764
 20
344.5277670197
 30
0
 11
428.8682768868647
 21
343.5277670197
 31
0
  0
LINE
  8
1
 62
2
 10
427.9171004162764
 20
345.2277670197
 30
0
 11
427.9171004162764
 21
344.5277670197
 31
0
  0
LINE
  8
1
 62
2
 10
426.8979827692176
 20
345.2277670197
 30
0
 11
427.9171004162764
 21
345.2277670197
 31
0
  0
LINE
  8
1
 62
2
 10
424.9276886515706
 20
344.6277670197
 30
0
 11
425.2673945339235
 21
344.6277670197
 31
0
  0
LINE
  8
1
 62
2
 10
424.9276886515706
 20
344.6277670197
 30
0
 11
424.9276886515706
 21
343.5277670197
 31
0
  0
LINE
  8
1
 62
2
 10
425.8109239456882
 20
344.6277670197
 30
0
 11
426.2185710045118
 21
344.6277670197
 31
0
  0
LINE
  8
1
 62
2
 10
425.8109239456882
 20
344.6277670197
 30
0
 11
425.8109239456882
 21
343.5277670197
 31
0
  0
LINE
  8
1
 62
2
 10
424.6559239456882
 20
342.6277670197
 30
0
 11
424.6559239456882
 21
342.7277670197
 31
0
  0
LINE
  8
1
 62
2
 10
426.0826886515706
 20
342.7277670197
 30
0
 11
426.0826886515706
 21
342.2277670197
 31
0
  0
LINE
  8
1
 62
2
 10
424.6559239456882
 20
342.7277670197
 30
0
 11
426.0826886515706
 21
342.7277670197
 31
0
  0
LINE
  8
1
 62
2
 10
424.6559239456882
 20
342.2277670197
 30
0
 11
424.6559239456882
 21
342.6277670197
 31
0
  0
LINE
  8
1
 62
2
 10
426.0826886515706
 20
342.2277670197
 30
0
 11
424.6559239456882
 21
342.2277670197
 31
0
  0
LINE
  8
1
 62
2
 10
426.0826886515706
 20
343.2277670197
 30
0
 11
426.0826886515706
 21
342.7277670197
 31
0
  0
LINE
  8
1
 62
2
 10
424.6559239456882
 20
343.2277670197
 30
0
 11
426.0826886515706
 21
343.2277670197
 31
0
  0
LINE
  8
1
 62
2
 10
424.6559239456882
 20
342.6277670197
 30
0
 11
424.6559239456882
 21
343.2277670197
 31
0
  0
LINE
  8
1
 62
2
 10
425.8109239456882
 20
344.6277670197
 30
0
 11
426.2865121809824
 21
343.6277670197
 31
0
  0
LINE
  8
1
 62
2
 10
425.8109239456882
 20
344.6277670197
 30
0
 11
425.4032768868647
 21
343.6277670197
 31
0
  0
LINE
  8
1
 62
2
 10
425.8109239456882
 20
345.0277670197
 30
0
 11
425.8109239456882
 21
344.6277670197
 31
0
  0
LINE
  8
1
 62
2
 10
425.4032768868647
 20
344.6277670197
 30
0
 11
425.8109239456882
 21
344.6277670197
 31
0
  0
LINE
  8
1
 62
2
 10
424.9276886515706
 20
344.6277670197
 30
0
 11
425.2673945339235
 21
343.9277670197
 31
0
  0
LINE
  8
1
 62
2
 10
424.9276886515706
 20
344.6277670197
 30
0
 11
424.5200415927471
 21
343.6277670197
 31
0
  0
LINE
  8
1
 62
2
 10
424.9276886515706
 20
345.0277670197
 30
0
 11
424.9276886515706
 21
344.6277670197
 31
0
  0
LINE
  8
1
 62
2
 10
424.5200415927471
 20
344.6277670197
 30
0
 11
424.9276886515706
 21
344.6277670197
 31
0
  0
LINE
  8
1
 62
2
 10
424.3841592398059
 20
345.1277670197
 30
0
 11
426.2865121809824
 21
345.1277670197
 31
0
  0
LINE
  8
1
 62
2
 10
424.3841592398059
 20
343.2277670197
 30
0
 11
424.3841592398059
 21
345.1277670197
 31
0
  0
LINE
  8
1
 62
2
 10
424.1803357103941
 20
342.4277670197
 30
0
 11
424.3841592398059
 21
343.2277670197
 31
0
  0
LINE
  8
1
 62
2
 10
422.210041592747
 20
345.1277670197
 30
0
 11
422.7535710045117
 21
345.1277670197
 31
0
  0
LINE
  8
1
 62
2
 10
422.7535710045117
 20
345.1277670197
 30
0
 11
423.5009239456882
 21
345.1277670197
 31
0
  0
LINE
  8
1
 62
2
 10
423.4329827692176
 20
343.0277670197
 30
0
 11
423.4329827692176
 21
342.2277670197
 31
0
  0
LINE
  8
1
 62
2
 10
422.7535710045117
 20
343.0277670197
 30
0
 11
423.4329827692176
 21
343.0277670197
 31
0
  0
LINE
  8
1
 62
2
 10
422.7535710045117
 20
345.1277670197
 30
0
 11
422.7535710045117
 21
343.0277670197
 31
0
  0
LINE
  8
1
 62
2
 10
422.210041592747
 20
343.7277670197
 30
0
 11
421.7344533574529
 21
343.0277670197
 31
0
  0
LINE
  8
1
 62
2
 10
422.210041592747
 20
345.1277670197
 30
0
 11
422.210041592747
 21
343.7277670197
 31
0
  0
LINE
  8
1
 62
2
 10
421.5306298280411
 20
342.2277670197
 30
0
 11
421.5306298280411
 21
344.3277670197001
 31
0
  0
LINE
  8
1
 62
2
 10
423.4329827692176
 20
342.2277670197
 30
0
 11
421.5306298280411
 21
342.2277670197
 31
0
  0
LINE
  8
1
 62
2
 10
423.4329827692176
 20
344.3277670197001
 30
0
 11
423.4329827692176
 21
343.0277670197
 31
0
  0
LINE
  8
1
 62
2
 10
421.5306298280411
 20
344.3277670197001
 30
0
 11
423.4329827692176
 21
344.3277670197001
 31
0
  0
LINE
  8
1
 62
2
 10
421.4626886515706
 20
345.1277670197
 30
0
 11
422.210041592747
 21
345.1277670197
 31
0
  0
LINE
  8
1
 62
2
 10
420.4707474751
 20
342.8277670197001
 30
0
 11
420.7017474751
 21
342.2277670197
 31
0
  0
LINE
  8
1
 62
2
 10
420.3552474751
 20
343.4277670197
 30
0
 11
420.4707474751
 21
342.8277670197001
 31
0
  0
LINE
  8
1
 62
2
 10
420.3552474751
 20
344.0277670197
 30
0
 11
420.3552474751
 21
343.4277670197
 31
0
  0
LINE
  8
1
 62
2
 10
420.4707474751
 20
344.6277670197
 30
0
 11
420.3552474751
 21
344.0277670197
 31
0
  0
LINE
  8
1
 62
2
 10
420.7017474751
 20
345.2277670197
 30
0
 11
420.4707474751
 21
344.6277670197
 31
0
  0
LINE
  8
1
 62
2
 10
504.1890726375411
 20
343.3277670197001
 30
0
 11
503.4417196963646
 21
343.3277670197001
 31
0
  0
LINE
  8
1
 62
2
 10
504.528778519894
 20
343.5277670197
 30
0
 11
504.1890726375411
 21
343.3277670197001
 31
0
  0
LINE
  8
1
 62
2
 10
504.7326020493057
 20
344.1277670197
 30
0
 11
504.528778519894
 21
343.5277670197
 31
0
  0
LINE
  8
1
 62
2
 10
504.8005432257763
 20
344.7277670197
 30
0
 11
504.7326020493057
 21
344.1277670197
 31
0
  0
LINE
  8
1
 62
2
 10
504.7326020493057
 20
345.4277670197
 30
0
 11
504.8005432257763
 21
344.7277670197
 31
0
  0
LINE
  8
1
 62
2
 10
504.528778519894
 20
345.9277670197
 30
0
 11
504.7326020493057
 21
345.4277670197
 31
0
  0
LINE
  8
1
 62
2
 10
504.1890726375411
 20
346.1277670197
 30
0
 11
504.528778519894
 21
345.9277670197
 31
0
  0
LINE
  8
1
 62
2
 10
503.4417196963646
 20
346.1277670197
 30
0
 11
504.1890726375411
 21
346.1277670197
 31
0
  0
LINE
  8
1
 62
2
 10
503.4417196963646
 20
343.3277670197001
 30
0
 11
503.4417196963646
 21
346.1277670197
 31
0
  0
LINE
  8
1
 62
2
 10
849.4548844927001
 20
684.3161348236
 30
0
 11
848.4153844927001
 21
683.7161348236
 31
0
  0
LINE
  8
1
 62
2
 10
850.2633844927001
 20
685.2161348236
 30
0
 11
849.4548844927001
 21
684.3161348236
 31
0
  0
LINE
  8
1
 62
2
 10
850.6098844927002
 20
685.8161348236
 30
0
 11
850.2633844927001
 21
685.2161348236
 31
0
  0
LINE
  8
1
 62
2
 10
850.7253844927002
 20
686.4161348236
 30
0
 11
850.6098844927002
 21
685.8161348236
 31
0
  0
LINE
  8
1
 62
2
 10
850.8408844927002
 20
687.1661348236
 30
0
 11
850.7253844927002
 21
686.4161348236
 31
0
  0
LINE
  8
1
 62
2
 10
850.8408844927002
 20
688.2161348236
 30
0
 11
850.8408844927002
 21
687.1661348236
 31
0
  0
LINE
  8
1
 62
2
 10
850.7253844927002
 20
688.8161348236
 30
0
 11
850.8408844927002
 21
688.2161348236
 31
0
  0
LINE
  8
1
 62
2
 10
850.4943844927002
 20
689.2661348235999
 30
0
 11
850.7253844927002
 21
688.8161348236
 31
0
  0
LINE
  8
1
 62
2
 10
850.1478844927001
 20
689.5661348236
 30
0
 11
850.4943844927002
 21
689.2661348235999
 31
0
  0
LINE
  8
1
 62
2
 10
849.8013844927001
 20
689.7161348236
 30
0
 11
850.1478844927001
 21
689.5661348236
 31
0
  0
LINE
  8
1
 62
2
 10
849.1083844927001
 20
689.7161348236
 30
0
 11
849.8013844927001
 21
689.7161348236
 31
0
  0
LINE
  8
1
 62
2
 10
848.7618844927001
 20
689.5661348236
 30
0
 11
849.1083844927001
 21
689.7161348236
 31
0
  0
LINE
  8
1
 62
2
 10
848.4153844927001
 20
689.2661348235999
 30
0
 11
848.7618844927001
 21
689.5661348236
 31
0
  0
LINE
  8
1
 62
2
 10
848.1843844927001
 20
688.8161348236
 30
0
 11
848.4153844927001
 21
689.2661348235999
 31
0
  0
LINE
  8
1
 62
2
 10
848.0688844927001
 20
688.2161348236
 30
0
 11
848.1843844927001
 21
688.8161348236
 31
0
  0
LINE
  8
1
 62
2
 10
848.0688844927001
 20
687.9161348236
 30
0
 11
848.0688844927001
 21
688.2161348236
 31
0
  0
LINE
  8
1
 62
2
 10
848.1843844927001
 20
687.3161348236
 30
0
 11
848.0688844927001
 21
687.9161348236
 31
0
  0
LINE
  8
1
 62
2
 10
848.4153844927001
 20
686.8661348236
 30
0
 11
848.1843844927001
 21
687.3161348236
 31
0
  0
LINE
  8
1
 62
2
 10
848.7618844927001
 20
686.5661348236
 30
0
 11
848.4153844927001
 21
686.8661348236
 31
0
  0
LINE
  8
1
 62
2
 10
849.1083844927001
 20
686.4161348236
 30
0
 11
848.7618844927001
 21
686.5661348236
 31
0
  0
LINE
  8
1
 62
2
 10
850.7253844927002
 20
686.4161348236
 30
0
 11
849.1083844927001
 21
686.4161348236
 31
0
  0
LINE
  8
1
 62
2
 10
846.6828844927001
 20
689.7161348236
 30
0
 11
846.6828844927001
 21
683.7161348236
 31
0
  0
LINE
  8
1
 62
2
 10
845.2968844927001
 20
687.9161348236
 30
0
 11
846.6828844927001
 21
689.7161348236
 31
0
  0
LINE
  8
1
 62
2
 10
814.0850524045001
 20
686.1161348236
 30
0
 11
814.0850524045001
 21
683.7161348236
 31
0
  0
LINE
  8
1
 62
2
 10
812.0060524045001
 20
684.9161348236
 30
0
 11
814.7780524045002
 21
684.9161348236
 31
0
  0
LINE
  8
1
 62
2
 10
814.0850524045001
 20
689.7161348236
 30
0
 11
812.0060524045001
 21
684.9161348236
 31
0
  0
LINE
  8
1
 62
2
 10
780.1900536827001
 20
688.3661348236
 30
0
 11
781.4605536827
 21
689.7161348236
 31
0
  0
LINE
  8
1
 62
2
 10
779.7280536827001
 20
687.6161348236
 30
0
 11
780.1900536827001
 21
688.3661348236
 31
0
  0
LINE
  8
1
 62
2
 10
779.4970536827001
 20
687.0161348235999
 30
0
 11
779.7280536827001
 21
687.6161348236
 31
0
  0
LINE
  8
1
 62
2
 10
779.3815536827001
 20
685.8161348236
 30
0
 11
779.4970536827001
 21
687.0161348235999
 31
0
  0
LINE
  8
1
 62
2
 10
779.3815536827001
 20
685.2161348236
 30
0
 11
779.3815536827001
 21
685.8161348236
 31
0
  0
LINE
  8
1
 62
2
 10
779.4970536827001
 20
684.6161348236
 30
0
 11
779.3815536827001
 21
685.2161348236
 31
0
  0
LINE
  8
1
 62
2
 10
779.7280536827001
 20
684.1661348236
 30
0
 11
779.4970536827001
 21
684.6161348236
 31
0
  0
LINE
  8
1
 62
2
 10
780.0745536827001
 20
683.8661348236
 30
0
 11
779.7280536827001
 21
684.1661348236
 31
0
  0
LINE
  8
1
 62
2
 10
780.4210536827001
 20
683.7161348236
 30
0
 11
780.0745536827001
 21
683.8661348236
 31
0
  0
LINE
  8
1
 62
2
 10
781.1140536827001
 20
683.7161348236
 30
0
 11
780.4210536827001
 21
683.7161348236
 31
0
  0
LINE
  8
1
 62
2
 10
781.4605536827
 20
683.8661348236
 30
0
 11
781.1140536827001
 21
683.7161348236
 31
0
  0
LINE
  8
1
 62
2
 10
781.8070536827001
 20
684.1661348236
 30
0
 11
781.4605536827
 21
683.8661348236
 31
0
  0
LINE
  8
1
 62
2
 10
782.0380536827001
 20
684.6161348236
 30
0
 11
781.8070536827001
 21
684.1661348236
 31
0
  0
LINE
  8
1
 62
2
 10
782.1535536827001
 20
685.2161348236
 30
0
 11
782.0380536827001
 21
684.6161348236
 31
0
  0
LINE
  8
1
 62
2
 10
782.1535536827001
 20
685.8161348236
 30
0
 11
782.1535536827001
 21
685.2161348236
 31
0
  0
LINE
  8
1
 62
2
 10
782.0380536827001
 20
686.4161348236
 30
0
 11
782.1535536827001
 21
685.8161348236
 31
0
  0
LINE
  8
1
 62
2
 10
781.8070536827001
 20
686.8661348236
 30
0
 11
782.0380536827001
 21
686.4161348236
 31
0
  0
LINE
  8
1
 62
2
 10
781.4605536827
 20
687.1661348236
 30
0
 11
781.8070536827001
 21
686.8661348236
 31
0
  0
LINE
  8
1
 62
2
 10
781.1140536827001
 20
687.3161348236
 30
0
 11
781.4605536827
 21
687.1661348236
 31
0
  0
LINE
  8
1
 62
2
 10
780.4210536827001
 20
687.3161348236
 30
0
 11
781.1140536827001
 21
687.3161348236
 31
0
  0
LINE
  8
1
 62
2
 10
780.0745536827001
 20
687.1661348236
 30
0
 11
780.4210536827001
 21
687.3161348236
 31
0
  0
LINE
  8
1
 62
2
 10
779.7280536827001
 20
686.8661348236
 30
0
 11
780.0745536827001
 21
687.1661348236
 31
0
  0
LINE
  8
1
 62
2
 10
779.4970536827001
 20
686.4161348236
 30
0
 11
779.7280536827001
 21
686.8661348236
 31
0
  0
LINE
  8
1
 62
2
 10
779.3815536827001
 20
685.8161348236
 30
0
 11
779.4970536827001
 21
686.4161348236
 31
0
  0
LINE
  8
1
 62
2
 10
776.6095536827
 20
684.3161348236
 30
0
 11
775.5700536827001
 21
683.7161348236
 31
0
  0
LINE
  8
1
 62
2
 10
777.4180536827
 20
685.2161348236
 30
0
 11
776.6095536827
 21
684.3161348236
 31
0
  0
LINE
  8
1
 62
2
 10
777.7645536827001
 20
685.8161348236
 30
0
 11
777.4180536827
 21
685.2161348236
 31
0
  0
LINE
  8
1
 62
2
 10
777.8800536827001
 20
686.4161348236
 30
0
 11
777.7645536827001
 21
685.8161348236
 31
0
  0
LINE
  8
1
 62
2
 10
777.9955536827001
 20
687.1661348236
 30
0
 11
777.8800536827001
 21
686.4161348236
 31
0
  0
LINE
  8
1
 62
2
 10
777.9955536827001
 20
688.2161348236
 30
0
 11
777.9955536827001
 21
687.1661348236
 31
0
  0
LINE
  8
1
 62
2
 10
777.8800536827001
 20
688.8161348236
 30
0
 11
777.9955536827001
 21
688.2161348236
 31
0
  0
LINE
  8
1
 62
2
 10
777.6490536827001
 20
689.2661348235999
 30
0
 11
777.8800536827001
 21
688.8161348236
 31
0
  0
LINE
  8
1
 62
2
 10
777.3025536827
 20
689.5661348236
 30
0
 11
777.6490536827001
 21
689.2661348235999
 31
0
  0
LINE
  8
1
 62
2
 10
776.9560536827
 20
689.7161348236
 30
0
 11
777.3025536827
 21
689.5661348236
 31
0
  0
LINE
  8
1
 62
2
 10
776.2630536827001
 20
689.7161348236
 30
0
 11
776.9560536827
 21
689.7161348236
 31
0
  0
LINE
  8
1
 62
2
 10
775.9165536827001
 20
689.5661348236
 30
0
 11
776.2630536827001
 21
689.7161348236
 31
0
  0
LINE
  8
1
 62
2
 10
775.5700536827001
 20
689.2661348235999
 30
0
 11
775.9165536827001
 21
689.5661348236
 31
0
  0
LINE
  8
1
 62
2
 10
775.3390536827001
 20
688.8161348236
 30
0
 11
775.5700536827001
 21
689.2661348235999
 31
0
  0
LINE
  8
1
 62
2
 10
775.2235536827001
 20
688.2161348236
 30
0
 11
775.3390536827001
 21
688.8161348236
 31
0
  0
LINE
  8
1
 62
2
 10
775.2235536827001
 20
687.9161348236
 30
0
 11
775.2235536827001
 21
688.2161348236
 31
0
  0
LINE
  8
1
 62
2
 10
775.3390536827001
 20
687.3161348236
 30
0
 11
775.2235536827001
 21
687.9161348236
 31
0
  0
LINE
  8
1
 62
2
 10
775.5700536827001
 20
686.8661348236
 30
0
 11
775.3390536827001
 21
687.3161348236
 31
0
  0
LINE
  8
1
 62
2
 10
775.9165536827001
 20
686.5661348236
 30
0
 11
775.5700536827001
 21
686.8661348236
 31
0
  0
LINE
  8
1
 62
2
 10
776.2630536827001
 20
686.4161348236
 30
0
 11
775.9165536827001
 21
686.5661348236
 31
0
  0
LINE
  8
1
 62
2
 10
777.8800536827001
 20
686.4161348236
 30
0
 11
776.2630536827001
 21
686.4161348236
 31
0
  0
LINE
  8
1
 62
2
 10
748.1430547281001
 20
687.4661348236
 30
0
 11
748.1430547281001
 21
685.9661348236
 31
0
  0
LINE
  8
1
 62
2
 10
748.0275547281001
 20
688.3661348236
 30
0
 11
748.1430547281001
 21
687.4661348236
 31
0
  0
LINE
  8
1
 62
2
 10
747.7965547281001
 20
688.9661348236
 30
0
 11
748.0275547281001
 21
688.3661348236
 31
0
  0
LINE
  8
1
 62
2
 10
747.5655547281
 20
689.2661348235999
 30
0
 11
747.7965547281001
 21
688.9661348236
 31
0
  0
LINE
  8
1
 62
2
 10
747.2190547281
 20
689.5661348236
 30
0
 11
747.5655547281
 21
689.2661348235999
 31
0
  0
LINE
  8
1
 62
2
 10
746.8725547281
 20
689.7161348236
 30
0
 11
747.2190547281
 21
689.5661348236
 31
0
  0
LINE
  8
1
 62
2
 10
746.6415547281
 20
689.7161348236
 30
0
 11
746.8725547281
 21
689.7161348236
 31
0
  0
LINE
  8
1
 62
2
 10
746.2950547281
 20
689.5661348236
 30
0
 11
746.6415547281
 21
689.7161348236
 31
0
  0
LINE
  8
1
 62
2
 10
745.9485547281
 20
689.2661348235999
 30
0
 11
746.2950547281
 21
689.5661348236
 31
0
  0
LINE
  8
1
 62
2
 10
745.7175547281
 20
688.9661348236
 30
0
 11
745.9485547281
 21
689.2661348235999
 31
0
  0
LINE
  8
1
 62
2
 10
745.4865547281
 20
688.3661348236
 30
0
 11
745.7175547281
 21
688.9661348236
 31
0
  0
LINE
  8
1
 62
2
 10
745.3710547281
 20
687.4661348236
 30
0
 11
745.4865547281
 21
688.3661348236
 31
0
  0
LINE
  8
1
 62
2
 10
745.3710547281
 20
685.9661348236
 30
0
 11
745.3710547281
 21
687.4661348236
 31
0
  0
LINE
  8
1
 62
2
 10
745.4865547281
 20
685.0661348236
 30
0
 11
745.3710547281
 21
685.9661348236
 31
0
  0
LINE
  8
1
 62
2
 10
745.7175547281
 20
684.4661348236
 30
0
 11
745.4865547281
 21
685.0661348236
 31
0
  0
LINE
  8
1
 62
2
 10
745.9485547281
 20
684.1661348236
 30
0
 11
745.7175547281
 21
684.4661348236
 31
0
  0
LINE
  8
1
 62
2
 10
746.2950547281
 20
683.8661348236
 30
0
 11
745.9485547281
 21
684.1661348236
 31
0
  0
LINE
  8
1
 62
2
 10
746.6415547281
 20
683.7161348236
 30
0
 11
746.2950547281
 21
683.8661348236
 31
0
  0
LINE
  8
1
 62
2
 10
746.8725547281
 20
683.7161348236
 30
0
 11
746.6415547281
 21
683.7161348236
 31
0
  0
LINE
  8
1
 62
2
 10
747.2190547281
 20
683.8661348236
 30
0
 11
746.8725547281
 21
683.7161348236
 31
0
  0
LINE
  8
1
 62
2
 10
747.5655547281
 20
684.1661348236
 30
0
 11
747.2190547281
 21
683.8661348236
 31
0
  0
LINE
  8
1
 62
2
 10
747.7965547281001
 20
684.4661348236
 30
0
 11
747.5655547281
 21
684.1661348236
 31
0
  0
LINE
  8
1
 62
2
 10
748.0275547281001
 20
685.0661348236
 30
0
 11
747.7965547281001
 21
684.4661348236
 31
0
  0
LINE
  8
1
 62
2
 10
748.1430547281001
 20
685.9661348236
 30
0
 11
748.0275547281001
 21
685.0661348236
 31
0
  0
LINE
  8
1
 62
2
 10
741.2130547281001
 20
683.7161348236
 30
0
 11
743.9850547281002
 21
683.7161348236
 31
0
  0
LINE
  8
1
 62
2
 10
743.7540547281002
 20
687.6161348236
 30
0
 11
741.2130547281001
 21
683.7161348236
 31
0
  0
LINE
  8
1
 62
2
 10
743.9850547281002
 20
688.2161348236
 30
0
 11
743.7540547281002
 21
687.6161348236
 31
0
  0
LINE
  8
1
 62
2
 10
743.9850547281002
 20
688.8161348236
 30
0
 11
743.9850547281002
 21
688.2161348236
 31
0
  0
LINE
  8
1
 62
2
 10
743.7540547281002
 20
689.2661348235999
 30
0
 11
743.9850547281002
 21
688.8161348236
 31
0
  0
LINE
  8
1
 62
2
 10
743.4075547281001
 20
689.5661348236
 30
0
 11
743.7540547281002
 21
689.2661348235999
 31
0
  0
LINE
  8
1
 62
2
 10
742.9455547281001
 20
689.7161348236
 30
0
 11
743.4075547281001
 21
689.5661348236
 31
0
  0
LINE
  8
1
 62
2
 10
742.2525547281001
 20
689.7161348236
 30
0
 11
742.9455547281001
 21
689.7161348236
 31
0
  0
LINE
  8
1
 62
2
 10
741.7905547281001
 20
689.5661348236
 30
0
 11
742.2525547281001
 21
689.7161348236
 31
0
  0
LINE
  8
1
 62
2
 10
741.4440547281001
 20
689.2661348235999
 30
0
 11
741.7905547281001
 21
689.5661348236
 31
0
  0
LINE
  8
1
 62
2
 10
741.2130547281001
 20
688.8161348236
 30
0
 11
741.4440547281001
 21
689.2661348235999
 31
0
  0
LINE
  8
1
 62
2
 10
739.8270547281001
 20
689.7161348236
 30
0
 11
739.8270547281001
 21
683.7161348236
 31
0
  0
LINE
  8
1
 62
2
 10
738.4410547281001
 20
687.9161348236
 30
0
 11
739.8270547281001
 21
689.7161348236
 31
0
  0
LINE
  8
1
 62
2
 10
711.1428893229
 20
688.3661348236
 30
0
 11
712.4133893229
 21
689.7161348236
 31
0
  0
LINE
  8
1
 62
2
 10
710.6808893229
 20
687.6161348236
 30
0
 11
711.1428893229
 21
688.3661348236
 31
0
  0
LINE
  8
1
 62
2
 10
710.4498893229001
 20
687.0161348235999
 30
0
 11
710.6808893229
 21
687.6161348236
 31
0
  0
LINE
  8
1
 62
2
 10
710.3343893229001
 20
685.8161348236
 30
0
 11
710.4498893229001
 21
687.0161348235999
 31
0
  0
LINE
  8
1
 62
2
 10
710.3343893229001
 20
685.2161348236
 30
0
 11
710.3343893229001
 21
685.8161348236
 31
0
  0
LINE
  8
1
 62
2
 10
710.4498893229001
 20
684.6161348236
 30
0
 11
710.3343893229001
 21
685.2161348236
 31
0
  0
LINE
  8
1
 62
2
 10
710.6808893229
 20
684.1661348236
 30
0
 11
710.4498893229001
 21
684.6161348236
 31
0
  0
LINE
  8
1
 62
2
 10
711.0273893229
 20
683.8661348236
 30
0
 11
710.6808893229
 21
684.1661348236
 31
0
  0
LINE
  8
1
 62
2
 10
711.3738893229
 20
683.7161348236
 30
0
 11
711.0273893229
 21
683.8661348236
 31
0
  0
LINE
  8
1
 62
2
 10
712.0668893229
 20
683.7161348236
 30
0
 11
711.3738893229
 21
683.7161348236
 31
0
  0
LINE
  8
1
 62
2
 10
712.4133893229
 20
683.8661348236
 30
0
 11
712.0668893229
 21
683.7161348236
 31
0
  0
LINE
  8
1
 62
2
 10
712.7598893229001
 20
684.1661348236
 30
0
 11
712.4133893229
 21
683.8661348236
 31
0
  0
LINE
  8
1
 62
2
 10
712.9908893229001
 20
684.6161348236
 30
0
 11
712.7598893229001
 21
684.1661348236
 31
0
  0
LINE
  8
1
 62
2
 10
713.1063893229001
 20
685.2161348236
 30
0
 11
712.9908893229001
 21
684.6161348236
 31
0
  0
LINE
  8
1
 62
2
 10
713.1063893229001
 20
685.8161348236
 30
0
 11
713.1063893229001
 21
685.2161348236
 31
0
  0
LINE
  8
1
 62
2
 10
712.9908893229001
 20
686.4161348236
 30
0
 11
713.1063893229001
 21
685.8161348236
 31
0
  0
LINE
  8
1
 62
2
 10
712.7598893229001
 20
686.8661348236
 30
0
 11
712.9908893229001
 21
686.4161348236
 31
0
  0
LINE
  8
1
 62
2
 10
712.4133893229
 20
687.1661348236
 30
0
 11
712.7598893229001
 21
686.8661348236
 31
0
  0
LINE
  8
1
 62
2
 10
712.0668893229
 20
687.3161348236
 30
0
 11
712.4133893229
 21
687.1661348236
 31
0
  0
LINE
  8
1
 62
2
 10
711.3738893229
 20
687.3161348236
 30
0
 11
712.0668893229
 21
687.3161348236
 31
0
  0
LINE
  8
1
 62
2
 10
711.0273893229
 20
687.1661348236
 30
0
 11
711.3738893229
 21
687.3161348236
 31
0
  0
LINE
  8
1
 62
2
 10
710.6808893229
 20
686.8661348236
 30
0
 11
711.0273893229
 21
687.1661348236
 31
0
  0
LINE
  8
1
 62
2
 10
710.4498893229001
 20
686.4161348236
 30
0
 11
710.6808893229
 21
686.8661348236
 31
0
  0
LINE
  8
1
 62
2
 10
710.3343893229001
 20
685.8161348236
 30
0
 11
710.4498893229001
 21
686.4161348236
 31
0
  0
LINE
  8
1
 62
2
 10
706.6383893229001
 20
689.2661348235999
 30
0
 11
706.9848893229001
 21
689.5661348236
 31
0
  0
LINE
  8
1
 62
2
 10
706.4073893229001
 20
688.8161348236
 30
0
 11
706.6383893229001
 21
689.2661348235999
 31
0
  0
LINE
  8
1
 62
2
 10
706.4073893229001
 20
688.2161348236
 30
0
 11
706.4073893229001
 21
688.8161348236
 31
0
  0
LINE
  8
1
 62
2
 10
706.6383893229001
 20
687.7661348235999
 30
0
 11
706.4073893229001
 21
688.2161348236
 31
0
  0
LINE
  8
1
 62
2
 10
706.9848893229001
 20
687.4661348236
 30
0
 11
706.6383893229001
 21
687.7661348235999
 31
0
  0
LINE
  8
1
 62
2
 10
707.3313893229001
 20
687.3161348236
 30
0
 11
706.9848893229001
 21
687.4661348236
 31
0
  0
LINE
  8
1
 62
2
 10
707.7933893229001
 20
687.3161348236
 30
0
 11
707.3313893229001
 21
687.3161348236
 31
0
  0
LINE
  8
1
 62
2
 10
708.1398893229001
 20
687.4661348236
 30
0
 11
707.7933893229001
 21
687.3161348236
 31
0
  0
LINE
  8
1
 62
2
 10
708.4863893229001
 20
687.7661348235999
 30
0
 11
708.1398893229001
 21
687.4661348236
 31
0
  0
LINE
  8
1
 62
2
 10
708.7173893229002
 20
688.2161348236
 30
0
 11
708.4863893229001
 21
687.7661348235999
 31
0
  0
LINE
  8
1
 62
2
 10
708.7173893229002
 20
688.8161348236
 30
0
 11
708.7173893229002
 21
688.2161348236
 31
0
  0
LINE
  8
1
 62
2
 10
708.4863893229001
 20
689.2661348235999
 30
0
 11
708.7173893229002
 21
688.8161348236
 31
0
  0
LINE
  8
1
 62
2
 10
708.1398893229001
 20
689.5661348236
 30
0
 11
708.4863893229001
 21
689.2661348235999
 31
0
  0
LINE
  8
1
 62
2
 10
707.7933893229001
 20
689.7161348236
 30
0
 11
708.1398893229001
 21
689.5661348236
 31
0
  0
LINE
  8
1
 62
2
 10
707.3313893229001
 20
689.7161348236
 30
0
 11
707.7933893229001
 21
689.7161348236
 31
0
  0
LINE
  8
1
 62
2
 10
706.9848893229001
 20
689.5661348236
 30
0
 11
707.3313893229001
 21
689.7161348236
 31
0
  0
LINE
  8
1
 62
2
 10
708.3708893229001
 20
687.0161348235999
 30
0
 11
707.7933893229001
 21
687.3161348236
 31
0
  0
LINE
  8
1
 62
2
 10
708.7173893229002
 20
686.5661348236
 30
0
 11
708.3708893229001
 21
687.0161348235999
 31
0
  0
LINE
  8
1
 62
2
 10
708.9483893229002
 20
685.9661348236
 30
0
 11
708.7173893229002
 21
686.5661348236
 31
0
  0
LINE
  8
1
 62
2
 10
708.9483893229002
 20
685.0661348236
 30
0
 11
708.9483893229002
 21
685.9661348236
 31
0
  0
LINE
  8
1
 62
2
 10
708.7173893229002
 20
684.4661348236
 30
0
 11
708.9483893229002
 21
685.0661348236
 31
0
  0
LINE
  8
1
 62
2
 10
708.3708893229001
 20
684.0161348235999
 30
0
 11
708.7173893229002
 21
684.4661348236
 31
0
  0
LINE
  8
1
 62
2
 10
707.9088893229001
 20
683.7161348236
 30
0
 11
708.3708893229001
 21
684.0161348235999
 31
0
  0
LINE
  8
1
 62
2
 10
707.2158893229001
 20
683.7161348236
 30
0
 11
707.9088893229001
 21
683.7161348236
 31
0
  0
LINE
  8
1
 62
2
 10
706.7538893229001
 20
684.0161348235999
 30
0
 11
707.2158893229001
 21
683.7161348236
 31
0
  0
LINE
  8
1
 62
2
 10
706.4073893229001
 20
684.4661348236
 30
0
 11
706.7538893229001
 21
684.0161348235999
 31
0
  0
LINE
  8
1
 62
2
 10
706.1763893229002
 20
685.0661348236
 30
0
 11
706.4073893229001
 21
684.4661348236
 31
0
  0
LINE
  8
1
 62
2
 10
706.1763893229002
 20
685.9661348236
 30
0
 11
706.1763893229002
 21
685.0661348236
 31
0
  0
LINE
  8
1
 62
2
 10
706.4073893229001
 20
686.5661348236
 30
0
 11
706.1763893229002
 21
685.9661348236
 31
0
  0
LINE
  8
1
 62
2
 10
706.7538893229001
 20
687.0161348235999
 30
0
 11
706.4073893229001
 21
686.5661348236
 31
0
  0
LINE
  8
1
 62
2
 10
707.3313893229001
 20
687.3161348236
 30
0
 11
706.7538893229001
 21
687.0161348235999
 31
0
  0
LINE
  8
1
 62
2
 10
704.7903893229001
 20
689.7161348236
 30
0
 11
704.7903893229001
 21
683.7161348236
 31
0
  0
LINE
  8
1
 62
2
 10
703.4043893229001
 20
687.9161348236
 30
0
 11
704.7903893229001
 21
689.7161348236
 31
0
  0
LINE
  8
1
 62
2
 10
679.3002246659
 20
685.5161348235999
 30
0
 11
679.3002246659
 21
689.7161348236
 31
0
  0
LINE
  8
1
 62
2
 10
679.3002246659
 20
683.7161348236
 30
0
 11
679.3002246659
 21
685.5161348235999
 31
0
  0
LINE
  8
1
 62
2
 10
680.2242246659
 20
686.7161348236
 30
0
 11
682.5342246659001
 21
683.7161348236
 31
0
  0
LINE
  8
1
 62
2
 10
682.5342246659001
 20
689.7161348236
 30
0
 11
680.2242246659
 21
686.7161348236
 31
0
  0
LINE
  8
1
 62
2
 10
680.2242246659
 20
686.7161348236
 30
0
 11
679.3002246659
 21
685.5161348235999
 31
0
  0
LINE
  8
1
 62
2
 10
677.9142246659002
 20
687.4661348236
 30
0
 11
677.9142246659002
 21
685.9661348236
 31
0
  0
LINE
  8
1
 62
2
 10
677.7987246659002
 20
688.3661348236
 30
0
 11
677.9142246659002
 21
687.4661348236
 31
0
  0
LINE
  8
1
 62
2
 10
677.5677246659002
 20
688.9661348236
 30
0
 11
677.7987246659002
 21
688.3661348236
 31
0
  0
LINE
  8
1
 62
2
 10
677.3367246659001
 20
689.2661348235999
 30
0
 11
677.5677246659002
 21
688.9661348236
 31
0
  0
LINE
  8
1
 62
2
 10
676.9902246659001
 20
689.5661348236
 30
0
 11
677.3367246659001
 21
689.2661348235999
 31
0
  0
LINE
  8
1
 62
2
 10
676.6437246659001
 20
689.7161348236
 30
0
 11
676.9902246659001
 21
689.5661348236
 31
0
  0
LINE
  8
1
 62
2
 10
676.4127246659001
 20
689.7161348236
 30
0
 11
676.6437246659001
 21
689.7161348236
 31
0
  0
LINE
  8
1
 62
2
 10
676.0662246659001
 20
689.5661348236
 30
0
 11
676.4127246659001
 21
689.7161348236
 31
0
  0
LINE
  8
1
 62
2
 10
675.7197246659001
 20
689.2661348235999
 30
0
 11
676.0662246659001
 21
689.5661348236
 31
0
  0
LINE
  8
1
 62
2
 10
675.4887246659001
 20
688.9661348236
 30
0
 11
675.7197246659001
 21
689.2661348235999
 31
0
  0
LINE
  8
1
 62
2
 10
675.2577246659001
 20
688.3661348236
 30
0
 11
675.4887246659001
 21
688.9661348236
 31
0
  0
LINE
  8
1
 62
2
 10
675.1422246659001
 20
687.4661348236
 30
0
 11
675.2577246659001
 21
688.3661348236
 31
0
  0
LINE
  8
1
 62
2
 10
675.1422246659001
 20
685.9661348236
 30
0
 11
675.1422246659001
 21
687.4661348236
 31
0
  0
LINE
  8
1
 62
2
 10
675.2577246659001
 20
685.0661348236
 30
0
 11
675.1422246659001
 21
685.9661348236
 31
0
  0
LINE
  8
1
 62
2
 10
675.4887246659001
 20
684.4661348236
 30
0
 11
675.2577246659001
 21
685.0661348236
 31
0
  0
LINE
  8
1
 62
2
 10
675.7197246659001
 20
684.1661348236
 30
0
 11
675.4887246659001
 21
684.4661348236
 31
0
  0
LINE
  8
1
 62
2
 10
676.0662246659001
 20
683.8661348236
 30
0
 11
675.7197246659001
 21
684.1661348236
 31
0
  0
LINE
  8
1
 62
2
 10
676.4127246659001
 20
683.7161348236
 30
0
 11
676.0662246659001
 21
683.8661348236
 31
0
  0
LINE
  8
1
 62
2
 10
676.6437246659001
 20
683.7161348236
 30
0
 11
676.4127246659001
 21
683.7161348236
 31
0
  0
LINE
  8
1
 62
2
 10
676.9902246659001
 20
683.8661348236
 30
0
 11
676.6437246659001
 21
683.7161348236
 31
0
  0
LINE
  8
1
 62
2
 10
677.3367246659001
 20
684.1661348236
 30
0
 11
676.9902246659001
 21
683.8661348236
 31
0
  0
LINE
  8
1
 62
2
 10
677.5677246659002
 20
684.4661348236
 30
0
 11
677.3367246659001
 21
684.1661348236
 31
0
  0
LINE
  8
1
 62
2
 10
677.7987246659002
 20
685.0661348236
 30
0
 11
677.5677246659002
 21
684.4661348236
 31
0
  0
LINE
  8
1
 62
2
 10
677.9142246659002
 20
685.9661348236
 30
0
 11
677.7987246659002
 21
685.0661348236
 31
0
  0
LINE
  8
1
 62
2
 10
673.7562246659001
 20
689.7161348236
 30
0
 11
673.7562246659001
 21
683.7161348236
 31
0
  0
LINE
  8
1
 62
2
 10
672.3702246659001
 20
687.9161348236
 30
0
 11
673.7562246659001
 21
689.7161348236
 31
0
  0
LINE
  8
1
 62
2
 10
667.9812246659001
 20
684.1661348236
 30
0
 11
667.7502246659001
 21
684.4661348236
 31
0
  0
LINE
  8
1
 62
2
 10
668.4432246659001
 20
683.8661348236
 30
0
 11
667.9812246659001
 21
684.1661348236
 31
0
  0
LINE
  8
1
 62
2
 10
669.0207246659001
 20
683.7161348236
 30
0
 11
668.4432246659001
 21
683.8661348236
 31
0
  0
LINE
  8
1
 62
2
 10
669.7137246659
 20
683.7161348236
 30
0
 11
669.0207246659001
 21
683.7161348236
 31
0
  0
LINE
  8
1
 62
2
 10
670.2912246659001
 20
683.8661348236
 30
0
 11
669.7137246659
 21
683.7161348236
 31
0
  0
LINE
  8
1
 62
2
 10
670.6377246659001
 20
684.1661348236
 30
0
 11
670.2912246659001
 21
683.8661348236
 31
0
  0
LINE
  8
1
 62
2
 10
670.8687246659001
 20
684.6161348236
 30
0
 11
670.6377246659001
 21
684.1661348236
 31
0
  0
LINE
  8
1
 62
2
 10
670.9842246659001
 20
685.0661348236
 30
0
 11
670.8687246659001
 21
684.6161348236
 31
0
  0
LINE
  8
1
 62
2
 10
670.9842246659001
 20
685.3661348236
 30
0
 11
670.9842246659001
 21
685.0661348236
 31
0
  0
LINE
  8
1
 62
2
 10
670.8687246659001
 20
685.8161348236
 30
0
 11
670.9842246659001
 21
685.3661348236
 31
0
  0
LINE
  8
1
 62
2
 10
670.6377246659001
 20
686.2661348235999
 30
0
 11
670.8687246659001
 21
685.8161348236
 31
0
  0
LINE
  8
1
 62
2
 10
670.2912246659001
 20
686.5661348236
 30
0
 11
670.6377246659001
 21
686.2661348235999
 31
0
  0
LINE
  8
1
 62
2
 10
668.3277246659001
 20
687.6161348236
 30
0
 11
670.2912246659001
 21
686.5661348236
 31
0
  0
LINE
  8
1
 62
2
 10
667.9812246659001
 20
687.9161348236
 30
0
 11
668.3277246659001
 21
687.6161348236
 31
0
  0
LINE
  8
1
 62
2
 10
667.8657246659001
 20
688.3661348236
 30
0
 11
667.9812246659001
 21
687.9161348236
 31
0
  0
LINE
  8
1
 62
2
 10
667.8657246659001
 20
688.6661348236
 30
0
 11
667.8657246659001
 21
688.3661348236
 31
0
  0
LINE
  8
1
 62
2
 10
667.9812246659001
 20
689.1161348236
 30
0
 11
667.8657246659001
 21
688.6661348236
 31
0
  0
LINE
  8
1
 62
2
 10
668.3277246659001
 20
689.4161348236
 30
0
 11
667.9812246659001
 21
689.1161348236
 31
0
  0
LINE
  8
1
 62
2
 10
668.6742246659001
 20
689.5661348236
 30
0
 11
668.3277246659001
 21
689.4161348236
 31
0
  0
LINE
  8
1
 62
2
 10
669.1362246659
 20
689.7161348236
 30
0
 11
668.6742246659001
 21
689.5661348236
 31
0
  0
LINE
  8
1
 62
2
 10
669.5982246659
 20
689.7161348236
 30
0
 11
669.1362246659
 21
689.7161348236
 31
0
  0
LINE
  8
1
 62
2
 10
670.1757246659001
 20
689.5661348236
 30
0
 11
669.5982246659
 21
689.7161348236
 31
0
  0
LINE
  8
1
 62
2
 10
670.5222246659001
 20
689.4161348236
 30
0
 11
670.1757246659001
 21
689.5661348236
 31
0
  0
LINE
  8
1
 62
2
 10
670.8687246659001
 20
689.1161348236
 30
0
 11
670.5222246659001
 21
689.4161348236
 31
0
  0
LINE
  8
1
 62
2
 10
666.3642246659001
 20
683.7161348236
 30
0
 11
666.3642246659001
 21
689.7161348236
 31
0
  0
LINE
  8
1
 62
2
 10
664.0542246659001
 20
683.7161348236
 30
0
 11
663.1302246659001
 21
683.7161348236
 31
0
  0
LINE
  8
1
 62
2
 10
664.4007246659
 20
683.8661348236
 30
0
 11
664.0542246659001
 21
683.7161348236
 31
0
  0
LINE
  8
1
 62
2
 10
664.7472246659
 20
684.1661348236
 30
0
 11
664.4007246659
 21
683.8661348236
 31
0
  0
LINE
  8
1
 62
2
 10
664.9782246659
 20
684.7661348235999
 30
0
 11
664.7472246659
 21
684.1661348236
 31
0
  0
LINE
  8
1
 62
2
 10
664.9782246659
 20
689.7161348236
 30
0
 11
664.9782246659
 21
684.7661348235999
 31
0
  0
LINE
  8
1
 62
2
 10
849.4548844927001
 20
694.3161352036001
 30
0
 11
848.4153844927001
 21
693.7161352036001
 31
0
  0
LINE
  8
1
 62
2
 10
850.2633844927001
 20
695.2161352036001
 30
0
 11
849.4548844927001
 21
694.3161352036001
 31
0
  0
LINE
  8
1
 62
2
 10
850.6098844927002
 20
695.8161352036001
 30
0
 11
850.2633844927001
 21
695.2161352036001
 31
0
  0
LINE
  8
1
 62
2
 10
850.7253844927002
 20
696.4161352036001
 30
0
 11
850.6098844927002
 21
695.8161352036001
 31
0
  0
LINE
  8
1
 62
2
 10
850.8408844927002
 20
697.1661352036001
 30
0
 11
850.7253844927002
 21
696.4161352036001
 31
0
  0
LINE
  8
1
 62
2
 10
850.8408844927002
 20
698.2161352036001
 30
0
 11
850.8408844927002
 21
697.1661352036001
 31
0
  0
LINE
  8
1
 62
2
 10
850.7253844927002
 20
698.8161352036001
 30
0
 11
850.8408844927002
 21
698.2161352036001
 31
0
  0
LINE
  8
1
 62
2
 10
850.4943844927002
 20
699.2661352036
 30
0
 11
850.7253844927002
 21
698.8161352036001
 31
0
  0
LINE
  8
1
 62
2
 10
850.1478844927001
 20
699.5661352036001
 30
0
 11
850.4943844927002
 21
699.2661352036
 31
0
  0
LINE
  8
1
 62
2
 10
849.8013844927001
 20
699.7161352036001
 30
0
 11
850.1478844927001
 21
699.5661352036001
 31
0
  0
LINE
  8
1
 62
2
 10
849.1083844927001
 20
699.7161352036001
 30
0
 11
849.8013844927001
 21
699.7161352036001
 31
0
  0
LINE
  8
1
 62
2
 10
848.7618844927001
 20
699.5661352036001
 30
0
 11
849.1083844927001
 21
699.7161352036001
 31
0
  0
LINE
  8
1
 62
2
 10
848.4153844927001
 20
699.2661352036
 30
0
 11
848.7618844927001
 21
699.5661352036001
 31
0
  0
LINE
  8
1
 62
2
 10
848.1843844927001
 20
698.8161352036001
 30
0
 11
848.4153844927001
 21
699.2661352036
 31
0
  0
LINE
  8
1
 62
2
 10
848.0688844927001
 20
698.2161352036001
 30
0
 11
848.1843844927001
 21
698.8161352036001
 31
0
  0
LINE
  8
1
 62
2
 10
848.0688844927001
 20
697.9161352036001
 30
0
 11
848.0688844927001
 21
698.2161352036001
 31
0
  0
LINE
  8
1
 62
2
 10
848.1843844927001
 20
697.3161352036001
 30
0
 11
848.0688844927001
 21
697.9161352036001
 31
0
  0
LINE
  8
1
 62
2
 10
848.4153844927001
 20
696.8661352036
 30
0
 11
848.1843844927001
 21
697.3161352036001
 31
0
  0
LINE
  8
1
 62
2
 10
848.7618844927001
 20
696.5661352036001
 30
0
 11
848.4153844927001
 21
696.8661352036
 31
0
  0
LINE
  8
1
 62
2
 10
849.1083844927001
 20
696.4161352036001
 30
0
 11
848.7618844927001
 21
696.5661352036001
 31
0
  0
LINE
  8
1
 62
2
 10
850.7253844927002
 20
696.4161352036001
 30
0
 11
849.1083844927001
 21
696.4161352036001
 31
0
  0
LINE
  8
1
 62
2
 10
846.6828844927001
 20
699.7161352036001
 30
0
 11
846.6828844927001
 21
693.7161352036001
 31
0
  0
LINE
  8
1
 62
2
 10
845.2968844927001
 20
697.9161352036001
 30
0
 11
846.6828844927001
 21
699.7161352036001
 31
0
  0
LINE
  8
1
 62
2
 10
814.0850524045001
 20
696.1161352036
 30
0
 11
814.0850524045001
 21
693.7161352036001
 31
0
  0
LINE
  8
1
 62
2
 10
812.0060524045001
 20
694.9161352036001
 30
0
 11
814.7780524045002
 21
694.9161352036001
 31
0
  0
LINE
  8
1
 62
2
 10
814.0850524045001
 20
699.7161352036001
 30
0
 11
812.0060524045001
 21
694.9161352036001
 31
0
  0
LINE
  8
1
 62
2
 10
783.1797201331
 20
697.4661352036001
 30
0
 11
783.1797201331
 21
695.9661352036001
 31
0
  0
LINE
  8
1
 62
2
 10
783.0642201331
 20
698.3661352036
 30
0
 11
783.1797201331
 21
697.4661352036001
 31
0
  0
LINE
  8
1
 62
2
 10
782.8332201331
 20
698.9661352036001
 30
0
 11
783.0642201331
 21
698.3661352036
 31
0
  0
LINE
  8
1
 62
2
 10
782.6022201330999
 20
699.2661352036
 30
0
 11
782.8332201331
 21
698.9661352036001
 31
0
  0
LINE
  8
1
 62
2
 10
782.2557201330999
 20
699.5661352036001
 30
0
 11
782.6022201330999
 21
699.2661352036
 31
0
  0
LINE
  8
1
 62
2
 10
781.9092201330999
 20
699.7161352036001
 30
0
 11
782.2557201330999
 21
699.5661352036001
 31
0
  0
LINE
  8
1
 62
2
 10
781.6782201330999
 20
699.7161352036001
 30
0
 11
781.9092201330999
 21
699.7161352036001
 31
0
  0
LINE
  8
1
 62
2
 10
781.3317201330999
 20
699.5661352036001
 30
0
 11
781.6782201330999
 21
699.7161352036001
 31
0
  0
LINE
  8
1
 62
2
 10
780.9852201330999
 20
699.2661352036
 30
0
 11
781.3317201330999
 21
699.5661352036001
 31
0
  0
LINE
  8
1
 62
2
 10
780.7542201330999
 20
698.9661352036001
 30
0
 11
780.9852201330999
 21
699.2661352036
 31
0
  0
LINE
  8
1
 62
2
 10
780.5232201330999
 20
698.3661352036
 30
0
 11
780.7542201330999
 21
698.9661352036001
 31
0
  0
LINE
  8
1
 62
2
 10
780.4077201330999
 20
697.4661352036001
 30
0
 11
780.5232201330999
 21
698.3661352036
 31
0
  0
LINE
  8
1
 62
2
 10
780.4077201330999
 20
695.9661352036001
 30
0
 11
780.4077201330999
 21
697.4661352036001
 31
0
  0
LINE
  8
1
 62
2
 10
780.5232201330999
 20
695.0661352036001
 30
0
 11
780.4077201330999
 21
695.9661352036001
 31
0
  0
LINE
  8
1
 62
2
 10
780.7542201330999
 20
694.4661352036001
 30
0
 11
780.5232201330999
 21
695.0661352036001
 31
0
  0
LINE
  8
1
 62
2
 10
780.9852201330999
 20
694.1661352036001
 30
0
 11
780.7542201330999
 21
694.4661352036001
 31
0
  0
LINE
  8
1
 62
2
 10
781.3317201330999
 20
693.8661352036
 30
0
 11
780.9852201330999
 21
694.1661352036001
 31
0
  0
LINE
  8
1
 62
2
 10
781.6782201330999
 20
693.7161352036001
 30
0
 11
781.3317201330999
 21
693.8661352036
 31
0
  0
LINE
  8
1
 62
2
 10
781.9092201330999
 20
693.7161352036001
 30
0
 11
781.6782201330999
 21
693.7161352036001
 31
0
  0
LINE
  8
1
 62
2
 10
782.2557201330999
 20
693.8661352036
 30
0
 11
781.9092201330999
 21
693.7161352036001
 31
0
  0
LINE
  8
1
 62
2
 10
782.6022201330999
 20
694.1661352036001
 30
0
 11
782.2557201330999
 21
693.8661352036
 31
0
  0
LINE
  8
1
 62
2
 10
782.8332201331
 20
694.4661352036001
 30
0
 11
782.6022201330999
 21
694.1661352036001
 31
0
  0
LINE
  8
1
 62
2
 10
783.0642201331
 20
695.0661352036001
 30
0
 11
782.8332201331
 21
694.4661352036001
 31
0
  0
LINE
  8
1
 62
2
 10
783.1797201331
 20
695.9661352036001
 30
0
 11
783.0642201331
 21
695.0661352036001
 31
0
  0
LINE
  8
1
 62
2
 10
779.0217201331001
 20
697.4661352036001
 30
0
 11
779.0217201331001
 21
695.9661352036001
 31
0
  0
LINE
  8
1
 62
2
 10
778.9062201331001
 20
698.3661352036
 30
0
 11
779.0217201331001
 21
697.4661352036001
 31
0
  0
LINE
  8
1
 62
2
 10
778.6752201331001
 20
698.9661352036001
 30
0
 11
778.9062201331001
 21
698.3661352036
 31
0
  0
LINE
  8
1
 62
2
 10
778.4442201331
 20
699.2661352036
 30
0
 11
778.6752201331001
 21
698.9661352036001
 31
0
  0
LINE
  8
1
 62
2
 10
778.0977201331
 20
699.5661352036001
 30
0
 11
778.4442201331
 21
699.2661352036
 31
0
  0
LINE
  8
1
 62
2
 10
777.7512201331
 20
699.7161352036001
 30
0
 11
778.0977201331
 21
699.5661352036001
 31
0
  0
LINE
  8
1
 62
2
 10
777.5202201331
 20
699.7161352036001
 30
0
 11
777.7512201331
 21
699.7161352036001
 31
0
  0
LINE
  8
1
 62
2
 10
777.1737201331
 20
699.5661352036001
 30
0
 11
777.5202201331
 21
699.7161352036001
 31
0
  0
LINE
  8
1
 62
2
 10
776.8272201331
 20
699.2661352036
 30
0
 11
777.1737201331
 21
699.5661352036001
 31
0
  0
LINE
  8
1
 62
2
 10
776.5962201331
 20
698.9661352036001
 30
0
 11
776.8272201331
 21
699.2661352036
 31
0
  0
LINE
  8
1
 62
2
 10
776.3652201331
 20
698.3661352036
 30
0
 11
776.5962201331
 21
698.9661352036001
 31
0
  0
LINE
  8
1
 62
2
 10
776.2497201331
 20
697.4661352036001
 30
0
 11
776.3652201331
 21
698.3661352036
 31
0
  0
LINE
  8
1
 62
2
 10
776.2497201331
 20
695.9661352036001
 30
0
 11
776.2497201331
 21
697.4661352036001
 31
0
  0
LINE
  8
1
 62
2
 10
776.3652201331
 20
695.0661352036001
 30
0
 11
776.2497201331
 21
695.9661352036001
 31
0
  0
LINE
  8
1
 62
2
 10
776.5962201331
 20
694.4661352036001
 30
0
 11
776.3652201331
 21
695.0661352036001
 31
0
  0
LINE
  8
1
 62
2
 10
776.8272201331
 20
694.1661352036001
 30
0
 11
776.5962201331
 21
694.4661352036001
 31
0
  0
LINE
  8
1
 62
2
 10
777.1737201331
 20
693.8661352036
 30
0
 11
776.8272201331
 21
694.1661352036001
 31
0
  0
LINE
  8
1
 62
2
 10
777.5202201331
 20
693.7161352036001
 30
0
 11
777.1737201331
 21
693.8661352036
 31
0
  0
LINE
  8
1
 62
2
 10
777.7512201331
 20
693.7161352036001
 30
0
 11
777.5202201331
 21
693.7161352036001
 31
0
  0
LINE
  8
1
 62
2
 10
778.0977201331
 20
693.8661352036
 30
0
 11
777.7512201331
 21
693.7161352036001
 31
0
  0
LINE
  8
1
 62
2
 10
778.4442201331
 20
694.1661352036001
 30
0
 11
778.0977201331
 21
693.8661352036
 31
0
  0
LINE
  8
1
 62
2
 10
778.6752201331001
 20
694.4661352036001
 30
0
 11
778.4442201331
 21
694.1661352036001
 31
0
  0
LINE
  8
1
 62
2
 10
778.9062201331001
 20
695.0661352036001
 30
0
 11
778.6752201331001
 21
694.4661352036001
 31
0
  0
LINE
  8
1
 62
2
 10
779.0217201331001
 20
695.9661352036001
 30
0
 11
778.9062201331001
 21
695.0661352036001
 31
0
  0
LINE
  8
1
 62
2
 10
774.8637201331
 20
699.7161352036001
 30
0
 11
774.8637201331
 21
693.7161352036001
 31
0
  0
LINE
  8
1
 62
2
 10
773.4777201331
 20
697.9161352036001
 30
0
 11
774.8637201331
 21
699.7161352036001
 31
0
  0
LINE
  8
1
 62
2
 10
747.1035547281
 20
693.7161352036001
 30
0
 11
745.3710547281
 21
693.7161352036001
 31
0
  0
LINE
  8
1
 62
2
 10
747.4500547281
 20
693.8661352036
 30
0
 11
747.1035547281
 21
693.7161352036001
 31
0
  0
LINE
  8
1
 62
2
 10
747.7965547281001
 20
694.1661352036001
 30
0
 11
747.4500547281
 21
693.8661352036
 31
0
  0
LINE
  8
1
 62
2
 10
748.0275547281001
 20
694.6161352036
 30
0
 11
747.7965547281001
 21
694.1661352036001
 31
0
  0
LINE
  8
1
 62
2
 10
748.1430547281001
 20
695.2161352036001
 30
0
 11
748.0275547281001
 21
694.6161352036
 31
0
  0
LINE
  8
1
 62
2
 10
748.1430547281001
 20
695.9661352036001
 30
0
 11
748.1430547281001
 21
695.2161352036001
 31
0
  0
LINE
  8
1
 62
2
 10
748.0275547281001
 20
696.5661352036001
 30
0
 11
748.1430547281001
 21
695.9661352036001
 31
0
  0
LINE
  8
1
 62
2
 10
747.9120547281001
 20
696.8661352036
 30
0
 11
748.0275547281001
 21
696.5661352036001
 31
0
  0
LINE
  8
1
 62
2
 10
747.6810547281
 20
697.1661352036001
 30
0
 11
747.9120547281001
 21
696.8661352036
 31
0
  0
LINE
  8
1
 62
2
 10
747.2190547281
 20
697.3161352036001
 30
0
 11
747.6810547281
 21
697.1661352036001
 31
0
  0
LINE
  8
1
 62
2
 10
747.5655547281
 20
697.4661352036001
 30
0
 11
747.2190547281
 21
697.3161352036001
 31
0
  0
LINE
  8
1
 62
2
 10
747.7965547281001
 20
697.6161352036
 30
0
 11
747.5655547281
 21
697.4661352036001
 31
0
  0
LINE
  8
1
 62
2
 10
748.0275547281001
 20
697.9161352036001
 30
0
 11
747.7965547281001
 21
697.6161352036
 31
0
  0
LINE
  8
1
 62
2
 10
748.1430547281001
 20
698.3661352036
 30
0
 11
748.0275547281001
 21
697.9161352036001
 31
0
  0
LINE
  8
1
 62
2
 10
748.1430547281001
 20
698.8161352036001
 30
0
 11
748.1430547281001
 21
698.3661352036
 31
0
  0
LINE
  8
1
 62
2
 10
748.0275547281001
 20
699.2661352036
 30
0
 11
748.1430547281001
 21
698.8161352036001
 31
0
  0
LINE
  8
1
 62
2
 10
747.6810547281
 20
699.5661352036001
 30
0
 11
748.0275547281001
 21
699.2661352036
 31
0
  0
LINE
  8
1
 62
2
 10
747.1035547281
 20
699.7161352036001
 30
0
 11
747.6810547281
 21
699.5661352036001
 31
0
  0
LINE
  8
1
 62
2
 10
745.3710547281
 20
699.7161352036001
 30
0
 11
747.1035547281
 21
699.7161352036001
 31
0
  0
LINE
  8
1
 62
2
 10
746.0640547281
 20
697.3161352036001
 30
0
 11
747.2190547281
 21
697.3161352036001
 31
0
  0
LINE
  8
1
 62
2
 10
743.2920547281001
 20
696.1161352036
 30
0
 11
743.2920547281001
 21
693.7161352036001
 31
0
  0
LINE
  8
1
 62
2
 10
741.2130547281001
 20
694.9161352036001
 30
0
 11
743.9850547281002
 21
694.9161352036001
 31
0
  0
LINE
  8
1
 62
2
 10
743.2920547281001
 20
699.7161352036001
 30
0
 11
741.2130547281001
 21
694.9161352036001
 31
0
  0
LINE
  8
1
 62
2
 10
739.8270547281001
 20
699.7161352036001
 30
0
 11
739.8270547281001
 21
693.7161352036001
 31
0
  0
LINE
  8
1
 62
2
 10
738.4410547281001
 20
697.9161352036001
 30
0
 11
739.8270547281001
 21
699.7161352036001
 31
0
  0
LINE
  8
1
 62
2
 10
711.1428893229
 20
698.3661352036
 30
0
 11
712.4133893229
 21
699.7161352036001
 31
0
  0
LINE
  8
1
 62
2
 10
710.6808893229
 20
697.6161352036
 30
0
 11
711.1428893229
 21
698.3661352036
 31
0
  0
LINE
  8
1
 62
2
 10
710.4498893229001
 20
697.0161352036
 30
0
 11
710.6808893229
 21
697.6161352036
 31
0
  0
LINE
  8
1
 62
2
 10
710.3343893229001
 20
695.8161352036001
 30
0
 11
710.4498893229001
 21
697.0161352036
 31
0
  0
LINE
  8
1
 62
2
 10
710.3343893229001
 20
695.2161352036001
 30
0
 11
710.3343893229001
 21
695.8161352036001
 31
0
  0
LINE
  8
1
 62
2
 10
710.4498893229001
 20
694.6161352036
 30
0
 11
710.3343893229001
 21
695.2161352036001
 31
0
  0
LINE
  8
1
 62
2
 10
710.6808893229
 20
694.1661352036001
 30
0
 11
710.4498893229001
 21
694.6161352036
 31
0
  0
LINE
  8
1
 62
2
 10
711.0273893229
 20
693.8661352036
 30
0
 11
710.6808893229
 21
694.1661352036001
 31
0
  0
LINE
  8
1
 62
2
 10
711.3738893229
 20
693.7161352036001
 30
0
 11
711.0273893229
 21
693.8661352036
 31
0
  0
LINE
  8
1
 62
2
 10
712.0668893229
 20
693.7161352036001
 30
0
 11
711.3738893229
 21
693.7161352036001
 31
0
  0
LINE
  8
1
 62
2
 10
712.4133893229
 20
693.8661352036
 30
0
 11
712.0668893229
 21
693.7161352036001
 31
0
  0
LINE
  8
1
 62
2
 10
712.7598893229001
 20
694.1661352036001
 30
0
 11
712.4133893229
 21
693.8661352036
 31
0
  0
LINE
  8
1
 62
2
 10
712.9908893229001
 20
694.6161352036
 30
0
 11
712.7598893229001
 21
694.1661352036001
 31
0
  0
LINE
  8
1
 62
2
 10
713.1063893229001
 20
695.2161352036001
 30
0
 11
712.9908893229001
 21
694.6161352036
 31
0
  0
LINE
  8
1
 62
2
 10
713.1063893229001
 20
695.8161352036001
 30
0
 11
713.1063893229001
 21
695.2161352036001
 31
0
  0
LINE
  8
1
 62
2
 10
712.9908893229001
 20
696.4161352036001
 30
0
 11
713.1063893229001
 21
695.8161352036001
 31
0
  0
LINE
  8
1
 62
2
 10
712.7598893229001
 20
696.8661352036
 30
0
 11
712.9908893229001
 21
696.4161352036001
 31
0
  0
LINE
  8
1
 62
2
 10
712.4133893229
 20
697.1661352036001
 30
0
 11
712.7598893229001
 21
696.8661352036
 31
0
  0
LINE
  8
1
 62
2
 10
712.0668893229
 20
697.3161352036001
 30
0
 11
712.4133893229
 21
697.1661352036001
 31
0
  0
LINE
  8
1
 62
2
 10
711.3738893229
 20
697.3161352036001
 30
0
 11
712.0668893229
 21
697.3161352036001
 31
0
  0
LINE
  8
1
 62
2
 10
711.0273893229
 20
697.1661352036001
 30
0
 11
711.3738893229
 21
697.3161352036001
 31
0
  0
LINE
  8
1
 62
2
 10
710.6808893229
 20
696.8661352036
 30
0
 11
711.0273893229
 21
697.1661352036001
 31
0
  0
LINE
  8
1
 62
2
 10
710.4498893229001
 20
696.4161352036001
 30
0
 11
710.6808893229
 21
696.8661352036
 31
0
  0
LINE
  8
1
 62
2
 10
710.3343893229001
 20
695.8161352036001
 30
0
 11
710.4498893229001
 21
696.4161352036001
 31
0
  0
LINE
  8
1
 62
2
 10
706.6383893229001
 20
699.2661352036
 30
0
 11
706.9848893229001
 21
699.5661352036001
 31
0
  0
LINE
  8
1
 62
2
 10
706.4073893229001
 20
698.8161352036001
 30
0
 11
706.6383893229001
 21
699.2661352036
 31
0
  0
LINE
  8
1
 62
2
 10
706.4073893229001
 20
698.2161352036001
 30
0
 11
706.4073893229001
 21
698.8161352036001
 31
0
  0
LINE
  8
1
 62
2
 10
706.6383893229001
 20
697.7661352036
 30
0
 11
706.4073893229001
 21
698.2161352036001
 31
0
  0
LINE
  8
1
 62
2
 10
706.9848893229001
 20
697.4661352036001
 30
0
 11
706.6383893229001
 21
697.7661352036
 31
0
  0
LINE
  8
1
 62
2
 10
707.3313893229001
 20
697.3161352036001
 30
0
 11
706.9848893229001
 21
697.4661352036001
 31
0
  0
LINE
  8
1
 62
2
 10
707.7933893229001
 20
697.3161352036001
 30
0
 11
707.3313893229001
 21
697.3161352036001
 31
0
  0
LINE
  8
1
 62
2
 10
708.1398893229001
 20
697.4661352036001
 30
0
 11
707.7933893229001
 21
697.3161352036001
 31
0
  0
LINE
  8
1
 62
2
 10
708.4863893229001
 20
697.7661352036
 30
0
 11
708.1398893229001
 21
697.4661352036001
 31
0
  0
LINE
  8
1
 62
2
 10
708.7173893229002
 20
698.2161352036001
 30
0
 11
708.4863893229001
 21
697.7661352036
 31
0
  0
LINE
  8
1
 62
2
 10
708.7173893229002
 20
698.8161352036001
 30
0
 11
708.7173893229002
 21
698.2161352036001
 31
0
  0
LINE
  8
1
 62
2
 10
708.4863893229001
 20
699.2661352036
 30
0
 11
708.7173893229002
 21
698.8161352036001
 31
0
  0
LINE
  8
1
 62
2
 10
708.1398893229001
 20
699.5661352036001
 30
0
 11
708.4863893229001
 21
699.2661352036
 31
0
  0
LINE
  8
1
 62
2
 10
707.7933893229001
 20
699.7161352036001
 30
0
 11
708.1398893229001
 21
699.5661352036001
 31
0
  0
LINE
  8
1
 62
2
 10
707.3313893229001
 20
699.7161352036001
 30
0
 11
707.7933893229001
 21
699.7161352036001
 31
0
  0
LINE
  8
1
 62
2
 10
706.9848893229001
 20
699.5661352036001
 30
0
 11
707.3313893229001
 21
699.7161352036001
 31
0
  0
LINE
  8
1
 62
2
 10
708.3708893229001
 20
697.0161352036
 30
0
 11
707.7933893229001
 21
697.3161352036001
 31
0
  0
LINE
  8
1
 62
2
 10
708.7173893229002
 20
696.5661352036001
 30
0
 11
708.3708893229001
 21
697.0161352036
 31
0
  0
LINE
  8
1
 62
2
 10
708.9483893229002
 20
695.9661352036001
 30
0
 11
708.7173893229002
 21
696.5661352036001
 31
0
  0
LINE
  8
1
 62
2
 10
708.9483893229002
 20
695.0661352036001
 30
0
 11
708.9483893229002
 21
695.9661352036001
 31
0
  0
LINE
  8
1
 62
2
 10
708.7173893229002
 20
694.4661352036001
 30
0
 11
708.9483893229002
 21
695.0661352036001
 31
0
  0
LINE
  8
1
 62
2
 10
708.3708893229001
 20
694.0161352036
 30
0
 11
708.7173893229002
 21
694.4661352036001
 31
0
  0
LINE
  8
1
 62
2
 10
707.9088893229001
 20
693.7161352036001
 30
0
 11
708.3708893229001
 21
694.0161352036
 31
0
  0
LINE
  8
1
 62
2
 10
707.2158893229001
 20
693.7161352036001
 30
0
 11
707.9088893229001
 21
693.7161352036001
 31
0
  0
LINE
  8
1
 62
2
 10
706.7538893229001
 20
694.0161352036
 30
0
 11
707.2158893229001
 21
693.7161352036001
 31
0
  0
LINE
  8
1
 62
2
 10
706.4073893229001
 20
694.4661352036001
 30
0
 11
706.7538893229001
 21
694.0161352036
 31
0
  0
LINE
  8
1
 62
2
 10
706.1763893229002
 20
695.0661352036001
 30
0
 11
706.4073893229001
 21
694.4661352036001
 31
0
  0
LINE
  8
1
 62
2
 10
706.1763893229002
 20
695.9661352036001
 30
0
 11
706.1763893229002
 21
695.0661352036001
 31
0
  0
LINE
  8
1
 62
2
 10
706.4073893229001
 20
696.5661352036001
 30
0
 11
706.1763893229002
 21
695.9661352036001
 31
0
  0
LINE
  8
1
 62
2
 10
706.7538893229001
 20
697.0161352036
 30
0
 11
706.4073893229001
 21
696.5661352036001
 31
0
  0
LINE
  8
1
 62
2
 10
707.3313893229001
 20
697.3161352036001
 30
0
 11
706.7538893229001
 21
697.0161352036
 31
0
  0
LINE
  8
1
 62
2
 10
704.7903893229001
 20
699.7161352036001
 30
0
 11
704.7903893229001
 21
693.7161352036001
 31
0
  0
LINE
  8
1
 62
2
 10
703.4043893229001
 20
697.9161352036001
 30
0
 11
704.7903893229001
 21
699.7161352036001
 31
0
  0
LINE
  8
1
 62
2
 10
674.2313025986058
 20
699.1161352036
 30
0
 11
674.2313025986058
 21
693.5161352036
 31
0
  0
LINE
  8
1
 62
2
 10
675.4542437750764
 20
695.3161352036001
 30
0
 11
676.4054202456647
 21
693.9161352036001
 31
0
  0
LINE
  8
1
 62
2
 10
674.7748320103706
 20
696.9161352036001
 30
0
 11
675.4542437750764
 21
695.3161352036001
 31
0
  0
LINE
  8
1
 62
2
 10
674.2313025986058
 20
699.1161352036
 30
0
 11
674.7748320103706
 21
696.9161352036001
 31
0
  0
LINE
  8
1
 62
2
 10
676.1336555397824
 20
699.1161352036
 30
0
 11
675.0465967162529
 21
697.1161352036
 31
0
  0
LINE
  8
1
 62
2
 10
673.0083614221353
 20
695.5161352036
 30
0
 11
672.1930673044882
 21
694.1161352036
 31
0
  0
LINE
  8
1
 62
2
 10
673.4160084809588
 20
696.9161352036001
 30
0
 11
673.0083614221353
 21
695.5161352036
 31
0
  0
LINE
  8
1
 62
2
 10
673.5518908339
 20
698.5161352036
 30
0
 11
673.4160084809588
 21
696.9161352036001
 31
0
  0
LINE
  8
1
 62
2
 10
672.1930673044882
 20
698.5161352036
 30
0
 11
673.5518908339
 21
698.5161352036
 31
0
  0
LINE
  8
1
 62
2
 10
674.2313025986058
 20
693.5161352036
 30
0
 11
673.2801261280176
 21
694.3161352036001
 31
0
  0
LINE
  8
1
 62
2
 10
674.2313025986058
 20
699.7161352036001
 30
0
 11
674.2313025986058
 21
699.1161352036
 31
0
  0
LINE
  8
1
 62
2
 10
668.3883614221353
 20
697.7161352036001
 30
0
 11
668.3883614221353
 21
693.7161352036001
 31
0
  0
LINE
  8
1
 62
2
 10
668.3883614221353
 20
693.7161352036001
 30
0
 11
670.8342437750765
 21
693.7161352036001
 31
0
  0
LINE
  8
1
 62
2
 10
666.7577731868412
 20
693.7161352036001
 30
0
 11
668.3883614221353
 21
693.7161352036001
 31
0
  0
LINE
  8
1
 62
2
 10
668.3883614221353
 20
699.5161352036
 30
0
 11
668.3883614221353
 21
697.7161352036001
 31
0
  0
LINE
  8
1
 62
2
 10
668.3883614221353
 20
697.7161352036001
 30
0
 11
670.5624790691942
 21
697.7161352036001
 31
0
  0
LINE
  8
1
 62
2
 10
852.2757176759001
 20
706.7161355835999
 30
0
 11
852.0039529700177
 21
705.5161355835999
 31
0
  0
LINE
  8
1
 62
2
 10
854.3139529700178
 20
703.7161355835999
 30
0
 11
855.8086588523707
 21
703.7161355835999
 31
0
  0
LINE
  8
1
 62
2
 10
852.8192470876649
 20
703.7161355835999
 30
0
 11
854.3139529700178
 21
703.7161355835999
 31
0
  0
LINE
  8
1
 62
2
 10
854.3139529700178
 20
706.5161355835999
 30
0
 11
854.3139529700178
 21
703.7161355835999
 31
0
  0
LINE
  8
1
 62
2
 10
852.955129440606
 20
705.5161355835999
 30
0
 11
855.6727764994296
 21
705.5161355835999
 31
0
  0
LINE
  8
1
 62
2
 10
854.8574823817825
 20
707.1161355835999
 30
0
 11
855.8086588523707
 21
706.7161355835999
 31
0
  0
LINE
  8
1
 62
2
 10
853.9063059111942
 20
707.9161355836
 30
0
 11
854.8574823817825
 21
707.1161355835999
 31
0
  0
LINE
  8
1
 62
2
 10
853.2268941464884
 20
709.1161355835999
 30
0
 11
853.9063059111942
 21
707.9161355836
 31
0
  0
LINE
  8
1
 62
2
 10
854.0421882641355
 20
707.3161355835999
 30
0
 11
852.8192470876649
 21
706.7161355835999
 31
0
  0
LINE
  8
1
 62
2
 10
854.9933647347236
 20
708.3161355835999
 30
0
 11
854.0421882641355
 21
707.3161355835999
 31
0
  0
LINE
  8
1
 62
2
 10
855.5368941464884
 20
709.5161355835999
 30
0
 11
854.9933647347236
 21
708.3161355835999
 31
0
  0
LINE
  8
1
 62
2
 10
853.0910117935472
 20
709.5161355835999
 30
0
 11
855.5368941464884
 21
709.5161355835999
 31
0
  0
LINE
  8
1
 62
2
 10
852.2757176759001
 20
706.7161355835999
 30
0
 11
852.2757176759001
 21
703.7161355835999
 31
0
  0
LINE
  8
1
 62
2
 10
852.5474823817825
 20
707.9161355836
 30
0
 11
852.2757176759001
 21
706.7161355835999
 31
0
  0
LINE
  8
1
 62
2
 10
852.5474823817825
 20
709.5161355835999
 30
0
 11
852.0039529700177
 21
707.9161355836
 31
0
  0
LINE
  8
1
 62
2
 10
848.3351294406059
 20
708.9161355836
 30
0
 11
850.3733647347236
 21
708.9161355836
 31
0
  0
LINE
  8
1
 62
2
 10
849.5580706170765
 20
705.3161355835999
 30
0
 11
850.3733647347236
 21
703.7161355835999
 31
0
  0
LINE
  8
1
 62
2
 10
849.150423558253
 20
707.5161355835999
 30
0
 11
849.5580706170765
 21
705.3161355835999
 31
0
  0
LINE
  8
1
 62
2
 10
847.3839529700177
 20
707.5161355835999
 30
0
 11
849.150423558253
 21
707.5161355835999
 31
0
  0
LINE
  8
1
 62
2
 10
847.3839529700177
 20
706.7161355835999
 30
0
 11
846.2968941464883
 21
703.7161355835999
 31
0
  0
LINE
  8
1
 62
2
 10
850.3733647347236
 20
708.9161355836
 30
0
 11
850.1016000288413
 21
707.5161355835999
 31
0
  0
LINE
  8
1
 62
2
 10
846.2968941464883
 20
708.9161355836
 30
0
 11
848.3351294406059
 21
708.9161355836
 31
0
  0
LINE
  8
1
 62
2
 10
846.2968941464883
 20
707.5161355835999
 30
0
 11
846.2968941464883
 21
708.9161355836
 31
0
  0
LINE
  8
1
 62
2
 10
848.3351294406059
 20
709.7161355835999
 30
0
 11
848.3351294406059
 21
708.9161355836
 31
0
  0
LINE
  8
1
 62
2
 10
844.7750117935472
 20
707.9161355836
 30
0
 11
844.7750117935472
 21
709.7161355835999
 31
0
  0
LINE
  8
1
 62
2
 10
844.7750117935472
 20
703.7161355835999
 30
0
 11
844.7750117935472
 21
707.9161355836
 31
0
  0
LINE
  8
1
 62
2
 10
843.0425117935471
 20
703.7161355835999
 30
0
 11
844.7750117935472
 21
703.7161355835999
 31
0
  0
LINE
  8
1
 62
2
 10
842.5805117935471
 20
703.8661355835999
 30
0
 11
843.0425117935471
 21
703.7161355835999
 31
0
  0
LINE
  8
1
 62
2
 10
842.3495117935471
 20
704.0161355835999
 30
0
 11
842.5805117935471
 21
703.8661355835999
 31
0
  0
LINE
  8
1
 62
2
 10
842.1185117935471
 20
704.3161355835999
 30
0
 11
842.3495117935471
 21
704.0161355835999
 31
0
  0
LINE
  8
1
 62
2
 10
842.0030117935471
 20
704.9161355836
 30
0
 11
842.1185117935471
 21
704.3161355835999
 31
0
  0
LINE
  8
1
 62
2
 10
842.0030117935471
 20
706.7161355835999
 30
0
 11
842.0030117935471
 21
704.9161355836
 31
0
  0
LINE
  8
1
 62
2
 10
842.1185117935471
 20
707.3161355835999
 30
0
 11
842.0030117935471
 21
706.7161355835999
 31
0
  0
LINE
  8
1
 62
2
 10
842.3495117935471
 20
707.6161355835999
 30
0
 11
842.1185117935471
 21
707.3161355835999
 31
0
  0
LINE
  8
1
 62
2
 10
842.5805117935471
 20
707.7661355835999
 30
0
 11
842.3495117935471
 21
707.6161355835999
 31
0
  0
LINE
  8
1
 62
2
 10
843.0425117935471
 20
707.9161355836
 30
0
 11
842.5805117935471
 21
707.7661355835999
 31
0
  0
LINE
  8
1
 62
2
 10
844.7750117935472
 20
707.9161355836
 30
0
 11
843.0425117935471
 21
707.9161355836
 31
0
  0
LINE
  8
1
 62
2
 10
839.4212470876648
 20
708.9161355836
 30
0
 11
838.062423558253
 21
702.1161355835999
 31
0
  0
LINE
  8
1
 62
2
 10
839.6930117935472
 20
707.3161355835999
 30
0
 11
839.1494823817825
 21
707.5161355835999
 31
0
  0
LINE
  8
1
 62
2
 10
839.9647764994295
 20
706.9161355836
 30
0
 11
839.6930117935472
 21
707.3161355835999
 31
0
  0
LINE
  8
1
 62
2
 10
840.1006588523707
 20
706.3161355835999
 30
0
 11
839.9647764994295
 21
706.9161355836
 31
0
  0
LINE
  8
1
 62
2
 10
840.1006588523707
 20
705.3161355835999
 30
0
 11
840.1006588523707
 21
706.3161355835999
 31
0
  0
LINE
  8
1
 62
2
 10
839.9647764994295
 20
704.9161355836
 30
0
 11
840.1006588523707
 21
705.3161355835999
 31
0
  0
LINE
  8
1
 62
2
 10
839.8288941464883
 20
704.5161355835999
 30
0
 11
839.9647764994295
 21
704.9161355836
 31
0
  0
LINE
  8
1
 62
2
 10
839.557129440606
 20
704.1161355835999
 30
0
 11
839.8288941464883
 21
704.5161355835999
 31
0
  0
LINE
  8
1
 62
2
 10
839.0136000288413
 20
703.7161355835999
 30
0
 11
839.557129440606
 21
704.1161355835999
 31
0
  0
LINE
  8
1
 62
2
 10
838.4700706170765
 20
703.5161355835999
 30
0
 11
839.0136000288413
 21
703.7161355835999
 31
0
  0
LINE
  8
1
 62
2
 10
838.062423558253
 20
703.7161355835999
 30
0
 11
838.4700706170765
 21
703.5161355835999
 31
0
  0
LINE
  8
1
 62
2
 10
837.6547764994295
 20
704.1161355835999
 30
0
 11
838.062423558253
 21
703.7161355835999
 31
0
  0
LINE
  8
1
 62
2
 10
837.5188941464884
 20
704.7161355835999
 30
0
 11
837.6547764994295
 21
704.1161355835999
 31
0
  0
LINE
  8
1
 62
2
 10
837.5188941464884
 20
705.5161355835999
 30
0
 11
837.5188941464884
 21
704.7161355835999
 31
0
  0
LINE
  8
1
 62
2
 10
837.6547764994295
 20
706.1161355835999
 30
0
 11
837.5188941464884
 21
705.5161355835999
 31
0
  0
LINE
  8
1
 62
2
 10
838.062423558253
 20
706.7161355835999
 30
0
 11
837.6547764994295
 21
706.1161355835999
 31
0
  0
LINE
  8
1
 62
2
 10
838.4700706170765
 20
707.1161355835999
 30
0
 11
838.062423558253
 21
706.7161355835999
 31
0
  0
LINE
  8
1
 62
2
 10
839.1494823817825
 20
707.5161355835999
 30
0
 11
838.4700706170765
 21
707.1161355835999
 31
0
  0
LINE
  8
1
 62
2
 10
817.157013487747
 20
704.9161355836
 30
0
 11
816.695013487747
 21
703.7161355835999
 31
0
  0
LINE
  8
1
 62
2
 10
817.388013487747
 20
706.1161355835999
 30
0
 11
817.157013487747
 21
704.9161355836
 31
0
  0
LINE
  8
1
 62
2
 10
817.388013487747
 20
707.3161355835999
 30
0
 11
817.388013487747
 21
706.1161355835999
 31
0
  0
LINE
  8
1
 62
2
 10
817.157013487747
 20
708.5161355835999
 30
0
 11
817.388013487747
 21
707.3161355835999
 31
0
  0
LINE
  8
1
 62
2
 10
816.695013487747
 20
709.7161355835999
 30
0
 11
817.157013487747
 21
708.5161355835999
 31
0
  0
LINE
  8
1
 62
2
 10
812.4826605465705
 20
708.5161355835999
 30
0
 11
813.5697193700999
 21
708.5161355835999
 31
0
  0
LINE
  8
1
 62
2
 10
812.4826605465705
 20
708.5161355835999
 30
0
 11
812.4826605465705
 21
706.9161355836
 31
0
  0
LINE
  8
1
 62
2
 10
813.2979546642175
 20
706.1161355835999
 30
0
 11
813.7056017230411
 21
706.1161355835999
 31
0
  0
LINE
  8
1
 62
2
 10
815.0644252524528
 20
708.7161355835999
 30
0
 11
815.4720723112764
 21
708.7161355835999
 31
0
  0
LINE
  8
1
 62
2
 10
814.7926605465705
 20
705.1161355835999
 30
0
 11
815.4720723112764
 21
703.9161355836
 31
0
  0
LINE
  8
1
 62
2
 10
814.2491311348058
 20
706.5161355835999
 30
0
 11
814.7926605465705
 21
705.1161355835999
 31
0
  0
LINE
  8
1
 62
2
 10
813.9773664289235
 20
708.1161355835999
 30
0
 11
814.2491311348058
 21
706.5161355835999
 31
0
  0
LINE
  8
1
 62
2
 10
814.1132487818646
 20
705.1161355835999
 30
0
 11
813.2979546642175
 21
703.7161355835999
 31
0
  0
LINE
  8
1
 62
2
 10
814.7926605465705
 20
706.7161355835999
 30
0
 11
814.1132487818646
 21
705.1161355835999
 31
0
  0
LINE
  8
1
 62
2
 10
815.0644252524528
 20
708.7161355835999
 30
0
 11
814.7926605465705
 21
706.7161355835999
 31
0
  0
LINE
  8
1
 62
2
 10
814.1132487818646
 20
708.7161355835999
 30
0
 11
815.0644252524528
 21
708.7161355835999
 31
0
  0
LINE
  8
1
 62
2
 10
813.9773664289235
 20
708.1161355835999
 30
0
 11
813.5697193700999
 21
706.9161355836
 31
0
  0
LINE
  8
1
 62
2
 10
814.1132487818646
 20
708.7161355835999
 30
0
 11
813.9773664289235
 21
708.1161355835999
 31
0
  0
LINE
  8
1
 62
2
 10
814.1132487818646
 20
709.7161355835999
 30
0
 11
814.1132487818646
 21
708.7161355835999
 31
0
  0
LINE
  8
1
 62
2
 10
811.3956017230411
 20
706.1161355835999
 30
0
 11
813.2979546642175
 21
706.1161355835999
 31
0
  0
LINE
  8
1
 62
2
 10
812.6185428995117
 20
704.7161355835999
 30
0
 11
811.5314840759822
 21
703.7161355835999
 31
0
  0
LINE
  8
1
 62
2
 10
813.2979546642175
 20
706.1161355835999
 30
0
 11
812.6185428995117
 21
704.7161355835999
 31
0
  0
LINE
  8
1
 62
2
 10
811.6673664289234
 20
705.1161355835999
 30
0
 11
813.2979546642175
 21
704.3161355835999
 31
0
  0
LINE
  8
1
 62
2
 10
812.3467781936294
 20
706.5161355835999
 30
0
 11
811.6673664289234
 21
705.1161355835999
 31
0
  0
LINE
  8
1
 62
2
 10
812.4826605465705
 20
708.5161355835999
 30
0
 11
813.4338370171587
 21
707.1161355835999
 31
0
  0
LINE
  8
1
 62
2
 10
812.4826605465705
 20
708.5161355835999
 30
0
 11
811.3956017230411
 21
706.7161355835999
 31
0
  0
LINE
  8
1
 62
2
 10
812.4826605465705
 20
709.7161355835999
 30
0
 11
812.4826605465705
 21
708.5161355835999
 31
0
  0
LINE
  8
1
 62
2
 10
811.3956017230411
 20
708.5161355835999
 30
0
 11
812.4826605465705
 21
708.5161355835999
 31
0
  0
LINE
  8
1
 62
2
 10
813.4338370171587
 20
709.3161355835999
 30
0
 11
812.890307605394
 21
708.7161355835999
 31
0
  0
LINE
  8
1
 62
2
 10
811.6673664289234
 20
709.3161355835999
 30
0
 11
812.075013487747
 21
708.7161355835999
 31
0
  0
LINE
  8
1
 62
2
 10
809.4117193701
 20
704.9161355836
 30
0
 11
809.8737193700999
 21
703.7161355835999
 31
0
  0
LINE
  8
1
 62
2
 10
809.1807193701
 20
706.1161355835999
 30
0
 11
809.4117193701
 21
704.9161355836
 31
0
  0
LINE
  8
1
 62
2
 10
809.1807193701
 20
707.3161355835999
 30
0
 11
809.1807193701
 21
706.1161355835999
 31
0
  0
LINE
  8
1
 62
2
 10
809.4117193701
 20
708.5161355835999
 30
0
 11
809.1807193701
 21
707.3161355835999
 31
0
  0
LINE
  8
1
 62
2
 10
809.8737193700999
 20
709.7161355835999
 30
0
 11
809.4117193701
 21
708.5161355835999
 31
0
  0
LINE
  8
1
 62
2
 10
807.7947193701
 20
707.1661355836
 30
0
 11
807.7947193701
 21
703.7161355835999
 31
0
  0
LINE
  8
1
 62
2
 10
807.6792193701
 20
707.4661355835999
 30
0
 11
807.7947193701
 21
707.1661355836
 31
0
  0
LINE
  8
1
 62
2
 10
807.4482193701
 20
707.7661355835999
 30
0
 11
807.6792193701
 21
707.4661355835999
 31
0
  0
LINE
  8
1
 62
2
 10
807.1017193700999
 20
707.9161355836
 30
0
 11
807.4482193701
 21
707.7661355835999
 31
0
  0
LINE
  8
1
 62
2
 10
805.0227193700999
 20
707.9161355836
 30
0
 11
807.1017193700999
 21
707.9161355836
 31
0
  0
LINE
  8
1
 62
2
 10
805.0227193700999
 20
703.7161355835999
 30
0
 11
805.0227193700999
 21
707.9161355836
 31
0
  0
LINE
  8
1
 62
2
 10
835.7835518892998
 20
718.9161359636
 30
0
 11
837.8217871834175
 21
718.9161359636
 31
0
  0
LINE
  8
1
 62
2
 10
837.0064930657704
 20
715.3161359636
 30
0
 11
837.8217871834175
 21
713.7161359636
 31
0
  0
LINE
  8
1
 62
2
 10
836.5988460069469
 20
717.5161359635999
 30
0
 11
837.0064930657704
 21
715.3161359636
 31
0
  0
LINE
  8
1
 62
2
 10
834.8323754187117
 20
717.5161359635999
 30
0
 11
836.5988460069469
 21
717.5161359635999
 31
0
  0
LINE
  8
1
 62
2
 10
834.8323754187117
 20
716.7161359636
 30
0
 11
833.7453165951822
 21
713.7161359636
 31
0
  0
LINE
  8
1
 62
2
 10
837.8217871834175
 20
718.9161359636
 30
0
 11
837.5500224775352
 21
717.5161359635999
 31
0
  0
LINE
  8
1
 62
2
 10
833.7453165951822
 20
718.9161359636
 30
0
 11
835.7835518892998
 21
718.9161359636
 31
0
  0
LINE
  8
1
 62
2
 10
833.7453165951822
 20
717.5161359635999
 30
0
 11
833.7453165951822
 21
718.9161359636
 31
0
  0
LINE
  8
1
 62
2
 10
835.7835518892998
 20
719.7161359636
 30
0
 11
835.7835518892998
 21
718.9161359636
 31
0
  0
LINE
  8
1
 62
2
 10
829.8047283598881
 20
717.3161359636
 30
0
 11
829.8047283598881
 21
714.3161359636
 31
0
  0
LINE
  8
1
 62
2
 10
829.8047283598881
 20
717.3161359636
 30
0
 11
831.7070813010646
 21
716.1161359636
 31
0
  0
LINE
  8
1
 62
2
 10
829.8047283598881
 20
719.3161359636
 30
0
 11
829.8047283598881
 21
717.3161359636
 31
0
  0
LINE
  8
1
 62
2
 10
826.5435518892998
 20
715.9161359636
 30
0
 11
826.8153165951823
 21
716.7161359636
 31
0
  0
LINE
  8
1
 62
2
 10
826.1359048304763
 20
715.1161359636
 30
0
 11
826.5435518892998
 21
715.9161359636
 31
0
  0
LINE
  8
1
 62
2
 10
825.3206107128293
 20
714.7161359636
 30
0
 11
826.1359048304763
 21
715.1161359636
 31
0
  0
LINE
  8
1
 62
2
 10
825.3206107128293
 20
718.7161359636
 30
0
 11
825.3206107128293
 21
714.7161359636
 31
0
  0
LINE
  8
1
 62
2
 10
823.8259048304764
 20
715.5161359635999
 30
0
 11
823.1464930657704
 21
714.5161359635999
 31
0
  0
LINE
  8
1
 62
2
 10
824.0976695363587
 20
716.5161359635999
 30
0
 11
823.8259048304764
 21
715.5161359635999
 31
0
  0
LINE
  8
1
 62
2
 10
824.0976695363587
 20
718.5161359635999
 30
0
 11
824.0976695363587
 21
716.5161359635999
 31
0
  0
LINE
  8
1
 62
2
 10
821.2441401245941
 20
719.7161359636
 30
0
 11
821.5159048304764
 21
718.9161359636
 31
0
  0
LINE
  8
1
 62
2
 10
820.7006107128293
 20
719.7161359636
 30
0
 11
820.9723754187116
 21
718.9161359636
 31
0
  0
LINE
  8
1
 62
2
 10
820.5647283598881
 20
716.5161359635999
 30
0
 11
821.2441401245941
 21
714.7161359636
 31
0
  0
LINE
  8
1
 62
2
 10
818.5264930657705
 20
716.5161359635999
 30
0
 11
817.8470813010646
 21
714.7161359636
 31
0
  0
LINE
  8
1
 62
2
 10
819.6135518892999
 20
719.3161359636
 30
0
 11
819.6135518892999
 21
714.1161359636
 31
0
  0
LINE
  8
1
 62
2
 10
817.9829636540057
 20
717.9161359636
 30
0
 11
821.2441401245941
 21
717.9161359636
 31
0
  0
LINE
  8
1
 62
2
 10
781.5760536827
 20
708.7161357735999
 30
0
 11
779.8435536827001
 21
708.7161357735999
 31
0
  0
LINE
  8
1
 62
2
 10
781.9225536827
 20
708.8661357735999
 30
0
 11
781.5760536827
 21
708.7161357735999
 31
0
  0
LINE
  8
1
 62
2
 10
782.2690536827001
 20
709.1661357736
 30
0
 11
781.9225536827
 21
708.8661357735999
 31
0
  0
LINE
  8
1
 62
2
 10
782.5000536827001
 20
709.6161357735999
 30
0
 11
782.2690536827001
 21
709.1661357736
 31
0
  0
LINE
  8
1
 62
2
 10
782.6155536827001
 20
710.2161357735999
 30
0
 11
782.5000536827001
 21
709.6161357735999
 31
0
  0
LINE
  8
1
 62
2
 10
782.6155536827001
 20
710.9661357735999
 30
0
 11
782.6155536827001
 21
710.2161357735999
 31
0
  0
LINE
  8
1
 62
2
 10
782.5000536827001
 20
711.5661357736
 30
0
 11
782.6155536827001
 21
710.9661357735999
 31
0
  0
LINE
  8
1
 62
2
 10
782.3845536827001
 20
711.8661357735999
 30
0
 11
782.5000536827001
 21
711.5661357736
 31
0
  0
LINE
  8
1
 62
2
 10
782.1535536827
 20
712.1661357736
 30
0
 11
782.3845536827001
 21
711.8661357735999
 31
0
  0
LINE
  8
1
 62
2
 10
781.6915536827
 20
712.3161357736
 30
0
 11
782.1535536827
 21
712.1661357736
 31
0
  0
LINE
  8
1
 62
2
 10
782.0380536827
 20
712.4661357735999
 30
0
 11
781.6915536827
 21
712.3161357736
 31
0
  0
LINE
  8
1
 62
2
 10
782.2690536827001
 20
712.6161357735999
 30
0
 11
782.0380536827
 21
712.4661357735999
 31
0
  0
LINE
  8
1
 62
2
 10
782.5000536827001
 20
712.9161357736
 30
0
 11
782.2690536827001
 21
712.6161357735999
 31
0
  0
LINE
  8
1
 62
2
 10
782.6155536827001
 20
713.3661357735999
 30
0
 11
782.5000536827001
 21
712.9161357736
 31
0
  0
LINE
  8
1
 62
2
 10
782.6155536827001
 20
713.8161357736
 30
0
 11
782.6155536827001
 21
713.3661357735999
 31
0
  0
LINE
  8
1
 62
2
 10
782.5000536827001
 20
714.2661357735999
 30
0
 11
782.6155536827001
 21
713.8161357736
 31
0
  0
LINE
  8
1
 62
2
 10
782.1535536827
 20
714.5661357736
 30
0
 11
782.5000536827001
 21
714.2661357735999
 31
0
  0
LINE
  8
1
 62
2
 10
781.5760536827
 20
714.7161357735999
 30
0
 11
782.1535536827
 21
714.5661357736
 31
0
  0
LINE
  8
1
 62
2
 10
779.8435536827001
 20
714.7161357735999
 30
0
 11
781.5760536827
 21
714.7161357735999
 31
0
  0
LINE
  8
1
 62
2
 10
780.5365536827001
 20
712.3161357736
 30
0
 11
781.6915536827
 21
712.3161357736
 31
0
  0
LINE
  8
1
 62
2
 10
778.3420536827001
 20
713.5161357735999
 30
0
 11
778.4575536827001
 21
712.9161357736
 31
0
  0
LINE
  8
1
 62
2
 10
778.1110536827001
 20
713.9661357735999
 30
0
 11
778.3420536827001
 21
713.5161357735999
 31
0
  0
LINE
  8
1
 62
2
 10
777.8800536827001
 20
714.2661357735999
 30
0
 11
778.1110536827001
 21
713.9661357735999
 31
0
  0
LINE
  8
1
 62
2
 10
777.5335536827
 20
714.5661357736
 30
0
 11
777.8800536827001
 21
714.2661357735999
 31
0
  0
LINE
  8
1
 62
2
 10
777.0715536827
 20
714.7161357735999
 30
0
 11
777.5335536827
 21
714.5661357736
 31
0
  0
LINE
  8
1
 62
2
 10
775.2235536827001
 20
714.7161357735999
 30
0
 11
777.0715536827
 21
714.7161357735999
 31
0
  0
LINE
  8
1
 62
2
 10
775.2235536827001
 20
708.7161357735999
 30
0
 11
775.2235536827001
 21
714.7161357735999
 31
0
  0
LINE
  8
1
 62
2
 10
777.0715536827
 20
708.7161357735999
 30
0
 11
775.2235536827001
 21
708.7161357735999
 31
0
  0
LINE
  8
1
 62
2
 10
777.5335536827
 20
708.8661357735999
 30
0
 11
777.0715536827
 21
708.7161357735999
 31
0
  0
LINE
  8
1
 62
2
 10
777.8800536827001
 20
709.1661357736
 30
0
 11
777.5335536827
 21
708.8661357735999
 31
0
  0
LINE
  8
1
 62
2
 10
778.1110536827001
 20
709.4661357735999
 30
0
 11
777.8800536827001
 21
709.1661357736
 31
0
  0
LINE
  8
1
 62
2
 10
778.3420536827001
 20
709.9161357736
 30
0
 11
778.1110536827001
 21
709.4661357735999
 31
0
  0
LINE
  8
1
 62
2
 10
778.4575536827001
 20
710.5161357735999
 30
0
 11
778.3420536827001
 21
709.9161357736
 31
0
  0
LINE
  8
1
 62
2
 10
778.4575536827001
 20
712.9161357736
 30
0
 11
778.4575536827001
 21
710.5161357735999
 31
0
  0
LINE
  8
1
 62
2
 10
744.8068882777
 20
708.7161357735999
 30
0
 11
747.5788882777
 21
708.7161357735999
 31
0
  0
LINE
  8
1
 62
2
 10
747.3478882777
 20
712.6161357735999
 30
0
 11
744.8068882777
 21
708.7161357735999
 31
0
  0
LINE
  8
1
 62
2
 10
747.5788882777
 20
713.2161357735999
 30
0
 11
747.3478882777
 21
712.6161357735999
 31
0
  0
LINE
  8
1
 62
2
 10
747.5788882777
 20
713.8161357736
 30
0
 11
747.5788882777
 21
713.2161357735999
 31
0
  0
LINE
  8
1
 62
2
 10
747.3478882777
 20
714.2661357735999
 30
0
 11
747.5788882777
 21
713.8161357736
 31
0
  0
LINE
  8
1
 62
2
 10
747.0013882776999
 20
714.5661357736
 30
0
 11
747.3478882777
 21
714.2661357735999
 31
0
  0
LINE
  8
1
 62
2
 10
746.5393882776999
 20
714.7161357735999
 30
0
 11
747.0013882776999
 21
714.5661357736
 31
0
  0
LINE
  8
1
 62
2
 10
745.8463882776999
 20
714.7161357735999
 30
0
 11
746.5393882776999
 21
714.7161357735999
 31
0
  0
LINE
  8
1
 62
2
 10
745.3843882776999
 20
714.5661357736
 30
0
 11
745.8463882776999
 21
714.7161357735999
 31
0
  0
LINE
  8
1
 62
2
 10
745.0378882777
 20
714.2661357735999
 30
0
 11
745.3843882776999
 21
714.5661357736
 31
0
  0
LINE
  8
1
 62
2
 10
744.8068882777
 20
713.8161357736
 30
0
 11
745.0378882777
 21
714.2661357735999
 31
0
  0
LINE
  8
1
 62
2
 10
743.3053882777
 20
713.5161357735999
 30
0
 11
743.4208882777
 21
712.9161357736
 31
0
  0
LINE
  8
1
 62
2
 10
743.0743882777
 20
713.9661357735999
 30
0
 11
743.3053882777
 21
713.5161357735999
 31
0
  0
LINE
  8
1
 62
2
 10
742.8433882777
 20
714.2661357735999
 30
0
 11
743.0743882777
 21
713.9661357735999
 31
0
  0
LINE
  8
1
 62
2
 10
742.4968882776999
 20
714.5661357736
 30
0
 11
742.8433882777
 21
714.2661357735999
 31
0
  0
LINE
  8
1
 62
2
 10
742.0348882776999
 20
714.7161357735999
 30
0
 11
742.4968882776999
 21
714.5661357736
 31
0
  0
LINE
  8
1
 62
2
 10
740.1868882777
 20
714.7161357735999
 30
0
 11
742.0348882776999
 21
714.7161357735999
 31
0
  0
LINE
  8
1
 62
2
 10
740.1868882777
 20
708.7161357735999
 30
0
 11
740.1868882777
 21
714.7161357735999
 31
0
  0
LINE
  8
1
 62
2
 10
742.0348882776999
 20
708.7161357735999
 30
0
 11
740.1868882777
 21
708.7161357735999
 31
0
  0
LINE
  8
1
 62
2
 10
742.4968882776999
 20
708.8661357735999
 30
0
 11
742.0348882776999
 21
708.7161357735999
 31
0
  0
LINE
  8
1
 62
2
 10
742.8433882777
 20
709.1661357736
 30
0
 11
742.4968882776999
 21
708.8661357735999
 31
0
  0
LINE
  8
1
 62
2
 10
743.0743882777
 20
709.4661357735999
 30
0
 11
742.8433882777
 21
709.1661357736
 31
0
  0
LINE
  8
1
 62
2
 10
743.3053882777
 20
709.9161357736
 30
0
 11
743.0743882777
 21
709.4661357735999
 31
0
  0
LINE
  8
1
 62
2
 10
743.4208882777
 20
710.5161357735999
 30
0
 11
743.3053882777
 21
709.9161357736
 31
0
  0
LINE
  8
1
 62
2
 10
743.4208882777
 20
712.9161357736
 30
0
 11
743.4208882777
 21
710.5161357735999
 31
0
  0
LINE
  8
1
 62
2
 10
711.1562228727
 20
714.7161357735999
 30
0
 11
711.1562228727
 21
708.7161357735999
 31
0
  0
LINE
  8
1
 62
2
 10
709.7702228727001
 20
712.9161357736
 30
0
 11
711.1562228727
 21
714.7161357735999
 31
0
  0
LINE
  8
1
 62
2
 10
708.2687228727001
 20
713.5161357735999
 30
0
 11
708.3842228727001
 21
712.9161357736
 31
0
  0
LINE
  8
1
 62
2
 10
708.0377228727001
 20
713.9661357735999
 30
0
 11
708.2687228727001
 21
713.5161357735999
 31
0
  0
LINE
  8
1
 62
2
 10
707.8067228727001
 20
714.2661357735999
 30
0
 11
708.0377228727001
 21
713.9661357735999
 31
0
  0
LINE
  8
1
 62
2
 10
707.4602228727
 20
714.5661357736
 30
0
 11
707.8067228727001
 21
714.2661357735999
 31
0
  0
LINE
  8
1
 62
2
 10
706.9982228727
 20
714.7161357735999
 30
0
 11
707.4602228727
 21
714.5661357736
 31
0
  0
LINE
  8
1
 62
2
 10
705.1502228727001
 20
714.7161357735999
 30
0
 11
706.9982228727
 21
714.7161357735999
 31
0
  0
LINE
  8
1
 62
2
 10
705.1502228727001
 20
708.7161357735999
 30
0
 11
705.1502228727001
 21
714.7161357735999
 31
0
  0
LINE
  8
1
 62
2
 10
706.9982228727
 20
708.7161357735999
 30
0
 11
705.1502228727001
 21
708.7161357735999
 31
0
  0
LINE
  8
1
 62
2
 10
707.4602228727
 20
708.8661357735999
 30
0
 11
706.9982228727
 21
708.7161357735999
 31
0
  0
LINE
  8
1
 62
2
 10
707.8067228727001
 20
709.1661357736
 30
0
 11
707.4602228727
 21
708.8661357735999
 31
0
  0
LINE
  8
1
 62
2
 10
708.0377228727001
 20
709.4661357735999
 30
0
 11
707.8067228727001
 21
709.1661357736
 31
0
  0
LINE
  8
1
 62
2
 10
708.2687228727001
 20
709.9161357736
 30
0
 11
708.0377228727001
 21
709.4661357735999
 31
0
  0
LINE
  8
1
 62
2
 10
708.3842228727001
 20
710.5161357735999
 30
0
 11
708.2687228727001
 21
709.9161357736
 31
0
  0
LINE
  8
1
 62
2
 10
708.3842228727001
 20
712.9161357736
 30
0
 11
708.3842228727001
 21
710.5161357735999
 31
0
  0
LINE
  8
1
 62
2
 10
430.2002708131706
 20
348.106096343
 30
0
 11
431.9667414014059
 21
348.106096343
 31
0
  0
LINE
  8
1
 62
2
 10
431.0835061072883
 20
350.106096343
 30
0
 11
431.9667414014059
 21
350.106096343
 31
0
  0
LINE
  8
1
 62
2
 10
431.0835061072883
 20
350.106096343
 30
0
 11
431.0835061072883
 21
347.306096343
 31
0
  0
LINE
  8
1
 62
2
 10
429.7926237543471
 20
348.106096343
 30
0
 11
430.2002708131706
 21
348.106096343
 31
0
  0
LINE
  8
1
 62
2
 10
430.2002708131706
 20
349.306096343
 30
0
 11
430.2002708131706
 21
348.106096343
 31
0
  0
LINE
  8
1
 62
2
 10
431.8988002249353
 20
349.306096343
 30
0
 11
430.2002708131706
 21
349.306096343
 31
0
  0
LINE
  8
1
 62
2
 10
430.2682119896412
 20
350.106096343
 30
0
 11
431.0835061072883
 21
350.106096343
 31
0
  0
LINE
  8
1
 62
2
 10
430.2682119896412
 20
350.106096343
 30
0
 11
429.9285061072882
 21
349.506096343
 31
0
  0
LINE
  8
1
 62
2
 10
430.4040943425824
 20
350.506096343
 30
0
 11
430.2682119896412
 21
350.106096343
 31
0
  0
LINE
  8
1
 62
2
 10
428.4338002249353
 20
349.206096343
 30
0
 11
429.1811531661118
 21
349.206096343
 31
0
  0
LINE
  8
1
 62
2
 10
427.8902708131706
 20
347.806096343
 30
0
 11
427.8902708131706
 21
348.806096343
 31
0
  0
LINE
  8
1
 62
2
 10
428.9773296367
 20
347.806096343
 30
0
 11
427.8902708131706
 21
347.806096343
 31
0
  0
LINE
  8
1
 62
2
 10
428.9773296367
 20
348.806096343
 30
0
 11
428.9773296367
 21
347.806096343
 31
0
  0
LINE
  8
1
 62
2
 10
427.8902708131706
 20
348.806096343
 30
0
 11
428.9773296367
 21
348.806096343
 31
0
  0
LINE
  8
1
 62
2
 10
428.4338002249353
 20
350.406096343
 30
0
 11
428.4338002249353
 21
349.206096343
 31
0
  0
LINE
  8
1
 62
2
 10
427.6185061072882
 20
349.206096343
 30
0
 11
428.4338002249353
 21
349.206096343
 31
0
  0
LINE
  8
1
 62
2
 10
427.8223296367
 20
349.906096343
 30
0
 11
429.1132119896412
 21
349.906096343
 31
0
  0
LINE
  8
1
 62
2
 10
427.8223296367
 20
349.906096343
 30
0
 11
427.6185061072882
 21
349.506096343
 31
0
  0
LINE
  8
1
 62
2
 10
427.8902708131706
 20
350.306096343
 30
0
 11
427.8223296367
 21
349.906096343
 31
0
  0
LINE
  8
1
 62
2
 10
428.0940943425823
 20
347.406096343
 30
0
 11
429.2490943425823
 21
347.406096343
 31
0
  0
LINE
  8
1
 62
2
 10
427.4826237543471
 20
348.106096343
 30
0
 11
428.0940943425823
 21
347.406096343
 31
0
  0
LINE
  8
1
 62
2
 10
427.4826237543471
 20
348.106096343
 30
0
 11
427.1429178719941
 21
347.406096343
 31
0
  0
LINE
  8
1
 62
2
 10
427.4826237543471
 20
349.106096343
 30
0
 11
427.4826237543471
 21
348.106096343
 31
0
  0
LINE
  8
1
 62
2
 10
427.1429178719941
 20
349.106096343
 30
0
 11
427.4826237543471
 21
349.106096343
 31
0
  0
LINE
  8
1
 62
2
 10
427.2108590484647
 20
350.306096343
 30
0
 11
427.5505649308176
 21
349.806096343
 31
0
  0
LINE
  8
1
 62
2
 10
424.8329178719941
 20
349.406096343
 30
0
 11
425.1726237543471
 21
349.406096343
 31
0
  0
LINE
  8
1
 62
2
 10
424.8329178719941
 20
347.506096343
 30
0
 11
425.2405649308176
 21
347.606096343
 31
0
  0
LINE
  8
1
 62
2
 10
426.3276237543471
 20
349.306096343
 30
0
 11
426.5314472837588
 21
349.306096343
 31
0
  0
LINE
  8
1
 62
2
 10
425.852035519053
 20
348.406096343
 30
0
 11
426.0558590484647
 21
347.706096343
 31
0
  0
LINE
  8
1
 62
2
 10
426.3276237543471
 20
347.406096343
 30
0
 11
425.7840943425824
 21
347.606096343
 31
0
  0
LINE
  8
1
 62
2
 10
426.3276237543471
 20
349.306096343
 30
0
 11
426.3276237543471
 21
347.406096343
 31
0
  0
LINE
  8
1
 62
2
 10
425.3764472837588
 20
348.606096343
 30
0
 11
426.5314472837588
 21
348.606096343
 31
0
  0
LINE
  8
1
 62
2
 10
425.7840943425824
 20
349.006096343
 30
0
 11
425.3764472837588
 21
347.706096343
 31
0
  0
LINE
  8
1
 62
2
 10
425.852035519053
 20
350.406096343
 30
0
 11
425.7840943425824
 21
349.006096343
 31
0
  0
LINE
  8
1
 62
2
 10
425.3085061072882
 20
349.306096343
 30
0
 11
426.3276237543471
 21
349.306096343
 31
0
  0
LINE
  8
1
 62
2
 10
425.4443884602294
 20
349.706096343
 30
0
 11
426.3955649308177
 21
349.706096343
 31
0
  0
LINE
  8
1
 62
2
 10
425.3764472837588
 20
350.106096343
 30
0
 11
426.4635061072883
 21
350.106096343
 31
0
  0
LINE
  8
1
 62
2
 10
424.4252708131706
 20
347.406096343
 30
0
 11
424.8329178719941
 21
347.506096343
 31
0
  0
LINE
  8
1
 62
2
 10
425.2405649308176
 20
348.506096343
 30
0
 11
425.1046825778765
 21
347.806096343
 31
0
  0
LINE
  8
1
 62
2
 10
424.4932119896412
 20
348.506096343
 30
0
 11
424.6290943425823
 21
347.706096343
 31
0
  0
LINE
  8
1
 62
2
 10
424.8329178719941
 20
349.406096343
 30
0
 11
424.8329178719941
 21
347.506096343
 31
0
  0
LINE
  8
1
 62
2
 10
424.4252708131706
 20
348.806096343
 30
0
 11
425.2405649308176
 21
348.806096343
 31
0
  0
LINE
  8
1
 62
2
 10
424.4932119896412
 20
349.406096343
 30
0
 11
424.8329178719941
 21
349.406096343
 31
0
  0
LINE
  8
1
 62
2
 10
424.9008590484647
 20
350.306096343
 30
0
 11
425.2405649308176
 21
349.706096343
 31
0
  0
LINE
  8
1
 62
2
 10
424.4252708131706
 20
349.606096343
 30
0
 11
424.9008590484647
 21
350.306096343
 31
0
  0
LINE
  8
1
 62
2
 10
508.031371581747
 20
350.063683021
 30
0
 11
509.3901951111588
 21
350.063683021
 31
0
  0
LINE
  8
1
 62
2
 10
508.6428421699823
 20
348.263683021
 30
0
 11
507.6237245229235
 21
348.563683021
 31
0
  0
LINE
  8
1
 62
2
 10
509.1184304052764
 20
348.663683021
 30
0
 11
508.6428421699823
 21
348.263683021
 31
0
  0
LINE
  8
1
 62
2
 10
509.186371581747
 20
349.363683021
 30
0
 11
509.1184304052764
 21
348.663683021
 31
0
  0
LINE
  8
1
 62
2
 10
507.8954892288058
 20
349.363683021
 30
0
 11
509.186371581747
 21
349.363683021
 31
0
  0
LINE
  8
1
 62
2
 10
508.031371581747
 20
350.063683021
 30
0
 11
507.8954892288058
 21
349.363683021
 31
0
  0
LINE
  8
1
 62
2
 10
507.3519598170411
 20
350.063683021
 30
0
 11
508.031371581747
 21
350.063683021
 31
0
  0
LINE
  8
1
 62
2
 10
507.6237245229235
 20
350.363683021
 30
0
 11
507.6237245229235
 21
351.263683021
 31
0
  0
LINE
  8
1
 62
2
 10
509.186371581747
 20
350.363683021
 30
0
 11
507.6237245229235
 21
350.363683021
 31
0
  0
LINE
  8
1
 62
2
 10
509.186371581747
 20
351.263683021
 30
0
 11
509.186371581747
 21
350.363683021
 31
0
  0
LINE
  8
1
 62
2
 10
507.6237245229235
 20
351.263683021
 30
0
 11
509.186371581747
 21
351.263683021
 31
0
  0
LINE
  8
1
 62
2
 10
506.6725480523353
 20
348.363683021
 30
0
 11
506.6725480523353
 21
349.063683021
 31
0
  0
LINE
  8
1
 62
2
 10
505.6534304052764
 20
348.363683021
 30
0
 11
506.6725480523353
 21
348.363683021
 31
0
  0
LINE
  8
1
 62
2
 10
505.6534304052764
 20
350.063683021
 30
0
 11
505.6534304052764
 21
348.363683021
 31
0
  0
LINE
  8
1
 62
2
 10
506.5366656993941
 20
350.063683021
 30
0
 11
505.6534304052764
 21
350.063683021
 31
0
  0
LINE
  8
1
 62
2
 10
506.5366656993941
 20
351.263683021
 30
0
 11
506.5366656993941
 21
350.063683021
 31
0
  0
LINE
  8
1
 62
2
 10
505.5854892288058
 20
351.263683021
 30
0
 11
506.5366656993941
 21
351.263683021
 31
0
  0
LINE
  8
1
 62
2
 10
504.7022539346882
 20
348.363683021
 30
0
 11
504.7022539346882
 21
349.363683021
 31
0
  0
LINE
  8
1
 62
2
 10
505.4496068758647
 20
348.363683021
 30
0
 11
504.7022539346882
 21
348.363683021
 31
0
  0
LINE
  8
1
 62
2
 10
505.4496068758647
 20
349.363683021
 30
0
 11
505.4496068758647
 21
348.363683021
 31
0
  0
LINE
  8
1
 62
2
 10
504.7022539346882
 20
349.363683021
 30
0
 11
505.4496068758647
 21
349.363683021
 31
0
  0
LINE
  8
1
 62
2
 10
504.7701951111588
 20
349.763683021
 30
0
 11
505.3816656993941
 21
349.763683021
 31
0
  0
LINE
  8
1
 62
2
 10
504.7701951111588
 20
350.263683021
 30
0
 11
505.3816656993941
 21
350.263683021
 31
0
  0
LINE
  8
1
 62
2
 10
504.6343127582176
 20
350.763683021
 30
0
 11
505.5175480523353
 21
350.763683021
 31
0
  0
LINE
  8
1
 62
2
 10
504.7701951111588
 20
351.263683021
 30
0
 11
505.3816656993941
 21
351.263683021
 31
0
  0
LINE
  8
1
 62
2
 10
502.3243127582176
 20
350.063683021
 30
0
 11
502.7999009935117
 21
350.063683021
 31
0
  0
LINE
  8
1
 62
2
 10
502.3243127582176
 20
350.063683021
 30
0
 11
502.3243127582176
 21
348.363683021
 31
0
  0
LINE
  8
1
 62
2
 10
503.7510774640999
 20
351.263683021
 30
0
 11
503.7510774640999
 21
348.363683021
 31
0
  0
LINE
  8
1
 62
2
 10
502.8678421699823
 20
348.863683021
 30
0
 11
503.9549009935117
 21
349.163683021
 31
0
  0
LINE
  8
1
 62
2
 10
502.9357833464529
 20
350.263683021
 30
0
 11
503.5472539346882
 21
349.463683021
 31
0
  0
LINE
  8
1
 62
2
 10
503.0037245229235
 20
351.163683021
 30
0
 11
503.5472539346882
 21
350.463683021
 31
0
  0
LINE
  8
1
 62
2
 10
502.3243127582176
 20
350.063683021
 30
0
 11
502.7999009935117
 21
349.163683021
 31
0
  0
LINE
  8
1
 62
2
 10
502.3243127582176
 20
350.063683021
 30
0
 11
501.9166656993941
 21
348.863683021
 31
0
  0
LINE
  8
1
 62
2
 10
502.3243127582176
 20
351.363683021
 30
0
 11
502.3243127582176
 21
350.063683021
 31
0
  0
LINE
  8
1
 62
2
 10
501.9166656993941
 20
350.063683021
 30
0
 11
502.3243127582176
 21
350.063683021
 31
0
  0
LINE
  8
1
 62
2
 10
502.7999009935117
 20
351.163683021
 30
0
 11
502.5281362876294
 21
350.363683021
 31
0
  0
LINE
  8
1
 62
2
 10
501.9846068758646
 20
351.163683021
 30
0
 11
502.1204892288058
 21
350.263683021
 31
0
  0
LINE
  8
1
 62
2
 10
499.6066656993941
 20
350.863683021
 30
0
 11
500.0143127582176
 21
350.863683021
 31
0
  0
LINE
  8
1
 62
2
 10
499.6066656993941
 20
350.863683021
 30
0
 11
499.6066656993941
 21
348.363683021
 31
0
  0
LINE
  8
1
 62
2
 10
500.9654892288058
 20
350.863683021
 30
0
 11
500.9654892288058
 21
348.363683021
 31
0
  0
LINE
  8
1
 62
2
 10
500.9654892288058
 20
350.863683021
 30
0
 11
500.0143127582176
 21
349.063683021
 31
0
  0
LINE
  8
1
 62
2
 10
500.9654892288058
 20
348.363683021
 30
0
 11
500.3540186405706
 21
348.763683021
 31
0
  0
LINE
  8
1
 62
2
 10
500.9654892288058
 20
351.363683021
 30
0
 11
500.9654892288058
 21
350.863683021
 31
0
  0
LINE
  8
1
 62
2
 10
500.1501951111588
 20
350.863683021
 30
0
 11
501.2372539346882
 21
350.863683021
 31
0
  0
LINE
  8
1
 62
2
 10
499.6066656993941
 20
350.863683021
 30
0
 11
500.0143127582176
 21
349.663683021
 31
0
  0
LINE
  8
1
 62
2
 10
499.6066656993941
 20
350.863683021
 30
0
 11
499.1990186405706
 21
349.363683021
 31
0
  0
LINE
  8
1
 62
2
 10
499.6066656993941
 20
351.363683021
 30
0
 11
499.6066656993941
 21
350.863683021
 31
0
  0
LINE
  8
1
 62
2
 10
499.1990186405706
 20
350.863683021
 30
0
 11
499.6066656993941
 21
350.863683021
 31
0
  0
LINE
  8
1
 62
2
 10
848.5594442702236
 20
506.9781519517
 30
0
 11
848.5594442702236
 21
507.8781519517
 31
0
  0
LINE
  8
1
 62
2
 10
848.5594442702236
 20
504.8781519517
 30
0
 11
848.5594442702236
 21
506.9781519517
 31
0
  0
LINE
  8
1
 62
2
 10
847.6931942702237
 20
504.8781519517
 30
0
 11
848.5594442702236
 21
504.8781519517
 31
0
  0
LINE
  8
1
 62
2
 10
847.4621942702237
 20
504.9531519517
 30
0
 11
847.6931942702237
 21
504.8781519517
 31
0
  0
LINE
  8
1
 62
2
 10
847.3466942702237
 20
505.0281519517
 30
0
 11
847.4621942702237
 21
504.9531519517
 31
0
  0
LINE
  8
1
 62
2
 10
847.2311942702237
 20
505.1781519517
 30
0
 11
847.3466942702237
 21
505.0281519517
 31
0
  0
LINE
  8
1
 62
2
 10
847.1734442702236
 20
505.4781519517
 30
0
 11
847.2311942702237
 21
505.1781519517
 31
0
  0
LINE
  8
1
 62
2
 10
847.1734442702236
 20
506.3781519517
 30
0
 11
847.1734442702236
 21
505.4781519517
 31
0
  0
LINE
  8
1
 62
2
 10
847.2311942702237
 20
506.6781519517
 30
0
 11
847.1734442702236
 21
506.3781519517
 31
0
  0
LINE
  8
1
 62
2
 10
847.3466942702237
 20
506.8281519517
 30
0
 11
847.2311942702237
 21
506.6781519517
 31
0
  0
LINE
  8
1
 62
2
 10
847.4621942702237
 20
506.9031519517
 30
0
 11
847.3466942702237
 21
506.8281519517
 31
0
  0
LINE
  8
1
 62
2
 10
847.6931942702237
 20
506.9781519517
 30
0
 11
847.4621942702237
 21
506.9031519517
 31
0
  0
LINE
  8
1
 62
2
 10
848.5594442702236
 20
506.9781519517
 30
0
 11
847.6931942702237
 21
506.9781519517
 31
0
  0
LINE
  8
1
 62
2
 10
845.8825619172824
 20
507.4781519517
 30
0
 11
845.2031501525765
 21
504.0781519517
 31
0
  0
LINE
  8
1
 62
2
 10
846.0184442702237
 20
506.6781519517
 30
0
 11
845.7466795643412
 21
506.7781519517
 31
0
  0
LINE
  8
1
 62
2
 10
846.1543266231648
 20
506.4781519517
 30
0
 11
846.0184442702237
 21
506.6781519517
 31
0
  0
LINE
  8
1
 62
2
 10
846.2222677996354
 20
506.1781519517
 30
0
 11
846.1543266231648
 21
506.4781519517
 31
0
  0
LINE
  8
1
 62
2
 10
846.2222677996354
 20
505.6781519517
 30
0
 11
846.2222677996354
 21
506.1781519517
 31
0
  0
LINE
  8
1
 62
2
 10
846.1543266231648
 20
505.4781519517
 30
0
 11
846.2222677996354
 21
505.6781519517
 31
0
  0
LINE
  8
1
 62
2
 10
846.0863854466942
 20
505.2781519517
 30
0
 11
846.1543266231648
 21
505.4781519517
 31
0
  0
LINE
  8
1
 62
2
 10
845.950503093753
 20
505.0781519517
 30
0
 11
846.0863854466942
 21
505.2781519517
 31
0
  0
LINE
  8
1
 62
2
 10
845.6787383878707
 20
504.8781519517
 30
0
 11
845.950503093753
 21
505.0781519517
 31
0
  0
LINE
  8
1
 62
2
 10
845.4069736819884
 20
504.7781519517
 30
0
 11
845.6787383878707
 21
504.8781519517
 31
0
  0
LINE
  8
1
 62
2
 10
845.2031501525765
 20
504.8781519517
 30
0
 11
845.4069736819884
 21
504.7781519517
 31
0
  0
LINE
  8
1
 62
2
 10
844.9993266231647
 20
505.0781519517
 30
0
 11
845.2031501525765
 21
504.8781519517
 31
0
  0
LINE
  8
1
 62
2
 10
844.9313854466942
 20
505.3781519517
 30
0
 11
844.9993266231647
 21
505.0781519517
 31
0
  0
LINE
  8
1
 62
2
 10
844.9313854466942
 20
505.7781519517
 30
0
 11
844.9313854466942
 21
505.3781519517
 31
0
  0
LINE
  8
1
 62
2
 10
844.9993266231647
 20
506.0781519517
 30
0
 11
844.9313854466942
 21
505.7781519517
 31
0
  0
LINE
  8
1
 62
2
 10
845.2031501525765
 20
506.3781519517
 30
0
 11
844.9993266231647
 21
506.0781519517
 31
0
  0
LINE
  8
1
 62
2
 10
845.4069736819884
 20
506.5781519517
 30
0
 11
845.2031501525765
 21
506.3781519517
 31
0
  0
LINE
  8
1
 62
2
 10
845.7466795643412
 20
506.7781519517
 30
0
 11
845.4069736819884
 21
506.5781519517
 31
0
  0
LINE
  8
1
 62
2
 10
842.6077972114
 20
505.9281519517
 30
0
 11
843.7627972114
 21
505.9281519517
 31
0
  0
LINE
  8
1
 62
2
 10
841.9147972114
 20
506.6031519517
 30
0
 11
841.9147972114
 21
504.8781519517
 31
0
  0
LINE
  8
1
 62
2
 10
841.8570472114001
 20
506.7531519517
 30
0
 11
841.9147972114
 21
506.6031519517
 31
0
  0
LINE
  8
1
 62
2
 10
841.7415472114001
 20
506.9031519517
 30
0
 11
841.8570472114001
 21
506.7531519517
 31
0
  0
LINE
  8
1
 62
2
 10
841.5682972114
 20
506.9781519517
 30
0
 11
841.7415472114001
 21
506.9031519517
 31
0
  0
LINE
  8
1
 62
2
 10
840.5287972114001
 20
506.9781519517
 30
0
 11
841.5682972114
 21
506.9781519517
 31
0
  0
LINE
  8
1
 62
2
 10
840.5287972114001
 20
504.8781519517
 30
0
 11
840.5287972114001
 21
506.9781519517
 31
0
  0
LINE
  8
1
 62
2
 10
560.0539464030334
 20
244.7559705842386
 30
0
 11
560.7206130697
 21
244.3809705842386
 31
0
  0
LINE
  8
1
 62
2
 10
554.0539464030334
 20
244.7559705842386
 30
0
 11
560.0539464030334
 21
244.7559705842386
 31
0
  0
LINE
  8
1
 62
2
 10
553.3872797363666
 20
245.1309705842386
 30
0
 11
554.0539464030334
 21
244.7559705842386
 31
0
  0
LINE
  8
1
 62
2
 10
544.7206130697
 20
245.8809705842386
 30
0
 11
547.3872797363666
 21
242.8809705842386
 31
0
  0
LINE
  8
1
 62
2
 10
543.7206130697
 20
247.3809705842386
 30
0
 11
542.0539464030334
 21
245.5059705842386
 31
0
  0
LINE
  8
1
 62
2
 10
545.3872797363666
 20
249.6309705842386
 30
0
 11
543.7206130697
 21
247.3809705842386
 31
0
  0
LINE
  8
1
 62
2
 10
548.7206130697
 20
248.1309705842386
 30
0
 11
544.3872797363666
 21
248.1309705842386
 31
0
  0
LINE
  8
1
 62
2
 10
547.3872797363666
 20
245.5059705842386
 30
0
 11
548.7206130697
 21
248.1309705842386
 31
0
  0
LINE
  8
1
 62
2
 10
544.7206130697
 20
242.5059705842386
 30
0
 11
547.3872797363666
 21
245.5059705842386
 31
0
  0
LINE
  8
1
 62
2
 10
541.7206130697
 20
240.2559705842386
 30
0
 11
544.7206130697
 21
242.5059705842386
 31
0
  0
LINE
  8
1
 62
2
 10
536.0539464030334
 20
244.7559705842386
 30
0
 11
536.7206130697
 21
244.3809705842386
 31
0
  0
LINE
  8
1
 62
2
 10
530.0539464030334
 20
244.7559705842386
 30
0
 11
536.0539464030334
 21
244.7559705842386
 31
0
  0
LINE
  8
1
 62
2
 10
529.3872797363666
 20
245.1309705842386
 30
0
 11
530.0539464030334
 21
244.7559705842386
 31
0
  0
LINE
  8
1
 62
2
 10
522.0539464030334
 20
244.7559705842386
 30
0
 11
523.7206130697
 21
242.1309705842386
 31
0
  0
LINE
  8
1
 62
2
 10
520.3872797363666
 20
246.6309705842386
 30
0
 11
522.0539464030334
 21
244.7559705842386
 31
0
  0
LINE
  8
1
 62
2
 10
522.7206130697
 20
245.5059705842386
 30
0
 11
524.3872797363666
 21
248.8809705842386
 31
0
  0
LINE
  8
1
 62
2
 10
520.0539464030334
 20
242.1309705842386
 30
0
 11
522.7206130697
 21
245.5059705842386
 31
0
  0
LINE
  8
1
 62
2
 10
517.7206130697
 20
240.2559705842386
 30
0
 11
520.0539464030334
 21
242.1309705842386
 31
0
  0
LINE
  8
1
 62
2
 10
510.0539464030333
 20
248.1309705842386
 30
0
 11
513.7206130697
 21
248.1309705842386
 31
0
  0
LINE
  8
1
 62
2
 10
509.0539464030333
 20
246.2559705842386
 30
0
 11
508.3872797363667
 21
246.2559705842386
 31
0
  0
LINE
  8
1
 62
2
 10
508.3872797363667
 20
244.7559705842386
 30
0
 11
508.3872797363667
 21
242.8809705842386
 31
0
  0
LINE
  8
1
 62
2
 10
512.3872797363666
 20
242.8809705842386
 30
0
 11
512.3872797363666
 21
246.2559705842386
 31
0
  0
LINE
  8
1
 62
2
 10
508.3872797363667
 20
242.8809705842386
 30
0
 11
508.3872797363667
 21
241.3809705842386
 31
0
  0
LINE
  8
1
 62
2
 10
507.7206130697
 20
239.8809705842386
 30
0
 11
514.0539464030334
 21
239.8809705842386
 31
0
  0
LINE
  8
1
 62
2
 10
506.3872797363667
 20
240.2559705842386
 30
0
 11
507.7206130697
 21
239.8809705842386
 31
0
  0
LINE
  8
1
 62
2
 10
505.3872797363667
 20
241.0059705842386
 30
0
 11
506.3872797363667
 21
240.2559705842386
 31
0
  0
LINE
  8
1
 62
2
 10
512.3872797363666
 20
242.8809705842386
 30
0
 11
508.3872797363667
 21
242.8809705842386
 31
0
  0
LINE
  8
1
 62
2
 10
508.3872797363667
 20
244.7559705842386
 30
0
 11
512.3872797363666
 21
244.7559705842386
 31
0
  0
LINE
  8
1
 62
2
 10
512.3872797363666
 20
246.2559705842386
 30
0
 11
509.0539464030333
 21
246.2559705842386
 31
0
  0
LINE
  8
1
 62
2
 10
512.3872797363666
 20
241.3809705842386
 30
0
 11
512.3872797363666
 21
242.8809705842386
 31
0
  0
LINE
  8
1
 62
2
 10
508.3872797363667
 20
241.3809705842386
 30
0
 11
512.3872797363666
 21
241.3809705842386
 31
0
  0
LINE
  8
1
 62
2
 10
508.3872797363667
 20
246.2559705842386
 30
0
 11
508.3872797363667
 21
244.7559705842386
 31
0
  0
LINE
  8
1
 62
2
 10
510.0539464030333
 20
248.1309705842386
 30
0
 11
509.0539464030333
 21
246.2559705842386
 31
0
  0
LINE
  8
1
 62
2
 10
506.7206130697
 20
248.1309705842386
 30
0
 11
510.0539464030333
 21
248.1309705842386
 31
0
  0
LINE
  8
1
 62
2
 10
512.0539464030334
 20
250.3809705842386
 30
0
 11
510.7206130697
 21
248.1309705842386
 31
0
  0
LINE
  8
1
 62
2
 10
508.3872797363667
 20
250.3809705842386
 30
0
 11
509.3872797363667
 21
248.8809705842386
 31
0
  0
LINE
  8
1
 62
2
 10
504.7206130697
 20
250.3809705842386
 30
0
 11
506.0539464030333
 21
248.8809705842386
 31
0
  0
LINE
  8
1
 62
2
 10
505.3872797363667
 20
245.5059705842386
 30
0
 11
504.0539464030333
 21
245.5059705842386
 31
0
  0
LINE
  8
1
 62
2
 10
505.3872797363667
 20
241.0059705842386
 30
0
 11
505.3872797363667
 21
245.5059705842386
 31
0
  0
LINE
  8
1
 62
2
 10
504.3872797363667
 20
239.8809705842386
 30
0
 11
505.3872797363667
 21
241.0059705842386
 31
0
  0
LINE
  8
1
 62
2
 10
500.7206130697
 20
242.5059705842386
 30
0
 11
502.3872797363667
 21
240.6309705842386
 31
0
  0
LINE
  8
1
 62
2
 10
499.3872797363667
 20
244.7559705842386
 30
0
 11
500.7206130697
 21
242.5059705842386
 31
0
  0
LINE
  8
1
 62
2
 10
498.3872797363667
 20
247.3809705842386
 30
0
 11
499.3872797363667
 21
244.7559705842386
 31
0
  0
LINE
  8
1
 62
2
 10
501.3872797363667
 20
247.7559705842386
 30
0
 11
499.0539464030333
 21
245.8809705842386
 31
0
  0
LINE
  8
1
 62
2
 10
497.3872797363667
 20
238.7559705842386
 30
0
 11
496.3872797363667
 21
239.1309705842386
 31
0
  0
LINE
  8
1
 62
2
 10
497.3872797363667
 20
250.3809705842386
 30
0
 11
497.3872797363667
 21
238.7559705842386
 31
0
  0
LINE
  8
1
 62
2
 10
495.7206130697
 20
246.6309705842386
 30
0
 11
492.3872797363667
 21
246.6309705842386
 31
0
  0
LINE
  8
1
 62
2
 10
495.0539464030333
 20
244.3809705842386
 30
0
 11
495.7206130697
 21
246.6309705842386
 31
0
  0
LINE
  8
1
 62
2
 10
493.7206130697
 20
242.1309705842386
 30
0
 11
495.0539464030333
 21
244.3809705842386
 31
0
  0
LINE
  8
1
 62
2
 10
492.3872797363667
 20
240.6309705842386
 30
0
 11
493.7206130697
 21
242.1309705842386
 31
0
  0
LINE
  8
1
 62
2
 10
483.9206130697
 20
247.1559705842386
 30
0
 11
486.3206130697
 21
247.1559705842386
 31
0
  0
LINE
  8
1
 62
2
 10
483.9206130697
 20
247.1559705842386
 30
0
 11
483.9206130697
 21
238.7559705842386
 31
0
  0
LINE
  8
1
 62
2
 10
488.1206130697
 20
245.6559705842386
 30
0
 11
488.1206130697
 21
238.7559705842386
 31
0
  0
LINE
  8
1
 62
2
 10
487.8206130697
 20
246.2559705842386
 30
0
 11
488.1206130697
 21
245.6559705842386
 31
0
  0
LINE
  8
1
 62
2
 10
487.2206130697
 20
246.8559705842386
 30
0
 11
487.8206130697
 21
246.2559705842386
 31
0
  0
LINE
  8
1
 62
2
 10
486.3206130697
 20
247.1559705842386
 30
0
 11
487.2206130697
 21
246.8559705842386
 31
0
  0
LINE
  8
1
 62
2
 10
479.7206130697
 20
247.1559705842386
 30
0
 11
483.9206130697
 21
247.1559705842386
 31
0
  0
LINE
  8
1
 62
2
 10
479.7206130697
 20
238.7559705842386
 30
0
 11
479.7206130697
 21
247.1559705842386
 31
0
  0
LINE
  8
1
 62
2
 10
471.9206130697
 20
247.1559705842386
 30
0
 11
474.3206130697
 21
247.1559705842386
 31
0
  0
LINE
  8
1
 62
2
 10
471.9206130697
 20
247.1559705842386
 30
0
 11
471.9206130697
 21
238.7559705842386
 31
0
  0
LINE
  8
1
 62
2
 10
476.1206130697
 20
245.6559705842386
 30
0
 11
476.1206130697
 21
238.7559705842386
 31
0
  0
LINE
  8
1
 62
2
 10
475.8206130697
 20
246.2559705842386
 30
0
 11
476.1206130697
 21
245.6559705842386
 31
0
  0
LINE
  8
1
 62
2
 10
475.2206130697
 20
246.8559705842386
 30
0
 11
475.8206130697
 21
246.2559705842386
 31
0
  0
LINE
  8
1
 62
2
 10
474.3206130697
 20
247.1559705842386
 30
0
 11
475.2206130697
 21
246.8559705842386
 31
0
  0
LINE
  8
1
 62
2
 10
467.7206130697
 20
247.1559705842386
 30
0
 11
471.9206130697
 21
247.1559705842386
 31
0
  0
LINE
  8
1
 62
2
 10
467.7206130697
 20
238.7559705842386
 30
0
 11
467.7206130697
 21
247.1559705842386
 31
0
  0
LINE
  8
1
 62
2
 10
464.1206130697
 20
246.2559705842386
 30
0
 11
464.1206130697
 21
243.2559705842386
 31
0
  0
LINE
  8
1
 62
2
 10
463.8206130697
 20
248.0559705842386
 30
0
 11
464.1206130697
 21
246.2559705842386
 31
0
  0
LINE
  8
1
 62
2
 10
463.2206130697
 20
249.2559705842386
 30
0
 11
463.8206130697
 21
248.0559705842386
 31
0
  0
LINE
  8
1
 62
2
 10
462.6206130697
 20
249.8559705842386
 30
0
 11
463.2206130697
 21
249.2559705842386
 31
0
  0
LINE
  8
1
 62
2
 10
461.7206130697
 20
250.4559705842386
 30
0
 11
462.6206130697
 21
249.8559705842386
 31
0
  0
LINE
  8
1
 62
2
 10
460.8206130697
 20
250.7559705842386
 30
0
 11
461.7206130697
 21
250.4559705842386
 31
0
  0
LINE
  8
1
 62
2
 10
460.2206130697
 20
250.7559705842386
 30
0
 11
460.8206130697
 21
250.7559705842386
 31
0
  0
LINE
  8
1
 62
2
 10
459.3206130697
 20
250.4559705842386
 30
0
 11
460.2206130697
 21
250.7559705842386
 31
0
  0
LINE
  8
1
 62
2
 10
458.4206130697
 20
249.8559705842386
 30
0
 11
459.3206130697
 21
250.4559705842386
 31
0
  0
LINE
  8
1
 62
2
 10
457.8206130697
 20
249.2559705842386
 30
0
 11
458.4206130697
 21
249.8559705842386
 31
0
  0
LINE
  8
1
 62
2
 10
457.2206130697
 20
248.0559705842386
 30
0
 11
457.8206130697
 21
249.2559705842386
 31
0
  0
LINE
  8
1
 62
2
 10
456.9206130697
 20
246.2559705842386
 30
0
 11
457.2206130697
 21
248.0559705842386
 31
0
  0
LINE
  8
1
 62
2
 10
456.9206130697
 20
243.2559705842386
 30
0
 11
456.9206130697
 21
246.2559705842386
 31
0
  0
LINE
  8
1
 62
2
 10
457.2206130697
 20
241.4559705842386
 30
0
 11
456.9206130697
 21
243.2559705842386
 31
0
  0
LINE
  8
1
 62
2
 10
457.8206130697
 20
240.2559705842386
 30
0
 11
457.2206130697
 21
241.4559705842386
 31
0
  0
LINE
  8
1
 62
2
 10
458.4206130697
 20
239.6559705842386
 30
0
 11
457.8206130697
 21
240.2559705842386
 31
0
  0
LINE
  8
1
 62
2
 10
459.3206130697
 20
239.0559705842386
 30
0
 11
458.4206130697
 21
239.6559705842386
 31
0
  0
LINE
  8
1
 62
2
 10
460.2206130697
 20
238.7559705842386
 30
0
 11
459.3206130697
 21
239.0559705842386
 31
0
  0
LINE
  8
1
 62
2
 10
460.8206130697
 20
238.7559705842386
 30
0
 11
460.2206130697
 21
238.7559705842386
 31
0
  0
LINE
  8
1
 62
2
 10
461.7206130697
 20
239.0559705842386
 30
0
 11
460.8206130697
 21
238.7559705842386
 31
0
  0
LINE
  8
1
 62
2
 10
462.6206130697
 20
239.6559705842386
 30
0
 11
461.7206130697
 21
239.0559705842386
 31
0
  0
LINE
  8
1
 62
2
 10
463.2206130697
 20
240.2559705842386
 30
0
 11
462.6206130697
 21
239.6559705842386
 31
0
  0
LINE
  8
1
 62
2
 10
463.8206130697
 20
241.4559705842386
 30
0
 11
463.2206130697
 21
240.2559705842386
 31
0
  0
LINE
  8
1
 62
2
 10
464.1206130697
 20
243.2559705842386
 30
0
 11
463.8206130697
 21
241.4559705842386
 31
0
  0
LINE
  8
1
 62
2
 10
450.6206130697
 20
238.7559705842386
 30
0
 11
446.1206130697
 21
238.7559705842386
 31
0
  0
LINE
  8
1
 62
2
 10
451.5206130697
 20
239.0559705842386
 30
0
 11
450.6206130697
 21
238.7559705842386
 31
0
  0
LINE
  8
1
 62
2
 10
452.4206130697
 20
239.6559705842386
 30
0
 11
451.5206130697
 21
239.0559705842386
 31
0
  0
LINE
  8
1
 62
2
 10
453.0206130697
 20
240.5559705842386
 30
0
 11
452.4206130697
 21
239.6559705842386
 31
0
  0
LINE
  8
1
 62
2
 10
453.3206130697
 20
241.7559705842386
 30
0
 11
453.0206130697
 21
240.5559705842386
 31
0
  0
LINE
  8
1
 62
2
 10
453.3206130697
 20
243.5559705842386
 30
0
 11
453.3206130697
 21
241.7559705842386
 31
0
  0
LINE
  8
1
 62
2
 10
453.0206130697
 20
244.7559705842386
 30
0
 11
453.3206130697
 21
243.5559705842386
 31
0
  0
LINE
  8
1
 62
2
 10
452.1206130697
 20
245.6559705842386
 30
0
 11
453.0206130697
 21
244.7559705842386
 31
0
  0
LINE
  8
1
 62
2
 10
450.6206130697
 20
245.9559705842386
 30
0
 11
452.1206130697
 21
245.6559705842386
 31
0
  0
LINE
  8
1
 62
2
 10
446.1206130697
 20
245.9559705842386
 30
0
 11
450.6206130697
 21
245.9559705842386
 31
0
  0
LINE
  8
1
 62
2
 10
446.1206130697
 20
250.7559705842386
 30
0
 11
446.1206130697
 21
245.9559705842386
 31
0
  0
LINE
  8
1
 62
2
 10
452.7206130697
 20
250.7559705842386
 30
0
 11
446.1206130697
 21
250.7559705842386
 31
0
  0
LINE
  8
1
 62
2
 10
438.1206130697
 20
250.0059705842386
 30
0
 11
434.7872797363667
 21
250.0059705842386
 31
0
  0
LINE
  8
1
 62
2
 10
439.7872797363667
 20
239.1309705842386
 30
0
 11
444.4539464030333
 21
239.1309705842386
 31
0
  0
LINE
  8
1
 62
2
 10
439.7872797363667
 20
243.6309705842386
 30
0
 11
439.7872797363667
 21
239.1309705842386
 31
0
  0
LINE
  8
1
 62
2
 10
443.7872797363667
 20
243.6309705842386
 30
0
 11
442.7872797363667
 21
243.6309705842386
 31
0
  0
LINE
  8
1
 62
2
 10
443.7872797363667
 20
250.3809705842386
 30
0
 11
443.7872797363667
 21
243.6309705842386
 31
0
  0
LINE
  8
1
 62
2
 10
441.4539464030333
 20
245.1309705842386
 30
0
 11
441.4539464030333
 21
250.0059705842386
 31
0
  0
LINE
  8
1
 62
2
 10
438.1206130697
 20
250.0059705842386
 30
0
 11
438.1206130697
 21
243.6309705842386
 31
0
  0
LINE
  8
1
 62
2
 10
434.4539464030333
 20
247.3809705842386
 30
0
 11
440.1206130697
 21
247.3809705842386
 31
0
  0
LINE
  8
1
 62
2
 10
439.7872797363667
 20
250.0059705842386
 30
0
 11
438.1206130697
 21
250.0059705842386
 31
0
  0
LINE
  8
1
 62
2
 10
436.4539464030333
 20
247.3809705842386
 30
0
 11
436.4539464030333
 21
250.0059705842386
 31
0
  0
LINE
  8
1
 62
2
 10
435.7872797363667
 20
244.7559705842386
 30
0
 11
436.4539464030333
 21
247.3809705842386
 31
0
  0
LINE
  8
1
 62
2
 10
434.7872797363667
 20
243.2559705842386
 30
0
 11
435.7872797363667
 21
244.7559705842386
 31
0
  0
LINE
  8
1
 62
2
 10
443.1206130697
 20
241.7559705842386
 30
0
 11
435.7872797363667
 21
241.7559705842386
 31
0
  0
LINE
  8
1
 62
2
 10
434.7872797363667
 20
239.1309705842386
 30
0
 11
439.7872797363667
 21
239.1309705842386
 31
0
  0
LINE
  8
1
 62
2
 10
428.1206130697
 20
238.7559705842386
 30
0
 11
430.5206130697
 21
250.7559705842386
 31
0
  0
LINE
  8
1
 62
2
 10
425.1206130697
 20
247.1559705842386
 30
0
 11
428.1206130697
 21
238.7559705842386
 31
0
  0
LINE
  8
1
 62
2
 10
422.1206130697
 20
238.7559705842386
 30
0
 11
425.1206130697
 21
247.1559705842386
 31
0
  0
LINE
  8
1
 62
2
 10
419.7206130697
 20
250.7559705842386
 30
0
 11
422.1206130697
 21
238.7559705842386
 31
0
  0
LINE
  8
1
 62
2
 10
415.8206130697
 20
248.3559705842386
 30
0
 11
416.1206130697
 21
247.1559705842386
 31
0
  0
LINE
  8
1
 62
2
 10
415.2206130697
 20
249.2559705842386
 30
0
 11
415.8206130697
 21
248.3559705842386
 31
0
  0
LINE
  8
1
 62
2
 10
414.6206130697
 20
249.8559705842386
 30
0
 11
415.2206130697
 21
249.2559705842386
 31
0
  0
LINE
  8
1
 62
2
 10
413.7206130697
 20
250.4559705842386
 30
0
 11
414.6206130697
 21
249.8559705842386
 31
0
  0
LINE
  8
1
 62
2
 10
412.5206130697
 20
250.7559705842386
 30
0
 11
413.7206130697
 21
250.4559705842386
 31
0
  0
LINE
  8
1
 62
2
 10
407.7206130697
 20
250.7559705842386
 30
0
 11
412.5206130697
 21
250.7559705842386
 31
0
  0
LINE
  8
1
 62
2
 10
407.7206130697
 20
238.7559705842386
 30
0
 11
407.7206130697
 21
250.7559705842386
 31
0
  0
LINE
  8
1
 62
2
 10
412.5206130697
 20
238.7559705842386
 30
0
 11
407.7206130697
 21
238.7559705842386
 31
0
  0
LINE
  8
1
 62
2
 10
413.7206130697
 20
239.0559705842386
 30
0
 11
412.5206130697
 21
238.7559705842386
 31
0
  0
LINE
  8
1
 62
2
 10
414.6206130697
 20
239.6559705842386
 30
0
 11
413.7206130697
 21
239.0559705842386
 31
0
  0
LINE
  8
1
 62
2
 10
415.2206130697
 20
240.2559705842386
 30
0
 11
414.6206130697
 21
239.6559705842386
 31
0
  0
LINE
  8
1
 62
2
 10
415.8206130697
 20
241.1559705842386
 30
0
 11
415.2206130697
 21
240.2559705842386
 31
0
  0
LINE
  8
1
 62
2
 10
416.1206130697
 20
242.3559705842386
 30
0
 11
415.8206130697
 21
241.1559705842386
 31
0
  0
LINE
  8
1
 62
2
 10
416.1206130697
 20
247.1559705842386
 30
0
 11
416.1206130697
 21
242.3559705842386
 31
0
  0
LINE
  8
1
 62
2
 10
395.7206130697
 20
245.3559705842386
 30
0
 11
395.7206130697
 21
238.7559705842386
 31
0
  0
LINE
  8
1
 62
2
 10
395.7206130697
 20
250.7559705842386
 30
0
 11
395.7206130697
 21
245.3559705842386
 31
0
  0
LINE
  8
1
 62
2
 10
404.1206130697
 20
250.7559705842386
 30
0
 11
395.7206130697
 21
250.7559705842386
 31
0
  0
LINE
  8
1
 62
2
 10
395.7206130697
 20
245.3559705842386
 30
0
 11
404.1206130697
 21
245.3559705842386
 31
0
  0
LINE
  8
1
 62
2
 10
392.1206130697
 20
245.3559705842386
 30
0
 11
389.1206130697
 21
245.3559705842386
 31
0
  0
LINE
  8
1
 62
2
 10
392.1206130697
 20
238.7559705842386
 30
0
 11
392.1206130697
 21
245.3559705842386
 31
0
  0
LINE
  8
1
 62
2
 10
387.0206130697
 20
238.7559705842386
 30
0
 11
392.1206130697
 21
238.7559705842386
 31
0
  0
LINE
  8
1
 62
2
 10
386.1206130697
 20
239.0559705842386
 30
0
 11
387.0206130697
 21
238.7559705842386
 31
0
  0
LINE
  8
1
 62
2
 10
384.9206130697
 20
239.6559705842386
 30
0
 11
386.1206130697
 21
239.0559705842386
 31
0
  0
LINE
  8
1
 62
2
 10
384.3206130697
 20
240.2559705842386
 30
0
 11
384.9206130697
 21
239.6559705842386
 31
0
  0
LINE
  8
1
 62
2
 10
384.0206130697
 20
241.1559705842386
 30
0
 11
384.3206130697
 21
240.2559705842386
 31
0
  0
LINE
  8
1
 62
2
 10
383.7206130697
 20
242.3559705842386
 30
0
 11
384.0206130697
 21
241.1559705842386
 31
0
  0
LINE
  8
1
 62
2
 10
383.7206130697
 20
247.1559705842386
 30
0
 11
383.7206130697
 21
242.3559705842386
 31
0
  0
LINE
  8
1
 62
2
 10
384.0206130697
 20
248.3559705842386
 30
0
 11
383.7206130697
 21
247.1559705842386
 31
0
  0
LINE
  8
1
 62
2
 10
384.3206130697
 20
249.2559705842386
 30
0
 11
384.0206130697
 21
248.3559705842386
 31
0
  0
LINE
  8
1
 62
2
 10
384.9206130697
 20
249.8559705842386
 30
0
 11
384.3206130697
 21
249.2559705842386
 31
0
  0
LINE
  8
1
 62
2
 10
385.8206130697
 20
250.4559705842386
 30
0
 11
384.9206130697
 21
249.8559705842386
 31
0
  0
LINE
  8
1
 62
2
 10
387.0206130697
 20
250.7559705842386
 30
0
 11
385.8206130697
 21
250.4559705842386
 31
0
  0
LINE
  8
1
 62
2
 10
392.1206130697
 20
250.7559705842386
 30
0
 11
387.0206130697
 21
250.7559705842386
 31
0
  0
LINE
  8
1
 62
2
 10
523.5539464030333
 20
221.8809705842386
 30
0
 11
523.8872797363666
 21
222.2559705842386
 31
0
  0
LINE
  8
1
 62
2
 10
523.5539464030333
 20
224.1309705842386
 30
0
 11
521.5539464030333
 21
224.1309705842386
 31
0
  0
LINE
  8
1
 62
2
 10
528.5539464030333
 20
215.5059705842386
 30
0
 11
531.5539464030333
 21
215.5059705842386
 31
0
  0
LINE
  8
1
 62
2
 10
525.2206130697
 20
215.5059705842386
 30
0
 11
528.5539464030333
 21
215.5059705842386
 31
0
  0
LINE
  8
1
 62
2
 10
528.5539464030333
 20
226.3809705842386
 30
0
 11
528.5539464030333
 21
215.5059705842386
 31
0
  0
LINE
  8
1
 62
2
 10
526.2206130697
 20
221.8809705842386
 30
0
 11
530.8872797363666
 21
221.8809705842386
 31
0
  0
LINE
  8
1
 62
2
 10
524.2206130697
 20
221.5059705842386
 30
0
 11
525.8872797363666
 21
219.6309705842386
 31
0
  0
LINE
  8
1
 62
2
 10
523.5539464030333
 20
224.1309705842386
 30
0
 11
523.5539464030333
 21
226.3809705842386
 31
0
  0
LINE
  8
1
 62
2
 10
525.2206130697
 20
224.1309705842386
 30
0
 11
523.5539464030333
 21
224.1309705842386
 31
0
  0
LINE
  8
1
 62
2
 10
523.8872797363666
 20
222.2559705842386
 30
0
 11
525.2206130697
 21
224.1309705842386
 31
0
  0
LINE
  8
1
 62
2
 10
522.2206130697
 20
220.3809705842386
 30
0
 11
523.5539464030333
 21
221.8809705842386
 31
0
  0
LINE
  8
1
 62
2
 10
520.8872797363666
 20
219.2559705842386
 30
0
 11
522.2206130697
 21
220.3809705842386
 31
0
  0
LINE
  8
1
 62
2
 10
523.5539464030333
 20
215.1309705842386
 30
0
 11
523.5539464030333
 21
221.8809705842386
 31
0
  0
LINE
  8
1
 62
2
 10
514.2206130697
 20
219.2559705842386
 30
0
 11
510.8872797363667
 21
215.1309705842386
 31
0
  0
LINE
  8
1
 62
2
 10
517.2206130697
 20
215.8809705842386
 30
0
 11
515.8872797363667
 21
217.3809705842386
 31
0
  0
LINE
  8
1
 62
2
 10
518.2206130697
 20
214.7559705842386
 30
0
 11
517.2206130697
 21
215.8809705842386
 31
0
  0
LINE
  8
1
 62
2
 10
509.8872797363667
 20
215.1309705842386
 30
0
 11
517.2206130697
 21
215.8809705842386
 31
0
  0
LINE
  8
1
 62
2
 10
510.5539464030334
 20
219.6309705842386
 30
0
 11
518.2206130697
 21
219.6309705842386
 31
0
  0
LINE
  8
1
 62
2
 10
511.8872797363667
 20
221.5059705842386
 30
0
 11
516.5539464030334
 21
221.5059705842386
 31
0
  0
LINE
  8
1
 62
2
 10
514.2206130697
 20
226.3809705842386
 30
0
 11
519.5539464030334
 21
220.7559705842386
 31
0
  0
LINE
  8
1
 62
2
 10
514.2206130697
 20
226.3809705842386
 30
0
 11
508.8872797363667
 21
220.7559705842386
 31
0
  0
LINE
  8
1
 62
2
 10
499.8872797363667
 20
221.1309705842386
 30
0
 11
497.5539464030334
 21
221.1309705842386
 31
0
  0
LINE
  8
1
 62
2
 10
499.8872797363667
 20
217.0059705842386
 30
0
 11
502.2206130697
 21
217.7559705842386
 31
0
  0
LINE
  8
1
 62
2
 10
506.5539464030334
 20
215.1309705842386
 30
0
 11
507.5539464030334
 21
216.2559705842386
 31
0
  0
LINE
  8
1
 62
2
 10
505.2206130697
 20
216.6309705842386
 30
0
 11
506.5539464030334
 21
215.1309705842386
 31
0
  0
LINE
  8
1
 62
2
 10
503.8872797363667
 20
219.2559705842386
 30
0
 11
505.2206130697
 21
216.6309705842386
 31
0
  0
LINE
  8
1
 62
2
 10
503.2206130697
 20
222.2559705842386
 30
0
 11
503.8872797363667
 21
219.2559705842386
 31
0
  0
LINE
  8
1
 62
2
 10
502.8872797363667
 20
226.7559705842386
 30
0
 11
503.2206130697
 21
222.2559705842386
 31
0
  0
LINE
  8
1
 62
2
 10
504.8872797363667
 20
225.2559705842386
 30
0
 11
503.8872797363667
 21
226.3809705842386
 31
0
  0
LINE
  8
1
 62
2
 10
496.8872797363667
 20
224.1309705842386
 30
0
 11
506.5539464030334
 21
224.1309705842386
 31
0
  0
LINE
  8
1
 62
2
 10
499.8872797363667
 20
221.1309705842386
 30
0
 11
499.8872797363667
 21
217.0059705842386
 31
0
  0
LINE
  8
1
 62
2
 10
502.2206130697
 20
221.1309705842386
 30
0
 11
499.8872797363667
 21
221.1309705842386
 31
0
  0
LINE
  8
1
 62
2
 10
497.5539464030334
 20
216.2559705842386
 30
0
 11
499.8872797363667
 21
217.0059705842386
 31
0
  0
LINE
  8
1
 62
2
 10
487.2206130697
 20
223.3809705842386
 30
0
 11
487.2206130697
 21
226.7559705842386
 31
0
  0
LINE
  8
1
 62
2
 10
487.2206130697
 20
223.3809705842386
 30
0
 11
485.5539464030334
 21
223.3809705842386
 31
0
  0
LINE
  8
1
 62
2
 10
493.8872797363667
 20
217.7559705842386
 30
0
 11
495.2206130697
 21
215.1309705842386
 31
0
  0
LINE
  8
1
 62
2
 10
492.2206130697
 20
221.1309705842386
 30
0
 11
493.8872797363667
 21
217.7559705842386
 31
0
  0
LINE
  8
1
 62
2
 10
491.2206130697
 20
218.5059705842386
 30
0
 11
492.2206130697
 21
221.1309705842386
 31
0
  0
LINE
  8
1
 62
2
 10
489.8872797363667
 20
216.6309705842386
 30
0
 11
491.2206130697
 21
218.5059705842386
 31
0
  0
LINE
  8
1
 62
2
 10
488.8872797363667
 20
215.1309705842386
 30
0
 11
489.8872797363667
 21
216.6309705842386
 31
0
  0
LINE
  8
1
 62
2
 10
492.2206130697
 20
226.7559705842386
 30
0
 11
492.2206130697
 21
214.7559705842386
 31
0
  0
LINE
  8
1
 62
2
 10
495.2206130697
 20
221.1309705842386
 30
0
 11
489.5539464030334
 21
221.1309705842386
 31
0
  0
LINE
  8
1
 62
2
 10
490.5539464030334
 20
223.7559705842386
 30
0
 11
494.8872797363667
 21
223.7559705842386
 31
0
  0
LINE
  8
1
 62
2
 10
490.5539464030334
 20
223.7559705842386
 30
0
 11
490.8872797363667
 21
225.6309705842386
 31
0
  0
LINE
  8
1
 62
2
 10
489.5539464030334
 20
221.8809705842386
 30
0
 11
490.5539464030334
 21
223.7559705842386
 31
0
  0
LINE
  8
1
 62
2
 10
487.2206130697
 20
223.3809705842386
 30
0
 11
488.8872797363667
 21
220.3809705842386
 31
0
  0
LINE
  8
1
 62
2
 10
485.2206130697
 20
218.1309705842386
 30
0
 11
487.2206130697
 21
223.3809705842386
 31
0
  0
LINE
  8
1
 62
2
 10
488.8872797363667
 20
223.3809705842386
 30
0
 11
487.2206130697
 21
223.3809705842386
 31
0
  0
LINE
  8
1
 62
2
 10
487.2206130697
 20
215.1309705842386
 30
0
 11
487.2206130697
 21
223.3809705842386
 31
0
  0
LINE
  8
1
 62
2
 10
473.8872797363667
 20
222.2559705842386
 30
0
 11
473.8872797363667
 21
224.1309705842386
 31
0
  0
LINE
  8
1
 62
2
 10
477.2206130697
 20
224.1309705842386
 30
0
 11
477.2206130697
 21
222.2559705842386
 31
0
  0
LINE
  8
1
 62
2
 10
473.8872797363667
 20
224.1309705842386
 30
0
 11
473.8872797363667
 21
226.0059705842386
 31
0
  0
LINE
  8
1
 62
2
 10
482.5539464030334
 20
222.2559705842386
 30
0
 11
482.5539464030334
 21
224.1309705842386
 31
0
  0
LINE
  8
1
 62
2
 10
479.2206130697
 20
224.1309705842386
 30
0
 11
479.2206130697
 21
222.2559705842386
 31
0
  0
LINE
  8
1
 62
2
 10
482.5539464030334
 20
224.1309705842386
 30
0
 11
482.5539464030334
 21
226.0059705842386
 31
0
  0
LINE
  8
1
 62
2
 10
473.8872797363667
 20
215.5059705842386
 30
0
 11
473.8872797363667
 21
215.1309705842386
 31
0
  0
LINE
  8
1
 62
2
 10
479.2206130697
 20
224.1309705842386
 30
0
 11
482.5539464030334
 21
224.1309705842386
 31
0
  0
LINE
  8
1
 62
2
 10
479.2206130697
 20
222.2559705842386
 30
0
 11
482.5539464030334
 21
222.2559705842386
 31
0
  0
LINE
  8
1
 62
2
 10
479.2206130697
 20
226.0059705842386
 30
0
 11
479.2206130697
 21
224.1309705842386
 31
0
  0
LINE
  8
1
 62
2
 10
482.5539464030334
 20
226.0059705842386
 30
0
 11
479.2206130697
 21
226.0059705842386
 31
0
  0
LINE
  8
1
 62
2
 10
482.5539464030334
 20
215.5059705842386
 30
0
 11
482.5539464030334
 21
222.2559705842386
 31
0
  0
LINE
  8
1
 62
2
 10
482.2206130697
 20
215.1309705842386
 30
0
 11
482.5539464030334
 21
215.5059705842386
 31
0
  0
LINE
  8
1
 62
2
 10
481.2206130697
 20
215.1309705842386
 30
0
 11
482.2206130697
 21
215.1309705842386
 31
0
  0
LINE
  8
1
 62
2
 10
477.2206130697
 20
224.1309705842386
 30
0
 11
473.8872797363667
 21
224.1309705842386
 31
0
  0
LINE
  8
1
 62
2
 10
477.2206130697
 20
222.2559705842386
 30
0
 11
473.8872797363667
 21
222.2559705842386
 31
0
  0
LINE
  8
1
 62
2
 10
477.2206130697
 20
226.0059705842386
 30
0
 11
477.2206130697
 21
224.1309705842386
 31
0
  0
LINE
  8
1
 62
2
 10
473.8872797363667
 20
226.0059705842386
 30
0
 11
477.2206130697
 21
226.0059705842386
 31
0
  0
LINE
  8
1
 62
2
 10
473.8872797363667
 20
215.5059705842386
 30
0
 11
473.8872797363667
 21
222.2559705842386
 31
0
  0
LINE
  8
1
 62
2
 10
466.2206130697
 20
215.1309705842386
 30
0
 11
470.2206130697
 21
215.1309705842386
 31
0
  0
LINE
  8
1
 62
2
 10
466.2206130697
 20
222.2559705842386
 30
0
 11
468.5539464030334
 21
222.2559705842386
 31
0
  0
LINE
  8
1
 62
2
 10
470.2206130697
 20
221.8809705842386
 30
0
 11
471.5539464030334
 21
220.7559705842386
 31
0
  0
LINE
  8
1
 62
2
 10
467.8872797363667
 20
224.5059705842386
 30
0
 11
470.2206130697
 21
221.8809705842386
 31
0
  0
LINE
  8
1
 62
2
 10
466.2206130697
 20
226.7559705842386
 30
0
 11
467.8872797363667
 21
224.5059705842386
 31
0
  0
LINE
  8
1
 62
2
 10
464.5539464030334
 20
224.5059705842386
 30
0
 11
466.2206130697
 21
226.7559705842386
 31
0
  0
LINE
  8
1
 62
2
 10
462.2206130697
 20
221.8809705842386
 30
0
 11
464.5539464030334
 21
224.5059705842386
 31
0
  0
LINE
  8
1
 62
2
 10
460.8872797363667
 20
220.7559705842386
 30
0
 11
462.2206130697
 21
221.8809705842386
 31
0
  0
LINE
  8
1
 62
2
 10
467.8872797363667
 20
216.6309705842386
 30
0
 11
468.5539464030334
 21
218.5059705842386
 31
0
  0
LINE
  8
1
 62
2
 10
463.8872797363667
 20
218.5059705842386
 30
0
 11
464.5539464030334
 21
216.6309705842386
 31
0
  0
LINE
  8
1
 62
2
 10
469.5539464030334
 20
220.0059705842386
 30
0
 11
462.8872797363667
 21
220.0059705842386
 31
0
  0
LINE
  8
1
 62
2
 10
463.8872797363667
 20
222.2559705842386
 30
0
 11
466.2206130697
 21
222.2559705842386
 31
0
  0
LINE
  8
1
 62
2
 10
466.2206130697
 20
215.1309705842386
 30
0
 11
466.2206130697
 21
222.2559705842386
 31
0
  0
LINE
  8
1
 62
2
 10
461.8872797363667
 20
215.1309705842386
 30
0
 11
466.2206130697
 21
215.1309705842386
 31
0
  0
LINE
  8
1
 62
2
 10
457.2206130697
 20
218.5059705842386
 30
0
 11
458.8872797363667
 21
220.7559705842386
 31
0
  0
LINE
  8
1
 62
2
 10
454.5539464030334
 20
217.0059705842386
 30
0
 11
457.2206130697
 21
218.5059705842386
 31
0
  0
LINE
  8
1
 62
2
 10
454.5539464030334
 20
223.7559705842386
 30
0
 11
454.5539464030334
 21
217.0059705842386
 31
0
  0
LINE
  8
1
 62
2
 10
451.8872797363667
 20
220.7559705842386
 30
0
 11
452.2206130697
 21
223.7559705842386
 31
0
  0
LINE
  8
1
 62
2
 10
451.2206130697
 20
218.5059705842386
 30
0
 11
451.8872797363667
 21
220.7559705842386
 31
0
  0
LINE
  8
1
 62
2
 10
450.2206130697
 20
216.6309705842386
 30
0
 11
451.2206130697
 21
218.5059705842386
 31
0
  0
LINE
  8
1
 62
2
 10
438.8872797363667
 20
219.6309705842386
 30
0
 11
438.8872797363667
 21
217.3809705842386
 31
0
  0
LINE
  8
1
 62
2
 10
442.5539464030334
 20
215.8809705842386
 30
0
 11
444.5539464030334
 21
216.2559705842386
 31
0
  0
LINE
  8
1
 62
2
 10
439.2206130697
 20
216.2559705842386
 30
0
 11
442.5539464030334
 21
215.8809705842386
 31
0
  0
LINE
  8
1
 62
2
 10
438.8872797363667
 20
217.3809705842386
 30
0
 11
439.2206130697
 21
216.2559705842386
 31
0
  0
LINE
  8
1
 62
2
 10
438.8872797363667
 20
223.7559705842386
 30
0
 11
438.8872797363667
 21
219.6309705842386
 31
0
  0
LINE
  8
1
 62
2
 10
445.2206130697
 20
224.5059705842386
 30
0
 11
446.2206130697
 21
223.3809705842386
 31
0
  0
LINE
  8
1
 62
2
 10
445.5539464030334
 20
222.6309705842386
 30
0
 11
444.5539464030334
 21
223.7559705842386
 31
0
  0
LINE
  8
1
 62
2
 10
441.8872797363667
 20
220.7559705842386
 30
0
 11
443.8872797363667
 21
221.8809705842386
 31
0
  0
LINE
  8
1
 62
2
 10
438.8872797363667
 20
219.6309705842386
 30
0
 11
441.8872797363667
 21
220.7559705842386
 31
0
  0
LINE
  8
1
 62
2
 10
431.5539464030334
 20
218.5059705842386
 30
0
 11
433.5539464030334
 21
216.2559705842386
 31
0
  0
LINE
  8
1
 62
2
 10
429.8872797363667
 20
220.0059705842386
 30
0
 11
431.5539464030334
 21
218.5059705842386
 31
0
  0
LINE
  8
1
 62
2
 10
433.8872797363667
 20
225.2559705842386
 30
0
 11
434.8872797363667
 21
224.1309705842386
 31
0
  0
LINE
  8
1
 62
2
 10
433.2206130697
 20
224.5059705842386
 30
0
 11
434.2206130697
 21
223.3809705842386
 31
0
  0
LINE
  8
1
 62
2
 10
431.8872797363667
 20
223.7559705842386
 30
0
 11
427.5539464030334
 21
223.7559705842386
 31
0
  0
LINE
  8
1
 62
2
 10
430.8872797363667
 20
221.5059705842386
 30
0
 11
431.8872797363667
 21
223.7559705842386
 31
0
  0
LINE
  8
1
 62
2
 10
428.5539464030334
 20
218.1309705842386
 30
0
 11
430.8872797363667
 21
221.5059705842386
 31
0
  0
LINE
  8
1
 62
2
 10
426.2206130697
 20
216.2559705842386
 30
0
 11
428.5539464030334
 21
218.1309705842386
 31
0
  0
LINE
  8
1
 62
2
 10
422.2206130697
 20
223.3809705842386
 30
0
 11
419.2206130697
 21
220.0059705842386
 31
0
  0
LINE
  8
1
 62
2
 10
414.5539464030334
 20
223.3809705842386
 30
0
 11
422.2206130697
 21
223.3809705842386
 31
0
  0
LINE
  8
1
 62
2
 10
418.2206130697
 20
220.0059705842386
 30
0
 11
418.5539464030334
 21
221.8809705842386
 31
0
  0
LINE
  8
1
 62
2
 10
417.5539464030334
 20
217.7559705842386
 30
0
 11
418.2206130697
 21
220.0059705842386
 31
0
  0
LINE
  8
1
 62
2
 10
416.2206130697
 20
215.5059705842386
 30
0
 11
417.5539464030334
 21
217.7559705842386
 31
0
  0
LINE
  8
0
 62
7
 10
525.2206102981
 20
546.7185326482
 30
0
 11
525.2206102981
 21
563.2185362841
 31
0
  0
LINE
  8
0
 62
7
 10
419.2206115498
 20
565.2214923999497
 30
0
 11
419.2206115498
 21
565.2155720620503
 31
0
  0
LINE
  8
0
 62
7
 10
530.220609255
 20
563.2185362841
 30
0
 11
530.220609255
 21
565.2185254360001
 31
0
  0
LINE
  8
0
 62
7
 10
346.7206173612
 20
421.2185325662
 30
0
 11
346.7206173612
 21
451.2185318957
 31
0
  0
LINE
  8
0
 62
7
 10
346.7206173612
 20
471.21853238
 30
0
 11
346.7206173612
 21
476.2185313369
 31
0
  0
LINE
  8
0
 62
7
 10
334.7206079437
 20
476.2185313369
 30
0
 11
334.7206079437
 21
471.21853238
 31
0
  0
LINE
  8
0
 62
7
 10
334.7206079437
 20
451.2185318957
 30
0
 11
334.7206079437
 21
421.2185325662
 31
0
  0
LINE
  8
0
 62
7
 10
350.220609553
 20
403.2185324098
 30
0
 11
351.6902663781
 21
404.0670380558
 31
0
  0
LINE
  8
0
 62
7
 10
329.7509514763
 20
404.0670380558
 30
0
 11
331.2206083013
 21
403.2185324098
 31
0
  0
LINE
  8
0
 62
7
 10
351.6902663781
 20
470.370026734
 30
0
 11
350.220609553
 21
471.21853238
 31
0
  0
LINE
  8
0
 62
7
 10
331.2206083013
 20
471.21853238
 30
0
 11
329.7509514763
 21
470.370026734
 31
0
  0
LINE
  8
0
 62
7
 10
534.0465121939
 20
499.2185332442
 30
0
 11
535.5161690189
 21
500.0670351649
 31
0
  0
LINE
  8
0
 62
7
 10
513.5768578424001
 20
500.0670351649
 30
0
 11
515.0465109422
 21
499.2185332442
 31
0
  0
LINE
  8
0
 62
7
 10
429.3947109057
 20
499.2185332442
 30
0
 11
430.8643640055
 21
500.0670351649
 31
0
  0
LINE
  8
0
 62
7
 10
408.925052829
 20
500.0670351649
 30
0
 11
410.394709654
 21
499.2185332442
 31
0
  0
LINE
  8
0
 62
7
 10
413.8947092964
 20
499.2185332442
 30
0
 11
413.8947092964
 21
493.718533274
 31
0
  0
LINE
  8
0
 62
7
 10
425.8947075381
 20
493.718533274
 30
0
 11
425.8947075381
 21
499.2185332442
 31
0
  0
LINE
  8
0
 62
7
 10
410.394709654
 20
546.7185326482
 30
0
 11
408.925052829
 21
545.8700232769
 31
0
  0
LINE
  8
0
 62
7
 10
430.8643640055
 20
545.8700232769
 30
0
 11
429.3947109057
 21
546.7185326482
 31
0
  0
LINE
  8
0
 62
7
 10
518.5465143098001
 20
499.2185332442
 30
0
 11
518.5465143098001
 21
493.718533274
 31
0
  0
LINE
  8
0
 62
7
 10
530.5465125515
 20
493.718533274
 30
0
 11
530.5465125515
 21
499.2185332442
 31
0
  0
LINE
  8
0
 62
7
 10
515.0465109422
 20
546.7185326482
 30
0
 11
513.5768578424001
 21
545.8700232769
 31
0
  0
LINE
  8
0
 62
7
 10
535.5161690189
 20
545.8700232769
 30
0
 11
534.0465121939
 21
546.7185326482
 31
0
  0
LINE
  8
0
 62
7
 10
358.4247791244
 20
386.7185324992
 30
0
 11
363.2206135466
 21
397.7185324396
 31
0
  0
LINE
  8
0
 62
7
 10
323.0164461805
 20
386.7185324992
 30
0
 11
358.4247791244
 21
386.7185324992
 31
0
  0
LINE
  8
0
 62
7
 10
318.2206117584
 20
397.7185324396
 30
0
 11
323.0164461805
 21
386.7185324992
 31
0
  0
LINE
  8
0
 62
7
 10
363.2206135466
 20
474.7185320224
 30
0
 11
358.4247791244
 21
485.7185319627
 31
0
  0
LINE
  8
0
 62
7
 10
358.4247791244
 20
485.7185319627
 30
0
 11
323.0164461805
 21
485.7185319627
 31
0
  0
LINE
  8
0
 62
7
 10
323.0164461805
 20
485.7185319627
 30
0
 11
318.2206117584
 21
474.7185320224
 31
0
  0
LINE
  8
0
 62
7
 10
29.2206221296
 20
488.2185333039
 30
0
 11
27.2206180765
 21
486.218532976
 31
0
  0
LINE
  8
0
 62
7
 10
27.2206180765
 20
386.2185314859
 30
0
 11
29.2206221296
 21
384.2185311581
 31
0
  0
LINE
  8
0
 62
7
 10
536.7367007806
 20
535.7185327078
 30
0
 11
536.7367007806
 21
538.7185313369
 31
0
  0
LINE
  8
0
 62
7
 10
407.7045210673
 20
538.7185313369
 30
0
 11
407.7045210673
 21
535.7185327078
 31
0
  0
LINE
  8
0
 62
7
 10
544.2206078245
 20
509.2185311581
 30
0
 11
544.2206078245
 21
532.2185330654
 31
0
  0
LINE
  8
0
 62
7
 10
400.2206140234
 20
532.2185330654
 30
0
 11
400.2206140234
 21
509.2185311581
 31
0
  0
LINE
  8
0
 62
7
 10
539.2206125929
 20
535.7185327078
 30
0
 11
539.2206125929
 21
545.7185306216001
 31
0
  0
LINE
  8
0
 62
7
 10
585.220608957
 20
529.2185344363001
 30
0
 11
570.2206083609
 21
529.2185344363001
 31
0
  0
LINE
  8
0
 62
7
 10
526.7206096126
 20
395.1364927555
 30
0
 11
526.7206096126
 21
396.6964915956
 31
0
  0
LINE
  8
0
 62
7
 10
585.220608957
 20
384.2185311581
 30
0
 11
587.2206130101
 21
386.2185314859
 31
0
  0
LINE
  8
0
 62
7
 10
587.2206130101
 20
486.218532976
 30
0
 11
585.220608957
 21
488.2185333039
 31
0
  0
LINE
  8
0
 62
7
 10
363.2206135466
 20
404.218530711
 30
0
 11
365.2206101491
 21
404.218530711
 31
0
  0
LINE
  8
0
 62
7
 10
365.2206101491
 20
468.2185337509
 30
0
 11
363.2206135466
 21
468.2185337509
 31
0
  0
LINE
  8
0
 62
7
 10
455.7206110134
 20
547.2185336615
 30
0
 11
455.7206110134
 21
549.7185312773
 31
0
  0
LINE
  8
0
 62
7
 10
455.7206110134
 20
548.4685324694
 30
0
 11
454.7206108494
 21
548.4685324694
 31
0
  0
LINE
  8
0
 62
7
 10
454.7206108494
 20
549.7185312773
 30
0
 11
454.7206108494
 21
547.2185336615
 31
0
  0
LINE
  8
0
 62
7
 10
448.2206107153
 20
547.2185336615
 30
0
 11
448.2206107153
 21
549.7185312773
 31
0
  0
LINE
  8
0
 62
7
 10
448.2206107153
 20
548.4685324694
 30
0
 11
447.2206105514
 21
548.4685324694
 31
0
  0
LINE
  8
0
 62
7
 10
518.2206110134
 20
572.2185396219001
 30
0
 11
426.2206108345
 21
572.2185396219001
 31
0
  0
LINE
  8
0
 62
7
 10
447.2206105514
 20
545.7185306216001
 30
0
 11
447.2206105514
 21
561.2185342771001
 31
0
  0
LINE
  8
0
 62
7
 10
494.2206108047
 20
573.2185267473
 30
0
 11
494.2206108047
 21
572.2185396219001
 31
0
  0
LINE
  8
0
 62
7
 10
482.2206107004
 20
573.2185267473
 30
0
 11
482.2206107004
 21
572.2185396219001
 31
0
  0
LINE
  8
0
 62
7
 10
482.2206107004
 20
573.2185267473
 30
0
 11
494.2206108047
 21
573.2185267473
 31
0
  0
LINE
  8
0
 62
7
 10
497.2206112965
 20
573.2185267473
 30
0
 11
509.2206114008
 21
573.2185267473
 31
0
  0
LINE
  8
0
 62
7
 10
509.2206114008
 20
573.2185267473
 30
0
 11
509.2206114008
 21
572.2185396219001
 31
0
  0
LINE
  8
0
 62
7
 10
497.2206112965
 20
573.2185267473
 30
0
 11
497.2206112965
 21
572.2185396219001
 31
0
  0
LINE
  8
0
 62
7
 10
436.2206124737
 20
573.2185267473
 30
0
 11
436.2206124737
 21
572.2185396219001
 31
0
  0
LINE
  8
0
 62
7
 10
446.2206103875
 20
573.2185267473
 30
0
 11
446.2206103875
 21
572.2185396219001
 31
0
  0
LINE
  8
0
 62
7
 10
436.2206124737
 20
573.2185267473
 30
0
 11
446.2206103875
 21
573.2185267473
 31
0
  0
LINE
  8
0
 62
7
 10
409.7206109239
 20
546.3293441201
 30
0
 11
409.7206109239
 21
556.718532231
 31
0
  0
LINE
  8
0
 62
7
 10
411.7206109239
 20
558.718532231
 30
0
 11
415.5182317867
 21
558.7185346152
 31
0
  0
LINE
  8
0
 62
7
 10
449.2206108792
 20
573.2185267473
 30
0
 11
479.22061114
 21
573.2185267473
 31
0
  0
LINE
  8
0
 62
7
 10
464.220610544
 20
573.2185267473
 30
0
 11
464.220610544
 21
572.2185396219001
 31
0
  0
LINE
  8
0
 62
7
 10
456.7206111773
 20
573.2185267473
 30
0
 11
456.7206111773
 21
572.2185396219001
 31
0
  0
LINE
  8
0
 62
7
 10
471.7206109002
 20
573.2185267473
 30
0
 11
471.7206109002
 21
572.2185396219001
 31
0
  0
LINE
  8
0
 62
7
 10
523.9437409713
 20
565.2185254360001
 30
0
 11
530.220609255
 21
565.2185254360001
 31
0
  0
LINE
  8
0
 62
7
 10
530.220609255
 20
563.2185362841
 30
0
 11
523.9437409713
 21
563.2185362841
 31
0
  0
LINE
  8
0
 62
7
 10
479.22061114
 20
573.2185267473
 30
0
 11
479.22061114
 21
572.2185396219001
 31
0
  0
LINE
  8
0
 62
7
 10
449.2206108792
 20
573.2185267473
 30
0
 11
449.2206108792
 21
572.2185396219001
 31
0
  0
LINE
  8
0
 62
7
 10
450.0344694628
 20
553.7185319329
 30
0
 11
447.2206105514
 21
553.7185319329
 31
0
  0
LINE
  8
0
 62
7
 10
447.2206105514
 20
554.7185339595
 30
0
 11
454.9524952694
 21
554.7185339595
 31
0
  0
LINE
  8
0
 62
7
 10
452.906752102
 20
553.7185319329
 30
0
 11
455.2045074328
 21
553.7185319329
 31
0
  0
LINE
  8
0
 62
7
 10
452.7264629527
 20
555.2185349727999
 30
0
 11
452.7264629527
 21
554.7185339595
 31
0
  0
LINE
  8
0
 62
7
 10
454.826487325
 20
555.2185349727999
 30
0
 11
452.7264629527
 21
555.2185349727999
 31
0
  0
LINE
  8
0
 62
7
 10
452.3546305521
 20
555.2185349727999
 30
0
 11
452.3546305521
 21
554.7185339595
 31
0
  0
LINE
  8
0
 62
7
 10
452.7101517691
 20
555.2185349727999
 30
0
 11
452.7101517691
 21
554.7185339595
 31
0
  0
LINE
  8
0
 62
7
 10
452.7101517691
 20
555.2185349727999
 30
0
 11
452.2530549242
 21
555.2185349727999
 31
0
  0
LINE
  8
0
 62
7
 10
452.2530549242
 20
555.2185349727999
 30
0
 11
452.2530549242
 21
554.7185339595
 31
0
  0
LINE
  8
0
 62
7
 10
346.2054395153
 20
404.0670380558
 30
0
 11
346.2054395153
 21
411.2185318584
 31
0
  0
LINE
  8
0
 62
7
 10
335.2357857897
 20
404.0670380558
 30
0
 11
335.2357857897
 21
411.2185318584
 31
0
  0
LINE
  8
0
 62
7
 10
331.2206083013
 20
403.2185324098
 30
0
 11
350.220609553
 21
403.2185324098
 31
0
  0
LINE
  8
0
 62
7
 10
351.6902663781
 20
404.0670380558
 30
0
 11
351.6902663781
 21
411.2185318584
 31
0
  0
LINE
  8
0
 62
7
 10
329.7509514763
 20
404.0670380558
 30
0
 11
329.7509514763
 21
411.2185318584
 31
0
  0
LINE
  8
0
 62
7
 10
334.7206079437
 20
476.2185313369
 30
0
 11
346.7206173612
 21
476.2185313369
 31
0
  0
LINE
  8
0
 62
7
 10
331.2206083013
 20
471.21853238
 30
0
 11
350.220609553
 21
471.21853238
 31
0
  0
LINE
  8
0
 62
7
 10
335.2357857897
 20
470.370026734
 30
0
 11
335.2357857897
 21
461.2185326035
 31
0
  0
LINE
  8
0
 62
7
 10
346.2054395153
 20
470.370026734
 30
0
 11
346.2054395153
 21
461.2185326035
 31
0
  0
LINE
  8
0
 62
7
 10
329.7509514763
 20
470.370026734
 30
0
 11
329.7509514763
 21
461.2185326035
 31
0
  0
LINE
  8
0
 62
7
 10
351.6902663781
 20
470.370026734
 30
0
 11
351.6902663781
 21
461.2185326035
 31
0
  0
LINE
  8
0
 62
7
 10
530.0313384308
 20
500.0670351649
 30
0
 11
530.0313384308
 21
509.2185311581
 31
0
  0
LINE
  8
0
 62
7
 10
519.0616847052
 20
500.0670351649
 30
0
 11
519.0616847052
 21
509.2185311581
 31
0
  0
LINE
  8
0
 62
7
 10
515.0465109422
 20
499.2185332442
 30
0
 11
534.0465121939
 21
499.2185332442
 31
0
  0
LINE
  8
0
 62
7
 10
513.5768578424001
 20
500.0670351649
 30
0
 11
513.5768578424001
 21
509.2185311581
 31
0
  0
LINE
  8
0
 62
7
 10
535.5161690189
 20
500.0670351649
 30
0
 11
535.5161690189
 21
509.2185311581
 31
0
  0
LINE
  8
0
 62
7
 10
425.3795371427
 20
500.0670351649
 30
0
 11
425.3795371427
 21
509.2185311581
 31
0
  0
LINE
  8
0
 62
7
 10
414.4098834171
 20
500.0670351649
 30
0
 11
414.4098834171
 21
509.2185311581
 31
0
  0
LINE
  8
0
 62
7
 10
429.3947109057
 20
499.2185332442
 30
0
 11
410.394709654
 21
499.2185332442
 31
0
  0
LINE
  8
0
 62
7
 10
430.8643640055
 20
500.0670351649
 30
0
 11
430.8643640055
 21
509.2185311581
 31
0
  0
LINE
  8
0
 62
7
 10
408.925052829
 20
500.0670351649
 30
0
 11
408.925052829
 21
509.2185311581
 31
0
  0
LINE
  8
0
 62
7
 10
429.3947109057
 20
546.7185326482
 30
0
 11
410.394709654
 21
546.7185326482
 31
0
  0
LINE
  8
0
 62
7
 10
408.925052829
 20
545.8700232769
 30
0
 11
408.925052829
 21
538.7185313369
 31
0
  0
LINE
  8
0
 62
7
 10
414.4098834171
 20
545.8700232769
 30
0
 11
414.4098834171
 21
538.7185313369
 31
0
  0
LINE
  8
0
 62
7
 10
425.3795371427
 20
545.8700232769
 30
0
 11
425.3795371427
 21
538.7185313369
 31
0
  0
LINE
  8
0
 62
7
 10
430.8643640055
 20
545.8700232769
 30
0
 11
430.8643640055
 21
538.7185313369
 31
0
  0
LINE
  8
0
 62
7
 10
425.8947075381
 20
493.718533274
 30
0
 11
413.8947092964
 21
493.718533274
 31
0
  0
LINE
  8
0
 62
7
 10
530.0313384308
 20
545.8700232769
 30
0
 11
530.0313384308
 21
538.7185313369
 31
0
  0
LINE
  8
0
 62
7
 10
535.5161690189
 20
545.8700232769
 30
0
 11
535.5161690189
 21
538.7185313369
 31
0
  0
LINE
  8
0
 62
7
 10
534.0465121939
 20
546.7185326482
 30
0
 11
515.0465109422
 21
546.7185326482
 31
0
  0
LINE
  8
0
 62
7
 10
519.0616847052
 20
545.8700232769
 30
0
 11
519.0616847052
 21
538.7185313369
 31
0
  0
LINE
  8
0
 62
7
 10
513.5768578424001
 20
545.8700232769
 30
0
 11
513.5768578424001
 21
538.7185313369
 31
0
  0
LINE
  8
0
 62
7
 10
530.5465125515
 20
493.718533274
 30
0
 11
518.5465143098001
 21
493.718533274
 31
0
  0
LINE
  8
0
 62
7
 10
363.2206135466
 20
411.2185318584
 30
0
 11
318.2206117584
 21
411.2185318584
 31
0
  0
LINE
  8
0
 62
7
 10
327.5791966392
 20
421.2185325662
 30
0
 11
353.8620286657
 21
421.2185325662
 31
0
  0
LINE
  8
0
 62
7
 10
334.7206079437
 20
436.218532231
 30
0
 11
318.2206117584
 21
436.218532231
 31
0
  0
LINE
  8
0
 62
7
 10
324.8655163719
 20
436.218532231
 30
0
 11
326.3306730463
 21
423.3564887757
 31
0
  0
LINE
  8
0
 62
7
 10
363.2206135466
 20
436.218532231
 30
0
 11
346.7206173612
 21
436.218532231
 31
0
  0
LINE
  8
0
 62
7
 10
355.1105522587
 20
423.3564887757
 30
0
 11
356.5757014825
 21
436.218532231
 31
0
  0
LINE
  8
0
 62
7
 10
332.2617375328
 20
426.7468661631
 30
0
 11
331.3718699886
 21
436.218532231
 31
0
  0
LINE
  8
0
 62
7
 10
332.8803741409
 20
423.3564887757
 30
0
 11
332.2617375328
 21
426.7468661631
 31
0
  0
LINE
  8
0
 62
7
 10
350.0693478658
 20
436.218532231
 30
0
 11
349.1794877722
 21
426.7468661631
 31
0
  0
LINE
  8
0
 62
7
 10
349.1794877722
 20
426.7468661631
 30
0
 11
348.5608437135
 21
423.3564887757
 31
0
  0
LINE
  8
0
 62
7
 10
363.2206135466
 20
474.7185320224
 30
0
 11
363.2206135466
 21
397.7185324396
 31
0
  0
LINE
  8
0
 62
7
 10
318.2206117584
 20
397.7185324396
 30
0
 11
318.2206117584
 21
474.7185320224
 31
0
  0
LINE
  8
0
 62
7
 10
358.4247791244
 20
386.7185324992
 30
0
 11
358.4247791244
 21
411.2185318584
 31
0
  0
LINE
  8
0
 62
7
 10
323.0164461805
 20
386.7185324992
 30
0
 11
323.0164461805
 21
411.2185318584
 31
0
  0
LINE
  8
0
 62
7
 10
353.8620286657
 20
451.2185318957
 30
0
 11
327.5791966392
 21
451.2185318957
 31
0
  0
LINE
  8
0
 62
7
 10
318.2206117584
 20
461.2185326035
 30
0
 11
363.2206135466
 21
461.2185326035
 31
0
  0
LINE
  8
0
 62
7
 10
326.3306730463
 20
449.0805756862
 30
0
 11
324.8655163719
 21
436.218532231
 31
0
  0
LINE
  8
0
 62
7
 10
356.5757014825
 20
436.218532231
 30
0
 11
355.1105522587
 21
449.0805756862
 31
0
  0
LINE
  8
0
 62
7
 10
349.1794877722
 20
445.6901982988
 30
0
 11
350.0693478658
 21
436.218532231
 31
0
  0
LINE
  8
0
 62
7
 10
348.5608437135
 20
449.0805756862
 30
0
 11
349.1794877722
 21
445.6901982988
 31
0
  0
LINE
  8
0
 62
7
 10
331.3718699886
 20
436.218532231
 30
0
 11
332.2617375328
 21
445.6901982988
 31
0
  0
LINE
  8
0
 62
7
 10
332.2617375328
 20
445.6901982988
 30
0
 11
332.8803741409
 21
449.0805756862
 31
0
  0
LINE
  8
0
 62
7
 10
334.3850784971
 20
436.218532231
 30
0
 11
331.3718699886
 21
436.218532231
 31
0
  0
LINE
  8
0
 62
7
 10
350.0693478658
 20
436.218532231
 30
0
 11
347.0561319067
 21
436.218532231
 31
0
  0
LINE
  8
0
 62
7
 10
358.4247791244
 20
461.2185326035
 30
0
 11
358.4247791244
 21
485.7185319627
 31
0
  0
LINE
  8
0
 62
7
 10
323.0164461805
 20
461.2185326035
 30
0
 11
323.0164461805
 21
485.7185319627
 31
0
  0
LINE
  8
0
 62
7
 10
29.2206221296
 20
356.2185340191
 30
0
 11
29.2206221296
 21
529.2185344363001
 31
0
  0
LINE
  8
0
 62
7
 10
27.2206180765
 20
386.2185314859
 30
0
 11
27.2206180765
 21
486.218532976
 31
0
  0
LINE
  8
0
 62
7
 10
416.3524248673
 20
535.7185327078
 30
0
 11
460.2489826306
 21
535.7185327078
 31
0
  0
LINE
  8
0
 62
7
 10
444.720611073
 20
532.2185330654
 30
0
 11
444.720611073
 21
535.7185327078
 31
0
  0
LINE
  8
0
 62
7
 10
499.7206107749
 20
532.2185330654
 30
0
 11
499.7206107749
 21
535.7185327078
 31
0
  0
LINE
  8
0
 62
7
 10
484.1922392173
 20
535.7185327078
 30
0
 11
528.0887969806
 21
535.7185327078
 31
0
  0
LINE
  8
0
 62
7
 10
444.720611073
 20
532.2185330654
 30
0
 11
499.7206107749
 21
532.2185330654
 31
0
  0
LINE
  8
0
 62
7
 10
400.2206140234
 20
524.2185317541
 30
0
 11
544.2206078245
 21
524.2185317541
 31
0
  0
LINE
  8
0
 62
7
 10
407.7045210673
 20
538.7185313369
 30
0
 11
536.7367007806
 21
538.7185313369
 31
0
  0
LINE
  8
0
 62
7
 10
536.2590068056001
 20
535.7185327078
 30
0
 11
542.3209630920001
 21
535.7185327078
 31
0
  0
LINE
  8
0
 62
7
 10
542.3209630920001
 20
532.2185330654
 30
0
 11
542.3209630920001
 21
535.7185327078
 31
0
  0
LINE
  8
0
 62
7
 10
542.3209630920001
 20
532.2185330654
 30
0
 11
544.2206078245
 21
532.2185330654
 31
0
  0
LINE
  8
0
 62
7
 10
400.2206140234
 20
532.2185330654
 30
0
 11
401.7892592623
 21
532.2185330654
 31
0
  0
LINE
  8
0
 62
7
 10
401.7892592623
 20
532.2185330654
 30
0
 11
401.7892592623
 21
535.7185327078
 31
0
  0
LINE
  8
0
 62
7
 10
401.7892592623
 20
535.7185327078
 30
0
 11
408.1822150423
 21
535.7185327078
 31
0
  0
LINE
  8
0
 62
7
 10
430.8643640055
 20
545.7185306216001
 30
0
 11
457.2206112592
 21
545.7185306216001
 31
0
  0
LINE
  8
0
 62
7
 10
447.2206105514
 20
547.2185336615
 30
0
 11
456.9706107526
 21
547.2185336615
 31
0
  0
LINE
  8
0
 62
7
 10
535.5161690189
 20
545.7185306216001
 30
0
 11
539.2206125929
 21
545.7185306216001
 31
0
  0
LINE
  8
0
 62
7
 10
570.2206083609
 20
529.2185344363001
 30
0
 11
570.2206083609
 21
356.2185340191
 31
0
  0
LINE
  8
0
 62
7
 10
585.220608957
 20
529.2185344363001
 30
0
 11
585.220608957
 21
356.2185340191
 31
0
  0
LINE
  8
0
 62
7
 10
570.2206083609
 20
356.2185340191
 30
0
 11
585.220608957
 21
356.2185340191
 31
0
  0
LINE
  8
0
 62
7
 10
488.6547942682
 20
451.3994180227
 30
0
 11
486.5229298397
 21
451.3994180227
 31
0
  0
LINE
  8
0
 62
7
 10
486.5229298397
 20
451.3994180227
 30
0
 11
486.5229298397
 21
460.3758570368
 31
0
  0
LINE
  8
0
 62
7
 10
483.7482768147
 20
459.3293056453
 30
0
 11
483.7482768147
 21
451.3994180227
 31
0
  0
LINE
  8
0
 62
7
 10
483.7482768147
 20
451.3994180227
 30
0
 11
481.6164123862
 21
451.3994180227
 31
0
  0
LINE
  8
0
 62
7
 10
481.6164123862
 20
451.3994180227
 30
0
 11
481.6164123862
 21
460.463069808
 31
0
  0
LINE
  8
0
 62
7
 10
478.9418923705
 20
459.3293056453
 30
0
 11
478.9418923705
 21
451.3994180227
 31
0
  0
LINE
  8
0
 62
7
 10
478.9418923705
 20
451.3994180227
 30
0
 11
476.8100284076
 21
451.3994180227
 31
0
  0
LINE
  8
0
 62
7
 10
476.8100284076
 20
463.3410856689
 30
0
 11
478.9418923705
 21
463.3410856689
 31
0
  0
LINE
  8
0
 62
7
 10
478.9418923705
 20
463.3410856689
 30
0
 11
478.9418923705
 21
461.8584722842
 31
0
  0
LINE
  8
0
 62
7
 10
488.6547942682
 20
461.1607701148
 30
0
 11
488.6547942682
 21
451.3994180227
 31
0
  0
LINE
  8
0
 62
7
 10
476.8100284076
 20
451.3994180227
 30
0
 11
476.8100284076
 21
463.3410856689
 31
0
  0
LINE
  8
0
 62
7
 10
400.2206140234
 20
509.2185311581
 30
0
 11
544.2206078245
 21
509.2185311581
 31
0
  0
LINE
  8
0
 62
7
 10
452.220611371
 20
479.7185309793
 30
0
 11
480.2206113039
 21
479.7185309793
 31
0
  0
LINE
  8
0
 62
7
 10
452.220611371
 20
482.7185333337
 30
0
 11
452.220611371
 21
479.7185309793
 31
0
  0
LINE
  8
0
 62
7
 10
480.2206113039
 20
482.7185333337
 30
0
 11
452.220611371
 21
482.7185333337
 31
0
  0
LINE
  8
0
 62
7
 10
502.7535204812
 20
451.3994180227
 30
0
 11
500.6216560527
 21
451.3994180227
 31
0
  0
LINE
  8
0
 62
7
 10
500.6216560527
 20
451.3994180227
 30
0
 11
500.6216560527
 21
460.3758570368
 31
0
  0
LINE
  8
0
 62
7
 10
497.847003959
 20
459.3293056453
 30
0
 11
497.847003959
 21
451.3994180227
 31
0
  0
LINE
  8
0
 62
7
 10
497.847003959
 20
451.3994180227
 30
0
 11
495.7151395305
 21
451.3994180227
 31
0
  0
LINE
  8
0
 62
7
 10
495.7151395305
 20
451.3994180227
 30
0
 11
495.7151395305
 21
460.463069808
 31
0
  0
LINE
  8
0
 62
7
 10
493.0406195148
 20
459.3293056453
 30
0
 11
493.0406195148
 21
451.3994180227
 31
0
  0
LINE
  8
0
 62
7
 10
493.0406195148
 20
451.3994180227
 30
0
 11
490.9087550862
 21
451.3994180227
 31
0
  0
LINE
  8
0
 62
7
 10
490.9087550862
 20
463.3410856689
 30
0
 11
493.0406195148
 21
463.3410856689
 31
0
  0
LINE
  8
0
 62
7
 10
493.0406195148
 20
463.3410856689
 30
0
 11
493.0406195148
 21
461.8584722842
 31
0
  0
LINE
  8
0
 62
7
 10
502.7535204812
 20
461.1607701148
 30
0
 11
502.7535204812
 21
451.3994180227
 31
0
  0
LINE
  8
0
 62
7
 10
490.9087550862
 20
451.3994180227
 30
0
 11
490.9087550862
 21
463.3410856689
 31
0
  0
LINE
  8
0
 62
7
 10
480.2206113039
 20
479.7185309793
 30
0
 11
480.2206113039
 21
477.2185333635
 31
0
  0
LINE
  8
0
 62
7
 10
480.2206113039
 20
485.2185309495
 30
0
 11
480.2206113039
 21
482.7185333337
 31
0
  0
LINE
  8
0
 62
7
 10
446.4615379496
 20
459.529381674
 30
0
 11
444.0230057611
 21
459.529381674
 31
0
  0
LINE
  8
0
 62
7
 10
444.0230057611
 20
459.529381674
 30
0
 11
444.7104447557
 21
469.410056677
 31
0
  0
LINE
  8
0
 62
7
 10
444.7104447557
 20
469.410056677
 30
0
 11
454.7108263745
 21
469.410056677
 31
0
  0
LINE
  8
0
 62
7
 10
454.7108263745
 20
469.410056677
 30
0
 11
454.7108263745
 21
467.6623851622
 31
0
  0
LINE
  8
0
 62
7
 10
454.7108263745
 20
467.6623851622
 30
0
 11
447.0326957329
 21
467.6623851622
 31
0
  0
LINE
  8
0
 62
7
 10
447.0326957329
 20
467.6623851622
 30
0
 11
446.5744012072
 21
461.6532646681
 31
0
  0
LINE
  8
0
 62
7
 10
443.4826281889
 20
456.4820699955
 30
0
 11
446.1161085441
 21
456.4820699955
 31
0
  0
LINE
  8
0
 62
7
 10
481.2206105365
 20
401.7185330952
 30
0
 11
481.2206105365
 21
413.7185313369
 31
0
  0
LINE
  8
0
 62
7
 10
463.2206113114
 20
401.7185330952
 30
0
 11
481.2206105365
 21
401.7185330952
 31
0
  0
LINE
  8
0
 62
7
 10
463.2206113114
 20
413.7185313369
 30
0
 11
463.2206113114
 21
401.7185330952
 31
0
  0
LINE
  8
0
 62
7
 10
481.2206105365
 20
413.7185313369
 30
0
 11
463.2206113114
 21
413.7185313369
 31
0
  0
LINE
  8
0
 62
7
 10
526.4907666518
 20
412.6023840721
 30
0
 11
526.4907666518
 21
396.8695462311
 31
0
  0
LINE
  8
0
 62
7
 10
472.2206109239
 20
367.4526759053
 30
0
 11
469.1082337907
 21
367.9033838774
 31
0
  0
LINE
  8
0
 62
7
 10
442.5277953072
 20
362.0799728299
 30
0
 11
431.7102433218
 21
365.9569047953
 31
0
  0
LINE
  8
0
 62
7
 10
475.314204445
 20
367.5449736978
 30
0
 11
472.2206109233
 21
367.4534358646
 31
0
  0
LINE
  8
0
 62
7
 10
587.2206130101
 20
386.2185314859
 30
0
 11
587.2206130101
 21
486.218532976
 31
0
  0
LINE
  8
0
 62
7
 10
381.8919696881
 20
465.7185324098
 30
0
 11
366.9857942535
 21
465.7185324098
 31
0
  0
LINE
  8
0
 62
7
 10
469.7206109798
 20
356.2185340191
 30
0
 11
474.7206108681
 21
356.2185340191
 31
0
  0
LINE
  8
0
 62
7
 10
469.1082337907
 20
367.9033838774
 30
0
 11
469.7206109798
 21
356.2185340191
 31
0
  0
LINE
  8
0
 62
7
 10
475.314204445
 20
367.5449736978
 30
0
 11
474.7206108681
 21
356.2185340191
 31
0
  0
LINE
  8
0
 62
7
 10
365.2206101491
 20
404.218530711
 30
0
 11
365.2206101491
 21
468.2185337509
 31
0
  0
LINE
  8
0
 62
7
 10
565.8979379608001
 20
379.1996859575
 30
0
 11
534.3488195016
 21
400.9576984311
 31
0
  0
LINE
  8
0
 62
7
 10
565.1931875421
 20
493.3371157016
 30
0
 11
540.4138603284
 21
479.1351132656
 31
0
  0
LINE
  8
0
 62
7
 10
502.2206102534
 20
356.2185340191
 30
0
 11
512.2206100298999
 21
356.2185340191
 31
0
  0
LINE
  8
0
 62
7
 10
501.9141932131586
 20
362.0653390578603
 30
0
 11
502.2206102534
 21
356.2185340191
 31
0
  0
LINE
  8
0
 62
7
 10
512.8142052366
 20
367.5449736978
 30
0
 11
512.2206100298999
 21
356.2185340191
 31
0
  0
LINE
  8
0
 62
7
 10
432.220611818
 20
356.2185340191
 30
0
 11
442.2206115945
 21
356.2185340191
 31
0
  0
LINE
  8
0
 62
7
 10
431.7102433218
 20
365.9569047953
 30
0
 11
432.220611818
 21
356.2185340191
 31
0
  0
LINE
  8
0
 62
7
 10
442.5277953072
 20
362.0799728299
 30
0
 11
442.2206115945
 21
356.2185340191
 31
0
  0
LINE
  8
0
 62
7
 10
381.8919696881
 20
465.7185324098
 30
0
 11
381.8982058241
 21
465.6900730545
 31
0
  0
LINE
  8
0
 62
7
 10
401.021082051
 20
479.8599467243
 30
0
 11
401.0146521999
 21
479.8599467243
 31
0
  0
LINE
  8
0
 62
7
 10
422.2088233604
 20
556.718530562
 30
0
 11
422.2088233604
 21
546.7185326482
 31
0
  0
LINE
  8
0
 62
7
 10
419.2206115498
 20
563.7185298468
 30
0
 11
420.4063677265
 21
563.7185298468
 31
0
  0
LINE
  8
0
 62
7
 10
523.9437409713
 20
563.2185362841
 30
0
 11
523.9437409713
 21
565.2185254360001
 31
0
  0
LINE
  8
0
 62
7
 10
525.8955583944
 20
565.2185254360001
 30
0
 11
525.8955583944
 21
563.2185362841
 31
0
  0
LINE
  8
0
 62
7
 10
527.6462362184
 20
563.2185362841
 30
0
 11
527.6462362184
 21
565.2185254360001
 31
0
  0
LINE
  8
0
 62
7
 10
529.6257250978
 20
565.2185254360001
 30
0
 11
529.6257250978
 21
563.2185362841
 31
0
  0
LINE
  8
0
 62
7
 10
447.4706110581
 20
554.7185339595
 30
0
 11
447.4706110581
 21
551.1546753908
 31
0
  0
LINE
  8
0
 62
7
 10
354.7437154724
 20
421.9029624577
 30
0
 11
354.7437154724
 21
411.2185318584
 31
0
  0
LINE
  8
0
 62
7
 10
326.6975098326
 20
421.9029624577
 30
0
 11
326.6975098326
 21
411.2185318584
 31
0
  0
LINE
  8
0
 62
7
 10
348.5608437135
 20
423.3564887757
 30
0
 11
355.1105522587
 21
423.3564887757
 31
0
  0
LINE
  8
0
 62
7
 10
326.3306730463
 20
423.3564887757
 30
0
 11
332.8803741409
 21
423.3564887757
 31
0
  0
LINE
  8
0
 62
7
 10
320.1743924095
 20
461.2185326035
 30
0
 11
320.1743924095
 21
411.2185318584
 31
0
  0
LINE
  8
0
 62
7
 10
361.2668254449
 20
411.2185318584
 30
0
 11
361.2668254449
 21
461.2185326035
 31
0
  0
LINE
  8
0
 62
7
 10
334.3850784971
 20
436.218532231
 30
0
 11
334.7206079437
 21
432.6471697635
 31
0
  0
LINE
  8
0
 62
7
 10
346.7206173612
 20
432.6471697635
 30
0
 11
347.0561319067
 21
436.218532231
 31
0
  0
LINE
  8
0
 62
7
 10
354.7437154724
 20
450.5341020043
 30
0
 11
354.7437154724
 21
461.2185326035
 31
0
  0
LINE
  8
0
 62
7
 10
326.6975098326
 20
450.5341020043
 30
0
 11
326.6975098326
 21
461.2185326035
 31
0
  0
LINE
  8
0
 62
7
 10
332.8803741409
 20
449.0805756862
 30
0
 11
326.3306730463
 21
449.0805756862
 31
0
  0
LINE
  8
0
 62
7
 10
355.1105522587
 20
449.0805756862
 30
0
 11
348.5608437135
 21
449.0805756862
 31
0
  0
LINE
  8
0
 62
7
 10
334.7206079437
 20
439.7898946985
 30
0
 11
334.3850784971
 21
436.218532231
 31
0
  0
LINE
  8
0
 62
7
 10
347.0561319067
 20
436.218532231
 30
0
 11
346.7206173612
 21
439.7898946985
 31
0
  0
LINE
  8
0
 62
7
 10
528.0887969806
 20
524.2185317541
 30
0
 11
528.0887969806
 21
535.7185327078
 31
0
  0
LINE
  8
0
 62
7
 10
416.3524248673
 20
535.7185327078
 30
0
 11
416.3524248673
 21
524.2185317541
 31
0
  0
LINE
  8
0
 62
7
 10
451.2470067515
 20
532.2185330654
 30
0
 11
451.2470067515
 21
535.7185327078
 31
0
  0
LINE
  8
0
 62
7
 10
493.1942150964
 20
532.2185330654
 30
0
 11
493.1942150964
 21
535.7185327078
 31
0
  0
LINE
  8
0
 62
7
 10
514.4016222133
 20
538.7185313369
 30
0
 11
514.4016222133
 21
535.7185327078
 31
0
  0
LINE
  8
0
 62
7
 10
536.2590068056001
 20
535.7185327078
 30
0
 11
536.2590068056001
 21
524.2185317541
 31
0
  0
LINE
  8
0
 62
7
 10
408.1822150423
 20
524.2185317541
 30
0
 11
408.1822150423
 21
535.7185327078
 31
0
  0
LINE
  8
0
 62
7
 10
430.0395996346
 20
538.7185313369
 30
0
 11
430.0395996346
 21
535.7185327078
 31
0
  0
LINE
  8
0
 62
7
 10
460.2489826306
 20
532.2185330654
 30
0
 11
460.2489826306
 21
535.7185327078
 31
0
  0
LINE
  8
0
 62
7
 10
484.1922392173
 20
532.2185330654
 30
0
 11
484.1922392173
 21
535.7185327078
 31
0
  0
LINE
  8
0
 62
7
 10
443.3144499584
 20
538.7185313369
 30
0
 11
443.3144499584
 21
535.7185327078
 31
0
  0
LINE
  8
0
 62
7
 10
501.1267718895
 20
538.7185313369
 30
0
 11
501.1267718895
 21
535.7185327078
 31
0
  0
LINE
  8
0
 62
7
 10
527.9922300054
 20
509.2185311581
 30
0
 11
527.9922300054
 21
524.2185317541
 31
0
  0
LINE
  8
0
 62
7
 10
416.4489918425
 20
509.2185311581
 30
0
 11
416.4489918425
 21
524.2185317541
 31
0
  0
LINE
  8
0
 62
7
 10
408.4000551178
 20
509.2185311581
 30
0
 11
408.4000551178
 21
524.2185317541
 31
0
  0
LINE
  8
0
 62
7
 10
536.0411667301
 20
509.2185311581
 30
0
 11
536.0411667301
 21
524.2185317541
 31
0
  0
LINE
  8
0
 62
7
 10
513.5768578424001
 20
504.2185359265
 30
0
 11
430.8643640055
 21
504.2185359265
 31
0
  0
LINE
  8
0
 62
7
 10
533.0067389681
 20
482.5836591984
 30
0
 11
533.0397785677
 21
482.6136068071
 31
0
  0
LINE
  8
0
 62
7
 10
464.5078995426
 20
411.2930144654
 30
0
 11
474.2541659306
 21
411.2930144654
 31
0
  0
LINE
  8
0
 62
7
 10
464.5078995426
 20
411.2930144654
 30
0
 11
464.5078995426
 21
404.2930144654
 31
0
  0
LINE
  8
0
 62
7
 10
464.5078995426
 20
404.2930144654
 30
0
 11
474.2541659306
 21
404.2930144654
 31
0
  0
LINE
  8
0
 62
7
 10
474.2541659306
 20
411.2930144654
 30
0
 11
474.2541659306
 21
404.2930144654
 31
0
  0
LINE
  8
0
 62
2
  6
DASHDOT
 10
524.5465127318
 20
488.718532231
 30
0
 11
524.5465127318
 21
551.930619712
 31
0
  0
LINE
  8
0
 62
2
  6
DASHDOT
 10
340.7206109239
 20
478.218532231
 30
0
 11
340.7206109239
 21
409.218532231
 31
0
  0
LINE
  8
0
 62
2
  6
DASHDOT
 10
419.8947091161
 20
488.718532231
 30
0
 11
419.8947091161
 21
552.9668274995
 31
0
  0
LINE
  8
0
 62
7
 10
453.9706096126
 20
623.5130733865
 30
0
 11
453.9706096126
 21
675.716851564
 31
0
  0
LINE
  8
0
 62
7
 10
448.970614381
 20
677.8475294876
 30
0
 11
448.970614381
 21
623.5130808371
 31
0
  0
LINE
  8
0
 62
7
 10
29.2206242754
 20
632.4756450075
 30
0
 11
44.2206099703
 21
632.4756450075
 31
0
  0
LINE
  8
0
 62
7
 10
44.2206099703
 20
818.4756494182
 30
0
 11
29.2206242754
 21
818.4756494182
 31
0
  0
LINE
  8
0
 62
7
 10
29.2206242754
 20
777.4756482857
 30
0
 11
27.2206202223
 21
775.4756442326
 31
0
  0
LINE
  8
0
 62
7
 10
27.2206202223
 20
675.4756427425
 30
0
 11
29.2206242754
 21
673.4756424147
 31
0
  0
LINE
  8
0
 62
7
 10
585.2206185533
 20
818.4756494182
 30
0
 11
570.2206030561
 21
818.4756494182
 31
0
  0
LINE
  8
0
 62
7
 10
570.2206030561
 20
632.4756450075
 30
0
 11
585.2206185533
 21
632.4756450075
 31
0
  0
LINE
  8
0
 62
7
 10
400.3502860739
 20
732.5463264304
 30
0
 11
399.8542413189
 21
726.976199733
 31
0
  0
LINE
  8
0
 62
7
 10
544.1944584324
 20
763.446413638
 30
0
 11
539.9609938336999
 21
765.9614092725
 31
0
  0
LINE
  8
0
 62
7
 10
539.9181082918
 20
684.9644060302001
 30
0
 11
544.1944584324
 21
687.5048751998
 31
0
  0
LINE
  8
0
 62
7
 10
585.2206185533
 20
673.4756424147
 30
0
 11
587.2206226065
 21
675.4756427425
 31
0
  0
LINE
  8
0
 62
7
 10
587.2206226065
 20
775.4756442326
 30
0
 11
585.2206185533
 21
777.4756482857
 31
0
  0
LINE
  8
0
 62
7
 10
363.220611967
 20
693.4756438303
 30
0
 11
365.2206085696
 21
693.4756438303
 31
0
  0
LINE
  8
0
 62
7
 10
365.2206085696
 20
757.4756450075
 30
0
 11
363.220611967
 21
757.4756450075
 31
0
  0
LINE
  8
0
 62
7
 10
509.1163352205
 20
750.4602155703
 30
0
 11
509.1163352205
 21
749.2312609273
 31
0
  0
LINE
  8
0
 62
7
 10
509.1163352205
 20
749.2312609273
 30
0
 11
503.9416834785
 21
749.2312609273
 31
0
  0
LINE
  8
0
 62
7
 10
504.5449867918
 20
747.6317516583
 30
0
 11
509.1163352205
 21
747.6317516583
 31
0
  0
LINE
  8
0
 62
7
 10
509.1163352205
 20
747.6317516583
 30
0
 11
509.1163352205
 21
746.4027970153001
 31
0
  0
LINE
  8
0
 62
7
 10
509.1163352205
 20
746.4027970153001
 30
0
 11
503.8914069607
 21
746.4027970153001
 31
0
  0
LINE
  8
0
 62
7
 10
504.5449867918
 20
744.8610148448
 30
0
 11
509.1163352205
 21
744.8610148448
 31
0
  0
LINE
  8
0
 62
7
 10
509.1163352205
 20
744.8610148448
 30
0
 11
509.1163352205
 21
743.6320564765
 31
0
  0
LINE
  8
0
 62
7
 10
509.1163352205
 20
743.6320564765
 30
0
 11
502.2323116733
 21
743.6320564765
 31
0
  0
LINE
  8
0
 62
7
 10
502.2323116733
 20
743.6320564765
 30
0
 11
502.2323116733
 21
744.8610148448
 31
0
  0
LINE
  8
0
 62
7
 10
502.2323116733
 20
744.8610148448
 30
0
 11
503.0869975759
 21
744.8610148448
 31
0
  0
LINE
  8
0
 62
7
 10
503.4892097189
 20
750.4602155703
 30
0
 11
509.1163352205
 21
750.4602155703
 31
0
  0
LINE
  8
0
 62
7
 10
482.220603533
 20
752.4756460506
 30
0
 11
482.220603533
 21
698.4756446498
 31
0
  0
LINE
  8
0
 62
7
 10
494.2206129505
 20
752.4756460506
 30
0
 11
482.220603533
 21
752.4756460506
 31
0
  0
LINE
  8
0
 62
7
 10
482.220603533
 20
698.4756446498
 30
0
 11
494.2206129505
 21
698.4756446498
 31
0
  0
LINE
  8
0
 62
7
 10
494.2206129505
 20
698.4756446498
 30
0
 11
494.2206129505
 21
752.4756460506
 31
0
  0
LINE
  8
0
 62
7
 10
509.1163352205
 20
741.4602159577
 30
0
 11
509.1163352205
 21
740.2312594521
 31
0
  0
LINE
  8
0
 62
7
 10
509.1163352205
 20
740.2312594521
 30
0
 11
503.9416834785
 21
740.2312594521
 31
0
  0
LINE
  8
0
 62
7
 10
504.5449867918
 20
738.6317539084
 30
0
 11
509.1163352205
 21
738.6317539084
 31
0
  0
LINE
  8
0
 62
7
 10
509.1163352205
 20
738.6317539084
 30
0
 11
509.1163352205
 21
737.4027974027
 31
0
  0
LINE
  8
0
 62
7
 10
509.1163352205
 20
737.4027974027
 30
0
 11
503.8914069607
 21
737.4027974027
 31
0
  0
LINE
  8
0
 62
7
 10
504.5449867918
 20
735.8610152322
 30
0
 11
509.1163352205
 21
735.8610152322
 31
0
  0
LINE
  8
0
 62
7
 10
509.1163352205
 20
735.8610152322
 30
0
 11
509.1163352205
 21
734.6320568639
 31
0
  0
LINE
  8
0
 62
7
 10
509.1163352205
 20
734.6320568639
 30
0
 11
502.2323116733
 21
734.6320568639
 31
0
  0
LINE
  8
0
 62
7
 10
502.2323116733
 20
734.6320568639
 30
0
 11
502.2323116733
 21
735.8610152322
 31
0
  0
LINE
  8
0
 62
7
 10
502.2323116733
 20
735.8610152322
 30
0
 11
503.0869975759
 21
735.8610152322
 31
0
  0
LINE
  8
0
 62
7
 10
503.4892097189
 20
741.4602159577
 30
0
 11
509.1163352205
 21
741.4602159577
 31
0
  0
LINE
  8
0
 62
7
 10
464.2206117584
 20
734.1358984875
 30
0
 11
456.7206040098
 21
738.4660250562
 31
0
  0
LINE
  8
0
 62
7
 10
471.7206046059
 20
738.4660250562
 30
0
 11
464.2206117584
 21
734.1358984875
 31
0
  0
LINE
  8
0
 62
7
 10
471.7206046059
 20
729.8057719189
 30
0
 11
471.7206046059
 21
738.4660250562
 31
0
  0
LINE
  8
0
 62
7
 10
479.2206123545
 20
725.4756453502
 30
0
 11
471.7206046059
 21
729.8057719189
 31
0
  0
LINE
  8
0
 62
7
 10
471.7206046059
 20
721.1455178502
 30
0
 11
479.2206123545
 21
725.4756453502
 31
0
  0
LINE
  8
0
 62
7
 10
471.7206046059
 20
712.4852647128
 30
0
 11
471.7206046059
 21
721.1455178502
 31
0
  0
LINE
  8
0
 62
7
 10
464.2206117584
 20
716.8153912815
 30
0
 11
471.7206046059
 21
712.4852647128
 31
0
  0
LINE
  8
0
 62
7
 10
456.7206040098
 20
712.4852647128
 30
0
 11
464.2206117584
 21
716.8153912815
 31
0
  0
LINE
  8
0
 62
7
 10
456.7206040098
 20
721.1455178502
 30
0
 11
456.7206040098
 21
712.4852647128
 31
0
  0
LINE
  8
0
 62
7
 10
449.2206111624
 20
725.4756453502
 30
0
 11
456.7206040098
 21
721.1455178502
 31
0
  0
LINE
  8
0
 62
7
 10
456.7206040098
 20
729.8057719189
 30
0
 11
449.2206111624
 21
725.4756453502
 31
0
  0
LINE
  8
0
 62
7
 10
456.7206040098
 20
738.4660250562
 30
0
 11
456.7206040098
 21
729.8057719189
 31
0
  0
LINE
  8
0
 62
7
 10
458.7206080629
 20
728.6510716247
 30
0
 11
453.2206043674
 21
725.4756453502
 31
0
  0
LINE
  8
0
 62
7
 10
453.2206043674
 20
725.4756453502
 30
0
 11
458.7206080629
 21
722.3002190757001
 31
0
  0
LINE
  8
0
 62
7
 10
458.7206080629
 20
722.3002190757001
 30
0
 11
458.7206080629
 21
715.9493655953
 31
0
  0
LINE
  8
0
 62
7
 10
458.7206080629
 20
715.9493655953
 30
0
 11
464.2206117584
 21
719.1247918698
 31
0
  0
LINE
  8
0
 62
7
 10
464.2206117584
 20
719.1247918698
 30
0
 11
469.7206154539
 21
715.9493655953
 31
0
  0
LINE
  8
0
 62
7
 10
469.7206154539
 20
715.9493655953
 30
0
 11
469.7206154539
 21
722.3002190757001
 31
0
  0
LINE
  8
0
 62
7
 10
469.7206154539
 20
722.3002190757001
 30
0
 11
475.2206042482
 21
725.4756453502
 31
0
  0
LINE
  8
0
 62
7
 10
475.2206042482
 20
725.4756453502
 30
0
 11
469.7206154539
 21
728.6510716247
 31
0
  0
LINE
  8
0
 62
7
 10
469.7206154539
 20
728.6510716247
 30
0
 11
469.7206154539
 21
735.0019241738
 31
0
  0
LINE
  8
0
 62
7
 10
469.7206154539
 20
735.0019241738
 30
0
 11
464.2206117584
 21
731.8264978993
 31
0
  0
LINE
  8
0
 62
7
 10
464.2206117584
 20
731.8264978993
 30
0
 11
458.7206080629
 21
735.0019241738
 31
0
  0
LINE
  8
0
 62
7
 10
458.7206080629
 20
735.0019241738
 30
0
 11
458.7206080629
 21
728.6510716247
 31
0
  0
LINE
  8
0
 62
7
 10
436.2206146194
 20
707.4756460086001
 30
0
 11
446.2206050827
 21
707.4756460086001
 31
0
  0
LINE
  8
0
 62
7
 10
446.2206050827
 20
707.4756460086001
 30
0
 11
446.2206050827
 21
743.4756427127001
 31
0
  0
LINE
  8
0
 62
7
 10
436.2206146194
 20
743.4756427127001
 30
0
 11
436.2206146194
 21
707.4756460086001
 31
0
  0
LINE
  8
0
 62
7
 10
446.2206050827
 20
743.4756427127001
 30
0
 11
436.2206146194
 21
743.4756427127001
 31
0
  0
LINE
  8
0
 62
7
 10
497.220604129
 20
730.4756443071
 30
0
 11
497.220604129
 21
700.4756449777
 31
0
  0
LINE
  8
0
 62
7
 10
509.2206135466
 20
730.4756443071
 30
0
 11
497.220604129
 21
730.4756443071
 31
0
  0
LINE
  8
0
 62
7
 10
509.2206135466
 20
700.4756449777
 30
0
 11
509.2206135466
 21
730.4756443071
 31
0
  0
LINE
  8
0
 62
7
 10
497.220604129
 20
700.4756449777
 30
0
 11
509.2206135466
 21
700.4756449777
 31
0
  0
LINE
  8
0
 62
7
 10
469.7206154539
 20
724.3756453562
 30
0
 11
469.7206154539
 21
726.5756453442
 31
0
  0
LINE
  8
0
 62
7
 10
465.3206154777
 20
724.3756453562
 30
0
 11
469.7206154539
 21
724.3756453562
 31
0
  0
LINE
  8
0
 62
7
 10
465.3206154777
 20
719.97564538
 30
0
 11
465.3206154777
 21
724.3756453562
 31
0
  0
LINE
  8
0
 62
7
 10
463.1206080391
 20
719.97564538
 30
0
 11
465.3206154777
 21
719.97564538
 31
0
  0
LINE
  8
0
 62
7
 10
463.1206080391
 20
719.97564538
 30
0
 11
463.1206080391
 21
724.3756453562
 31
0
  0
LINE
  8
0
 62
7
 10
458.7206080629
 20
724.3756453562
 30
0
 11
463.1206080391
 21
724.3756453562
 31
0
  0
LINE
  8
0
 62
7
 10
458.7206080629
 20
724.3756453562
 30
0
 11
458.7206080629
 21
726.5756453442
 31
0
  0
LINE
  8
0
 62
7
 10
458.7206080629
 20
726.5756453442
 30
0
 11
463.1206080391
 21
726.5756453442
 31
0
  0
LINE
  8
0
 62
7
 10
465.3206154777
 20
726.5756453442
 30
0
 11
469.7206154539
 21
726.5756453442
 31
0
  0
LINE
  8
0
 62
7
 10
465.3206154777
 20
726.5756453442
 30
0
 11
465.3206154777
 21
730.9756453204
 31
0
  0
LINE
  8
0
 62
7
 10
463.1206080391
 20
730.9756453204
 30
0
 11
465.3206154777
 21
730.9756453204
 31
0
  0
LINE
  8
0
 62
7
 10
463.1206080391
 20
726.5756453442
 30
0
 11
463.1206080391
 21
730.9756453204
 31
0
  0
LINE
  8
0
 62
7
 10
527.6462420895
 20
735.4756451267
 30
0
 11
525.8955642654
 21
735.4756451267
 31
0
  0
LINE
  8
0
 62
7
 10
525.8955642654
 20
715.4756455737
 30
0
 11
527.6462420895
 21
715.4756455737
 31
0
  0
LINE
  8
0
 62
7
 10
411.7206149839
 20
739.6756454425999
 30
0
 11
417.490732025
 21
739.6756454425999
 31
0
  0
LINE
  8
0
 62
7
 10
409.7206130697
 20
713.2756455821
 30
0
 11
409.7206130697
 21
737.6756435284
 31
0
  0
LINE
  8
0
 62
7
 10
417.4907299078
 20
711.2756452578
 30
0
 11
411.720613394
 21
711.2756452578
 31
0
  0
LINE
  8
0
 62
7
 10
363.220611967
 20
754.7544769066
 30
0
 11
358.4247775449
 21
768.1985876578
 31
0
  0
LINE
  8
0
 62
7
 10
363.220611967
 20
690.9795726704
 30
0
 11
363.220611967
 21
759.9717161673
 31
0
  0
LINE
  8
0
 62
7
 10
358.4247775449
 20
682.75270118
 30
0
 11
358.4247775449
 21
768.1985876578
 31
0
  0
LINE
  8
0
 62
7
 10
323.0164464636
 20
682.75270118
 30
0
 11
358.4247775449
 21
682.75270118
 31
0
  0
LINE
  8
0
 62
7
 10
323.0164464636
 20
682.75270118
 30
0
 11
323.0164464636
 21
768.1985876578
 31
0
  0
LINE
  8
0
 62
7
 10
358.4247775449
 20
768.1985876578
 30
0
 11
323.0164464636
 21
768.1985876578
 31
0
  0
LINE
  8
0
 62
7
 10
318.2206120415
 20
690.9795726704
 30
0
 11
318.2206120415
 21
696.1968137938
 31
0
  0
LINE
  8
0
 62
7
 10
361.2668238654
 20
770.6211215871
 30
0
 11
354.7437138929
 21
787.8003499526
 31
0
  0
LINE
  8
0
 62
7
 10
326.6975101157
 20
787.8003499526
 30
0
 11
320.1743926926
 21
770.6211215871
 31
0
  0
LINE
  8
0
 62
7
 10
354.7437138929
 20
663.1509407478
 30
0
 11
361.2668238654
 21
680.3301672506
 31
0
  0
LINE
  8
0
 62
7
 10
320.1743926926
 20
680.3301672506
 30
0
 11
326.6975101157
 21
663.1509407478
 31
0
  0
LINE
  8
0
 62
7
 10
44.2206099703
 20
632.4756450075
 30
0
 11
44.2206099703
 21
818.4756494182
 31
0
  0
LINE
  8
0
 62
7
 10
29.2206242754
 20
632.4756450075
 30
0
 11
29.2206242754
 21
818.4756494182
 31
0
  0
LINE
  8
0
 62
7
 10
27.2206202223
 20
675.4756427425
 30
0
 11
27.2206202223
 21
775.4756442326
 31
0
  0
LINE
  8
0
 62
7
 10
531.9706037714
 20
720.5322149265001
 30
0
 11
531.9706037714
 21
730.4190757739
 31
0
  0
LINE
  8
0
 62
7
 10
530.4706081821
 20
730.4190757739
 30
0
 11
530.4706081821
 21
720.5322149265001
 31
0
  0
LINE
  8
0
 62
7
 10
530.4706081821
 20
730.4190757739
 30
0
 11
530.0172254517
 21
730.328670429
 31
0
  0
LINE
  8
0
 62
7
 10
530.0172254517
 20
720.6226202714
 30
0
 11
530.4706081821
 21
720.5322149265001
 31
0
  0
LINE
  8
0
 62
7
 10
525.7990792467
 20
735.4779734331
 30
0
 11
525.7667586281
 21
735.6274860966
 31
0
  0
LINE
  8
0
 62
7
 10
525.7667586281
 20
715.3238046038
 30
0
 11
525.7990792467
 21
715.473316336
 31
0
  0
LINE
  8
0
 62
7
 10
531.2206134273
 20
730.7256448138001
 30
0
 11
529.9954995586001
 21
730.5807030815
 31
0
  0
LINE
  8
0
 62
7
 10
412.7603009416
 20
739.6756454425999
 30
0
 11
412.7603009416
 21
743.0389939862
 31
0
  0
LINE
  8
0
 62
7
 10
411.8947595431
 20
739.6756454425999
 30
0
 11
412.7603009416
 21
743.0389939862
 31
0
  0
LINE
  8
0
 62
7
 10
412.7603009416
 20
707.9122947351
 30
0
 11
412.7603009416
 21
711.2756452578
 31
0
  0
LINE
  8
0
 62
7
 10
412.7603009416
 20
707.9122947351
 30
0
 11
411.8935972525
 21
711.2756452578
 31
0
  0
LINE
  8
0
 62
7
 10
493.1942356364501
 20
789.04961837135
 30
0
 11
499.720616646
 21
795.5759993809
 31
0
  0
LINE
  8
0
 62
7
 10
444.7206094934
 20
795.5759993809
 30
0
 11
451.2470049436041
 21
789.0496039307959
 31
0
  0
LINE
  8
0
 62
7
 10
412.4962476445
 20
750.4756457227001
 30
0
 11
401.789261408
 21
750.4756457227001
 31
0
  0
LINE
  8
0
 62
7
 10
542.3209652378
 20
752.9756433385001
 30
0
 11
535.79455323375
 21
746.4492313344499
 31
0
  0
LINE
  8
0
 62
7
 10
535.7945534320501
 20
704.50205730495
 30
0
 11
542.3209652378
 21
697.9756454992
 31
0
  0
LINE
  8
0
 62
7
 10
401.789261408
 20
700.4756449777
 30
0
 11
412.4962449147
 21
700.4756449777
 31
0
  0
LINE
  8
0
 62
7
 10
499.720616646
 20
655.3752913195
 30
0
 11
493.1942356364499
 21
661.90167232905
 31
0
  0
LINE
  8
0
 62
7
 10
448.970614381
 20
659.6252887565
 30
0
 11
444.7206094934
 21
655.3752913195
 31
0
  0
LINE
  8
0
 62
7
 10
444.7206094934
 20
655.3752913195
 30
0
 11
448.970614381
 21
654.8316448051
 31
0
  0
LINE
  8
0
 62
7
 10
585.2206185533
 20
818.4756494182
 30
0
 11
585.2206185533
 21
632.4756450075
 31
0
  0
LINE
  8
0
 62
7
 10
570.2206030561
 20
720.475645462
 30
0
 11
544.1580995991
 21
720.475645462
 31
0
  0
LINE
  8
0
 62
7
 10
570.2206030561
 20
730.4756443071
 30
0
 11
544.1580995991
 21
730.4756443071
 31
0
  0
LINE
  8
0
 62
7
 10
587.2206226065
 20
675.4756427425
 30
0
 11
587.2206226065
 21
775.4756442326
 31
0
  0
LINE
  8
0
 62
7
 10
400.2264052703
 20
723.9756451043
 30
0
 11
381.8919718339
 21
723.9756451043
 31
0
  0
LINE
  8
0
 62
7
 10
381.8919718339
 20
723.9756451043
 30
0
 11
381.8919718339
 21
726.9756446647
 31
0
  0
LINE
  8
0
 62
7
 10
400.2264052703
 20
726.9756446647
 30
0
 11
381.8919718339
 21
726.9756446647
 31
0
  0
LINE
  8
0
 62
7
 10
365.2206085696
 20
693.4756438303
 30
0
 11
365.2206085696
 21
757.4756450075
 31
0
  0
LINE
  8
0
 62
7
 10
819.4659416113
 20
546.7185313490001
 30
0
 11
819.4659416113
 21
565.2185189042
 31
0
  0
LINE
  8
0
 62
7
 10
713.465942863
 20
565.2185189042
 30
0
 11
713.465942863
 21
546.7185313490001
 31
0
  0
LINE
  8
0
 62
7
 10
674.757866982
 20
547.2185323623
 30
0
 11
713.465942863
 21
547.2185323623
 31
0
  0
LINE
  8
0
 62
7
 10
713.465942863
 20
552.2185275939
 30
0
 11
675.488992456
 21
552.2185275939
 31
0
  0
LINE
  8
0
 62
7
 10
758.4659437198
 20
545.7185293224
 30
0
 11
758.4659437198
 21
538.7185300377
 31
0
  0
LINE
  8
0
 62
7
 10
774.4659435485
 20
538.7185300377
 30
0
 11
774.4659435485
 21
545.7185293224
 31
0
  0
LINE
  8
0
 62
7
 10
830.9820358191
 20
535.7185314086
 30
0
 11
830.9820358191
 21
538.7185300377
 31
0
  0
LINE
  8
0
 62
7
 10
701.9498523806
 20
538.7185300377
 30
0
 11
701.9498523806
 21
535.7185314086
 31
0
  0
LINE
  8
0
 62
7
 10
838.465942863
 20
509.2185298589
 30
0
 11
838.465942863
 21
532.2185317662
 31
0
  0
LINE
  8
0
 62
7
 10
694.4659453366
 20
532.2185317662
 30
0
 11
694.4659453366
 21
509.2185298589
 31
0
  0
LINE
  8
0
 62
7
 10
754.9023077373
 20
565.2185241368001
 30
0
 11
778.0295804624
 21
565.2185241368001
 31
0
  0
LINE
  8
0
 62
7
 10
754.9023077373
 20
563.2185349849
 30
0
 11
778.0295804624
 21
563.2185349849
 31
0
  0
LINE
  8
0
 62
7
 10
776.4659438763
 20
565.2185241368001
 30
0
 11
776.4659438763
 21
563.2185349849
 31
0
  0
LINE
  8
0
 62
7
 10
756.4659443233001
 20
563.2185349849
 30
0
 11
756.4659443233001
 21
565.2185241368001
 31
0
  0
LINE
  8
0
 62
7
 10
720.4659622816
 20
572.2185383227001
 30
0
 11
812.4659221928
 21
572.2185383227001
 31
0
  0
LINE
  8
0
 62
7
 10
741.4659437273
 20
573.2185254481
 30
0
 11
741.4659437273
 21
572.2185383227001
 31
0
  0
LINE
  8
0
 62
7
 10
771.4659430567
 20
573.2185254481
 30
0
 11
771.4659430567
 21
572.2185383227001
 31
0
  0
LINE
  8
0
 62
7
 10
739.4659433995
 20
573.2185254481
 30
0
 11
793.4659448002
 21
573.2185254481
 31
0
  0
LINE
  8
0
 62
7
 10
790.2215596769
 20
573.2185254481
 30
0
 11
790.2215596769
 21
572.2185383227001
 31
0
  0
LINE
  8
0
 62
7
 10
791.4505143199
 20
573.2185254481
 30
0
 11
791.4505143199
 21
572.2185383227001
 31
0
  0
LINE
  8
0
 62
7
 10
787.3930957649
 20
573.2185254481
 30
0
 11
787.3930957649
 21
572.2185383227001
 31
0
  0
LINE
  8
0
 62
7
 10
788.6220504079
 20
573.2185254481
 30
0
 11
788.6220504079
 21
572.2185383227001
 31
0
  0
LINE
  8
0
 62
7
 10
784.6223552261
 20
573.2185254481
 30
0
 11
784.6223552261
 21
572.2185383227001
 31
0
  0
LINE
  8
0
 62
7
 10
785.8513135944
 20
573.2185254481
 30
0
 11
785.8513135944
 21
572.2185383227001
 31
0
  0
LINE
  8
0
 62
7
 10
781.2215582017
 20
573.2185254481
 30
0
 11
781.2215582017
 21
572.2185383227001
 31
0
  0
LINE
  8
0
 62
7
 10
782.4505147074
 20
573.2185254481
 30
0
 11
782.4505147074
 21
572.2185383227001
 31
0
  0
LINE
  8
0
 62
7
 10
778.3930961523
 20
573.2185254481
 30
0
 11
778.3930961523
 21
572.2185383227001
 31
0
  0
LINE
  8
0
 62
7
 10
779.622052658
 20
573.2185254481
 30
0
 11
779.622052658
 21
572.2185383227001
 31
0
  0
LINE
  8
0
 62
7
 10
775.6223556135
 20
573.2185254481
 30
0
 11
775.6223556135
 21
572.2185383227001
 31
0
  0
LINE
  8
0
 62
7
 10
776.8513139818
 20
573.2185254481
 30
0
 11
776.8513139818
 21
572.2185383227001
 31
0
  0
LINE
  8
0
 62
7
 10
789.0261177454
 20
573.2185254481
 30
0
 11
789.0261177454
 21
572.2185383227001
 31
0
  0
LINE
  8
0
 62
7
 10
786.2553772066
 20
573.2185254481
 30
0
 11
786.2553772066
 21
572.2185383227001
 31
0
  0
LINE
  8
0
 62
7
 10
780.0261181329
 20
573.2185254481
 30
0
 11
780.0261181329
 21
572.2185383227001
 31
0
  0
LINE
  8
0
 62
7
 10
777.2553794567
 20
573.2185254481
 30
0
 11
777.2553794567
 21
572.2185383227001
 31
0
  0
LINE
  8
0
 62
7
 10
790.0651459132
 20
573.2185254481
 30
0
 11
790.0651459132
 21
572.2185383227001
 31
0
  0
LINE
  8
0
 62
7
 10
781.0651463006
 20
573.2185254481
 30
0
 11
781.0651463006
 21
572.2185383227001
 31
0
  0
LINE
  8
0
 62
7
 10
787.2944053743
 20
573.2185254481
 30
0
 11
787.2944053743
 21
572.2185383227001
 31
0
  0
LINE
  8
0
 62
7
 10
778.2944057618
 20
573.2185254481
 30
0
 11
778.2944057618
 21
572.2185383227001
 31
0
  0
LINE
  8
0
 62
7
 10
789.6033552025
 20
573.2185254481
 30
0
 11
789.6033552025
 21
572.2185383227001
 31
0
  0
LINE
  8
0
 62
7
 10
786.8903417621
 20
573.2185254481
 30
0
 11
786.8903417621
 21
572.2185383227001
 31
0
  0
LINE
  8
0
 62
7
 10
780.6033555899001
 20
573.2185254481
 30
0
 11
780.6033555899001
 21
572.2185383227001
 31
0
  0
LINE
  8
0
 62
7
 10
777.8903402869
 20
573.2185254481
 30
0
 11
777.8903402869
 21
572.2185383227001
 31
0
  0
LINE
  8
0
 62
7
 10
739.4659433995
 20
573.2185254481
 30
0
 11
739.4659433995
 21
572.2185383227001
 31
0
  0
LINE
  8
0
 62
7
 10
793.4659448002
 20
573.2185254481
 30
0
 11
793.4659448002
 21
572.2185383227001
 31
0
  0
LINE
  8
0
 62
7
 10
828.2918472324
 20
505.6919614461
 30
0
 11
828.2918472324
 21
509.2185298589
 31
0
  0
LINE
  8
0
 62
7
 10
704.6400409673
 20
505.6919614461
 30
0
 11
704.6400409673
 21
509.2185298589
 31
0
  0
LINE
  8
0
 62
7
 10
818.7918428812
 20
545.8700219777001
 30
0
 11
818.7918428812
 21
538.7185300377
 31
0
  0
LINE
  8
0
 62
7
 10
828.2918472324
 20
546.7185313490001
 30
0
 11
828.2918472324
 21
538.7185300377
 31
0
  0
LINE
  8
0
 62
7
 10
828.2918472324
 20
546.7185313490001
 30
0
 11
809.2918422554
 21
546.7185313490001
 31
0
  0
LINE
  8
0
 62
7
 10
809.2918422554
 20
546.7185313490001
 30
0
 11
809.2918422554
 21
538.7185300377
 31
0
  0
LINE
  8
0
 62
7
 10
714.1400415931
 20
545.8700219777001
 30
0
 11
714.1400415931
 21
538.7185300377
 31
0
  0
LINE
  8
0
 62
7
 10
723.6400440816
 20
546.7185313490001
 30
0
 11
723.6400440816
 21
538.7185300377
 31
0
  0
LINE
  8
0
 62
7
 10
723.6400440816
 20
546.7185313490001
 30
0
 11
704.6400409673
 21
546.7185313490001
 31
0
  0
LINE
  8
0
 62
7
 10
704.6400409673
 20
546.7185313490001
 30
0
 11
704.6400409673
 21
538.7185300377
 31
0
  0
LINE
  8
0
 62
7
 10
710.5977561806
 20
535.7185314086
 30
0
 11
754.4943158064
 21
535.7185314086
 31
0
  0
LINE
  8
0
 62
7
 10
738.9659442488
 20
532.2185317662
 30
0
 11
738.9659442488
 21
535.7185314086
 31
0
  0
LINE
  8
0
 62
7
 10
738.9659442488
 20
532.2185317662
 30
0
 11
793.9659420882
 21
532.2185317662
 31
0
  0
LINE
  8
0
 62
7
 10
793.9659420882
 20
532.2185317662
 30
0
 11
793.9659420882
 21
535.7185314086
 31
0
  0
LINE
  8
0
 62
7
 10
778.4375723932
 20
535.7185314086
 30
0
 11
822.3341320191
 21
535.7185314086
 31
0
  0
LINE
  8
0
 62
7
 10
694.4659453366
 20
524.2185304549
 30
0
 11
736.3827255104
 21
524.2185304549
 31
0
  0
LINE
  8
0
 62
7
 10
796.5491626893
 20
524.2185304549
 30
0
 11
838.465942863
 21
524.2185304549
 31
0
  0
LINE
  8
0
 62
7
 10
774.0540512387
 20
538.7185300377
 30
0
 11
774.0540512387
 21
532.2185317662
 31
0
  0
LINE
  8
0
 62
7
 10
758.877836961
 20
532.2185317662
 30
0
 11
758.877836961
 21
538.7185300377
 31
0
  0
LINE
  8
0
 62
7
 10
723.6400440816
 20
545.7185293224
 30
0
 11
809.2918422554
 21
545.7185293224
 31
0
  0
LINE
  8
0
 62
7
 10
774.0540512387
 20
538.7185300377
 30
0
 11
830.9820358191
 21
538.7185300377
 31
0
  0
LINE
  8
0
 62
7
 10
701.9498523806
 20
538.7185300377
 30
0
 11
758.877836961
 21
538.7185300377
 31
0
  0
LINE
  8
0
 62
7
 10
830.5043418441001
 20
535.7185314086
 30
0
 11
836.5662981306
 21
535.7185314086
 31
0
  0
LINE
  8
0
 62
7
 10
836.5662981306
 20
532.2185317662
 30
0
 11
836.5662981306
 21
535.7185314086
 31
0
  0
LINE
  8
0
 62
7
 10
836.5662981306
 20
532.2185317662
 30
0
 11
838.465942863
 21
532.2185317662
 31
0
  0
LINE
  8
0
 62
7
 10
694.4659453366
 20
532.2185317662
 30
0
 11
696.3655900691
 21
532.2185317662
 31
0
  0
LINE
  8
0
 62
7
 10
696.3655900691
 20
532.2185317662
 30
0
 11
696.3655900691
 21
535.7185314086
 31
0
  0
LINE
  8
0
 62
7
 10
696.3655900691
 20
535.7185314086
 30
0
 11
702.4275463555
 21
535.7185314086
 31
0
  0
LINE
  8
0
 62
7
 10
719.0423205975216
 20
356.2185327199
 30
0
 11
813.8895694646784
 21
356.2185327199
 31
0
  0
LINE
  8
0
 62
7
 10
838.465942863
 20
509.2185298589
 30
0
 11
824.0853835378
 21
509.2185298589
 31
0
  0
LINE
  8
0
 62
7
 10
694.4659453366
 20
509.2185298589
 30
0
 11
708.8465009366
 21
509.2185298589
 31
0
  0
LINE
  8
0
 62
7
 10
766.1452301327
 20
411.2501191583
 30
0
 11
766.4659440998
 21
411.2185324219
 31
0
  0
LINE
  8
0
 62
7
 10
774.7516584132
 20
563.2185349849
 30
0
 11
774.7516584132
 21
565.2185241368001
 31
0
  0
LINE
  8
0
 62
7
 10
758.1802297864
 20
565.2185241368001
 30
0
 11
758.1802297864
 21
563.2185349849
 31
0
  0
LINE
  8
0
 62
7
 10
778.0295804624
 20
565.2185241368001
 30
0
 11
778.0295804624
 21
563.2185349849
 31
0
  0
LINE
  8
0
 62
7
 10
754.9023077373
 20
563.2185349849
 30
0
 11
754.9023077373
 21
565.2185241368001
 31
0
  0
LINE
  8
0
 62
7
 10
822.3341320191
 20
524.2185304549
 30
0
 11
822.3341320191
 21
535.7185314086
 31
0
  0
LINE
  8
0
 62
7
 10
710.5977561806
 20
535.7185314086
 30
0
 11
710.5977561806
 21
524.2185304549
 31
0
  0
LINE
  8
0
 62
7
 10
787.4395464096
 20
532.2185317662
 30
0
 11
787.4395464096
 21
535.7185314086
 31
0
  0
LINE
  8
0
 62
7
 10
745.4923399274001
 20
532.2185317662
 30
0
 11
745.4923399274001
 21
535.7185314086
 31
0
  0
LINE
  8
0
 62
7
 10
808.6469535265001
 20
538.7185300377
 30
0
 11
808.6469535265001
 21
535.7185314086
 31
0
  0
LINE
  8
0
 62
7
 10
830.5043418441001
 20
535.7185314086
 30
0
 11
830.5043418441001
 21
524.2185304549
 31
0
  0
LINE
  8
0
 62
7
 10
702.4275463555
 20
524.2185304549
 30
0
 11
702.4275463555
 21
535.7185314086
 31
0
  0
LINE
  8
0
 62
7
 10
724.2849328105
 20
538.7185300377
 30
0
 11
724.2849328105
 21
535.7185314086
 31
0
  0
LINE
  8
0
 62
7
 10
778.4375723932
 20
532.2185317662
 30
0
 11
778.4375723932
 21
535.7185314086
 31
0
  0
LINE
  8
0
 62
7
 10
754.4943158064
 20
532.2185317662
 30
0
 11
754.4943158064
 21
535.7185314086
 31
0
  0
LINE
  8
0
 62
7
 10
795.3721050654
 20
538.7185300377
 30
0
 11
795.3721050654
 21
535.7185314086
 31
0
  0
LINE
  8
0
 62
7
 10
737.5597831343
 20
538.7185300377
 30
0
 11
737.5597831343
 21
535.7185314086
 31
0
  0
LINE
  8
0
 62
7
 10
776.6177848462
 20
545.7185293224
 30
0
 11
776.6177848462
 21
538.7185300377
 31
0
  0
LINE
  8
0
 62
7
 10
756.3141033534
 20
538.7185300377
 30
0
 11
756.3141033534
 21
545.7185293224
 31
0
  0
LINE
  8
0
 62
7
 10
710.6943231557
 20
510.6398100641
 30
0
 11
710.6943231557
 21
524.2185304549
 31
0
  0
LINE
  8
0
 62
7
 10
822.237565044
 20
510.6398100641
 30
0
 11
822.237565044
 21
524.2185304549
 31
0
  0
LINE
  8
0
 62
7
 10
830.2865017686
 20
509.2185298589
 30
0
 11
830.2865017686
 21
524.2185304549
 31
0
  0
LINE
  8
0
 62
7
 10
702.645386431
 20
509.2185298589
 30
0
 11
702.645386431
 21
524.2185304549
 31
0
  0
LINE
  8
0
 62
2
 10
656.0868913987
 20
691.0237662636
 30
0
 11
866.3068838288999
 21
691.0237662636
 31
0
  0
LINE
  8
0
 62
2
 10
656.0868913987
 20
701.0237666436001
 30
0
 11
866.3068838288999
 21
701.0237666436001
 31
0
  0
LINE
  8
0
 62
2
 10
796.2335530189001
 20
711.0237670235999
 30
0
 11
866.3068838288999
 21
711.0237670235999
 31
0
  0
LINE
  8
0
 62
2
 10
831.2702184239
 20
711.0237670235999
 30
0
 11
831.2702184239
 21
681.0237658835999
 31
0
  0
LINE
  8
0
 62
2
 10
796.2335530189001
 20
721.0237674036
 30
0
 11
796.2335530189001
 21
681.0237658835999
 31
0
  0
LINE
  8
0
 62
2
 10
761.1968876139
 20
721.0237674036
 30
0
 11
761.1968876139
 21
681.0237658835999
 31
0
  0
LINE
  8
0
 62
2
 10
726.1602222087
 20
721.0237674036
 30
0
 11
726.1602222087
 21
681.0237658835999
 31
0
  0
LINE
  8
0
 62
2
 10
691.1235568036999
 20
721.0237674036
 30
0
 11
691.1235568036999
 21
681.0237658835999
 31
0
  0
LINE
  8
0
 62
2
 10
866.3068838288999
 20
721.0237674036
 30
0
 11
656.0868913987
 21
721.0237674036
 31
0
  0
LINE
  8
0
 62
2
 10
866.3068838288999
 20
681.0237658835999
 30
0
 11
866.3068838288999
 21
721.0237674036
 31
0
  0
LINE
  8
0
 62
2
 10
656.0868913987
 20
681.0237658835999
 30
0
 11
866.3068838288999
 21
681.0237658835999
 31
0
  0
LINE
  8
0
 62
2
 10
656.0868913987
 20
721.0237674036
 30
0
 11
656.0868913987
 21
681.0237658835999
 31
0
  0
LINE
  8
0
 62
2
 10
477.6561660277922
 20
402.9055770577177
 30
0
 11
477.5364383988
 21
404.9726648549
 31
0
  0
LINE
  8
0
 62
2
 10
477.5364383988
 20
404.9726648549
 30
0
 11
478.6736688443194
 21
403.2423777168251
 31
0
  0
LINE
  8
1
 62
2
  6
DASHDOT
 10
663.220210794
 20
436.218532231
 30
0
 11
870.9890310202001
 21
436.218532231
 31
0
  0
LINE
  8
1
 62
2
  6
DASHDOT
 10
766.4659440998
 20
582.0439309811
 30
0
 11
766.4659440998
 21
340.7185311106
 31
0
  0
LINE
  8
1
 62
2
  6
DASHDOT
 10
472.2206130697
 20
808.3435527104
 30
0
 11
472.2206130697
 21
639.9923942107
 31
0
  0
LINE
  8
1
 62
2
  6
DASHDOT
 10
600.0202060411
 20
725.4756453502
 30
0
 11
228.5289408561899
 21
725.4756453502
 31
0
  0
LINE
  8
1
 62
2
  6
DASHDOT
 10
472.2206130697
 20
582.0439309811
 30
0
 11
472.2206130697
 21
340.7185311106
 31
0
  0
LINE
  8
1
 62
2
  6
DASHDOT
 10
596.0202060411
 20
436.218532231
 30
0
 11
16.13412649170004
 21
436.218532231
 31
0
  0
LINE
  8
1
 62
7
 10
526.7206109239005
 20
396.6964906081577
 30
0
 11
526.4907666518
 21
396.8695462311
 31
0
  0
LINE
  8
1
 62
7
 10
480.2206113039
 20
485.2185309495
 30
0
 11
492.2206104769
 21
481.2185340191
 31
0
  0
LINE
  8
1
 62
7
 10
492.2206104769
 20
481.2185340191
 30
0
 11
480.2206113039
 21
477.2185333635
 31
0
  0
LINE
  8
1
 62
2
  6
DASHDOT
 10
707.0820238914093
 20
377.5175976337679
 30
0
 11
724.1504609118169
 21
394.3897160902415
 31
0
  0
LINE
  8
1
 62
2
  6
DASHDOT
 10
707.082026318862
 20
494.9194692407149
 30
0
 11
724.1504569536388
 21
478.0473443243147
 31
0
  0
LINE
  8
1
 62
2
  6
DASHDOT
 10
825.8499034818217
 20
494.9194271555762
 30
0
 11
808.7814664614141
 21
478.0473086991028
 31
0
  0
LINE
  8
1
 62
2
  6
DASHDOT
 10
825.8498614759411
 20
377.5175947685653
 30
0
 11
808.7814308411643
 21
394.3897196849655
 31
0
  0
LINE
  8
1
 62
7
 10
453.1296548469273
 20
561.9516544605001
 30
0
 11
457.2206112592
 21
545.7185306216001
 31
0
  0
LINE
  8
0
 62
7
 10
457.2206112592
 20
545.7185306216001
 30
0
 11
513.5768578424001
 21
545.7185306216001
 31
0
  0
LINE
  8
1
 62
2
  6
DASHDOT
 10
110.0734536403546
 20
725.4756453502
 30
0
 11
16.13412649169999
 21
725.4756453502
 31
0
  0
LINE
  8
1
 62
7
 10
318.2206120415
 20
754.7544769066
 30
0
 11
323.0164464636
 21
768.1985876578
 31
0
  0
LINE
  8
0
 62
7
 10
318.2206120415
 20
754.7544769066
 30
0
 11
318.2206120415
 21
759.9717161673
 31
0
  0
LINE
  8
1
 62
7
 10
318.2206120415
 20
696.1968137938
 30
0
 11
323.0164464636
 21
682.75270118
 31
0
  0
LINE
  8
0
 62
7
 10
318.2206120415
 20
696.1968137938
 30
0
 11
318.2206120415
 21
754.7544769066
 31
0
  0
LINE
  8
1
 62
7
 10
329.7509517594
 20
782.4756435174
 30
0
 11
335.2357860728
 21
772.9756466168
 31
0
  0
LINE
  8
1
 62
7
 10
335.2357860728
 20
772.9756466168
 30
0
 11
346.2054379358
 21
772.9756466168
 31
0
  0
LINE
  8
1
 62
7
 10
346.2054379358
 20
772.9756466168
 30
0
 11
351.6902647986
 21
782.4756435174
 31
0
  0
LINE
  8
1
 62
7
 10
351.6902647986
 20
782.4756435174
 30
0
 11
346.2054379358
 21
791.9756478685
 31
0
  0
LINE
  8
1
 62
7
 10
346.2054379358
 20
791.9756478685
 30
0
 11
335.2357860728
 21
791.9756478685
 31
0
  0
LINE
  8
1
 62
7
 10
335.2357860728
 20
791.9756478685
 30
0
 11
329.7509517594
 21
782.4756435174
 31
0
  0
LINE
  8
1
 62
7
 10
329.7509517594
 20
668.4756617897
 30
0
 11
335.2357860728
 21
658.9756648890999
 31
0
  0
LINE
  8
1
 62
7
 10
335.2357860728
 20
658.9756648890999
 30
0
 11
346.2054379358
 21
658.9756648890999
 31
0
  0
LINE
  8
1
 62
7
 10
346.2054379358
 20
658.9756648890999
 30
0
 11
351.6902647986
 21
668.4756617897
 31
0
  0
LINE
  8
1
 62
7
 10
351.6902647986
 20
668.4756617897
 30
0
 11
346.2054379358
 21
677.9756661407999
 31
0
  0
LINE
  8
1
 62
7
 10
346.2054379358
 20
677.9756661407999
 30
0
 11
335.2357860728
 21
677.9756661407999
 31
0
  0
LINE
  8
1
 62
7
 10
335.2357860728
 20
677.9756661407999
 30
0
 11
329.7509517594
 21
668.4756617897
 31
0
  0
LINE
  8
1
 62
7
 10
408.9250549747
 20
673.1497428435
 30
0
 11
414.4098818375
 21
663.6497422176
 31
0
  0
LINE
  8
1
 62
7
 10
414.4098818375
 20
663.6497422176
 30
0
 11
425.3795355632
 21
663.6497422176
 31
0
  0
LINE
  8
1
 62
7
 10
425.3795355632
 20
663.6497422176
 30
0
 11
430.864362426
 21
673.1497428435
 31
0
  0
LINE
  8
1
 62
7
 10
430.864362426
 20
673.1497428435
 30
0
 11
425.3795355632
 21
682.649745332
 31
0
  0
LINE
  8
1
 62
7
 10
425.3795355632
 20
682.649745332
 30
0
 11
414.4098818375
 21
682.649745332
 31
0
  0
LINE
  8
1
 62
7
 10
414.4098818375
 20
682.649745332
 30
0
 11
408.9250549747
 21
673.1497428435
 31
0
  0
LINE
  8
1
 62
7
 10
430.864362426
 20
777.8015478568925
 30
0
 11
425.3795355632
 21
787.3015503453925
 31
0
  0
LINE
  8
1
 62
7
 10
425.3795355632
 20
787.3015503453925
 30
0
 11
414.4098818375
 21
787.3015503453925
 31
0
  0
LINE
  8
1
 62
7
 10
408.9250549747
 20
777.8015478568925
 30
0
 11
414.4098818375
 21
768.3015472309925
 31
0
  0
LINE
  8
1
 62
7
 10
414.4098818375
 20
787.3015503453925
 30
0
 11
408.9250549747
 21
777.8015478568925
 31
0
  0
LINE
  8
1
 62
7
 10
414.4098818375
 20
768.3015472309925
 30
0
 11
425.3795355632
 21
768.3015472309925
 31
0
  0
LINE
  8
1
 62
7
 10
425.3795355632
 20
768.3015472309925
 30
0
 11
430.864362426
 21
777.8015478568925
 31
0
  0
LINE
  8
1
 62
7
 10
530.2214882895
 20
682.649745332
 30
0
 11
519.2518345638
 21
682.649745332
 31
0
  0
LINE
  8
1
 62
7
 10
519.2518345638
 20
682.649745332
 30
0
 11
513.767007701
 21
673.1497428435
 31
0
  0
LINE
  8
1
 62
7
 10
513.767007701
 20
673.1497428435
 30
0
 11
519.2518345638
 21
663.6497422176
 31
0
  0
LINE
  8
1
 62
7
 10
519.2518345638
 20
663.6497422176
 30
0
 11
530.2214882895
 21
663.6497422176
 31
0
  0
LINE
  8
1
 62
7
 10
530.2214882895
 20
663.6497422176
 30
0
 11
535.7063151523
 21
673.1497428435
 31
0
  0
LINE
  8
1
 62
7
 10
535.7063151523
 20
673.1497428435
 30
0
 11
530.2214882895
 21
682.649745332
 31
0
  0
LINE
  8
1
 62
7
 10
530.2214882895
 20
787.3015503453925
 30
0
 11
519.2518345638
 21
787.3015503453925
 31
0
  0
LINE
  8
1
 62
7
 10
519.2518345638
 20
787.3015503453925
 30
0
 11
513.767007701
 21
777.8015478568925
 31
0
  0
LINE
  8
1
 62
7
 10
513.767007701
 20
777.8015478568925
 30
0
 11
519.2518345638
 21
768.3015472309925
 31
0
  0
LINE
  8
1
 62
7
 10
519.2518345638
 20
768.3015472309925
 30
0
 11
530.2214882895
 21
768.3015472309925
 31
0
  0
LINE
  8
1
 62
7
 10
535.7063151523
 20
777.8015478568925
 30
0
 11
530.2214882895
 21
787.3015503453925
 31
0
  0
LINE
  8
1
 62
7
 10
530.2214882895
 20
768.3015472309925
 30
0
 11
535.7063151523
 21
777.8015478568925
 31
0
  0
LINE
  8
0
 62
7
 10
570.2206030561
 20
818.4756494182
 30
0
 11
570.2206030561
 21
632.4756450075
 31
0
  0
LINE
  8
1
 62
7
 10
544.1944584324
 20
763.446413638
 30
0
 11
560.1976648046646
 21
763.4726881104859
 31
0
  0
LINE
  8
1
 62
7
 10
544.1944584324
 20
687.5048751998
 30
0
 11
560.216619081679
 21
687.4786230790123
 31
0
  0
LINE
  8
0
 62
7
 10
419.2206115498
 20
565.2155720620503
 30
0
 11
419.2206115498
 21
563.7185298468
 31
0
  0
LINE
  8
0
 62
7
 10
48.4789148046
 20
401.8572778071
 30
0
 11
64.2206206991
 21
404.2185307109999
 31
0
  0
LINE
  8
0
 62
7
 10
64.2206206991
 20
468.2185337509
 30
0
 11
48.4789148046
 21
470.5797866548001
 31
0
  0
LINE
  8
0
 62
7
 10
64.2206206991
 20
404.2185307109999
 30
0
 11
164.5783916189
 21
404.2185307109999
 31
0
  0
LINE
  8
0
 62
7
 10
121.3321521952
 20
468.2185337509
 30
0
 11
64.2206206991
 21
468.2185337509
 31
0
  0
LINE
  8
0
 62
7
 10
133.9673534109
 20
468.2185337509
 30
0
 11
131.6232219412
 21
468.2185337509
 31
0
  0
LINE
  8
0
 62
7
 10
180.2206173612
 20
468.2185337509
 30
0
 11
169.919355221
 21
468.2185337509
 31
0
  0
LINE
  8
0
 62
7
 10
160.0865557863
 20
468.2185337509
 30
0
 11
159.2790320589
 21
468.2185337509
 31
0
  0
LINE
  8
0
 62
7
 10
149.4462326242
 20
468.2185337509
 30
0
 11
145.0150147154
 21
468.2185337509
 31
0
  0
LINE
  8
0
 62
7
 10
174.3397548868
 20
402.7185313964999
 30
0
 11
177.3531273081
 21
402.7185313964999
 31
0
  0
LINE
  8
0
 62
7
 10
164.5783916189
 20
402.7185313964999
 30
0
 11
167.4102380945
 21
402.7185313964999
 31
0
  0
LINE
  8
0
 62
7
 10
124.4290903284
 20
469.7185330653999
 30
0
 11
121.8496993257
 21
469.7185330653999
 31
0
  0
LINE
  8
0
 62
7
 10
131.1791375353
 20
469.7185330653999
 30
0
 11
128.8075283243
 21
469.7185330653999
 31
0
  0
LINE
  8
0
 62
7
 10
136.285825081
 20
469.7185330653999
 30
0
 11
133.9345708563
 21
469.7185330653999
 31
0
  0
LINE
  8
0
 62
7
 10
145.04779727
 20
469.7185330653999
 30
0
 11
142.7000001146
 21
469.7185330653999
 31
0
  0
LINE
  8
0
 62
7
 10
220.2281192018
 20
469.7185330653999
 30
0
 11
180.2206173612
 21
469.7185330653999
 31
0
  0
LINE
  8
0
 62
7
 10
44.2206099703
 20
356.2185340190999
 30
0
 11
44.2206099703
 21
529.2185344362999
 31
0
  0
LINE
  8
0
 62
7
 10
64.2206206991
 20
436.2185322309999
 30
0
 11
64.2206206991
 21
468.2185337509
 31
0
  0
LINE
  8
0
 62
7
 10
64.2206206991
 20
404.2185307109999
 30
0
 11
64.2206206991
 21
436.2185322309999
 31
0
  0
LINE
  8
0
 62
7
 10
151.2156859114
 20
466.9978790545999
 30
0
 11
149.4462326242
 21
466.9978790545999
 31
0
  0
LINE
  8
0
 62
7
 10
155.2057996466
 20
466.9978790545999
 30
0
 11
153.4363761618
 21
466.9978790545999
 31
0
  0
LINE
  8
0
 62
7
 10
159.2790320589
 20
466.9978790545999
 30
0
 11
157.5096085741
 21
466.9978790545999
 31
0
  0
LINE
  8
0
 62
7
 10
161.8559792711
 20
466.9978790545999
 30
0
 11
160.0865557863
 21
466.9978790545999
 31
0
  0
LINE
  8
0
 62
7
 10
165.8461228086
 20
466.9978790545999
 30
0
 11
164.0766695215
 21
466.9978790545999
 31
0
  0
LINE
  8
0
 62
7
 10
169.919355221
 20
466.9978790545999
 30
0
 11
168.1499317362
 21
466.9978790545999
 31
0
  0
LINE
  8
0
 62
7
 10
180.2206173612
 20
468.1833819116
 30
0
 11
208.2206145002
 21
468.1833819116
 31
0
  0
LINE
  8
0
 62
7
 10
208.2206145002
 20
467.9688573444998
 30
0
 11
220.2206090166
 21
468.2185337509
 31
0
  0
LINE
  8
0
 62
7
 10
164.5783916189
 20
405.5295460487
 30
0
 11
168.7269643022
 21
405.5295460487
 31
0
  0
LINE
  8
0
 62
7
 10
164.5783916189
 20
402.7185313964999
 30
0
 11
164.5783916189
 21
404.0909991229999
 31
0
  0
LINE
  8
0
 62
7
 10
164.5783916189
 20
404.0909991229999
 30
0
 11
168.7269643022
 21
404.0909991229999
 31
0
  0
LINE
  8
0
 62
7
 10
168.7269643022
 20
403.6208339596999
 30
0
 11
167.4102380945
 21
403.6208339596999
 31
0
  0
LINE
  8
0
 62
7
 10
167.4102380945
 20
402.7185313964999
 30
0
 11
167.4102380945
 21
403.6208339596999
 31
0
  0
LINE
  8
0
 62
7
 10
167.4102380945
 20
403.5307266379
 30
0
 11
168.7269643022
 21
403.5307266379
 31
0
  0
LINE
  8
0
 62
7
 10
168.7269643022
 20
404.0909991229999
 30
0
 11
168.7269643022
 21
405.5295460487
 31
0
  0
LINE
  8
0
 62
7
 10
174.5924487783
 20
403.6415838266
 30
0
 11
174.5924487783
 21
405.1002529079999
 31
0
  0
LINE
  8
0
 62
7
 10
164.5783916189
 20
404.0909991229999
 30
0
 11
164.5783916189
 21
405.5295460487
 31
0
  0
LINE
  8
0
 62
7
 10
169.919355221
 20
468.4406616355
 30
0
 11
168.1499317362
 21
468.4406616355
 31
0
  0
LINE
  8
0
 62
7
 10
165.8461228086
 20
468.4406616355
 30
0
 11
165.8461228086
 21
469.5678562486999
 31
0
  0
LINE
  8
0
 62
7
 10
165.8461228086
 20
468.4406616355
 30
0
 11
164.0766695215
 21
468.4406616355
 31
0
  0
LINE
  8
0
 62
7
 10
164.0766695215
 20
468.4406616355
 30
0
 11
164.0766695215
 21
469.6392104591
 31
0
  0
LINE
  8
0
 62
7
 10
161.8559792711
 20
468.4406616355
 30
0
 11
161.8559792711
 21
469.5678562486999
 31
0
  0
LINE
  8
0
 62
7
 10
161.8559792711
 20
468.4406616355
 30
0
 11
160.0865557863
 21
468.4406616355
 31
0
  0
LINE
  8
0
 62
7
 10
160.0865557863
 20
468.4406616355
 30
0
 11
160.0865557863
 21
469.7184101307998
 31
0
  0
LINE
  8
0
 62
7
 10
160.0865557863
 20
469.7184101307998
 30
0
 11
161.8559792711
 21
469.7184101307998
 31
0
  0
LINE
  8
0
 62
7
 10
161.8559792711
 20
469.6958944763001
 30
0
 11
161.8559792711
 21
469.7184101307998
 31
0
  0
LINE
  8
0
 62
7
 10
169.919355221
 20
468.4406616355
 30
0
 11
169.919355221
 21
469.6718514526999
 31
0
  0
LINE
  8
0
 62
7
 10
168.1499317362
 20
468.4406616355
 30
0
 11
168.1499317362
 21
469.6345277691999
 31
0
  0
LINE
  8
0
 62
7
 10
159.2790320589
 20
468.4406616355
 30
0
 11
157.5096085741
 21
468.4406616355
 31
0
  0
LINE
  8
0
 62
7
 10
155.2057996466
 20
468.4406616355
 30
0
 11
155.2057996466
 21
469.5678562486999
 31
0
  0
LINE
  8
0
 62
7
 10
155.2057996466
 20
468.4406616355
 30
0
 11
153.4363761618
 21
468.4406616355
 31
0
  0
LINE
  8
0
 62
7
 10
151.2156859114
 20
468.4406616355
 30
0
 11
151.2156859114
 21
469.5678562486999
 31
0
  0
LINE
  8
0
 62
7
 10
151.2156859114
 20
468.4406616355
 30
0
 11
149.4462326242
 21
468.4406616355
 31
0
  0
LINE
  8
0
 62
7
 10
149.4462326242
 20
468.4406616355
 30
0
 11
149.4462326242
 21
469.7184101307998
 31
0
  0
LINE
  8
0
 62
7
 10
149.4462326242
 20
469.7184101307998
 30
0
 11
151.2156859114
 21
469.7184101307998
 31
0
  0
LINE
  8
0
 62
7
 10
151.2156859114
 20
469.6958944763001
 30
0
 11
151.2156859114
 21
469.7184101307998
 31
0
  0
LINE
  8
0
 62
7
 10
159.2790320589
 20
468.4406616355
 30
0
 11
159.2790320589
 21
469.6718514526999
 31
0
  0
LINE
  8
0
 62
7
 10
157.5096085741
 20
468.4406616355
 30
0
 11
157.5096085741
 21
469.6345277691999
 31
0
  0
LINE
  8
0
 62
7
 10
153.4363761618
 20
468.4406616355
 30
0
 11
153.4363761618
 21
469.6392104591
 31
0
  0
LINE
  8
0
 62
7
 10
159.2790320589
 20
466.9978790545999
 30
0
 11
159.2790320589
 21
468.4406616355
 31
0
  0
LINE
  8
0
 62
7
 10
157.5096085741
 20
466.9978790545999
 30
0
 11
157.5096085741
 21
468.4406616355
 31
0
  0
LINE
  8
0
 62
7
 10
169.919355221
 20
466.9978790545999
 30
0
 11
169.919355221
 21
468.4406616355
 31
0
  0
LINE
  8
0
 62
7
 10
168.1499317362
 20
466.9978790545999
 30
0
 11
168.1499317362
 21
468.4406616355
 31
0
  0
LINE
  8
0
 62
7
 10
160.0865557863
 20
466.9978790545999
 30
0
 11
160.0865557863
 21
468.4406616355
 31
0
  0
LINE
  8
0
 62
7
 10
161.8559792711
 20
466.9978790545999
 30
0
 11
161.8559792711
 21
468.4406616355
 31
0
  0
LINE
  8
0
 62
7
 10
149.4462326242
 20
466.9978790545999
 30
0
 11
149.4462326242
 21
468.4406616355
 31
0
  0
LINE
  8
0
 62
7
 10
151.2156859114
 20
466.9978790545999
 30
0
 11
151.2156859114
 21
468.4406616355
 31
0
  0
LINE
  8
0
 62
7
 10
165.8461228086
 20
466.9978790545999
 30
0
 11
165.8461228086
 21
468.4406616355
 31
0
  0
LINE
  8
0
 62
7
 10
164.0766695215
 20
466.9978790545999
 30
0
 11
164.0766695215
 21
468.4406616355
 31
0
  0
LINE
  8
0
 62
7
 10
155.2057996466
 20
466.9978790545999
 30
0
 11
155.2057996466
 21
468.4406616355
 31
0
  0
LINE
  8
0
 62
7
 10
153.4363761618
 20
466.9978790545999
 30
0
 11
153.4363761618
 21
468.4406616355
 31
0
  0
LINE
  8
0
 62
7
 10
122.9464247896
 20
468.7515743638001
 30
0
 11
122.9464247896
 21
467.2948703730999
 31
0
  0
LINE
  8
0
 62
7
 10
126.2741819097
 20
468.4573658371999
 30
0
 11
126.2741819097
 21
467.0138363356
 31
0
  0
LINE
  8
0
 62
7
 10
139.4928827955
 20
468.4573658371999
 30
0
 11
139.4928827955
 21
467.0138363356
 31
0
  0
LINE
  8
0
 62
7
 10
142.6188781931
 20
468.7971495653001
 30
0
 11
142.6188781931
 21
467.3384059781999
 31
0
  0
LINE
  8
0
 62
7
 10
136.3634899332
 20
468.7971495653001
 30
0
 11
136.3634899332
 21
467.3384059781999
 31
0
  0
LINE
  8
0
 62
7
 10
129.7045484258
 20
468.7971495653001
 30
0
 11
129.7045484258
 21
467.3384059781999
 31
0
  0
LINE
  8
0
 62
7
 10
123.9553526117
 20
469.7107621098999
 30
0
 11
121.8075290396
 21
469.7107621098999
 31
0
  0
LINE
  8
0
 62
7
 10
121.3321521952
 20
469.4904223645999
 30
0
 11
123.6509814932
 21
469.4904223645999
 31
0
  0
LINE
  8
0
 62
7
 10
121.3321521952
 20
469.4904223645999
 30
0
 11
121.3321521952
 21
468.0006377959999
 31
0
  0
LINE
  8
0
 62
7
 10
177.3456469251
 20
402.7188629472998
 30
0
 11
177.3456469251
 21
404.2188473607
 31
0
  0
LINE
  8
0
 62
7
 10
133.9420512392
 20
469.7176352704998
 30
0
 11
133.9420512392
 21
468.2176732087999
 31
0
  0
LINE
  8
0
 62
7
 10
131.6232219412
 20
469.6055934393999
 30
0
 11
131.6232219412
 21
468.1106530691
 31
0
  0
LINE
  8
0
 62
7
 10
145.0402870848
 20
469.7176352704998
 30
0
 11
145.0402870848
 21
468.2176732087999
 31
0
  0
LINE
  8
0
 62
7
 10
180.2206173612
 20
469.6817346478999
 30
0
 11
180.2206173612
 21
469.7185330653999
 31
0
  0
LINE
  8
0
 62
7
 10
208.2206145002
 20
469.4571555221999
 30
0
 11
220.2206090166
 21
469.7185330653999
 31
0
  0
LINE
  8
0
 62
7
 10
208.2206145002
 20
469.4571555221999
 30
0
 11
208.2206145002
 21
469.6817346478999
 31
0
  0
LINE
  8
0
 62
7
 10
180.2206173612
 20
469.6817346478999
 30
0
 11
208.2206145002
 21
469.6817346478999
 31
0
  0
LINE
  8
0
 62
7
 10
220.2206090166
 20
468.2185337509
 30
0
 11
220.2206090166
 21
469.7185330653999
 31
0
  0
LINE
  8
0
 62
7
 10
208.2206145002
 20
467.9688573444998
 30
0
 11
208.2206145002
 21
469.4571555221999
 31
0
  0
LINE
  8
0
 62
7
 10
166.4280131533
 20
468.1772612596999
 30
0
 11
166.4280131533
 21
469.6753271485
 31
0
  0
LINE
  8
0
 62
7
 10
162.4378994181
 20
468.1772612596999
 30
0
 11
162.4378994181
 21
469.6753271485
 31
0
  0
LINE
  8
0
 62
7
 10
155.7876899912
 20
468.1772612596999
 30
0
 11
155.7876899912
 21
469.6753271485
 31
0
  0
LINE
  8
0
 62
7
 10
151.797576256
 20
468.1772612596999
 30
0
 11
151.797576256
 21
469.6753271485
 31
0
  0
LINE
  8
0
 62
7
 10
128.2920673563
 20
469.7106093729999
 30
0
 11
128.2920673563
 21
469.1015393102998
 31
0
  0
LINE
  8
0
 62
7
 10
152.7119711115
 20
468.1919351780998
 30
0
 11
152.7119711115
 21
469.6906902456999
 31
0
  0
LINE
  8
0
 62
7
 10
156.6189661695
 20
468.1919351780998
 30
0
 11
156.6189661695
 21
469.6906902456999
 31
0
  0
LINE
  8
0
 62
7
 10
167.2592893316
 20
468.1919351780998
 30
0
 11
167.2592893316
 21
469.6906902456999
 31
0
  0
LINE
  8
0
 62
7
 10
163.3522942736
 20
468.1919351780998
 30
0
 11
163.3522942736
 21
469.6906902456999
 31
0
  0
LINE
  8
0
 62
7
 10
180.2206173612
 20
468.1833819116
 30
0
 11
180.2206173612
 21
469.6817346478999
 31
0
  0
LINE
  8
0
 62
7
 10
123.9553526117
 20
469.7107621098999
 30
0
 11
123.9553526117
 21
469.2348078455
 31
0
  0
LINE
  8
0
 62
7
 10
126.8795564844
 20
469.6929738486999
 30
0
 11
126.8795564844
 21
468.9313680495
 31
0
  0
LINE
  8
0
 62
7
 10
121.8075290396
 20
469.7107621098999
 30
0
 11
121.8075290396
 21
469.4904223645999
 31
0
  0
LINE
  8
0
 62
7
 10
48.4789148046
 20
436.2185322309999
 30
0
 11
48.4789148046
 21
401.8572778071
 31
0
  0
LINE
  8
0
 62
7
 10
48.4789148046
 20
470.5797866548001
 30
0
 11
48.4789148046
 21
436.2185322309999
 31
0
  0
LINE
  8
0
 62
7
 10
177.3410275652
 20
404.2185307109999
 30
0
 11
318.2206139042
 21
404.2185307109999
 31
0
  0
LINE
  8
0
 62
7
 10
318.2206139042
 20
468.2185337509
 30
0
 11
220.2206090166
 21
468.2185337509
 31
0
  0
LINE
  8
0
 62
7
 10
44.2206099703
 20
529.2185344362999
 30
0
 11
29.2206242754
 21
529.2185344362999
 31
0
  0
LINE
  8
0
 62
7
 10
44.2206099703
 20
356.2185340190999
 30
0
 11
29.2206242754
 21
356.2185340190999
 31
0
  0
LINE
  8
0
 62
7
 10
64.22062284490001
 20
757.4756450074999
 30
0
 11
48.47891695040001
 21
759.8368979114
 31
0
  0
LINE
  8
0
 62
7
 10
48.47891695040001
 20
759.8368979114
 30
0
 11
48.47891695040001
 21
691.1143909263999
 31
0
  0
LINE
  8
0
 62
7
 10
48.47891695040001
 20
691.1143909263999
 30
0
 11
64.22062284490001
 21
693.4756438303
 31
0
  0
LINE
  8
0
 62
7
 10
64.22062284490001
 20
693.4756438303
 30
0
 11
64.22062284490001
 21
757.4756450074999
 31
0
  0
LINE
  8
0
 62
7
 10
64.22062284490001
 20
693.4756438303
 30
0
 11
318.2206141873
 21
693.4756438303
 31
0
  0
LINE
  8
0
 62
7
 10
318.2206141873
 20
757.4756450074999
 30
0
 11
64.22062284490001
 21
757.4756450074999
 31
0
  0
LINE
  8
0
 62
7
 10
121.9009316637
 20
726.349877851
 30
0
 11
121.9009316637
 21
726.3107343632
 31
0
  0
LINE
  8
0
 62
7
 10
180.220619507
 20
723.90590767
 30
0
 11
180.220619507
 21
727.0453820992
 31
0
  0
LINE
  8
0
 62
7
 10
208.220616646
 20
727.0453820992
 30
0
 11
180.220619507
 21
727.0453820992
 31
0
  0
LINE
  8
0
 62
7
 10
208.220616646
 20
727.0453820992
 30
0
 11
208.220616646
 21
729.6522489803999
 31
0
  0
LINE
  8
0
 62
7
 10
220.2206111624
 20
725.4756453502
 30
0
 11
208.220616646
 21
729.6522489803999
 31
0
  0
LINE
  8
0
 62
7
 10
208.220616646
 20
721.2990417199999
 30
0
 11
220.2206111624
 21
725.4756453502
 31
0
  0
LINE
  8
0
 62
7
 10
208.220616646
 20
721.2990417199999
 30
0
 11
208.220616646
 21
723.90590767
 31
0
  0
LINE
  8
0
 62
7
 10
180.220619507
 20
723.90590767
 30
0
 11
208.220616646
 21
723.90590767
 31
0
  0
LINE
  8
0
 62
7
 10
167.9243004991
 20
725.3892875331999
 30
0
 11
167.9243004991
 21
725.3852400052999
 31
0
  0
LINE
  8
0
 62
7
 10
153.376982279
 20
725.3892875331999
 30
0
 11
153.376982279
 21
725.3852400052999
 31
0
  0
LINE
  8
0
 62
7
 10
157.2839773371
 20
725.3892875331999
 30
0
 11
157.2839773371
 21
725.3852400052999
 31
0
  0
LINE
  8
0
 62
7
 10
164.0173054411
 20
725.3892875331999
 30
0
 11
164.0173054411
 21
725.3852400052999
 31
0
  0
LINE
  8
0
 62
7
 10
169.9193573667
 20
716.3113418089999
 30
0
 11
168.1499338819
 21
716.3113418089999
 31
0
  0
LINE
  8
0
 62
7
 10
168.1499338819
 20
716.3113418089999
 30
0
 11
168.1499338819
 21
723.1047057602
 31
0
  0
LINE
  8
0
 62
7
 10
165.8461249544
 20
716.3113418089999
 30
0
 11
165.8461249544
 21
722.3018945250001
 31
0
  0
LINE
  8
0
 62
7
 10
165.8461249544
 20
716.3113418089999
 30
0
 11
164.0766716673
 21
716.3113418089999
 31
0
  0
LINE
  8
0
 62
7
 10
164.0766716673
 20
716.3113418089999
 30
0
 11
164.0766716673
 21
723.1716753039
 31
0
  0
LINE
  8
0
 62
7
 10
161.8559814169
 20
716.3113418089999
 30
0
 11
161.8559814169
 21
722.3018945250001
 31
0
  0
LINE
  8
0
 62
7
 10
161.8559814169
 20
716.3113418089999
 30
0
 11
160.0865579321
 21
716.3113418089999
 31
0
  0
LINE
  8
0
 62
7
 10
160.0865579321
 20
716.3113418089999
 30
0
 11
160.0865579321
 21
725.3852400052999
 31
0
  0
LINE
  8
0
 62
7
 10
160.0865579321
 20
725.3852400052999
 30
0
 11
161.8559814169
 21
725.3852400052999
 31
0
  0
LINE
  8
0
 62
7
 10
161.8559814169
 20
724.2442580927
 30
0
 11
161.8559814169
 21
725.3852400052999
 31
0
  0
LINE
  8
0
 62
7
 10
169.9193573667
 20
716.3113418089999
 30
0
 11
169.9193573667
 21
723.7077399211999
 31
0
  0
LINE
  8
0
 62
7
 10
159.2790342047
 20
716.3113418089999
 30
0
 11
157.5096107199
 21
716.3113418089999
 31
0
  0
LINE
  8
0
 62
7
 10
157.5096107199
 20
716.3113418089999
 30
0
 11
157.5096107199
 21
723.1047057602
 31
0
  0
LINE
  8
0
 62
7
 10
155.2058017923
 20
716.3113418089999
 30
0
 11
155.2058017923
 21
722.3018945250001
 31
0
  0
LINE
  8
0
 62
7
 10
155.2058017923
 20
716.3113418089999
 30
0
 11
153.4363783075
 21
716.3113418089999
 31
0
  0
LINE
  8
0
 62
7
 10
153.4363783075
 20
716.3113418089999
 30
0
 11
153.4363783075
 21
723.1716753039
 31
0
  0
LINE
  8
0
 62
7
 10
151.2156880571
 20
716.3113418089999
 30
0
 11
151.2156880571
 21
722.3018945250001
 31
0
  0
LINE
  8
0
 62
7
 10
151.2156880571
 20
716.3113418089999
 30
0
 11
149.44623477
 21
716.3113418089999
 31
0
  0
LINE
  8
0
 62
7
 10
149.44623477
 20
716.3113418089999
 30
0
 11
149.44623477
 21
725.3852400052999
 31
0
  0
LINE
  8
0
 62
7
 10
149.44623477
 20
725.3852400052999
 30
0
 11
151.2156880571
 21
725.3852400052999
 31
0
  0
LINE
  8
0
 62
7
 10
151.2156880571
 20
724.2442580927
 30
0
 11
151.2156880571
 21
725.3852400052999
 31
0
  0
LINE
  8
0
 62
7
 10
159.2790342047
 20
716.3113418089999
 30
0
 11
159.2790342047
 21
723.7077399211999
 31
0
  0
LINE
  8
0
 62
7
 10
145.0402892305
 20
725.7209016996999
 30
0
 11
145.0402892305
 21
725.7099195439
 31
0
  0
LINE
  8
0
 62
7
 10
133.942053385
 20
725.7209016996999
 30
0
 11
133.942053385
 21
725.7099195439
 31
0
  0
LINE
  8
0
 62
7
 10
159.2790342047
 20
723.7868995460999
 30
0
 11
159.2790342047
 21
723.7077399211999
 31
0
  0
LINE
  8
0
 62
7
 10
123.9553547575
 20
724.7542466092
 30
0
 11
121.8075311853
 21
724.7542466092
 31
0
  0
LINE
  8
0
 62
7
 10
122.41290576
 20
734.9662545192
 30
0
 11
131.2196708395
 21
734.9662545192
 31
0
  0
LINE
  8
0
 62
7
 10
131.2196708395
 20
733.1983379143999
 30
0
 11
131.2196708395
 21
734.9662545192
 31
0
  0
LINE
  8
0
 62
7
 10
131.2196708395
 20
733.1983379143999
 30
0
 11
124.4581199362
 21
733.1983379143999
 31
0
  0
LINE
  8
0
 62
7
 10
124.4581199362
 20
733.1983379143999
 30
0
 11
124.0545368864
 21
726.9771291929999
 31
0
  0
LINE
  8
0
 62
7
 10
121.3321543409
 20
721.5729185435
 30
0
 11
123.6509836389
 21
721.5729185435
 31
0
  0
LINE
  8
0
 62
7
 10
121.8075311853
 20
724.7542466092
 30
0
 11
121.8075311853
 21
724.7865486014
 31
0
  0
LINE
  8
0
 62
7
 10
131.6232240869
 20
722.7271848413
 30
0
 11
131.6232240869
 21
722.8502507377
 31
0
  0
LINE
  8
0
 62
7
 10
128.2920695021
 20
726.2042040992001
 30
0
 11
128.2920695021
 21
726.1715817320001
 31
0
  0
LINE
  8
0
 62
7
 10
149.4462347702533
 20
725.3892875332385
 30
0
 11
149.44623477
 21
725.3852400052999
 31
0
  0
LINE
  8
0
 62
7
 10
149.4462347702533
 20
725.3892875332385
 30
0
 11
151.2156880571
 21
725.3892875331999
 31
0
  0
LINE
  8
0
 62
7
 10
151.2156880571
 20
725.3892875331999
 30
0
 11
151.2156880571
 21
725.3852400052999
 31
0
  0
LINE
  8
0
 62
7
 10
160.0865579321
 20
725.3892875331999
 30
0
 11
160.0865579321
 21
725.3852400052999
 31
0
  0
LINE
  8
0
 62
7
 10
160.0865579321
 20
725.3892875331999
 30
0
 11
161.8559814169
 21
725.3892875331999
 31
0
  0
LINE
  8
0
 62
7
 10
161.8559814169
 20
725.3892875331999
 30
0
 11
161.8559814169
 21
725.3852400052999
 31
0
  0
ARC
  8
0
 62
7
 10
426.2206109239
 20
565.218532231
 30
0
 40
6.999999999999999
 50
179.9757706867831
 51
180.0242293132169
  0
ARC
  8
0
 62
7
 10
518.2206109239
 20
565.218532231
 30
0
 40
7
 50
0
 51
90
  0
ARC
  8
0
 62
7
 10
414.2206109239
 20
563.718532231
 30
0
 40
5.000000000000114
 50
270
 51
0
  0
ARC
  8
0
 62
7
 10
430.5379763675
 20
471.3857294121
 30
0
 40
30.66257477018105
 50
122.8736090225001
 51
164.2361263223999
  0
ARC
  8
0
 62
7
 10
492.2535881980687
 20
395.2079777403528
 30
0
 40
34.46709685576246
 50
306.6216959893347
 51
359.8811683426348
  0
ARC
  8
0
 62
7
 10
367.8735566323
 20
404.218532231
 30
0
 40
2.652945708332309
 50
123.4276453523988
 51
180
  0
ARC
  8
0
 62
7
 10
367.8735566323
 20
468.218532231
 30
0
 40
2.652945708332311
 50
180
 51
250.4213820009009
  0
ARC
  8
0
 62
7
 10
472.0735025808691
 20
462.2302334199796
 30
0
 40
104.5154330350856
 50
271.4953357494001
 51
286.5896164766
  0
ARC
  8
0
 62
7
 10
531.7206109239
 20
396.6964925917
 30
0
 40
4.999999999999941
 50
55.40771131249982
 51
180.0000227297203
  0
ARC
  8
0
 62
7
 10
451.4706109239
 20
549.718532231
 30
0
 40
4.25
 50
0
 51
180
  0
ARC
  8
0
 62
7
 10
451.4706109239
 20
549.718532231
 30
0
 40
3.25
 50
0
 51
180
  0
ARC
  8
0
 62
7
 10
450.2206108828
 20
561.2185342771001
 30
0
 40
3.00000033142232
 50
14.14480472839995
 51
180
  0
ARC
  8
0
 62
7
 10
411.7206109239
 20
556.718532231
 30
0
 40
2
 50
90
 51
180
  0
ARC
  8
0
 62
7
 10
413.7206109239
 20
545.718532231
 30
0
 40
1.600000000000008
 50
38.68218745349965
 51
141.3178125465003
  0
ARC
  8
0
 62
7
 10
451.4706109239
 20
549.718532231
 30
0
 40
3.10000000000004
 50
306.2493208829004
 51
233.7506791170996
  0
ARC
  8
0
 62
7
 10
451.4706109239
 20
549.718532231
 30
0
 40
2.599999999999973
 50
285.9423686055992
 51
254.0576313943984
  0
ARC
  8
0
 62
7
 10
340.5911645372
 20
422.2067917264
 30
0
 40
18.98870050218592
 50
270.3905723419002
 51
287.1973574529999
  0
ARC
  8
0
 62
7
 10
332.3249664709803
 20
408.618890782804
 30
0
 40
5.402983652998043
 50
271.7861840382453
 51
302.5981065224859
  0
ARC
  8
0
 62
7
 10
349.0611232354
 20
465.9963748256
 30
0
 40
5.223385925307169
 50
91.24261002829989
 51
123.1416805318002
  0
ARC
  8
0
 62
7
 10
332.6066591478
 20
465.9962974136
 30
0
 40
5.223463838615287
 50
91.24285427359948
 51
123.1414362864997
  0
ARC
  8
0
 62
7
 10
524.4170607161
 20
518.2068887557
 30
0
 40
18.98879676419455
 50
270.390601101
 51
287.1972762004001
  0
ARC
  8
0
 62
7
 10
532.6604718024
 20
504.4407541195
 30
0
 40
5.223449443231933
 50
271.2427021201001
 51
303.1414024242997
  0
ARC
  8
0
 62
7
 10
419.7652572993
 20
518.2069025153
 30
0
 40
18.98881053800945
 50
270.3906072405001
 51
287.1972700608998
  0
ARC
  8
0
 62
7
 10
411.5541868161
 20
504.4407526274
 30
0
 40
5.223447857329965
 50
271.2426548718997
 51
303.1414057186998
  0
ARC
  8
0
 62
7
 10
428.2352207797
 20
541.496394067
 30
0
 40
5.223366874051306
 50
91.24257277730003
 51
123.1418158903007
  0
ARC
  8
0
 62
7
 10
411.7807413474
 20
541.4963782901
 30
0
 40
5.223382753119103
 50
91.24262255659971
 51
123.1417661110006
  0
ARC
  8
0
 62
7
 10
532.8870263338
 20
541.496379782
 30
0
 40
5.223381167348221
 50
91.24257530829971
 51
123.1417694052001
  0
ARC
  8
0
 62
7
 10
516.4325414794
 20
541.496394067
 30
0
 40
5.223366874051306
 50
91.24257277729942
 51
123.1418158902996
  0
ARC
  8
0
 62
7
 10
350.2408219925
 20
423.8124435115
 30
0
 40
4.891029297266112
 50
337.0203137363997
 51
354.6509685689008
  0
ARC
  8
0
 62
7
 10
331.2000459415
 20
423.8123533193
 30
0
 40
4.890665074918782
 50
185.3483696971998
 51
202.9803479976005
  0
ARC
  8
0
 62
7
 10
331.2000459415
 20
448.6247111427
 30
0
 40
4.890665074918832
 50
157.0196520023989
 51
174.6516303027996
  0
ARC
  8
0
 62
7
 10
350.2408219925
 20
448.6246209504
 30
0
 40
4.891029297266063
 50
5.349031431099881
 51
22.97968626360028
  0
ARC
  8
0
 62
7
 10
484.7869101345
 20
460.4842261986
 30
0
 40
1.739398830590829
 50
356.4280075305018
 51
32.64086724099936
  0
ARC
  8
0
 62
7
 10
485.512532875
 20
460.5167206141
 30
0
 40
1.168971195717158
 50
50.7844947970004
 51
93.04003510150078
  0
ARC
  8
0
 62
7
 10
485.5572673027
 20
460.071259758
 30
0
 40
1.616314636844646
 50
93.78613963470022
 51
133.2786297366999
  0
ARC
  8
0
 62
7
 10
486.2202043277
 20
459.5136318907
 30
0
 40
2.478790389318247
 50
135.5989572626986
 51
184.2645289436996
  0
ARC
  8
0
 62
7
 10
479.4310005816
 20
460.5680254687
 30
0
 40
2.187930631077265
 50
357.2504497942995
 51
22.985502024101
  0
ARC
  8
0
 62
7
 10
480.7554548137
 20
460.6442476137
 30
0
 40
1.039859104498896
 50
48.44617710630055
 51
90.6153789657039
  0
ARC
  8
0
 62
7
 10
480.7522805229
 20
460.054717926
 30
0
 40
1.629348426198951
 50
90.28110837399763
 51
132.9156325520026
  0
ARC
  8
0
 62
7
 10
481.4148870094
 20
459.5132420483
 30
0
 40
2.479825615788411
 50
135.6097729718989
 51
184.2537132345983
  0
ARC
  8
0
 62
7
 10
481.5711878221
 20
460.2685822258
 30
0
 40
3.07261207601648
 50
90.48179872780047
 51
148.8393629771987
  0
ARC
  8
0
 62
7
 10
481.6767351094
 20
461.2949241843
 30
0
 40
2.050375260180317
 50
15.95314682990185
 51
93.67393153689928
  0
ARC
  8
0
 62
7
 10
486.277531973
 20
460.2684194172
 30
0
 40
3.072775659780442
 50
90.48350194509928
 51
148.8376597599005
  0
ARC
  8
0
 62
7
 10
486.4742988352
 20
460.7423874243
 30
0
 40
2.608222848336852
 50
52.72361893899929
 51
94.8980249168003
  0
ARC
  8
0
 62
7
 10
486.5136576853
 20
461.3218889884
 30
0
 40
2.147190061005043
 50
355.6966471319016
 51
44.1618957264985
  0
ARC
  8
0
 62
7
 10
460.7992980757
 20
461.3686935186
 30
0
 40
8.488991844100713
 50
353.8062502201004
 51
42.47908916910023
  0
ARC
  8
0
 62
7
 10
465.5476735909
 20
465.3147218004
 30
0
 40
2.340954187737293
 50
49.75282763640028
 51
89.39510502449816
  0
ARC
  8
0
 62
7
 10
465.5886930282
 20
465.3280035106
 30
0
 40
2.327599131643219
 50
90.40137631350056
 51
130.3646929319989
  0
ARC
  8
0
 62
7
 10
470.2995696025
 20
461.3869343896
 30
0
 40
8.44535222389422
 50
137.4175244688997
 51
186.3503814928
  0
ARC
  8
0
 62
7
 10
470.4925047081
 20
459.5020264555
 30
0
 40
8.638947128607281
 50
173.6813623462001
 51
222.0862241126994
  0
ARC
  8
0
 62
7
 10
465.5969052536
 20
455.5073748856
 30
0
 40
2.349771969714997
 50
229.831770408302
 51
269.4021603461998
  0
ARC
  8
0
 62
7
 10
465.5520095156
 20
455.4869118029
 30
0
 40
2.329270115756646
 50
270.5012685404994
 51
310.3507987986016
  0
ARC
  8
0
 62
7
 10
461.1103900584
 20
459.3572207187
 30
0
 40
8.201850040765439
 50
316.5033508702006
 51
7.676407975599945
  0
ARC
  8
0
 62
7
 10
465.5850957003
 20
463.8450315855
 30
0
 40
5.565039601468986
 50
90.13083904089923
 51
129.853077543599
  0
ARC
  8
0
 62
7
 10
465.548035615
 20
463.8224884146
 30
0
 40
5.587621327817355
 50
50.23032106309955
 51
89.75029319239918
  0
ARC
  8
0
 62
7
 10
462.5027905687
 20
461.4168429872
 30
0
 40
9.41889082519716
 50
354.1254225719002
 51
45.34734578549983
  0
ARC
  8
0
 62
7
 10
462.0062163164
 20
459.5844920113
 30
0
 40
9.904137151359226
 50
315.9317331629999
 51
5.029698670599928
  0
ARC
  8
0
 62
7
 10
465.572154278
 20
456.9539076392
 30
0
 40
5.543849260984572
 50
270.0024107921998
 51
309.8219029477002
  0
ARC
  8
0
 62
7
 10
465.5939503656
 20
457.0222955674
 30
0
 40
5.612278607487026
 50
230.4311468681995
 51
269.7798644920991
  0
ARC
  8
0
 62
7
 10
468.7423867378
 20
459.4452625513
 30
0
 40
9.526677681186319
 50
173.9290175370003
 51
225.1095498655996
  0
ARC
  8
0
 62
7
 10
498.8927287139
 20
460.4860649579
 30
0
 40
1.732436298527511
 50
356.3526997171987
 51
32.7161750541995
  0
ARC
  8
0
 62
7
 10
499.5978458613
 20
460.4756530278
 30
0
 40
1.209369896798652
 50
51.52227795879796
 51
92.30225193970122
  0
ARC
  8
0
 62
7
 10
499.6498306335
 20
460.0854115372
 30
0
 40
1.601795282776593
 50
93.59960182970124
 51
133.4651675417984
  0
ARC
  8
0
 62
7
 10
500.3135685691
 20
459.5155919232
 30
0
 40
2.473589204583426
 50
135.5444945247006
 51
184.3190407550019
  0
ARC
  8
0
 62
7
 10
493.5296753311
 20
460.5680141633
 30
0
 40
2.187982423224296
 50
357.2508113186001
 51
22.98524831170106
  0
ARC
  8
0
 62
7
 10
494.8564960388
 20
460.6504495012
 30
0
 40
1.033685169598033
 50
48.31417604520323
 51
90.74733014359637
  0
ARC
  8
0
 62
7
 10
494.8670954008
 20
460.0140791686
 30
0
 40
1.670141199085689
 50
90.82617487980039
 51
132.3705328850016
  0
ARC
  8
0
 62
7
 10
495.5093621472
 20
459.5147962492
 30
0
 40
2.47570130456314
 50
135.5666528347014
 51
184.2968824449994
  0
ARC
  8
0
 62
7
 10
495.6495591029
 20
460.3043269728
 30
0
 40
3.036763643057817
 50
90.10341873400016
 51
149.2177429710002
  0
ARC
  8
0
 62
7
 10
495.7748356908
 20
461.2940367677
 30
0
 40
2.051220817354662
 50
15.97217680510006
 51
93.65487765999993
  0
ARC
  8
0
 62
7
 10
500.3554119522
 20
460.3050252509
 30
0
 40
3.036064674134401
 50
90.09593810759913
 51
149.2252235973998
  0
ARC
  8
0
 62
7
 10
500.5671794349
 20
460.7222524972
 30
0
 40
2.627795961203232
 50
52.88809433420069
 51
94.73354952159929
  0
ARC
  8
0
 62
7
 10
500.6192376484
 20
461.3243739723
 30
0
 40
2.140544190703266
 50
355.6165534207003
 51
44.24198943779891
  0
ARC
  8
0
 62
7
 10
442.5058477358
 20
469.4681637144
 30
0
 40
42.76651655262268
 50
165.9369929551
 51
185.4809873684
  0
ARC
  8
0
 62
7
 10
449.4678814112
 20
456.2462289748
 30
0
 40
3.360059871472401
 50
175.9751267777992
 51
228.9628960791996
  0
ARC
  8
0
 62
7
 10
449.0766488973
 20
456.3905864524
 30
0
 40
3.235658630152059
 50
235.8835231435
 51
272.3850623173005
  0
ARC
  8
0
 62
7
 10
449.1379390682
 20
456.2835411032
 30
0
 40
3.126671056813474
 50
271.3444767526002
 51
310.2303822473
  0
ARC
  8
0
 62
7
 10
447.9236863405
 20
457.2028467305
 30
0
 40
4.624783142204442
 50
314.3629295986006
 51
4.804289983799579
  0
ARC
  8
0
 62
7
 10
448.5295820258
 20
458.0702807267
 30
0
 40
4.031328536202428
 50
353.1603253007009
 51
44.87275669200029
  0
ARC
  8
0
 62
7
 10
449.8215949684
 20
458.9829780866
 30
0
 40
2.485909696575531
 50
50.98645367910108
 51
90.90209065199963
  0
ARC
  8
0
 62
7
 10
449.8349222749
 20
457.5655594311
 30
0
 40
3.903372850243533
 50
90.77013196050073
 51
149.7940922310001
  0
ARC
  8
0
 62
7
 10
450.2019210748
 20
457.6045062833
 30
0
 40
5.436114867075293
 50
88.36490321900077
 51
131.8590238722995
  0
ARC
  8
0
 62
7
 10
450.4378281894
 20
458.3993990316
 30
0
 40
4.639712160612297
 50
51.3447578329003
 51
90.99776631890012
  0
ARC
  8
0
 62
7
 10
449.78001381
 20
457.9566655468
 30
0
 40
5.401552010202991
 50
356.1096351590001
 51
48.82839394220067
  0
ARC
  8
0
 62
7
 10
449.1209722913
 20
457.350496141
 30
0
 40
6.052894281020921
 50
309.7387284863001
 51
2.269439194300694
  0
ARC
  8
0
 62
7
 10
449.227105081
 20
457.5531368015
 30
0
 40
6.144498340978494
 50
268.7682144038004
 51
307.7693462502001
  0
ARC
  8
0
 62
7
 10
448.7301517305
 20
457.1931123616
 30
0
 40
5.794552577643287
 50
233.8973317866996
 51
273.6101229106004
  0
ARC
  8
0
 62
7
 10
448.6606792328
 20
456.4640961253
 30
0
 40
5.17808223889934
 50
179.8011176872008
 51
229.7617174097
  0
ARC
  8
0
 62
7
 10
566.4517960715
 20
467.5898834983
 30
0
 40
63.16909462579927
 50
236.2209426318999
 51
251.8851636733
  0
ARC
  8
0
 62
7
 10
553.2227383511
 20
486.1629980112
 30
0
 40
20.53042370220638
 50
190.0404359817999
 51
239.2310183629
  0
ARC
  8
0
 62
7
 10
472.4158620720992
 20
462.186562131976
 30
0
 40
104.4730862788958
 50
253.376351299398
 51
268.4776472460981
  0
ARC
  8
0
 62
7
 10
471.9456830436327
 20
462.2607210826479
 30
0
 40
104.3710479065745
 50
233.6382391492131
 51
247.324977193613
  0
ARC
  8
0
 62
7
 10
410.721391709
 20
445.6921936257
 30
0
 40
0.4161552431316565
 50
107.620479022501
 51
183.3047992650901
  0
ARC
  8
0
 62
7
 10
492.1307902367
 20
395.1072389144
 30
0
 40
34.45986244791726
 50
286.4935376064456
 51
306.8854817445999
  0
ARC
  8
0
 62
7
 10
560.1797415158
 20
481.2226333203
 30
0
 40
10.04087324267863
 50
287.8214801981002
 51
0.0646779936000539
  0
ARC
  8
0
 62
7
 10
560.1721833476
 20
391.639753582
 30
0
 40
10.04842795860517
 50
359.9561315651
 51
68.91000397650019
  0
ARC
  8
0
 62
7
 10
529.5511686538
 20
412.5943582787
 30
0
 40
3.060412697349811
 50
54.47347314989957
 51
179.8485237351998
  0
ARC
  8
0
 62
7
 10
382.2050580677
 20
436.1124427426
 30
0
 40
29.57922198384318
 50
63.12385336629993
 51
90.59439203180008
  0
ARC
  8
0
 62
7
 10
396.9474173798
 20
465.1604887001
 30
0
 40
2.995745194389158
 50
242.8326658206007
 51
4.23351923640067
  0
ARC
  8
0
 62
7
 10
560.2206109239
 20
370.9675564008
 30
0
 40
10
 50
0
 51
55.40771131250001
  0
ARC
  8
0
 62
7
 10
531.4930589566
 20
396.8506414063
 30
0
 40
5.002328027556326
 50
55.18794661930035
 51
179.7834669681
  0
ARC
  8
0
 62
7
 10
537.9271085837
 20
483.4729664576
 30
0
 40
5.000090454698817
 50
190.2450327903991
 51
299.8242605658004
  0
ARC
  8
0
 62
7
 10
560.2206109239
 20
502.0131474227
 30
0
 40
9.999999999999966
 50
299.8187173092003
 51
0
  0
ARC
  8
0
 62
7
 10
381.8919726592
 20
485.718532231
 30
0
 40
20.00000000000006
 50
270
 51
342.9665898339003
  0
ARC
  8
0
 62
7
 10
560.2208635894
 20
773.4724033252001
 30
0
 40
9.999742124624923
 50
269.8670772074999
 51
359.9582256200998
  0
ARC
  8
0
 62
7
 10
560.2208745026001
 20
677.4788927770001
 30
0
 40
9.999731207466967
 50
0.04174347459982546
 51
90.02438242199986
  0
ARC
  8
0
 62
7
 10
367.8735429576
 20
693.4756515734
 30
0
 40
2.652934388030575
 50
117.7674708187001
 51
180.0001672288988
  0
ARC
  8
0
 62
7
 10
367.8735633181
 20
757.4756472091
 30
0
 40
2.652954748525648
 50
180.0000475478991
 51
242.3024357540007
  0
ARC
  8
0
 62
7
 10
504.4221379197
 20
746.2405836088
 30
0
 40
1.385027732590156
 50
224.7747750082011
 51
275.0886952179021
  0
ARC
  8
0
 62
7
 10
503.4115190082
 20
746.4378113414
 30
0
 40
1.181652699867698
 50
105.9401751343005
 51
183.6867142467973
  0
ARC
  8
0
 62
7
 10
504.4221482946
 20
749.011339828
 30
0
 40
1.385046141580653
 50
224.7749331932995
 51
275.0881965223995
  0
ARC
  8
0
 62
7
 10
503.3801287144
 20
749.2705817192
 30
0
 40
1.194624361538456
 50
84.76103212679776
 51
135.0971400429974
  0
ARC
  8
0
 62
7
 10
504.4221399122
 20
740.0113236296
 30
0
 40
1.385028509284363
 50
224.7746903649024
 51
275.0886096058974
  0
ARC
  8
0
 62
7
 10
504.4221362827
 20
737.2405750183
 30
0
 40
1.38501893530511
 50
224.7745043569987
 51
275.0887956138011
  0
ARC
  8
0
 62
7
 10
503.4115261467
 20
737.4378085583001
 30
0
 40
1.181659500020316
 50
105.9404409327003
 51
183.6864484484006
  0
ARC
  8
0
 62
7
 10
503.380132578
 20
740.2705805212
 30
0
 40
1.194625587631163
 50
84.761223597799
 51
135.097343540298
  0
ARC
  8
0
 62
7
 10
472.2210952832
 20
725.4756453502
 30
0
 40
52.99952088595779
 50
347.3976193622
 51
12.6023806378
  0
ARC
  8
0
 62
7
 10
472.2206076578
 20
725.4756453502
 30
0
 40
52.99999676345319
 50
12.60226562249997
 51
347.3977343775
  0
ARC
  8
0
 62
7
 10
525.8955635456
 20
713.4756311526
 30
0
 40
2.00001442110353
 50
89.99997937780098
 51
167.3974107208004
  0
ARC
  8
0
 62
7
 10
527.6462409539
 20
733.4756454861
 30
0
 40
1.999999640566939
 50
8.213209054899817
 51
89.99996746930123
  0
ARC
  8
0
 62
7
 10
472.2202864547
 20
725.4756453502
 30
0
 40
58.00032494610054
 50
351.7868356028
 51
8.213164397200005
  0
ARC
  8
0
 62
7
 10
527.6462409539
 20
717.4756452143
 30
0
 40
1.999999640566879
 50
270.0000325306988
 51
351.7867909450997
  0
ARC
  8
0
 62
7
 10
525.8955635456
 20
737.4756595478
 30
0
 40
2.000014421103609
 50
192.6025892792992
 51
270.000020622199
  0
ARC
  8
0
 62
7
 10
417.4907299078
 20
706.2756476471
 30
0
 40
4.999997610706881
 50
19.33154736399915
 51
90
  0
ARC
  8
0
 62
7
 10
417.490732025
 20
744.6756410462
 30
0
 40
4.999995603600041
 50
270
 51
340.6684449077006
  0
ARC
  8
0
 62
7
 10
411.7206149839
 20
737.6756435284
 30
0
 40
2.00000191419997
 50
90
 51
180
  0
ARC
  8
0
 62
7
 10
411.720613394
 20
713.2756455821
 30
0
 40
2.000000324300004
 50
180
 51
270
  0
ARC
  8
0
 62
7
 10
340.7206245366
 20
782.4756435174
 30
0
 40
9.499983436961934
 50
329.9999531185997
 51
30.00004688140035
  0
ARC
  8
0
 62
7
 10
340.7205922419
 20
782.4756725261
 30
0
 40
9.500025909316713
 50
270.0000686368002
 51
329.9998989895001
  0
ARC
  8
0
 62
7
 10
340.7206039606
 20
782.4756243647
 30
0
 40
9.499977747925142
 50
209.9999333088998
 51
269.9999979598
  0
ARC
  8
0
 62
7
 10
340.7205438606
 20
782.4756435174
 30
0
 40
9.499935276125493
 50
149.9997854173002
 51
210.0002145826998
  0
ARC
  8
0
 62
7
 10
340.7206002354
 20
782.4756840234001
 30
0
 40
9.499963845052925
 50
89.99997957249998
 51
150.0001669893001
  0
ARC
  8
0
 62
7
 10
340.7205959672
 20
782.4756358622
 30
0
 40
9.500012006279398
 50
30.00000071230026
 51
89.99995383090028
  0
ARC
  8
0
 62
7
 10
340.7206120043
 20
782.4756511529999
 30
0
 40
14.99999346280745
 50
20.79222320880003
 51
159.2077767911999
  0
ARC
  8
0
 62
7
 10
333.2205672715
 20
759.9717003444
 30
0
 40
30.00004469554099
 50
3.021950003961821e-005
 51
20.79222961620003
  0
ARC
  8
0
 62
7
 10
348.2204298116
 20
759.9717615988
 30
0
 40
29.99981777013175
 50
159.2077309563001
 51
180.0000867682999
  0
ARC
  8
0
 62
7
 10
340.7206036224
 20
786.5386703679
 30
0
 40
5.966919661389971
 50
65.66985544860008
 51
114.3301445513999
  0
ARC
  8
0
 62
7
 10
333.2205672715
 20
690.9795884934
 30
0
 40
30.00004469554088
 50
339.2077703837999
 51
359.9999697805
  0
ARC
  8
0
 62
7
 10
340.7206120043
 20
668.475639314
 30
0
 40
14.99999337993303
 50
200.7922223751999
 51
339.2077776249001
  0
ARC
  8
0
 62
7
 10
348.2204298116
 20
690.9795272389
 30
0
 40
29.99981777013171
 50
179.9999132317001
 51
200.7922690437
  0
ARC
  8
0
 62
7
 10
340.7206036224
 20
664.4126203325
 30
0
 40
5.966919661389971
 50
245.6698554486001
 51
294.3301445513999
  0
ARC
  8
0
 62
7
 10
531.2206090092
 20
725.4756453502
 30
0
 40
4.999999649762404
 50
278.6268664597995
 51
81.37313354020043
  0
ARC
  8
0
 62
7
 10
531.2206059768
 20
725.4756644754
 30
0
 40
5.000019013431911
 50
261.3731320576996
 51
278.6268679423004
  0
ARC
  8
0
 62
7
 10
531.2206059768
 20
725.4755439066
 30
0
 40
5.000100400492117
 50
81.3732735486999
 51
98.6267264513001
  0
ARC
  8
0
 62
7
 10
531.2206139053
 20
725.4756448845
 30
0
 40
7.999998773210879
 50
258.9458258438999
 51
101.0541741561002
  0
ARC
  8
0
 62
7
 10
472.2206081981
 20
725.475639257
 30
0
 40
54.49999347224284
 50
195.6920988354
 51
244.7476749438
  0
ARC
  8
0
 62
7
 10
472.2206027708
 20
725.4756527185
 30
0
 40
54.50000758929179
 50
250.4358405822
 51
349.2646739049
  0
ARC
  8
0
 62
7
 10
531.2206064372
 20
725.4756450153
 30
0
 40
5.249999798473922
 50
256.5054011197993
 51
89.99992371289964
  0
ARC
  8
0
 62
7
 10
472.2206113382
 20
725.4756490623
 30
0
 40
54.4999971078406
 50
10.73531632789995
 51
164.3078997654
  0
ARC
  8
0
 62
7
 10
408.5247811817987
 20
759.0440899938044
 30
0
 40
9.999995877584183
 50
332.2102811782972
 51
59.45799849168125
  0
ARC
  8
0
 62
7
 10
438.6521628381
 20
789.1714791008
 30
0
 40
9.999995877603498
 50
210.5420156778503
 51
297.7897490543174
  0
ARC
  8
0
 62
7
 10
472.2206056190973
 20
725.4756417837999
 30
0
 40
62.00000441577823
 50
62.21025026264159
 51
117.7897490543153
  0
ARC
  8
0
 62
7
 10
505.7890550248021
 20
789.1714898301005
 30
0
 40
10.00000845811495
 50
242.2102502626329
 51
329.4579487992156
  0
ARC
  8
0
 62
7
 10
535.916419983
 20
759.044097077
 30
0
 40
9.999977085840591
 50
120.5419772745118
 51
207.7898026969563
  0
ARC
  8
0
 62
7
 10
472.2208610461028
 20
725.4757248081902
 30
0
 40
61.99974405986146
 50
7.029943761909274
 51
27.7898026969655
  0
ARC
  8
0
 62
7
 10
524.7367031589
 20
777.9917326162
 30
0
 40
11.99999929581539
 50
300.5419772745115
 51
149.4579487992248
  0
ARC
  8
0
 62
7
 10
419.7045166969
 20
777.9917388999
 30
0
 40
12.00000151448158
 50
30.54201567784988
 51
239.4579984917006
  0
ARC
  8
0
 62
7
 10
472.2209625994
 20
725.4755088125
 30
0
 40
62.00037335556492
 50
152.2102811783165
 51
163.5439179892999
  0
ARC
  8
0
 62
7
 10
472.2208935405
 20
725.4755557029
 30
0
 40
61.99971056272058
 50
332.2101923349887
 51
352.9700619083
  0
ARC
  8
0
 62
7
 10
535.9164213242
 20
691.9071927953
 30
0
 40
9.999978658417227
 50
152.2101923349888
 51
239.4580322723155
  0
ARC
  8
0
 62
7
 10
524.7367065518
 20
672.9595535198
 30
0
 40
11.99999989850865
 50
210.5420364724037
 51
59.4580322723151
  0
ARC
  8
0
 62
7
 10
505.7890550248068
 20
661.7798008702982
 30
0
 40
10.00000845813543
 50
30.54203647243244
 51
117.7897601980267
  0
ARC
  8
0
 62
7
 10
472.2206107408
 20
725.4756110034
 30
0
 40
61.99996848748987
 50
252.8811352221001
 51
297.7897601979969
  0
ARC
  8
0
 62
7
 10
438.6521628381229
 20
661.77981159953
 30
0
 40
9.999995877692939
 50
62.21023864390333
 51
149.4579806169376
  0
ARC
  8
0
 62
7
 10
419.7045184725
 20
672.9595524046
 30
0
 40
12.00000029231374
 50
120.5420103947879
 51
329.4579806172164
  0
ARC
  8
0
 62
7
 10
408.5247798406
 20
691.9071998785
 30
0
 40
9.999997450249495
 50
300.5420103947882
 51
27.78972792651492
  0
ARC
  8
0
 62
7
 10
472.2208816989926
 20
725.4757520644195
 30
0
 40
62.00028788130302
 50
196.4560785116191
 51
207.7897279265338
  0
ARC
  8
0
 62
7
 10
486.1231379421
 20
796.1207160657
 30
0
 40
10.00004226020015
 50
258.8668667359
 51
315.0000000000005
  0
ARC
  8
0
 62
7
 10
472.220681382
 20
597.4760371901
 30
0
 40
199.9996036484178
 50
73.77911625470001
 51
82.0967952275
  0
ARC
  8
0
 62
7
 10
458.3180709598
 20
796.1206699471001
 30
0
 40
9.999997460616283
 50
225.0000000004385
 51
281.1331974203999
  0
ARC
  8
0
 62
7
 10
472.2204897489
 20
597.476225948
 30
0
 40
199.9994091197329
 50
97.90319659870002
 51
106.2208857687
  0
ARC
  8
0
 62
7
 10
412.4962476445
 20
748.4756482662
 30
0
 40
1.999997456493375
 50
338.9380643609989
 51
90
  0
ARC
  8
0
 62
7
 10
600.2203867548
 20
725.4756691111001
 30
0
 40
199.9997758423123
 50
163.7791145351
 51
172.8192428813
  0
ARC
  8
0
 62
7
 10
542.8655893525
 20
739.3781952157
 30
0
 40
9.999955179166243
 50
135.0000000000005
 51
191.1333447684
  0
ARC
  8
0
 62
7
 10
344.2210914476
 20
725.4757563110001
 30
0
 40
199.9995094549421
 50
7.903194567200004
 51
16.22088164989999
  0
ARC
  8
0
 62
7
 10
542.8655904972
 20
711.5730943701
 30
0
 40
9.999956517605011
 50
168.8666502319999
 51
225.0000000000005
  0
ARC
  8
0
 62
7
 10
344.2211888156
 20
725.4755153886
 30
0
 40
199.9994106552703
 50
343.7791157849
 51
352.0968064605
  0
ARC
  8
0
 62
7
 10
412.4962496469
 20
702.4756410596
 30
0
 40
1.999996081907539
 50
269.9998644335988
 51
21.06199300240172
  0
ARC
  8
0
 62
7
 10
600.2202678246
 20
725.4755969582
 30
0
 40
199.9996547660279
 50
187.1807543767
 51
196.220888207
  0
ARC
  8
0
 62
7
 10
472.220681382
 20
853.4752535103
 30
0
 40
199.9996036484174
 50
277.9032047725
 51
286.2208837453
  0
ARC
  8
0
 62
7
 10
486.1231379421
 20
654.8305746347
 30
0
 40
10.00004226021479
 50
45.00000000000046
 51
101.1331332641999
  0
ARC
  8
0
 62
7
 10
458.3180766143
 20
654.8305784403
 30
0
 40
10.00003788556835
 50
78.86688117900006
 51
115.7690723230002
  0
ARC
  8
0
 62
7
 10
472.2204897489
 20
853.4750647524
 30
0
 40
199.999409119733
 50
253.7791142313
 51
262.0968034013
  0
ARC
  8
0
 62
7
 10
472.2206130697
 20
597.4753930626
 30
0
 40
200.0002510508496
 50
90
 51
97.90319878389997
  0
ARC
  8
0
 62
7
 10
344.2204263304
 20
725.4756444189
 30
0
 40
200.0001836398978
 50
352.0967998821001
 51
7.903200117899991
  0
ARC
  8
0
 62
7
 10
600.2214356538
 20
725.4756453502
 30
0
 40
200.0008194846419
 50
172.8192736885
 51
187.1807263115
  0
ARC
  8
0
 62
7
 10
472.220576696
 20
853.4764241984
 30
0
 40
200.0007776113902
 50
270.000010420257
 51
277.9031883636
  0
ARC
  8
0
 62
7
 10
594.4515423625001
 20
725.4755918589
 30
0
 40
194.2309261933455
 50
172.60476958
 51
179.9999842207
  0
ARC
  8
0
 62
7
 10
349.9871992784
 20
725.4758930598
 30
0
 40
194.2334106923432
 50
351.8753752723
 51
0.0001269296999888993
  0
ARC
  8
0
 62
7
 10
720.4659622816
 20
565.2185189042
 30
0
 40
7.000019418500074
 50
90
 51
180
  0
ARC
  8
0
 62
7
 10
812.4659221928
 20
565.2185189042
 30
0
 40
7.00001941849996
 50
0
 51
90
  0
ARC
  8
0
 62
7
 10
823.6632885819
 20
532.3190417442
 30
0
 40
14.40000168413237
 50
90.48319928180001
 51
109.7730181271001
  0
ARC
  8
0
 62
7
 10
814.1632858235
 20
532.3190542155001
 30
0
 40
14.39998922668469
 50
90.4832060373999
 51
109.7730269291001
  0
ARC
  8
0
 62
7
 10
719.0114764244
 20
532.3191033911
 30
0
 40
14.39993999491028
 50
90.48318033710017
 51
109.7730604082001
  0
ARC
  8
0
 62
7
 10
709.511475989
 20
532.3191025916
 30
0
 40
14.39994081164938
 50
90.48318847890013
 51
109.7730600451001
  0
ARC
  8
0
 62
7
 10
766.4659450311
 20
436.2185324979
 30
0
 40
93.00000063923172
 50
300.659263237908
 51
239.340736762092
  0
ARC
  8
0
 62
7
 10
472.220576696
 20
853.4764241984
 30
0
 40
200.0007776113902
 50
264.7645071356
 51
270.000010420257
  0
ARC
  8
0
 62
7
 10
472.2206130697
 20
597.4753930626
 30
0
 40
200.0002510508496
 50
82.09680121610002
 51
90
  0
ARC
  8
0
 62
7
 10
340.7206245366
 20
668.4756617897
 30
0
 40
9.499983436961934
 50
329.9999531185997
 51
30.00004688140035
  0
ARC
  8
0
 62
7
 10
340.7205922419
 20
668.4756907983999
 30
0
 40
9.500025909316713
 50
270.0000686368002
 51
329.9998989895001
  0
ARC
  8
0
 62
7
 10
340.7206039606
 20
668.475642637
 30
0
 40
9.499977747925142
 50
209.9999333088998
 51
269.9999979598
  0
ARC
  8
0
 62
7
 10
340.7205438606
 20
668.4756617897
 30
0
 40
9.499935276125493
 50
149.9997854173002
 51
210.0002145826998
  0
ARC
  8
0
 62
7
 10
340.7206002354
 20
668.4757022957
 30
0
 40
9.499963845052925
 50
89.99997957249998
 51
150.0001669893001
  0
ARC
  8
0
 62
7
 10
340.7205959672
 20
668.4756541344999
 30
0
 40
9.500012006279398
 50
30.00000071230026
 51
89.99995383090028
  0
ARC
  8
0
 62
7
 10
426.220614576213
 20
565.218535971169
 30
0
 40
7.000003650732059
 50
90.00003062632149
 51
179.9758013131056
  0
ARC
  8
0
 62
7
 10
49.22061306970001
 20
396.9125951269
 30
0
 40
4.999999999999914
 50
98.53076560990029
 51
180
  0
ARC
  8
0
 62
7
 10
49.22061306970001
 20
475.5244693350001
 30
0
 40
5.000000000000028
 50
180
 51
261.4692343901002
  0
ARC
  8
0
 62
7
 10
123.2471531379
 20
470.1817270020999
 30
0
 40
2.902478033605179
 50
228.7167987959008
 51
264.0528597884001
  0
ARC
  8
0
 62
7
 10
125.9029005996
 20
482.4601495507
 30
0
 40
15.4507747944804
 50
258.9685340008999
 51
271.3769471235999
  0
ARC
  8
0
 62
7
 10
129.3637334553
 20
470.9547996225999
 30
0
 40
3.63241762953003
 50
275.3837488523996
 51
308.4648450828
  0
ARC
  8
0
 62
7
 10
137.7629343271
 20
474.9595889379
 30
0
 40
7.748604669038234
 50
240.6698968548006
 51
259.5949411867001
  0
ARC
  8
0
 62
7
 10
141.2199014305
 20
474.9583238922999
 30
0
 40
7.747275972895216
 50
280.4033469786999
 51
299.3316573998001
  0
ARC
  8
0
 62
7
 10
151.6831689033
 20
467.1253060771999
 30
0
 40
1.058158186831059
 50
83.7930855717981
 51
116.2181029994012
  0
ARC
  8
0
 62
7
 10
152.7489901001
 20
450.6376061813999
 30
0
 40
17.55436802992603
 50
88.22130628539998
 51
90.12082653050014
  0
ARC
  8
0
 62
7
 10
155.6733005325
 20
467.1252046529999
 30
0
 40
1.058257082119164
 50
83.79464241690111
 51
116.2165461542976
  0
ARC
  8
0
 62
7
 10
156.5795894263
 20
446.8694264051001
 30
0
 40
21.32254513192656
 50
89.89419075120009
 51
92.12840128079998
  0
ARC
  8
0
 62
7
 10
157.3253128628
 20
467.8043131227
 30
0
 40
0.3814493963765714
 50
61.10893202379543
 51
96.22136179140337
  0
ARC
  8
0
 62
7
 10
162.3235079917
 20
467.1250800882999
 30
0
 40
1.05838112973051
 50
83.79526542240106
 51
116.2149190079994
  0
ARC
  8
0
 62
7
 10
163.3892912861
 20
450.6360873008
 30
0
 40
17.55588686090604
 50
88.22138846059987
 51
90.12074435540011
  0
ARC
  8
0
 62
7
 10
166.3136058005
 20
467.1253060771999
 30
0
 40
1.058158186831055
 50
83.79308557179964
 51
116.2181029994012
  0
ARC
  8
0
 62
7
 10
167.2198852148
 20
446.8709771133999
 30
0
 40
21.32099447686258
 50
89.89410949500018
 51
92.12848253700017
  0
ARC
  8
0
 62
7
 10
167.9656360249
 20
467.8043131227
 30
0
 40
0.3814493963765714
 50
61.10893202379543
 51
96.22136179140337
  0
ARC
  8
0
 62
7
 10
173.8711217776
 20
398.1063735659
 30
0
 40
7.030978658275598
 50
60.3847182324999
 51
84.11151134329975
  0
ARC
  8
0
 62
7
 10
169.1885409822
 20
371.6142000621999
 30
0
 40
32.48007897562707
 50
80.42281767050007
 51
90.81426174929999
  0
ARC
  8
0
 62
7
 10
173.8470759114
 20
396.8487212558998
 30
0
 40
6.833634656256471
 50
59.20529868810072
 51
83.73805307100042
  0
ARC
  8
0
 62
7
 10
172.0289392901
 20
398.9069696300999
 30
0
 40
4.464527524811602
 50
58.62938092050103
 51
84.74549332189923
  0
ARC
  8
0
 62
7
 10
167.2200661291
 20
449.3157139662999
 30
0
 40
20.37501403302688
 50
89.88970189919994
 51
92.22786252620007
  0
ARC
  8
0
 62
7
 10
166.3140289064
 20
468.6634546210999
 30
0
 40
1.018272272176035
 50
83.57290500820125
 51
117.3554809233971
  0
ARC
  8
0
 62
7
 10
163.3887952952
 20
452.8882374401001
 30
0
 40
16.80249245228965
 50
88.13991905059993
 51
90.12446701819975
  0
ARC
  8
0
 62
7
 10
162.3239311139
 20
468.6632385389
 30
0
 40
1.018485212468078
 50
83.57515696229784
 51
117.3521808216983
  0
ARC
  8
0
 62
7
 10
163.647200694303
 20
401.4990919326999
 30
0
 40
68.22032212879381
 50
89.68916269550252
 51
91.50455495210247
  0
ARC
  8
0
 62
7
 10
164.478741634
 20
437.8109382531
 30
0
 40
31.91080830957244
 50
87.6935404047999
 51
90.82854030269991
  0
ARC
  8
0
 62
7
 10
167.554195752303
 20
401.4990919326999
 30
0
 40
68.22032212879381
 50
89.68916269550253
 51
91.50455495210247
  0
ARC
  8
0
 62
7
 10
168.3136492621018
 20
316.7327536491999
 30
0
 40
152.9861519329642
 50
89.58543165050065
 51
90.14581834770067
  0
ARC
  8
0
 62
7
 10
169.5406341925
 20
468.1948965540998
 30
0
 40
1.524737810184906
 50
75.61807235879917
 51
94.51587256529987
  0
ARC
  8
0
 62
7
 10
156.5797703666
 20
449.314231415
 30
0
 40
20.37649652886838
 50
89.88978696770018
 51
92.22777745780017
  0
ARC
  8
0
 62
7
 10
155.6737236696
 20
468.6633575665001
 30
0
 40
1.018366710686015
 50
83.57451843480141
 51
117.3538674968079
  0
ARC
  8
0
 62
7
 10
152.748494160202
 20
452.8896916378999
 30
0
 40
16.80103830584226
 50
88.13983315970683
 51
90.1245529091068
  0
ARC
  8
0
 62
7
 10
151.6835920091
 20
468.6634546210999
 30
0
 40
1.018272272176035
 50
83.57290500820125
 51
117.3554809233971
  0
ARC
  8
0
 62
7
 10
153.0068713221
 20
401.5020589302999
 30
0
 40
68.21735520854556
 50
89.68914396040007
 51
91.50459014629996
  0
ARC
  8
0
 62
7
 10
153.8384279457
 20
437.8116727702
 30
0
 40
31.91007400624903
 50
87.69350432499994
 51
90.8285763824
  0
ARC
  8
0
 62
7
 10
156.913872590303
 20
401.4990919326999
 30
0
 40
68.22032212879381
 50
89.68916269550252
 51
91.50455495210247
  0
ARC
  8
0
 62
7
 10
157.6733261000018
 20
316.7327536491999
 30
0
 40
152.9861519329642
 50
89.58543165050065
 51
90.14581834770067
  0
ARC
  8
0
 62
7
 10
158.9003110304
 20
468.1948965540998
 30
0
 40
1.524737810184906
 50
75.61807235879917
 51
94.51587256529987
  0
ARC
  8
0
 62
7
 10
125.9038352405
 20
483.235453129
 30
0
 40
14.78272710492752
 50
258.4596190759
 51
271.4355620074998
  0
ARC
  8
0
 62
7
 10
124.692214355
 20
470.4314988786
 30
0
 40
1.403492386122355
 50
222.1075854880017
 51
268.6810716371991
  0
ARC
  8
0
 62
7
 10
126.1572181773
 20
477.9550354757
 30
0
 40
9.051361309271387
 50
260.4781562961005
 51
271.3900503307999
  0
ARC
  8
0
 62
7
 10
128.049330341
 20
470.7887462228
 30
0
 40
1.722357504731831
 50
271.362217087201
 51
316.6117905414994
  0
ARC
  8
0
 62
7
 10
128.6442079285
 20
468.1946734347998
 30
0
 40
1.556298413307014
 50
65.03788898930037
 51
103.0774539427969
  0
ARC
  8
0
 62
7
 10
129.3456979494
 20
472.329814942
 30
0
 40
3.550844734399905
 50
275.8002474297995
 51
309.8965495133979
  0
ARC
  8
0
 62
7
 10
123.2628138635
 20
471.5757335925
 30
0
 40
2.841826418857282
 50
227.2052915366999
 51
263.607836855101
  0
ARC
  8
0
 62
7
 10
141.1878912365
 20
476.2001581739
 30
0
 40
7.54004377494052
 50
280.9402353697002
 51
300.5023106946996
  0
ARC
  8
0
 62
7
 10
137.8378283611
 20
476.314859913
 30
0
 40
7.660916568663702
 50
239.4788004482006
 51
258.9042398019
  0
ARC
  8
0
 62
7
 10
139.0371446948
 20
474.4117828187
 30
0
 40
5.451280073378667
 50
239.6878473059005
 51
260.9489941042998
  0
ARC
  8
0
 62
7
 10
139.9508082604
 20
474.4102170406
 30
0
 40
5.448857768931277
 50
278.9956016381997
 51
300.3011276677991
  0
ARC
  8
0
 62
7
 10
49.2206518534
 20
764.7816149619998
 30
0
 40
5.000039737513892
 50
180.0004002571992
 51
261.4689245037
  0
ARC
  8
0
 62
7
 10
49.2206518534
 20
686.1696738758001
 30
0
 40
5.000039737513839
 50
98.53107549630005
 51
179.9995997428008
  0
ARC
  8
0
 62
7
 10
167.9088609318
 20
722.7969336607
 30
0
 40
2.588352393594521
 50
89.65822764519945
 51
146.0017050522011
  0
ARC
  8
0
 62
7
 10
153.3615133931
 20
722.7970452471
 30
0
 40
2.588240984278525
 50
89.65756389750021
 51
146.0030211518985
  0
ARC
  8
0
 62
7
 10
153.5108814602
 20
723.6841962642
 30
0
 40
1.706305599789
 50
19.1614525429944
 51
94.50080794119907
  0
ARC
  8
0
 62
7
 10
157.2685377697
 20
722.7969336607
 30
0
 40
2.588352393594521
 50
89.65822764519945
 51
146.0017050522011
  0
ARC
  8
0
 62
7
 10
157.4768073741
 20
723.1209063650999
 30
0
 40
2.272529484340926
 50
55.00043705779842
 51
94.86754889460084
  0
ARC
  8
0
 62
7
 10
164.0018658737
 20
722.7969336607
 30
0
 40
2.588352393594521
 50
89.65822764519945
 51
146.0017050522011
  0
ARC
  8
0
 62
7
 10
168.1171305362
 20
723.1209063650999
 30
0
 40
2.272529484340926
 50
55.00043705779842
 51
94.86754889460084
  0
ARC
  8
0
 62
7
 10
164.1511784196
 20
723.6841561747001
 30
0
 40
1.70634350969307
 50
19.16243530269473
 51
94.49982518150056
  0
ARC
  8
0
 62
7
 10
167.3403695727
 20
722.7110119158999
 30
0
 40
1.401429015966558
 50
93.31663463849863
 51
130.618331889197
  0
ARC
  8
0
 62
7
 10
167.5767071064
 20
722.4695842121
 30
0
 40
1.738687555633791
 50
131.3506879389026
 51
185.5345592360035
  0
ARC
  8
0
 62
7
 10
163.3659691097
 20
723.2076140690999
 30
0
 40
0.9025831216989342
 50
50.98335989380157
 51
90.86797259709731
  0
ARC
  8
0
 62
7
 10
163.5866858775
 20
722.4695126472
 30
0
 40
1.738802393851925
 50
131.3514182081005
 51
185.5318233737064
  0
ARC
  8
0
 62
7
 10
168.4237468288
 20
723.8574777295999
 30
0
 40
1.503087586398213
 50
354.2827026421088
 51
48.45606700750746
  0
ARC
  8
0
 62
7
 10
156.7000828309
 20
722.7109216251999
 30
0
 40
1.401521262880288
 50
93.31790749580102
 51
130.6170590318988
  0
ARC
  8
0
 62
7
 10
156.9365096331
 20
722.4695345564999
 30
0
 40
1.738807870408109
 50
131.3527159609009
 51
185.5325312138956
  0
ARC
  8
0
 62
7
 10
152.7256717892
 20
723.2076888033998
 30
0
 40
0.9025087878535548
 50
50.98164765750866
 51
90.86968483340125
  0
ARC
  8
0
 62
7
 10
152.9462702092
 20
722.4695842121
 30
0
 40
1.738687555633791
 50
131.3506879389026
 51
185.5345592360035
  0
ARC
  8
0
 62
7
 10
157.7834236667
 20
723.8574777295999
 30
0
 40
1.503087586398213
 50
354.2827026421088
 51
48.45606700750666
  0
ARC
  8
0
 62
7
 10
144.082258379
 20
726.9677070929999
 30
0
 40
10.21656894507419
 50
139.0703487251
 51
187.0097119823002
  0
ARC
  8
0
 62
7
 10
134.7080946867
 20
724.4412472366
 30
0
 40
10.41113632782312
 50
319.4499916070988
 51
7.060197201900451
  0
ARC
  8
0
 62
7
 10
145.5292697352
 20
726.8690776599999
 30
0
 40
9.335833538387195
 50
141.9297427915996
 51
187.0644593143996
  0
ARC
  8
0
 62
7
 10
145.5325918519
 20
724.4864054786999
 30
0
 40
9.350135310865305
 50
172.4130992166994
 51
218.1490631429999
  0
ARC
  8
0
 62
7
 10
133.4712316011
 20
724.4850270371999
 30
0
 40
9.332422534582657
 50
321.7762414697006
 51
7.609923552300512
  0
ARC
  8
0
 62
7
 10
133.6527015866
 20
726.9199808876999
 30
0
 40
9.147686529148322
 50
352.4679914031008
 51
38.5901549156001
  0
ARC
  8
0
 62
7
 10
127.2863837719
 20
721.2454957718001
 30
0
 40
3.650115039048427
 50
174.8535339895022
 51
223.9819358008005
  0
ARC
  8
0
 62
7
 10
126.2037874084
 20
720.5025935094
 30
0
 40
2.365227103213099
 50
229.2515703761006
 51
274.1946824310996
  0
ARC
  8
0
 62
7
 10
124.4188595735
 20
722.1667185439001
 30
0
 40
4.91420303683072
 50
318.3400952247991
 51
6.548850460899069
  0
ARC
  8
0
 62
7
 10
124.7396951031
 20
723.2885172391
 30
0
 40
4.595712350961858
 50
352.9842239177993
 51
39.37813027499948
  0
ARC
  8
0
 62
7
 10
127.0432459761
 20
723.4268256517
 30
0
 40
3.361118649627575
 50
92.79142340699958
 51
156.7381249658016
  0
ARC
  8
0
 62
7
 10
127.2766024046
 20
724.1166897621999
 30
0
 40
4.308575163641106
 50
88.54877332650018
 51
138.4024283901986
  0
ARC
  8
0
 62
7
 10
125.6769375042
 20
723.2558305197999
 30
0
 40
5.969739556932646
 50
354.9195616518999
 51
43.47604193789971
  0
ARC
  8
0
 62
7
 10
125.2068926986
 20
722.2715416302999
 30
0
 40
6.432489348652235
 50
314.3636190706998
 51
4.061928858300594
  0
ARC
  8
0
 62
7
 10
125.9681760777
 20
720.9814587061001
 30
0
 40
4.621316030022257
 50
229.1658259486006
 51
273.7967114752001
  0
ARC
  8
0
 62
7
 10
126.8007807449
 20
721.3696810696999
 30
0
 40
5.472401686390253
 50
177.8716240714008
 51
225.2248961599005
  0
CIRCLE
  8
0
 62
7
 10
451.4706109239
 20
549.718532231
 30
0
 40
2.499999999999943
  0
CIRCLE
  8
0
 62
7
 10
396.1562125664
 20
467.1528754693
 30
0
 40
1.25
  0
CIRCLE
  8
0
 62
7
 10
340.7206142343
 20
782.4756417799
 30
0
 40
5.999998104719282
  0
CIRCLE
  8
0
 62
7
 10
472.2206133664
 20
725.4756482755
 30
0
 40
46.00000368716746
  0
CIRCLE
  8
0
 62
7
 10
766.4659440168
 20
436.2185328647
 30
0
 40
52.00000237810605
  0
CIRCLE
  8
0
 62
7
 10
766.4659430083
 20
436.2185363637
 30
0
 40
50.00000198099281
  0
CIRCLE
  8
0
 62
7
 10
766.4659448171
 20
436.2185340003
 30
0
 40
42.49999887704848
  0
CIRCLE
  8
0
 62
7
 10
766.4659433476001
 20
436.2185337954
 30
0
 40
41.99999902025354
  0
CIRCLE
  8
0
 62
7
 10
766.4659430053
 20
436.2185301019
 30
0
 40
41.49999970066074
  0
CIRCLE
  8
0
 62
7
 10
766.4659422316
 20
436.2185280177
 30
0
 40
33.99999850286542
  0
CIRCLE
  8
0
 62
7
 10
766.4659434092
 20
436.2185316159
 30
0
 40
33.4999989875439
  0
CIRCLE
  8
0
 62
7
 10
766.465942985
 20
436.2185301176
 30
0
 40
32.99999916223419
  0
CIRCLE
  8
0
 62
7
 10
766.4659441588
 20
436.2185331221
 30
0
 40
27.00000002098022
  0
CIRCLE
  8
0
 62
7
 10
766.4659435517
 20
436.2185327569
 30
0
 40
25.00000015201056
  0
CIRCLE
  8
0
 62
7
 10
817.3156460236
 20
486.4834105656
 30
0
 40
9.500003029032882
  0
CIRCLE
  8
0
 62
7
 10
817.3156467364
 20
385.9536524478
 30
0
 40
9.50000302903311
  0
CIRCLE
  8
0
 62
7
 10
715.616241102
 20
486.4834098479
 30
0
 40
9.500002115605525
  0
CIRCLE
  8
0
 62
7
 10
715.6162407456
 20
385.9536535218
 30
0
 40
9.500002115605412
  0
CIRCLE
  8
1
 62
2
  6
DASHDOT
 10
766.4659435379733
 20
436.2185323599345
 30
0
 40
71.5000002205386
  0
CIRCLE
  8
0
 62
7
 10
340.7206142343
 20
668.4756600521999
 30
0
 40
5.999998104719282
  0
CIRCLE
  8
1
 62
7
 10
419.8947538255
 20
673.1497428435
 30
0
 40
9.499959225977023
  0
CIRCLE
  8
1
 62
7
 10
419.8947538255
 20
777.8015478568925
 30
0
 40
9.499959225977023
  0
CIRCLE
  8
1
 62
7
 10
524.7367065518
 20
673.1497428435
 30
0
 40
9.499959225977023
  0
CIRCLE
  8
1
 62
7
 10
524.7367065518
 20
777.8015478568925
 30
0
 40
9.499959225977023
  0
LINE
  8
1
 62
2
 10
849.2379403523
 20
503.8127618509
 30
0
 11
840.0218946026
 21
503.8127618509
 31
0
  0
LINE
  8
1
 62
2
 10
840.0218946026
 20
503.8127618509
 30
0
 11
825.9601893865
 21
490.4231983262003
 31
0
  0
LINE
  8
1
 62
2
 10
827.6863621304832
 20
493.2508345439462
 30
0
 11
825.9601893865
 21
490.4231983262003
 31
0
  0
LINE
  8
1
 62
2
 10
828.8689169429827
 20
492.0089167514377
 30
0
 11
825.9601893865
 21
490.4231983262003
 31
0
  0
DIMENSION
  8
1
  6
CONTINUOUS
 62
2
  2
*D0
  3
DMST_1
 10
609.2206109239
 20
356.2185340191
 30
0
 11
606.6206109239
 21
464.7185303832
 31
0
 12
0
 22
0
 32
0
 70
0
 13
509.2206114008
 23
573.2185267473
 33
0
 14
512.2206100298999
 24
356.2185340191
 34
0
 50
90
 53
0
  0
DIMENSION
  8
1
  6
CONTINUOUS
 62
2
  2
*D1
  3
DMST_1
 10
597.2206109239
 20
356.2185340191
 30
0
 11
594.6206109239
 21
396.21853312505
 31
0
 12
0
 22
0
 32
0
 70
0
 13
596.0202060411
 23
436.218532231
 33
0
 14
512.2206100298999
 24
356.2185340191
 34
0
 50
90
 53
0
  0
DIMENSION
  8
1
  6
CONTINUOUS
 62
2
  2
*D2
  3
DMST_1
 10
472.2206130697
 20
334.8093198761
 30
0
 11
407.2206119968
 21
337.4093198761
 31
0
 12
0
 22
0
 32
0
 70
0
 13
342.2206109239
 23
399.718532231
 33
0
 14
472.2206130697
 24
340.7185311106
 34
0
 53
0
  0
DIMENSION
  8
1
  6
CONTINUOUS
 62
2
  2
*D3
  3
DMST_1
 10
27.22061807650002
 20
326.0218107014
 30
0
 11
183.2206145002
 21
328.6218107014
 31
0
 12
0
 22
0
 32
0
 70
0
 13
339.2206109239
 23
399.968532231
 33
0
 14
27.2206180765
 24
386.2185314859
 34
0
 53
0
  0
DIMENSION
  8
1
  6
CONTINUOUS
 62
2
  2
*D4
  3
DMST_1
 10
27.22061807650005
 20
314.0218107014
 30
0
 11
307.2206155433
 21
316.6218107014
 31
0
 12
0
 22
0
 32
0
 70
0
 13
587.2206130101
 23
386.2185314859
 33
0
 14
27.2206180765
 24
386.2185314859
 34
0
 53
0
  0
DIMENSION
  8
1
  6
CONTINUOUS
 62
2
  2
*D5
  3
DMST_1
 10
472.2206130697
 20
334.8093198761
 30
0
 11
529.7206130398999
 21
337.4093198761
 31
0
 12
0
 22
0
 32
0
 70
0
 13
587.2206130101
 23
386.2185314859
 33
0
 14
472.2206130697
 24
340.7185311106
 34
0
 53
0
  0
DIMENSION
  8
1
  6
CONTINUOUS
 62
2
  2
*D6
  3
DMST_1
 10
342.2206109239
 20
326.0218107014
 30
0
 11
464.720611967
 21
328.6218107014
 31
0
 12
0
 22
0
 32
0
 70
0
 13
587.2206130101
 23
386.2185314859
 33
0
 14
342.2206109239
 24
399.718532231
 34
0
 53
0
  0
DIMENSION
  8
1
  6
CONTINUOUS
 62
2
  2
*D7
  3
DMST_2
 10
609.2206109239
 20
632.4756450075
 30
0
 11
606.9206109239001
 21
725.4756472128499
 31
0
 12
0
 22
0
 32
0
 70
0
 13
585.2206185533
 23
818.4756494182
 33
0
 14
585.2206185533
 24
632.4756450075
 34
0
 50
90
 53
0
  0
DIMENSION
  8
1
  6
CONTINUOUS
 62
2
  2
*D8
  3
DMST_3
 10
684.7309939751528
 20
391.8519020784167
 30
0
 11
886.2960492665446
 21
504.2219738359823
 31
0
 12
0
 22
0
 32
0
 70
3
  1
D1
 15
848.2008960870471
 25
480.5851629173833
 35
0
 40
0
 53
0
  0
DIMENSION
  8
1
  6
CONTINUOUS
 62
2
  2
*D9
  3
DMST_3
 10
698.1398267272334
 20
415.1521659646081
 30
0
 11
891.8324479424421
 21
477.5924146762625
 31
0
 12
0
 22
0
 32
0
 70
3
  1
D2
 15
834.7920603487132
 25
457.2848987552609
 35
0
 40
0
 53
0
  0
DIMENSION
  8
1
  6
CONTINUOUS
 62
2
  2
*D10
  3
DMST_3
 10
718.1284693423405
 20
449.00481172801
 30
0
 11
893.7695930157424
 21
405.2334764270435
 31
0
 12
0
 22
0
 32
0
 70
3
  1
D3
 15
814.8034166742594
 25
423.4322609993902
 35
0
 40
0
 53
0
  0
ENDSEC
  0
EOF
