  0
SECTION
  2
HEADER
  9
$ACADVER
  1
AC1009
  9
$INSBASE
 10
0
 20
0
  9
$EXTMIN
 10
-3.8165718616
 20
222.9674976727387
  9
$EXTMAX
 10
945.4878486238786
 20
938.2718710994
  9
$LIMMIN
 10
-3.8165718616
 20
222.9674976727387
  9
$LIMMAX
 10
945.4878486238786
 20
938.2718710994
  9
$VIEWCTR
 10
10
 20
10
  9
$VIEWSIZE
 40
10
  9
$SNAPMODE
 70
0
  9
$SNAPUNIT
 10
1
 20
1
  9
$SNAPBASE
 10
0
 20
0
  9
$SNAPANG
 50
0
  9
$SNAPSTYLE
 70
0
  9
$SNAPISOPAIR
 70
0
  9
$GRIDMODE
 70
0
  9
$GRIDUNIT
 10
0
 20
0
  9
$ORTHOMODE
 70
0
  9
$REGENMODE
 70
1
  9
$FILLMODE
 70
1
  9
$QTEXTMODE
 70
0
  9
$DRAGMODE
 70
2
  9
$LTSCALE
 40
1
  9
$OSMODE
 70
0
  9
$ATTMODE
 70
1
  9
$TEXTSIZE
 40
3.5
  9
$TRACEWID
 40
0.5
  9
$TEXTSTYLE
  7
STANDARD
  9
$CLAYER
  8
0
  9
$CELTYPE
  6
BYLAYER
  9
$CECOLOR
 62
256
  9
$DIMSCALE
 40
1
  9
$DIMASZ
 40
0.18
  9
$DIMEXO
 40
0.0625
  9
$DIMDLI
 40
0.38
  9
$DIMRND
 40
0
  9
$DIMDLE
 40
0
  9
$DIMEXE
 40
0.18
  9
$DIMTP
 40
0
  9
$DIMTM
 40
0
  9
$DIMTXT
 40
0.18
  9
$DIMCEN
 40
0.09
  9
$DIMTSZ
 40
0
  9
$DIMTOL
 70
0
  9
$DIMLIM
 70
0
  9
$DIMTIH
 70
1
  9
$DIMTOH
 70
1
  9
$DIMSE1
 70
0
  9
$DIMSE2
 70
0
  9
$DIMTAD
 70
0
  9
$DIMZIN
 70
0
  9
$DIMBLK
  1

  9
$DIMASO
 70
1
  9
$DIMSHO
 70
1
  9
$DIMPOST
  1

  9
$DIMAPOST
  1

  9
$DIMALT
 70
0
  9
$DIMALTD
 70
2
  9
$DIMALTF
 40
25.4
  9
$DIMLFAC
 40
1
  9
$DIMTOFL
 70
0
  9
$DIMTVP
 40
0
  9
$DIMTIX
 70
0
  9
$DIMSOXD
 70
0
  9
$DIMSAH
 70
0
  9
$DIMBLK1
  1

  9
$DIMBLK2
  1

  9
$DIMSTYLE
  2
*UNNAMED
  9
$DIMCLRD
 70
0
  9
$DIMCLRE
 70
0
  9
$DIMCLRT
 70
0
  9
$DIMTFAC
 40
1
  9
$DIMGAP
 40
0.09
  9
$LUNITS
 70
2
  9
$LUPREC
 70
4
  9
$AXISMODE
 70
0
  9
$AXISUNIT
 10
0
 20
0
  9
$SKETCHINC
 40
0.1
  9
$FILLETRAD
 40
2
  9
$AUNITS
 70
0
  9
$AUPREC
 70
0
  9
$MENU
  1
ACAD
  9
$ELEVATION
 40
0
  9
$THICKNESS
 40
0
  9
$VIEWDIR
 10
0
 20
0
 30
1
  9
$LIMCHECK
 70
0
  9
$BLIPMODE
 70
1
  9
$CHAMFERA
 40
0
  9
$CHAMFERB
 40
0
  9
$FASTZOOM
 70
1
  9
$SKPOLY
 70
0
  9
$ANGBASE
 50
0
  9
$ANGDIR
 70
0
  9
$PDMODE
 70
0
  9
$PDSIZE
 40
0
  9
$PLINEWID
 40
0
  9
$COORDS
 70
2
  0
ENDSEC
  0
SECTION
  2
TABLES
  0
TABLE
  2
DIMSTYLE
 70
2
  0
DIMSTYLE
  2
DMST_1
 70
0
  3

  4

  5

  6

  7

 40
1
 41
3.200000000000001
 42
0.5
 43
7
 44
1.5
 45
0
 46
0
 47
0
 48
0
140
3.200000000000001
141
0
142
0
143
25.4
144
1
145
0
146
1
147
0.09
 71
0
 72
0
 73
0
 74
0
 75
0
 76
0
 77
1
 78
9
170
0
171
2
172
0
173
0
174
0
175
0
176
2
177
2
178
2
  0
DIMSTYLE
  2
DMST_2
 70
0
  3

  4

  5

  6

  7

 40
1
 41
3.200000000000001
 42
0.5
 43
7
 44
1.5
 45
0
 46
0
 47
0
 48
0
140
3.200000000000001
141
0
142
0
143
25.4
144
1
145
0
146
1
147
0.09
 71
0
 72
0
 73
0
 74
0
 75
0
 76
0
 77
1
 78
9
170
0
171
2
172
1
173
0
174
0
175
0
176
2
177
2
178
2
  0
ENDTAB
  0
TABLE
  2
LTYPE
 70
9
  0
LTYPE
  2
CONTINUOUS
 70
64
  3
Solid line
 72
65
 73
0
 40
0
  0
LTYPE
  2
BORDER
 70
64
  3
__ __ . __ __ .
 72
65
 73
6
 40
43.71796673288388
 49
12.49084763796682
 49
-6.245423818983412
 49
12.49084763796682
 49
-6.245423818983412
 49
0
 49
-6.245423818983412
  0
LTYPE
  2
CENTER
 70
64
  3
____ _ ____ _
 72
65
 73
4
 40
49.96339055186729
 49
31.22711909491706
 49
-6.245423818983412
 49
6.245423818983412
 49
-6.245423818983412
  0
LTYPE
  2
DASHDOT
 70
64
  3
__ . __ . __ .
 72
65
 73
4
 40
24.98169527593365
 49
12.49084763796682
 49
-6.245423818983412
 49
0
 49
-6.245423818983412
  0
LTYPE
  2
DASHED
 70
64
  3
__ __ __ __ __
 72
65
 73
2
 40
18.73627145695023
 49
12.49084763796682
 49
-6.245423818983412
  0
LTYPE
  2
DIVIDE
 70
64
  3
__ . . __ . . 
 72
65
 73
6
 40
31.22711909491706
 49
12.49084763796682
 49
-6.245423818983412
 49
0
 49
-6.245423818983412
 49
0
 49
-6.245423818983412
  0
LTYPE
  2
DOT
 70
64
  3
..............
 72
65
 73
4
 40
12.49084763796682
 49
0
 49
-6.245423818983412
 49
0
 49
-6.245423818983412
  0
LTYPE
  2
HIDDEN
 70
64
  3
_ _ _ _ _ _ _
 72
65
 73
2
 40
9.368135728475117
 49
6.245423818983412
 49
-3.122711909491706
  0
LTYPE
  2
PHANTOM
 70
64
  3
_____ _ _ _____ _ _ 
 72
65
 73
6
 40
62.45423818983412
 49
31.22711909491706
 49
-6.245423818983412
 49
6.245423818983412
 49
-6.245423818983412
 49
6.245423818983412
 49
-6.245423818983412
  0
ENDTAB
  0
TABLE
  2
LAYER
 70
3
  0
LAYER
  2
0
 70
0
 62
7
  6
CONTINUOUS
  0
LAYER
  2
1
 70
0
 62
7
  6
CONTINUOUS
  0
ENDTAB
  0
TABLE
  2
STYLE
 70
4
  0
STYLE
  2
STANDARD
 70
0
 40
0
 41
1
 50
0
 71
0
 42
3.5
  3
txt
  4

  0
STYLE
  2
SIMPLEX
 70
0
 40
0
 41
1
 50
0
 71
0
 42
3.5
  3
simplex
  4

  0
STYLE
  2
COMPLEX
 70
0
 40
0
 41
1
 50
0
 71
0
 42
3.5
  3
complex
  4

  0
STYLE
  2
ITALIC
 70
0
 40
0
 41
1
 50
0
 71
0
 42
3.5
  3
italic
  4

  0
ENDTAB
  0
TABLE
  2
VIEW
 70
0
  0
ENDTAB
  0
ENDSEC
  0
SECTION
  2
BLOCKS
  0
BLOCK
  8
1
  2
*D0
 70
1
 10
0
 20
0
 30
0
  0
LINE
  8
1
 62
2
 10
609.7435544236
 20
719.462758392
 30
0
 11
609.7435544236
 21
905.4627628027
 31
0
  0
LINE
  8
1
 62
2
 10
583.8106526312999
 20
905.4627628027
 30
0
 11
611.2435544236
 21
905.4627628027
 31
0
  0
LINE
  8
1
 62
2
 10
583.8106526312999
 20
719.462758392
 30
0
 11
611.2435544236
 21
719.462758392
 31
0
  0
LINE
  8
1
 62
2
 10
609.7435544236
 20
905.4627628027
 30
0
 11
610.6075544236001
 21
902.2627628027
 31
0
  0
LINE
  8
1
 62
2
 10
609.7435544236
 20
905.4627628027
 30
0
 11
608.8795544236
 21
902.2627628027
 31
0
  0
LINE
  8
1
 62
2
 10
609.7435544236
 20
719.462758392
 30
0
 11
608.8795544236
 21
722.662758392
 31
0
  0
LINE
  8
1
 62
2
 10
609.7435544236
 20
719.462758392
 30
0
 11
610.6075544236001
 21
722.662758392
 31
0
  0
TEXT
  8
1
 62
2
 10
608.7435544236
 20
808.6740418894602
 30
0
 40
3.200000000000001
  1
186
 50
90
 41
0.9
 51
15
  0
ENDBLK
  8
0
  0
BLOCK
  8
1
  2
*D1
 70
1
 10
0
 20
0
 30
0
  0
LINE
  8
1
 62
2
 10
10.31063880299996
 20
334.4719758709
 30
0
 11
585.3106566844
 21
334.4719758709
 31
0
  0
LINE
  8
1
 62
2
 10
585.3106566844
 20
407.9300608692
 30
0
 11
585.3106566844
 21
332.9719758709
 31
0
  0
LINE
  8
1
 62
2
 10
10.31063880299996
 20
407.9300608692
 30
0
 11
10.31063880299996
 21
332.9719758709
 31
0
  0
LINE
  8
1
 62
2
 10
10.31063880299996
 20
334.4719758709
 30
0
 11
13.51063880299996
 21
335.3359758709
 31
0
  0
LINE
  8
1
 62
2
 10
10.31063880299996
 20
334.4719758709
 30
0
 11
13.51063880299996
 21
333.6079758709
 31
0
  0
LINE
  8
1
 62
2
 10
585.3106566844
 20
334.4719758709
 30
0
 11
582.1106566843999
 21
333.6079758709
 31
0
  0
LINE
  8
1
 62
2
 10
585.3106566844
 20
334.4719758709
 30
0
 11
582.1106566843999
 21
335.3359758709
 31
0
  0
TEXT
  8
1
 62
2
 10
293.5419290358102
 20
335.4719758709
 30
0
 40
3.200000000000001
  1
575
 41
0.9
 51
15
  0
ENDBLK
  8
0
  0
BLOCK
  8
1
  2
*D2
 70
1
 10
0
 20
0
 30
0
  0
LINE
  8
1
 62
2
 10
10.31063880299999
 20
342.4798565309
 30
0
 11
312.310654777
 21
342.4798565309
 31
0
  0
LINE
  8
1
 62
2
 10
312.310654777
 20
413.5602038559999
 30
0
 11
312.310654777
 21
340.9798565309
 31
0
  0
LINE
  8
1
 62
2
 10
10.31063880299999
 20
407.9300608692
 30
0
 11
10.31063880299999
 21
340.9798565309
 31
0
  0
LINE
  8
1
 62
2
 10
10.31063880299999
 20
342.4798565309
 30
0
 11
13.51063880299999
 21
343.3438565308999
 31
0
  0
LINE
  8
1
 62
2
 10
10.31063880299999
 20
342.4798565309
 30
0
 11
13.51063880299999
 21
341.6158565309
 31
0
  0
LINE
  8
1
 62
2
 10
312.310654777
 20
342.4798565309
 30
0
 11
309.110654777
 21
341.6158565309
 31
0
  0
LINE
  8
1
 62
2
 10
312.310654777
 20
342.4798565309
 30
0
 11
309.110654777
 21
343.3438565308999
 31
0
  0
TEXT
  8
1
 62
2
 10
157.0419280821102
 20
343.4798565309
 30
0
 40
3.200000000000001
  1
302
 41
0.9
 51
15
  0
ENDBLK
  8
0
  0
BLOCK
  8
1
  2
*D3
 70
1
 10
0
 20
0
 30
0
  0
LINE
  8
1
 62
2
 10
315.3106459556
 20
342.4798565309
 30
0
 11
585.3106566844
 21
342.4798565309
 31
0
  0
LINE
  8
1
 62
2
 10
585.3106566844
 20
407.9300608692
 30
0
 11
585.3106566844
 21
340.9798565309
 31
0
  0
LINE
  8
1
 62
2
 10
315.3106459556
 20
413.5602038559999
 30
0
 11
315.3106459556
 21
340.9798565309
 31
0
  0
LINE
  8
1
 62
2
 10
315.3106459556
 20
342.4798565309
 30
0
 11
318.5106459556
 21
343.3438565308999
 31
0
  0
LINE
  8
1
 62
2
 10
315.3106459556
 20
342.4798565309
 30
0
 11
318.5106459556
 21
341.6158565309
 31
0
  0
LINE
  8
1
 62
2
 10
585.3106566844
 20
342.4798565309
 30
0
 11
582.1106566843999
 21
341.6158565309
 31
0
  0
LINE
  8
1
 62
2
 10
585.3106566844
 20
342.4798565309
 30
0
 11
582.1106566843999
 21
343.3438565308999
 31
0
  0
TEXT
  8
1
 62
2
 10
454.0419339234102
 20
343.4798565309
 30
0
 40
3.200000000000001
  1
270
 41
0.9
 51
15
  0
ENDBLK
  8
0
  0
BLOCK
  8
1
  2
*D4
 70
1
 10
0
 20
0
 30
0
  0
LINE
  8
1
 62
2
 10
458.3106526313
 20
350.1101591825
 30
0
 11
585.3106566844
 21
350.1101591825
 31
0
  0
LINE
  8
1
 62
2
 10
585.3106566844
 20
407.9300608692
 30
0
 11
585.3106566844
 21
348.6101591825
 31
0
  0
LINE
  8
1
 62
2
 10
458.3106526313
 20
353.1013701987999
 30
0
 11
458.3106526313
 21
348.6101591825
 31
0
  0
LINE
  8
1
 62
2
 10
585.3106566844
 20
350.1101591825
 30
0
 11
582.1106566843999
 21
349.2461591825
 31
0
  0
LINE
  8
1
 62
2
 10
585.3106566844
 20
350.1101591825
 30
0
 11
582.1106566843999
 21
350.9741591824999
 31
0
  0
LINE
  8
1
 62
2
 10
458.3106526313
 20
350.1101591825
 30
0
 11
461.5106526313
 21
350.9741591824999
 31
0
  0
LINE
  8
1
 62
2
 10
458.3106526313
 20
350.1101591825
 30
0
 11
461.5106526313
 21
349.2461591825
 31
0
  0
TEXT
  8
1
 62
2
 10
518.0219359499603
 20
351.1101591825
 30
0
 40
3.200000000000001
  1
127
 41
0.9
 51
15
  0
ENDBLK
  8
0
  0
BLOCK
  8
1
  2
*D5
 70
1
 10
0
 20
0
 30
0
  0
LINE
  8
1
 62
2
 10
315.3106459556
 20
350.1101591825
 30
0
 11
458.3106526313
 21
350.1101591825
 31
0
  0
LINE
  8
1
 62
2
 10
458.3106526313
 20
353.1013701987999
 30
0
 11
458.3106526313
 21
348.6101591825
 31
0
  0
LINE
  8
1
 62
2
 10
315.3106459556
 20
413.5602038559999
 30
0
 11
315.3106459556
 21
348.6101591825
 31
0
  0
LINE
  8
1
 62
2
 10
315.3106459556
 20
350.1101591825
 30
0
 11
318.5106459556
 21
350.9741591824999
 31
0
  0
LINE
  8
1
 62
2
 10
315.3106459556
 20
350.1101591825
 30
0
 11
318.5106459556
 21
349.2461591825
 31
0
  0
LINE
  8
1
 62
2
 10
458.3106526313
 20
350.1101591825
 30
0
 11
455.1106526313
 21
349.2461591825
 31
0
  0
LINE
  8
1
 62
2
 10
458.3106526313
 20
350.1101591825
 30
0
 11
455.1106526313
 21
350.9741591824999
 31
0
  0
TEXT
  8
1
 62
2
 10
383.0219305855602
 20
351.1101591825
 30
0
 40
3.200000000000001
  1
143
 41
0.9
 51
15
  0
ENDBLK
  8
0
  0
BLOCK
  8
1
  2
*D6
 70
1
 10
0
 20
0
 30
0
  0
LINE
  8
1
 62
2
 10
605.6439859646
 20
364.4300611076
 30
0
 11
605.6439859646
 21
464.4300625977
 31
0
  0
LINE
  8
1
 62
2
 10
605.3231868809999
 20
464.4300625977
 30
0
 11
604.1439859646
 21
464.4300625977
 31
0
  0
LINE
  8
1
 62
2
 10
508.8106533763
 20
364.4300611076
 30
0
 11
607.1439859646
 21
364.4300611076
 31
0
  0
LINE
  8
1
 62
2
 10
605.6439859646
 20
464.4300625977
 30
0
 11
606.5079859646
 21
461.2300625977
 31
0
  0
LINE
  8
1
 62
2
 10
605.6439859646
 20
464.4300625977
 30
0
 11
604.7799859646
 21
461.2300625977
 31
0
  0
LINE
  8
1
 62
2
 10
605.6439859646
 20
364.4300611076
 30
0
 11
604.7799859646
 21
367.6300611076
 31
0
  0
LINE
  8
1
 62
2
 10
605.6439859646
 20
364.4300611076
 30
0
 11
606.5079859646
 21
367.6300611076
 31
0
  0
TEXT
  8
1
 62
2
 10
604.6439859646
 20
410.6413431447602
 30
0
 40
3.200000000000001
  1
100
 50
90
 41
0.9
 51
15
  0
ENDBLK
  8
0
  0
BLOCK
  8
1
  2
*D7
 70
1
 10
0
 20
0
 30
0
  0
LINE
  8
1
 62
2
 10
613.3209959381001
 20
364.4300611076
 30
0
 11
613.3209959381001
 21
631.0800598321
 31
0
  0
LINE
  8
1
 62
2
 10
495.8106531080999
 20
631.0800598321
 30
0
 11
614.8209959381001
 21
631.0800598321
 31
0
  0
LINE
  8
1
 62
2
 10
508.8106533763
 20
364.4300611076
 30
0
 11
614.8209959381001
 21
364.4300611076
 31
0
  0
LINE
  8
1
 62
2
 10
613.3209959381001
 20
631.0800598321
 30
0
 11
614.1849959381001
 21
627.8800598321
 31
0
  0
LINE
  8
1
 62
2
 10
613.3209959381001
 20
631.0800598321
 30
0
 11
612.4569959381
 21
627.8800598321
 31
0
  0
LINE
  8
1
 62
2
 10
613.3209959381001
 20
364.4300611076
 30
0
 11
612.4569959381
 21
367.6300611075999
 31
0
  0
LINE
  8
1
 62
2
 10
613.3209959381001
 20
364.4300611076
 30
0
 11
614.1849959381001
 21
367.6300611075999
 31
0
  0
TEXT
  8
1
 62
2
 10
612.3209959381001
 20
493.4863417619602
 30
0
 40
3.200000000000001
  1
267
 50
90
 41
0.9
 51
15
  0
ENDBLK
  8
0
  0
BLOCK
  8
1
  2
*D8
 70
1
 10
0
 20
0
 30
0
  0
LINE
  8
1
 62
2
 10
740.2758868621691
 20
436.6715116798759
 30
0
 11
944.1009506924951
 21
517.8767016878982
 31
0
  0
LINE
  8
1
 62
2
 10
879.623837703831
 20
492.1886135155241
 30
0
 11
876.9708599257822
 21
490.2016044795156
 31
0
  0
LINE
  8
1
 62
2
 10
879.623837703831
 20
492.1886135155241
 30
0
 11
876.3313029126356
 21
491.8068928732116
 31
0
  0
LINE
  8
1
 62
2
 10
740.2758868621691
 20
436.6715116798759
 30
0
 11
742.9288646402179
 21
438.6585207158844
 31
0
  0
LINE
  8
1
 62
2
 10
740.2758868621691
 20
436.6715116798759
 30
0
 11
743.5684216533645
 21
437.0532323221884
 31
0
  0
TEXT
  8
1
 62
2
 10
936.6915008367919
 20
516.0011722624087
 30
0
 40
3.200000000000001
  1
150
 50
21.72264888327629
 41
0.9
 51
15
  0
TEXT
  8
1
 62
2
 10
933.1241932952453
 20
514.5799344554162
 30
0
 40
3.200000000000001
  1
%%c
 50
21.72264888327629
 41
0.9
  0
ENDBLK
  8
0
  0
BLOCK
  8
1
  2
*D9
 70
1
 10
0
 20
0
 30
0
  0
LINE
  8
1
 62
2
 10
741.980898808765
 20
447.6902894738462
 30
0
 11
944.6365823187614
 21
497.6014546706321
 31
0
  0
LINE
  8
1
 62
2
 10
877.918825757235
 20
481.1698357215537
 30
0
 11
875.0182897695415
 21
479.565657743867
 31
0
  0
LINE
  8
1
 62
2
 10
877.918825757235
 20
481.1698357215537
 30
0
 11
874.6050565129984
 21
481.2435201564881
 31
0
  0
LINE
  8
1
 62
2
 10
741.980898808765
 20
447.6902894738462
 30
0
 11
744.8814347964585
 21
449.294467451533
 31
0
  0
LINE
  8
1
 62
2
 10
741.980898808765
 20
447.6902894738462
 30
0
 11
745.2946680530016
 21
447.6166050389119
 31
0
  0
TEXT
  8
1
 62
2
 10
937.0398631749716
 20
496.7603743888304
 30
0
 40
3.200000000000001
  1
140
 50
13.83576538084687
 41
0.9
 51
15
  0
TEXT
  8
1
 62
2
 10
933.3112800358136
 20
495.842078263179
 30
0
 40
3.200000000000001
  1
%%c
 50
13.83576538084687
 41
0.9
  0
ENDBLK
  8
0
  0
BLOCK
  8
1
  2
*D10
 70
1
 10
0
 20
0
 30
0
  0
LINE
  8
1
 62
2
 10
754.1411337304077
 20
459.805582373602
 30
0
 11
945.4878486238786
 21
475.6611505243275
 31
0
  0
LINE
  8
1
 62
2
 10
865.7585908355924
 20
469.054542821798
 30
0
 11
862.6408697560446
 21
467.9292378541809
 31
0
  0
LINE
  8
1
 62
2
 10
865.7585908355924
 20
469.054542821798
 30
0
 11
862.4981715091296
 21
469.6513357638038
 31
0
  0
LINE
  8
1
 62
2
 10
754.1411337304077
 20
459.805582373602
 30
0
 11
757.2588548099554
 21
460.930887341219
 31
0
  0
LINE
  8
1
 62
2
 10
754.1411337304077
 20
459.805582373602
 30
0
 11
757.4015530568704
 21
459.2087894315962
 31
0
  0
TEXT
  8
1
 62
2
 10
938.8104334689659
 20
476.1112669544903
 30
0
 40
3.200000000000001
  1
112
 50
4.736879965532495
 41
0.9
 51
15
  0
TEXT
  8
1
 62
2
 10
934.9835492253595
 20
475.7941597391236
 30
0
 40
3.200000000000001
  1
%%c
 50
4.736879965532495
 41
0.9
  0
ENDBLK
  8
0
  0
BLOCK
  8
1
  2
*D11
 70
1
 10
0
 20
0
 30
0
  0
LINE
  8
1
 62
2
 10
809.949862283
 20
464.4300625977
 30
0
 11
941.734342392954
 21
536.5526792978362
 31
0
  0
LINE
  8
1
 62
2
 10
891.5315677100691
 20
509.0778547000077
 30
0
 11
889.1392476564107
 21
506.7836662245629
 31
0
  0
LINE
  8
1
 62
2
 10
891.5315677100691
 20
509.0778547000077
 30
0
 11
888.3096628741228
 21
508.2995069447562
 31
0
  0
TEXT
  8
1
 62
2
 10
934.6071589601745
 20
533.7920970937404
 30
0
 40
3.200000000000001
  1
186
 50
28.69087435508297
 41
0.9
 51
15
  0
TEXT
  8
1
 62
2
 10
931.2386240264116
 20
531.9485753553225
 30
0
 40
3.200000000000001
  1
%%c
 50
28.69087435508297
 41
0.9
  0
ENDBLK
  8
0
  0
ENDSEC
  0
SECTION
  2
ENTITIES
  0
POLYLINE
  8
0
 62
7
 66
1
  0
VERTEX
  8
0
 10
523.5716589866
 20
878.8725868760998
 30
0
  0
VERTEX
  8
0
 10
523.2656338391
 20
879.1909948884997
 30
0
  0
VERTEX
  8
0
 10
517.7223012922
 20
883.7670744358998
 30
0
  0
VERTEX
  8
0
 10
511.8527562497
 20
887.4114663302997
 30
0
  0
VERTEX
  8
0
 10
506.593618649
 20
890.1529596149998
 30
0
  0
VERTEX
  8
0
 10
501.423869389
 20
892.8716019689998
 30
0
  0
VERTEX
  8
0
 10
495.8798104105
 20
895.5932841598998
 30
0
  0
VERTEX
  8
0
 10
490.1920446334
 20
897.9027480780998
 30
0
  0
VERTEX
  8
0
 10
484.4334853021
 20
899.7874767481998
 30
0
  0
VERTEX
  8
0
 10
475.6947980401
 20
901.8654138743998
 30
0
  0
VERTEX
  8
0
 10
471.3010332686
 20
902.4750725328997
 30
0
  0
SEQEND
  8
0
  0
POLYLINE
  8
0
 62
7
 66
1
  0
VERTEX
  8
0
 10
874.0146630223001
 20
555.1677705106
 30
0
  0
VERTEX
  8
0
 10
873.9583440836001
 20
556.0434595999
 30
0
  0
VERTEX
  8
0
 10
873.9507072385001
 20
556.469722217
 30
0
  0
SEQEND
  8
0
  0
POLYLINE
  8
0
 62
7
 66
1
  0
VERTEX
  8
0
 10
900.4125171120001
 20
504.4300617036
 30
0
  0
VERTEX
  8
0
 10
899.8410128768001
 20
508.997889733
 30
0
  0
VERTEX
  8
0
 10
898.8340222056
 20
514.4300633428001
 30
0
  0
SEQEND
  8
0
  0
POLYLINE
  8
0
 62
7
 66
1
  0
VERTEX
  8
0
 10
731.7769774015
 20
596.5422825274
 30
0
  0
VERTEX
  8
0
 10
728.970142525
 20
595.4383449015001
 30
0
  0
VERTEX
  8
0
 10
728.9498620446
 20
595.4300598559
 30
0
  0
SEQEND
  8
0
  0
POLYLINE
  8
0
 62
7
 66
1
  0
VERTEX
  8
0
 10
890.9498625214
 20
595.4300598559
 30
0
  0
VERTEX
  8
0
 10
890.929582041
 20
595.4383449015001
 30
0
  0
VERTEX
  8
0
 10
890.4392295296
 20
595.6382886824
 30
0
  0
VERTEX
  8
0
 10
888.1227471645
 20
596.5422825274
 30
0
  0
SEQEND
  8
0
  0
POLYLINE
  8
0
 62
7
 66
1
  0
VERTEX
  8
0
 10
780.9631996567
 20
596.5422825274
 30
0
  0
VERTEX
  8
0
 10
779.8522938753
 20
595.4383449015001
 30
0
  0
VERTEX
  8
0
 10
779.8421666737
 20
595.4300598559
 30
0
  0
SEQEND
  8
0
  0
POLYLINE
  8
0
 62
7
 66
1
  0
VERTEX
  8
0
 10
781.4428792114001
 20
597.430063909
 30
0
  0
VERTEX
  8
0
 10
781.3903097774
 20
597.3437116799
 30
0
  0
VERTEX
  8
0
 10
781.2239327247
 20
596.9848023114
 30
0
  0
VERTEX
  8
0
 10
780.9631996567
 20
596.5422825274
 30
0
  0
SEQEND
  8
0
  0
POLYLINE
  8
0
 62
7
 66
1
  0
VERTEX
  8
0
 10
838.9365249093
 20
596.5422825274
 30
0
  0
VERTEX
  8
0
 10
838.6730015988001
 20
596.9905541596
 30
0
  0
VERTEX
  8
0
 10
838.5094147886
 20
597.3437116799
 30
0
  0
VERTEX
  8
0
 10
838.4568453546
 20
597.430063909
 30
0
  0
SEQEND
  8
0
  0
POLYLINE
  8
0
 62
7
 66
1
  0
VERTEX
  8
0
 10
720.4734706099
 20
555.4300607500001
 30
0
  0
VERTEX
  8
0
 10
719.2102172191
 20
555.6629509983
 30
0
  0
VERTEX
  8
0
 10
717.9968603666
 20
556.2785701213001
 30
0
  0
SEQEND
  8
0
  0
POLYLINE
  8
0
 62
7
 66
1
  0
VERTEX
  8
0
 10
728.4265705163
 20
555.4300607500001
 30
0
  0
VERTEX
  8
0
 10
724.3339665945
 20
555.9187964854
 30
0
  0
VERTEX
  8
0
 10
722.9500734026
 20
556.2785701213001
 30
0
  0
SEQEND
  8
0
  0
POLYLINE
  8
0
 62
7
 66
1
  0
VERTEX
  8
0
 10
733.9030750806001
 20
556.2785701213001
 30
0
  0
VERTEX
  8
0
 10
729.9169474061
 20
555.4973543939
 30
0
  0
VERTEX
  8
0
 10
728.4265705163
 20
555.4300607500001
 30
0
  0
SEQEND
  8
0
  0
POLYLINE
  8
0
 62
7
 66
1
  0
VERTEX
  8
0
 10
736.9029694016
 20
555.4300607500001
 30
0
  0
VERTEX
  8
0
 10
735.3728064115001
 20
555.6629509983
 30
0
  0
VERTEX
  8
0
 10
733.9030750806001
 20
556.2785701213001
 30
0
  0
SEQEND
  8
0
  0
POLYLINE
  8
0
 62
7
 66
1
  0
VERTEX
  8
0
 10
882.4734710867
 20
555.4300607500001
 30
0
  0
VERTEX
  8
0
 10
881.2102176959
 20
555.6629509983
 30
0
  0
VERTEX
  8
0
 10
879.9968608434
 20
556.2785701213001
 30
0
  0
SEQEND
  8
0
  0
POLYLINE
  8
0
 62
7
 66
1
  0
VERTEX
  8
0
 10
890.4265709932
 20
555.4300607500001
 30
0
  0
VERTEX
  8
0
 10
888.9362015541
 20
555.4973543939
 30
0
  0
VERTEX
  8
0
 10
884.9500738795
 20
556.2785701213001
 30
0
  0
SEQEND
  8
0
  0
POLYLINE
  8
0
 62
7
 66
1
  0
VERTEX
  8
0
 10
895.9030755575
 20
556.2785701213001
 30
0
  0
VERTEX
  8
0
 10
894.5191749151001
 20
555.9187964854
 30
0
  0
VERTEX
  8
0
 10
890.4265709932
 20
555.4300607500001
 30
0
  0
SEQEND
  8
0
  0
POLYLINE
  8
0
 62
7
 66
1
  0
VERTEX
  8
0
 10
898.9029698784
 20
555.4300607500001
 30
0
  0
VERTEX
  8
0
 10
897.3728068883
 20
555.6629509983
 30
0
  0
VERTEX
  8
0
 10
895.9030755575
 20
556.2785701213001
 30
0
  0
SEQEND
  8
0
  0
POLYLINE
  8
0
 62
7
 66
1
  0
VERTEX
  8
0
 10
841.9734672421999
 20
555.4300607500001
 30
0
  0
VERTEX
  8
0
 10
841.2994839962
 20
555.4973543939
 30
0
  0
VERTEX
  8
0
 10
839.4968607242
 20
556.2785701213001
 30
0
  0
SEQEND
  8
0
  0
POLYLINE
  8
0
 62
7
 66
1
  0
VERTEX
  8
0
 10
844.4500737603
 20
556.2785701213001
 30
0
  0
VERTEX
  8
0
 10
843.8242436166
 20
555.9187964854
 30
0
  0
VERTEX
  8
0
 10
841.9734672421999
 20
555.4300607500001
 30
0
  0
SEQEND
  8
0
  0
POLYLINE
  8
0
 62
7
 66
1
  0
VERTEX
  8
0
 10
858.4029697592
 20
555.4300607500001
 30
0
  0
VERTEX
  8
0
 10
856.8728067691
 20
555.6629509983
 30
0
  0
VERTEX
  8
0
 10
855.4030754383
 20
556.2785701213001
 30
0
  0
SEQEND
  8
0
  0
POLYLINE
  8
0
 62
7
 66
1
  0
VERTEX
  8
0
 10
849.9265745993
 20
555.4300607500001
 30
0
  0
VERTEX
  8
0
 10
847.1331656690001
 20
555.6629509983
 30
0
  0
VERTEX
  8
0
 10
844.4500737603
 20
556.2785701213001
 30
0
  0
SEQEND
  8
0
  0
POLYLINE
  8
0
 62
7
 66
1
  0
VERTEX
  8
0
 10
760.9734670038
 20
555.4300607500001
 30
0
  0
VERTEX
  8
0
 10
759.7102210636
 20
555.6629509983
 30
0
  0
VERTEX
  8
0
 10
758.4968604858
 20
556.2785701213001
 30
0
  0
SEQEND
  8
0
  0
POLYLINE
  8
0
 62
7
 66
1
  0
VERTEX
  8
0
 10
780.4028638418
 20
556.2785701213001
 30
0
  0
VERTEX
  8
0
 10
778.2193594391
 20
555.4973543939
 30
0
  0
VERTEX
  8
0
 10
777.4029695208
 20
555.4300607500001
 30
0
  0
SEQEND
  8
0
  0
POLYLINE
  8
0
 62
7
 66
1
  0
VERTEX
  8
0
 10
777.4029695208
 20
555.4300607500001
 30
0
  0
VERTEX
  8
0
 10
775.161138248
 20
555.9187964854
 30
0
  0
VERTEX
  8
0
 10
774.4030751998
 20
556.2785701213001
 30
0
  0
SEQEND
  8
0
  0
POLYLINE
  8
0
 62
7
 66
1
  0
VERTEX
  8
0
 10
768.9265743608
 20
555.4300607500001
 30
0
  0
VERTEX
  8
0
 10
766.1331654305
 20
555.6629509983
 30
0
  0
VERTEX
  8
0
 10
763.4500735219
 20
556.2785701213001
 30
0
  0
SEQEND
  8
0
  0
POLYLINE
  8
0
 62
7
 66
1
  0
VERTEX
  8
0
 10
745.8850615437
 20
555.1677705106
 30
0
  0
VERTEX
  8
0
 10
745.9413804824
 20
556.0434595999
 30
0
  0
VERTEX
  8
0
 10
745.9490173275
 20
556.469722217
 30
0
  0
SEQEND
  8
0
  0
POLYLINE
  8
0
 62
7
 66
1
  0
VERTEX
  8
0
 10
719.487207454
 20
504.4300617036
 30
0
  0
VERTEX
  8
0
 10
720.0587116892
 20
508.997889733
 30
0
  0
VERTEX
  8
0
 10
721.0657023604
 20
514.4300633428001
 30
0
  0
SEQEND
  8
0
  0
POLYLINE
  8
0
 62
7
 66
1
  0
VERTEX
  8
0
 10
546.386461812
 20
812.4627605974
 30
0
  0
VERTEX
  8
0
 10
546.3473388133
 20
814.0467081646
 30
0
  0
VERTEX
  8
0
 10
546.3022478995
 20
815.4627606234
 30
0
  0
SEQEND
  8
0
  0
POLYLINE
  8
0
 62
7
 66
1
  0
VERTEX
  8
0
 10
546.3022478995
 20
809.4627605713
 30
0
  0
VERTEX
  8
0
 10
546.3473388133
 20
810.8788130301
 30
0
  0
VERTEX
  8
0
 10
546.386461812
 20
812.4627605974
 30
0
  0
SEQEND
  8
0
  0
POLYLINE
  8
0
 62
7
 66
1
  0
VERTEX
  8
0
 10
406.4964094338
 20
823.6110364049
 30
0
  0
VERTEX
  8
0
 10
406.4024836895
 20
823.6312451734
 30
0
  0
VERTEX
  8
0
 10
406.1243199882
 20
823.6910938247
 30
0
  0
VERTEX
  8
0
 10
405.6726099131
 20
823.7882838546
 30
0
  0
VERTEX
  8
0
 10
405.0647058663
 20
823.9190797283
 30
0
  0
VERTEX
  8
0
 10
404.323976594
 20
824.0784541665
 30
0
  0
VERTEX
  8
0
 10
403.4788795886
 20
824.260282792
 30
0
  0
VERTEX
  8
0
 10
402.5618993816
 20
824.4575797542
 30
0
  0
VERTEX
  8
0
 10
401.608273494
 20
824.6627603619
 30
0
  0
SEQEND
  8
0
  0
POLYLINE
  8
0
 62
7
 66
1
  0
VERTEX
  8
0
 10
406.4964094338
 20
801.3144847899
 30
0
  0
VERTEX
  8
0
 10
406.4024836895
 20
801.2942760213
 30
0
  0
VERTEX
  8
0
 10
406.1243199882
 20
801.2344273700001
 30
0
  0
VERTEX
  8
0
 10
405.6726099131
 20
801.1372373401
 30
0
  0
VERTEX
  8
0
 10
405.0647058663
 20
801.0064414664
 30
0
  0
VERTEX
  8
0
 10
404.323976594
 20
800.8470670281999
 30
0
  0
VERTEX
  8
0
 10
403.4788795886
 20
800.6652384027
 30
0
  0
VERTEX
  8
0
 10
402.5618993816
 20
800.4679414405
 30
0
  0
VERTEX
  8
0
 10
401.608273494
 20
800.2627608328
 30
0
  0
SEQEND
  8
0
  0
POLYLINE
  8
0
 62
7
 66
1
  0
VERTEX
  8
0
 10
347.882706779
 20
809.4627605713
 30
0
  0
VERTEX
  8
0
 10
345.7066008029
 20
809.2590409758
 30
0
  0
VERTEX
  8
0
 10
343.5650059161
 20
808.8347394912
 30
0
  0
SEQEND
  8
0
  0
POLYLINE
  8
0
 62
7
 66
1
  0
VERTEX
  8
0
 10
343.5650059161
 20
816.0907817035001
 30
0
  0
VERTEX
  8
0
 10
345.7560354051
 20
815.6583905182
 30
0
  0
VERTEX
  8
0
 10
347.882706779
 20
815.4627606234
 30
0
  0
SEQEND
  8
0
  0
POLYLINE
  8
0
 62
7
 66
1
  0
VERTEX
  8
0
 10
361.7540338216
 20
815.4627606234
 30
0
  0
VERTEX
  8
0
 10
362.0925733027
 20
815.5463268011
 30
0
  0
VERTEX
  8
0
 10
362.2675948915
 20
815.7338779381
 30
0
  0
VERTEX
  8
0
 10
362.3461389122
 20
815.9236481841
 30
0
  0
VERTEX
  8
0
 10
362.386841434
 20
816.1172775979001
 30
0
  0
VERTEX
  8
0
 10
362.4062650976
 20
816.3494155704
 30
0
  0
SEQEND
  8
0
  0
POLYLINE
  8
0
 62
7
 66
1
  0
VERTEX
  8
0
 10
362.4062650976
 20
808.5761056243
 30
0
  0
VERTEX
  8
0
 10
362.40334447
 20
808.6398902777
 30
0
  0
VERTEX
  8
0
 10
362.3772674379
 20
808.8677471930999
 30
0
  0
VERTEX
  8
0
 10
362.3312973556
 20
809.048831459
 30
0
  0
VERTEX
  8
0
 10
362.2327112732
 20
809.2458585705
 30
0
  0
VERTEX
  8
0
 10
362.1249833283
 20
809.3569041191
 30
0
  0
VERTEX
  8
0
 10
361.7540338216
 20
809.4627605713
 30
0
  0
SEQEND
  8
0
  0
POLYLINE
  8
0
 62
7
 66
1
  0
VERTEX
  8
0
 10
362.3465486941
 20
812.4627605974
 30
0
  0
VERTEX
  8
0
 10
362.3809629259
 20
809.4627605713
 30
0
  0
VERTEX
  8
0
 10
362.4062650976
 20
808.5761056243
 30
0
  0
SEQEND
  8
0
  0
POLYLINE
  8
0
 62
7
 66
1
  0
VERTEX
  8
0
 10
362.4062650976
 20
816.3494155704
 30
0
  0
VERTEX
  8
0
 10
362.3809629259
 20
815.4627606234
 30
0
  0
VERTEX
  8
0
 10
362.3465486941
 20
812.4627605974
 30
0
  0
SEQEND
  8
0
  0
POLYLINE
  8
0
 62
7
 66
1
  0
VERTEX
  8
0
 10
380.5154823837
 20
812.9664182159
 30
0
  0
VERTEX
  8
0
 10
380.6512617645
 20
812.7575651704
 30
0
  0
VERTEX
  8
0
 10
380.7206862745
 20
812.4496027029001
 30
0
  0
SEQEND
  8
0
  0
POLYLINE
  8
0
 62
7
 66
1
  0
VERTEX
  8
0
 10
380.7206862745
 20
812.4496027029001
 30
0
  0
VERTEX
  8
0
 10
380.6800806103
 20
812.1911521264
 30
0
  0
VERTEX
  8
0
 10
380.5154823837
 20
811.9023863071
 30
0
  0
SEQEND
  8
0
  0
POLYLINE
  8
0
 62
7
 66
1
  0
VERTEX
  8
0
 10
376.9243695912
 20
811.9935890097
 30
0
  0
VERTEX
  8
0
 10
376.801584023
 20
812.1906578852
 30
0
  0
VERTEX
  8
0
 10
376.7448180494
 20
812.4800036146
 30
0
  0
SEQEND
  8
0
  0
POLYLINE
  8
0
 62
7
 66
1
  0
VERTEX
  8
0
 10
376.7448180494
 20
812.4800036146
 30
0
  0
VERTEX
  8
0
 10
376.7698520002
 20
812.7072776804
 30
0
  0
VERTEX
  8
0
 10
376.8987172422
 20
812.9664182159
 30
0
  0
SEQEND
  8
0
  0
POLYLINE
  8
0
 62
7
 66
1
  0
VERTEX
  8
0
 10
376.8987172422
 20
812.9664182159
 30
0
  0
VERTEX
  8
0
 10
377.3427345929
 20
813.2334170475
 30
0
  0
VERTEX
  8
0
 10
378.0017011938
 20
813.3312291427
 30
0
  0
SEQEND
  8
0
  0
POLYLINE
  8
0
 62
7
 66
1
  0
VERTEX
  8
0
 10
378.0017011938
 20
814.0000492529
 30
0
  0
VERTEX
  8
0
 10
377.2887029824
 20
813.9059126804
 30
0
  0
VERTEX
  8
0
 10
376.539606708
 20
813.3920310027
 30
0
  0
SEQEND
  8
0
  0
POLYLINE
  8
0
 62
7
 66
1
  0
VERTEX
  8
0
 10
376.539606708
 20
813.3920310027
 30
0
  0
VERTEX
  8
0
 10
376.3345741806
 20
813.0182334533
 30
0
  0
VERTEX
  8
0
 10
376.2574532208
 20
812.4800036146
 30
0
  0
SEQEND
  8
0
  0
POLYLINE
  8
0
 62
7
 66
1
  0
VERTEX
  8
0
 10
376.2574532208
 20
812.4800036146
 30
0
  0
VERTEX
  8
0
 10
376.3269075332
 20
812.0207847931
 30
0
  0
VERTEX
  8
0
 10
376.616563755
 20
811.5071744503
 30
0
  0
SEQEND
  8
0
  0
POLYLINE
  8
0
 62
7
 66
1
  0
VERTEX
  8
0
 10
376.616563755
 20
811.5071744503
 30
0
  0
VERTEX
  8
0
 10
377.5194325623
 20
810.8965939571
 30
0
  0
VERTEX
  8
0
 10
378.8994812546
 20
810.6863497485
 30
0
  0
SEQEND
  8
0
  0
POLYLINE
  8
0
 62
7
 66
1
  0
VERTEX
  8
0
 10
380.9002378163
 20
811.4463726486
 30
0
  0
VERTEX
  8
0
 10
381.1469190893
 20
811.854309515
 30
0
  0
VERTEX
  8
0
 10
381.2574484525
 20
812.4496027029001
 30
0
  0
SEQEND
  8
0
  0
POLYLINE
  8
0
 62
7
 66
1
  0
VERTEX
  8
0
 10
381.2574484525
 20
812.4496027029001
 30
0
  0
VERTEX
  8
0
 10
381.1903559742
 20
812.9218477659
 30
0
  0
VERTEX
  8
0
 10
380.9002378163
 20
813.4528327462
 30
0
  0
SEQEND
  8
0
  0
POLYLINE
  8
0
 62
7
 66
1
  0
VERTEX
  8
0
 10
380.9002378163
 20
813.4528327462
 30
0
  0
VERTEX
  8
0
 10
380.2728691277
 20
813.8515440476
 30
0
  0
VERTEX
  8
0
 10
379.3355413852
 20
814.0304501829
 30
0
  0
SEQEND
  8
0
  0
POLYLINE
  8
0
 62
7
 66
1
  0
VERTEX
  8
0
 10
376.590911406
 20
818.0008092857
 30
0
  0
VERTEX
  8
0
 10
376.3545789895
 20
817.5913938283001
 30
0
  0
VERTEX
  8
0
 10
376.2574532208
 20
816.9975792951
 30
0
  0
SEQEND
  8
0
  0
POLYLINE
  8
0
 62
7
 66
1
  0
VERTEX
  8
0
 10
376.2574532208
 20
816.9975792951
 30
0
  0
VERTEX
  8
0
 10
376.3135188398
 20
816.5139816663
 30
0
  0
VERTEX
  8
0
 10
376.590911406
 20
815.9639481417
 30
0
  0
SEQEND
  8
0
  0
POLYLINE
  8
0
 62
7
 66
1
  0
VERTEX
  8
0
 10
380.9258901653
 20
815.9639481417
 30
0
  0
VERTEX
  8
0
 10
381.1637425003
 20
816.3867513611
 30
0
  0
VERTEX
  8
0
 10
381.2574484525
 20
816.9975792951
 30
0
  0
SEQEND
  8
0
  0
POLYLINE
  8
0
 62
7
 66
1
  0
VERTEX
  8
0
 10
381.2574484525
 20
816.9975792951
 30
0
  0
VERTEX
  8
0
 10
381.200041729
 20
817.4676429442
 30
0
  0
VERTEX
  8
0
 10
380.9258901653
 20
818.0008092857
 30
0
  0
SEQEND
  8
0
  0
POLYLINE
  8
0
 62
7
 66
1
  0
VERTEX
  8
0
 10
376.9756742892
 20
816.3895606956
 30
0
  0
VERTEX
  8
0
 10
376.8200614629
 20
816.6358959823
 30
0
  0
VERTEX
  8
0
 10
376.7448180494
 20
816.9975792951
 30
0
  0
SEQEND
  8
0
  0
POLYLINE
  8
0
 62
7
 66
1
  0
VERTEX
  8
0
 10
376.7448180494
 20
816.9975792951
 30
0
  0
VERTEX
  8
0
 10
376.7939769802
 20
817.2713322527
 30
0
  0
VERTEX
  8
0
 10
376.9756742892
 20
817.5751962661
 30
0
  0
SEQEND
  8
0
  0
POLYLINE
  8
0
 62
7
 66
1
  0
VERTEX
  8
0
 10
380.5411272821
 20
817.5751962661
 30
0
  0
VERTEX
  8
0
 10
380.6935587106
 20
817.3417630567
 30
0
  0
VERTEX
  8
0
 10
380.7719835219
 20
816.9975792951
 30
0
  0
SEQEND
  8
0
  0
POLYLINE
  8
0
 62
7
 66
1
  0
VERTEX
  8
0
 10
380.7719835219
 20
816.9975792951
 30
0
  0
VERTEX
  8
0
 10
380.7255738554
 20
816.7102374098
 30
0
  0
VERTEX
  8
0
 10
380.5411272821
 20
816.3895606956
 30
0
  0
SEQEND
  8
0
  0
POLYLINE
  8
0
 62
7
 66
1
  0
VERTEX
  8
0
 10
385.088455039
 20
796.2297894954
 30
0
  0
VERTEX
  8
0
 10
385.0509339151
 20
796.2214727848
 30
0
  0
VERTEX
  8
0
 10
384.9398234067
 20
796.1968393027
 30
0
  0
VERTEX
  8
0
 10
384.7593777952
 20
796.1568371354
 30
0
  0
VERTEX
  8
0
 10
384.5165484724
 20
796.1030029653
 30
0
  0
VERTEX
  8
0
 10
384.2206635651
 20
796.0374043285
 30
0
  0
VERTEX
  8
0
 10
383.8830852089
 20
795.962565109
 30
0
  0
VERTEX
  8
0
 10
383.516792315
 20
795.8813612311
 30
0
  0
VERTEX
  8
0
 10
383.1358590302
 20
795.7969107627
 30
0
  0
SEQEND
  8
0
  0
POLYLINE
  8
0
 62
7
 66
1
  0
VERTEX
  8
0
 10
383.1358590302
 20
829.128610432
 30
0
  0
VERTEX
  8
0
 10
383.516792315
 20
829.0441599636
 30
0
  0
VERTEX
  8
0
 10
383.8830852089
 20
828.9629560856999
 30
0
  0
VERTEX
  8
0
 10
384.2206635651
 20
828.8881168662
 30
0
  0
VERTEX
  8
0
 10
384.5165484724
 20
828.8225182294
 30
0
  0
VERTEX
  8
0
 10
384.7593777952
 20
828.7686840593
 30
0
  0
VERTEX
  8
0
 10
384.9398234067
 20
828.7286818920001
 30
0
  0
VERTEX
  8
0
 10
385.0509339151
 20
828.70404841
 30
0
  0
VERTEX
  8
0
 10
385.088455039
 20
828.6957316994
 30
0
  0
SEQEND
  8
0
  0
POLYLINE
  8
0
 62
7
 66
1
  0
VERTEX
  8
0
 10
387.0410435972
 20
796.662668228
 30
0
  0
VERTEX
  8
0
 10
386.6601103125
 20
796.5782177596
 30
0
  0
VERTEX
  8
0
 10
386.2938174186
 20
796.4970138817
 30
0
  0
VERTEX
  8
0
 10
385.9562390623
 20
796.4221746622
 30
0
  0
VERTEX
  8
0
 10
385.6603541551
 20
796.3565760254001
 30
0
  0
VERTEX
  8
0
 10
385.4175248322
 20
796.3027437178999
 30
0
  0
VERTEX
  8
0
 10
385.2370866713
 20
796.2627396881001
 30
0
  0
VERTEX
  8
0
 10
385.1259687123
 20
796.2381080686
 30
0
  0
VERTEX
  8
0
 10
385.088455039
 20
796.2297894954
 30
0
  0
SEQEND
  8
0
  0
POLYLINE
  8
0
 62
7
 66
1
  0
VERTEX
  8
0
 10
385.088455039
 20
828.6957316994
 30
0
  0
VERTEX
  8
0
 10
385.1259687123
 20
828.6874131261
 30
0
  0
VERTEX
  8
0
 10
385.2370866713
 20
828.6627815067
 30
0
  0
VERTEX
  8
0
 10
385.4175248322
 20
828.6227774768
 30
0
  0
VERTEX
  8
0
 10
385.6603541551
 20
828.5689451693
 30
0
  0
VERTEX
  8
0
 10
385.9562390623
 20
828.5033465325
 30
0
  0
VERTEX
  8
0
 10
386.2938174186
 20
828.428507313
 30
0
  0
VERTEX
  8
0
 10
386.6601103125
 20
828.3473034351
 30
0
  0
VERTEX
  8
0
 10
387.0410435972
 20
828.2628529667001
 30
0
  0
SEQEND
  8
0
  0
POLYLINE
  8
0
 62
7
 66
1
  0
VERTEX
  8
0
 10
395.7107328949
 20
829.9627606719
 30
0
  0
VERTEX
  8
0
 10
395.746100801
 20
829.9536299853
 30
0
  0
VERTEX
  8
0
 10
395.9314712462
 20
829.9057804941
 30
0
  0
VERTEX
  8
0
 10
396.2557950196
 20
829.8220620452
 30
0
  0
VERTEX
  8
0
 10
396.682497221
 20
829.7119145243
 30
0
  0
VERTEX
  8
0
 10
397.1634210226
 20
829.5877729504
 30
0
  0
SEQEND
  8
0
  0
POLYLINE
  8
0
 62
7
 66
1
  0
VERTEX
  8
0
 10
397.1634210226
 20
795.3377482443
 30
0
  0
VERTEX
  8
0
 10
396.8442493257
 20
795.2553597241
 30
0
  0
VERTEX
  8
0
 10
396.3931613741
 20
795.1389183252001
 30
0
  0
VERTEX
  8
0
 10
396.0289471922
 20
795.0449031739
 30
0
  0
VERTEX
  8
0
 10
395.7925998745
 20
794.9838922321
 30
0
  0
VERTEX
  8
0
 10
395.7107328949
 20
794.9627605229
 30
0
  0
SEQEND
  8
0
  0
POLYLINE
  8
0
 62
7
 66
1
  0
VERTEX
  8
0
 10
488.3223568228
 20
827.0619627981
 30
0
  0
VERTEX
  8
0
 10
488.498557466
 20
826.2950791939001
 30
0
  0
VERTEX
  8
0
 10
489.1770408628
 20
825.5611457824
 30
0
  0
SEQEND
  8
0
  0
POLYLINE
  8
0
 62
7
 66
1
  0
VERTEX
  8
0
 10
488.6240103421
 20
828.1009891032001
 30
0
  0
VERTEX
  8
0
 10
488.4005488036
 20
827.6735995858001
 30
0
  0
VERTEX
  8
0
 10
488.3223568228
 20
827.0619627981
 30
0
  0
SEQEND
  8
0
  0
POLYLINE
  8
0
 62
7
 66
1
  0
VERTEX
  8
0
 10
488.3223568228
 20
824.3489474951
 30
0
  0
VERTEX
  8
0
 10
488.498557466
 20
823.5820638909
 30
0
  0
VERTEX
  8
0
 10
489.1770408628
 20
822.8481304793
 30
0
  0
SEQEND
  8
0
  0
POLYLINE
  8
0
 62
7
 66
1
  0
VERTEX
  8
0
 10
489.5289690373
 20
823.2521959542
 30
0
  0
VERTEX
  8
0
 10
489.3611111817
 20
823.5081122218001
 30
0
  0
VERTEX
  8
0
 10
489.2775920359
 20
823.8871577158
 30
0
  0
SEQEND
  8
0
  0
POLYLINE
  8
0
 62
7
 66
1
  0
VERTEX
  8
0
 10
489.2775920359
 20
823.8871577158
 30
0
  0
VERTEX
  8
0
 10
489.3061650125
 20
824.0783479958
 30
0
  0
VERTEX
  8
0
 10
489.4284178642
 20
824.2912231906
 30
0
  0
SEQEND
  8
0
  0
POLYLINE
  8
0
 62
7
 66
1
  0
VERTEX
  8
0
 10
489.4284178642
 20
824.2912231906
 30
0
  0
VERTEX
  8
0
 10
489.6644466696
 20
824.3693900256
 30
0
  0
VERTEX
  8
0
 10
489.9814502475
 20
824.3899126499
 30
0
  0
SEQEND
  8
0
  0
POLYLINE
  8
0
 62
7
 66
1
  0
VERTEX
  8
0
 10
489.5289690373
 20
826.0229355617
 30
0
  0
VERTEX
  8
0
 10
489.3679154245
 20
826.2547268494
 30
0
  0
VERTEX
  8
0
 10
489.2775920359
 20
826.6001730188
 30
0
  0
SEQEND
  8
0
  0
POLYLINE
  8
0
 62
7
 66
1
  0
VERTEX
  8
0
 10
489.2775920359
 20
826.6001730188
 30
0
  0
VERTEX
  8
0
 10
489.3024229584
 20
826.8165872394
 30
0
  0
VERTEX
  8
0
 10
489.4284178642
 20
827.0619627981
 30
0
  0
SEQEND
  8
0
  0
POLYLINE
  8
0
 62
7
 66
1
  0
VERTEX
  8
0
 10
489.4284178642
 20
827.0619627981
 30
0
  0
VERTEX
  8
0
 10
489.6797464368
 20
827.1792591511
 30
0
  0
VERTEX
  8
0
 10
490.0317230401
 20
827.2183756306
 30
0
  0
SEQEND
  8
0
  0
POLYLINE
  8
0
 62
7
 66
1
  0
VERTEX
  8
0
 10
488.6240103421
 20
837.1009905784
 30
0
  0
VERTEX
  8
0
 10
488.4005488036
 20
836.6735991984
 30
0
  0
VERTEX
  8
0
 10
488.3223568228
 20
836.0619624107
 30
0
  0
SEQEND
  8
0
  0
POLYLINE
  8
0
 62
7
 66
1
  0
VERTEX
  8
0
 10
489.5289690373
 20
835.0229361056
 30
0
  0
VERTEX
  8
0
 10
489.3679154245
 20
835.2547255306
 30
0
  0
VERTEX
  8
0
 10
489.2775920359
 20
835.6001735627
 30
0
  0
SEQEND
  8
0
  0
POLYLINE
  8
0
 62
7
 66
1
  0
VERTEX
  8
0
 10
488.3223568228
 20
836.0619624107
 30
0
  0
VERTEX
  8
0
 10
488.498557466
 20
835.2950797378001
 30
0
  0
VERTEX
  8
0
 10
489.1770408628
 20
834.5611453949
 30
0
  0
SEQEND
  8
0
  0
POLYLINE
  8
0
 62
7
 66
1
  0
VERTEX
  8
0
 10
488.3223568228
 20
833.3489471077
 30
0
  0
VERTEX
  8
0
 10
488.498557466
 20
832.5820644348
 30
0
  0
VERTEX
  8
0
 10
489.1770408628
 20
831.8481300919
 30
0
  0
SEQEND
  8
0
  0
POLYLINE
  8
0
 62
7
 66
1
  0
VERTEX
  8
0
 10
489.5289690373
 20
832.2521955668
 30
0
  0
VERTEX
  8
0
 10
489.3611111817
 20
832.5081118344
 30
0
  0
VERTEX
  8
0
 10
489.2775920359
 20
832.8871582596
 30
0
  0
SEQEND
  8
0
  0
POLYLINE
  8
0
 62
7
 66
1
  0
VERTEX
  8
0
 10
489.2775920359
 20
832.8871582596
 30
0
  0
VERTEX
  8
0
 10
489.3061650125
 20
833.0783476083
 30
0
  0
VERTEX
  8
0
 10
489.4284178642
 20
833.2912237345
 30
0
  0
SEQEND
  8
0
  0
POLYLINE
  8
0
 62
7
 66
1
  0
VERTEX
  8
0
 10
489.4284178642
 20
833.2912237345
 30
0
  0
VERTEX
  8
0
 10
489.6644466696
 20
833.3693896382
 30
0
  0
VERTEX
  8
0
 10
489.9814502475
 20
833.3899122625001
 30
0
  0
SEQEND
  8
0
  0
POLYLINE
  8
0
 62
7
 66
1
  0
VERTEX
  8
0
 10
489.2775920359
 20
835.6001735627
 30
0
  0
VERTEX
  8
0
 10
489.3024229584
 20
835.816586852
 30
0
  0
VERTEX
  8
0
 10
489.4284178642
 20
836.0619624107
 30
0
  0
SEQEND
  8
0
  0
POLYLINE
  8
0
 62
7
 66
1
  0
VERTEX
  8
0
 10
489.4284178642
 20
836.0619624107
 30
0
  0
VERTEX
  8
0
 10
489.6797464368
 20
836.1792587637
 30
0
  0
VERTEX
  8
0
 10
490.0317230401
 20
836.2183761745
 30
0
  0
SEQEND
  8
0
  0
POLYLINE
  8
0
 62
7
 66
1
  0
VERTEX
  8
0
 10
133.9949556765
 20
821.6542866974
 30
0
  0
VERTEX
  8
0
 10
133.8117608008
 20
818.3875028006
 30
0
  0
VERTEX
  8
0
 10
133.6267479834
 20
815.0878404228999
 30
0
  0
VERTEX
  8
0
 10
133.440900701
 20
811.7736099482
 30
0
  0
SEQEND
  8
0
  0
POLYLINE
  8
0
 62
7
 66
1
  0
VERTEX
  8
0
 10
135.4997941432
 20
813.8974936408
 30
0
  0
VERTEX
  8
0
 10
135.6234439788
 20
815.908965418
 30
0
  0
VERTEX
  8
0
 10
135.7466467795
 20
817.9133748597
 30
0
  0
VERTEX
  8
0
 10
135.8691641269
 20
819.9066137857
 30
0
  0
SEQEND
  8
0
  0
POLYLINE
  8
0
 62
7
 66
1
  0
VERTEX
  8
0
 10
334.0071180043
 20
868.1827955841
 30
0
  0
VERTEX
  8
0
 10
334.4950937805
 20
868.8463331162
 30
0
  0
VERTEX
  8
0
 10
335.0997381983
 20
869.6691081821
 30
0
  0
VERTEX
  8
0
 10
335.9046393213
 20
870.7653828858
 30
0
  0
VERTEX
  8
0
 10
335.9112777886
 20
870.7744241654
 30
0
  0
SEQEND
  8
0
  0
POLYLINE
  8
0
 62
7
 66
1
  0
VERTEX
  8
0
 10
335.9112777886
 20
754.1510970293
 30
0
  0
VERTEX
  8
0
 10
335.9046393213
 20
754.1601383089
 30
0
  0
VERTEX
  8
0
 10
335.0997381983
 20
755.2564130126
 30
0
  0
VERTEX
  8
0
 10
334.4950937805
 20
756.0791880785
 30
0
  0
VERTEX
  8
0
 10
334.0071180043
 20
756.7427256106
 30
0
  0
SEQEND
  8
0
  0
POLYLINE
  8
0
 62
7
 66
1
  0
VERTEX
  8
0
 10
291.710022944
 20
754.1510970293
 30
0
  0
VERTEX
  8
0
 10
291.7166688619
 20
754.1601383089
 30
0
  0
VERTEX
  8
0
 10
292.5215699849
 20
755.2564130126
 30
0
  0
VERTEX
  8
0
 10
293.1262144027
 20
756.0791880785
 30
0
  0
VERTEX
  8
0
 10
293.6141827283
 20
756.7427256106
 30
0
  0
SEQEND
  8
0
  0
POLYLINE
  8
0
 62
7
 66
1
  0
VERTEX
  8
0
 10
293.6141827283
 20
868.1827955841
 30
0
  0
VERTEX
  8
0
 10
293.1262144027
 20
868.8463331162
 30
0
  0
VERTEX
  8
0
 10
292.5215699849
 20
869.6691081821
 30
0
  0
VERTEX
  8
0
 10
291.7166688619
 20
870.7653828858
 30
0
  0
VERTEX
  8
0
 10
291.710022944
 20
870.7744241654
 30
0
  0
SEQEND
  8
0
  0
POLYLINE
  8
0
 62
7
 66
1
  0
VERTEX
  8
0
 10
398.9946098206
 20
742.2067807018
 30
0
  0
VERTEX
  8
0
 10
397.4524141428
 20
742.4959004818001
 30
0
  0
VERTEX
  8
0
 10
394.8729374585
 20
743.1068480908
 30
0
  0
VERTEX
  8
0
 10
392.1066635427
 20
743.909223467
 30
0
  0
VERTEX
  8
0
 10
389.1712316451
 20
744.9337081014
 30
0
  0
VERTEX
  8
0
 10
385.5092712817
 20
746.4733780323001
 30
0
  0
VERTEX
  8
0
 10
381.924983221
 20
748.0881647169
 30
0
  0
VERTEX
  8
0
 10
378.0256324587
 20
749.8591304718
 30
0
  0
VERTEX
  8
0
 10
373.5413068113
 20
751.9068778454
 30
0
  0
VERTEX
  8
0
 10
368.4646972594
 20
754.2342082558999
 30
0
  0
VERTEX
  8
0
 10
363.0610221205
 20
756.727369964
 30
0
  0
VERTEX
  8
0
 10
357.1996205625
 20
759.449964851
 30
0
  0
VERTEX
  8
0
 10
350.1550221023
 20
762.7412811815
 30
0
  0
VERTEX
  8
0
 10
347.8230499802
 20
763.8330259322
 30
0
  0
VERTEX
  8
0
 10
345.4289400158
 20
764.9550610184
 30
0
  0
VERTEX
  8
0
 10
342.8739720163
 20
766.1516354381
 30
0
  0
VERTEX
  8
0
 10
339.9621361074
 20
767.5054990648
 30
0
  0
VERTEX
  8
0
 10
338.8106563268
 20
768.0349633991
 30
0
  0
SEQEND
  8
0
  0
POLYLINE
  8
0
 62
7
 66
1
  0
VERTEX
  8
0
 10
338.8106563268
 20
856.8976544737
 30
0
  0
VERTEX
  8
0
 10
339.3266984401
 20
857.1216561793
 30
0
  0
VERTEX
  8
0
 10
341.0320469317
 20
857.9137981831
 30
0
  0
VERTEX
  8
0
 10
344.0185004053
 20
859.3036481141
 30
0
  0
VERTEX
  8
0
 10
346.709150928
 20
860.56196177
 30
0
  0
VERTEX
  8
0
 10
351.8124857125
 20
862.9452311396
 30
0
  0
VERTEX
  8
0
 10
356.7290120897
 20
865.237797141
 30
0
  0
VERTEX
  8
0
 10
362.9477956471
 20
868.1271099447
 30
0
  0
VERTEX
  8
0
 10
368.7336557684
 20
870.8011456727
 30
0
  0
VERTEX
  8
0
 10
374.0341254649
 20
873.2375227808
 30
0
  0
VERTEX
  8
0
 10
379.6991446195
 20
875.8287490307
 30
0
  0
VERTEX
  8
0
 10
384.5843711076
 20
878.0398205816
 30
0
  0
VERTEX
  8
0
 10
388.9424839196
 20
879.9050585328
 30
0
  0
VERTEX
  8
0
 10
392.5576546368
 20
881.155124396
 30
0
  0
VERTEX
  8
0
 10
395.6702464399
 20
882.0160538851
 30
0
  0
VERTEX
  8
0
 10
398.3231932995
 20
882.5995610057
 30
0
  0
VERTEX
  8
0
 10
398.9860193012
 20
882.7117742001
 30
0
  0
SEQEND
  8
0
  0
POLYLINE
  8
0
 62
7
 66
1
  0
VERTEX
  8
0
 10
560.0061529455444
 20
764.2156132459049
 30
0
  0
VERTEX
  8
0
 10
556.2574901757
 20
762.2192078232
 30
0
  0
VERTEX
  8
0
 10
547.1376591501
 20
757.1997106968
 30
0
  0
VERTEX
  8
0
 10
540.1748606143
 20
753.3364840745001
 30
0
  0
SEQEND
  8
0
  0
POLYLINE
  8
0
 62
7
 66
1
  0
VERTEX
  8
0
 10
540.1749202189
 20
871.5889998673
 30
0
  0
VERTEX
  8
0
 10
547.1376591501
 20
867.7258030473
 30
0
  0
VERTEX
  8
0
 10
556.2574901757
 20
862.7063096463
 30
0
  0
VERTEX
  8
0
 10
560.0066148814583
 20
860.7096658049691
 30
0
  0
SEQEND
  8
0
  0
POLYLINE
  8
0
 62
7
 66
1
  0
VERTEX
  8
0
 10
540.1748606143
 20
753.3364840745001
 30
0
  0
VERTEX
  8
0
 10
537.6670845922999
 20
751.9992091655
 30
0
  0
VERTEX
  8
0
 10
535.5571397719
 20
751.008896619
 30
0
  0
VERTEX
  8
0
 10
533.5033797798
 20
750.1307674645
 30
0
  0
VERTEX
  8
0
 10
531.5351077495
 20
749.3427530824
 30
0
  0
VERTEX
  8
0
 10
529.731605309
 20
748.6499906479
 30
0
  0
VERTEX
  8
0
 10
528.6739730415
 20
748.2627243697
 30
0
  0
VERTEX
  8
0
 10
527.7137720165
 20
747.9367242156
 30
0
  0
VERTEX
  8
0
 10
526.0403045592
 20
747.4825964271
 30
0
  0
VERTEX
  8
0
 10
525.3724494157
 20
747.3330930768
 30
0
  0
VERTEX
  8
0
 10
524.9223672924001
 20
747.2422928511001
 30
0
  0
VERTEX
  8
0
 10
524.9039643583
 20
747.2887621223
 30
0
  0
SEQEND
  8
0
  0
POLYLINE
  8
0
 62
7
 66
1
  0
VERTEX
  8
0
 10
524.9039643583
 20
877.6367590724
 30
0
  0
VERTEX
  8
0
 10
524.9223672924001
 20
877.6832283436
 30
0
  0
VERTEX
  8
0
 10
525.3724494157
 20
877.5924281179
 30
0
  0
VERTEX
  8
0
 10
526.0403045592
 20
877.4429247676
 30
0
  0
VERTEX
  8
0
 10
527.7137720165
 20
876.9887969791
 30
0
  0
VERTEX
  8
0
 10
528.6739730415
 20
876.6627968251
 30
0
  0
VERTEX
  8
0
 10
529.731605309
 20
876.2755305468
 30
0
  0
VERTEX
  8
0
 10
530.9053846774
 20
875.8285404145
 30
0
  0
VERTEX
  8
0
 10
532.1793222008
 20
875.3288523256
 30
0
  0
VERTEX
  8
0
 10
537.6670845922999
 20
872.9263120293
 30
0
  0
VERTEX
  8
0
 10
540.1749202189
 20
871.5889998673
 30
0
  0
SEQEND
  8
0
  0
POLYLINE
  8
0
 62
7
 66
1
  0
VERTEX
  8
0
 10
435.0606520799
 20
724.2947877346001
 30
0
  0
VERTEX
  8
0
 10
431.2449061451
 20
725.3201291858001
 30
0
  0
VERTEX
  8
0
 10
426.4152684388
 20
726.8762499987
 30
0
  0
VERTEX
  8
0
 10
420.9405557392
 20
729.0023774802
 30
0
  0
VERTEX
  8
0
 10
415.6746828136
 20
731.4396635591
 30
0
  0
VERTEX
  8
0
 10
410.7858129916
 20
734.0776757299
 30
0
  0
VERTEX
  8
0
 10
406.2797428248
 20
736.8581802546
 30
0
  0
VERTEX
  8
0
 10
400.8634464023
 20
740.6899840533
 30
0
  0
VERTEX
  8
0
 10
396.1056732712
 20
744.5515007673999
 30
0
  0
VERTEX
  8
0
 10
392.0235001621
 20
748.2907758056
 30
0
  0
VERTEX
  8
0
 10
388.5628768382
 20
751.6439096033
 30
0
  0
VERTEX
  8
0
 10
384.9529736814
 20
755.356280595
 30
0
  0
VERTEX
  8
0
 10
381.2390753207
 20
759.6733332573
 30
0
  0
VERTEX
  8
0
 10
377.553511518
 20
764.5917856096
 30
0
  0
VERTEX
  8
0
 10
373.9773147879
 20
770.1425314843
 30
0
  0
VERTEX
  8
0
 10
370.6153073487
 20
776.3478555678
 30
0
  0
VERTEX
  8
0
 10
368.7778153596
 20
780.3335250317
 30
0
  0
VERTEX
  8
0
 10
367.3106917319
 20
783.9653179942
 30
0
  0
VERTEX
  8
0
 10
366.2053981004
 20
787.0803871154
 30
0
  0
VERTEX
  8
0
 10
365.3978669224
 20
789.6515936552
 30
0
  0
VERTEX
  8
0
 10
364.8325913725
 20
791.6599870621
 30
0
  0
VERTEX
  8
0
 10
364.7627943334
 20
791.9273790865
 30
0
  0
SEQEND
  8
0
  0
POLYLINE
  8
0
 62
7
 66
1
  0
VERTEX
  8
0
 10
523.5716589866
 20
746.0529343187
 30
0
  0
VERTEX
  8
0
 10
523.2656338391
 20
745.7345263063
 30
0
  0
VERTEX
  8
0
 10
517.7223012922
 20
741.1584467589
 30
0
  0
VERTEX
  8
0
 10
511.8527562497
 20
737.5140548645001
 30
0
  0
VERTEX
  8
0
 10
506.593618649
 20
734.7725615798
 30
0
  0
VERTEX
  8
0
 10
501.423869389
 20
732.0539192258
 30
0
  0
VERTEX
  8
0
 10
495.8798104105
 20
729.3322370349
 30
0
  0
VERTEX
  8
0
 10
490.1920446334
 20
727.0227731167
 30
0
  0
VERTEX
  8
0
 10
484.4334853021
 20
725.1380444466
 30
0
  0
VERTEX
  8
0
 10
475.6947980401
 20
723.0601073204
 30
0
  0
VERTEX
  8
0
 10
471.3010332686
 20
722.4504486619001
 30
0
  0
SEQEND
  8
0
  0
POLYLINE
  8
0
 62
7
 66
1
  0
VERTEX
  8
0
 10
365.0807925639
 20
834.1344003527
 30
0
  0
VERTEX
  8
0
 10
365.5750342784
 20
835.8645890801
 30
0
  0
VERTEX
  8
0
 10
366.7169996676
 20
839.3361573069
 30
0
  0
VERTEX
  8
0
 10
368.373375493
 20
843.6375339477
 30
0
  0
VERTEX
  8
0
 10
370.6153073487
 20
848.5776656268999
 30
0
  0
VERTEX
  8
0
 10
374.6790775237
 20
855.944952458
 30
0
  0
VERTEX
  8
0
 10
379.0198155818
 20
862.3753287791
 30
0
  0
VERTEX
  8
0
 10
383.468810576
 20
867.912577927
 30
0
  0
VERTEX
  8
0
 10
387.8690713224
 20
872.5954168438
 30
0
  0
VERTEX
  8
0
 10
392.0235001621
 20
876.6347453891
 30
0
  0
VERTEX
  8
0
 10
396.1056732712
 20
880.3740204274
 30
0
  0
VERTEX
  8
0
 10
400.8634464023
 20
884.2355371415
 30
0
  0
VERTEX
  8
0
 10
406.2797428248
 20
888.0673409401001
 30
0
  0
VERTEX
  8
0
 10
410.7858129916
 20
890.8478454648
 30
0
  0
VERTEX
  8
0
 10
415.6746828136
 20
893.4858576356
 30
0
  0
VERTEX
  8
0
 10
420.9405557392
 20
895.9231437146
 30
0
  0
VERTEX
  8
0
 10
426.4152684388
 20
898.049271196
 30
0
  0
VERTEX
  8
0
 10
431.2449061451
 20
899.6053920089
 30
0
  0
VERTEX
  8
0
 10
435.2800660906
 20
900.6896899043001
 30
0
  0
VERTEX
  8
0
 10
438.5097772953
 20
901.422171384
 30
0
  0
VERTEX
  8
0
 10
440.9332015691
 20
901.8951863943
 30
0
  0
VERTEX
  8
0
 10
442.573228958
 20
902.1788001953
 30
0
  0
VERTEX
  8
0
 10
444.5011458499
 20
902.4750948845
 30
0
  0
VERTEX
  8
0
 10
447.321811798
 20
902.8373048602
 30
0
  0
VERTEX
  8
0
 10
449.6509601501
 20
903.0575067698001
 30
0
  0
SEQEND
  8
0
  0
POLYLINE
  8
0
 62
7
 66
1
  0
VERTEX
  8
0
 10
515.2579956827
 20
601.5800671038001
 30
0
  0
VERTEX
  8
0
 10
514.9790608462999
 20
603.2120869813
 30
0
  0
VERTEX
  8
0
 10
514.8327984986
 20
603.5800562558
 30
0
  0
SEQEND
  8
0
  0
POLYLINE
  8
0
 62
7
 66
1
  0
VERTEX
  8
0
 10
399.8106532869
 20
601.5800671038001
 30
0
  0
VERTEX
  8
0
 10
399.4204738316
 20
601.6184971985
 30
0
  0
VERTEX
  8
0
 10
399.1322518465
 20
601.6986356434001
 30
0
  0
SEQEND
  8
0
  0
POLYLINE
  8
0
 62
7
 66
1
  0
VERTEX
  8
0
 10
408.2988650677
 20
614.5800636468
 30
0
  0
VERTEX
  8
0
 10
408.260408896
 20
615.8726946768001
 30
0
  0
VERTEX
  8
0
 10
407.9999626753
 20
618.116749948
 30
0
  0
VERTEX
  8
0
 10
407.5450451252
 20
619.97262997
 30
0
  0
VERTEX
  8
0
 10
407.0112967071
 20
621.1649612841
 30
0
  0
VERTEX
  8
0
 10
406.4964094338
 20
621.5800629315
 30
0
  0
SEQEND
  8
0
  0
POLYLINE
  8
0
 62
7
 66
1
  0
VERTEX
  8
0
 10
319.8588826833
 20
485.4300623146
 30
0
  0
VERTEX
  8
0
 10
320.9580519376
 20
479.2152638865
 30
0
  0
VERTEX
  8
0
 10
323.549810904
 20
465.1131801392
 30
0
  0
VERTEX
  8
0
 10
323.6776330647
 20
464.4300625977
 30
0
  0
SEQEND
  8
0
  0
POLYLINE
  8
0
 62
7
 66
1
  0
VERTEX
  8
0
 10
303.943682569
 20
464.4300625977
 30
0
  0
VERTEX
  8
0
 10
306.663248795
 20
479.2152638865
 30
0
  0
VERTEX
  8
0
 10
307.7624180493
 20
485.4300623146
 30
0
  0
SEQEND
  8
0
  0
POLYLINE
  8
0
 62
7
 66
1
  0
VERTEX
  8
0
 10
302.5314250169
 20
485.4300623146
 30
0
  0
VERTEX
  8
0
 10
300.8821942983
 20
474.7559321431
 30
0
  0
VERTEX
  8
0
 10
298.9669778523
 20
464.4300625977
 30
0
  0
SEQEND
  8
0
  0
POLYLINE
  8
0
 62
7
 66
1
  0
VERTEX
  8
0
 10
328.6543228803
 20
464.4300625977
 30
0
  0
VERTEX
  8
0
 10
326.7375269112
 20
474.7651354727
 30
0
  0
VERTEX
  8
0
 10
325.0898757157
 20
485.4300623146
 30
0
  0
SEQEND
  8
0
  0
POLYLINE
  8
0
 62
7
 66
1
  0
VERTEX
  8
0
 10
306.5817990479
 20
450.0959650931
 30
0
  0
VERTEX
  8
0
 10
304.0723838982
 20
463.7421249962
 30
0
  0
VERTEX
  8
0
 10
303.943682569
 20
464.4300625977
 30
0
  0
SEQEND
  8
0
  0
POLYLINE
  8
0
 62
7
 66
1
  0
VERTEX
  8
0
 10
298.9669778523
 20
464.4300625977
 30
0
  0
VERTEX
  8
0
 10
300.8837887225
 20
454.0949897227
 30
0
  0
VERTEX
  8
0
 10
301.5892245946
 20
449.8352599648
 30
0
  0
SEQEND
  8
0
  0
POLYLINE
  8
0
 62
7
 66
1
  0
VERTEX
  8
0
 10
325.8053996739
 20
448.3849746493
 30
0
  0
VERTEX
  8
0
 10
326.7391064343
 20
454.1041930524
 30
0
  0
VERTEX
  8
0
 10
328.6543228803
 20
464.4300625977
 30
0
  0
SEQEND
  8
0
  0
POLYLINE
  8
0
 62
7
 66
1
  0
VERTEX
  8
0
 10
376.253951448
 20
591.0277501998
 30
0
  0
VERTEX
  8
0
 10
376.1722483811
 20
590.4362039027
 30
0
  0
VERTEX
  8
0
 10
376.173209506
 20
590.4300646243
 30
0
  0
SEQEND
  8
0
  0
POLYLINE
  8
0
 62
7
 66
1
  0
VERTEX
  8
0
 10
522.4587136087
 20
595.4300598559
 30
0
  0
VERTEX
  8
0
 10
522.4411525903
 20
595.4383449015001
 30
0
  0
VERTEX
  8
0
 10
522.0219233212
 20
595.6382886824
 30
0
  0
VERTEX
  8
0
 10
520.179245728
 20
596.5422825274
 30
0
  0
SEQEND
  8
0
  0
POLYLINE
  8
0
 62
7
 66
1
  0
VERTEX
  8
0
 10
376.173209506
 20
590.4300646243
 30
0
  0
VERTEX
  8
0
 10
376.1724346456
 20
590.4417024312
 30
0
  0
VERTEX
  8
0
 10
376.2252592621
 20
590.7280878482
 30
0
  0
SEQEND
  8
0
  0
POLYLINE
  8
0
 62
7
 66
1
  0
VERTEX
  8
0
 10
396.4420595345
 20
596.5422825274
 30
0
  0
VERTEX
  8
0
 10
394.1801526723
 20
595.4383449015001
 30
0
  0
VERTEX
  8
0
 10
394.1625916538
 20
595.4300598559
 30
0
  0
SEQEND
  8
0
  0
POLYLINE
  8
0
 62
7
 66
1
  0
VERTEX
  8
0
 10
404.8053511557
 20
601.5800671038001
 30
0
  0
VERTEX
  8
0
 10
404.8164338944
 20
601.8012152371
 30
0
  0
VERTEX
  8
0
 10
404.9447366176
 20
602.3541675267001
 30
0
  0
VERTEX
  8
0
 10
405.1646814821
 20
602.793572968
 30
0
  0
VERTEX
  8
0
 10
405.4353089211
 20
603.1356738267
 30
0
  0
VERTEX
  8
0
 10
405.6926296232
 20
603.3670739588
 30
0
  0
VERTEX
  8
0
 10
405.8097490249
 20
603.4703688082
 30
0
  0
VERTEX
  8
0
 10
405.7312497077
 20
603.4859703240001
 30
0
  0
VERTEX
  8
0
 10
405.4964111326
 20
603.4387187419
 30
0
  0
VERTEX
  8
0
 10
405.1716589508
 20
603.3192263302
 30
0
  0
VERTEX
  8
0
 10
404.7841691551
 20
603.0822829661
 30
0
  0
VERTEX
  8
0
 10
404.3876492557
 20
602.6606099066
 30
0
  0
VERTEX
  8
0
 10
404.1232952056
 20
602.0907000956
 30
0
  0
VERTEX
  8
0
 10
404.0544890938
 20
601.5800671038001
 30
0
  0
SEQEND
  8
0
  0
POLYLINE
  8
0
 62
7
 66
1
  0
VERTEX
  8
0
 10
443.3106529665
 20
603.5800562558
 30
0
  0
VERTEX
  8
0
 10
441.9345651892
 20
609.0404526648
 30
0
  0
VERTEX
  8
0
 10
440.5705780861
 20
614.4528226313
 30
0
  0
VERTEX
  8
0
 10
439.2196965543
 20
619.8131726441
 30
0
  0
SEQEND
  8
0
  0
POLYLINE
  8
0
 62
7
 66
1
  0
VERTEX
  8
0
 10
304.2117693601
 20
503.7928806004
 30
0
  0
VERTEX
  8
0
 10
304.284427422
 20
504.5717866478
 30
0
  0
VERTEX
  8
0
 10
304.3365218816
 20
504.5882859585
 30
0
  0
VERTEX
  8
0
 10
304.386753696
 20
504.1598254201
 30
0
  0
VERTEX
  8
0
 10
304.4127264199
 20
503.7928806004
 30
0
  0
SEQEND
  8
0
  0
POLYLINE
  8
0
 62
7
 66
1
  0
VERTEX
  8
0
 10
323.4095313725
 20
503.7928806004
 30
0
  0
VERTEX
  8
0
 10
323.3835735497
 20
504.1598254201
 30
0
  0
VERTEX
  8
0
 10
323.3320304332
 20
504.5938254652
 30
0
  0
VERTEX
  8
0
 10
323.3122416911
 20
504.585238671
 30
0
  0
SEQEND
  8
0
  0
POLYLINE
  8
0
 62
7
 66
1
  0
VERTEX
  8
0
 10
396.3898346898
 20
607.4300692734
 30
0
  0
VERTEX
  8
0
 10
398.4392509935
 20
606.9413260873999
 30
0
  0
VERTEX
  8
0
 10
399.1322518465
 20
606.5815524516
 30
0
  0
SEQEND
  8
0
  0
POLYLINE
  8
0
 62
7
 66
1
  0
VERTEX
  8
0
 10
379.9353503761
 20
607.4300692734
 30
0
  0
VERTEX
  8
0
 10
381.334181982
 20
607.1971790251
 30
0
  0
VERTEX
  8
0
 10
382.6777675328
 20
606.5815524516
 30
0
  0
SEQEND
  8
0
  0
POLYLINE
  8
0
 62
7
 66
1
  0
VERTEX
  8
0
 10
393.6474212584
 20
606.5815524516
 30
0
  0
VERTEX
  8
0
 10
395.6435137567
 20
607.3627756295
 30
0
  0
VERTEX
  8
0
 10
396.3898346898
 20
607.4300692734
 30
0
  0
SEQEND
  8
0
  0
POLYLINE
  8
0
 62
7
 66
1
  0
VERTEX
  8
0
 10
388.1625943956
 20
607.4300692734
 30
0
  0
VERTEX
  8
0
 10
390.9602501569
 20
607.1971790251
 30
0
  0
VERTEX
  8
0
 10
393.6474212584
 20
606.5815524516
 30
0
  0
SEQEND
  8
0
  0
POLYLINE
  8
0
 62
7
 66
1
  0
VERTEX
  8
0
 10
447.3409979743
 20
606.5815524516
 30
0
  0
VERTEX
  8
0
 10
448.0339978961
 20
606.9413260873999
 30
0
  0
VERTEX
  8
0
 10
450.0834114057
 20
607.4300692734
 30
0
  0
SEQEND
  8
0
  0
POLYLINE
  8
0
 62
7
 66
1
  0
VERTEX
  8
0
 10
466.5378938568
 20
607.4300692734
 30
0
  0
VERTEX
  8
0
 10
467.9367217374
 20
607.1971790251
 30
0
  0
VERTEX
  8
0
 10
469.2803072882
 20
606.5815524516
 30
0
  0
SEQEND
  8
0
  0
POLYLINE
  8
0
 62
7
 66
1
  0
VERTEX
  8
0
 10
450.0834114057
 20
607.4300692734
 30
0
  0
VERTEX
  8
0
 10
450.8297318732
 20
607.3627756295
 30
0
  0
VERTEX
  8
0
 10
452.8258253028
 20
606.5815524516
 30
0
  0
SEQEND
  8
0
  0
POLYLINE
  8
0
 62
7
 66
1
  0
VERTEX
  8
0
 10
458.3106526313
 20
607.4300692734
 30
0
  0
VERTEX
  8
0
 10
461.1083081597
 20
607.1971790251
 30
0
  0
VERTEX
  8
0
 10
463.7954799597
 20
606.5815524516
 30
0
  0
SEQEND
  8
0
  0
POLYLINE
  8
0
 62
7
 66
1
  0
VERTEX
  8
0
 10
520.2314705727
 20
607.4300692734
 30
0
  0
VERTEX
  8
0
 10
521.6302984533
 20
607.1971790251
 30
0
  0
VERTEX
  8
0
 10
522.9738840041
 20
606.5815524516
 30
0
  0
SEQEND
  8
0
  0
POLYLINE
  8
0
 62
7
 66
1
  0
VERTEX
  8
0
 10
522.9738840041
 20
606.5815524516
 30
0
  0
VERTEX
  8
0
 10
524.3598857102001
 20
606.9413260873999
 30
0
  0
VERTEX
  8
0
 10
528.4587108669
 20
607.4300692734
 30
0
  0
SEQEND
  8
0
  0
POLYLINE
  8
0
 62
7
 66
1
  0
VERTEX
  8
0
 10
528.4587108669
 20
607.4300692734
 30
0
  0
VERTEX
  8
0
 10
529.9513527331
 20
607.3627756295
 30
0
  0
VERTEX
  8
0
 10
533.9435377297
 20
606.5815524516
 30
0
  0
SEQEND
  8
0
  0
POLYLINE
  8
0
 62
7
 66
1
  0
VERTEX
  8
0
 10
536.6859548864001
 20
607.4300692734
 30
0
  0
VERTEX
  8
0
 10
538.0847790418
 20
607.1971790251
 30
0
  0
VERTEX
  8
0
 10
539.4283645925
 20
606.5815524516
 30
0
  0
SEQEND
  8
0
  0
POLYLINE
  8
0
 62
7
 66
1
  0
VERTEX
  8
0
 10
397.9502917406
 20
556.2785701213001
 30
0
  0
VERTEX
  8
0
 10
397.8101947484
 20
555.686956769
 30
0
  0
VERTEX
  8
0
 10
397.6696581719
 20
555.4346801099
 30
0
  0
VERTEX
  8
0
 10
397.6481706974
 20
555.4300607500001
 30
0
  0
SEQEND
  8
0
  0
POLYLINE
  8
0
 62
7
 66
1
  0
VERTEX
  8
0
 10
397.6481706974
 20
555.4300607500001
 30
0
  0
VERTEX
  8
0
 10
397.494070339
 20
555.6629509983
 30
0
  0
VERTEX
  8
0
 10
397.3460496542
 20
556.2785701213001
 30
0
  0
SEQEND
  8
0
  0
POLYLINE
  8
0
 62
7
 66
1
  0
VERTEX
  8
0
 10
378.3749007759
 20
556.2785701213001
 30
0
  0
VERTEX
  8
0
 10
378.5149940429
 20
555.686956769
 30
0
  0
VERTEX
  8
0
 10
378.6555343447
 20
555.4346801099
 30
0
  0
VERTEX
  8
0
 10
378.6770143685
 20
555.4300607500001
 30
0
  0
SEQEND
  8
0
  0
POLYLINE
  8
0
 62
7
 66
1
  0
VERTEX
  8
0
 10
397.3460496542
 20
556.2785701213001
 30
0
  0
VERTEX
  8
0
 10
393.7840127525
 20
555.4973543939
 30
0
  0
VERTEX
  8
0
 10
392.4521991191
 20
555.4300607500001
 30
0
  0
SEQEND
  8
0
  0
POLYLINE
  8
0
 62
7
 66
1
  0
VERTEX
  8
0
 10
392.4521991191
 20
555.4300607500001
 30
0
  0
VERTEX
  8
0
 10
388.7950145779
 20
555.9187964854
 30
0
  0
VERTEX
  8
0
 10
387.5583523092
 20
556.2785701213001
 30
0
  0
SEQEND
  8
0
  0
POLYLINE
  8
0
 62
7
 66
1
  0
VERTEX
  8
0
 10
382.9666265426
 20
555.4300607500001
 30
0
  0
VERTEX
  8
0
 10
380.6245141802
 20
555.6629509983
 30
0
  0
VERTEX
  8
0
 10
378.3749007759
 20
556.2785701213001
 30
0
  0
SEQEND
  8
0
  0
POLYLINE
  8
0
 62
7
 66
1
  0
VERTEX
  8
0
 10
468.0983499763
 20
556.2785701213001
 30
0
  0
VERTEX
  8
0
 10
467.8784488839
 20
555.4973543939
 30
0
  0
VERTEX
  8
0
 10
467.7962298644
 20
555.4300607500001
 30
0
  0
SEQEND
  8
0
  0
POLYLINE
  8
0
 62
7
 66
1
  0
VERTEX
  8
0
 10
448.5229552863
 20
556.2785701213001
 30
0
  0
VERTEX
  8
0
 10
448.5993004543
 20
555.9187964854
 30
0
  0
VERTEX
  8
0
 10
448.8250753981
 20
555.4300607500001
 30
0
  0
SEQEND
  8
0
  0
POLYLINE
  8
0
 62
7
 66
1
  0
VERTEX
  8
0
 10
467.7962298644
 20
555.4300607500001
 30
0
  0
VERTEX
  8
0
 10
467.5704539893
 20
555.9187964854
 30
0
  0
VERTEX
  8
0
 10
467.4941088212
 20
556.2785701213001
 30
0
  0
SEQEND
  8
0
  0
POLYLINE
  8
0
 62
7
 66
1
  0
VERTEX
  8
0
 10
453.1146833812
 20
555.4300607500001
 30
0
  0
VERTEX
  8
0
 10
450.7725724158
 20
555.6629509983
 30
0
  0
VERTEX
  8
0
 10
448.5229552863
 20
556.2785701213001
 30
0
  0
SEQEND
  8
0
  0
POLYLINE
  8
0
 62
7
 66
1
  0
VERTEX
  8
0
 10
462.6002601487
 20
555.4300607500001
 30
0
  0
VERTEX
  8
0
 10
460.1040462637
 20
555.6629509983
 30
0
  0
VERTEX
  8
0
 10
457.7064114762
 20
556.2785701213001
 30
0
  0
SEQEND
  8
0
  0
POLYLINE
  8
0
 62
7
 66
1
  0
VERTEX
  8
0
 10
538.2464044866
 20
556.2785701213001
 30
0
  0
VERTEX
  8
0
 10
538.1063112197001
 20
555.686956769
 30
0
  0
VERTEX
  8
0
 10
537.9657709179
 20
555.4346801099
 30
0
  0
VERTEX
  8
0
 10
537.944290894
 20
555.4300607500001
 30
0
  0
SEQEND
  8
0
  0
POLYLINE
  8
0
 62
7
 66
1
  0
VERTEX
  8
0
 10
518.6710135219
 20
556.2785701213001
 30
0
  0
VERTEX
  8
0
 10
518.8111105142
 20
555.686956769
 30
0
  0
VERTEX
  8
0
 10
518.9516470907
 20
555.4346801099
 30
0
  0
VERTEX
  8
0
 10
518.9731345651001
 20
555.4300607500001
 30
0
  0
SEQEND
  8
0
  0
POLYLINE
  8
0
 62
7
 66
1
  0
VERTEX
  8
0
 10
537.944290894
 20
555.4300607500001
 30
0
  0
VERTEX
  8
0
 10
537.790183085
 20
555.6629509983
 30
0
  0
VERTEX
  8
0
 10
537.6421698508
 20
556.2785701213001
 30
0
  0
SEQEND
  8
0
  0
POLYLINE
  8
0
 62
7
 66
1
  0
VERTEX
  8
0
 10
523.2627430138
 20
555.4300607500001
 30
0
  0
VERTEX
  8
0
 10
522.0131465373
 20
555.4973543939
 30
0
  0
VERTEX
  8
0
 10
518.6710135219
 20
556.2785701213001
 30
0
  0
SEQEND
  8
0
  0
POLYLINE
  8
0
 62
7
 66
1
  0
VERTEX
  8
0
 10
527.8544687805
 20
556.2785701213001
 30
0
  0
VERTEX
  8
0
 10
526.6941526112
 20
555.9187964854
 30
0
  0
VERTEX
  8
0
 10
523.2627430138
 20
555.4300607500001
 30
0
  0
SEQEND
  8
0
  0
POLYLINE
  8
0
 62
7
 66
1
  0
VERTEX
  8
0
 10
532.7483155904
 20
555.4300607500001
 30
0
  0
VERTEX
  8
0
 10
530.2521028695001
 20
555.6629509983
 30
0
  0
VERTEX
  8
0
 10
527.8544687805
 20
556.2785701213001
 30
0
  0
SEQEND
  8
0
  0
POLYLINE
  8
0
 62
7
 66
1
  0
VERTEX
  8
0
 10
317.3104413924
 20
431.5085769949
 30
0
  0
VERTEX
  8
0
 10
321.4118220982
 20
430.8559322116
 30
0
  0
VERTEX
  8
0
 10
325.4001327929
 20
429.5239695666
 30
0
  0
VERTEX
  8
0
 10
329.3008693633
 20
427.9419281838
 30
0
  0
VERTEX
  8
0
 10
336.8135132966
 20
424.3927025554
 30
0
  0
VERTEX
  8
0
 10
343.8584246812
 20
419.9912720678
 30
0
  0
VERTEX
  8
0
 10
349.4198435125
 20
415.4915944991
 30
0
  0
VERTEX
  8
0
 10
354.6079957065
 20
410.534518337
 30
0
  0
VERTEX
  8
0
 10
359.691914278
 20
405.4449224231
 30
0
  0
VERTEX
  8
0
 10
364.9406247911
 20
400.5476818738
 30
0
  0
VERTEX
  8
0
 10
367.5022908626
 20
398.3928994593
 30
0
  0
SEQEND
  8
0
  0
POLYLINE
  8
0
 62
7
 66
1
  0
VERTEX
  8
0
 10
337.3106532869
 20
417.120168483
 30
0
  0
VERTEX
  8
0
 10
342.6551261125
 20
413.3845889327
 30
0
  0
VERTEX
  8
0
 10
347.6059102592
 20
409.1382869837
 30
0
  0
VERTEX
  8
0
 10
352.1646672068
 20
404.5276367423
 30
0
  0
VERTEX
  8
0
 10
356.7145356116
 20
399.9075875935
 30
0
  0
VERTEX
  8
0
 10
362.572286385
 20
394.6812958774
 30
0
  0
SEQEND
  8
0
  0
POLYLINE
  8
0
 62
7
 66
1
  0
VERTEX
  8
0
 10
343.5650059161
 20
506.6115507242
 30
0
  0
VERTEX
  8
0
 10
340.5991980014
 20
506.4606168625
 30
0
  0
VERTEX
  8
0
 10
338.8137632189
 20
506.3697495815
 30
0
  0
VERTEX
  8
0
 10
338.8106563268
 20
506.3695931193
 30
0
  0
SEQEND
  8
0
  0
POLYLINE
  8
0
 62
7
 66
1
  0
VERTEX
  8
0
 10
347.882706779
 20
507.3101693151
 30
0
  0
VERTEX
  8
0
 10
345.7066008029
 20
506.8366178629
 30
0
  0
VERTEX
  8
0
 10
343.5650059161
 20
506.6115507242
 30
0
  0
SEQEND
  8
0
  0
POLYLINE
  8
0
 62
7
 66
1
  0
VERTEX
  8
0
 10
317.3104413924
 20
431.5085769949
 30
0
  0
VERTEX
  8
0
 10
317.3106053052
 20
432.7809647975
 30
0
  0
VERTEX
  8
0
 10
317.3104860959
 20
434.6947600451
 30
0
  0
VERTEX
  8
0
 10
317.3104115901
 20
437.7553914991
 30
0
  0
VERTEX
  8
0
 10
317.3106649098
 20
441.4768652377
 30
0
  0
VERTEX
  8
0
 10
317.3105009971
 20
445.966676375
 30
0
  0
VERTEX
  8
0
 10
317.3105009971
 20
449.8257586119
 30
0
  0
SEQEND
  8
0
  0
POLYLINE
  8
0
 62
7
 66
1
  0
VERTEX
  8
0
 10
463.9137686369
 20
407.5045460221
 30
0
  0
VERTEX
  8
0
 10
464.7894567949
 20
407.634551203
 30
0
  0
VERTEX
  8
0
 10
465.745233572
 20
408.2201072333
 30
0
  0
SEQEND
  8
0
  0
POLYLINE
  8
0
 62
7
 66
1
  0
VERTEX
  8
0
 10
465.745233572
 20
408.2201072333
 30
0
  0
VERTEX
  8
0
 10
466.3279225258
 20
409.3551435825
 30
0
  0
VERTEX
  8
0
 10
466.4993659732
 20
410.9852598366
 30
0
  0
SEQEND
  8
0
  0
POLYLINE
  8
0
 62
7
 66
1
  0
VERTEX
  8
0
 10
465.6734113721
 20
413.8581441102
 30
0
  0
VERTEX
  8
0
 10
464.9699270864
 20
414.3204228339
 30
0
  0
VERTEX
  8
0
 10
463.9137686369
 20
414.5045453069
 30
0
  0
SEQEND
  8
0
  0
POLYLINE
  8
0
 62
7
 66
1
  0
VERTEX
  8
0
 10
465.0629233708
 20
408.6869494376
 30
0
  0
VERTEX
  8
0
 10
464.6090652001
 20
408.3508500216
 30
0
  0
VERTEX
  8
0
 10
463.9137686369
 20
408.1841954348
 30
0
  0
SEQEND
  8
0
  0
POLYLINE
  8
0
 62
7
 66
1
  0
VERTEX
  8
0
 10
463.9137686369
 20
413.8248958943
 30
0
  0
VERTEX
  8
0
 10
464.4497331371
 20
413.7332090494
 30
0
  0
VERTEX
  8
0
 10
465.027012038
 20
413.3553901074
 30
0
  0
SEQEND
  8
0
  0
POLYLINE
  8
0
 62
7
 66
1
  0
VERTEX
  8
0
 10
338.2151537714
 20
445.2063353119
 30
0
  0
VERTEX
  8
0
 10
339.1537928162
 20
445.0895958898
 30
0
  0
VERTEX
  8
0
 10
340.9095295844
 20
444.9403812495
 30
0
  0
VERTEX
  8
0
 10
344.3127685366
 20
444.721039882
 30
0
  0
VERTEX
  8
0
 10
347.73373242
 20
444.445735341
 30
0
  0
VERTEX
  8
0
 10
351.2634002743
 20
443.9389990029
 30
0
  0
VERTEX
  8
0
 10
354.7230922756
 20
443.0861682949
 30
0
  0
VERTEX
  8
0
 10
358.1647985754
 20
441.8630176541
 30
0
  0
VERTEX
  8
0
 10
361.6286480007
 20
440.2558920291
 30
0
  0
VERTEX
  8
0
 10
364.9700322328
 20
438.3309209106
 30
0
  0
VERTEX
  8
0
 10
368.067290741
 20
436.1759019402
 30
0
  0
VERTEX
  8
0
 10
370.9836044488
 20
433.743251985
 30
0
  0
VERTEX
  8
0
 10
374.2826768336
 20
430.3285838422
 30
0
  0
VERTEX
  8
0
 10
377.0478406129
 20
426.5138195214
 30
0
  0
VERTEX
  8
0
 10
378.3380129514
 20
424.0931854901
 30
0
  0
VERTEX
  8
0
 10
379.3026396212
 20
421.568250781
 30
0
  0
VERTEX
  8
0
 10
379.9700104771
 20
418.038843697
 30
0
  0
VERTEX
  8
0
 10
379.9592071352
 20
415.9383052346
 30
0
  0
VERTEX
  8
0
 10
379.6619140682
 20
414.043779051
 30
0
  0
VERTEX
  8
0
 10
379.1411929903
 20
412.2943491993
 30
0
  0
VERTEX
  8
0
 10
378.4874343452
 20
410.7451164481
 30
0
  0
VERTEX
  8
0
 10
377.5156700191
 20
408.9571223912
 30
0
  0
VERTEX
  8
0
 10
376.4705398259
 20
407.383481538
 30
0
  0
VERTEX
  8
0
 10
374.3837737617
 20
404.788712537
 30
0
  0
VERTEX
  8
0
 10
372.3500334797
 20
402.6536220071
 30
0
  0
VERTEX
  8
0
 10
370.4268970666
 20
400.8611576018
 30
0
  0
VERTEX
  8
0
 10
366.9923805771
 20
397.9869843778
 30
0
  0
VERTEX
  8
0
 10
364.8410477815
 20
396.3340358195
 30
0
  0
VERTEX
  8
0
 10
363.3484208164
 20
395.238636559
 30
0
  0
VERTEX
  8
0
 10
362.6969122467
 20
394.769309586
 30
0
  0
VERTEX
  8
0
 10
362.5827619014
 20
394.6887688098
 30
0
  0
SEQEND
  8
0
  0
POLYLINE
  8
0
 62
7
 66
1
  0
VERTEX
  8
0
 10
383.701171833
 20
380.4227249083
 30
0
  0
VERTEX
  8
0
 10
372.8045114455
 20
387.0033161101
 30
0
  0
VERTEX
  8
0
 10
362.5827619014
 20
394.6887688098
 30
0
  0
SEQEND
  8
0
  0
POLYLINE
  8
0
 62
7
 66
1
  0
VERTEX
  8
0
 10
407.7756815729
 20
370.5448047576
 30
0
  0
VERTEX
  8
0
 10
395.4796009836
 20
374.8622224984
 30
0
  0
VERTEX
  8
0
 10
383.701171833
 20
380.4227249083
 30
0
  0
SEQEND
  8
0
  0
POLYLINE
  8
0
 62
7
 66
1
  0
VERTEX
  8
0
 10
434.1528230486
 20
365.819274014
 30
0
  0
VERTEX
  8
0
 10
431.6391498921
 20
365.971303111
 30
0
  0
VERTEX
  8
0
 10
423.5346988914
 20
366.9909299669
 30
0
  0
SEQEND
  8
0
  0
POLYLINE
  8
0
 62
7
 66
1
  0
VERTEX
  8
0
 10
168.3078893599
 20
508.9226500449
 30
0
  0
VERTEX
  8
0
 10
168.2900377688
 20
508.9277574179
 30
0
  0
VERTEX
  8
0
 10
168.1772657809
 20
508.9291879294
 30
0
  0
SEQEND
  8
0
  0
POLYLINE
  8
0
 62
7
 66
1
  0
VERTEX
  8
0
 10
163.1367095885
 20
508.9260586855
 30
0
  0
VERTEX
  8
0
 10
163.2377394614
 20
508.9192339537
 30
0
  0
VERTEX
  8
0
 10
163.2545777736
 20
508.9143091199
 30
0
  0
VERTEX
  8
0
 10
163.2590779242
 20
508.908445513
 30
0
  0
SEQEND
  8
0
  0
POLYLINE
  8
0
 62
7
 66
1
  0
VERTEX
  8
0
 10
159.1146477637
 20
508.9226500449
 30
0
  0
VERTEX
  8
0
 10
159.0967961726
 20
508.9277574179
 30
0
  0
VERTEX
  8
0
 10
158.9840241847
 20
508.9291879294
 30
0
  0
SEQEND
  8
0
  0
POLYLINE
  8
0
 62
7
 66
1
  0
VERTEX
  8
0
 10
153.9434679923
 20
508.9260586855
 30
0
  0
VERTEX
  8
0
 10
154.0444978652
 20
508.9192339537
 30
0
  0
VERTEX
  8
0
 10
154.0613659797
 20
508.9143091199
 30
0
  0
VERTEX
  8
0
 10
154.065836328
 20
508.908445513
 30
0
  0
SEQEND
  8
0
  0
POLYLINE
  8
0
 62
7
 66
1
  0
VERTEX
  8
0
 10
129.5159944472
 20
508.8410624621
 30
0
  0
VERTEX
  8
0
 10
129.4745394168
 20
508.8921883461
 30
0
  0
VERTEX
  8
0
 10
129.0452965674
 20
508.9240395782
 30
0
  0
SEQEND
  8
0
  0
POLYLINE
  8
0
 62
7
 66
1
  0
VERTEX
  8
0
 10
142.4254962382
 20
508.8523761687
 30
0
  0
VERTEX
  8
0
 10
142.3874088702
 20
508.8968486843
 30
0
  0
VERTEX
  8
0
 10
141.9851073203
 20
508.92284376
 30
0
  0
SEQEND
  8
0
  0
POLYLINE
  8
0
 62
7
 66
1
  0
VERTEX
  8
0
 10
135.4074665484
 20
508.9247250316
 30
0
  0
VERTEX
  8
0
 10
135.5859526572
 20
508.9285024759
 30
0
  0
VERTEX
  8
0
 10
136.3702603755
 20
508.9260735867
 30
0
  0
VERTEX
  8
0
 10
137.1693202433
 20
508.9168311414
 30
0
  0
VERTEX
  8
0
 10
138.0854138312
 20
508.9125023541
 30
0
  0
SEQEND
  8
0
  0
POLYLINE
  8
0
 62
7
 66
1
  0
VERTEX
  8
0
 10
140.3016337333
 20
508.8523761687
 30
0
  0
VERTEX
  8
0
 10
140.2728148875
 20
508.7971450147
 30
0
  0
VERTEX
  8
0
 10
139.8808547435
 20
508.6193592605
 30
0
  0
VERTEX
  8
0
 10
139.1935237822
 20
508.4786885736
 30
0
  0
SEQEND
  8
0
  0
POLYLINE
  8
0
 62
7
 66
1
  0
VERTEX
  8
0
 10
258.5589924035
 20
421.0000806806
 30
0
  0
VERTEX
  8
0
 10
258.5382797894
 20
420.9448234496
 30
0
  0
VERTEX
  8
0
 10
258.8116266904
 20
421.6745258627
 30
0
  0
VERTEX
  8
0
 10
259.4484576163
 20
423.3245016393
 30
0
  0
VERTEX
  8
0
 10
260.5028488812
 20
425.8381710705
 30
0
  0
VERTEX
  8
0
 10
261.8598082242
 20
428.7381456551
 30
0
  0
VERTEX
  8
0
 10
263.6981793818
 20
432.1289495883
 30
0
  0
VERTEX
  8
0
 10
266.0897561488
 20
435.8153199163
 30
0
  0
VERTEX
  8
0
 10
269.1352554736
 20
439.6024369952
 30
0
  0
VERTEX
  8
0
 10
271.7953511653
 20
442.2446289417
 30
0
  0
VERTEX
  8
0
 10
274.8746910272
 20
444.6277977285
 30
0
  0
VERTEX
  8
0
 10
278.4231045422
 20
446.5379477796
 30
0
  0
VERTEX
  8
0
 10
282.3106535849
 20
447.8420806435
 30
0
  0
SEQEND
  8
0
  0
POLYLINE
  8
0
 62
7
 66
1
  0
VERTEX
  8
0
 10
129.5159944472
 20
507.8390115258
 30
0
  0
VERTEX
  8
0
 10
129.5013019023
 20
507.7943527457
 30
0
  0
VERTEX
  8
0
 10
129.0216633258
 20
507.5151422379
 30
0
  0
VERTEX
  8
0
 10
127.9461571154
 20
507.241847491
 30
0
  0
SEQEND
  8
0
  0
POLYLINE
  8
0
 62
7
 66
1
  0
VERTEX
  8
0
 10
163.2590779242
 20
507.9079480228
 30
0
  0
VERTEX
  8
0
 10
163.2543989596
 20
507.9140686748
 30
0
  0
VERTEX
  8
0
 10
163.2367559848
 20
507.9191648719
 30
0
  0
VERTEX
  8
0
 10
163.1367095885
 20
507.925967252
 30
0
  0
SEQEND
  8
0
  0
POLYLINE
  8
0
 62
7
 66
1
  0
VERTEX
  8
0
 10
154.065836328
 20
507.9079480228
 30
0
  0
VERTEX
  8
0
 10
154.0611573634
 20
507.9140686748
 30
0
  0
VERTEX
  8
0
 10
154.0435441909
 20
507.9191648719
 30
0
  0
VERTEX
  8
0
 10
153.9434679923
 20
507.925967252
 30
0
  0
SEQEND
  8
0
  0
POLYLINE
  8
0
 62
7
 66
1
  0
VERTEX
  8
0
 10
288.810659307
 20
448.8527463135
 30
0
  0
VERTEX
  8
0
 10
286.2419971404
 20
448.5781179127
 30
0
  0
VERTEX
  8
0
 10
282.3106535849
 20
447.8420806435
 30
0
  0
SEQEND
  8
0
  0
POLYLINE
  8
0
 62
7
 66
1
  0
VERTEX
  8
0
 10
338.4789639292
 20
413.1294326243
 30
0
  0
VERTEX
  8
0
 10
337.7393373427
 20
411.0831194875
 30
0
  0
VERTEX
  8
0
 10
333.8106536446
 20
400.2287374196
 30
0
  0
SEQEND
  8
0
  0
POLYLINE
  8
0
 62
7
 66
1
  0
VERTEX
  8
0
 10
293.8106545386
 20
400.2287374196
 30
0
  0
VERTEX
  8
0
 10
289.8604610143
 20
411.1426011977
 30
0
  0
VERTEX
  8
0
 10
288.810659307
 20
414.0474968908
 30
0
  0
SEQEND
  8
0
  0
POLYLINE
  8
0
 62
7
 66
1
  0
VERTEX
  8
0
 10
338.4789639292
 20
413.1294326243
 30
0
  0
VERTEX
  8
0
 10
338.576566535
 20
413.4251983223
 30
0
  0
VERTEX
  8
0
 10
338.8106563268
 20
415.02475602
 30
0
  0
SEQEND
  8
0
  0
POLYLINE
  8
0
 62
7
 66
1
  0
VERTEX
  8
0
 10
328.9753236947
 20
447.4373036382
 30
0
  0
VERTEX
  8
0
 10
333.6699643311
 20
446.0694068429
 30
0
  0
VERTEX
  8
0
 10
338.3732327399
 20
445.1763169226
 30
0
  0
SEQEND
  8
0
  0
POLYLINE
  8
0
 62
7
 66
1
  0
VERTEX
  8
0
 10
301.5892245946
 20
449.8352599648
 30
0
  0
VERTEX
  8
0
 10
301.7260917601
 20
449.8440004272
 30
0
  0
VERTEX
  8
0
 10
302.6763090072
 20
449.9026504663
 30
0
  0
VERTEX
  8
0
 10
303.5153337893
 20
449.9511723724
 30
0
  0
VERTEX
  8
0
 10
304.1404375014
 20
449.9850883466
 30
0
  0
VERTEX
  8
0
 10
304.4537344155
 20
450.0013110546
 30
0
  0
VERTEX
  8
0
 10
304.4372984347
 20
450.0004710016
 30
0
  0
SEQEND
  8
0
  0
POLYLINE
  8
0
 62
7
 66
1
  0
VERTEX
  8
0
 10
305.5840918002
 20
450.0551489499
 30
0
  0
VERTEX
  8
0
 10
305.8036604104
 20
450.0646978003
 30
0
  0
VERTEX
  8
0
 10
305.7802208838
 20
450.0636901093
 30
0
  0
SEQEND
  8
0
  0
POLYLINE
  8
0
 62
7
 66
1
  0
VERTEX
  8
0
 10
325.3627606807
 20
407.1128056702
 30
0
  0
VERTEX
  8
0
 10
328.7415393767
 20
413.9208332953
 30
0
  0
VERTEX
  8
0
 10
328.8106509623
 20
414.060203856
 30
0
  0
SEQEND
  8
0
  0
POLYLINE
  8
0
 62
7
 66
1
  0
VERTEX
  8
0
 10
518.4644467302001
 20
434.9988626608
 30
0
  0
VERTEX
  8
0
 10
512.0288340315
 20
438.3096111849
 30
0
  0
VERTEX
  8
0
 10
506.1146631343
 20
440.7204499767
 30
0
  0
VERTEX
  8
0
 10
500.6420486195
 20
442.3490741189
 30
0
  0
VERTEX
  8
0
 10
495.5311050677
 20
443.3131786944
 30
0
  0
VERTEX
  8
0
 10
490.7019470595
 20
443.7304587859
 30
0
  0
VERTEX
  8
0
 10
486.0746891757
 20
443.7186094763
 30
0
  0
VERTEX
  8
0
 10
481.5694459969
 20
443.3953258483
 30
0
  0
VERTEX
  8
0
 10
477.1063321038
 20
442.8783029847
 30
0
  0
VERTEX
  8
0
 10
472.6054620772
 20
442.2852359684
 30
0
  0
VERTEX
  8
0
 10
467.9869504976
 20
441.7338198822
 30
0
  0
VERTEX
  8
0
 10
463.1720274632
 20
441.3407056366
 30
0
  0
VERTEX
  8
0
 10
458.136340693
 20
441.1716069185
 30
0
  0
VERTEX
  8
0
 10
452.9333831675
 20
441.2193709156
 30
0
  0
VERTEX
  8
0
 10
447.6226380151
 20
441.4712377806
 30
0
  0
VERTEX
  8
0
 10
442.2635883639
 20
441.9144476666
 30
0
  0
VERTEX
  8
0
 10
436.9157173421
 20
442.5362407262
 30
0
  0
VERTEX
  8
0
 10
431.638508078
 20
443.3238571125
 30
0
  0
VERTEX
  8
0
 10
426.4914436998
 20
444.2645369783
 30
0
  0
VERTEX
  8
0
 10
421.5340073357
 20
445.3455204765
 30
0
  0
VERTEX
  8
0
 10
416.8256821139
 20
446.55404776
 30
0
  0
VERTEX
  8
0
 10
412.422582856
 20
447.8779279002
 30
0
  0
VERTEX
  8
0
 10
408.3353922625
 20
449.3126436099
 30
0
  0
VERTEX
  8
0
 10
404.5421977239
 20
450.859183062
 30
0
  0
VERTEX
  8
0
 10
401.0203747525
 20
452.5186546676
 30
0
  0
VERTEX
  8
0
 10
397.7472988608
 20
454.2921668382
 30
0
  0
VERTEX
  8
0
 10
394.7003455611
 20
456.1808279851
 30
0
  0
VERTEX
  8
0
 10
391.8568903659
 20
458.1857465196
 30
0
  0
VERTEX
  8
0
 10
389.1943087875
 20
460.3080308532
 30
0
  0
VERTEX
  8
0
 10
386.6899763384
 20
462.5487893972
 30
0
  0
VERTEX
  8
0
 10
384.3212685309
 20
464.9091305629
 30
0
  0
VERTEX
  8
0
 10
382.0655608775
 20
467.3901627616
 30
0
  0
VERTEX
  8
0
 10
379.9002288905
 20
469.9929944048
 30
0
  0
VERTEX
  8
0
 10
377.8026480824
 20
472.7187339037
 30
0
  0
VERTEX
  8
0
 10
375.7501939656
 20
475.5684896698
 30
0
  0
VERTEX
  8
0
 10
373.7202420524
 20
478.5433701144
 30
0
  0
VERTEX
  8
0
 10
371.6901678553
 20
481.6444836488
 30
0
  0
VERTEX
  8
0
 10
369.6373468867
 20
484.8729386844
 30
0
  0
VERTEX
  8
0
 10
367.5391546589
 20
488.2298436325
 30
0
  0
VERTEX
  8
0
 10
365.3729666844
 20
491.7163069045
 30
0
  0
VERTEX
  8
0
 10
363.1161584756
 20
495.3334369117
 30
0
  0
SEQEND
  8
0
  0
LINE
  8
1
 62
2
 10
509.6439859646333
 20
230.0924976727387
 30
0
 11
509.9773192979666
 21
230.4674976727387
 31
0
  0
LINE
  8
1
 62
2
 10
509.6439859646333
 20
232.3424976727387
 30
0
 11
507.6439859646333
 21
232.3424976727387
 31
0
  0
LINE
  8
1
 62
2
 10
514.6439859646332
 20
223.7174976727387
 30
0
 11
517.6439859646332
 21
223.7174976727387
 31
0
  0
LINE
  8
1
 62
2
 10
511.3106526312999
 20
223.7174976727387
 30
0
 11
514.6439859646332
 21
223.7174976727387
 31
0
  0
LINE
  8
1
 62
2
 10
514.6439859646332
 20
234.5924976727387
 30
0
 11
514.6439859646332
 21
223.7174976727387
 31
0
  0
LINE
  8
1
 62
2
 10
512.3106526312999
 20
230.0924976727387
 30
0
 11
516.9773192979666
 21
230.0924976727387
 31
0
  0
LINE
  8
1
 62
2
 10
510.3106526312999
 20
229.7174976727387
 30
0
 11
511.9773192979666
 21
227.8424976727387
 31
0
  0
LINE
  8
1
 62
2
 10
509.6439859646333
 20
232.3424976727387
 30
0
 11
509.6439859646333
 21
234.5924976727387
 31
0
  0
LINE
  8
1
 62
2
 10
511.3106526312999
 20
232.3424976727387
 30
0
 11
509.6439859646333
 21
232.3424976727387
 31
0
  0
LINE
  8
1
 62
2
 10
509.9773192979666
 20
230.4674976727387
 30
0
 11
511.3106526312999
 21
232.3424976727387
 31
0
  0
LINE
  8
1
 62
2
 10
508.3106526312999
 20
228.5924976727387
 30
0
 11
509.6439859646333
 21
230.0924976727387
 31
0
  0
LINE
  8
1
 62
2
 10
506.9773192979666
 20
227.4674976727387
 30
0
 11
508.3106526312999
 21
228.5924976727387
 31
0
  0
LINE
  8
1
 62
2
 10
509.6439859646333
 20
223.3424976727387
 30
0
 11
509.6439859646333
 21
230.0924976727387
 31
0
  0
LINE
  8
1
 62
2
 10
500.3106526312999
 20
227.4674976727387
 30
0
 11
496.9773192979666
 21
223.3424976727387
 31
0
  0
LINE
  8
1
 62
2
 10
503.3106526312999
 20
224.0924976727387
 30
0
 11
501.9773192979666
 21
225.5924976727387
 31
0
  0
LINE
  8
1
 62
2
 10
504.3106526312999
 20
222.9674976727387
 30
0
 11
503.3106526312999
 21
224.0924976727387
 31
0
  0
LINE
  8
1
 62
2
 10
495.9773192979666
 20
223.3424976727387
 30
0
 11
503.3106526312999
 21
224.0924976727387
 31
0
  0
LINE
  8
1
 62
2
 10
496.6439859646333
 20
227.8424976727387
 30
0
 11
504.3106526312999
 21
227.8424976727387
 31
0
  0
LINE
  8
1
 62
2
 10
497.9773192979666
 20
229.7174976727387
 30
0
 11
502.6439859646333
 21
229.7174976727387
 31
0
  0
LINE
  8
1
 62
2
 10
500.3106526312999
 20
234.5924976727387
 30
0
 11
505.6439859646333
 21
228.9674976727387
 31
0
  0
LINE
  8
1
 62
2
 10
500.3106526312999
 20
234.5924976727387
 30
0
 11
494.9773192979666
 21
228.9674976727387
 31
0
  0
LINE
  8
1
 62
2
 10
485.9773192979666
 20
229.3424976727387
 30
0
 11
483.6439859646333
 21
229.3424976727387
 31
0
  0
LINE
  8
1
 62
2
 10
485.9773192979666
 20
225.2174976727387
 30
0
 11
488.3106526312999
 21
225.9674976727387
 31
0
  0
LINE
  8
1
 62
2
 10
492.6439859646333
 20
223.3424976727387
 30
0
 11
493.6439859646333
 21
224.4674976727387
 31
0
  0
LINE
  8
1
 62
2
 10
491.3106526312999
 20
224.8424976727387
 30
0
 11
492.6439859646333
 21
223.3424976727387
 31
0
  0
LINE
  8
1
 62
2
 10
489.9773192979666
 20
227.4674976727387
 30
0
 11
491.3106526312999
 21
224.8424976727387
 31
0
  0
LINE
  8
1
 62
2
 10
489.3106526312999
 20
230.4674976727387
 30
0
 11
489.9773192979666
 21
227.4674976727387
 31
0
  0
LINE
  8
1
 62
2
 10
488.9773192979666
 20
234.9674976727387
 30
0
 11
489.3106526312999
 21
230.4674976727387
 31
0
  0
LINE
  8
1
 62
2
 10
490.9773192979666
 20
233.4674976727387
 30
0
 11
489.9773192979666
 21
234.5924976727387
 31
0
  0
LINE
  8
1
 62
2
 10
482.9773192979666
 20
232.3424976727387
 30
0
 11
492.6439859646333
 21
232.3424976727387
 31
0
  0
LINE
  8
1
 62
2
 10
485.9773192979666
 20
229.3424976727387
 30
0
 11
485.9773192979666
 21
225.2174976727387
 31
0
  0
LINE
  8
1
 62
2
 10
488.3106526312999
 20
229.3424976727387
 30
0
 11
485.9773192979666
 21
229.3424976727387
 31
0
  0
LINE
  8
1
 62
2
 10
483.6439859646333
 20
224.4674976727387
 30
0
 11
485.9773192979666
 21
225.2174976727387
 31
0
  0
LINE
  8
1
 62
2
 10
473.3106526312999
 20
231.5924976727387
 30
0
 11
473.3106526312999
 21
234.9674976727387
 31
0
  0
LINE
  8
1
 62
2
 10
473.3106526312999
 20
231.5924976727387
 30
0
 11
471.6439859646333
 21
231.5924976727387
 31
0
  0
LINE
  8
1
 62
2
 10
479.9773192979666
 20
225.9674976727387
 30
0
 11
481.3106526312999
 21
223.3424976727387
 31
0
  0
LINE
  8
1
 62
2
 10
478.3106526312999
 20
229.3424976727387
 30
0
 11
479.9773192979666
 21
225.9674976727387
 31
0
  0
LINE
  8
1
 62
2
 10
477.3106526312999
 20
226.7174976727387
 30
0
 11
478.3106526312999
 21
229.3424976727387
 31
0
  0
LINE
  8
1
 62
2
 10
475.9773192979666
 20
224.8424976727387
 30
0
 11
477.3106526312999
 21
226.7174976727387
 31
0
  0
LINE
  8
1
 62
2
 10
474.9773192979666
 20
223.3424976727387
 30
0
 11
475.9773192979666
 21
224.8424976727387
 31
0
  0
LINE
  8
1
 62
2
 10
478.3106526312999
 20
234.9674976727387
 30
0
 11
478.3106526312999
 21
222.9674976727387
 31
0
  0
LINE
  8
1
 62
2
 10
481.3106526312999
 20
229.3424976727387
 30
0
 11
475.6439859646333
 21
229.3424976727387
 31
0
  0
LINE
  8
1
 62
2
 10
476.6439859646333
 20
231.9674976727387
 30
0
 11
480.9773192979666
 21
231.9674976727387
 31
0
  0
LINE
  8
1
 62
2
 10
476.6439859646333
 20
231.9674976727387
 30
0
 11
476.9773192979666
 21
233.8424976727387
 31
0
  0
LINE
  8
1
 62
2
 10
475.6439859646333
 20
230.0924976727387
 30
0
 11
476.6439859646333
 21
231.9674976727387
 31
0
  0
LINE
  8
1
 62
2
 10
473.3106526312999
 20
231.5924976727387
 30
0
 11
474.9773192979666
 21
228.5924976727387
 31
0
  0
LINE
  8
1
 62
2
 10
471.3106526312999
 20
226.3424976727387
 30
0
 11
473.3106526312999
 21
231.5924976727387
 31
0
  0
LINE
  8
1
 62
2
 10
474.9773192979666
 20
231.5924976727387
 30
0
 11
473.3106526312999
 21
231.5924976727387
 31
0
  0
LINE
  8
1
 62
2
 10
473.3106526312999
 20
223.3424976727387
 30
0
 11
473.3106526312999
 21
231.5924976727387
 31
0
  0
LINE
  8
1
 62
2
 10
459.9773192979666
 20
230.4674976727387
 30
0
 11
459.9773192979666
 21
232.3424976727387
 31
0
  0
LINE
  8
1
 62
2
 10
463.3106526312999
 20
232.3424976727387
 30
0
 11
463.3106526312999
 21
230.4674976727387
 31
0
  0
LINE
  8
1
 62
2
 10
459.9773192979666
 20
232.3424976727387
 30
0
 11
459.9773192979666
 21
234.2174976727387
 31
0
  0
LINE
  8
1
 62
2
 10
468.6439859646333
 20
230.4674976727387
 30
0
 11
468.6439859646333
 21
232.3424976727387
 31
0
  0
LINE
  8
1
 62
2
 10
465.3106526312999
 20
232.3424976727387
 30
0
 11
465.3106526312999
 21
230.4674976727387
 31
0
  0
LINE
  8
1
 62
2
 10
468.6439859646333
 20
232.3424976727387
 30
0
 11
468.6439859646333
 21
234.2174976727387
 31
0
  0
LINE
  8
1
 62
2
 10
459.9773192979666
 20
223.7174976727387
 30
0
 11
459.9773192979666
 21
223.3424976727387
 31
0
  0
LINE
  8
1
 62
2
 10
465.3106526312999
 20
232.3424976727387
 30
0
 11
468.6439859646333
 21
232.3424976727387
 31
0
  0
LINE
  8
1
 62
2
 10
465.3106526312999
 20
230.4674976727387
 30
0
 11
468.6439859646333
 21
230.4674976727387
 31
0
  0
LINE
  8
1
 62
2
 10
465.3106526312999
 20
234.2174976727387
 30
0
 11
465.3106526312999
 21
232.3424976727387
 31
0
  0
LINE
  8
1
 62
2
 10
468.6439859646333
 20
234.2174976727387
 30
0
 11
465.3106526312999
 21
234.2174976727387
 31
0
  0
LINE
  8
1
 62
2
 10
468.6439859646333
 20
223.7174976727387
 30
0
 11
468.6439859646333
 21
230.4674976727387
 31
0
  0
LINE
  8
1
 62
2
 10
468.3106526312999
 20
223.3424976727387
 30
0
 11
468.6439859646333
 21
223.7174976727387
 31
0
  0
LINE
  8
1
 62
2
 10
467.3106526312999
 20
223.3424976727387
 30
0
 11
468.3106526312999
 21
223.3424976727387
 31
0
  0
LINE
  8
1
 62
2
 10
463.3106526312999
 20
232.3424976727387
 30
0
 11
459.9773192979666
 21
232.3424976727387
 31
0
  0
LINE
  8
1
 62
2
 10
463.3106526312999
 20
230.4674976727387
 30
0
 11
459.9773192979666
 21
230.4674976727387
 31
0
  0
LINE
  8
1
 62
2
 10
463.3106526312999
 20
234.2174976727387
 30
0
 11
463.3106526312999
 21
232.3424976727387
 31
0
  0
LINE
  8
1
 62
2
 10
459.9773192979666
 20
234.2174976727387
 30
0
 11
463.3106526312999
 21
234.2174976727387
 31
0
  0
LINE
  8
1
 62
2
 10
459.9773192979666
 20
223.7174976727387
 30
0
 11
459.9773192979666
 21
230.4674976727387
 31
0
  0
LINE
  8
1
 62
2
 10
452.3106526312999
 20
223.3424976727387
 30
0
 11
456.3106526312999
 21
223.3424976727387
 31
0
  0
LINE
  8
1
 62
2
 10
452.3106526312999
 20
230.4674976727387
 30
0
 11
454.6439859646333
 21
230.4674976727387
 31
0
  0
LINE
  8
1
 62
2
 10
456.3106526312999
 20
230.0924976727387
 30
0
 11
457.6439859646333
 21
228.9674976727387
 31
0
  0
LINE
  8
1
 62
2
 10
453.9773192979666
 20
232.7174976727387
 30
0
 11
456.3106526312999
 21
230.0924976727387
 31
0
  0
LINE
  8
1
 62
2
 10
452.3106526312999
 20
234.9674976727387
 30
0
 11
453.9773192979666
 21
232.7174976727387
 31
0
  0
LINE
  8
1
 62
2
 10
450.6439859646333
 20
232.7174976727387
 30
0
 11
452.3106526312999
 21
234.9674976727387
 31
0
  0
LINE
  8
1
 62
2
 10
448.3106526312999
 20
230.0924976727387
 30
0
 11
450.6439859646333
 21
232.7174976727387
 31
0
  0
LINE
  8
1
 62
2
 10
446.9773192979666
 20
228.9674976727387
 30
0
 11
448.3106526312999
 21
230.0924976727387
 31
0
  0
LINE
  8
1
 62
2
 10
453.9773192979666
 20
224.8424976727387
 30
0
 11
454.6439859646333
 21
226.7174976727387
 31
0
  0
LINE
  8
1
 62
2
 10
449.9773192979666
 20
226.7174976727387
 30
0
 11
450.6439859646333
 21
224.8424976727387
 31
0
  0
LINE
  8
1
 62
2
 10
455.6439859646333
 20
228.2174976727387
 30
0
 11
448.9773192979666
 21
228.2174976727387
 31
0
  0
LINE
  8
1
 62
2
 10
449.9773192979666
 20
230.4674976727387
 30
0
 11
452.3106526312999
 21
230.4674976727387
 31
0
  0
LINE
  8
1
 62
2
 10
452.3106526312999
 20
223.3424976727387
 30
0
 11
452.3106526312999
 21
230.4674976727387
 31
0
  0
LINE
  8
1
 62
2
 10
447.9773192979666
 20
223.3424976727387
 30
0
 11
452.3106526312999
 21
223.3424976727387
 31
0
  0
LINE
  8
1
 62
2
 10
443.3106526312999
 20
226.7174976727387
 30
0
 11
444.9773192979666
 21
228.9674976727387
 31
0
  0
LINE
  8
1
 62
2
 10
440.6439859646333
 20
225.2174976727387
 30
0
 11
443.3106526312999
 21
226.7174976727387
 31
0
  0
LINE
  8
1
 62
2
 10
440.6439859646333
 20
231.9674976727387
 30
0
 11
440.6439859646333
 21
225.2174976727387
 31
0
  0
LINE
  8
1
 62
2
 10
437.9773192979666
 20
228.9674976727387
 30
0
 11
438.3106526312999
 21
231.9674976727387
 31
0
  0
LINE
  8
1
 62
2
 10
437.3106526312999
 20
226.7174976727387
 30
0
 11
437.9773192979666
 21
228.9674976727387
 31
0
  0
LINE
  8
1
 62
2
 10
436.3106526312999
 20
224.8424976727387
 30
0
 11
437.3106526312999
 21
226.7174976727387
 31
0
  0
LINE
  8
1
 62
2
 10
424.9773192979666
 20
227.8424976727387
 30
0
 11
424.9773192979666
 21
225.5924976727387
 31
0
  0
LINE
  8
1
 62
2
 10
428.6439859646333
 20
224.0924976727387
 30
0
 11
430.6439859646333
 21
224.4674976727387
 31
0
  0
LINE
  8
1
 62
2
 10
425.3106526312999
 20
224.4674976727387
 30
0
 11
428.6439859646333
 21
224.0924976727387
 31
0
  0
LINE
  8
1
 62
2
 10
424.9773192979666
 20
225.5924976727387
 30
0
 11
425.3106526312999
 21
224.4674976727387
 31
0
  0
LINE
  8
1
 62
2
 10
424.9773192979666
 20
231.9674976727387
 30
0
 11
424.9773192979666
 21
227.8424976727387
 31
0
  0
LINE
  8
1
 62
2
 10
431.3106526312999
 20
232.7174976727387
 30
0
 11
432.3106526312999
 21
231.5924976727387
 31
0
  0
LINE
  8
1
 62
2
 10
431.6439859646333
 20
230.8424976727387
 30
0
 11
430.6439859646333
 21
231.9674976727387
 31
0
  0
LINE
  8
1
 62
2
 10
427.9773192979666
 20
228.9674976727387
 30
0
 11
429.9773192979666
 21
230.0924976727387
 31
0
  0
LINE
  8
1
 62
2
 10
424.9773192979666
 20
227.8424976727387
 30
0
 11
427.9773192979666
 21
228.9674976727387
 31
0
  0
LINE
  8
1
 62
2
 10
417.6439859646333
 20
226.7174976727387
 30
0
 11
419.6439859646333
 21
224.4674976727387
 31
0
  0
LINE
  8
1
 62
2
 10
415.9773192979666
 20
228.2174976727387
 30
0
 11
417.6439859646333
 21
226.7174976727387
 31
0
  0
LINE
  8
1
 62
2
 10
419.9773192979666
 20
233.4674976727387
 30
0
 11
420.9773192979666
 21
232.3424976727387
 31
0
  0
LINE
  8
1
 62
2
 10
419.3106526312999
 20
232.7174976727387
 30
0
 11
420.3106526312999
 21
231.5924976727387
 31
0
  0
LINE
  8
1
 62
2
 10
417.9773192979666
 20
231.9674976727387
 30
0
 11
413.6439859646333
 21
231.9674976727387
 31
0
  0
LINE
  8
1
 62
2
 10
416.9773192979666
 20
229.7174976727387
 30
0
 11
417.9773192979666
 21
231.9674976727387
 31
0
  0
LINE
  8
1
 62
2
 10
414.6439859646333
 20
226.3424976727387
 30
0
 11
416.9773192979666
 21
229.7174976727387
 31
0
  0
LINE
  8
1
 62
2
 10
412.3106526312999
 20
224.4674976727387
 30
0
 11
414.6439859646333
 21
226.3424976727387
 31
0
  0
LINE
  8
1
 62
2
 10
408.3106526312999
 20
231.5924976727387
 30
0
 11
405.3106526312999
 21
228.2174976727387
 31
0
  0
LINE
  8
1
 62
2
 10
400.6439859646333
 20
231.5924976727387
 30
0
 11
408.3106526312999
 21
231.5924976727387
 31
0
  0
LINE
  8
1
 62
2
 10
404.3106526312999
 20
228.2174976727387
 30
0
 11
404.6439859646333
 21
230.0924976727387
 31
0
  0
LINE
  8
1
 62
2
 10
403.6439859646333
 20
225.9674976727387
 30
0
 11
404.3106526312999
 21
228.2174976727387
 31
0
  0
LINE
  8
1
 62
2
 10
402.3106526312999
 20
223.7174976727387
 30
0
 11
403.6439859646333
 21
225.9674976727387
 31
0
  0
LINE
  8
1
 62
2
 10
546.1439859646333
 20
252.9674976727387
 30
0
 11
546.8106526312999
 21
252.5924976727387
 31
0
  0
LINE
  8
1
 62
2
 10
540.1439859646333
 20
252.9674976727387
 30
0
 11
546.1439859646333
 21
252.9674976727387
 31
0
  0
LINE
  8
1
 62
2
 10
539.4773192979666
 20
253.3424976727387
 30
0
 11
540.1439859646333
 21
252.9674976727387
 31
0
  0
LINE
  8
1
 62
2
 10
530.8106526312999
 20
254.0924976727387
 30
0
 11
533.4773192979666
 21
251.0924976727387
 31
0
  0
LINE
  8
1
 62
2
 10
529.8106526312999
 20
255.5924976727387
 30
0
 11
528.1439859646333
 21
253.7174976727387
 31
0
  0
LINE
  8
1
 62
2
 10
531.4773192979666
 20
257.8424976727387
 30
0
 11
529.8106526312999
 21
255.5924976727387
 31
0
  0
LINE
  8
1
 62
2
 10
534.8106526312999
 20
256.3424976727387
 30
0
 11
530.4773192979666
 21
256.3424976727387
 31
0
  0
LINE
  8
1
 62
2
 10
533.4773192979666
 20
253.7174976727387
 30
0
 11
534.8106526312999
 21
256.3424976727387
 31
0
  0
LINE
  8
1
 62
2
 10
530.8106526312999
 20
250.7174976727387
 30
0
 11
533.4773192979666
 21
253.7174976727387
 31
0
  0
LINE
  8
1
 62
2
 10
527.8106526312999
 20
248.4674976727387
 30
0
 11
530.8106526312999
 21
250.7174976727387
 31
0
  0
LINE
  8
1
 62
2
 10
522.1439859646333
 20
252.9674976727387
 30
0
 11
522.8106526312999
 21
252.5924976727387
 31
0
  0
LINE
  8
1
 62
2
 10
516.1439859646333
 20
252.9674976727387
 30
0
 11
522.1439859646333
 21
252.9674976727387
 31
0
  0
LINE
  8
1
 62
2
 10
515.4773192979666
 20
253.3424976727387
 30
0
 11
516.1439859646333
 21
252.9674976727387
 31
0
  0
LINE
  8
1
 62
2
 10
508.1439859646332
 20
252.9674976727387
 30
0
 11
509.8106526312999
 21
250.3424976727387
 31
0
  0
LINE
  8
1
 62
2
 10
506.4773192979666
 20
254.8424976727387
 30
0
 11
508.1439859646332
 21
252.9674976727387
 31
0
  0
LINE
  8
1
 62
2
 10
508.8106526312999
 20
253.7174976727387
 30
0
 11
510.4773192979666
 21
257.0924976727387
 31
0
  0
LINE
  8
1
 62
2
 10
506.1439859646332
 20
250.3424976727387
 30
0
 11
508.8106526312999
 21
253.7174976727387
 31
0
  0
LINE
  8
1
 62
2
 10
503.8106526312999
 20
248.4674976727387
 30
0
 11
506.1439859646332
 21
250.3424976727387
 31
0
  0
LINE
  8
1
 62
2
 10
496.1439859646332
 20
256.3424976727387
 30
0
 11
499.8106526312999
 21
256.3424976727387
 31
0
  0
LINE
  8
1
 62
2
 10
495.1439859646332
 20
254.4674976727387
 30
0
 11
494.4773192979666
 21
254.4674976727387
 31
0
  0
LINE
  8
1
 62
2
 10
494.4773192979666
 20
252.9674976727387
 30
0
 11
494.4773192979666
 21
251.0924976727387
 31
0
  0
LINE
  8
1
 62
2
 10
498.4773192979666
 20
251.0924976727387
 30
0
 11
498.4773192979666
 21
254.4674976727387
 31
0
  0
LINE
  8
1
 62
2
 10
494.4773192979666
 20
251.0924976727387
 30
0
 11
494.4773192979666
 21
249.5924976727387
 31
0
  0
LINE
  8
1
 62
2
 10
493.8106526312999
 20
248.0924976727387
 30
0
 11
500.1439859646332
 21
248.0924976727387
 31
0
  0
LINE
  8
1
 62
2
 10
492.4773192979666
 20
248.4674976727387
 30
0
 11
493.8106526312999
 21
248.0924976727387
 31
0
  0
LINE
  8
1
 62
2
 10
491.4773192979666
 20
249.2174976727387
 30
0
 11
492.4773192979666
 21
248.4674976727387
 31
0
  0
LINE
  8
1
 62
2
 10
498.4773192979666
 20
251.0924976727387
 30
0
 11
494.4773192979666
 21
251.0924976727387
 31
0
  0
LINE
  8
1
 62
2
 10
494.4773192979666
 20
252.9674976727387
 30
0
 11
498.4773192979666
 21
252.9674976727387
 31
0
  0
LINE
  8
1
 62
2
 10
498.4773192979666
 20
254.4674976727387
 30
0
 11
495.1439859646332
 21
254.4674976727387
 31
0
  0
LINE
  8
1
 62
2
 10
498.4773192979666
 20
249.5924976727387
 30
0
 11
498.4773192979666
 21
251.0924976727387
 31
0
  0
LINE
  8
1
 62
2
 10
494.4773192979666
 20
249.5924976727387
 30
0
 11
498.4773192979666
 21
249.5924976727387
 31
0
  0
LINE
  8
1
 62
2
 10
494.4773192979666
 20
254.4674976727387
 30
0
 11
494.4773192979666
 21
252.9674976727387
 31
0
  0
LINE
  8
1
 62
2
 10
496.1439859646332
 20
256.3424976727387
 30
0
 11
495.1439859646332
 21
254.4674976727387
 31
0
  0
LINE
  8
1
 62
2
 10
492.8106526312999
 20
256.3424976727387
 30
0
 11
496.1439859646332
 21
256.3424976727387
 31
0
  0
LINE
  8
1
 62
2
 10
498.1439859646332
 20
258.5924976727387
 30
0
 11
496.8106526312999
 21
256.3424976727387
 31
0
  0
LINE
  8
1
 62
2
 10
494.4773192979666
 20
258.5924976727387
 30
0
 11
495.4773192979666
 21
257.0924976727387
 31
0
  0
LINE
  8
1
 62
2
 10
490.8106526312999
 20
258.5924976727387
 30
0
 11
492.1439859646332
 21
257.0924976727387
 31
0
  0
LINE
  8
1
 62
2
 10
491.4773192979666
 20
253.7174976727387
 30
0
 11
490.1439859646332
 21
253.7174976727387
 31
0
  0
LINE
  8
1
 62
2
 10
491.4773192979666
 20
249.2174976727387
 30
0
 11
491.4773192979666
 21
253.7174976727387
 31
0
  0
LINE
  8
1
 62
2
 10
490.4773192979666
 20
248.0924976727387
 30
0
 11
491.4773192979666
 21
249.2174976727387
 31
0
  0
LINE
  8
1
 62
2
 10
486.8106526312999
 20
250.7174976727387
 30
0
 11
488.4773192979666
 21
248.8424976727387
 31
0
  0
LINE
  8
1
 62
2
 10
485.4773192979666
 20
252.9674976727387
 30
0
 11
486.8106526312999
 21
250.7174976727387
 31
0
  0
LINE
  8
1
 62
2
 10
484.4773192979666
 20
255.5924976727387
 30
0
 11
485.4773192979666
 21
252.9674976727387
 31
0
  0
LINE
  8
1
 62
2
 10
487.4773192979666
 20
255.9674976727387
 30
0
 11
485.1439859646332
 21
254.0924976727387
 31
0
  0
LINE
  8
1
 62
2
 10
483.4773192979666
 20
246.9674976727387
 30
0
 11
482.4773192979666
 21
247.3424976727387
 31
0
  0
LINE
  8
1
 62
2
 10
483.4773192979666
 20
258.5924976727387
 30
0
 11
483.4773192979666
 21
246.9674976727387
 31
0
  0
LINE
  8
1
 62
2
 10
481.8106526312999
 20
254.8424976727387
 30
0
 11
478.4773192979666
 21
254.8424976727387
 31
0
  0
LINE
  8
1
 62
2
 10
481.1439859646332
 20
252.5924976727387
 30
0
 11
481.8106526312999
 21
254.8424976727387
 31
0
  0
LINE
  8
1
 62
2
 10
479.8106526312999
 20
250.3424976727387
 30
0
 11
481.1439859646332
 21
252.5924976727387
 31
0
  0
LINE
  8
1
 62
2
 10
478.4773192979666
 20
248.8424976727387
 30
0
 11
479.8106526312999
 21
250.3424976727387
 31
0
  0
LINE
  8
1
 62
2
 10
470.0106526312999
 20
255.3674976727387
 30
0
 11
472.4106526312999
 21
255.3674976727387
 31
0
  0
LINE
  8
1
 62
2
 10
470.0106526312999
 20
255.3674976727387
 30
0
 11
470.0106526312999
 21
246.9674976727387
 31
0
  0
LINE
  8
1
 62
2
 10
474.2106526312999
 20
253.8674976727387
 30
0
 11
474.2106526312999
 21
246.9674976727387
 31
0
  0
LINE
  8
1
 62
2
 10
473.9106526312999
 20
254.4674976727387
 30
0
 11
474.2106526312999
 21
253.8674976727387
 31
0
  0
LINE
  8
1
 62
2
 10
473.3106526312999
 20
255.0674976727387
 30
0
 11
473.9106526312999
 21
254.4674976727387
 31
0
  0
LINE
  8
1
 62
2
 10
472.4106526312999
 20
255.3674976727387
 30
0
 11
473.3106526312999
 21
255.0674976727387
 31
0
  0
LINE
  8
1
 62
2
 10
465.8106526312999
 20
255.3674976727387
 30
0
 11
470.0106526312999
 21
255.3674976727387
 31
0
  0
LINE
  8
1
 62
2
 10
465.8106526312999
 20
246.9674976727387
 30
0
 11
465.8106526312999
 21
255.3674976727387
 31
0
  0
LINE
  8
1
 62
2
 10
458.0106526312999
 20
255.3674976727387
 30
0
 11
460.4106526312999
 21
255.3674976727387
 31
0
  0
LINE
  8
1
 62
2
 10
458.0106526312999
 20
255.3674976727387
 30
0
 11
458.0106526312999
 21
246.9674976727387
 31
0
  0
LINE
  8
1
 62
2
 10
462.2106526312999
 20
253.8674976727387
 30
0
 11
462.2106526312999
 21
246.9674976727387
 31
0
  0
LINE
  8
1
 62
2
 10
461.9106526312999
 20
254.4674976727387
 30
0
 11
462.2106526312999
 21
253.8674976727387
 31
0
  0
LINE
  8
1
 62
2
 10
461.3106526312999
 20
255.0674976727387
 30
0
 11
461.9106526312999
 21
254.4674976727387
 31
0
  0
LINE
  8
1
 62
2
 10
460.4106526312999
 20
255.3674976727387
 30
0
 11
461.3106526312999
 21
255.0674976727387
 31
0
  0
LINE
  8
1
 62
2
 10
453.8106526312999
 20
255.3674976727387
 30
0
 11
458.0106526312999
 21
255.3674976727387
 31
0
  0
LINE
  8
1
 62
2
 10
453.8106526312999
 20
246.9674976727387
 30
0
 11
453.8106526312999
 21
255.3674976727387
 31
0
  0
LINE
  8
1
 62
2
 10
447.5106526312999
 20
246.9674976727387
 30
0
 11
443.0106526312999
 21
246.9674976727387
 31
0
  0
LINE
  8
1
 62
2
 10
448.4106526312999
 20
247.2674976727387
 30
0
 11
447.5106526312999
 21
246.9674976727387
 31
0
  0
LINE
  8
1
 62
2
 10
449.3106526312999
 20
247.8674976727387
 30
0
 11
448.4106526312999
 21
247.2674976727387
 31
0
  0
LINE
  8
1
 62
2
 10
449.9106526312999
 20
248.7674976727387
 30
0
 11
449.3106526312999
 21
247.8674976727387
 31
0
  0
LINE
  8
1
 62
2
 10
450.2106526312999
 20
249.9674976727387
 30
0
 11
449.9106526312999
 21
248.7674976727387
 31
0
  0
LINE
  8
1
 62
2
 10
450.2106526312999
 20
251.7674976727387
 30
0
 11
450.2106526312999
 21
249.9674976727387
 31
0
  0
LINE
  8
1
 62
2
 10
449.9106526312999
 20
252.9674976727387
 30
0
 11
450.2106526312999
 21
251.7674976727387
 31
0
  0
LINE
  8
1
 62
2
 10
449.0106526312999
 20
253.8674976727387
 30
0
 11
449.9106526312999
 21
252.9674976727387
 31
0
  0
LINE
  8
1
 62
2
 10
447.5106526312999
 20
254.1674976727387
 30
0
 11
449.0106526312999
 21
253.8674976727387
 31
0
  0
LINE
  8
1
 62
2
 10
443.0106526312999
 20
254.1674976727387
 30
0
 11
447.5106526312999
 21
254.1674976727387
 31
0
  0
LINE
  8
1
 62
2
 10
443.0106526312999
 20
258.9674976727387
 30
0
 11
443.0106526312999
 21
254.1674976727387
 31
0
  0
LINE
  8
1
 62
2
 10
449.6106526312999
 20
258.9674976727387
 30
0
 11
443.0106526312999
 21
258.9674976727387
 31
0
  0
LINE
  8
1
 62
2
 10
434.3106526312999
 20
256.2674976727387
 30
0
 11
437.6106526312998
 21
258.9674976727387
 31
0
  0
LINE
  8
1
 62
2
 10
433.1106526312998
 20
254.7674976727387
 30
0
 11
434.3106526312999
 21
256.2674976727387
 31
0
  0
LINE
  8
1
 62
2
 10
432.5106526312999
 20
253.5674976727387
 30
0
 11
433.1106526312998
 21
254.7674976727387
 31
0
  0
LINE
  8
1
 62
2
 10
432.2106526312999
 20
251.1674976727387
 30
0
 11
432.5106526312999
 21
253.5674976727387
 31
0
  0
LINE
  8
1
 62
2
 10
432.2106526312999
 20
249.9674976727387
 30
0
 11
432.2106526312999
 21
251.1674976727387
 31
0
  0
LINE
  8
1
 62
2
 10
432.5106526312999
 20
248.7674976727387
 30
0
 11
432.2106526312999
 21
249.9674976727387
 31
0
  0
LINE
  8
1
 62
2
 10
433.1106526312998
 20
247.8674976727387
 30
0
 11
432.5106526312999
 21
248.7674976727387
 31
0
  0
LINE
  8
1
 62
2
 10
434.0106526312999
 20
247.2674976727387
 30
0
 11
433.1106526312998
 21
247.8674976727387
 31
0
  0
LINE
  8
1
 62
2
 10
434.9106526312999
 20
246.9674976727387
 30
0
 11
434.0106526312999
 21
247.2674976727387
 31
0
  0
LINE
  8
1
 62
2
 10
436.7106526312999
 20
246.9674976727387
 30
0
 11
434.9106526312999
 21
246.9674976727387
 31
0
  0
LINE
  8
1
 62
2
 10
437.6106526312998
 20
247.2674976727387
 30
0
 11
436.7106526312999
 21
246.9674976727387
 31
0
  0
LINE
  8
1
 62
2
 10
438.5106526312999
 20
247.8674976727387
 30
0
 11
437.6106526312998
 21
247.2674976727387
 31
0
  0
LINE
  8
1
 62
2
 10
439.1106526312998
 20
248.7674976727387
 30
0
 11
438.5106526312999
 21
247.8674976727387
 31
0
  0
LINE
  8
1
 62
2
 10
439.4106526312999
 20
249.9674976727387
 30
0
 11
439.1106526312998
 21
248.7674976727387
 31
0
  0
LINE
  8
1
 62
2
 10
439.4106526312999
 20
251.1674976727387
 30
0
 11
439.4106526312999
 21
249.9674976727387
 31
0
  0
LINE
  8
1
 62
2
 10
439.1106526312998
 20
252.3674976727387
 30
0
 11
439.4106526312999
 21
251.1674976727387
 31
0
  0
LINE
  8
1
 62
2
 10
438.5106526312999
 20
253.2674976727387
 30
0
 11
439.1106526312998
 21
252.3674976727387
 31
0
  0
LINE
  8
1
 62
2
 10
437.6106526312998
 20
253.8674976727387
 30
0
 11
438.5106526312999
 21
253.2674976727387
 31
0
  0
LINE
  8
1
 62
2
 10
436.7106526312999
 20
254.1674976727387
 30
0
 11
437.6106526312998
 21
253.8674976727387
 31
0
  0
LINE
  8
1
 62
2
 10
434.9106526312999
 20
254.1674976727387
 30
0
 11
436.7106526312999
 21
254.1674976727387
 31
0
  0
LINE
  8
1
 62
2
 10
434.0106526312999
 20
253.8674976727387
 30
0
 11
434.9106526312999
 21
254.1674976727387
 31
0
  0
LINE
  8
1
 62
2
 10
433.1106526312998
 20
253.2674976727387
 30
0
 11
434.0106526312999
 21
253.8674976727387
 31
0
  0
LINE
  8
1
 62
2
 10
432.5106526312999
 20
252.3674976727387
 30
0
 11
433.1106526312998
 21
253.2674976727387
 31
0
  0
LINE
  8
1
 62
2
 10
432.2106526312999
 20
251.1674976727387
 30
0
 11
432.5106526312999
 21
252.3674976727387
 31
0
  0
LINE
  8
1
 62
2
 10
424.2106526312999
 20
258.2174976727387
 30
0
 11
420.8773192979666
 21
258.2174976727387
 31
0
  0
LINE
  8
1
 62
2
 10
425.8773192979666
 20
247.3424976727387
 30
0
 11
430.5439859646332
 21
247.3424976727387
 31
0
  0
LINE
  8
1
 62
2
 10
425.8773192979666
 20
251.8424976727387
 30
0
 11
425.8773192979666
 21
247.3424976727387
 31
0
  0
LINE
  8
1
 62
2
 10
429.8773192979666
 20
251.8424976727387
 30
0
 11
428.8773192979666
 21
251.8424976727387
 31
0
  0
LINE
  8
1
 62
2
 10
429.8773192979666
 20
258.5924976727387
 30
0
 11
429.8773192979666
 21
251.8424976727387
 31
0
  0
LINE
  8
1
 62
2
 10
427.5439859646332
 20
253.3424976727387
 30
0
 11
427.5439859646332
 21
258.2174976727387
 31
0
  0
LINE
  8
1
 62
2
 10
424.2106526312999
 20
258.2174976727387
 30
0
 11
424.2106526312999
 21
251.8424976727387
 31
0
  0
LINE
  8
1
 62
2
 10
420.5439859646332
 20
255.5924976727387
 30
0
 11
426.2106526312999
 21
255.5924976727387
 31
0
  0
LINE
  8
1
 62
2
 10
425.8773192979666
 20
258.2174976727387
 30
0
 11
424.2106526312999
 21
258.2174976727387
 31
0
  0
LINE
  8
1
 62
2
 10
422.5439859646332
 20
255.5924976727387
 30
0
 11
422.5439859646332
 21
258.2174976727387
 31
0
  0
LINE
  8
1
 62
2
 10
421.8773192979666
 20
252.9674976727387
 30
0
 11
422.5439859646332
 21
255.5924976727387
 31
0
  0
LINE
  8
1
 62
2
 10
420.8773192979666
 20
251.4674976727387
 30
0
 11
421.8773192979666
 21
252.9674976727387
 31
0
  0
LINE
  8
1
 62
2
 10
429.2106526312999
 20
249.9674976727387
 30
0
 11
421.8773192979666
 21
249.9674976727387
 31
0
  0
LINE
  8
1
 62
2
 10
420.8773192979666
 20
247.3424976727387
 30
0
 11
425.8773192979666
 21
247.3424976727387
 31
0
  0
LINE
  8
1
 62
2
 10
414.2106526312999
 20
246.9674976727387
 30
0
 11
416.6106526312999
 21
258.9674976727387
 31
0
  0
LINE
  8
1
 62
2
 10
411.2106526312999
 20
255.3674976727387
 30
0
 11
414.2106526312999
 21
246.9674976727387
 31
0
  0
LINE
  8
1
 62
2
 10
408.2106526312999
 20
246.9674976727387
 30
0
 11
411.2106526312999
 21
255.3674976727387
 31
0
  0
LINE
  8
1
 62
2
 10
405.8106526312999
 20
258.9674976727387
 30
0
 11
408.2106526312999
 21
246.9674976727387
 31
0
  0
LINE
  8
1
 62
2
 10
401.9106526312999
 20
256.5674976727387
 30
0
 11
402.2106526312999
 21
255.3674976727387
 31
0
  0
LINE
  8
1
 62
2
 10
401.3106526312999
 20
257.4674976727387
 30
0
 11
401.9106526312999
 21
256.5674976727387
 31
0
  0
LINE
  8
1
 62
2
 10
400.7106526312999
 20
258.0674976727387
 30
0
 11
401.3106526312999
 21
257.4674976727387
 31
0
  0
LINE
  8
1
 62
2
 10
399.8106526312999
 20
258.6674976727387
 30
0
 11
400.7106526312999
 21
258.0674976727387
 31
0
  0
LINE
  8
1
 62
2
 10
398.6106526312999
 20
258.9674976727387
 30
0
 11
399.8106526312999
 21
258.6674976727387
 31
0
  0
LINE
  8
1
 62
2
 10
393.8106526312999
 20
258.9674976727387
 30
0
 11
398.6106526312999
 21
258.9674976727387
 31
0
  0
LINE
  8
1
 62
2
 10
393.8106526312999
 20
246.9674976727387
 30
0
 11
393.8106526312999
 21
258.9674976727387
 31
0
  0
LINE
  8
1
 62
2
 10
398.6106526312999
 20
246.9674976727387
 30
0
 11
393.8106526312999
 21
246.9674976727387
 31
0
  0
LINE
  8
1
 62
2
 10
399.8106526312999
 20
247.2674976727387
 30
0
 11
398.6106526312999
 21
246.9674976727387
 31
0
  0
LINE
  8
1
 62
2
 10
400.7106526312999
 20
247.8674976727387
 30
0
 11
399.8106526312999
 21
247.2674976727387
 31
0
  0
LINE
  8
1
 62
2
 10
401.3106526312999
 20
248.4674976727387
 30
0
 11
400.7106526312999
 21
247.8674976727387
 31
0
  0
LINE
  8
1
 62
2
 10
401.9106526312999
 20
249.3674976727387
 30
0
 11
401.3106526312999
 21
248.4674976727387
 31
0
  0
LINE
  8
1
 62
2
 10
402.2106526312999
 20
250.5674976727387
 30
0
 11
401.9106526312999
 21
249.3674976727387
 31
0
  0
LINE
  8
1
 62
2
 10
402.2106526312999
 20
255.3674976727387
 30
0
 11
402.2106526312999
 21
250.5674976727387
 31
0
  0
LINE
  8
1
 62
2
 10
381.8106526312999
 20
253.5674976727387
 30
0
 11
381.8106526312999
 21
246.9674976727387
 31
0
  0
LINE
  8
1
 62
2
 10
381.8106526312999
 20
258.9674976727387
 30
0
 11
381.8106526312999
 21
253.5674976727387
 31
0
  0
LINE
  8
1
 62
2
 10
390.2106526312999
 20
258.9674976727387
 30
0
 11
381.8106526312999
 21
258.9674976727387
 31
0
  0
LINE
  8
1
 62
2
 10
381.8106526312999
 20
253.5674976727387
 30
0
 11
390.2106526312999
 21
253.5674976727387
 31
0
  0
LINE
  8
1
 62
2
 10
378.2106526312999
 20
253.5674976727387
 30
0
 11
375.2106526312999
 21
253.5674976727387
 31
0
  0
LINE
  8
1
 62
2
 10
378.2106526312999
 20
246.9674976727387
 30
0
 11
378.2106526312999
 21
253.5674976727387
 31
0
  0
LINE
  8
1
 62
2
 10
373.1106526312999
 20
246.9674976727387
 30
0
 11
378.2106526312999
 21
246.9674976727387
 31
0
  0
LINE
  8
1
 62
2
 10
372.2106526312999
 20
247.2674976727387
 30
0
 11
373.1106526312999
 21
246.9674976727387
 31
0
  0
LINE
  8
1
 62
2
 10
371.0106526312999
 20
247.8674976727387
 30
0
 11
372.2106526312999
 21
247.2674976727387
 31
0
  0
LINE
  8
1
 62
2
 10
370.4106526312999
 20
248.4674976727387
 30
0
 11
371.0106526312999
 21
247.8674976727387
 31
0
  0
LINE
  8
1
 62
2
 10
370.1106526312999
 20
249.3674976727387
 30
0
 11
370.4106526312999
 21
248.4674976727387
 31
0
  0
LINE
  8
1
 62
2
 10
369.8106526312999
 20
250.5674976727387
 30
0
 11
370.1106526312999
 21
249.3674976727387
 31
0
  0
LINE
  8
1
 62
2
 10
369.8106526312999
 20
255.3674976727387
 30
0
 11
369.8106526312999
 21
250.5674976727387
 31
0
  0
LINE
  8
1
 62
2
 10
370.1106526312999
 20
256.5674976727387
 30
0
 11
369.8106526312999
 21
255.3674976727387
 31
0
  0
LINE
  8
1
 62
2
 10
370.4106526312999
 20
257.4674976727387
 30
0
 11
370.1106526312999
 21
256.5674976727387
 31
0
  0
LINE
  8
1
 62
2
 10
371.0106526312999
 20
258.0674976727387
 30
0
 11
370.4106526312999
 21
257.4674976727387
 31
0
  0
LINE
  8
1
 62
2
 10
371.9106526312999
 20
258.6674976727387
 30
0
 11
371.0106526312999
 21
258.0674976727387
 31
0
  0
LINE
  8
1
 62
2
 10
373.1106526312999
 20
258.9674976727387
 30
0
 11
371.9106526312999
 21
258.6674976727387
 31
0
  0
LINE
  8
1
 62
2
 10
378.2106526312999
 20
258.9674976727387
 30
0
 11
373.1106526312999
 21
258.9674976727387
 31
0
  0
LINE
  8
0
 62
7
 10
465.5966546662127
 20
902.9976530638753
 30
0
 11
471.3010332686
 21
902.4750725328997
 31
0
  0
LINE
  8
0
 62
7
 10
873.9507072385001
 20
556.469722217
 30
0
 11
873.9498653228001
 21
560.4300634322
 31
0
  0
LINE
  8
1
 62
7
 10
874.0146630223001
 20
555.1677705106
 30
0
 11
874.3705772574
 21
553.7108914313
 31
0
  0
LINE
  8
1
 62
7
 10
874.3705772574
 20
553.7108914313
 30
0
 11
874.8533525283889
 21
552.9930652436533
 31
0
  0
LINE
  8
1
 62
7
 10
898.8340222056
 20
514.4300633428001
 30
0
 11
896.1195074732616
 21
524.430061256637
 31
0
  0
LINE
  8
1
 62
7
 10
898.8340222056
 20
514.4300633428001
 30
0
 11
896.1195074732616
 21
524.430061256637
 31
0
  0
LINE
  8
0
 62
7
 10
900.3990241106001
 20
504.4300617036
 30
0
 11
901.6574921910622
 21
479.8803252700911
 31
0
  0
LINE
  8
1
 62
7
 10
745.5291473086001
 20
553.7108914313
 30
0
 11
745.8850615437
 21
555.1677705106
 31
0
  0
LINE
  8
1
 62
7
 10
745.0463720376112
 20
552.9930652436533
 30
0
 11
745.5291473086001
 21
553.7108914313
 31
0
  0
LINE
  8
1
 62
7
 10
723.7802170927384
 20
524.430061256637
 30
0
 11
721.0657023604
 21
514.4300633428001
 31
0
  0
LINE
  8
1
 62
7
 10
483.3106530038
 20
519.4300622997
 30
0
 11
465.3106528473
 21
524.4300612566
 31
0
  0
LINE
  8
1
 62
7
 10
465.3106528473
 20
514.4300633428001
 30
0
 11
483.3106530038
 21
519.4300622997
 31
0
  0
LINE
  8
1
 62
7
 10
463.7954799597
 20
740.9627574978999
 30
0
 11
452.8258253028
 21
740.9627574978999
 31
0
  0
LINE
  8
1
 62
7
 10
469.2803072882
 20
731.4627605974
 30
0
 11
463.7954799597
 21
740.9627574978999
 31
0
  0
LINE
  8
1
 62
7
 10
463.7954799597
 20
721.9627636967999
 30
0
 11
469.2803072882
 21
731.4627605974
 31
0
  0
LINE
  8
1
 62
7
 10
452.8258253028
 20
721.9627636967999
 30
0
 11
463.7954799597
 21
721.9627636967999
 31
0
  0
LINE
  8
1
 62
7
 10
447.3409979743
 20
731.4627605974
 30
0
 11
452.8258253028
 21
721.9627636967999
 31
0
  0
LINE
  8
1
 62
7
 10
452.8258253028
 20
740.9627574978999
 30
0
 11
447.3409979743
 21
731.4627605974
 31
0
  0
LINE
  8
1
 62
7
 10
452.8258253028
 20
902.9627577363
 30
0
 11
447.3409979743
 21
893.4627608358001
 31
0
  0
LINE
  8
1
 62
7
 10
463.7954799597
 20
902.9627577363
 30
0
 11
452.8258253028
 21
902.9627577363
 31
0
  0
LINE
  8
1
 62
7
 10
469.2803072882
 20
893.4627608358001
 30
0
 11
463.7954799597
 21
902.9627577363
 31
0
  0
LINE
  8
1
 62
7
 10
463.7954799597
 20
883.9627639352
 30
0
 11
469.2803072882
 21
893.4627608358001
 31
0
  0
LINE
  8
1
 62
7
 10
452.8258253028
 20
883.9627639352
 30
0
 11
463.7954799597
 21
883.9627639352
 31
0
  0
LINE
  8
1
 62
7
 10
447.3409979743
 20
893.4627608358001
 30
0
 11
452.8258253028
 21
883.9627639352
 31
0
  0
LINE
  8
1
 62
7
 10
533.9435366714999
 20
862.462761104
 30
0
 11
522.9738829459
 21
862.462761104
 31
0
  0
LINE
  8
1
 62
7
 10
539.4283672596
 20
852.9627604782
 30
0
 11
533.9435366714999
 21
862.462761104
 31
0
  0
LINE
  8
1
 62
7
 10
533.9435366714999
 20
843.4627598523
 30
0
 11
539.4283672596
 21
852.9627604782
 31
0
  0
LINE
  8
1
 62
7
 10
522.9738829459
 20
843.4627598523
 30
0
 11
533.9435366714999
 21
843.4627598523
 31
0
  0
LINE
  8
1
 62
7
 10
517.4890560831
 20
852.9627604782
 30
0
 11
522.9738829459
 21
843.4627598523
 31
0
  0
LINE
  8
1
 62
7
 10
522.9738829459
 20
862.462761104
 30
0
 11
517.4890560831
 21
852.9627604782
 31
0
  0
LINE
  8
1
 62
7
 10
522.9738829459
 20
781.462761104
 30
0
 11
517.4890560831
 21
771.9627604782
 31
0
  0
LINE
  8
1
 62
7
 10
533.9435366714999
 20
781.462761104
 30
0
 11
522.9738829459
 21
781.462761104
 31
0
  0
LINE
  8
1
 62
7
 10
539.4283672596
 20
771.9627604782
 30
0
 11
533.9435366714999
 21
781.462761104
 31
0
  0
LINE
  8
1
 62
7
 10
533.9435366714999
 20
762.4627598523
 30
0
 11
539.4283672596
 21
771.9627604782
 31
0
  0
LINE
  8
1
 62
7
 10
522.9738829459
 20
762.4627598523
 30
0
 11
533.9435366714999
 21
762.4627598523
 31
0
  0
LINE
  8
1
 62
7
 10
517.4890560831
 20
771.9627604782
 30
0
 11
522.9738829459
 21
762.4627598523
 31
0
  0
LINE
  8
1
 62
7
 10
393.6474212584
 20
862.462761104
 30
0
 11
382.6777675328
 21
862.462761104
 31
0
  0
LINE
  8
1
 62
7
 10
399.1322518465
 20
852.9627604782
 30
0
 11
393.6474212584
 21
862.462761104
 31
0
  0
LINE
  8
1
 62
7
 10
393.6474212584
 20
843.4627598523
 30
0
 11
399.1322518465
 21
852.9627604782
 31
0
  0
LINE
  8
1
 62
7
 10
382.6777675328
 20
843.4627598523
 30
0
 11
393.6474212584
 21
843.4627598523
 31
0
  0
LINE
  8
1
 62
7
 10
377.19294067
 20
852.9627604782
 30
0
 11
382.6777675328
 21
843.4627598523
 31
0
  0
LINE
  8
1
 62
7
 10
382.6777675328
 20
862.462761104
 30
0
 11
377.19294067
 21
852.9627604782
 31
0
  0
LINE
  8
1
 62
7
 10
382.6777675328
 20
781.462761104
 30
0
 11
377.19294067
 21
771.9627604782
 31
0
  0
LINE
  8
1
 62
7
 10
393.6474212584
 20
781.462761104
 30
0
 11
382.6777675328
 21
781.462761104
 31
0
  0
LINE
  8
1
 62
7
 10
399.1322518465
 20
771.9627604782
 30
0
 11
393.6474212584
 21
781.462761104
 31
0
  0
LINE
  8
1
 62
7
 10
393.6474212584
 20
762.4627598523
 30
0
 11
399.1322518465
 21
771.9627604782
 31
0
  0
LINE
  8
1
 62
7
 10
382.6777675328
 20
762.4627598523
 30
0
 11
393.6474212584
 21
762.4627598523
 31
0
  0
LINE
  8
1
 62
7
 10
377.19294067
 20
771.9627604782
 30
0
 11
382.6777675328
 21
762.4627598523
 31
0
  0
LINE
  8
1
 62
7
 10
308.3719947514
 20
746.9360322654001
 30
0
 11
302.8411307511
 21
737.4627605974
 31
0
  0
LINE
  8
1
 62
7
 10
319.3415292678
 20
746.9360322654001
 30
0
 11
308.3719947514
 21
746.9360322654001
 31
0
  0
LINE
  8
1
 62
7
 10
324.7801848826
 20
737.4627605974
 30
0
 11
319.3415292678
 21
746.9360322654001
 31
0
  0
LINE
  8
1
 62
7
 10
319.3415292678
 20
727.9362545311001
 30
0
 11
324.7801848826
 21
737.4627605974
 31
0
  0
LINE
  8
1
 62
7
 10
308.3719947514
 20
727.9362545311001
 30
0
 11
319.3415292678
 21
727.9362545311001
 31
0
  0
LINE
  8
1
 62
7
 10
302.8411307511
 20
737.4627605974
 30
0
 11
308.3719947514
 21
727.9362545311001
 31
0
  0
LINE
  8
1
 62
7
 10
302.8411307511
 20
885.5160013733999
 30
0
 11
308.3719947514
 21
875.9894953071
 31
0
  0
LINE
  8
1
 62
7
 10
308.3719947514
 20
894.9892730414
 30
0
 11
302.8411307511
 21
885.5160013733999
 31
0
  0
LINE
  8
1
 62
7
 10
319.3415292678
 20
894.9892730414
 30
0
 11
308.3719947514
 21
894.9892730414
 31
0
  0
LINE
  8
1
 62
7
 10
324.7801848826
 20
885.5160013733999
 30
0
 11
319.3415292678
 21
894.9892730414
 31
0
  0
LINE
  8
1
 62
7
 10
319.3415292678
 20
875.9894953071
 30
0
 11
324.7801848826
 21
885.5160013733999
 31
0
  0
LINE
  8
1
 62
7
 10
308.3719947514
 20
875.9894953071
 30
0
 11
319.3415292678
 21
875.9894953071
 31
0
  0
LINE
  8
1
 62
7
 10
228.8106569228
 20
812.4627605974
 30
0
 11
213.8106563268
 21
807.4627607091001
 31
0
  0
LINE
  8
1
 62
7
 10
213.8106563268
 20
817.4627604856
 30
0
 11
228.8106569228
 21
812.4627605974
 31
0
  0
LINE
  8
1
 62
7
 10
361.6470478461934
 20
520.6489613711664
 30
0
 11
362.3465486941257
 21
523.043754076669
 31
0
  0
LINE
  8
1
 62
2
  6
DASHDOT
 10
458.3106526313
 20
646.3192580089
 30
0
 11
458.3106526313
 21
353.6013701988
 31
0
  0
LINE
  8
1
 62
2
  6
DASHDOT
 10
458.3106526313
 20
938.2718710994
 30
0
 11
458.3106526313
 21
700.2766459526
 31
0
  0
LINE
  8
1
 62
2
  6
DASHDOT
 10
-3.8165718616
 20
464.4300625977
 30
0
 11
605.8231868809999
 21
464.4300625977
 31
0
  0
LINE
  8
1
 62
2
  6
DASHDOT
 10
-3.8165718616
 20
812.4627605974
 30
0
 11
605.8231868809999
 21
812.4627605974
 31
0
  0
LINE
  8
1
 62
2
  6
DASHDOT
 10
809.949862283
 20
646.3192580089
 30
0
 11
809.949862283
 21
353.6013701988
 31
0
  0
LINE
  8
1
 62
2
  6
DASHDOT
 10
714.449862283
 20
464.4300625977
 30
0
 11
905.449862283
 21
464.4300625977
 31
0
  0
LINE
  8
1
 62
2
 10
918.0992667124999
 20
548.3708499003
 30
0
 11
919.2542667124999
 21
548.3708499003
 31
0
  0
LINE
  8
1
 62
2
 10
917.0597667124999
 20
548.5208499003001
 30
0
 11
917.0597667124999
 21
547.3208499003
 31
0
  0
LINE
  8
1
 62
2
 10
916.0202667125
 20
547.9208499003
 30
0
 11
917.4062667124999
 21
547.9208499003
 31
0
  0
LINE
  8
1
 62
2
 10
917.0597667124999
 20
550.3208499003
 30
0
 11
916.0202667125
 21
547.9208499003
 31
0
  0
LINE
  8
1
 62
2
 10
920.7824333461
 20
550.3208499003
 30
0
 11
919.8584333461
 21
547.3208499003
 31
0
  0
LINE
  8
1
 62
2
 10
921.0711833461
 20
549.2708499003001
 30
0
 11
921.1289333461
 21
548.9708499003
 31
0
  0
LINE
  8
1
 62
2
 10
920.8979333461
 20
549.5708499003
 30
0
 11
921.0711833461
 21
549.2708499003001
 31
0
  0
LINE
  8
1
 62
2
 10
920.6669333461
 20
549.7958499003
 30
0
 11
920.8979333461
 21
549.5708499003
 31
0
  0
LINE
  8
1
 62
2
 10
920.4359333461
 20
549.8708499003
 30
0
 11
920.6669333461
 21
549.7958499003
 31
0
  0
LINE
  8
1
 62
2
 10
920.2049333461
 20
549.8708499003
 30
0
 11
920.4359333461
 21
549.8708499003
 31
0
  0
LINE
  8
1
 62
2
 10
919.9739333461
 20
549.7958499003
 30
0
 11
920.2049333461
 21
549.8708499003
 31
0
  0
LINE
  8
1
 62
2
 10
919.7429333461
 20
549.5708499003
 30
0
 11
919.9739333461
 21
549.7958499003
 31
0
  0
LINE
  8
1
 62
2
 10
919.5696833461001
 20
549.2708499003001
 30
0
 11
919.7429333461
 21
549.5708499003
 31
0
  0
LINE
  8
1
 62
2
 10
919.5119333461
 20
548.9708499003
 30
0
 11
919.5696833461001
 21
549.2708499003001
 31
0
  0
LINE
  8
1
 62
2
 10
919.5119333461
 20
548.6708499003
 30
0
 11
919.5119333461
 21
548.9708499003
 31
0
  0
LINE
  8
1
 62
2
 10
919.5696833461001
 20
548.3708499003
 30
0
 11
919.5119333461
 21
548.6708499003
 31
0
  0
LINE
  8
1
 62
2
 10
919.7429333461
 20
548.0708499003
 30
0
 11
919.5696833461001
 21
548.3708499003
 31
0
  0
LINE
  8
1
 62
2
 10
919.9739333461
 20
547.8458499003
 30
0
 11
919.7429333461
 21
548.0708499003
 31
0
  0
LINE
  8
1
 62
2
 10
920.2049333461
 20
547.7708499003001
 30
0
 11
919.9739333461
 21
547.8458499003
 31
0
  0
LINE
  8
1
 62
2
 10
920.4359333461
 20
547.7708499003001
 30
0
 11
920.2049333461
 21
547.7708499003001
 31
0
  0
LINE
  8
1
 62
2
 10
920.6669333461
 20
547.8458499003
 30
0
 11
920.4359333461
 21
547.7708499003001
 31
0
  0
LINE
  8
1
 62
2
 10
920.8979333461
 20
548.0708499003
 30
0
 11
920.6669333461
 21
547.8458499003
 31
0
  0
LINE
  8
1
 62
2
 10
921.0711833461
 20
548.3708499003
 30
0
 11
920.8979333461
 21
548.0708499003
 31
0
  0
LINE
  8
1
 62
2
 10
921.1289333461
 20
548.6708499003
 30
0
 11
921.0711833461
 21
548.3708499003
 31
0
  0
LINE
  8
1
 62
2
 10
921.1289333461
 20
548.9708499003
 30
0
 11
921.1289333461
 21
548.6708499003
 31
0
  0
LINE
  8
1
 62
2
 10
924.9018703731999
 20
547.6208496675
 30
0
 11
924.3821203732
 21
547.3208496675001
 31
0
  0
LINE
  8
1
 62
2
 10
925.3061203732
 20
548.0708496675001
 30
0
 11
924.9018703731999
 21
547.6208496675
 31
0
  0
LINE
  8
1
 62
2
 10
925.4793703731999
 20
548.3708496675
 30
0
 11
925.3061203732
 21
548.0708496675001
 31
0
  0
LINE
  8
1
 62
2
 10
925.5371203732
 20
548.6708496675001
 30
0
 11
925.4793703731999
 21
548.3708496675
 31
0
  0
LINE
  8
1
 62
2
 10
925.5948703731999
 20
549.0458496675001
 30
0
 11
925.5371203732
 21
548.6708496675001
 31
0
  0
LINE
  8
1
 62
2
 10
925.5948703731999
 20
549.5708496675001
 30
0
 11
925.5948703731999
 21
549.0458496675001
 31
0
  0
LINE
  8
1
 62
2
 10
925.5371203732
 20
549.8708496675
 30
0
 11
925.5948703731999
 21
549.5708496675001
 31
0
  0
LINE
  8
1
 62
2
 10
925.4216203732
 20
550.0958496675
 30
0
 11
925.5371203732
 21
549.8708496675
 31
0
  0
LINE
  8
1
 62
2
 10
925.2483703731999
 20
550.2458496675
 30
0
 11
925.4216203732
 21
550.0958496675
 31
0
  0
LINE
  8
1
 62
2
 10
925.0751203732
 20
550.3208496675001
 30
0
 11
925.2483703731999
 21
550.2458496675
 31
0
  0
LINE
  8
1
 62
2
 10
924.7286203732
 20
550.3208496675001
 30
0
 11
925.0751203732
 21
550.3208496675001
 31
0
  0
LINE
  8
1
 62
2
 10
924.5553703731999
 20
550.2458496675
 30
0
 11
924.7286203732
 21
550.3208496675001
 31
0
  0
LINE
  8
1
 62
2
 10
924.3821203732
 20
550.0958496675
 30
0
 11
924.5553703731999
 21
550.2458496675
 31
0
  0
LINE
  8
1
 62
2
 10
924.2666203732
 20
549.8708496675
 30
0
 11
924.3821203732
 21
550.0958496675
 31
0
  0
LINE
  8
1
 62
2
 10
924.2088703731999
 20
549.5708496675001
 30
0
 11
924.2666203732
 21
549.8708496675
 31
0
  0
LINE
  8
1
 62
2
 10
924.2088703731999
 20
549.4208496675001
 30
0
 11
924.2088703731999
 21
549.5708496675001
 31
0
  0
LINE
  8
1
 62
2
 10
924.2666203732
 20
549.1208496675
 30
0
 11
924.2088703731999
 21
549.4208496675001
 31
0
  0
LINE
  8
1
 62
2
 10
924.3821203732
 20
548.8958496675001
 30
0
 11
924.2666203732
 21
549.1208496675
 31
0
  0
LINE
  8
1
 62
2
 10
924.5553703731999
 20
548.7458496675
 30
0
 11
924.3821203732
 21
548.8958496675001
 31
0
  0
LINE
  8
1
 62
2
 10
924.7286203732
 20
548.6708496675001
 30
0
 11
924.5553703731999
 21
548.7458496675
 31
0
  0
LINE
  8
1
 62
2
 10
925.5371203732
 20
548.6708496675001
 30
0
 11
924.7286203732
 21
548.6708496675001
 31
0
  0
LINE
  8
1
 62
2
 10
923.5158703732
 20
550.3208496675001
 30
0
 11
923.5158703732
 21
547.3208496675001
 31
0
  0
LINE
  8
1
 62
2
 10
922.8228703732
 20
549.4208496675001
 30
0
 11
923.5158703732
 21
550.3208496675001
 31
0
  0
LINE
  8
1
 62
2
 10
929.1595710248647
 20
548.6208496675
 30
0
 11
931.0619239660412
 21
548.6208496675
 31
0
  0
LINE
  8
1
 62
2
 10
930.110747495453
 20
550.2208496675
 30
0
 11
930.110747495453
 21
548.6208496675
 31
0
  0
LINE
  8
1
 62
2
 10
931.0619239660412
 20
547.3208496675001
 30
0
 11
930.5183945542765
 21
547.5208496675001
 31
0
  0
LINE
  8
1
 62
2
 10
931.0619239660412
 20
550.2208496675
 30
0
 11
931.0619239660412
 21
547.3208496675001
 31
0
  0
LINE
  8
1
 62
2
 10
929.1595710248647
 20
550.2208496675
 30
0
 11
931.0619239660412
 21
550.2208496675
 31
0
  0
LINE
  8
1
 62
2
 10
929.1595710248647
 20
547.3208496675001
 30
0
 11
929.1595710248647
 21
550.2208496675
 31
0
  0
LINE
  8
1
 62
2
 10
927.6648651425118
 20
547.9208496675001
 30
0
 11
928.4122180836882
 21
547.2208496675
 31
0
  0
LINE
  8
1
 62
2
 10
927.1892769072176
 20
548.7208496675
 30
0
 11
927.6648651425118
 21
547.9208496675001
 31
0
  0
LINE
  8
1
 62
2
 10
928.2083945542764
 20
548.4208496675001
 30
0
 11
927.6648651425118
 21
547.9208496675001
 31
0
  0
LINE
  8
1
 62
2
 10
926.3739827895706
 20
548.7208496675
 30
0
 11
928.4801592601588
 21
548.7208496675
 31
0
  0
LINE
  8
1
 62
2
 10
926.645747495453
 20
549.2208496675
 30
0
 11
928.2083945542764
 21
549.2208496675
 31
0
  0
LINE
  8
1
 62
2
 10
926.645747495453
 20
549.7208496675
 30
0
 11
928.2083945542764
 21
549.7208496675
 31
0
  0
LINE
  8
1
 62
2
 10
926.645747495453
 20
547.3208496675001
 30
0
 11
927.4610416131
 21
547.5208496675001
 31
0
  0
LINE
  8
1
 62
2
 10
926.4419239660411
 20
547.3208496675001
 30
0
 11
926.645747495453
 21
547.3208496675001
 31
0
  0
LINE
  8
1
 62
2
 10
926.645747495453
 20
550.2208496675
 30
0
 11
926.645747495453
 21
547.3208496675001
 31
0
  0
LINE
  8
1
 62
2
 10
928.2763357307471
 20
550.2208496675
 30
0
 11
926.645747495453
 21
550.2208496675
 31
0
  0
LINE
  8
1
 62
2
 10
526.7959609148588
 20
327.1589268687
 30
0
 11
526.5649609148588
 21
326.5589268687
 31
0
  0
LINE
  8
1
 62
2
 10
526.9114609148588
 20
327.7589268687
 30
0
 11
526.7959609148588
 21
327.1589268687
 31
0
  0
LINE
  8
1
 62
2
 10
526.9114609148588
 20
328.3589268687
 30
0
 11
526.9114609148588
 21
327.7589268687
 31
0
  0
LINE
  8
1
 62
2
 10
526.7959609148588
 20
328.9589268687
 30
0
 11
526.9114609148588
 21
328.3589268687
 31
0
  0
LINE
  8
1
 62
2
 10
526.5649609148588
 20
329.5589268687
 30
0
 11
526.7959609148588
 21
328.9589268687
 31
0
  0
LINE
  8
1
 62
2
 10
525.8142109148588
 20
328.9589268687
 30
0
 11
525.8719609148587
 21
328.6589268687
 31
0
  0
LINE
  8
1
 62
2
 10
525.6987109148588
 20
329.1839268687
 30
0
 11
525.8142109148588
 21
328.9589268687
 31
0
  0
LINE
  8
1
 62
2
 10
525.5832109148588
 20
329.3339268687
 30
0
 11
525.6987109148588
 21
329.1839268687
 31
0
  0
LINE
  8
1
 62
2
 10
525.4099609148587
 20
329.4839268687
 30
0
 11
525.5832109148588
 21
329.3339268687
 31
0
  0
LINE
  8
1
 62
2
 10
525.1789609148588
 20
329.5589268687
 30
0
 11
525.4099609148587
 21
329.4839268687
 31
0
  0
LINE
  8
1
 62
2
 10
524.2549609148588
 20
329.5589268687
 30
0
 11
525.1789609148588
 21
329.5589268687
 31
0
  0
LINE
  8
1
 62
2
 10
524.2549609148588
 20
326.5589268687
 30
0
 11
524.2549609148588
 21
329.5589268687
 31
0
  0
LINE
  8
1
 62
2
 10
525.1789609148588
 20
326.5589268687
 30
0
 11
524.2549609148588
 21
326.5589268687
 31
0
  0
LINE
  8
1
 62
2
 10
525.4099609148587
 20
326.6339268687
 30
0
 11
525.1789609148588
 21
326.5589268687
 31
0
  0
LINE
  8
1
 62
2
 10
525.5832109148588
 20
326.7839268687
 30
0
 11
525.4099609148587
 21
326.6339268687
 31
0
  0
LINE
  8
1
 62
2
 10
525.6987109148588
 20
326.9339268687
 30
0
 11
525.5832109148588
 21
326.7839268687
 31
0
  0
LINE
  8
1
 62
2
 10
525.8142109148588
 20
327.1589268687
 30
0
 11
525.6987109148588
 21
326.9339268687
 31
0
  0
LINE
  8
1
 62
2
 10
525.8719609148587
 20
327.4589268687
 30
0
 11
525.8142109148588
 21
327.1589268687
 31
0
  0
LINE
  8
1
 62
2
 10
525.8719609148587
 20
328.6589268687
 30
0
 11
525.8719609148587
 21
327.4589268687
 31
0
  0
LINE
  8
1
 62
2
 10
522.556431503094
 20
327.4589268687
 30
0
 11
522.7602550325058
 21
326.9589268687
 31
0
  0
LINE
  8
1
 62
2
 10
522.4884903266235
 20
328.0589268687
 30
0
 11
522.556431503094
 21
327.4589268687
 31
0
  0
LINE
  8
1
 62
2
 10
522.556431503094
 20
328.6589268687
 30
0
 11
522.4884903266235
 21
328.0589268687
 31
0
  0
LINE
  8
1
 62
2
 10
522.7602550325058
 20
329.1589268687
 30
0
 11
522.556431503094
 21
328.6589268687
 31
0
  0
LINE
  8
1
 62
2
 10
520.1784903266236
 20
326.4589268687
 30
0
 11
519.1593726795647
 21
326.7589268687
 31
0
  0
LINE
  8
1
 62
2
 10
520.6540785619177
 20
326.8589268687
 30
0
 11
520.1784903266236
 21
326.4589268687
 31
0
  0
LINE
  8
1
 62
2
 10
520.7220197383882
 20
327.5589268687
 30
0
 11
520.6540785619177
 21
326.8589268687
 31
0
  0
LINE
  8
1
 62
2
 10
519.4311373854471
 20
327.5589268687
 30
0
 11
520.7220197383882
 21
327.5589268687
 31
0
  0
LINE
  8
1
 62
2
 10
519.5670197383882
 20
328.2589268687
 30
0
 11
519.4311373854471
 21
327.5589268687
 31
0
  0
LINE
  8
1
 62
2
 10
518.8876079736824
 20
328.2589268687
 30
0
 11
520.9258432678
 21
328.2589268687
 31
0
  0
LINE
  8
1
 62
2
 10
519.1593726795647
 20
328.5589268687
 30
0
 11
519.1593726795647
 21
329.4589268687
 31
0
  0
LINE
  8
1
 62
2
 10
520.7220197383882
 20
328.5589268687
 30
0
 11
519.1593726795647
 21
328.5589268687
 31
0
  0
LINE
  8
1
 62
2
 10
520.7220197383882
 20
329.4589268687
 30
0
 11
520.7220197383882
 21
328.5589268687
 31
0
  0
LINE
  8
1
 62
2
 10
519.1593726795647
 20
329.4589268687
 30
0
 11
520.7220197383882
 21
329.4589268687
 31
0
  0
LINE
  8
1
 62
2
 10
518.2081962089765
 20
326.5589268687
 30
0
 11
518.2081962089765
 21
327.2589268687
 31
0
  0
LINE
  8
1
 62
2
 10
517.1890785619177
 20
326.5589268687
 30
0
 11
518.2081962089765
 21
326.5589268687
 31
0
  0
LINE
  8
1
 62
2
 10
517.1890785619177
 20
328.2589268687
 30
0
 11
517.1890785619177
 21
326.5589268687
 31
0
  0
LINE
  8
1
 62
2
 10
518.0723138560353
 20
328.2589268687
 30
0
 11
517.1890785619177
 21
328.2589268687
 31
0
  0
LINE
  8
1
 62
2
 10
518.0723138560353
 20
329.4589268687
 30
0
 11
518.0723138560353
 21
328.2589268687
 31
0
  0
LINE
  8
1
 62
2
 10
517.121137385447
 20
329.4589268687
 30
0
 11
518.0723138560353
 21
329.4589268687
 31
0
  0
LINE
  8
1
 62
2
 10
516.2379020913294
 20
326.5589268687
 30
0
 11
516.2379020913294
 21
327.5589268687
 31
0
  0
LINE
  8
1
 62
2
 10
516.9852550325059
 20
326.5589268687
 30
0
 11
516.2379020913294
 21
326.5589268687
 31
0
  0
LINE
  8
1
 62
2
 10
516.9852550325059
 20
327.5589268687
 30
0
 11
516.9852550325059
 21
326.5589268687
 31
0
  0
LINE
  8
1
 62
2
 10
516.2379020913294
 20
327.5589268687
 30
0
 11
516.9852550325059
 21
327.5589268687
 31
0
  0
LINE
  8
1
 62
2
 10
516.3058432678
 20
327.9589268687
 30
0
 11
516.9173138560353
 21
327.9589268687
 31
0
  0
LINE
  8
1
 62
2
 10
516.3058432678
 20
328.4589268687
 30
0
 11
516.9173138560353
 21
328.4589268687
 31
0
  0
LINE
  8
1
 62
2
 10
516.1699609148589
 20
328.9589268687
 30
0
 11
517.0531962089765
 21
328.9589268687
 31
0
  0
LINE
  8
1
 62
2
 10
516.3058432678
 20
329.4589268687
 30
0
 11
516.9173138560353
 21
329.4589268687
 31
0
  0
LINE
  8
1
 62
2
 10
515.2867256207411
 20
329.4589268687
 30
0
 11
515.2867256207411
 21
326.5589268687
 31
0
  0
LINE
  8
1
 62
2
 10
514.4034903266235
 20
327.0589268687
 30
0
 11
515.4905491501529
 21
327.3589268687
 31
0
  0
LINE
  8
1
 62
2
 10
514.4714315030941
 20
328.4589268687
 30
0
 11
515.0829020913294
 21
327.6589268687
 31
0
  0
LINE
  8
1
 62
2
 10
514.5393726795646
 20
329.3589268687
 30
0
 11
515.0829020913294
 21
328.6589268687
 31
0
  0
LINE
  8
1
 62
2
 10
513.8599609148588
 20
328.2589268687
 30
0
 11
514.3355491501529
 21
327.3589268687
 31
0
  0
LINE
  8
1
 62
2
 10
513.8599609148588
 20
328.2589268687
 30
0
 11
513.4523138560353
 21
327.0589268687
 31
0
  0
LINE
  8
1
 62
2
 10
513.8599609148588
 20
329.5589268687
 30
0
 11
513.8599609148588
 21
326.5589268687
 31
0
  0
LINE
  8
1
 62
2
 10
513.4523138560353
 20
328.2589268687
 30
0
 11
514.3355491501529
 21
328.2589268687
 31
0
  0
LINE
  8
1
 62
2
 10
514.3355491501529
 20
329.3589268687
 30
0
 11
514.0637844442705
 21
328.5589268687
 31
0
  0
LINE
  8
1
 62
2
 10
513.5202550325058
 20
329.3589268687
 30
0
 11
513.656137385447
 21
328.4589268687
 31
0
  0
LINE
  8
1
 62
2
 10
512.501137385447
 20
329.0589268687
 30
0
 11
511.5499609148588
 21
327.2589268687
 31
0
  0
LINE
  8
1
 62
2
 10
512.501137385447
 20
326.5589268687
 30
0
 11
511.8896667972118
 21
326.9589268687
 31
0
  0
LINE
  8
1
 62
2
 10
512.501137385447
 20
329.5589268687
 30
0
 11
512.501137385447
 21
326.5589268687
 31
0
  0
LINE
  8
1
 62
2
 10
511.6858432678
 20
329.0589268687
 30
0
 11
512.7729020913293
 21
329.0589268687
 31
0
  0
LINE
  8
1
 62
2
 10
511.1423138560353
 20
329.0589268687
 30
0
 11
511.5499609148588
 21
327.8589268687
 31
0
  0
LINE
  8
1
 62
2
 10
511.1423138560353
 20
329.0589268687
 30
0
 11
510.7346667972117
 21
327.5589268687
 31
0
  0
LINE
  8
1
 62
2
 10
511.1423138560353
 20
329.5589268687
 30
0
 11
511.1423138560353
 21
326.5589268687
 31
0
  0
LINE
  8
1
 62
2
 10
510.7346667972117
 20
329.0589268687
 30
0
 11
511.5499609148588
 21
329.0589268687
 31
0
  0
LINE
  8
1
 62
2
 10
509.9873138560353
 20
329.6589268687
 30
0
 11
510.1231962089764
 21
329.2589268687
 31
0
  0
LINE
  8
1
 62
2
 10
509.6476079736823
 20
329.6589268687
 30
0
 11
509.7834903266235
 21
329.2589268687
 31
0
  0
LINE
  8
1
 62
2
 10
509.5117256207411
 20
329.1589268687
 30
0
 11
509.9193726795647
 21
328.0589268687
 31
0
  0
LINE
  8
1
 62
2
 10
509.5796667972117
 20
328.6589268687
 30
0
 11
509.5117256207411
 21
329.1589268687
 31
0
  0
LINE
  8
1
 62
2
 10
509.6476079736823
 20
328.2589268687
 30
0
 11
509.5796667972117
 21
328.6589268687
 31
0
  0
LINE
  8
1
 62
2
 10
509.5796667972117
 20
327.7589268687
 30
0
 11
509.6476079736823
 21
328.2589268687
 31
0
  0
LINE
  8
1
 62
2
 10
509.4437844442705
 20
327.3589268687
 30
0
 11
509.5796667972117
 21
327.7589268687
 31
0
  0
LINE
  8
1
 62
2
 10
509.1720197383882
 20
327.0589268687
 30
0
 11
509.4437844442705
 21
327.3589268687
 31
0
  0
LINE
  8
1
 62
2
 10
508.7643726795646
 20
326.8589268687
 30
0
 11
509.1720197383882
 21
327.0589268687
 31
0
  0
LINE
  8
1
 62
2
 10
508.4246667972117
 20
327.0589268687
 30
0
 11
508.7643726795646
 21
326.8589268687
 31
0
  0
LINE
  8
1
 62
2
 10
508.2887844442705
 20
327.6589268687
 30
0
 11
508.4246667972117
 21
327.0589268687
 31
0
  0
LINE
  8
1
 62
2
 10
508.4246667972117
 20
328.2589268687
 30
0
 11
508.2887844442705
 21
327.6589268687
 31
0
  0
LINE
  8
1
 62
2
 10
508.6284903266235
 20
328.7589268687
 30
0
 11
508.4246667972117
 21
328.2589268687
 31
0
  0
LINE
  8
1
 62
2
 10
508.9002550325058
 20
329.1589268687
 30
0
 11
508.6284903266235
 21
328.7589268687
 31
0
  0
LINE
  8
1
 62
2
 10
508.2887844442705
 20
329.1589268687
 30
0
 11
508.9002550325058
 21
329.1589268687
 31
0
  0
LINE
  8
1
 62
2
 10
506.7940785619176
 20
327.4589268687
 30
0
 11
507.2017256207412
 21
327.0589268687
 31
0
  0
LINE
  8
1
 62
2
 10
506.3184903266235
 20
327.6589268687
 30
0
 11
506.7940785619176
 21
327.4589268687
 31
0
  0
LINE
  8
1
 62
2
 10
505.9108432678
 20
327.7589268687
 30
0
 11
506.3184903266235
 21
327.6589268687
 31
0
  0
LINE
  8
1
 62
2
 10
505.6390785619176
 20
327.6589268687
 30
0
 11
505.9108432678
 21
327.7589268687
 31
0
  0
LINE
  8
1
 62
2
 10
505.5031962089764
 20
327.2589268687
 30
0
 11
505.6390785619176
 21
327.6589268687
 31
0
  0
LINE
  8
1
 62
2
 10
505.6390785619176
 20
326.8589268687
 30
0
 11
505.5031962089764
 21
327.2589268687
 31
0
  0
LINE
  8
1
 62
2
 10
505.9108432678
 20
326.7589268687
 30
0
 11
505.6390785619176
 21
326.8589268687
 31
0
  0
LINE
  8
1
 62
2
 10
506.1826079736823
 20
326.8589268687
 30
0
 11
505.9108432678
 21
326.7589268687
 31
0
  0
LINE
  8
1
 62
2
 10
506.3184903266235
 20
327.2589268687
 30
0
 11
506.1826079736823
 21
326.8589268687
 31
0
  0
LINE
  8
1
 62
2
 10
506.3184903266235
 20
329.4589268687
 30
0
 11
506.3184903266235
 21
327.2589268687
 31
0
  0
LINE
  8
1
 62
2
 10
506.3184903266235
 20
328.7589268687
 30
0
 11
507.1337844442705
 21
328.7589268687
 31
0
  0
LINE
  8
1
 62
2
 10
504.2802550325058
 20
329.1589268687
 30
0
 11
504.6199609148588
 21
328.5589268687
 31
0
  0
LINE
  8
1
 62
2
 10
504.1443726795646
 20
326.8589268687
 30
0
 11
503.8046667972117
 21
326.7589268687
 31
0
  0
LINE
  8
1
 62
2
 10
504.416137385447
 20
327.2589268687
 30
0
 11
504.1443726795646
 21
326.8589268687
 31
0
  0
LINE
  8
1
 62
2
 10
504.4840785619176
 20
327.8589268687
 30
0
 11
504.416137385447
 21
327.2589268687
 31
0
  0
LINE
  8
1
 62
2
 10
504.2123138560352
 20
328.2589268687
 30
0
 11
504.4840785619176
 21
327.8589268687
 31
0
  0
LINE
  8
1
 62
2
 10
503.8726079736823
 20
328.4589268687
 30
0
 11
504.2123138560352
 21
328.2589268687
 31
0
  0
LINE
  8
1
 62
2
 10
503.4649609148588
 20
328.3589268687
 30
0
 11
503.8726079736823
 21
328.4589268687
 31
0
  0
LINE
  8
1
 62
2
 10
503.261137385447
 20
328.2589268687
 30
0
 11
503.4649609148588
 21
328.3589268687
 31
0
  0
LINE
  8
1
 62
2
 10
503.0573138560353
 20
328.0589268687
 30
0
 11
503.261137385447
 21
328.2589268687
 31
0
  0
LINE
  8
1
 62
2
 10
502.9214315030941
 20
327.8589268687
 30
0
 11
503.0573138560353
 21
328.0589268687
 31
0
  0
LINE
  8
1
 62
2
 10
502.7855491501529
 20
327.4589268687
 30
0
 11
502.9214315030941
 21
327.8589268687
 31
0
  0
LINE
  8
1
 62
2
 10
502.8534903266234
 20
326.9589268687
 30
0
 11
502.7855491501529
 21
327.4589268687
 31
0
  0
LINE
  8
1
 62
2
 10
503.1931962089764
 20
326.7589268687
 30
0
 11
502.8534903266234
 21
326.9589268687
 31
0
  0
LINE
  8
1
 62
2
 10
503.3970197383882
 20
326.9589268687
 30
0
 11
503.1931962089764
 21
326.7589268687
 31
0
  0
LINE
  8
1
 62
2
 10
503.3970197383882
 20
329.4589268687
 30
0
 11
503.3970197383882
 21
326.9589268687
 31
0
  0
LINE
  8
1
 62
2
 10
502.9214315030941
 20
329.0589268687
 30
0
 11
503.8726079736823
 21
329.0589268687
 31
0
  0
LINE
  8
1
 62
2
 10
501.0870197383882
 20
329.2589268687
 30
0
 11
501.0870197383882
 21
326.4589268687
 31
0
  0
LINE
  8
1
 62
2
 10
499.796137385447
 20
327.2589268687
 30
0
 11
501.9702550325059
 21
327.2589268687
 31
0
  0
LINE
  8
1
 62
2
 10
500.2037844442706
 20
328.4589268687
 30
0
 11
500.2037844442706
 21
327.2589268687
 31
0
  0
LINE
  8
1
 62
2
 10
501.9023138560353
 20
328.4589268687
 30
0
 11
500.2037844442706
 21
328.4589268687
 31
0
  0
LINE
  8
1
 62
2
 10
500.2717256207412
 20
329.2589268687
 30
0
 11
501.9702550325059
 21
329.2589268687
 31
0
  0
LINE
  8
1
 62
2
 10
500.2717256207412
 20
329.2589268687
 30
0
 11
499.9320197383882
 21
328.6589268687
 31
0
  0
LINE
  8
1
 62
2
 10
500.4076079736823
 20
329.6589268687
 30
0
 11
500.2717256207412
 21
329.2589268687
 31
0
  0
LINE
  8
1
 62
2
 10
497.8937844442705
 20
326.9589268687
 30
0
 11
497.8937844442705
 21
327.9589268687
 31
0
  0
LINE
  8
1
 62
2
 10
498.9808432677999
 20
326.9589268687
 30
0
 11
497.8937844442705
 21
326.9589268687
 31
0
  0
LINE
  8
1
 62
2
 10
498.9808432677999
 20
327.9589268687
 30
0
 11
498.9808432677999
 21
326.9589268687
 31
0
  0
LINE
  8
1
 62
2
 10
497.8937844442705
 20
327.9589268687
 30
0
 11
498.9808432677999
 21
327.9589268687
 31
0
  0
LINE
  8
1
 62
2
 10
498.4373138560353
 20
329.5589268687
 30
0
 11
498.4373138560353
 21
328.3589268687
 31
0
  0
LINE
  8
1
 62
2
 10
497.6220197383882
 20
328.3589268687
 30
0
 11
499.1846667972117
 21
328.3589268687
 31
0
  0
LINE
  8
1
 62
2
 10
497.8258432677999
 20
329.0589268687
 30
0
 11
499.1167256207411
 21
329.0589268687
 31
0
  0
LINE
  8
1
 62
2
 10
497.8258432677999
 20
329.0589268687
 30
0
 11
497.6220197383882
 21
328.6589268687
 31
0
  0
LINE
  8
1
 62
2
 10
497.8937844442705
 20
329.4589268687
 30
0
 11
497.8258432677999
 21
329.0589268687
 31
0
  0
LINE
  8
1
 62
2
 10
498.0976079736823
 20
326.5589268687
 30
0
 11
499.2526079736823
 21
326.5589268687
 31
0
  0
LINE
  8
1
 62
2
 10
497.486137385447
 20
327.2589268687
 30
0
 11
498.0976079736823
 21
326.5589268687
 31
0
  0
LINE
  8
1
 62
2
 10
497.486137385447
 20
327.2589268687
 30
0
 11
497.1464315030941
 21
326.5589268687
 31
0
  0
LINE
  8
1
 62
2
 10
497.486137385447
 20
328.2589268687
 30
0
 11
497.486137385447
 21
327.2589268687
 31
0
  0
LINE
  8
1
 62
2
 10
497.1464315030941
 20
328.2589268687
 30
0
 11
497.486137385447
 21
328.2589268687
 31
0
  0
LINE
  8
1
 62
2
 10
497.2143726795646
 20
329.4589268687
 30
0
 11
497.5540785619176
 21
328.9589268687
 31
0
  0
LINE
  8
1
 62
2
 10
495.8555491501529
 20
327.5589268687
 30
0
 11
496.0593726795647
 21
326.8589268687
 31
0
  0
LINE
  8
1
 62
2
 10
496.3311373854471
 20
326.5589268687
 30
0
 11
495.7876079736823
 21
326.7589268687
 31
0
  0
LINE
  8
1
 62
2
 10
496.3311373854471
 20
328.4589268687
 30
0
 11
496.3311373854471
 21
326.5589268687
 31
0
  0
LINE
  8
1
 62
2
 10
495.3799609148588
 20
327.7589268687
 30
0
 11
496.5349609148588
 21
327.7589268687
 31
0
  0
LINE
  8
1
 62
2
 10
495.7876079736823
 20
328.1589268687
 30
0
 11
495.3799609148588
 21
326.8589268687
 31
0
  0
LINE
  8
1
 62
2
 10
495.8555491501529
 20
329.5589268687
 30
0
 11
495.7876079736823
 21
328.1589268687
 31
0
  0
LINE
  8
1
 62
2
 10
495.3120197383882
 20
328.4589268687
 30
0
 11
496.5349609148588
 21
328.4589268687
 31
0
  0
LINE
  8
1
 62
2
 10
495.4479020913294
 20
328.8589268687
 30
0
 11
496.3990785619176
 21
328.8589268687
 31
0
  0
LINE
  8
1
 62
2
 10
495.3799609148588
 20
329.2589268687
 30
0
 11
496.4670197383882
 21
329.2589268687
 31
0
  0
LINE
  8
1
 62
2
 10
494.4287844442706
 20
326.5589268687
 30
0
 11
495.2440785619176
 21
326.7589268687
 31
0
  0
LINE
  8
1
 62
2
 10
495.2440785619176
 20
327.6589268687
 30
0
 11
495.1081962089764
 21
326.9589268687
 31
0
  0
LINE
  8
1
 62
2
 10
494.4967256207411
 20
327.6589268687
 30
0
 11
494.6326079736823
 21
326.8589268687
 31
0
  0
LINE
  8
1
 62
2
 10
494.8364315030941
 20
328.5589268687
 30
0
 11
494.8364315030941
 21
326.6589268687
 31
0
  0
LINE
  8
1
 62
2
 10
494.4287844442706
 20
327.9589268687
 30
0
 11
495.2440785619176
 21
327.9589268687
 31
0
  0
LINE
  8
1
 62
2
 10
494.4967256207411
 20
328.5589268687
 30
0
 11
495.176137385447
 21
328.5589268687
 31
0
  0
LINE
  8
1
 62
2
 10
494.9043726795647
 20
329.4589268687
 30
0
 11
495.2440785619176
 21
328.8589268687
 31
0
  0
LINE
  8
1
 62
2
 10
494.4287844442706
 20
328.7589268687
 30
0
 11
494.9043726795647
 21
329.4589268687
 31
0
  0
LINE
  8
0
 62
7
 10
728.949862283
 20
595.4300625977
 30
0
 11
728.949862283
 21
592.2245177484
 31
0
  0
LINE
  8
0
 62
7
 10
779.8421671284
 20
595.4300625977
 30
0
 11
779.8421671284
 21
592.4300625977
 31
0
  0
LINE
  8
0
 62
7
 10
840.0575574376001
 20
595.4300625977
 30
0
 11
840.0575574376001
 21
592.4300625977
 31
0
  0
LINE
  8
0
 62
2
  6
DASHDOT
 10
745.9418844939
 20
400.4220848086
 30
0
 11
772.9238080114
 21
427.4040083262
 31
0
  0
LINE
  8
0
 62
2
  6
DASHDOT
 10
874.3099597698
 20
400.0699651109
 30
0
 11
846.7168929582
 21
427.6630319225
 31
0
  0
LINE
  8
0
 62
2
  6
DASHDOT
 10
874.2874376434
 20
528.7676379581
 30
0
 11
846.4578693619
 21
500.9380696766
 31
0
  0
LINE
  8
0
 62
2
  6
DASHDOT
 10
746.9255194568
 20
527.4544054239
 30
0
 11
772.8145070831
 21
501.5654177976
 31
0
  0
LINE
  8
0
 62
7
 10
769.1982709582001
 20
565.4300661144
 30
0
 11
769.1982709582001
 21
580.4300592599
 31
0
  0
LINE
  8
0
 62
7
 10
850.7014536078
 20
565.4300661144
 30
0
 11
850.7014536078
 21
580.4300592599
 31
0
  0
LINE
  8
0
 62
7
 10
731.7769774015
 20
595.4300598559
 30
0
 11
728.9498620446
 21
595.4300598559
 31
0
  0
LINE
  8
0
 62
7
 10
890.9498625214
 20
595.4300598559
 30
0
 11
888.1227471645
 21
595.4300598559
 31
0
  0
LINE
  8
0
 62
7
 10
781.2557243521
 20
595.4300598559
 30
0
 11
779.8421666737
 21
595.4300598559
 31
0
  0
LINE
  8
0
 62
7
 10
840.0575578923
 20
595.4300598559
 30
0
 11
838.6440002139
 21
595.4300598559
 31
0
  0
LINE
  8
0
 62
7
 10
798.3862259204
 20
621.0800693688
 30
0
 11
798.3862259204
 21
623.0800585208
 31
0
  0
LINE
  8
0
 62
7
 10
821.5134986455
 20
623.0800585208
 30
0
 11
821.5134986455
 21
621.0800693688
 31
0
  0
LINE
  8
0
 62
7
 10
801.6641479696
 20
623.0800585208
 30
0
 11
801.6641479696
 21
621.0800693688
 31
0
  0
LINE
  8
0
 62
7
 10
818.2355765964001
 20
621.0800693688
 30
0
 11
818.2355765964001
 21
623.0800585208
 31
0
  0
LINE
  8
0
 62
7
 10
758.9045748825
 20
376.3777301964
 30
0
 11
759.9498615379
 21
364.4300611076
 31
0
  0
LINE
  8
0
 62
7
 10
860.9951496835
 20
376.3777301964
 30
0
 11
859.949863028
 21
364.4300611076
 31
0
  0
LINE
  8
0
 62
7
 10
806.8328704464
 20
371.4823113141
 30
0
 11
807.4498623389
 21
364.4300611076
 31
0
  0
LINE
  8
0
 62
7
 10
759.9498615379
 20
364.4300611076
 30
0
 11
859.949863028
 21
364.4300611076
 31
0
  0
LINE
  8
0
 62
7
 10
813.0668541196
 20
371.4823113141
 30
0
 11
812.4498622271
 21
364.4300611076
 31
0
  0
LINE
  8
0
 62
7
 10
739.2114183982832
 20
404.0556263123918
 30
0
 11
739.9924942071
 21
400.212368494
 31
0
  0
LINE
  8
0
 62
7
 10
739.9924942071
 20
400.212368494
 30
0
 11
741.9057138975001
 21
394.4809125123
 31
0
  0
LINE
  8
0
 62
7
 10
741.9057138975001
 20
394.4809125123
 30
0
 11
743.2537921483
 21
391.6727067289
 31
0
  0
LINE
  8
0
 62
7
 10
752.7211070771
 20
380.2963258085
 30
0
 11
755.1003680344001
 21
378.5524801669
 31
0
  0
LINE
  8
0
 62
7
 10
755.1003680344001
 20
378.5524801669
 30
0
 11
757.5283520634
 21
377.0535574612
 31
0
  0
LINE
  8
0
 62
7
 10
757.5283520634
 20
377.0535574612
 30
0
 11
758.9103267307
 21
376.3118447122
 31
0
  0
LINE
  8
0
 62
7
 10
758.9045748825
 20
376.3777301964
 30
0
 11
761.5452320094
 21
375.1494870839
 31
0
  0
LINE
  8
0
 62
7
 10
858.3544925566
 20
375.1494870839
 30
0
 11
860.9951496835
 21
376.3777301964
 31
0
  0
LINE
  8
0
 62
7
 10
862.3713725026
 20
377.0535574612
 30
0
 11
860.9893978353
 21
376.3118447122
 31
0
  0
LINE
  8
0
 62
7
 10
864.7993565316
 20
378.5524801669
 30
0
 11
862.3713725026
 21
377.0535574612
 31
0
  0
LINE
  8
0
 62
7
 10
867.1786174889
 20
380.2963258085
 30
0
 11
864.7993565316
 21
378.5524801669
 31
0
  0
LINE
  8
0
 62
7
 10
877.9940106685
 20
394.4809125123
 30
0
 11
876.6459324176
 21
391.6727067289
 31
0
  0
LINE
  8
0
 62
7
 10
879.9072303588
 20
400.212368494
 30
0
 11
877.9940106685
 21
394.4809125123
 31
0
  0
LINE
  8
0
 62
7
 10
880.4738023097
 20
403.0001671371
 30
0
 11
879.9072303588
 21
400.212368494
 31
0
  0
LINE
  8
0
 62
7
 10
880.5880667723759
 20
403.9383766688296
 30
0
 11
880.4738023097
 21
403.0001671371
 31
0
  0
LINE
  8
0
 62
7
 10
716.9498600776
 20
565.4300661144
 30
0
 11
902.9498644884
 21
565.4300661144
 31
0
  0
LINE
  8
0
 62
7
 10
809.949862283
 20
565.4300661144
 30
0
 11
809.949862283
 21
580.4300592599
 31
0
  0
LINE
  8
0
 62
7
 10
718.2422323749379
 20
479.8803252700911
 30
0
 11
719.5007004554
 21
504.4300617036
 31
0
  0
LINE
  8
0
 62
7
 10
869.2614570971
 20
510.3336000201
 30
0
 11
865.6935379620001
 21
506.7696743962
 31
0
  0
LINE
  8
0
 62
7
 10
852.2894740815
 20
520.1737382767
 30
0
 11
855.8533997054
 21
523.7416574118
 31
0
  0
LINE
  8
0
 62
7
 10
855.8533997054
 20
405.1184677837
 30
0
 11
852.2894740815
 21
408.6863869187
 31
0
  0
LINE
  8
0
 62
7
 10
865.6935379620001
 20
422.0904507992
 30
0
 11
869.2614570971
 21
418.5265251753
 31
0
  0
LINE
  8
0
 62
7
 10
754.206186604
 20
422.0904507992
 30
0
 11
750.6382674689
 21
418.5265251753
 31
0
  0
LINE
  8
0
 62
7
 10
764.0463248606
 20
405.1184677837
 30
0
 11
767.6102504845001
 21
408.6863869187
 31
0
  0
LINE
  8
0
 62
7
 10
767.6102504845001
 20
520.1737382767
 30
0
 11
764.0463248606
 21
523.7416574118
 31
0
  0
LINE
  8
0
 62
7
 10
750.6382674689
 20
510.3336000201
 30
0
 11
754.206186604
 21
506.7696743962
 31
0
  0
LINE
  8
0
 62
7
 10
740.9498640115
 20
599.4300679621
 30
0
 11
716.9498600776
 21
599.4300679621
 31
0
  0
LINE
  8
0
 62
7
 10
902.9498644884
 20
599.4300679621
 30
0
 11
878.9498605545
 21
599.4300679621
 31
0
  0
LINE
  8
0
 62
7
 10
734.5918812568
 20
597.430063909
 30
0
 11
757.4498639221
 21
597.430063909
 31
0
  0
LINE
  8
0
 62
7
 10
862.4498606439
 20
597.430063909
 30
0
 11
885.3078433092001
 21
597.430063909
 31
0
  0
LINE
  8
0
 62
7
 10
859.949863028
 20
600.5800650773
 30
0
 11
873.4498643095
 21
600.5800650773
 31
0
  0
LINE
  8
0
 62
7
 10
816.8018255162
 20
600.5800650773
 30
0
 11
840.9498617763001
 21
600.5800650773
 31
0
  0
LINE
  8
0
 62
7
 10
778.9498627896001
 20
600.5800650773
 30
0
 11
803.0978990498001
 21
600.5800650773
 31
0
  0
LINE
  8
0
 62
7
 10
746.4498602564
 20
600.5800650773
 30
0
 11
759.9498615379
 21
600.5800650773
 31
0
  0
LINE
  8
0
 62
7
 10
817.949862663
 20
600.5800650773
 30
0
 11
817.949862663
 21
603.5800562558
 31
0
  0
LINE
  8
0
 62
7
 10
801.9498619030001
 20
600.5800650773
 30
0
 11
801.9498619030001
 21
603.5800562558
 31
0
  0
LINE
  8
0
 62
7
 10
804.4008845243
 20
597.430063909
 30
0
 11
804.4008845243
 21
599.0800694880001
 31
0
  0
LINE
  8
0
 62
7
 10
815.4988400417
 20
599.0800694880001
 30
0
 11
815.4988400417
 21
597.430063909
 31
0
  0
LINE
  8
0
 62
7
 10
730.7477094944001
 20
592.4300686774
 30
0
 11
757.4498639221
 21
592.4300686774
 31
0
  0
LINE
  8
0
 62
7
 10
862.4498606439
 20
592.4300686774
 30
0
 11
889.1520150716
 21
592.4300686774
 31
0
  0
LINE
  8
0
 62
7
 10
781.4428792114001
 20
597.430063909
 30
0
 11
838.4568453546
 21
597.430063909
 31
0
  0
LINE
  8
0
 62
7
 10
781.4498622681
 20
599.4300679621
 30
0
 11
757.4498639221
 21
599.4300679621
 31
0
  0
LINE
  8
0
 62
7
 10
862.4498606439
 20
599.4300679621
 30
0
 11
838.4498622979
 21
599.4300679621
 31
0
  0
LINE
  8
0
 62
7
 10
902.9498644884
 20
580.4300592599
 30
0
 11
716.9498600776
 21
580.4300592599
 31
0
  0
LINE
  8
0
 62
7
 10
778.8712889667
 20
592.4300686774
 30
0
 11
841.0284355993
 21
592.4300686774
 31
0
  0
LINE
  8
0
 62
7
 10
836.9498629833
 20
631.0800598321
 30
0
 11
836.9498629833
 21
630.0800578055
 31
0
  0
LINE
  8
0
 62
7
 10
782.9498615826
 20
631.0800598321
 30
0
 11
782.9498615826
 21
630.0800578055
 31
0
  0
LINE
  8
0
 62
7
 10
821.3742594014
 20
631.0800598321
 30
0
 11
821.3742594014
 21
630.0800578055
 31
0
  0
LINE
  8
0
 62
7
 10
824.0872747044
 20
631.0800598321
 30
0
 11
824.0872747044
 21
630.0800578055
 31
0
  0
LINE
  8
0
 62
7
 10
830.3742599453
 20
631.0800598321
 30
0
 11
830.3742599453
 21
630.0800578055
 31
0
  0
LINE
  8
0
 62
7
 10
833.0872752483
 20
631.0800598321
 30
0
 11
833.0872752483
 21
630.0800578055
 31
0
  0
LINE
  8
0
 62
7
 10
821.7783248762
 20
631.0800598321
 30
0
 11
821.7783248762
 21
630.0800578055
 31
0
  0
LINE
  8
0
 62
7
 10
830.7783254201
 20
631.0800598321
 30
0
 11
830.7783254201
 21
630.0800578055
 31
0
  0
LINE
  8
0
 62
7
 10
824.5490644838
 20
631.0800598321
 30
0
 11
824.5490644838
 21
630.0800578055
 31
0
  0
LINE
  8
0
 62
7
 10
833.5490640963
 20
631.0800598321
 30
0
 11
833.5490640963
 21
630.0800578055
 31
0
  0
LINE
  8
0
 62
7
 10
820.7392976398
 20
631.0800598321
 30
0
 11
820.7392976398
 21
630.0800578055
 31
0
  0
LINE
  8
0
 62
7
 10
823.5100372474
 20
631.0800598321
 30
0
 11
823.5100372474
 21
630.0800578055
 31
0
  0
LINE
  8
0
 62
7
 10
829.7392972524
 20
631.0800598321
 30
0
 11
829.7392972524
 21
630.0800578055
 31
0
  0
LINE
  8
0
 62
7
 10
832.5100377913
 20
631.0800598321
 30
0
 11
832.5100377913
 21
630.0800578055
 31
0
  0
LINE
  8
0
 62
7
 10
819.106274728
 20
631.0800598321
 30
0
 11
819.106274728
 21
630.0800578055
 31
0
  0
LINE
  8
0
 62
7
 10
820.335232165
 20
631.0800598321
 30
0
 11
820.335232165
 21
630.0800578055
 31
0
  0
LINE
  8
0
 62
7
 10
823.1059708412
 20
631.0800598321
 30
0
 11
823.1059708412
 21
630.0800578055
 31
0
  0
LINE
  8
0
 62
7
 10
821.8770143355
 20
631.0800598321
 30
0
 11
821.8770143355
 21
630.0800578055
 31
0
  0
LINE
  8
0
 62
7
 10
825.9344328905
 20
631.0800598321
 30
0
 11
825.9344328905
 21
630.0800578055
 31
0
  0
LINE
  8
0
 62
7
 10
824.7054773162
 20
631.0800598321
 30
0
 11
824.7054773162
 21
630.0800578055
 31
0
  0
LINE
  8
0
 62
7
 10
829.3352317775
 20
631.0800598321
 30
0
 11
829.3352317775
 21
630.0800578055
 31
0
  0
LINE
  8
0
 62
7
 10
828.1062752719
 20
631.0800598321
 30
0
 11
828.1062752719
 21
630.0800578055
 31
0
  0
LINE
  8
0
 62
7
 10
832.1059704537
 20
631.0800598321
 30
0
 11
832.1059704537
 21
630.0800578055
 31
0
  0
LINE
  8
0
 62
7
 10
830.8770139480999
 20
631.0800598321
 30
0
 11
830.8770139480999
 21
630.0800578055
 31
0
  0
LINE
  8
0
 62
7
 10
834.9344343657
 20
631.0800598321
 30
0
 11
834.9344343657
 21
630.0800578055
 31
0
  0
LINE
  8
0
 62
7
 10
833.7054778601
 20
631.0800598321
 30
0
 11
833.7054778601
 21
630.0800578055
 31
0
  0
LINE
  8
0
 62
7
 10
814.9498621712
 20
631.0800598321
 30
0
 11
814.9498621712
 21
630.0800578055
 31
0
  0
LINE
  8
0
 62
7
 10
782.9498615826
 20
631.0800598321
 30
0
 11
836.9498629833
 21
631.0800598321
 31
0
  0
LINE
  8
0
 62
7
 10
784.9498619105
 20
631.0800598321
 30
0
 11
784.9498619105
 21
630.0800578055
 31
0
  0
LINE
  8
0
 62
7
 10
763.9498621936
 20
630.0800578055
 30
0
 11
855.9498623724001
 21
630.0800578055
 31
0
  0
LINE
  8
0
 62
7
 10
859.949863028
 20
603.5800562558
 30
0
 11
862.9498616571
 21
603.5800562558
 31
0
  0
LINE
  8
0
 62
7
 10
778.8498629595
 20
603.5800562558
 30
0
 11
840.9498617763001
 21
603.5800562558
 31
0
  0
LINE
  8
0
 62
7
 10
756.9498629088
 20
603.5800562558
 30
0
 11
759.9498615379
 21
603.5800562558
 31
0
  0
LINE
  8
0
 62
7
 10
799.9498625065
 20
621.0800693688
 30
0
 11
799.9498625065
 21
623.0800585208
 31
0
  0
LINE
  8
0
 62
7
 10
819.9498620595
 20
623.0800585208
 30
0
 11
819.9498620595
 21
621.0800693688
 31
0
  0
LINE
  8
0
 62
7
 10
798.3862259204
 20
621.0800693688
 30
0
 11
821.5134986455
 21
621.0800693688
 31
0
  0
LINE
  8
0
 62
7
 10
798.3862259204
 20
623.0800585208
 30
0
 11
821.5134986455
 21
623.0800585208
 31
0
  0
LINE
  8
0
 62
7
 10
682.1498595889
 20
610.0800619778
 30
0
 11
682.1498595889
 21
605.0800667462
 31
0
  0
LINE
  8
0
 62
7
 10
734.9498593028
 20
554.430066174
 30
0
 11
722.9498647864
 21
554.430066174
 31
0
  0
LINE
  8
0
 62
7
 10
738.4498589451
 20
607.4300692734
 30
0
 11
738.4498589451
 21
599.4300679621
 31
0
  0
LINE
  8
0
 62
7
 10
738.4498589451
 20
607.4300692734
 30
0
 11
719.449865144
 21
607.4300692734
 31
0
  0
LINE
  8
0
 62
7
 10
728.9498620446
 20
606.5815524516
 30
0
 11
728.9498620446
 21
599.4300679621
 31
0
  0
LINE
  8
0
 62
7
 10
719.449865144
 20
607.4300692734
 30
0
 11
719.449865144
 21
599.4300679621
 31
0
  0
LINE
  8
0
 62
7
 10
896.9498597796001
 20
554.430066174
 30
0
 11
884.9498652632
 21
554.430066174
 31
0
  0
LINE
  8
0
 62
7
 10
900.449859422
 20
607.4300692734
 30
0
 11
900.449859422
 21
599.4300679621
 31
0
  0
LINE
  8
0
 62
7
 10
900.449859422
 20
607.4300692734
 30
0
 11
881.4498656208
 21
607.4300692734
 31
0
  0
LINE
  8
0
 62
7
 10
890.9498625214
 20
606.5815524516
 30
0
 11
890.9498625214
 21
599.4300679621
 31
0
  0
LINE
  8
0
 62
7
 10
881.4498656208
 20
607.4300692734
 30
0
 11
881.4498656208
 21
599.4300679621
 31
0
  0
LINE
  8
0
 62
7
 10
856.4498633857
 20
554.430066174
 30
0
 11
844.4498614187
 21
554.430066174
 31
0
  0
LINE
  8
0
 62
7
 10
840.9498617763001
 20
607.4300692734
 30
0
 11
840.9498617763001
 21
599.4300679621
 31
0
  0
LINE
  8
0
 62
7
 10
859.949863028
 20
607.4300692734
 30
0
 11
840.9498617763001
 21
607.4300692734
 31
0
  0
LINE
  8
0
 62
7
 10
859.949863028
 20
607.4300692734
 30
0
 11
859.949863028
 21
599.4300679621
 31
0
  0
LINE
  8
0
 62
7
 10
850.4498624022
 20
606.5815524516
 30
0
 11
850.4498624022
 21
599.4300679621
 31
0
  0
LINE
  8
0
 62
7
 10
775.4498631473
 20
554.430066174
 30
0
 11
763.4498611803
 21
554.430066174
 31
0
  0
LINE
  8
0
 62
7
 10
759.9498615379
 20
607.4300692734
 30
0
 11
759.9498615379
 21
599.4300679621
 31
0
  0
LINE
  8
0
 62
7
 10
778.9498627896001
 20
607.4300692734
 30
0
 11
759.9498615379
 21
607.4300692734
 31
0
  0
LINE
  8
0
 62
7
 10
778.9498627896001
 20
607.4300692734
 30
0
 11
778.9498627896001
 21
599.4300679621
 31
0
  0
LINE
  8
0
 62
7
 10
769.4498621638001
 20
606.5815524516
 30
0
 11
769.4498621638001
 21
599.4300679621
 31
0
  0
LINE
  8
0
 62
7
 10
739.9028637226001
 20
556.2785701213001
 30
0
 11
739.5974942262
 21
556.1236352977001
 31
0
  0
LINE
  8
0
 62
7
 10
717.9968603666
 20
556.2785701213001
 30
0
 11
717.9968603666
 21
565.4300661144
 31
0
  0
LINE
  8
0
 62
7
 10
722.9500734026
 20
556.2785701213001
 30
0
 11
722.9500734026
 21
565.4300661144
 31
0
  0
LINE
  8
0
 62
7
 10
719.449865144
 20
555.4300607500001
 30
0
 11
738.4498589451
 21
555.4300607500001
 31
0
  0
LINE
  8
0
 62
7
 10
733.9030750806001
 20
556.2785701213001
 30
0
 11
733.9030750806001
 21
565.4300661144
 31
0
  0
LINE
  8
0
 62
7
 10
739.9028637226001
 20
556.2785701213001
 30
0
 11
739.9028637226001
 21
565.4300661144
 31
0
  0
LINE
  8
0
 62
7
 10
901.9028641994
 20
556.2785701213001
 30
0
 11
901.5974947031
 21
556.1236352977001
 31
0
  0
LINE
  8
0
 62
7
 10
879.9968608434
 20
556.2785701213001
 30
0
 11
879.9968608434
 21
565.4300661144
 31
0
  0
LINE
  8
0
 62
7
 10
884.9500738795
 20
556.2785701213001
 30
0
 11
884.9500738795
 21
565.4300661144
 31
0
  0
LINE
  8
0
 62
7
 10
900.449859422
 20
555.4300607500001
 30
0
 11
881.4498656208
 21
555.4300607500001
 31
0
  0
LINE
  8
0
 62
7
 10
895.9030755575
 20
556.2785701213001
 30
0
 11
895.9030755575
 21
565.4300661144
 31
0
  0
LINE
  8
0
 62
7
 10
901.9028641994
 20
556.2785701213001
 30
0
 11
901.9028641994
 21
565.4300661144
 31
0
  0
LINE
  8
0
 62
7
 10
861.4028640802
 20
556.2785701213001
 30
0
 11
861.0742152448
 21
556.0896382985
 31
0
  0
LINE
  8
0
 62
7
 10
839.4968607242
 20
556.2785701213001
 30
0
 11
839.4968607242
 21
565.4300661144
 31
0
  0
LINE
  8
0
 62
7
 10
861.4028640802
 20
556.2785701213001
 30
0
 11
861.4028640802
 21
565.4300661144
 31
0
  0
LINE
  8
0
 62
7
 10
859.949863028
 20
555.4300607500001
 30
0
 11
840.9498617763001
 21
555.4300607500001
 31
0
  0
LINE
  8
0
 62
7
 10
844.4500737603
 20
556.2785701213001
 30
0
 11
844.4500737603
 21
565.4300661144
 31
0
  0
LINE
  8
0
 62
7
 10
855.4030754383
 20
556.2785701213001
 30
0
 11
855.4030754383
 21
565.4300661144
 31
0
  0
LINE
  8
0
 62
7
 10
780.4028638418
 20
556.2785701213001
 30
0
 11
780.0974943454
 21
556.1236352977001
 31
0
  0
LINE
  8
0
 62
7
 10
758.4968604858
 20
556.2785701213001
 30
0
 11
758.4968604858
 21
565.4300661144
 31
0
  0
LINE
  8
0
 62
7
 10
780.4028638418
 20
556.2785701213001
 30
0
 11
780.4028638418
 21
565.4300661144
 31
0
  0
LINE
  8
0
 62
7
 10
778.9498627896001
 20
555.4300607500001
 30
0
 11
759.9498615379
 21
555.4300607500001
 31
0
  0
LINE
  8
0
 62
7
 10
763.4500735219
 20
556.2785701213001
 30
0
 11
763.4500735219
 21
565.4300661144
 31
0
  0
LINE
  8
0
 62
7
 10
774.4030751998
 20
556.2785701213001
 30
0
 11
774.4030751998
 21
565.4300661144
 31
0
  0
LINE
  8
0
 62
7
 10
745.9498592432
 20
560.4300634322
 30
0
 11
745.9490173275
 21
556.469722217
 31
0
  0
LINE
  8
0
 62
7
 10
716.9498600776
 20
599.4300679621
 30
0
 11
716.9498600776
 21
565.4300661144
 31
0
  0
LINE
  8
0
 62
7
 10
740.9498640115
 20
597.430063909
 30
0
 11
740.9498640115
 21
599.4300679621
 31
0
  0
LINE
  8
0
 62
7
 10
878.9498605545
 20
599.4300679621
 30
0
 11
878.9498605545
 21
597.430063909
 31
0
  0
LINE
  8
0
 62
7
 10
902.9498644884
 20
565.4300661144
 30
0
 11
902.9498644884
 21
599.4300679621
 31
0
  0
LINE
  8
0
 62
7
 10
754.9498625810001
 20
601.5800671038001
 30
0
 11
754.9498625810001
 21
600.5800650773
 31
0
  0
LINE
  8
0
 62
7
 10
864.949861985
 20
600.5800650773
 30
0
 11
864.949861985
 21
601.5800671038001
 31
0
  0
LINE
  8
0
 62
7
 10
744.9498646672
 20
599.0800694880001
 30
0
 11
744.9498646672
 21
597.430063909
 31
0
  0
LINE
  8
0
 62
7
 10
874.9498598988
 20
597.430063909
 30
0
 11
874.9498598988
 21
599.0800694880001
 31
0
  0
LINE
  8
0
 62
7
 10
757.4498639221
 20
599.4300679621
 30
0
 11
757.4498639221
 21
565.4300661144
 31
0
  0
LINE
  8
0
 62
7
 10
781.4498622681
 20
597.430063909
 30
0
 11
781.4498622681
 21
599.4300679621
 31
0
  0
LINE
  8
0
 62
7
 10
838.4498622979
 20
599.4300679621
 30
0
 11
838.4498622979
 21
597.430063909
 31
0
  0
LINE
  8
0
 62
7
 10
862.4498606439
 20
565.4300661144
 30
0
 11
862.4498606439
 21
599.4300679621
 31
0
  0
LINE
  8
0
 62
7
 10
756.9498629088
 20
623.0800585208
 30
0
 11
756.9498629088
 21
603.5800562558
 31
0
  0
LINE
  8
0
 62
7
 10
862.9498616571
 20
603.5800562558
 30
0
 11
862.9498616571
 21
623.0800585208
 31
0
  0
LINE
  8
0
 62
7
 10
756.9498629088
 20
610.0800619778
 30
0
 11
682.1498595889
 21
610.0800619778
 31
0
  0
LINE
  8
0
 62
7
 10
738.4498589451
 20
605.0800667462
 30
0
 11
756.9498629088
 21
605.0800667462
 31
0
  0
LINE
  8
0
 62
7
 10
682.1498595889
 20
605.0800667462
 30
0
 11
719.449865144
 21
605.0800667462
 31
0
  0
LINE
  8
0
 62
7
 10
734.9498593028
 20
554.430066174
 30
0
 11
734.9498593028
 21
555.4300607500001
 31
0
  0
LINE
  8
0
 62
7
 10
722.9498647864
 20
555.4300607500001
 30
0
 11
722.9498647864
 21
554.430066174
 31
0
  0
LINE
  8
0
 62
7
 10
896.9498597796001
 20
554.430066174
 30
0
 11
896.9498597796001
 21
555.4300607500001
 31
0
  0
LINE
  8
0
 62
7
 10
884.9498652632
 20
555.4300607500001
 30
0
 11
884.9498652632
 21
554.430066174
 31
0
  0
LINE
  8
0
 62
7
 10
856.4498633857
 20
554.430066174
 30
0
 11
856.4498633857
 21
555.4300607500001
 31
0
  0
LINE
  8
0
 62
7
 10
844.4498614187
 20
555.4300607500001
 30
0
 11
844.4498614187
 21
554.430066174
 31
0
  0
LINE
  8
0
 62
7
 10
775.4498631473
 20
554.430066174
 30
0
 11
775.4498631473
 21
555.4300607500001
 31
0
  0
LINE
  8
0
 62
7
 10
763.4498611803
 20
555.4300607500001
 30
0
 11
763.4498611803
 21
554.430066174
 31
0
  0
LINE
  8
0
 62
7
 10
718.2888113673
 20
556.1003969369
 30
0
 11
719.449865144
 21
555.4300607500001
 31
0
  0
LINE
  8
0
 62
7
 10
738.4498589451
 20
555.4300607500001
 30
0
 11
739.6109127219
 21
556.1003969369
 31
0
  0
LINE
  8
0
 62
7
 10
880.2888118441
 20
556.1003969369
 30
0
 11
881.4498656208
 21
555.4300607500001
 31
0
  0
LINE
  8
0
 62
7
 10
900.449859422
 20
555.4300607500001
 30
0
 11
901.6109131987
 21
556.1003969369
 31
0
  0
LINE
  8
0
 62
7
 10
839.8026474531
 20
556.0924099145
 30
0
 11
840.9498617763001
 21
555.4300607500001
 31
0
  0
LINE
  8
0
 62
7
 10
859.949863028
 20
555.4300607500001
 30
0
 11
861.0970773513
 21
556.0924099145
 31
0
  0
LINE
  8
0
 62
7
 10
758.7888114865
 20
556.1003969369
 30
0
 11
759.9498615379
 21
555.4300607500001
 31
0
  0
LINE
  8
0
 62
7
 10
778.9498627896001
 20
555.4300607500001
 30
0
 11
780.1109109784001
 21
556.1003969369
 31
0
  0
LINE
  8
0
 62
7
 10
343.5650059161
 20
808.8347394912
 30
0
 11
343.5650059161
 21
816.0907817035001
 31
0
  0
LINE
  8
0
 62
7
 10
361.7540338216
 20
809.4627605713
 30
0
 11
361.7540338216
 21
815.4627606234
 31
0
  0
LINE
  8
0
 62
7
 10
37.7943107066
 20
860.5170086919
 30
0
 11
37.7943107066
 21
764.4085125028
 31
0
  0
LINE
  8
0
 62
7
 10
335.9112777886
 20
754.1510970293
 30
0
 11
291.710022944
 21
754.1510970293
 31
0
  0
LINE
  8
0
 62
7
 10
291.710022944
 20
870.7744241654
 30
0
 11
335.9112777886
 21
870.7744241654
 31
0
  0
LINE
  8
0
 62
7
 10
335.9112777886
 20
870.7744241654
 30
0
 11
338.8106563268
 21
861.3330000042
 31
0
  0
LINE
  8
0
 62
7
 10
338.8106563268
 20
763.5925211905
 30
0
 11
335.9112777886
 21
754.1510970293
 31
0
  0
LINE
  8
0
 62
7
 10
291.710022944
 20
754.1510970293
 30
0
 11
288.810659307
 21
763.5925211905
 31
0
  0
LINE
  8
0
 62
7
 10
585.3106566844
 20
868.4627623259
 30
0
 11
585.3106566844
 21
756.4627588688001
 31
0
  0
LINE
  8
0
 62
7
 10
347.882706779
 20
815.4627606234
 30
0
 11
361.7540338216
 21
815.4627606234
 31
0
  0
LINE
  8
0
 62
7
 10
347.882706779
 20
809.4627605713
 30
0
 11
361.7540338216
 21
809.4627605713
 31
0
  0
LINE
  8
0
 62
7
 10
541.3106494722
 20
812.4627605974
 30
0
 11
546.386461812
 21
812.4627605974
 31
0
  0
LINE
  8
0
 62
7
 10
564.3106513796
 20
809.4627605713
 30
0
 11
545.0503864465001
 21
809.4627605713
 31
0
  0
LINE
  8
0
 62
7
 10
545.0503864465001
 20
815.4627606234
 30
0
 11
564.3106513796
 21
815.4627606234
 31
0
  0
LINE
  8
0
 62
7
 10
471.3010332686
 20
722.4504486619001
 30
0
 11
465.5966546662127
 21
721.9278681309245
 31
0
  0
LINE
  8
0
 62
7
 10
449.5198485581
 20
903.061641842
 30
0
 11
451.2975966697
 21
903.1988442837001
 31
0
  0
LINE
  8
0
 62
7
 10
583.3106526312999
 20
719.462758392
 30
0
 11
583.3106526312999
 21
905.4627628027
 31
0
  0
LINE
  8
0
 62
7
 10
567.3106500087
 20
719.462758392
 30
0
 11
567.3106500087
 21
905.4627628027
 31
0
  0
LINE
  8
0
 62
7
 10
512.3124458966
 20
802.0317261069
 30
0
 11
512.3939217207
 21
802.4627608209
 31
0
  0
LINE
  8
0
 62
7
 10
512.3939217207
 20
822.4627603738001
 30
0
 11
512.3124458966
 21
822.8937950878
 31
0
  0
LINE
  8
0
 62
7
 10
378.360811728
 20
806.8679952956001
 30
0
 11
378.360811728
 21
808.9352573695001
 31
0
  0
LINE
  8
0
 62
7
 10
378.8462766585
 20
808.9352573695001
 30
0
 11
378.8462766585
 21
806.8679952956001
 31
0
  0
LINE
  8
0
 62
7
 10
380.7719835219
 20
806.8679952956001
 30
0
 11
380.7719835219
 21
809.2696673664
 31
0
  0
LINE
  8
0
 62
7
 10
378.360811728
 20
808.9352573695001
 30
0
 11
378.8462766585
 21
808.9352573695001
 31
0
  0
LINE
  8
0
 62
7
 10
376.2574532208
 20
809.1176627166
 30
0
 11
376.7429181514
 21
809.1176627166
 31
0
  0
LINE
  8
0
 62
7
 10
381.2574484525
 20
809.2696673664
 30
0
 11
381.2574484525
 21
806.1488238125
 31
0
  0
LINE
  8
0
 62
7
 10
376.7429181514
 20
806.8679952956001
 30
0
 11
378.360811728
 21
806.8679952956001
 31
0
  0
LINE
  8
0
 62
7
 10
376.7429181514
 20
809.1176627166
 30
0
 11
376.7429181514
 21
806.8679952956001
 31
0
  0
LINE
  8
0
 62
7
 10
376.2574532208
 20
806.1488238125
 30
0
 11
376.2574532208
 21
809.1176627166
 31
0
  0
LINE
  8
0
 62
7
 10
381.2574484525
 20
806.1488238125
 30
0
 11
376.2574532208
 21
806.1488238125
 31
0
  0
LINE
  8
0
 62
7
 10
380.7719835219
 20
809.2696673664
 30
0
 11
381.2574484525
 21
809.2696673664
 31
0
  0
LINE
  8
0
 62
7
 10
378.8462766585
 20
806.8679952956001
 30
0
 11
380.7719835219
 21
806.8679952956001
 31
0
  0
LINE
  8
0
 62
7
 10
379.3355413852
 20
813.3008282128
 30
0
 11
379.3355413852
 21
814.0304501829
 31
0
  0
LINE
  8
0
 62
7
 10
378.0017011938
 20
814.0000492529
 30
0
 11
378.0017011938
 21
813.3312291427
 31
0
  0
LINE
  8
0
 62
7
 10
446.310652527
 20
731.4627603589
 30
0
 11
446.310652527
 21
734.2898757159001
 31
0
  0
LINE
  8
0
 62
7
 10
470.3106527356
 20
734.2898757159001
 30
0
 11
470.3106527356
 21
731.4627603589
 31
0
  0
LINE
  8
0
 62
7
 10
382.1625971374
 20
782.355064988
 30
0
 11
384.6109473286
 21
783.7686226665001
 31
0
  0
LINE
  8
0
 62
7
 10
396.6109492955
 20
762.9840136467
 30
0
 11
394.1625916538
 21
761.5704559683001
 31
0
  0
LINE
  8
0
 62
7
 10
522.4587136087
 20
761.5704559683001
 30
0
 11
520.010355967
 21
762.9840136467
 31
0
  0
LINE
  8
0
 62
7
 10
532.010357934
 20
783.7686226665001
 30
0
 11
534.4587081251
 21
782.355064988
 31
0
  0
LINE
  8
0
 62
7
 10
384.6109473286
 20
841.1568985282
 30
0
 11
382.1625971374
 21
842.5704562067
 31
0
  0
LINE
  8
0
 62
7
 10
534.4587081251
 20
842.5704562067
 30
0
 11
532.010357934
 21
841.1568985282
 31
0
  0
LINE
  8
0
 62
7
 10
520.010355967
 20
861.941507548
 30
0
 11
522.4587136087
 21
863.3550652264
 31
0
  0
LINE
  8
0
 62
7
 10
394.1625916538
 20
863.3550652264
 30
0
 11
396.6109492955
 21
861.941507548
 31
0
  0
LINE
  8
0
 62
7
 10
446.310652527
 20
890.6356454789
 30
0
 11
446.310652527
 21
893.4627608358001
 31
0
  0
LINE
  8
0
 62
7
 10
470.3106527356
 20
893.4627608358001
 30
0
 11
470.3106527356
 21
890.6356454789
 31
0
  0
LINE
  8
0
 62
7
 10
442.3731529293
 20
739.1756833493
 30
0
 11
440.0606528995
 21
739.7170574366
 31
0
  0
LINE
  8
0
 62
7
 10
394.8514127312
 20
826.531335242
 30
0
 11
387.0410435972
 21
828.2628529667001
 31
0
  0
LINE
  8
0
 62
7
 10
394.8514127312
 20
798.3941859527
 30
0
 11
387.0410435972
 21
796.662668228
 31
0
  0
LINE
  8
0
 62
7
 10
397.1634210226
 20
795.3377482443
 30
0
 11
405.3956271288
 21
797.4627609326
 31
0
  0
LINE
  8
0
 62
7
 10
405.3956271288
 20
827.4627602621
 30
0
 11
397.1634210226
 21
829.5877729504
 31
0
  0
LINE
  8
0
 62
7
 10
515.7562793372
 20
804.4627602174001
 30
0
 11
517.3106529889
 21
804.4627602174001
 31
0
  0
LINE
  8
0
 62
7
 10
517.3106529889
 20
820.4627609773
 30
0
 11
515.7562793372
 21
820.4627609773
 31
0
  0
LINE
  8
0
 62
7
 10
512.4295690236
 20
822.4627603738001
 30
0
 11
512.3124458966
 21
822.8937950878
 31
0
  0
LINE
  8
0
 62
7
 10
512.3124458966
 20
802.0317261069
 30
0
 11
512.4295690236
 21
802.4627608209
 31
0
  0
LINE
  8
0
 62
7
 10
516.1072612879
 20
807.6097355186
 30
0
 11
516.5606514690001
 21
807.5193306393001
 31
0
  0
LINE
  8
0
 62
7
 10
516.5606514690001
 20
817.4061905554
 30
0
 11
516.1072612879
 21
817.3157856761
 31
0
  0
LINE
  8
0
 62
7
 10
516.5606514690001
 20
817.4061905554
 30
0
 11
516.5606514690001
 21
807.5193306393001
 31
0
  0
LINE
  8
0
 62
7
 10
518.0606507835
 20
807.5193306393001
 30
0
 11
518.0606507835
 21
817.4061905554
 31
0
  0
LINE
  8
0
 62
7
 10
403.5807700035
 20
798.262760505
 30
0
 11
397.8106529591
 21
798.262760505
 31
0
  0
LINE
  8
0
 62
7
 10
395.8106526313
 20
800.2627608328
 30
0
 11
395.8106526313
 21
824.6627603619
 31
0
  0
LINE
  8
0
 62
7
 10
397.8106529591
 20
826.6627606897
 30
0
 11
403.5807700035
 21
826.6627606897
 31
0
  0
LINE
  8
0
 62
7
 10
511.9856001017
 20
802.4627608209
 30
0
 11
513.7362779257001
 21
802.4627608209
 31
0
  0
LINE
  8
0
 62
7
 10
513.7362779257001
 20
822.4627603738001
 30
0
 11
511.9856001017
 21
822.4627603738001
 31
0
  0
LINE
  8
0
 62
7
 10
449.2106522573
 20
813.5627605914
 30
0
 11
449.2106522573
 21
817.9627605676
 31
0
  0
LINE
  8
0
 62
7
 10
449.2106522573
 20
817.9627605676
 30
0
 11
451.410652711
 21
817.9627605676
 31
0
  0
LINE
  8
0
 62
7
 10
451.410652711
 20
813.5627605914
 30
0
 11
455.8106526872
 21
813.5627605914
 31
0
  0
LINE
  8
0
 62
7
 10
451.410652711
 20
813.5627605914
 30
0
 11
451.410652711
 21
817.9627605676
 31
0
  0
LINE
  8
0
 62
7
 10
444.8106522811
 20
813.5627605914
 30
0
 11
449.2106522573
 21
813.5627605914
 31
0
  0
LINE
  8
0
 62
7
 10
444.8106522811
 20
811.3627606033
 30
0
 11
444.8106522811
 21
813.5627605914
 31
0
  0
LINE
  8
0
 62
7
 10
444.8106522811
 20
811.3627606033
 30
0
 11
449.2106522573
 21
811.3627606033
 31
0
  0
LINE
  8
0
 62
7
 10
449.2106522573
 20
806.9627606272001
 30
0
 11
449.2106522573
 21
811.3627606033
 31
0
  0
LINE
  8
0
 62
7
 10
449.2106522573
 20
806.9627606272001
 30
0
 11
451.410652711
 21
806.9627606272001
 31
0
  0
LINE
  8
0
 62
7
 10
451.410652711
 20
806.9627606272001
 30
0
 11
451.410652711
 21
811.3627606033
 31
0
  0
LINE
  8
0
 62
7
 10
451.410652711
 20
811.3627606033
 30
0
 11
455.8106526872
 21
811.3627606033
 31
0
  0
LINE
  8
0
 62
7
 10
455.8106526872
 20
811.3627606033
 30
0
 11
455.8106526872
 21
813.5627605914
 31
0
  0
LINE
  8
0
 62
7
 10
483.3106530038
 20
787.4627602248
 30
0
 11
495.3106531081
 21
787.4627602248
 31
0
  0
LINE
  8
0
 62
7
 10
495.3106531081
 20
787.4627602248
 30
0
 11
495.3106531081
 21
817.4627604856
 31
0
  0
LINE
  8
0
 62
7
 10
495.3106531081
 20
817.4627604856
 30
0
 11
483.3106530038
 21
817.4627604856
 31
0
  0
LINE
  8
0
 62
7
 10
483.3106530038
 20
817.4627604856
 30
0
 11
483.3106530038
 21
787.4627602248
 31
0
  0
LINE
  8
0
 62
7
 10
457.8106526075
 20
816.7928876317
 30
0
 11
457.8106526075
 21
825.4531412347
 31
0
  0
LINE
  8
0
 62
7
 10
442.8106528846
 20
825.4531412347
 30
0
 11
442.8106528846
 21
816.7928876317
 31
0
  0
LINE
  8
0
 62
7
 10
457.8106526075
 20
825.4531412347
 30
0
 11
450.3106522513
 21
821.123014666
 31
0
  0
LINE
  8
0
 62
7
 10
444.8106522811
 20
821.9890403523
 30
0
 11
444.8106522811
 21
815.6381871047
 31
0
  0
LINE
  8
0
 62
7
 10
450.3106522513
 20
818.8136136121
 30
0
 11
444.8106522811
 21
821.9890403523
 31
0
  0
LINE
  8
0
 62
7
 10
455.8106526872
 20
821.9890403523
 30
0
 11
450.3106522513
 21
818.8136136121
 31
0
  0
LINE
  8
0
 62
7
 10
455.8106526872
 20
815.6381871047
 30
0
 11
455.8106526872
 21
821.9890403523
 31
0
  0
LINE
  8
0
 62
7
 10
461.3106526573
 20
812.4627605974
 30
0
 11
455.8106526872
 21
815.6381871047
 31
0
  0
LINE
  8
0
 62
7
 10
455.8106526872
 20
809.2873340899999
 30
0
 11
461.3106526573
 21
812.4627605974
 31
0
  0
LINE
  8
0
 62
7
 10
455.8106526872
 20
802.9364808424
 30
0
 11
455.8106526872
 21
809.2873340899999
 31
0
  0
LINE
  8
0
 62
7
 10
450.3106522513
 20
806.1119075826
 30
0
 11
455.8106526872
 21
802.9364808424
 31
0
  0
LINE
  8
0
 62
7
 10
444.8106522811
 20
802.9364808424
 30
0
 11
450.3106522513
 21
806.1119075826
 31
0
  0
LINE
  8
0
 62
7
 10
444.8106522811
 20
809.2873340899999
 30
0
 11
444.8106522811
 21
802.9364808424
 31
0
  0
LINE
  8
0
 62
7
 10
439.3106532422
 20
812.4627605974
 30
0
 11
444.8106522811
 21
809.2873340899999
 31
0
  0
LINE
  8
0
 62
7
 10
444.8106522811
 20
815.6381871047
 30
0
 11
439.3106532422
 21
812.4627605974
 31
0
  0
LINE
  8
0
 62
7
 10
442.8106528846
 20
816.7928876317
 30
0
 11
435.3106525866
 21
812.4627605974
 31
0
  0
LINE
  8
0
 62
7
 10
435.3106525866
 20
812.4627605974
 30
0
 11
442.8106528846
 21
808.132633563
 31
0
  0
LINE
  8
0
 62
7
 10
442.8106528846
 20
808.132633563
 30
0
 11
442.8106528846
 21
799.47237996
 31
0
  0
LINE
  8
0
 62
7
 10
442.8106528846
 20
799.47237996
 30
0
 11
450.3106522513
 21
803.8025065287
 31
0
  0
LINE
  8
0
 62
7
 10
450.3106522513
 20
803.8025065287
 30
0
 11
457.8106526075
 21
799.47237996
 31
0
  0
LINE
  8
0
 62
7
 10
457.8106526075
 20
799.47237996
 30
0
 11
457.8106526075
 21
808.132633563
 31
0
  0
LINE
  8
0
 62
7
 10
457.8106526075
 20
808.132633563
 30
0
 11
465.3106528473
 21
812.4627605974
 31
0
  0
LINE
  8
0
 62
7
 10
465.3106528473
 20
812.4627605974
 30
0
 11
457.8106526075
 21
816.7928876317
 31
0
  0
LINE
  8
0
 62
7
 10
450.3106522513
 20
821.123014666
 30
0
 11
442.8106528846
 21
825.4531412347
 31
0
  0
LINE
  8
0
 62
7
 10
432.3106520948
 20
830.4627598225
 30
0
 11
422.310654181
 21
830.4627598225
 31
0
  0
LINE
  8
0
 62
7
 10
422.310654181
 20
830.4627598225
 30
0
 11
422.310654181
 21
794.4627613722
 31
0
  0
LINE
  8
0
 62
7
 10
422.310654181
 20
794.4627613722
 30
0
 11
432.3106520948
 21
794.4627613722
 31
0
  0
LINE
  8
0
 62
7
 10
432.3106520948
 20
794.4627613722
 30
0
 11
432.3106520948
 21
830.4627598225
 31
0
  0
LINE
  8
0
 62
7
 10
468.3106524078
 20
839.4627612977
 30
0
 11
468.3106524078
 21
785.462759897
 31
0
  0
LINE
  8
0
 62
7
 10
480.3106525121
 20
785.462759897
 30
0
 11
480.3106525121
 21
839.4627612977
 31
0
  0
LINE
  8
0
 62
7
 10
468.3106524078
 20
785.462759897
 30
0
 11
480.3106525121
 21
785.462759897
 31
0
  0
LINE
  8
0
 62
7
 10
480.3106525121
 20
839.4627612977
 30
0
 11
468.3106524078
 21
839.4627612977
 31
0
  0
LINE
  8
0
 62
7
 10
489.5792455552
 20
828.4473312049
 30
0
 11
495.2063785074
 21
828.4473312049
 31
0
  0
LINE
  8
0
 62
7
 10
488.3223568228
 20
822.8481304793
 30
0
 11
489.1770408628
 21
822.8481304793
 31
0
  0
LINE
  8
0
 62
7
 10
488.3223568228
 20
821.6191730424
 30
0
 11
488.3223568228
 21
822.8481304793
 31
0
  0
LINE
  8
0
 62
7
 10
495.2063785074
 20
821.6191730424
 30
0
 11
488.3223568228
 21
821.6191730424
 31
0
  0
LINE
  8
0
 62
7
 10
495.2063785074
 20
822.8481304793
 30
0
 11
495.2063785074
 21
821.6191730424
 31
0
  0
LINE
  8
0
 62
7
 10
490.6350300786
 20
822.8481304793
 30
0
 11
495.2063785074
 21
822.8481304793
 31
0
  0
LINE
  8
0
 62
7
 10
495.2063785074
 20
824.3899126499
 30
0
 11
489.9814502475
 21
824.3899126499
 31
0
  0
LINE
  8
0
 62
7
 10
495.2063785074
 20
825.6188691555
 30
0
 11
495.2063785074
 21
824.3899126499
 31
0
  0
LINE
  8
0
 62
7
 10
490.6350300786
 20
825.6188691555
 30
0
 11
495.2063785074
 21
825.6188691555
 31
0
  0
LINE
  8
0
 62
7
 10
495.2063785074
 20
827.2183756306
 30
0
 11
490.0317230401
 21
827.2183756306
 31
0
  0
LINE
  8
0
 62
7
 10
495.2063785074
 20
828.4473312049
 30
0
 11
495.2063785074
 21
827.2183756306
 31
0
  0
LINE
  8
0
 62
7
 10
489.5792455552
 20
837.4473326801
 30
0
 11
495.2063785074
 21
837.4473326801
 31
0
  0
LINE
  8
0
 62
7
 10
488.3223568228
 20
831.8481300919
 30
0
 11
489.1770408628
 21
831.8481300919
 31
0
  0
LINE
  8
0
 62
7
 10
488.3223568228
 20
830.6191735863
 30
0
 11
488.3223568228
 21
831.8481300919
 31
0
  0
LINE
  8
0
 62
7
 10
495.2063785074
 20
830.6191735863
 30
0
 11
488.3223568228
 21
830.6191735863
 31
0
  0
LINE
  8
0
 62
7
 10
495.2063785074
 20
831.8481300919
 30
0
 11
495.2063785074
 21
830.6191735863
 31
0
  0
LINE
  8
0
 62
7
 10
490.6350300786
 20
831.8481300919
 30
0
 11
495.2063785074
 21
831.8481300919
 31
0
  0
LINE
  8
0
 62
7
 10
495.2063785074
 20
833.3899122625001
 30
0
 11
489.9814502475
 21
833.3899122625001
 31
0
  0
LINE
  8
0
 62
7
 10
495.2063785074
 20
834.6188687681
 30
0
 11
495.2063785074
 21
833.3899122625001
 31
0
  0
LINE
  8
0
 62
7
 10
490.6350300786
 20
834.6188687681
 30
0
 11
495.2063785074
 21
834.6188687681
 31
0
  0
LINE
  8
0
 62
7
 10
495.2063785074
 20
836.2183761745
 30
0
 11
490.0317230401
 21
836.2183761745
 31
0
  0
LINE
  8
0
 62
7
 10
495.2063785074
 20
837.4473326801
 30
0
 11
495.2063785074
 21
836.2183761745
 31
0
  0
LINE
  8
0
 62
7
 10
159.1146477637
 20
811.6504862517
 30
0
 11
159.1146477637
 21
803.6117250993
 31
0
  0
LINE
  8
0
 62
7
 10
152.1479078708
 20
813.446040145
 30
0
 11
152.1479078708
 21
812.2250634731
 31
0
  0
LINE
  8
0
 62
7
 10
150.6183632789
 20
813.446040145
 30
0
 11
152.1479078708
 21
813.446040145
 31
0
  0
LINE
  8
0
 62
7
 10
150.6183632789
 20
803.6117250993
 30
0
 11
150.6183632789
 21
813.446040145
 31
0
  0
LINE
  8
0
 62
7
 10
152.1479078708
 20
803.6117250993
 30
0
 11
150.6183632789
 21
803.6117250993
 31
0
  0
LINE
  8
0
 62
7
 10
152.1479078708
 20
810.1422209254
 30
0
 11
152.1479078708
 21
803.6117250993
 31
0
  0
LINE
  8
0
 62
7
 10
154.065836328
 20
803.6117250993
 30
0
 11
154.065836328
 21
811.0759089429999
 31
0
  0
LINE
  8
0
 62
7
 10
155.5953809199
 20
803.6117250993
 30
0
 11
154.065836328
 21
803.6117250993
 31
0
  0
LINE
  8
0
 62
7
 10
155.5953809199
 20
810.1422209254
 30
0
 11
155.5953809199
 21
803.6117250993
 31
0
  0
LINE
  8
0
 62
7
 10
157.5851031718
 20
803.6117250993
 30
0
 11
157.5851031718
 21
811.0040868594
 31
0
  0
LINE
  8
0
 62
7
 10
159.1146477637
 20
803.6117250993
 30
0
 11
157.5851031718
 21
803.6117250993
 31
0
  0
LINE
  8
0
 62
7
 10
168.3078893599
 20
811.6504862517
 30
0
 11
168.3078893599
 21
803.6117250993
 31
0
  0
LINE
  8
0
 62
7
 10
161.341149467
 20
813.446040145
 30
0
 11
161.341149467
 21
812.2250634731
 31
0
  0
LINE
  8
0
 62
7
 10
159.8116048751
 20
813.446040145
 30
0
 11
161.341149467
 21
813.446040145
 31
0
  0
LINE
  8
0
 62
7
 10
159.8116048751
 20
803.6117250993
 30
0
 11
159.8116048751
 21
813.446040145
 31
0
  0
LINE
  8
0
 62
7
 10
161.341149467
 20
803.6117250993
 30
0
 11
159.8116048751
 21
803.6117250993
 31
0
  0
LINE
  8
0
 62
7
 10
161.341149467
 20
810.1422209254
 30
0
 11
161.341149467
 21
803.6117250993
 31
0
  0
LINE
  8
0
 62
7
 10
163.2590779242
 20
803.6117250993
 30
0
 11
163.2590779242
 21
811.0759089429999
 31
0
  0
LINE
  8
0
 62
7
 10
164.7886225161
 20
803.6117250993
 30
0
 11
163.2590779242
 21
803.6117250993
 31
0
  0
LINE
  8
0
 62
7
 10
164.7886225161
 20
810.1422209254
 30
0
 11
164.7886225161
 21
803.6117250993
 31
0
  0
LINE
  8
0
 62
7
 10
166.778344768
 20
803.6117250993
 30
0
 11
166.778344768
 21
811.0040868594
 31
0
  0
LINE
  8
0
 62
7
 10
168.3078893599
 20
803.6117250993
 30
0
 11
166.778344768
 21
803.6117250993
 31
0
  0
LINE
  8
0
 62
7
 10
213.8106563268
 20
814.4627606924
 30
0
 11
213.8106563268
 21
817.4627604856
 31
0
  0
LINE
  8
0
 62
7
 10
178.8106450019
 20
814.4627606924
 30
0
 11
213.8106563268
 21
814.4627606924
 31
0
  0
LINE
  8
0
 62
7
 10
178.8106450019
 20
810.4627605024
 30
0
 11
178.8106450019
 21
814.4627606924
 31
0
  0
LINE
  8
0
 62
7
 10
213.8106563268
 20
810.4627605024
 30
0
 11
178.8106450019
 21
810.4627605024
 31
0
  0
LINE
  8
0
 62
7
 10
213.8106563268
 20
807.4627607091001
 30
0
 11
213.8106563268
 21
810.4627605024
 31
0
  0
LINE
  8
0
 62
7
 10
133.0065616546
 20
808.726298619
 30
0
 11
135.1304241595
 21
808.726298619
 31
0
  0
LINE
  8
0
 62
7
 10
142.0561262545
 20
819.9066137857
 30
0
 11
135.8691641269
 21
819.9066137857
 31
0
  0
LINE
  8
0
 62
7
 10
142.0561262545
 20
821.6542866974
 30
0
 11
142.0561262545
 21
819.9066137857
 31
0
  0
LINE
  8
0
 62
7
 10
133.9949556765
 20
821.6542866974
 30
0
 11
142.0561262545
 21
821.6542866974
 31
0
  0
LINE
  8
0
 62
7
 10
135.4074665484
 20
811.7736099482
 30
0
 11
133.440900701
 21
811.7736099482
 31
0
  0
LINE
  8
0
 62
7
 10
129.3313094554
 20
817.4988618082
 30
0
 11
127.2074171481
 21
817.4988618082
 31
0
  0
LINE
  8
0
 62
7
 10
282.3106535849
 20
858.9627617
 30
0
 11
282.3106535849
 21
765.9627594947
 31
0
  0
LINE
  8
0
 62
7
 10
10.310638803
 20
868.4627623259
 30
0
 11
10.310638803
 21
756.4627588688001
 31
0
  0
LINE
  8
0
 62
7
 10
12.3106428561
 20
905.4627628027
 30
0
 11
12.3106428561
 21
719.462758392
 31
0
  0
LINE
  8
0
 62
7
 10
30.3106495318
 20
905.4627628027
 30
0
 11
30.3106495318
 21
719.462758392
 31
0
  0
LINE
  8
0
 62
7
 10
293.9056494412
 20
876.9627571999
 30
0
 11
293.8106545386
 21
876.9627571999
 31
0
  0
LINE
  8
0
 62
7
 10
293.8106545386
 20
876.9627571999
 30
0
 11
293.2401933846
 21
875.3954456149
 31
0
  0
LINE
  8
0
 62
7
 10
293.8106545386
 20
876.739008814
 30
0
 11
293.8106545386
 21
876.9627571999
 31
0
  0
LINE
  8
0
 62
7
 10
293.9056494412
 20
747.9627639948
 30
0
 11
293.8106545386
 21
747.9627639948
 31
0
  0
LINE
  8
0
 62
7
 10
293.8106545386
 20
747.9627639948
 30
0
 11
293.8106545386
 21
748.1865123807
 31
0
  0
LINE
  8
0
 62
7
 10
293.8106545386
 20
747.9627639948
 30
0
 11
293.2401933846
 21
749.5300755798
 31
0
  0
LINE
  8
0
 62
7
 10
333.8106536446
 20
876.9627571999
 30
0
 11
333.7156512914
 21
876.9627571999
 31
0
  0
LINE
  8
0
 62
7
 10
333.8106536446
 20
876.739008814
 30
0
 11
333.8106536446
 21
876.9627571999
 31
0
  0
LINE
  8
0
 62
7
 10
334.381107348
 20
875.3954456149
 30
0
 11
333.8106536446
 21
876.9627571999
 31
0
  0
LINE
  8
0
 62
7
 10
333.8106536446
 20
747.9627639948
 30
0
 11
333.7156512914
 21
747.9627639948
 31
0
  0
LINE
  8
0
 62
7
 10
334.381107348
 20
749.5300755798
 30
0
 11
333.8106536446
 21
747.9627639948
 31
0
  0
LINE
  8
0
 62
7
 10
333.8106536446
 20
747.9627639948
 30
0
 11
333.8106536446
 21
748.1865123807
 31
0
  0
LINE
  8
0
 62
7
 10
288.810659307
 20
759.9627622365
 30
0
 11
300.0036218343
 21
733.6005256473
 31
0
  0
LINE
  8
0
 62
7
 10
327.6176937995
 20
733.6005256473
 30
0
 11
338.3732327399
 21
758.9325257539
 31
0
  0
LINE
  8
0
 62
7
 10
338.3732327399
 20
865.9929954409
 30
0
 11
327.6176937995
 21
891.3249955474
 31
0
  0
LINE
  8
0
 62
7
 10
300.0036218343
 20
891.3249955474
 30
0
 11
288.810659307
 21
864.9627589582
 31
0
  0
LINE
  8
0
 62
7
 10
338.8106563268
 20
863.8435103892
 30
0
 11
338.8106563268
 21
761.0820108055
 31
0
  0
LINE
  8
0
 62
7
 10
288.810659307
 20
759.9627622365
 30
0
 11
288.810659307
 21
864.9627589582
 31
0
  0
LINE
  8
0
 62
7
 10
333.8106536446
 20
757.3250257372
 30
0
 11
333.8106536446
 21
867.6004954575
 31
0
  0
LINE
  8
0
 62
7
 10
333.8106536446
 20
867.6004954575
 30
0
 11
334.0071180043
 21
868.1827955841
 31
0
  0
LINE
  8
0
 62
7
 10
293.6141827283
 20
868.1827955841
 30
0
 11
293.8106545386
 21
867.6004954575
 31
0
  0
LINE
  8
0
 62
7
 10
293.8106545386
 20
757.3250257372
 30
0
 11
293.8106545386
 21
867.6004954575
 31
0
  0
LINE
  8
0
 62
7
 10
293.8106545386
 20
757.3250257372
 30
0
 11
293.6141827283
 21
756.7427256106
 31
0
  0
LINE
  8
0
 62
7
 10
334.0071180043
 20
756.7427256106
 30
0
 11
333.8106536446
 21
757.3250257372
 31
0
  0
LINE
  8
0
 62
7
 10
435.0606520799
 20
684.6627579032
 30
0
 11
440.0606528995
 21
684.6627579032
 31
0
  0
LINE
  8
0
 62
7
 10
585.3106566844
 20
868.4627623259
 30
0
 11
583.3106526312999
 21
870.4627589284
 31
0
  0
LINE
  8
0
 62
7
 10
583.3106526312999
 20
754.4627622663001
 30
0
 11
585.3106566844
 21
756.4627588688001
 31
0
  0
LINE
  8
0
 62
7
 10
567.3106500087
 20
719.462758392
 30
0
 11
583.3106526312999
 21
719.462758392
 31
0
  0
LINE
  8
0
 62
7
 10
583.3106526312999
 20
905.4627628027
 30
0
 11
567.3106500087
 21
905.4627628027
 31
0
  0
LINE
  8
0
 62
7
 10
56.589383739
 20
768.9627618491001
 30
0
 11
282.3106535849
 21
768.9627618491001
 31
0
  0
LINE
  8
0
 62
7
 10
282.3106535849
 20
855.9627593457
 30
0
 11
56.589383739
 21
855.9627593457
 31
0
  0
LINE
  8
0
 62
7
 10
282.3106535849
 20
765.9627594947
 30
0
 11
288.810659307
 21
765.9627594947
 31
0
  0
LINE
  8
0
 62
7
 10
288.810659307
 20
858.9627617
 30
0
 11
282.3106535849
 21
858.9627617
 31
0
  0
LINE
  8
0
 62
7
 10
54.0730544505
 20
856.2845350205
 30
0
 11
37.7943107066
 21
860.5170086919
 31
0
  0
LINE
  8
0
 62
7
 10
37.7943107066
 20
764.4085125028
 30
0
 11
54.0730544505
 21
768.6409861742
 31
0
  0
LINE
  8
0
 62
7
 10
10.310638803
 20
756.4627588688001
 30
0
 11
12.3106428561
 21
754.4627622663001
 31
0
  0
LINE
  8
0
 62
7
 10
12.3106428561
 20
870.4627589284
 30
0
 11
10.310638803
 21
868.4627623259
 31
0
  0
LINE
  8
0
 62
7
 10
30.3106495318
 20
905.4627628027
 30
0
 11
12.3106428561
 21
905.4627628027
 31
0
  0
LINE
  8
0
 62
7
 10
12.3106428561
 20
719.462758392
 30
0
 11
30.3106495318
 21
719.462758392
 31
0
  0
LINE
  8
0
 62
7
 10
435.0606520799
 20
764.8346447348
 30
0
 11
435.0606520799
 21
684.6627579032
 31
0
  0
LINE
  8
0
 62
7
 10
440.0606528995
 20
684.6627579032
 30
0
 11
440.0606528995
 21
762.7039686738
 31
0
  0
LINE
  8
0
 62
7
 10
517.3106529889
 20
600.5800650773
 30
0
 11
517.3106529889
 21
603.5800562558
 31
0
  0
LINE
  8
0
 62
7
 10
515.2579956827
 20
601.5800671038001
 30
0
 11
515.2579956827
 21
600.5800650773
 31
0
  0
LINE
  8
0
 62
7
 10
396.6109492955
 20
594.4300578293
 30
0
 11
396.6109492955
 21
595.4300598559
 31
0
  0
LINE
  8
0
 62
7
 10
396.6109492955
 20
595.4300598559
 30
0
 11
394.1625916538
 21
595.4300598559
 31
0
  0
LINE
  8
0
 62
7
 10
522.4587136087
 20
595.4300598559
 30
0
 11
520.010355967
 21
595.4300598559
 31
0
  0
LINE
  8
0
 62
7
 10
520.010355967
 20
595.4300598559
 30
0
 11
520.010355967
 21
594.4300578293
 31
0
  0
LINE
  8
0
 62
7
 10
395.7195767341
 20
594.4300578293
 30
0
 11
396.6109492955
 21
594.4300578293
 31
0
  0
LINE
  8
0
 62
7
 10
520.010355967
 20
594.4300578293
 30
0
 11
520.9017285285
 21
594.4300578293
 31
0
  0
LINE
  8
0
 62
7
 10
394.1625916538
 20
594.2017571387
 30
0
 11
395.7195767341
 21
594.4300578293
 31
0
  0
LINE
  8
0
 62
7
 10
520.9017285285
 20
594.4300578293
 30
0
 11
522.4587136087
 21
594.2017571387
 31
0
  0
LINE
  8
0
 62
7
 10
522.4587136087
 20
595.4300598559
 30
0
 11
522.4587136087
 21
594.2017571387
 31
0
  0
LINE
  8
0
 62
7
 10
394.1625916538
 20
595.4300598559
 30
0
 11
394.1625916538
 21
594.2017571387
 31
0
  0
LINE
  8
0
 62
7
 10
515.7157668052
 20
623.0800585208
 30
0
 11
515.7157668052
 21
621.0800693688
 31
0
  0
LINE
  8
0
 62
7
 10
513.7362779257001
 20
621.0800693688
 30
0
 11
513.7362779257001
 21
623.0800585208
 31
0
  0
LINE
  8
0
 62
7
 10
511.9856001017
 20
623.0800585208
 30
0
 11
511.9856001017
 21
621.0800693688
 31
0
  0
LINE
  8
0
 62
7
 10
403.5807700035
 20
604.5800582823
 30
0
 11
403.5807700035
 21
614.5800636468
 31
0
  0
LINE
  8
0
 62
7
 10
401.5427046595
 20
604.5800582823
 30
0
 11
408.2988650677
 21
604.5800582823
 31
0
  0
LINE
  8
0
 62
7
 10
403.5807700035
 20
614.5800636468
 30
0
 11
408.2988650677
 21
614.5800636468
 31
0
  0
LINE
  8
0
 62
7
 10
510.0337826786
 20
621.0800693688
 30
0
 11
510.0337826786
 21
623.0800585208
 31
0
  0
LINE
  8
0
 62
7
 10
405.3106532571
 20
621.5800629315
 30
0
 11
406.4964094338
 21
621.5800629315
 31
0
  0
LINE
  8
0
 62
7
 10
408.2988650677
 20
614.5800636468
 30
0
 11
408.2988650677
 21
604.5800582823
 31
0
  0
LINE
  8
0
 62
7
 10
408.2988650677
 20
604.5800582823
 30
0
 11
408.2720280764
 21
603.5800562558
 31
0
  0
LINE
  8
0
 62
7
 10
301.0053821978
 20
485.5785039571
 30
0
 11
298.6536660371
 21
464.4300625977
 31
0
  0
LINE
  8
0
 62
7
 10
328.9676346955
 20
464.4300625977
 30
0
 11
326.6159185347
 21
485.5785039571
 31
0
  0
LINE
  8
0
 62
7
 10
296.7563756881
 20
464.4300625977
 30
0
 11
299.3139811931
 21
487.4300626424
 31
0
  0
LINE
  8
0
 62
7
 10
299.3139811931
 20
487.4300626424
 30
0
 11
300.0036218343
 21
487.4300626424
 31
0
  0
LINE
  8
0
 62
7
 10
328.3073195395
 20
487.4300626424
 30
0
 11
330.8649250445
 21
464.4300625977
 31
0
  0
LINE
  8
0
 62
7
 10
327.6176937995
 20
487.4300626424
 30
0
 11
328.3073195395
 21
487.4300626424
 31
0
  0
LINE
  8
0
 62
7
 10
300.0036218343
 20
487.4300626424
 30
0
 11
300.0036218343
 21
495.4300620911
 31
0
  0
LINE
  8
0
 62
7
 10
327.6176937995
 20
487.4300626424
 30
0
 11
327.6176937995
 21
495.4300620911
 31
0
  0
LINE
  8
0
 62
7
 10
433.5606527654
 20
612.5800595936
 30
0
 11
433.5606527654
 21
607.7662096676
 31
0
  0
LINE
  8
0
 62
7
 10
564.3106513796
 20
395.5030353126
 30
0
 11
564.3106513796
 21
416.7661951241
 31
0
  0
LINE
  8
0
 62
7
 10
376.1652299342
 20
565.4300661144
 30
0
 11
376.1652299342
 21
580.4300592599
 31
0
  0
LINE
  8
0
 62
7
 10
540.4560753283
 20
565.4300661144
 30
0
 11
540.4560753283
 21
580.4300592599
 31
0
  0
LINE
  8
0
 62
7
 10
37.7943107066
 20
512.4843106923
 30
0
 11
37.7943107066
 21
416.3758145032
 31
0
  0
LINE
  8
0
 62
7
 10
338.3732327399
 20
445.1763169226
 30
0
 11
338.3732327399
 21
495.4300620911
 31
0
  0
LINE
  8
0
 62
7
 10
298.6536660371
 20
464.4300625977
 30
0
 11
300.2862223563
 21
449.748848131
 31
0
  0
LINE
  8
0
 62
7
 10
298.4037139592
 20
449.6159018335
 30
0
 11
296.7563756881
 21
464.4300625977
 31
0
  0
LINE
  8
0
 62
7
 10
330.8649250445
 20
464.4300625977
 30
0
 11
328.9753236947
 21
447.4373036382
 31
0
  0
LINE
  8
0
 62
7
 10
327.140364903
 20
447.9977269975
 30
0
 11
328.9676346955
 21
464.4300625977
 31
0
  0
LINE
  8
0
 62
7
 10
404.0520117757
 20
600.5800650773
 30
0
 11
404.0520117757
 21
601.5800671038001
 31
0
  0
LINE
  8
0
 62
7
 10
404.0544890938
 20
600.5800650773
 30
0
 11
404.0544890938
 21
601.5800671038001
 31
0
  0
LINE
  8
0
 62
7
 10
442.9326328588
 20
605.0800667462
 30
0
 11
433.3106522587
 21
605.0800667462
 31
0
  0
LINE
  8
0
 62
7
 10
540.4587128339
 20
599.4300679621
 30
0
 11
516.4587089
 21
599.4300679621
 31
0
  0
LINE
  8
0
 62
7
 10
400.1625963626
 20
599.4300679621
 30
0
 11
376.1625924287
 21
599.4300679621
 31
0
  0
LINE
  8
0
 62
7
 10
469.2803072882
 20
603.5800562558
 30
0
 11
514.8327984986
 21
603.5800562558
 31
0
  0
LINE
  8
0
 62
7
 10
406.080391365
 20
603.5800562558
 30
0
 11
447.3409979743
 21
603.5800562558
 31
0
  0
LINE
  8
0
 62
7
 10
404.8053511557
 20
601.5800671038001
 30
0
 11
404.8053511557
 21
600.5800650773
 31
0
  0
LINE
  8
0
 62
7
 10
469.2803072882
 20
600.5800650773
 30
0
 11
517.4890534160001
 21
600.5800650773
 31
0
  0
LINE
  8
0
 62
7
 10
399.1322518465
 20
600.5800650773
 30
0
 11
447.3409979743
 21
600.5800650773
 31
0
  0
LINE
  8
0
 62
7
 10
470.3106527356
 20
597.430063909
 30
0
 11
518.2771162269
 21
597.430063909
 31
0
  0
LINE
  8
0
 62
7
 10
398.3441890356
 20
597.430063909
 30
0
 11
446.310652527
 21
597.430063909
 31
0
  0
LINE
  8
0
 62
7
 10
396.7195787606
 20
592.4300686774
 30
0
 11
444.3106521991
 21
592.4300686774
 31
0
  0
LINE
  8
0
 62
7
 10
472.3106530634
 20
592.4300686774
 30
0
 11
519.9017265019
 21
592.4300686774
 31
0
  0
LINE
  8
0
 62
7
 10
470.3106527356
 20
599.4300679621
 30
0
 11
446.310652527
 21
599.4300679621
 31
0
  0
LINE
  8
0
 62
7
 10
512.310654032
 20
603.5800562558
 30
0
 11
517.4890534160001
 21
603.5800562558
 31
0
  0
LINE
  8
0
 62
7
 10
435.3106525866
 20
631.0800598321
 30
0
 11
435.3106525866
 21
630.0800578055
 31
0
  0
LINE
  8
0
 62
7
 10
465.3106528473
 20
631.0800598321
 30
0
 11
465.3106528473
 21
630.0800578055
 31
0
  0
LINE
  8
0
 62
7
 10
510.0337826786
 20
623.0800585208
 30
0
 11
516.3106509623
 21
623.0800585208
 31
0
  0
LINE
  8
0
 62
7
 10
516.3106509623
 20
621.0800693688
 30
0
 11
510.0337826786
 21
621.0800693688
 31
0
  0
LINE
  8
0
 62
7
 10
442.8106528846
 20
631.0800598321
 30
0
 11
442.8106528846
 21
630.0800578055
 31
0
  0
LINE
  8
0
 62
7
 10
435.3106525866
 20
631.0800598321
 30
0
 11
465.3106528473
 21
631.0800598321
 31
0
  0
LINE
  8
0
 62
7
 10
457.8106526075
 20
631.0800598321
 30
0
 11
457.8106526075
 21
630.0800578055
 31
0
  0
LINE
  8
0
 62
7
 10
450.3106522513
 20
631.0800598321
 30
0
 11
450.3106522513
 21
630.0800578055
 31
0
  0
LINE
  8
0
 62
7
 10
395.8106526313
 20
607.4300692734
 30
0
 11
395.8106526313
 21
614.5800636468
 31
0
  0
LINE
  8
0
 62
7
 10
397.8106529591
 20
616.5800676999
 30
0
 11
401.608273494
 21
616.5800676999
 31
0
  0
LINE
  8
0
 62
7
 10
403.2758698938
 20
603.5800562558
 30
0
 11
402.9121362743
 21
603.8310961184
 31
0
  0
LINE
  8
0
 62
7
 10
422.310654181
 20
631.0800598321
 30
0
 11
432.3106520948
 21
631.0800598321
 31
0
  0
LINE
  8
0
 62
7
 10
432.3106520948
 20
631.0800598321
 30
0
 11
432.3106520948
 21
630.0800578055
 31
0
  0
LINE
  8
0
 62
7
 10
422.310654181
 20
631.0800598321
 30
0
 11
422.310654181
 21
630.0800578055
 31
0
  0
LINE
  8
0
 62
7
 10
495.3106531081
 20
631.0800598321
 30
0
 11
495.3106531081
 21
630.0800578055
 31
0
  0
LINE
  8
0
 62
7
 10
483.3106530038
 20
631.0800598321
 30
0
 11
495.3106531081
 21
631.0800598321
 31
0
  0
LINE
  8
0
 62
7
 10
483.3106530038
 20
631.0800598321
 30
0
 11
483.3106530038
 21
630.0800578055
 31
0
  0
LINE
  8
0
 62
7
 10
468.3106524078
 20
631.0800598321
 30
0
 11
480.3106525121
 21
631.0800598321
 31
0
  0
LINE
  8
0
 62
7
 10
480.3106525121
 20
631.0800598321
 30
0
 11
480.3106525121
 21
630.0800578055
 31
0
  0
LINE
  8
0
 62
7
 10
468.3106524078
 20
631.0800598321
 30
0
 11
468.3106524078
 21
630.0800578055
 31
0
  0
LINE
  8
0
 62
7
 10
469.2803072882
 20
603.5800562558
 30
0
 11
511.3106520054
 21
603.5800562558
 31
0
  0
LINE
  8
0
 62
7
 10
443.3106529665
 20
603.5800562558
 30
0
 11
447.3409979743
 21
603.5800562558
 31
0
  0
LINE
  8
0
 62
7
 10
403.2758698938
 20
603.5800562558
 30
0
 11
433.3106522587
 21
603.5800562558
 31
0
  0
LINE
  8
0
 62
7
 10
433.3106522587
 20
603.5800562558
 30
0
 11
433.3106522587
 21
619.0800653157
 31
0
  0
LINE
  8
0
 62
7
 10
504.3106527207
 20
630.0800578055
 30
0
 11
412.3106525419
 21
630.0800578055
 31
0
  0
LINE
  8
0
 62
7
 10
333.8106536446
 20
497.8976645825
 30
0
 11
333.8106536446
 21
528.9300592003
 31
0
  0
LINE
  8
0
 62
7
 10
293.8106545386
 20
497.8976645825
 30
0
 11
293.8106545386
 21
528.9300592003
 31
0
  0
LINE
  8
0
 62
7
 10
293.8106545386
 20
497.8976645825
 30
0
 11
293.6141827283
 21
496.91895259
 31
0
  0
LINE
  8
0
 62
7
 10
334.0071180043
 20
496.91895259
 30
0
 11
333.8106536446
 21
497.8976645825
 31
0
  0
LINE
  8
0
 62
7
 10
325.7563748536
 20
464.4300625977
 30
0
 11
323.6776330647
 21
464.4300625977
 31
0
  0
LINE
  8
0
 62
7
 10
303.943682569
 20
464.4300625977
 30
0
 11
301.849950212
 21
464.4300625977
 31
0
  0
LINE
  8
0
 62
7
 10
330.8649250445
 20
464.4300625977
 30
0
 11
328.9676346955
 21
464.4300625977
 31
0
  0
LINE
  8
0
 62
7
 10
298.9669778523
 20
464.4300625977
 30
0
 11
301.8747755465
 21
464.4300625977
 31
0
  0
LINE
  8
0
 62
7
 10
288.810659307
 20
495.4300620911
 30
0
 11
338.8106563268
 21
495.4300620911
 31
0
  0
LINE
  8
0
 62
7
 10
325.8109727082
 20
485.4300623146
 30
0
 11
301.8103280244
 21
485.4300623146
 31
0
  0
LINE
  8
0
 62
7
 10
304.2117693601
 20
495.4300620911
 30
0
 11
304.2117693601
 21
503.7928806004
 31
0
  0
LINE
  8
0
 62
7
 10
323.4095313725
 20
495.4300620911
 30
0
 11
323.4095313725
 21
503.7928806004
 31
0
  0
LINE
  8
0
 62
7
 10
304.8106470284
 20
504.9300627169
 30
0
 11
322.8091486869
 21
504.9300627169
 31
0
  0
LINE
  8
0
 62
7
 10
314.0116074262
 20
495.4300620911
 30
0
 11
314.0116074262
 21
503.7928806004
 31
0
  0
LINE
  8
0
 62
7
 10
304.4127264199
 20
495.4300620911
 30
0
 11
304.4127264199
 21
503.7928806004
 31
0
  0
LINE
  8
0
 62
7
 10
440.8106525568
 20
606.3300655541
 30
0
 11
440.8106525568
 21
605.0800667462
 31
0
  0
LINE
  8
0
 62
7
 10
434.3106524227
 20
605.0800667462
 30
0
 11
434.3106524227
 21
606.3300655541
 31
0
  0
LINE
  8
0
 62
7
 10
441.8106527207
 20
605.0800667462
 30
0
 11
441.8106527207
 21
606.3300655541
 31
0
  0
LINE
  8
0
 62
7
 10
440.1606527296
 20
607.580064362
 30
0
 11
440.0013872561
 21
608.4760562834
 31
0
  0
LINE
  8
0
 62
7
 10
438.3430966315
 20
613.0800680574999
 30
0
 11
438.3430966315
 21
612.5800595936
 31
0
  0
LINE
  8
0
 62
7
 10
438.8001934764
 20
613.0800680574999
 30
0
 11
438.3430966315
 21
613.0800680574999
 31
0
  0
LINE
  8
0
 62
7
 10
438.8001934764
 20
613.0800680574999
 30
0
 11
438.8001934764
 21
612.5800595936
 31
0
  0
LINE
  8
0
 62
7
 10
438.4446722594
 20
613.0800680574999
 30
0
 11
438.4446722594
 21
612.5800595936
 31
0
  0
LINE
  8
0
 62
7
 10
440.9165290323
 20
613.0800680574999
 30
0
 11
438.81650466
 21
613.0800680574999
 31
0
  0
LINE
  8
0
 62
7
 10
438.81650466
 20
613.0800680574999
 30
0
 11
438.81650466
 21
612.5800595936
 31
0
  0
LINE
  8
0
 62
7
 10
433.3106522587
 20
612.5800595936
 30
0
 11
441.0425369767
 21
612.5800595936
 31
0
  0
LINE
  8
0
 62
7
 10
433.3106522587
 20
611.5800575671
 30
0
 11
441.2945491401
 21
611.5800575671
 31
0
  0
LINE
  8
0
 62
7
 10
394.1625916538
 20
554.430066174
 30
0
 11
382.1625971374
 21
554.430066174
 31
0
  0
LINE
  8
0
 62
7
 10
377.19294067
 20
606.5815524516
 30
0
 11
377.19294067
 21
599.4300679621
 31
0
  0
LINE
  8
0
 62
7
 10
399.1322518465
 20
606.5815524516
 30
0
 11
399.1322518465
 21
599.4300679621
 31
0
  0
LINE
  8
0
 62
7
 10
397.6625950215
 20
607.4300692734
 30
0
 11
378.6625974951
 21
607.4300692734
 31
0
  0
LINE
  8
0
 62
7
 10
393.6474212584
 20
606.5815524516
 30
0
 11
393.6474212584
 21
599.4300679621
 31
0
  0
LINE
  8
0
 62
7
 10
382.6777675328
 20
606.5815524516
 30
0
 11
382.6777675328
 21
599.4300679621
 31
0
  0
LINE
  8
0
 62
7
 10
464.3106526834
 20
554.430066174
 30
0
 11
452.3106525791
 21
554.430066174
 31
0
  0
LINE
  8
0
 62
7
 10
447.3409979743
 20
606.5815524516
 30
0
 11
447.3409979743
 21
599.4300679621
 31
0
  0
LINE
  8
0
 62
7
 10
469.2803072882
 20
606.5815524516
 30
0
 11
469.2803072882
 21
599.4300679621
 31
0
  0
LINE
  8
0
 62
7
 10
467.8106523258
 20
607.4300692734
 30
0
 11
448.8106529367
 21
607.4300692734
 31
0
  0
LINE
  8
0
 62
7
 10
463.7954799597
 20
606.5815524516
 30
0
 11
463.7954799597
 21
599.4300679621
 31
0
  0
LINE
  8
0
 62
7
 10
452.8258253028
 20
606.5815524516
 30
0
 11
452.8258253028
 21
599.4300679621
 31
0
  0
LINE
  8
0
 62
7
 10
534.4587081251
 20
554.430066174
 30
0
 11
522.4587136087
 21
554.430066174
 31
0
  0
LINE
  8
0
 62
7
 10
517.4890534160001
 20
606.5815524516
 30
0
 11
517.4890534160001
 21
599.4300679621
 31
0
  0
LINE
  8
0
 62
7
 10
522.9738840041
 20
606.5815524516
 30
0
 11
522.9738840041
 21
599.4300679621
 31
0
  0
LINE
  8
0
 62
7
 10
537.9587077675
 20
607.4300692734
 30
0
 11
518.9587102411
 21
607.4300692734
 31
0
  0
LINE
  8
0
 62
7
 10
539.4283645925
 20
606.5815524516
 30
0
 11
539.4283645925
 21
599.4300679621
 31
0
  0
LINE
  8
0
 62
7
 10
533.9435377297
 20
606.5815524516
 30
0
 11
533.9435377297
 21
599.4300679621
 31
0
  0
LINE
  8
0
 62
7
 10
397.9502917406
 20
556.2785701213001
 30
0
 11
397.9502917406
 21
565.4300661144
 31
0
  0
LINE
  8
0
 62
7
 10
397.3460496542
 20
556.2785701213001
 30
0
 11
397.3460496542
 21
565.4300661144
 31
0
  0
LINE
  8
0
 62
7
 10
397.6481706974
 20
555.4300607500001
 30
0
 11
378.6770143685
 21
555.4300607500001
 31
0
  0
LINE
  8
0
 62
7
 10
378.3749007759
 20
556.2785701213001
 30
0
 11
378.3749007759
 21
565.4300661144
 31
0
  0
LINE
  8
0
 62
7
 10
387.5583523092
 20
556.2785701213001
 30
0
 11
387.5583523092
 21
565.4300661144
 31
0
  0
LINE
  8
0
 62
7
 10
468.0983499763
 20
556.2785701213001
 30
0
 11
468.0983499763
 21
565.4300661144
 31
0
  0
LINE
  8
0
 62
7
 10
448.5229552863
 20
556.2785701213001
 30
0
 11
448.5229552863
 21
565.4300661144
 31
0
  0
LINE
  8
0
 62
7
 10
467.8106523258
 20
555.4300607500001
 30
0
 11
448.8250753981
 21
555.4300607500001
 31
0
  0
LINE
  8
0
 62
7
 10
457.7064114762
 20
556.2785701213001
 30
0
 11
457.7064114762
 21
565.4300661144
 31
0
  0
LINE
  8
0
 62
7
 10
467.4941088212
 20
556.2785701213001
 30
0
 11
467.4941088212
 21
565.4300661144
 31
0
  0
LINE
  8
0
 62
7
 10
538.2464044866
 20
556.2785701213001
 30
0
 11
538.2464044866
 21
565.4300661144
 31
0
  0
LINE
  8
0
 62
7
 10
518.6710135219
 20
556.2785701213001
 30
0
 11
518.6710135219
 21
565.4300661144
 31
0
  0
LINE
  8
0
 62
7
 10
537.944290894
 20
555.4300607500001
 30
0
 11
518.9731345651001
 21
555.4300607500001
 31
0
  0
LINE
  8
0
 62
7
 10
527.8544687805
 20
556.2785701213001
 30
0
 11
527.8544687805
 21
565.4300661144
 31
0
  0
LINE
  8
0
 62
7
 10
537.6421698508
 20
556.2785701213001
 30
0
 11
537.6421698508
 21
565.4300661144
 31
0
  0
LINE
  8
0
 62
7
 10
329.3106594262
 20
414.060203856
 30
0
 11
329.3106594262
 21
418.3452488241
 31
0
  0
LINE
  8
0
 62
7
 10
315.3106459556
 20
429.4756637273
 30
0
 11
315.3106459556
 21
414.060203856
 31
0
  0
LINE
  8
0
 62
7
 10
337.3106532869
 20
418.3452488241
 30
0
 11
337.3106532869
 21
417.120168483
 31
0
  0
LINE
  8
0
 62
7
 10
561.9277396378
 20
397.2319201884
 30
0
 11
536.4634730992
 21
410.4863354323
 31
0
  0
LINE
  8
0
 62
7
 10
562.5022166548
 20
531.5092788396
 30
0
 11
546.3022478995
 21
521.6689505932
 31
0
  0
LINE
  8
0
 62
7
 10
492.7989059267
 20
370.2793703732
 30
0
 11
493.3106527803
 21
364.4300611076
 31
0
  0
LINE
  8
0
 62
7
 10
493.3106527803
 20
364.4300611076
 30
0
 11
508.3106533763
 21
364.4300611076
 31
0
  0
LINE
  8
0
 62
7
 10
509.3559400318
 20
376.3777301964
 30
0
 11
508.3106533763
 21
364.4300611076
 31
0
  0
LINE
  8
0
 62
7
 10
423.5352576849
 20
366.9973076639
 30
0
 11
423.3106524823
 21
364.4300611076
 31
0
  0
LINE
  8
0
 62
7
 10
407.7764825103
 20
370.5356628952
 30
0
 11
408.3106518862
 21
364.4300611076
 31
0
  0
LINE
  8
0
 62
7
 10
408.3106518862
 20
364.4300611076
 30
0
 11
423.3106524823
 21
364.4300611076
 31
0
  0
LINE
  8
0
 62
7
 10
546.3022478995
 20
521.6689505932
 30
0
 11
545.0260909814751
 21
521.1483430065188
 31
0
  0
LINE
  8
0
 62
7
 10
524.6464946446
 20
554.2003722248001
 30
0
 11
524.3659281311
 21
554.430066174
 31
0
  0
LINE
  8
0
 62
7
 10
315.3106459556
 20
429.4756637273
 30
0
 11
315.3106459556
 21
450.0427996126
 31
0
  0
LINE
  8
0
 62
7
 10
317.3104413924
 20
431.5085769949
 30
0
 11
315.3106459556
 21
429.4756637273
 31
0
  0
LINE
  8
0
 62
7
 10
329.3106594262
 20
418.3452488241
 30
0
 11
337.3106532869
 21
418.3452488241
 31
0
  0
LINE
  8
0
 62
7
 10
315.3106459556
 20
414.060203856
 30
0
 11
329.3106594262
 21
414.060203856
 31
0
  0
LINE
  8
0
 62
7
 10
454.7711579268
 20
376.3115392384
 30
0
 11
455.8106526872
 21
364.4300611076
 31
0
  0
LINE
  8
0
 62
7
 10
455.8106526872
 20
364.4300611076
 30
0
 11
460.8106525754
 21
364.4300611076
 31
0
  0
LINE
  8
0
 62
7
 10
461.8559382995
 20
376.3777301964
 30
0
 11
460.8106525754
 21
364.4300611076
 31
0
  0
LINE
  8
0
 62
7
 10
585.3106566844
 20
520.4300643263
 30
0
 11
585.3106566844
 21
408.4300608692
 31
0
  0
LINE
  8
0
 62
7
 10
458.3106526238
 20
376.3118372616
 30
0
 11
461.8559382995
 21
376.3777301964
 31
0
  0
LINE
  8
0
 62
7
 10
506.7152829049
 20
375.1494870839
 30
0
 11
509.3559400318
 21
376.3777301964
 31
0
  0
LINE
  8
0
 62
7
 10
449.3106530187
 20
404.9300612268
 30
0
 11
449.3106530187
 21
416.9300631938
 31
0
  0
LINE
  8
0
 62
7
 10
467.3106522438
 20
416.9300631938
 30
0
 11
467.3106522438
 21
404.9300612268
 31
0
  0
LINE
  8
0
 62
7
 10
449.3106530187
 20
416.9300631938
 30
0
 11
467.3106522438
 21
416.9300631938
 31
0
  0
LINE
  8
0
 62
7
 10
467.3106522438
 20
404.9300612268
 30
0
 11
449.3106530187
 21
404.9300612268
 31
0
  0
LINE
  8
0
 62
7
 10
462.6688515907
 20
414.5045453069
 30
0
 11
463.9137686369
 21
414.5045453069
 31
0
  0
LINE
  8
0
 62
7
 10
462.6688515907
 20
407.5045460221
 30
0
 11
462.6688515907
 21
414.5045453069
 31
0
  0
LINE
  8
0
 62
7
 10
463.9137686369
 20
407.5045460221
 30
0
 11
462.6688515907
 21
407.5045460221
 31
0
  0
LINE
  8
0
 62
7
 10
463.5187467699
 20
408.1841954348
 30
0
 11
463.9137686369
 21
408.1841954348
 31
0
  0
LINE
  8
0
 62
7
 10
463.5187467699
 20
413.8248958943
 30
0
 11
463.5187467699
 21
408.1841954348
 31
0
  0
LINE
  8
0
 62
7
 10
463.9137686369
 20
413.8248958943
 30
0
 11
463.5187467699
 21
413.8248958943
 31
0
  0
LINE
  8
0
 62
7
 10
415.4295065579
 20
368.5582862553
 30
0
 11
407.7764825103
 21
370.5356628952
 31
0
  0
LINE
  8
0
 62
7
 10
423.5352576849
 20
366.9973076639
 30
0
 11
415.4295065579
 21
368.5582862553
 31
0
  0
LINE
  8
0
 62
7
 10
458.3106526313
 20
376.3119043169
 30
0
 11
454.7711579268
 21
376.3115392384
 31
0
  0
LINE
  8
0
 62
7
 10
458.7010668963
 20
475.1062798631
 30
0
 11
458.3106526313
 21
474.4300623742
 31
0
  0
LINE
  8
0
 62
7
 10
458.0379574233
 20
474.9023844806
 30
0
 11
458.3106526313
 21
474.4300623742
 31
0
  0
LINE
  8
0
 62
7
 10
457.2106526372
 20
490.6800617782
 30
0
 11
457.2106526372
 21
494.9300629404
 31
0
  0
LINE
  8
0
 62
7
 10
457.2106526372
 20
490.6800617782
 30
0
 11
452.8106526611
 21
490.6800617782
 31
0
  0
LINE
  8
0
 62
7
 10
452.8106526611
 20
490.6800617782
 30
0
 11
452.8106526611
 21
488.1800622997
 31
0
  0
LINE
  8
0
 62
7
 10
452.8106526611
 20
488.1800622997
 30
0
 11
457.2106526372
 21
488.1800622997
 31
0
  0
LINE
  8
0
 62
7
 10
457.2106526372
 20
488.1800622997
 30
0
 11
457.2106526372
 21
483.930063
 31
0
  0
LINE
  8
0
 62
7
 10
459.4106526253
 20
483.930063
 30
0
 11
457.2106526372
 21
483.930063
 31
0
  0
LINE
  8
0
 62
7
 10
459.4106526253
 20
488.1800622997
 30
0
 11
459.4106526253
 21
483.930063
 31
0
  0
LINE
  8
0
 62
7
 10
463.8106526015
 20
488.1800622997
 30
0
 11
459.4106526253
 21
488.1800622997
 31
0
  0
LINE
  8
0
 62
7
 10
463.8106526015
 20
490.6800617782
 30
0
 11
463.8106526015
 21
488.1800622997
 31
0
  0
LINE
  8
0
 62
7
 10
459.4106526253
 20
490.6800617782
 30
0
 11
463.8106526015
 21
490.6800617782
 31
0
  0
LINE
  8
0
 62
7
 10
459.4106526253
 20
490.6800617782
 30
0
 11
459.4106526253
 21
494.9300629404
 31
0
  0
LINE
  8
0
 62
7
 10
459.4106526253
 20
494.9300629404
 30
0
 11
457.2106526372
 21
494.9300629404
 31
0
  0
LINE
  8
0
 62
7
 10
465.3106528473
 20
517.4300619719001
 30
0
 11
433.3106522587
 21
517.4300619719001
 31
0
  0
LINE
  8
0
 62
7
 10
465.3106528473
 20
514.4300633428001
 30
0
 11
465.3106528473
 21
517.4300619719001
 31
0
  0
LINE
  8
0
 62
7
 10
465.3106528473
 20
524.4300612566
 30
0
 11
465.3106528473
 21
521.4300626275
 31
0
  0
LINE
  8
0
 62
7
 10
465.3106528473
 20
521.4300626275
 30
0
 11
433.3106522587
 21
521.4300626275
 31
0
  0
LINE
  8
0
 62
7
 10
433.3106522587
 20
521.4300626275
 30
0
 11
433.3106522587
 21
517.4300619719001
 31
0
  0
LINE
  8
0
 62
7
 10
458.3106526313
 20
504.4300617036
 30
0
 11
453.9805255969
 21
496.9300614056
 31
0
  0
LINE
  8
0
 62
7
 10
458.3106526313
 20
500.430061048
 30
0
 11
455.1352261239
 21
494.9300629404
 31
0
  0
LINE
  8
0
 62
7
 10
458.3106526313
 20
500.430061048
 30
0
 11
461.4860791386
 21
494.9300629404
 31
0
  0
LINE
  8
0
 62
7
 10
461.4860791386
 20
494.9300629404
 30
0
 11
467.8369323862
 21
494.9300629404
 31
0
  0
LINE
  8
0
 62
7
 10
467.8369323862
 20
494.9300629404
 30
0
 11
464.661505646
 21
489.4300629702
 31
0
  0
LINE
  8
0
 62
7
 10
464.661505646
 20
489.4300629702
 30
0
 11
467.8369323862
 21
483.930063
 31
0
  0
LINE
  8
0
 62
7
 10
467.8369323862
 20
483.930063
 30
0
 11
461.4860791386
 21
483.930063
 31
0
  0
LINE
  8
0
 62
7
 10
461.4860791386
 20
483.930063
 30
0
 11
458.3106526313
 21
478.4300630299
 31
0
  0
LINE
  8
0
 62
7
 10
455.1352261239
 20
483.930063
 30
0
 11
458.3106526313
 21
478.4300630299
 31
0
  0
LINE
  8
0
 62
7
 10
448.7843728763
 20
483.930063
 30
0
 11
455.1352261239
 21
483.930063
 31
0
  0
LINE
  8
0
 62
7
 10
451.9597996165
 20
489.4300629702
 30
0
 11
448.7843728763
 21
483.930063
 31
0
  0
LINE
  8
0
 62
7
 10
448.7843728763
 20
494.9300629404
 30
0
 11
451.9597996165
 21
489.4300629702
 31
0
  0
LINE
  8
0
 62
7
 10
455.1352261239
 20
494.9300629404
 30
0
 11
448.7843728763
 21
494.9300629404
 31
0
  0
LINE
  8
0
 62
7
 10
445.3202719939
 20
481.9300626722
 30
0
 11
453.9805255969
 21
481.9300626722
 31
0
  0
LINE
  8
0
 62
7
 10
453.9805255969
 20
481.9300626722
 30
0
 11
458.0432850832
 21
474.8931569365
 31
0
  0
LINE
  8
0
 62
7
 10
462.6407796656
 20
481.9300626722
 30
0
 11
458.6925661039
 21
475.0915565846
 31
0
  0
LINE
  8
0
 62
7
 10
471.3010332686
 20
481.9300626722
 30
0
 11
462.6407796656
 21
481.9300626722
 31
0
  0
LINE
  8
0
 62
7
 10
466.9709066999
 20
489.4300629702
 30
0
 11
471.3010332686
 21
481.9300626722
 31
0
  0
LINE
  8
0
 62
7
 10
471.3010332686
 20
496.9300614056
 30
0
 11
466.9709066999
 21
489.4300629702
 31
0
  0
LINE
  8
0
 62
7
 10
462.6407796656
 20
496.9300614056
 30
0
 11
471.3010332686
 21
496.9300614056
 31
0
  0
LINE
  8
0
 62
7
 10
458.3106526313
 20
504.4300617036
 30
0
 11
462.6407796656
 21
496.9300614056
 31
0
  0
LINE
  8
0
 62
7
 10
453.9805255969
 20
496.9300614056
 30
0
 11
445.3202719939
 21
496.9300614056
 31
0
  0
LINE
  8
0
 62
7
 10
445.3202719939
 20
496.9300614056
 30
0
 11
449.6503985626
 21
489.4300629702
 31
0
  0
LINE
  8
0
 62
7
 10
449.6503985626
 20
489.4300629702
 30
0
 11
445.3202719939
 21
481.9300626722
 31
0
  0
LINE
  8
0
 62
7
 10
541.3106494722
 20
580.4300592599
 30
0
 11
375.3106557903
 21
580.4300592599
 31
0
  0
LINE
  8
0
 62
7
 10
541.3106494722
 20
565.4300661144
 30
0
 11
375.3106557903
 21
565.4300661144
 31
0
  0
LINE
  8
0
 62
7
 10
567.3106500087
 20
371.4300603923
 30
0
 11
567.3106500087
 21
557.4300648031
 31
0
  0
LINE
  8
0
 62
7
 10
583.3106526312999
 20
371.4300603923
 30
0
 11
583.3106526312999
 21
557.4300648031
 31
0
  0
LINE
  8
0
 62
7
 10
539.682250577
 20
523.1413194296
 30
0
 11
538.2197090564
 21
525.4661166426999
 31
0
  0
LINE
  8
0
 62
7
 10
298.3106562076
 20
418.3452488241
 30
0
 11
298.3106562076
 21
414.060203856
 31
0
  0
LINE
  8
0
 62
7
 10
312.310654777
 20
414.060203856
 30
0
 11
312.310654777
 21
432.5269298014
 31
0
  0
LINE
  8
0
 62
7
 10
282.3106535849
 20
421.3741668818
 30
0
 11
282.3106535849
 21
418.3452488241
 31
0
  0
LINE
  8
0
 62
7
 10
125.1758822379
 20
508.9150020239
 30
0
 11
125.1758822379
 21
508.3513842282
 31
0
  0
LINE
  8
0
 62
7
 10
133.440900701
 20
508.9247250316
 30
0
 11
133.440900701
 21
508.7729194519
 31
0
  0
LINE
  8
0
 62
7
 10
156.8163522658
 20
508.9284279701
 30
0
 11
156.8163522658
 21
507.928392416
 31
0
  0
LINE
  8
0
 62
7
 10
166.009593862
 20
508.9284279701
 30
0
 11
166.009593862
 21
507.928392416
 31
0
  0
LINE
  8
0
 62
7
 10
162.6339444098
 20
508.9284279701
 30
0
 11
162.6339444098
 21
507.928392416
 31
0
  0
LINE
  8
0
 62
7
 10
153.4407028136
 20
508.9284279701
 30
0
 11
153.4407028136
 21
507.928392416
 31
0
  0
LINE
  8
0
 62
7
 10
135.4074665484
 20
508.9247250316
 30
0
 11
135.4074665484
 21
508.5990564284
 31
0
  0
LINE
  8
0
 62
7
 10
138.0854138312
 20
508.9125023541
 30
0
 11
138.0854138312
 21
508.3831535039
 31
0
  0
LINE
  8
0
 62
7
 10
163.1367095885
 20
508.9260586855
 30
0
 11
163.1367095885
 21
507.925967252
 31
0
  0
LINE
  8
0
 62
7
 10
153.9434679923
 20
508.9260586855
 30
0
 11
153.9434679923
 21
507.925967252
 31
0
  0
LINE
  8
0
 62
7
 10
166.5841528354
 20
508.9260586855
 30
0
 11
166.5841528354
 21
507.925967252
 31
0
  0
LINE
  8
0
 62
7
 10
157.3909410415
 20
508.9260586855
 30
0
 11
157.3909410415
 21
507.925967252
 31
0
  0
LINE
  8
0
 62
7
 10
165.2913578925
 20
508.9239017424
 30
0
 11
165.2913578925
 21
507.9237618801
 31
0
  0
LINE
  8
0
 62
7
 10
161.8439146457
 20
508.9239017424
 30
0
 11
161.8439146457
 21
507.9237618801
 31
0
  0
LINE
  8
0
 62
7
 10
152.6506730494
 20
508.9239017424
 30
0
 11
152.6506730494
 21
507.9237618801
 31
0
  0
LINE
  8
0
 62
7
 10
156.0981460986
 20
508.9239017424
 30
0
 11
156.0981460986
 21
507.9237618801
 31
0
  0
LINE
  8
0
 62
7
 10
123.6984023032
 20
508.9271241185
 30
0
 11
123.6984023032
 21
508.4694722054
 31
0
  0
LINE
  8
0
 62
7
 10
139.3782087741
 20
508.9246207235
 30
0
 11
139.3782087741
 21
508.5164890942
 31
0
  0
LINE
  8
0
 62
7
 10
126.4686771808
 20
508.9259692785
 30
0
 11
126.4686771808
 21
508.4390552101
 31
0
  0
LINE
  8
0
 62
7
 10
178.8106450019
 20
507.8840614614
 30
0
 11
178.8106450019
 21
508.9300633726
 31
0
  0
LINE
  8
0
 62
7
 10
213.8106563268
 20
508.8850953934
 30
0
 11
178.8106450019
 21
508.8850953934
 31
0
  0
LINE
  8
0
 62
7
 10
213.8106563268
 20
508.8850953934
 30
0
 11
213.8106563268
 21
507.641749954
 31
0
  0
LINE
  8
0
 62
7
 10
228.8106569228
 20
508.9300633726
 30
0
 11
228.8106569228
 21
507.930061346
 31
0
  0
LINE
  8
0
 62
7
 10
120.2817150531
 20
508.9300410208
 30
0
 11
120.2817150531
 21
507.9300427196
 31
0
  0
LINE
  8
0
 62
7
 10
142.4254962382
 20
508.8523761687
 30
0
 11
142.4254962382
 21
507.8505860028
 31
0
  0
LINE
  8
0
 62
7
 10
129.5159944472
 20
508.8410624621
 30
0
 11
129.5159944472
 21
507.8390115258
 31
0
  0
LINE
  8
0
 62
7
 10
133.0065616546
 20
508.7729194519
 30
0
 11
133.0065616546
 21
507.7692927179
 31
0
  0
LINE
  8
0
 62
7
 10
168.3078893599
 20
508.9226500449
 30
0
 11
168.3078893599
 21
507.0200735089
 31
0
  0
LINE
  8
0
 62
7
 10
164.7167989192
 20
508.9294263479
 30
0
 11
164.8841389594
 21
508.9294077215
 31
0
  0
LINE
  8
0
 62
7
 10
164.6190771041
 20
508.9294002709
 30
0
 11
164.7167989192
 21
508.9294263479
 31
0
  0
LINE
  8
0
 62
7
 10
161.341149467
 20
508.9294263479
 30
0
 11
161.5084895072
 21
508.9294077215
 31
0
  0
LINE
  8
0
 62
7
 10
161.341149467
 20
508.9300633726
 30
0
 11
161.341149467
 21
508.9294263479
 31
0
  0
LINE
  8
0
 62
7
 10
159.8116048751
 20
507.0200735089
 30
0
 11
159.8116048751
 21
508.9300633726
 31
0
  0
LINE
  8
0
 62
7
 10
161.341149467
 20
508.0409446118
 30
0
 11
159.8116048751
 21
508.0409446118
 31
0
  0
LINE
  8
0
 62
7
 10
161.341149467
 20
508.8695162294
 30
0
 11
161.341149467
 21
507.0200735089
 31
0
  0
LINE
  8
0
 62
7
 10
166.778344768
 20
507.0200735089
 30
0
 11
166.778344768
 21
508.9061507342
 31
0
  0
LINE
  8
0
 62
7
 10
168.3078893599
 20
508.0409446118
 30
0
 11
166.778344768
 21
508.0409446118
 31
0
  0
LINE
  8
0
 62
7
 10
164.7886225161
 20
508.8695162294
 30
0
 11
164.7886225161
 21
507.0200735089
 31
0
  0
LINE
  8
0
 62
7
 10
163.2590779242
 20
508.908445513
 30
0
 11
163.2590779242
 21
507.0200735089
 31
0
  0
LINE
  8
0
 62
7
 10
164.7886225161
 20
508.0409446118
 30
0
 11
163.2590779242
 21
508.0409446118
 31
0
  0
LINE
  8
0
 62
7
 10
155.5953809199
 20
508.8695162294
 30
0
 11
155.5953809199
 21
507.0200735089
 31
0
  0
LINE
  8
0
 62
7
 10
159.1146477637
 20
508.9226500449
 30
0
 11
159.1146477637
 21
507.0200735089
 31
0
  0
LINE
  8
0
 62
7
 10
155.523557323
 20
508.9294263479
 30
0
 11
155.6908973632
 21
508.9294077215
 31
0
  0
LINE
  8
0
 62
7
 10
155.4258355079
 20
508.9294002709
 30
0
 11
155.523557323
 21
508.9294263479
 31
0
  0
LINE
  8
0
 62
7
 10
152.1479078708
 20
508.9294263479
 30
0
 11
152.3152777133
 21
508.9294077215
 31
0
  0
LINE
  8
0
 62
7
 10
152.1479078708
 20
508.9300633726
 30
0
 11
152.1479078708
 21
508.9294263479
 31
0
  0
LINE
  8
0
 62
7
 10
150.6183632789
 20
507.0200735089
 30
0
 11
150.6183632789
 21
508.9300633726
 31
0
  0
LINE
  8
0
 62
7
 10
152.1479078708
 20
508.0409446118
 30
0
 11
150.6183632789
 21
508.0409446118
 31
0
  0
LINE
  8
0
 62
7
 10
152.1479078708
 20
508.8695162294
 30
0
 11
152.1479078708
 21
507.0200735089
 31
0
  0
LINE
  8
0
 62
7
 10
154.065836328
 20
507.0200735089
 30
0
 11
154.065836328
 21
508.908445513
 31
0
  0
LINE
  8
0
 62
7
 10
155.5953809199
 20
508.0409446118
 30
0
 11
154.065836328
 21
508.0409446118
 31
0
  0
LINE
  8
0
 62
7
 10
157.5851031718
 20
507.0200735089
 30
0
 11
157.5851031718
 21
508.9061507342
 31
0
  0
LINE
  8
0
 62
7
 10
159.1146477637
 20
508.0409446118
 30
0
 11
157.5851031718
 21
508.0409446118
 31
0
  0
LINE
  8
0
 62
7
 10
127.9461571154
 20
508.2575553414
 30
0
 11
127.9461571154
 21
507.241847491
 31
0
  0
LINE
  8
0
 62
7
 10
140.6710037169
 20
508.2896300909
 30
0
 11
140.6710037169
 21
507.274685925
 31
0
  0
LINE
  8
0
 62
7
 10
133.0065616546
 20
508.7729194519
 30
0
 11
135.1304241595
 21
508.7729194519
 31
0
  0
LINE
  8
0
 62
7
 10
135.4074665484
 20
508.9247250316
 30
0
 11
133.440900701
 21
508.9247250316
 31
0
  0
LINE
  8
0
 62
7
 10
134.4840415893
 20
508.2575553414
 30
0
 11
134.4840415893
 21
507.241847491
 31
0
  0
LINE
  8
0
 62
7
 10
137.5313588557
 20
508.0495612082
 30
0
 11
137.5313588557
 21
507.0288987217
 31
0
  0
LINE
  8
0
 62
7
 10
122.2209223685
 20
508.2896300909
 30
0
 11
122.2209223685
 21
507.274685925
 31
0
  0
LINE
  8
0
 62
7
 10
125.0835248408
 20
508.0495612082
 30
0
 11
125.0835248408
 21
507.0288987217
 31
0
  0
LINE
  8
0
 62
7
 10
312.310654777
 20
432.5269298014
 30
0
 11
312.310654777
 21
450.1708434281
 31
0
  0
LINE
  8
0
 62
7
 10
312.310654777
 20
432.5269298014
 30
0
 11
263.9347055135
 21
432.5269260761
 31
0
  0
LINE
  8
0
 62
7
 10
282.3106535849
 20
421.3741668818
 30
0
 11
258.6991676268
 21
421.3741668818
 31
0
  0
LINE
  8
0
 62
7
 10
166.778344768
 20
507.0200735089
 30
0
 11
168.3078893599
 21
507.0200735089
 31
0
  0
LINE
  8
0
 62
7
 10
163.2590779242
 20
507.0200735089
 30
0
 11
164.7886225161
 21
507.0200735089
 31
0
  0
LINE
  8
0
 62
7
 10
159.8116048751
 20
507.0200735089
 30
0
 11
161.341149467
 21
507.0200735089
 31
0
  0
LINE
  8
0
 62
7
 10
157.5851031718
 20
507.0200735089
 30
0
 11
159.1146477637
 21
507.0200735089
 31
0
  0
LINE
  8
0
 62
7
 10
154.065836328
 20
507.0200735089
 30
0
 11
155.5953809199
 21
507.0200735089
 31
0
  0
LINE
  8
0
 62
7
 10
150.6183632789
 20
507.0200735089
 30
0
 11
152.1479078708
 21
507.0200735089
 31
0
  0
LINE
  8
0
 62
7
 10
178.8106450019
 20
507.8840614614
 30
0
 11
213.8106563268
 21
507.8840614614
 31
0
  0
LINE
  8
0
 62
7
 10
282.3106535849
 20
510.9300637004
 30
0
 11
282.3106535849
 21
447.8420806435
 31
0
  0
LINE
  8
0
 62
7
 10
282.3106535849
 20
418.3452488241
 30
0
 11
298.3106562076
 21
418.3452488241
 31
0
  0
LINE
  8
0
 62
7
 10
298.3106562076
 20
414.060203856
 30
0
 11
312.310654777
 21
414.060203856
 31
0
  0
LINE
  8
0
 62
7
 10
10.310638803
 20
520.4300643263
 30
0
 11
10.310638803
 21
464.4300625977
 31
0
  0
LINE
  8
0
 62
7
 10
10.310638803
 20
464.4300625977
 30
0
 11
10.310638803
 21
408.4300608692
 31
0
  0
LINE
  8
0
 62
7
 10
30.3106495318
 20
557.4300648031
 30
0
 11
30.3106495318
 21
371.4300603923
 31
0
  0
LINE
  8
0
 62
7
 10
12.3106428561
 20
557.4300648031
 30
0
 11
12.3106428561
 21
371.4300603923
 31
0
  0
LINE
  8
0
 62
7
 10
288.810659307
 20
418.3452488241
 30
0
 11
288.810659307
 21
417.3364327607
 31
0
  0
LINE
  8
0
 62
7
 10
338.8106563268
 20
427.7982176599
 30
0
 11
338.8106563268
 21
423.0634742734
 31
0
  0
LINE
  8
0
 62
7
 10
288.810659307
 20
417.3364327607
 30
0
 11
298.3106562076
 21
417.3364327607
 31
0
  0
LINE
  8
0
 62
7
 10
288.810659307
 20
417.3364327607
 30
0
 11
288.810659307
 21
414.0474968908
 31
0
  0
LINE
  8
0
 62
7
 10
293.8106545386
 20
400.2287374196
 30
0
 11
333.8106536446
 21
400.2287374196
 31
0
  0
LINE
  8
0
 62
7
 10
338.8106563268
 20
415.02475602
 30
0
 11
338.8106563268
 21
417.3364327607
 31
0
  0
LINE
  8
0
 62
7
 10
329.3106594262
 20
417.3364327607
 30
0
 11
338.8106563268
 21
417.3364327607
 31
0
  0
LINE
  8
0
 62
7
 10
329.3106594262
 20
414.060203856
 30
0
 11
329.3106594262
 21
417.3364327607
 31
0
  0
LINE
  8
0
 62
7
 10
328.435022491
 20
414.060203856
 30
0
 11
329.3106594262
 21
414.060203856
 31
0
  0
LINE
  8
0
 62
7
 10
304.8151918826
 20
405.2539677677
 30
0
 11
322.8061237512
 21
405.2539677677
 31
0
  0
LINE
  8
0
 62
7
 10
298.3106562076
 20
414.060203856
 30
0
 11
299.1862782416
 21
414.060203856
 31
0
  0
LINE
  8
0
 62
7
 10
298.3106562076
 20
417.3364327607
 30
0
 11
298.3106562076
 21
414.060203856
 31
0
  0
LINE
  8
0
 62
7
 10
299.1862782416
 20
414.060203856
 30
0
 11
302.0435460982
 21
407.1163856742
 31
0
  0
LINE
  8
0
 62
7
 10
325.5777546344
 20
407.1163856742
 30
0
 11
328.435022491
 21
414.060203856
 31
0
  0
LINE
  8
0
 62
7
 10
338.8106563268
 20
514.2228775975
 30
0
 11
338.8106563268
 21
445.1266234127
 31
0
  0
LINE
  8
0
 62
7
 10
333.8106536446
 20
459.0622401183
 30
0
 11
333.8106536446
 21
469.7978850772
 31
0
  0
LINE
  8
0
 62
7
 10
293.8106545386
 20
459.0622401183
 30
0
 11
293.8106545386
 21
469.7978850772
 31
0
  0
LINE
  8
0
 62
7
 10
313.6801012931
 20
450.1324338225
 30
0
 11
306.5817990479
 21
450.0959650931
 31
0
  0
LINE
  8
0
 62
7
 10
320.9275790629
 20
449.4759780672
 30
0
 11
313.8657101569
 21
450.1282503215
 31
0
  0
LINE
  8
0
 62
7
 10
301.9518890557
 20
464.4300625977
 30
0
 11
307.8106531081
 21
464.4300625977
 31
0
  0
LINE
  8
0
 62
7
 10
319.8106476245
 20
464.4300625977
 30
0
 11
325.7563748536
 21
464.4300625977
 31
0
  0
LINE
  8
0
 62
7
 10
298.4037139592
 20
449.6159018335
 30
0
 11
288.810659307
 21
448.8760647682
 31
0
  0
LINE
  8
0
 62
7
 10
288.810659307
 20
515.1926749704001
 30
0
 11
288.810659307
 21
448.8760647682
 31
0
  0
LINE
  8
0
 62
7
 10
300.2862223563
 20
449.748848131
 30
0
 11
301.5892245946
 21
449.8352599648
 31
0
  0
LINE
  8
0
 62
7
 10
296.7563756881
 20
464.4300625977
 30
0
 11
298.6536660371
 21
464.4300625977
 31
0
  0
LINE
  8
0
 62
7
 10
288.810659307
 20
464.4300625977
 30
0
 11
301.8420376954
 21
464.4300625977
 31
0
  0
LINE
  8
0
 62
7
 10
325.8053996739
 20
448.3849746493
 30
0
 11
327.140364903
 21
447.9977269975
 31
0
  0
LINE
  8
0
 62
7
 10
328.6543228803
 20
464.4300625977
 30
0
 11
325.7465251861
 21
464.4300625977
 31
0
  0
LINE
  8
0
 62
7
 10
325.7792630372
 20
464.4300625977
 30
0
 11
338.8106563268
 21
464.4300625977
 31
0
  0
LINE
  8
0
 62
7
 10
307.8106531081
 20
514.9300643561001
 30
0
 11
319.8106476245
 21
514.9300643561001
 31
0
  0
LINE
  8
0
 62
7
 10
298.8106497702
 20
414.060203856
 30
0
 11
302.8219231543
 21
414.060203856
 31
0
  0
LINE
  8
0
 62
7
 10
324.7993775782
 20
414.060203856
 30
0
 11
328.8106509623
 21
414.060203856
 31
0
  0
LINE
  8
0
 62
7
 10
306.5048196492
 20
408.4615470228
 30
0
 11
321.1164810834
 21
408.4615470228
 31
0
  0
LINE
  8
0
 62
7
 10
302.2585400519
 20
407.1128056702
 30
0
 11
298.8106497702
 21
414.060203856
 31
0
  0
LINE
  8
0
 62
7
 10
322.6790317473
 20
405.4441326615
 30
0
 11
304.9422689853
 21
405.4441326615
 31
0
  0
LINE
  8
0
 62
7
 10
375.3106557903
 20
590.4300646243
 30
0
 11
375.3106557903
 21
565.4300661144
 31
0
  0
LINE
  8
0
 62
7
 10
541.3106494722
 20
565.4300661144
 30
0
 11
541.3106494722
 21
590.4300646243
 31
0
  0
LINE
  8
0
 62
7
 10
516.4587089
 20
599.4300679621
 30
0
 11
516.4587089
 21
597.430063909
 31
0
  0
LINE
  8
0
 62
7
 10
540.4587128339
 20
590.7280878482
 30
0
 11
540.4587128339
 21
599.4300679621
 31
0
  0
LINE
  8
0
 62
7
 10
376.1625924287
 20
599.4300679621
 30
0
 11
376.1625924287
 21
590.7280878482
 31
0
  0
LINE
  8
0
 62
7
 10
400.1625963626
 20
597.430063909
 30
0
 11
400.1625963626
 21
599.4300679621
 31
0
  0
LINE
  8
0
 62
7
 10
446.310652527
 20
599.4300679621
 30
0
 11
446.310652527
 21
594.2017571387
 31
0
  0
LINE
  8
0
 62
7
 10
470.3106527356
 20
594.2017571387
 30
0
 11
470.3106527356
 21
599.4300679621
 31
0
  0
LINE
  8
0
 62
7
 10
516.3106509623
 20
621.0800693688
 30
0
 11
516.3106509623
 21
623.0800585208
 31
0
  0
LINE
  8
0
 62
7
 10
405.3106532571
 20
623.0800585208
 30
0
 11
405.3106532571
 21
621.5800629315
 31
0
  0
LINE
  8
0
 62
7
 10
511.3106520054
 20
603.5800562558
 30
0
 11
511.3106520054
 21
621.0800693688
 31
0
  0
LINE
  8
0
 62
7
 10
293.8106545386
 20
528.9300592003
 30
0
 11
288.810659307
 21
515.1926749704001
 31
0
  0
LINE
  8
0
 62
7
 10
338.4789639292
 20
516.1039890108
 30
0
 11
333.8106536446
 21
528.9300592003
 31
0
  0
LINE
  8
0
 62
7
 10
333.8106536446
 20
528.9300592003
 30
0
 11
293.8106545386
 21
528.9300592003
 31
0
  0
LINE
  8
0
 62
7
 10
304.8106470284
 20
504.9300627169
 30
0
 11
304.3090590415
 21
504.6404660997
 31
0
  0
LINE
  8
0
 62
7
 10
323.3122416911
 20
504.6404660997
 30
0
 11
322.8106537042
 21
504.9300627169
 31
0
  0
LINE
  8
0
 62
7
 10
378.6625974951
 20
607.4300692734
 30
0
 11
377.19294067
 21
606.5815524516
 31
0
  0
LINE
  8
0
 62
7
 10
399.1322518465
 20
606.5815524516
 30
0
 11
397.6625950215
 21
607.4300692734
 31
0
  0
LINE
  8
0
 62
7
 10
394.1625916538
 20
554.430066174
 30
0
 11
394.1625916538
 21
555.4300607500001
 31
0
  0
LINE
  8
0
 62
7
 10
382.1625971374
 20
555.4300607500001
 30
0
 11
382.1625971374
 21
554.430066174
 31
0
  0
LINE
  8
0
 62
7
 10
448.8106529367
 20
607.4300692734
 30
0
 11
447.3409979743
 21
606.5815524516
 31
0
  0
LINE
  8
0
 62
7
 10
469.2803072882
 20
606.5815524516
 30
0
 11
467.8106523258
 21
607.4300692734
 31
0
  0
LINE
  8
0
 62
7
 10
464.3106526834
 20
554.430066174
 30
0
 11
464.3106526834
 21
555.4300607500001
 31
0
  0
LINE
  8
0
 62
7
 10
452.3106525791
 20
555.4300607500001
 30
0
 11
452.3106525791
 21
554.430066174
 31
0
  0
LINE
  8
0
 62
7
 10
518.9587102411
 20
607.4300692734
 30
0
 11
517.4890534160001
 21
606.5815524516
 31
0
  0
LINE
  8
0
 62
7
 10
539.4283645925
 20
606.5815524516
 30
0
 11
537.9587077675
 21
607.4300692734
 31
0
  0
LINE
  8
0
 62
7
 10
534.4587081251
 20
554.430066174
 30
0
 11
534.4587081251
 21
555.4300607500001
 31
0
  0
LINE
  8
0
 62
7
 10
522.4587136087
 20
555.4300607500001
 30
0
 11
522.4587136087
 21
554.430066174
 31
0
  0
LINE
  8
0
 62
7
 10
467.8106523258
 20
555.4300607500001
 30
0
 11
467.8250980703
 21
555.4384054002001
 31
0
  0
LINE
  8
0
 62
7
 10
585.3106566844
 20
520.4300643263
 30
0
 11
583.3106526312999
 21
522.4300609288
 31
0
  0
LINE
  8
0
 62
7
 10
583.3106526312999
 20
406.4300642666
 30
0
 11
585.3106566844
 21
408.4300608692
 31
0
  0
LINE
  8
0
 62
7
 10
423.5349037824
 20
366.9925169406
 30
0
 11
423.7511345324
 21
366.9567243514
 31
0
  0
LINE
  8
0
 62
7
 10
567.3106500087
 20
371.4300603923
 30
0
 11
583.3106526312999
 21
371.4300603923
 31
0
  0
LINE
  8
0
 62
7
 10
583.3106526312999
 20
557.4300648031
 30
0
 11
567.3106500087
 21
557.4300648031
 31
0
  0
LINE
  8
0
 62
7
 10
228.8106569228
 20
508.9300633726
 30
0
 11
178.8106450019
 21
508.9300633726
 31
0
  0
LINE
  8
0
 62
7
 10
168.1772657809
 20
508.9300633726
 30
0
 11
164.8841389594
 21
508.9300633726
 31
0
  0
LINE
  8
0
 62
7
 10
164.6190771041
 20
508.9300633726
 30
0
 11
161.5084895072
 21
508.9300633726
 31
0
  0
LINE
  8
0
 62
7
 10
161.341149467
 20
508.9300633726
 30
0
 11
159.8116048751
 21
508.9300633726
 31
0
  0
LINE
  8
0
 62
7
 10
158.9840241847
 20
508.9300633726
 30
0
 11
155.6908973632
 21
508.9300633726
 31
0
  0
LINE
  8
0
 62
7
 10
155.4258355079
 20
508.9300633726
 30
0
 11
152.3152777133
 21
508.9300633726
 31
0
  0
LINE
  8
0
 62
7
 10
152.1479078708
 20
508.9300633726
 30
0
 11
150.6183632789
 21
508.9300633726
 31
0
  0
LINE
  8
0
 62
7
 10
129.0452965674
 20
508.9300633726
 30
0
 11
126.8729456839
 21
508.9300633726
 31
0
  0
LINE
  8
0
 62
7
 10
123.3447083411
 20
508.9300633726
 30
0
 11
120.2840992389
 21
508.9300633726
 31
0
  0
LINE
  8
0
 62
7
 10
141.9851073203
 20
508.9300633726
 30
0
 11
139.7861131606
 21
508.9300633726
 31
0
  0
LINE
  8
0
 62
7
 10
56.589383739
 20
420.9300638494
 30
0
 11
258.5589924035
 21
420.9300638494
 31
0
  0
LINE
  8
0
 62
7
 10
282.3106535849
 20
507.930061346
 30
0
 11
228.8106569228
 21
507.930061346
 31
0
  0
LINE
  8
0
 62
7
 10
178.8106450019
 20
507.930061346
 30
0
 11
168.3078893599
 21
507.930061346
 31
0
  0
LINE
  8
0
 62
7
 10
159.8116048751
 20
507.930061346
 30
0
 11
159.1146477637
 21
507.930061346
 31
0
  0
LINE
  8
0
 62
7
 10
150.6183632789
 20
507.930061346
 30
0
 11
142.4254962382
 21
507.930061346
 31
0
  0
LINE
  8
0
 62
7
 10
133.0065616546
 20
507.930061346
 30
0
 11
129.5159944472
 21
507.930061346
 31
0
  0
LINE
  8
0
 62
7
 10
120.2817150531
 20
507.930061346
 30
0
 11
56.589383739
 21
507.930061346
 31
0
  0
LINE
  8
0
 62
7
 10
288.810659307
 20
510.9300637004
 30
0
 11
282.3106535849
 21
510.9300637004
 31
0
  0
LINE
  8
0
 62
7
 10
54.0730544505
 20
508.2518370208
 30
0
 11
37.7943107066
 21
512.4843106923
 31
0
  0
LINE
  8
0
 62
7
 10
37.7943107066
 20
416.3758145032
 30
0
 11
54.0730544505
 21
420.6082881746
 31
0
  0
LINE
  8
0
 62
7
 10
10.310638803
 20
408.4300608692
 30
0
 11
12.3106428561
 21
406.4300642666
 31
0
  0
LINE
  8
0
 62
7
 10
12.3106428561
 20
522.4300609288
 30
0
 11
10.310638803
 21
520.4300643263
 31
0
  0
LINE
  8
0
 62
7
 10
30.3106495318
 20
557.4300648031
 30
0
 11
12.3106428561
 21
557.4300648031
 31
0
  0
LINE
  8
0
 62
7
 10
12.3106428561
 20
371.4300603923
 30
0
 11
30.3106495318
 21
371.4300603923
 31
0
  0
LINE
  8
0
 62
7
 10
307.8106531081
 20
485.4300623146
 30
0
 11
307.8106531081
 21
450.1386187357
 31
0
  0
LINE
  8
0
 62
7
 10
307.8106531081
 20
514.9300643561001
 30
0
 11
307.8106531081
 21
504.9300627169
 31
0
  0
LINE
  8
0
 62
7
 10
319.8106476245
 20
504.9300627169
 30
0
 11
319.8106476245
 21
514.9300643561001
 31
0
  0
LINE
  8
0
 62
7
 10
319.8106476245
 20
449.643617062
 30
0
 11
319.8106476245
 21
485.4300623146
 31
0
  0
LINE
  8
0
 62
7
 10
305.821929234
 20
411.0403196273
 30
0
 11
305.821929234
 21
414.060203856
 31
0
  0
LINE
  8
0
 62
7
 10
321.7993714986
 20
414.060203856
 30
0
 11
321.7993714986
 21
411.0409901795
 31
0
  0
LINE
  8
0
 62
7
 10
326.0539905726
 20
408.5055775681
 30
0
 11
323.0250396934
 21
405.4766266889
 31
0
  0
LINE
  8
0
 62
7
 10
327.1600013954
 20
410.7341204061
 30
0
 11
321.8700142626
 21
405.4441332732
 31
0
  0
LINE
  8
0
 62
7
 10
328.2660122183
 20
412.9626632441
 30
0
 11
320.7474822474
 21
405.4441332732
 31
0
  0
LINE
  8
0
 62
7
 10
328.2410224992
 20
414.0602055401
 30
0
 11
319.6249502323
 21
405.4441332732
 31
0
  0
LINE
  8
0
 62
7
 10
327.1184904841
 20
414.0602055401
 30
0
 11
318.5024182172
 21
405.4441332732
 31
0
  0
LINE
  8
0
 62
7
 10
325.9959584689
 20
414.0602055401
 30
0
 11
321.9881213483
 21
410.0523684195
 31
0
  0
LINE
  8
0
 62
7
 10
320.3973010738
 20
408.461548145
 30
0
 11
317.379886202
 21
405.4441332732
 31
0
  0
LINE
  8
0
 62
7
 10
324.8311961262
 20
414.0179752126
 30
0
 11
321.834693717
 21
411.0214728033
 31
0
  0
LINE
  8
0
 62
7
 10
319.2747690587
 20
408.461548145
 30
0
 11
316.2573541869
 21
405.4441332732
 31
0
  0
LINE
  8
0
 62
7
 10
318.1522370435
 20
408.461548145
 30
0
 11
315.1348221718
 21
405.4441332732
 31
0
  0
LINE
  8
0
 62
7
 10
317.0297050284
 20
408.461548145
 30
0
 11
314.0122901566
 21
405.4441332732
 31
0
  0
LINE
  8
0
 62
7
 10
315.9071730133
 20
408.461548145
 30
0
 11
312.8897581415
 21
405.4441332732
 31
0
  0
LINE
  8
0
 62
7
 10
314.7846409981
 20
408.461548145
 30
0
 11
311.7672261264
 21
405.4441332732
 31
0
  0
LINE
  8
0
 62
7
 10
313.662108983
 20
408.461548145
 30
0
 11
310.6446941112
 21
405.4441332732
 31
0
  0
LINE
  8
0
 62
7
 10
312.5395769679
 20
408.461548145
 30
0
 11
309.5221620961
 21
405.4441332732
 31
0
  0
LINE
  8
0
 62
7
 10
311.4170449527
 20
408.461548145
 30
0
 11
308.399630081
 21
405.4441332732
 31
0
  0
LINE
  8
0
 62
7
 10
310.2945129376
 20
408.461548145
 30
0
 11
307.2770980658
 21
405.4441332732
 31
0
  0
LINE
  8
0
 62
7
 10
309.1719809225
 20
408.461548145
 30
0
 11
306.1545660507
 21
405.4441332732
 31
0
  0
LINE
  8
0
 62
7
 10
308.0494489073
 20
408.461548145
 30
0
 11
304.9962429684
 21
405.4083422061
 31
0
  0
LINE
  8
0
 62
7
 10
306.9269168922
 20
408.461548145
 30
0
 11
304.0714921104
 21
405.6061233632
 31
0
  0
LINE
  8
0
 62
7
 10
305.9742046887
 20
408.6313679567
 30
0
 11
303.2974503204
 21
405.9546135884
 31
0
  0
LINE
  8
0
 62
7
 10
305.5219465602
 20
409.3016418433
 30
0
 11
302.7015841269
 21
406.48127941
 31
0
  0
LINE
  8
0
 62
7
 10
305.7627508836
 20
410.6649781818
 30
0
 11
302.239803333
 21
407.1420306312
 31
0
  0
LINE
  8
0
 62
7
 10
305.710067274
 20
411.7348265874
 30
0
 11
301.870311913
 21
407.8950712263
 31
0
  0
LINE
  8
0
 62
7
 10
305.3842966241
 20
412.5315879526
 30
0
 11
301.4979929593
 21
408.6452842878
 31
0
  0
LINE
  8
0
 62
7
 10
304.8944794329
 20
413.1643027765
 30
0
 11
301.1256740057
 21
409.3954973493
 31
0
  0
LINE
  8
0
 62
7
 10
304.2735435331
 20
413.6658988918
 30
0
 11
300.753355052
 21
410.1457104108
 31
0
  0
LINE
  8
0
 62
7
 10
303.4377441138
 20
413.9526314877
 30
0
 11
300.3810360984
 21
410.8959234723
 31
0
  0
LINE
  8
0
 62
7
 10
302.4227861511
 20
414.0602055401
 30
0
 11
300.0087171447
 21
411.6461365337
 31
0
  0
LINE
  8
0
 62
7
 10
301.300254136
 20
414.0602055401
 30
0
 11
299.6363981911
 21
412.3963495952
 31
0
  0
LINE
  8
0
 62
7
 10
300.1777221209
 20
414.0602055401
 30
0
 11
299.2640792374
 21
413.1465626567
 31
0
  0
LINE
  8
0
 62
7
 10
299.0551901057
 20
414.0602055401
 30
0
 11
298.8106526313
 21
413.8156680657
 31
0
  0
LINE
  8
0
 62
7
 10
337.0244805037
 20
417.3364324552
 30
0
 11
338.8106526313
 21
415.5502603277
 31
0
  0
LINE
  8
0
 62
7
 10
334.7794164735
 20
417.3364324552
 30
0
 11
338.5911317014
 21
413.5247172273
 31
0
  0
LINE
  8
0
 62
7
 10
332.5343524432
 20
417.3364324552
 30
0
 11
338.0176542657
 21
411.8531306327
 31
0
  0
LINE
  8
0
 62
7
 10
330.2892884129
 20
417.3364324552
 30
0
 11
337.4213002717
 21
410.2044205964
 31
0
  0
LINE
  8
0
 62
7
 10
329.3106526313
 20
416.0700042066
 30
0
 11
336.8246611959
 21
408.5559956419
 31
0
  0
LINE
  8
0
 62
7
 10
329.0753872675
 20
414.0602055401
 30
0
 11
336.2280221202
 21
406.9075706874
 31
0
  0
LINE
  8
0
 62
7
 10
327.9672110313
 20
412.923317746
 30
0
 11
335.6313830444
 21
405.259145733
 31
0
  0
LINE
  8
0
 62
7
 10
327.3127178062
 20
411.3327469409
 30
0
 11
335.0347439686
 21
403.6107207785
 31
0
  0
LINE
  8
0
 62
7
 10
326.658224581
 20
409.7421761358
 30
0
 11
334.4381048928
 21
401.962295824
 31
0
  0
LINE
  8
0
 62
7
 10
326.0037313559
 20
408.1516053306
 30
0
 11
333.9265980627
 21
400.2287386238
 31
0
  0
LINE
  8
0
 62
7
 10
325.2791731508
 20
406.6310995055
 30
0
 11
331.6815340324
 21
400.2287386238
 31
0
  0
LINE
  8
0
 62
7
 10
324.1008046078
 20
405.5644040182
 30
0
 11
329.4364700022
 21
400.2287386238
 31
0
  0
LINE
  8
0
 62
7
 10
322.1661751438
 20
405.2539694519
 30
0
 11
327.1914059719
 21
400.2287386238
 31
0
  0
LINE
  8
0
 62
7
 10
319.9211111135
 20
405.2539694519
 30
0
 11
324.9463419416
 21
400.2287386238
 31
0
  0
LINE
  8
0
 62
7
 10
317.6760470833
 20
405.2539694519
 30
0
 11
322.7012779114
 21
400.2287386238
 31
0
  0
LINE
  8
0
 62
7
 10
315.430983053
 20
405.2539694519
 30
0
 11
320.4562138811
 21
400.2287386238
 31
0
  0
LINE
  8
0
 62
7
 10
313.1859190227
 20
405.2539694519
 30
0
 11
318.2111498508
 21
400.2287386238
 31
0
  0
LINE
  8
0
 62
7
 10
310.9408549925
 20
405.2539694519
 30
0
 11
315.9660858206
 21
400.2287386238
 31
0
  0
LINE
  8
0
 62
7
 10
296.6133279589
 20
417.3364324552
 30
0
 11
298.3106526313
 21
415.6391077829
 31
0
  0
LINE
  8
0
 62
7
 10
308.6957909622
 20
405.2539694519
 30
0
 11
313.7210217903
 21
400.2287386238
 31
0
  0
LINE
  8
0
 62
7
 10
294.3682639287
 20
417.3364324552
 30
0
 11
300.2642855824
 21
411.4404108014
 31
0
  0
LINE
  8
0
 62
7
 10
306.4507269319
 20
405.2539694519
 30
0
 11
311.47595776
 21
400.2287386238
 31
0
  0
LINE
  8
0
 62
7
 10
292.1231998984
 20
417.3364324552
 30
0
 11
301.8340050472
 21
407.6256273064
 31
0
  0
LINE
  8
0
 62
7
 10
304.1062207111
 20
405.3534116425
 30
0
 11
309.2308937298
 21
400.2287386238
 31
0
  0
LINE
  8
0
 62
7
 10
289.8781358681
 20
417.3364324552
 30
0
 11
306.9858296995
 21
400.2287386238
 31
0
  0
LINE
  8
0
 62
7
 10
288.8106526313
 20
416.1588516618
 30
0
 11
304.7407656692
 21
400.2287386238
 31
0
  0
LINE
  8
0
 62
7
 10
288.8106526313
 20
413.9137876315
 30
0
 11
302.495701639
 21
400.2287386238
 31
0
  0
LINE
  8
0
 62
7
 10
290.1575236955
 20
410.3218525371
 30
0
 11
300.2506376087
 21
400.2287386238
 31
0
  0
LINE
  8
0
 62
7
 10
291.4310528109
 20
406.8032593914
 30
0
 11
298.0055735784
 21
400.2287386238
 31
0
  0
LINE
  8
0
 62
7
 10
292.7045819263
 20
403.2846662457
 30
0
 11
295.7605095482
 21
400.2287386238
 31
0
  0
LINE
  8
0
 62
7
 10
312.3106526313
 20
414.9678158992
 30
0
 11
311.4030422722
 21
414.0602055401
 31
0
  0
LINE
  8
0
 62
7
 10
312.3106526313
 20
417.2128799295
 30
0
 11
309.1579782419
 21
414.0602055401
 31
0
  0
LINE
  8
0
 62
7
 10
312.3106526313
 20
419.4579439597
 30
0
 11
306.9129142117
 21
414.0602055401
 31
0
  0
LINE
  8
0
 62
7
 10
312.3106526313
 20
421.70300799
 30
0
 11
304.6678501814
 21
414.0602055401
 31
0
  0
LINE
  8
0
 62
7
 10
312.3106526313
 20
423.9480720203
 30
0
 11
302.4227861511
 21
414.0602055401
 31
0
  0
LINE
  8
0
 62
7
 10
312.3106526313
 20
426.1931360505
 30
0
 11
300.1777221209
 21
414.0602055401
 31
0
  0
LINE
  8
0
 62
7
 10
312.3106526313
 20
428.4382000808
 30
0
 11
298.3106526313
 21
414.4382000808
 31
0
  0
LINE
  8
0
 62
7
 10
312.3106526313
 20
430.6832641111
 30
0
 11
298.3106526313
 21
416.6832641111
 31
0
  0
LINE
  8
0
 62
7
 10
311.9092524454
 20
432.5269279555
 30
0
 11
297.727573971
 21
418.345249481
 31
0
  0
LINE
  8
0
 62
7
 10
309.6641884151
 20
432.5269279555
 30
0
 11
295.4825099407
 21
418.345249481
 31
0
  0
LINE
  8
0
 62
7
 10
307.4191243849
 20
432.5269279555
 30
0
 11
293.2374459104
 21
418.345249481
 31
0
  0
LINE
  8
0
 62
7
 10
305.1740603546
 20
432.5269279555
 30
0
 11
290.9923818802
 21
418.345249481
 31
0
  0
LINE
  8
0
 62
7
 10
302.9289963243
 20
432.5269279555
 30
0
 11
288.7473178499
 21
418.345249481
 31
0
  0
LINE
  8
0
 62
7
 10
300.6839322941
 20
432.5269279555
 30
0
 11
286.5022538196
 21
418.345249481
 31
0
  0
LINE
  8
0
 62
7
 10
298.4388682638
 20
432.5269279555
 30
0
 11
284.2571897894
 21
418.345249481
 31
0
  0
LINE
  8
0
 62
7
 10
296.1938042335
 20
432.5269279555
 30
0
 11
282.3106526313
 21
418.6437763532
 31
0
  0
LINE
  8
0
 62
7
 10
293.9487402033
 20
432.5269279555
 30
0
 11
282.3106526313
 21
420.8888403835
 31
0
  0
LINE
  8
0
 62
7
 10
291.703676173
 20
432.5269279555
 30
0
 11
280.5509169097
 21
421.3741686922
 31
0
  0
LINE
  8
0
 62
7
 10
289.4586121427
 20
432.5269279555
 30
0
 11
278.3058528795
 21
421.3741686922
 31
0
  0
LINE
  8
0
 62
7
 10
287.2135481125
 20
432.5269279555
 30
0
 11
276.0607888492
 21
421.3741686922
 31
0
  0
LINE
  8
0
 62
7
 10
284.9684840822
 20
432.5269279555
 30
0
 11
273.8157248189
 21
421.3741686922
 31
0
  0
LINE
  8
0
 62
7
 10
282.7234200519
 20
432.5269279555
 30
0
 11
271.5706607886
 21
421.3741686922
 31
0
  0
LINE
  8
0
 62
7
 10
280.4783560217
 20
432.5269279555
 30
0
 11
269.3255967584
 21
421.3741686922
 31
0
  0
LINE
  8
0
 62
7
 10
278.2332919914
 20
432.5269279555
 30
0
 11
267.0805327281
 21
421.3741686922
 31
0
  0
LINE
  8
0
 62
7
 10
275.9882279611
 20
432.5269279555
 30
0
 11
264.8354686978
 21
421.3741686922
 31
0
  0
LINE
  8
0
 62
7
 10
273.7431639309
 20
432.5269279555
 30
0
 11
262.5904046676
 21
421.3741686922
 31
0
  0
LINE
  8
0
 62
7
 10
271.4980999006
 20
432.5269279555
 30
0
 11
260.3453406373
 21
421.3741686922
 31
0
  0
LINE
  8
0
 62
7
 10
269.2530358703
 20
432.5269279555
 30
0
 11
259.0641228733
 21
422.3380149585
 31
0
  0
LINE
  8
0
 62
7
 10
267.0079718401
 20
432.5269279555
 30
0
 11
260.6488459778
 21
426.1678020932
 31
0
  0
LINE
  8
0
 62
7
 10
264.7629078098
 20
432.5269279555
 30
0
 11
262.8280275894
 21
430.592047735
 31
0
  0
LINE
  8
0
 62
7
 10
366.3239238781
 20
399.3841022078
 30
0
 11
362.0696064595
 21
395.1297847892
 31
0
  0
LINE
  8
0
 62
7
 10
365.1045510375
 20
400.4097933975
 30
0
 11
360.8831242064
 21
396.1883665664
 31
0
  0
LINE
  8
0
 62
7
 10
363.9570142407
 20
401.5073206309
 30
0
 11
359.6966419534
 21
397.2469483436
 31
0
  0
LINE
  8
0
 62
7
 10
362.820634641
 20
402.6160050615
 30
0
 11
358.5101597003
 21
398.3055301208
 31
0
  0
LINE
  8
0
 62
7
 10
361.6842550413
 20
403.724689492
 30
0
 11
357.3236774473
 21
399.364111898
 31
0
  0
LINE
  8
0
 62
7
 10
360.5478754416
 20
404.8333739226
 30
0
 11
356.1719491559
 21
400.4574476369
 31
0
  0
LINE
  8
0
 62
7
 10
359.4114958419
 20
405.9420583532
 30
0
 11
355.0568888983
 21
401.5874514095
 31
0
  0
LINE
  8
0
 62
7
 10
358.2751162422
 20
407.0507427837
 30
0
 11
353.9418286406
 21
402.7174551821
 31
0
  0
LINE
  8
0
 62
7
 10
357.1387366425
 20
408.1594272143
 30
0
 11
352.826768383
 21
403.8474589547
 31
0
  0
LINE
  8
0
 62
7
 10
356.0023570428
 20
409.2681116448
 30
0
 11
351.7117081253
 21
404.9774627273
 31
0
  0
LINE
  8
0
 62
7
 10
354.8659774431
 20
410.3767960754
 30
0
 11
350.5966478676
 21
406.1074665
 31
0
  0
LINE
  8
0
 62
7
 10
353.6776531525
 20
411.4335358151
 30
0
 11
349.48158761
 21
407.2374702726
 31
0
  0
LINE
  8
0
 62
7
 10
352.4780647762
 20
412.479011469
 30
0
 11
348.3665273523
 21
408.3674740452
 31
0
  0
LINE
  8
0
 62
7
 10
351.2784763999
 20
413.524487123
 30
0
 11
347.2039291997
 21
409.4499399229
 31
0
  0
LINE
  8
0
 62
7
 10
350.0788880235
 20
414.5699627769
 30
0
 11
345.9393160662
 21
410.4303908196
 31
0
  0
LINE
  8
0
 62
7
 10
348.8792996472
 20
415.6154384309
 30
0
 11
344.6747029328
 21
411.4108417164
 31
0
  0
LINE
  8
0
 62
7
 10
347.6797112709
 20
416.6609140848
 30
0
 11
343.4100897993
 21
412.3912926132
 31
0
  0
LINE
  8
0
 62
7
 10
346.4801228946
 20
417.7063897387
 30
0
 11
342.1454766658
 21
413.37174351
 31
0
  0
LINE
  8
0
 62
7
 10
345.2805345182
 20
418.7518653927
 30
0
 11
340.8808635323
 21
414.3521944068
 31
0
  0
LINE
  8
0
 62
7
 10
344.0809461419
 20
419.7973410466
 30
0
 11
339.6162503988
 21
415.3326453035
 31
0
  0
LINE
  8
0
 62
7
 10
342.7329653773
 20
420.6944243123
 30
0
 11
338.3516372653
 21
416.3130962003
 31
0
  0
LINE
  8
0
 62
7
 10
341.3511895066
 20
421.5577124719
 30
0
 11
337.0870241318
 21
417.2935470971
 31
0
  0
LINE
  8
0
 62
7
 10
339.969413636
 20
422.4210006315
 30
0
 11
335.8936624855
 21
418.345249481
 31
0
  0
LINE
  8
0
 62
7
 10
338.5876377654
 20
423.2842887912
 30
0
 11
333.6485984552
 21
418.345249481
 31
0
  0
LINE
  8
0
 62
7
 10
337.2058618947
 20
424.1475769508
 30
0
 11
331.403534425
 21
418.345249481
 31
0
  0
LINE
  8
0
 62
7
 10
329.3106526313
 20
416.2523676873
 30
0
 11
327.1184904841
 21
414.0602055401
 31
0
  0
LINE
  8
0
 62
7
 10
335.7217226297
 20
424.908501716
 30
0
 11
324.8734264538
 21
414.0602055401
 31
0
  0
LINE
  8
0
 62
7
 10
334.1969921714
 20
425.628835288
 30
0
 11
322.6283624235
 21
414.0602055401
 31
0
  0
LINE
  8
0
 62
7
 10
332.6722617131
 20
426.34916886
 30
0
 11
320.3832983933
 21
414.0602055401
 31
0
  0
LINE
  8
0
 62
7
 10
331.1475312548
 20
427.0695024319
 30
0
 11
318.138234363
 21
414.0602055401
 31
0
  0
LINE
  8
0
 62
7
 10
329.6228007965
 20
427.7898360039
 30
0
 11
315.8931703327
 21
414.0602055401
 31
0
  0
LINE
  8
0
 62
7
 10
327.9910580155
 20
428.4031572532
 30
0
 11
315.3106526313
 21
415.7227518689
 31
0
  0
LINE
  8
0
 62
7
 10
326.330673237
 20
428.9878365049
 30
0
 11
315.3106526313
 21
417.9678158992
 31
0
  0
LINE
  8
0
 62
7
 10
324.6702884585
 20
429.5725157567
 30
0
 11
315.3106526313
 21
420.2128799295
 31
0
  0
LINE
  8
0
 62
7
 10
322.9971806978
 20
430.1444720263
 30
0
 11
315.3106526313
 21
422.4579439597
 31
0
  0
LINE
  8
0
 62
7
 10
321.2855018235
 20
430.6778571822
 30
0
 11
315.3106526313
 21
424.70300799
 31
0
  0
LINE
  8
0
 62
7
 10
319.4814471364
 20
431.1188665254
 30
0
 11
315.3106526313
 21
426.9480720203
 31
0
  0
LINE
  8
1
 62
7
 10
288.810659307
 20
861.3330000042
 30
0
 11
291.7166688619
 21
870.7653828858
 31
0
  0
LINE
  8
1
 62
7
 10
524.9039643583
 20
877.6367590724
 30
0
 11
523.5716589866
 21
878.872586876
 31
0
  0
LINE
  8
1
 62
7
 10
523.5716589866
 20
746.0529343187
 30
0
 11
524.9039643583
 21
747.2887621223
 31
0
  0
LINE
  8
1
 62
7
 10
325.8053996739
 20
448.3849746493
 30
0
 11
323.0209388910004
 21
449.0804733096819
 31
0
  0
ARC
  8
0
 62
7
 10
809.949862283
 20
464.4300625977
 30
0
 40
92.99999999999986
 50
170.4370073695995
 51
0
  0
ARC
  8
0
 62
7
 10
458.3106526313
 20
731.4627605974
 30
0
 40
12.00000000000011
 50
0
 51
233.9633597467872
  0
ARC
  8
0
 62
7
 10
458.3106526313
 20
731.4627605974
 30
0
 40
12.00000000000017
 50
233.9633597467872
 51
0
  0
ARC
  8
0
 62
7
 10
878.949862283
 20
560.4300625977
 30
0
 40
5.000000000000114
 50
90
 51
180
  0
ARC
  8
0
 62
7
 10
854.3247931735
 20
517.6995568468
 30
0
 40
40.82956629877366
 50
32.87600092439993
 51
59.81546727359996
  0
ARC
  8
0
 62
7
 10
840.7304191501369
 20
506.7750004483169
 30
0
 40
58.20456639187422
 50
25.27793507357474
 51
34.64386936707469
  0
ARC
  8
0
 62
7
 10
854.3247931735
 20
517.6995568468
 30
0
 40
40.82956629877366
 50
32.87600092439993
 51
59.81546727359996
  0
ARC
  8
0
 62
7
 10
838.6494587209184
 20
506.5417415956993
 30
0
 40
60.18968752110781
 50
17.28945069676385
 51
24.63283693366386
  0
ARC
  8
0
 62
7
 10
809.949862283
 20
464.4300625977
 30
0
 40
92.99999999999989
 50
0
 51
170.4370073695995
  0
ARC
  8
0
 62
7
 10
733.5781146104995
 20
593.029007115
 30
0
 40
14.40157679767659
 50
70.2279563279002
 51
89.51562096440016
  0
ARC
  8
0
 62
7
 10
733.8216138296999
 20
593.029007115
 30
0
 40
14.40157679767655
 50
90.48437903559983
 51
109.7720436720998
  0
ARC
  8
0
 62
7
 10
724.0781177098995
 20
593.029007115
 30
0
 40
14.40157679767659
 50
70.2279563279002
 51
89.51562096440016
  0
ARC
  8
0
 62
7
 10
724.3216169291
 20
593.029007115
 30
0
 40
14.40157679767655
 50
90.48437903559983
 51
109.7720436720998
  0
ARC
  8
0
 62
7
 10
764.8216170483
 20
593.029007115
 30
0
 40
14.40157679767655
 50
90.48437903559983
 51
109.7720436720998
  0
ARC
  8
0
 62
7
 10
764.5781178290996
 20
593.029007115
 30
0
 40
14.40157679767659
 50
70.2279563279002
 51
89.51562096440016
  0
ARC
  8
0
 62
7
 10
774.3216139489
 20
593.029007115
 30
0
 40
14.40157679767655
 50
90.48437903559983
 51
109.7720436720998
  0
ARC
  8
0
 62
7
 10
774.0781147296996
 20
593.029007115
 30
0
 40
14.40157679767659
 50
70.2279563279002
 51
89.51562096440016
  0
ARC
  8
0
 62
7
 10
886.3216211311999
 20
593.029007115
 30
0
 40
14.40157679767655
 50
90.48437903559983
 51
109.7720436720998
  0
ARC
  8
0
 62
7
 10
886.0781219119995
 20
593.029007115
 30
0
 40
14.40157679767659
 50
70.2279563279002
 51
89.51562096440016
  0
ARC
  8
0
 62
7
 10
895.8216180317999
 20
593.029007115
 30
0
 40
14.40157679767655
 50
90.48437903559983
 51
109.7720436720998
  0
ARC
  8
0
 62
7
 10
895.5781188125994
 20
593.029007115
 30
0
 40
14.40157679767659
 50
70.2279563279002
 51
89.51562096440016
  0
ARC
  8
0
 62
7
 10
855.0781149680995
 20
593.029007115
 30
0
 40
14.40157679767659
 50
70.2279563279002
 51
89.51562096440016
  0
ARC
  8
0
 62
7
 10
855.3216141872999
 20
593.029007115
 30
0
 40
14.40157679767655
 50
90.48437903559983
 51
109.7720436720998
  0
ARC
  8
0
 62
7
 10
845.5781180674995
 20
593.029007115
 30
0
 40
14.40157679767659
 50
70.2279563279002
 51
89.51562096440016
  0
ARC
  8
0
 62
7
 10
809.9560049443001
 20
491.1371326368
 30
0
 40
125.6803386535318
 50
271.1790075159
 51
292.6494492052
  0
ARC
  8
0
 62
7
 10
809.9437196217
 20
491.1371326368
 30
0
 40
125.6803386535317
 50
247.3505507948
 51
268.8209924841
  0
ARC
  8
0
 62
7
 10
775.4998466811001
 20
408.880068845
 30
0
 40
36.5499841850304
 50
208.0855805952999
 51
231.4482237
  0
ARC
  8
0
 62
7
 10
844.3998778849
 20
408.880068845
 30
0
 40
36.5499841850304
 50
308.5517763
 51
331.9144194047
  0
ARC
  8
0
 62
7
 10
862.982870872
 20
517.4630711867
 30
0
 40
9.499999999999947
 50
311.3688370333001
 51
138.6311629667003
  0
ARC
  8
0
 62
7
 10
859.447336966
 20
513.9275372808
 30
0
 40
9.500000000000007
 50
138.8909178151999
 51
311.1090821847999
  0
ARC
  8
0
 62
7
 10
862.982870872
 20
411.3970540087
 30
0
 40
9.500000000000107
 50
221.3688370333002
 51
48.63116296670011
  0
ARC
  8
0
 62
7
 10
859.447336966
 20
414.9325879147
 30
0
 40
9.500000000000007
 50
48.89091781519988
 51
221.1090821847999
  0
ARC
  8
0
 62
7
 10
756.916853694
 20
411.3970540087
 30
0
 40
9.499999999999989
 50
131.3688370332999
 51
318.6311629666998
  0
ARC
  8
0
 62
7
 10
760.4523875999
 20
414.9325879147
 30
0
 40
9.500000000000132
 50
318.8909178152001
 51
131.1090821848001
  0
ARC
  8
0
 62
7
 10
756.916853694
 20
517.4630711867
 30
0
 40
9.500000000000032
 50
41.36883703329966
 51
228.6311629666999
  0
ARC
  8
0
 62
7
 10
760.4523875999
 20
513.9275372808
 30
0
 40
9.500000000000052
 50
228.8909178152001
 51
41.10908218480012
  0
ARC
  8
0
 62
7
 10
735.5505601313
 20
589.4838411631
 30
0
 40
8.003844145891712
 50
96.87925034720028
 51
118.1298436491998
  0
ARC
  8
0
 62
7
 10
884.3611860298
 20
589.5219582436
 30
0
 40
7.96456497369276
 50
61.81714145100047
 51
83.17376455259961
  0
ARC
  8
0
 62
7
 10
802.8646225552
 20
599.0615040512
 30
0
 40
1.536374144820996
 50
0.6923750106984391
 51
81.26667501299967
  0
ARC
  8
0
 62
7
 10
817.0277778895
 20
599.0678662189
 30
0
 40
1.528986547423019
 50
98.4982484658988
 51
179.5427015104984
  0
ARC
  8
0
 62
7
 10
845.1670540966001
 20
601.7010980757
 30
0
 40
8.089058771910235
 50
219.6244149803001
 51
230.8276524294998
  0
ARC
  8
0
 62
7
 10
845.8216172867
 20
593.029007115
 30
0
 40
14.40157679767655
 50
90.48437903559983
 51
109.7720436720998
  0
ARC
  8
0
 62
7
 10
720.3579535601
 20
559.805798658
 30
0
 40
4.377262435404277
 50
271.5122255079003
 51
306.3117400704999
  0
ARC
  8
0
 62
7
 10
736.7906952777
 20
561.5543037197
 30
0
 40
6.125272029197832
 50
271.0502706961
 51
300.5364608590999
  0
ARC
  8
0
 62
7
 10
882.3579540369
 20
559.805798658
 30
0
 40
4.377262435404277
 50
271.5122255079003
 51
306.3117400704999
  0
ARC
  8
0
 62
7
 10
898.7906957545
 20
561.5543037197
 30
0
 40
6.125272029197832
 50
271.0502706961
 51
300.5364608590999
  0
ARC
  8
0
 62
7
 10
858.2906956353
 20
561.5543037197
 30
0
 40
6.125272029197832
 50
271.0502706961
 51
300.5364608590999
  0
ARC
  8
0
 62
7
 10
849.797235376
 20
574.362487079
 30
0
 40
18.93286812237887
 50
270.391417149
 51
287.2229326722002
  0
ARC
  8
0
 62
7
 10
760.857949415
 20
559.8058116118
 30
0
 40
4.377275398900633
 50
271.5122280864997
 51
306.3116846406998
  0
ARC
  8
0
 62
7
 10
768.7972372662
 20
574.3624733399
 30
0
 40
18.93285436905845
 50
270.3914109912001
 51
287.2229388298999
  0
ARC
  8
0
 62
7
 10
765.5749313925001
 20
517.6995568468
 30
0
 40
40.82956629877365
 50
120.1845327264001
 51
147.1239990756001
  0
ARC
  8
0
 62
7
 10
779.1693054158632
 20
506.7750004483169
 30
0
 40
58.2045663918742
 50
145.3561306329253
 51
154.7220649264253
  0
ARC
  8
0
 62
7
 10
740.949862283
 20
560.4300625977
 30
0
 40
5.000000000000114
 50
0
 51
90
  0
ARC
  8
0
 62
7
 10
781.2502658450817
 20
506.5417415956993
 30
0
 40
60.1896875211078
 50
155.3671630663361
 51
162.7105493032362
  0
ARC
  8
0
 62
7
 10
756.949862283
 20
601.5800625977
 30
0
 40
2
 50
90
 51
180
  0
ARC
  8
0
 62
7
 10
862.949862283
 20
601.5800625977
 30
0
 40
2
 50
0
 51
90
  0
ARC
  8
0
 62
7
 10
873.449862283
 20
599.0800625977
 30
0
 40
1.5
 50
0
 51
90
  0
ARC
  8
0
 62
7
 10
746.449862283
 20
599.0800625977
 30
0
 40
1.5
 50
90
 51
180
  0
ARC
  8
0
 62
7
 10
855.949862283
 20
623.0800625977
 30
0
 40
7
 50
0
 51
90
  0
ARC
  8
0
 62
7
 10
763.949862283
 20
623.0800625977
 30
0
 40
7
 50
90
 51
180
  0
ARC
  8
0
 62
7
 10
1350.3898531048
 20
812.46276059741
 30
0
 40
973.0792004735546
 50
179.6859527075006
 51
179.7816184650006
  0
ARC
  8
0
 62
7
 10
458.3106526313
 20
812.4627605974
 30
0
 40
57.99999999999995
 50
167.8574392187
 51
192.1425607813
  0
ARC
  8
0
 62
7
 10
411.1920933986
 20
817.1834218807001
 30
0
 40
12.15689549521047
 50
128.7623120780999
 51
142.0310567238998
  0
ARC
  8
0
 62
7
 10
411.2656470115
 20
807.8146414244
 30
0
 40
12.25951727130798
 50
218.0247245639002
 51
231.1819066341
  0
ARC
  8
0
 62
7
 10
344.6094850508
 20
798.0371315604
 30
0
 40
10.84800782129195
 50
95.5251709481998
 51
122.3135620505002
  0
ARC
  8
0
 62
7
 10
345.6187616911
 20
829.7491903518001
 30
0
 40
13.81195277970572
 50
240.4677067929
 51
261.4487451437001
  0
ARC
  8
0
 62
7
 10
545.4153131677
 20
802.5048619633
 30
0
 40
6.96746184425649
 50
93.00228875779963
 51
127.0383806482999
  0
ARC
  8
0
 62
7
 10
545.4153131677
 20
822.4206592314
 30
0
 40
6.96746184425648
 50
232.9616193517002
 51
266.9977112422004
  0
ARC
  8
0
 62
7
 10
564.3107040479
 20
818.4627065843
 30
0
 40
2.999945961285531
 50
269.9989940915005
 51
0.00103258890068782
  0
ARC
  8
0
 62
7
 10
564.3107040479
 20
806.4628146105
 30
0
 40
2.999945961285484
 50
359.9989674110994
 51
90.00100590849955
  0
ARC
  8
0
 62
7
 10
458.3106526313
 20
812.4627605974
 30
0
 40
79.99999999999999
 50
286.4486131295
 51
313.5513868705
  0
ARC
  8
0
 62
7
 10
458.3106526313
 20
812.4627605974
 30
0
 40
79.99999999999992
 50
226.4486131295
 51
253.1046224398001
  0
ARC
  8
0
 62
7
 10
458.3106526313
 20
812.4627605974
 30
0
 40
80.0000000000001
 50
106.4486131295
 51
133.5513868705
  0
ARC
  8
0
 62
7
 10
458.3106526313
 20
812.4627605974
 30
0
 40
80.00000000000003
 50
46.44861312950002
 51
73.55138687050004
  0
ARC
  8
0
 62
7
 10
429.9951232456
 20
716.55535319
 30
0
 40
20.00000000000004
 50
27.76566615159995
 51
59.78299275279988
  0
ARC
  8
0
 62
7
 10
527.2111391644
 20
739.9870891241
 30
0
 40
20.00000000000006
 50
87.76566615159997
 51
133.5513868704998
  0
ARC
  8
0
 62
7
 10
389.4101660982
 20
884.9384320706
 30
0
 40
19.99999999999983
 50
267.7656661515999
 51
313.5513868704999
  0
ARC
  8
0
 62
7
 10
486.6261820169
 20
908.3701680048
 30
0
 40
20.00000000000004
 50
207.7656661516
 51
253.5513868705001
  0
ARC
  8
0
 62
7
 10
486.6261820169
 20
716.55535319
 30
0
 40
20.00000000000014
 50
106.4486131295
 51
152.2343338484001
  0
ARC
  8
0
 62
7
 10
389.4101660982
 20
739.9870891241
 30
0
 40
20.00000000000004
 50
46.44861312950005
 51
92.23433384840004
  0
ARC
  8
0
 62
7
 10
527.2111391644
 20
884.9384320706
 30
0
 40
19.99999999999992
 50
226.4486131294999
 51
272.2343338484001
  0
ARC
  8
0
 62
7
 10
429.9951232456
 20
908.3701680048
 30
0
 40
20.00000000000001
 50
286.4486131294999
 51
332.2343338484001
  0
ARC
  8
0
 62
7
 10
-433.7685478423
 20
812.4627605974
 30
0
 40
975.0792004735545
 50
357.5898518572
 51
2.410148142799999
  0
ARC
  8
0
 62
7
 10
1350.3898531048
 20
812.4627605974
 30
0
 40
975.0792004735545
 50
177.5898518572
 51
182.4101481428
  0
ARC
  8
0
 62
7
 10
379.49474332
 20
811.6136881201001
 30
0
 40
1.694634753704499
 50
52.96263412180086
 51
95.39058329470088
  0
ARC
  8
0
 62
7
 10
379.1473700363
 20
813.3682056589
 30
0
 40
2.005082982582892
 50
261.4184174441991
 51
313.0253644199016
  0
ARC
  8
0
 62
7
 10
378.5558124336
 20
813.8080435225
 30
0
 40
2.440051418892625
 50
228.0401236267986
 51
276.8816472617001
  0
ARC
  8
0
 62
7
 10
379.1155471671
 20
813.1310596665001
 30
0
 40
2.454239405946239
 50
264.949265074802
 51
316.6510741876
  0
ARC
  8
0
 62
7
 10
379.1412084045
 20
816.0711101669
 30
0
 40
2.628464889693686
 50
47.23581398360007
 51
98.65700205550034
  0
ARC
  8
0
 62
7
 10
378.3598429287
 20
817.8575889127
 30
0
 40
2.591330565853099
 50
226.9501469368001
 51
278.5605594358982
  0
ARC
  8
0
 62
7
 10
379.0889165044
 20
818.0641159129
 30
0
 40
2.790192985801278
 50
262.9316614419002
 51
311.175522519
  0
ARC
  8
0
 62
7
 10
378.4107252021
 20
815.9432467372
 30
0
 40
2.746868379288995
 50
82.99810099119972
 51
131.4911926359992
  0
ARC
  8
0
 62
7
 10
378.4040957565
 20
818.6258155843
 30
0
 40
2.653530443642531
 50
237.4313457941006
 51
277.3938123718994
  0
ARC
  8
0
 62
7
 10
378.3464026613
 20
815.5973132829
 30
0
 40
2.406432497502334
 50
80.451811501702
 51
124.7230446909993
  0
ARC
  8
0
 62
7
 10
379.0953439839
 20
815.2830606831
 30
0
 40
2.710013814722917
 50
57.75798458130048
 51
97.41559629070157
  0
ARC
  8
0
 62
7
 10
379.1526220689
 20
818.421468121
 30
0
 40
2.461014935482876
 50
260.4796321041015
 51
304.3467728513004
  0
ARC
  8
0
 62
7
 10
458.3106526313
 20
812.4627605974
 30
0
 40
75.00000000000001
 50
282.268898996
 51
317.731101004
  0
ARC
  8
0
 62
7
 10
458.3106526313
 20
812.4627605974
 30
0
 40
74.99999999999994
 50
222.268898996
 51
251.9407695092
  0
ARC
  8
0
 62
7
 10
458.3106526313
 20
812.4627605974
 30
0
 40
75.00000000000021
 50
342.268898996
 51
17.73110100400002
  0
ARC
  8
0
 62
7
 10
458.3106526313
 20
812.4627605974
 30
0
 40
75.00000000000016
 50
162.268898996
 51
197.731101004
  0
ARC
  8
0
 62
7
 10
458.3106526313
 20
812.4627605974
 30
0
 40
65.00000000000011
 50
167.4999999999999
 51
192.4999999999999
  0
ARC
  8
0
 62
7
 10
458.3106526313
 20
812.4627605974
 30
0
 40
75.00000000000011
 50
102.268898996
 51
137.731101004
  0
ARC
  8
0
 62
7
 10
458.3106526313
 20
812.4627605974
 30
0
 40
75.00000000000007
 50
42.26889899599998
 51
77.73110100400001
  0
ARC
  8
0
 62
7
 10
441.3106526313
 20
734.2898752726001
 30
0
 40
5.000000000000114
 50
0
 51
77.73110100400027
  0
ARC
  8
0
 62
7
 10
475.3106526313
 20
734.2898752726001
 30
0
 40
5.000000000000064
 50
102.2688989959997
 51
180
  0
ARC
  8
0
 62
7
 10
517.5103572097
 20
758.6538860706
 30
0
 40
5.000000000000017
 50
60.00000000000011
 51
137.7311010039995
  0
ARC
  8
0
 62
7
 10
399.1109480529
 20
758.6538860706
 30
0
 40
5.000000000000031
 50
42.26889899600006
 51
119.9999999999999
  0
ARC
  8
0
 62
7
 10
382.1109480529
 20
788.0987497993
 30
0
 40
5.000000000000017
 50
299.9999999999998
 51
17.73110100400044
  0
ARC
  8
0
 62
7
 10
534.5103572097
 20
788.0987497993
 30
0
 40
5.000000000000022
 50
162.2688989959996
 51
240.0000000000001
  0
ARC
  8
0
 62
7
 10
382.1109480529
 20
836.8267713954
 30
0
 40
5.000000000000022
 50
342.2688989959996
 51
60.00000000000011
  0
ARC
  8
0
 62
7
 10
534.5103572097
 20
836.8267713954
 30
0
 40
5.000000000000017
 50
119.9999999999999
 51
197.7311010040004
  0
ARC
  8
0
 62
7
 10
517.5103572097
 20
866.2716351241
 30
0
 40
4.999999999999989
 50
222.2688989960005
 51
299.9999999999998
  0
ARC
  8
0
 62
7
 10
399.1109480529
 20
866.2716351241
 30
0
 40
5.000000000000017
 50
240.0000000000001
 51
317.731101004
  0
ARC
  8
0
 62
7
 10
441.3106526313
 20
890.6356459221
 30
0
 40
5.000000000000064
 50
282.2688989959997
 51
0
  0
ARC
  8
0
 62
7
 10
475.3106526313
 20
890.6356459221
 30
0
 40
5.000000000000114
 50
180
 51
257.7311010040003
  0
ARC
  8
0
 62
7
 10
458.3106526313
 20
812.4627605974
 30
0
 40
65.00000000000023
 50
4.897237558599957
 51
164.3815017244
  0
ARC
  8
0
 62
7
 10
458.3106526313
 20
812.4627605974
 30
0
 40
65.00000000000009
 50
195.6184982755999
 51
249.0414597964
  0
ARC
  8
0
 62
7
 10
458.3106526313
 20
812.4627605974
 30
0
 40
65.00000000000021
 50
253.693879841
 51
355.1027624413999
  0
ARC
  8
0
 62
7
 10
517.3106526312999
 20
812.4627605974
 30
0
 40
5.250000000000069
 50
256.5054122687005
 51
103.4945877312995
  0
ARC
  8
0
 62
7
 10
517.3106526312999
 20
812.4627605974
 30
0
 40
8
 50
270
 51
90
  0
ARC
  8
0
 62
7
 10
458.3106526313
 20
812.4627605974
 30
0
 40
55.00000000000002
 50
195.2729592612
 51
244.9931082523
  0
ARC
  8
0
 62
7
 10
458.3106526313
 20
812.4627605974
 30
0
 40
55.00000000000016
 50
250.6208310665
 51
349.0673388552
  0
ARC
  8
0
 62
7
 10
458.3106526313
 20
812.4627605974
 30
0
 40
55.00000000000006
 50
10.93266114479995
 51
164.7270407388
  0
ARC
  8
0
 62
7
 10
517.3106526312999
 20
812.4627605974
 30
0
 40
5.000000000000018
 50
261.3730734413003
 51
98.62692655869969
  0
ARC
  8
0
 62
7
 10
397.8106526313
 20
800.2627605974
 30
0
 40
2
 50
180
 51
270
  0
ARC
  8
0
 62
7
 10
397.8106526313
 20
824.6627605974001
 30
0
 40
2.000000000000114
 50
90
 51
180
  0
ARC
  8
0
 62
7
 10
403.5807704827
 20
831.6627605974001
 30
0
 40
5
 50
270
 51
340.6684235940996
  0
ARC
  8
0
 62
7
 10
403.5807704827
 20
793.2627605974
 30
0
 40
5.000000000000097
 50
19.33157640590012
 51
90
  0
ARC
  8
0
 62
7
 10
511.9856002326
 20
824.4627605974
 30
0
 40
2.000000000000023
 50
192.6022648415
 51
270
  0
ARC
  8
0
 62
7
 10
513.7362784735
 20
804.4627605974
 30
0
 40
2
 50
270
 51
351.7867892983002
  0
ARC
  8
0
 62
7
 10
458.3106526313
 20
812.4627605974
 30
0
 40
58.00000000000007
 50
351.7867892983
 51
8.213210701699991
  0
ARC
  8
0
 62
7
 10
513.7362784735
 20
820.4627605974
 30
0
 40
2.000000000000075
 50
8.213210701699802
 51
90
  0
ARC
  8
0
 62
7
 10
511.9856002326
 20
800.4627605974
 30
0
 40
2
 50
90
 51
167.3977351585
  0
ARC
  8
0
 62
7
 10
489.4701723896
 20
827.2576893703
 30
0
 40
1.194631595998992
 50
84.76144147940099
 51
135.0970713793012
  0
ARC
  8
0
 62
7
 10
489.5015647794
 20
824.424928899
 30
0
 40
1.18165332419235
 50
105.940291767401
 51
183.6867152256027
  0
ARC
  8
0
 62
7
 10
490.5121914744
 20
824.2277409826
 30
0
 40
1.385068396597559
 50
224.7754297649985
 51
275.0881189960977
  0
ARC
  8
0
 62
7
 10
490.5121924706
 20
826.9984801371001
 30
0
 40
1.385068784736998
 50
224.7753874393996
 51
275.0880761944988
  0
ARC
  8
0
 62
7
 10
489.4701756101
 20
836.257681963
 30
0
 40
1.19464014737857
 50
84.76163419050043
 51
135.0968786681959
  0
ARC
  8
0
 62
7
 10
490.5121932496
 20
835.9984796336
 30
0
 40
1.385068600028111
 50
224.7753339849999
 51
275.0880445218999
  0
ARC
  8
0
 62
7
 10
489.5015629948
 20
833.4249297698
 30
0
 40
1.181651624168547
 50
105.9402253178997
 51
183.6867816750985
  0
ARC
  8
0
 62
7
 10
490.5121948868
 20
833.227749936
 30
0
 40
1.385077397992256
 50
224.7756046358998
 51
275.0879441251979
  0
ARC
  8
0
 62
7
 10
157.1726750434
 20
811.7876076259
 30
0
 40
1.946807724900143
 50
355.961087278701
 51
39.08843488450013
  0
ARC
  8
0
 62
7
 10
157.5124715375
 20
811.6559775564
 30
0
 40
1.794183305224623
 50
49.24604600710161
 51
93.88395109439999
  0
ARC
  8
0
 62
7
 10
157.4591199914
 20
811.3032725444
 30
0
 40
2.143851991068437
 50
91.82243217460035
 51
154.5343766300996
  0
ARC
  8
0
 62
7
 10
154.0410192624
 20
811.9357568997
 30
0
 40
1.510502364885336
 50
11.04208887139913
 51
90.9759391367985
  0
ARC
  8
0
 62
7
 10
154.0834989388
 20
811.3032291094
 30
0
 40
2.143896307430953
 50
91.82315385839983
 51
154.5336549463013
  0
ARC
  8
0
 62
7
 10
154.5100973116
 20
810.2606308383
 30
0
 40
2.365155356791199
 50
141.8294137450993
 51
182.8696743115013
  0
ARC
  8
0
 62
7
 10
153.4942121894
 20
810.9151277997
 30
0
 40
1.167518218930186
 50
92.6268846961005
 51
136.261785644601
  0
ARC
  8
0
 62
7
 10
153.4387355768
 20
811.3825245069
 30
0
 40
0.6988974222941854
 50
43.76492314079482
 51
89.83872524089894
  0
ARC
  8
0
 62
7
 10
151.9406031845
 20
811.1512342829
 30
0
 40
2.126567615010524
 50
357.9700964950005
 51
19.63884204670134
  0
ARC
  8
0
 62
7
 10
157.95739977
 20
810.2606851183
 30
0
 40
2.364987698301703
 50
141.8278934632994
 51
182.8711945932989
  0
ARC
  8
0
 62
7
 10
156.9336531252
 20
810.9490762769
 30
0
 40
1.138402344361136
 50
95.91424830909875
 51
137.2168347666004
  0
ARC
  8
0
 62
7
 10
156.8520514205
 20
811.3027518848001
 30
0
 40
0.7794851864314166
 50
46.26369091119737
 51
92.62497177199549
  0
ARC
  8
0
 62
7
 10
155.8539597229
 20
811.0668963004
 30
0
 40
1.732282501999266
 50
357.9221028580988
 51
27.46932827020018
  0
ARC
  8
0
 62
7
 10
166.3659166396
 20
811.7876076259
 30
0
 40
1.946807724900172
 50
355.961087278701
 51
39.08843488450172
  0
ARC
  8
0
 62
7
 10
166.7057062712
 20
811.655965374
 30
0
 40
1.794197013604471
 50
49.24613396140069
 51
93.88465561660088
  0
ARC
  8
0
 62
7
 10
166.6523636905
 20
811.3032709928
 30
0
 40
2.143854556774955
 50
91.82328310969913
 51
154.5343633559007
  0
ARC
  8
0
 62
7
 10
163.2342279249
 20
811.9357162168
 30
0
 40
1.510542481262045
 50
11.04336416940069
 51
90.97466383880072
  0
ARC
  8
0
 62
7
 10
163.2767121354
 20
811.3032725444
 30
0
 40
2.143851991068437
 50
91.82243217460035
 51
154.5343766300996
  0
ARC
  8
0
 62
7
 10
163.7033389078
 20
810.2606308383
 30
0
 40
2.365155356791221
 50
141.8294137450998
 51
182.8696743115013
  0
ARC
  8
0
 62
7
 10
162.6874537856
 20
810.9151277997
 30
0
 40
1.167518218930186
 50
92.6268846961005
 51
136.261785644601
  0
ARC
  8
0
 62
7
 10
162.6319771731
 20
811.3825245069
 30
0
 40
0.6988974222941854
 50
43.76492314079482
 51
89.83872524089894
  0
ARC
  8
0
 62
7
 10
161.1325845622
 20
811.1510390901
 30
0
 40
2.127820142254116
 50
357.9765511250008
 51
19.63238741660063
  0
ARC
  8
0
 62
7
 10
167.1501306998
 20
810.2608826647
 30
0
 40
2.364487578684794
 50
141.8244553654999
 51
182.8765953305004
  0
ARC
  8
0
 62
7
 10
166.1271246962
 20
810.9485469789
 30
0
 40
1.138952534899184
 50
95.92301215170208
 51
137.2061689491999
  0
ARC
  8
0
 62
7
 10
166.0453120338
 20
811.3028771299
 30
0
 40
0.7793609440641179
 50
46.25991852149745
 51
92.6267900599011
  0
ARC
  8
0
 62
7
 10
165.0475304601
 20
811.0669173145
 30
0
 40
1.731954339651222
 50
357.9210133371005
 51
27.47418881959964
  0
ARC
  8
0
 62
7
 10
138.954493372
 20
808.6792269001001
 30
0
 40
5.94811797651463
 50
179.5465727160001
 51
221.2730787529005
  0
ARC
  8
0
 62
7
 10
137.3289220425
 20
807.8608586383
 30
0
 40
4.21144030868399
 50
227.5060407563004
 51
272.7551729177004
  0
ARC
  8
0
 62
7
 10
137.5925184061
 20
807.9806392809001
 30
0
 40
4.326785009786826
 50
269.1900913024002
 51
315.3566720671004
  0
ARC
  8
0
 62
7
 10
135.6914825447
 20
809.4869003174
 30
0
 40
6.742974467927021
 50
317.6017095830997
 51
2.954151419099728
  0
ARC
  8
0
 62
7
 10
136.0777832576
 20
810.1809860796
 30
0
 40
6.357167120253624
 50
356.8748514953004
 51
39.99494502570012
  0
ARC
  8
0
 62
7
 10
138.5625792058
 20
811.9738854481
 30
0
 40
3.308785860307104
 50
43.86783131649936
 51
90.26784527629938
  0
ARC
  8
0
 62
7
 10
138.4734849107
 20
811.3999874867
 30
0
 40
3.883345692923072
 50
88.91363253320083
 51
139.9741929220005
  0
ARC
  8
0
 62
7
 10
138.3383908889
 20
810.5447951333
 30
0
 40
3.178097440102585
 50
94.56558316979941
 51
157.253720215001
  0
ARC
  8
0
 62
7
 10
138.0900899154
 20
811.9384342652
 30
0
 40
1.774379963232394
 50
43.45170322469937
 51
90.15099370039781
  0
ARC
  8
0
 62
7
 10
135.5501347328
 20
810.3049777839
 30
0
 40
4.774743455834553
 50
354.3441401379996
 51
36.70399492859943
  0
ARC
  8
0
 62
7
 10
134.8619702437
 20
809.4532344429
 30
0
 40
5.453002391307201
 50
322.5932315184998
 51
4.00837543930008
  0
ARC
  8
0
 62
7
 10
137.4409744494
 20
807.8275594029
 30
0
 40
2.43247221013005
 50
274.3077555755003
 51
316.0941839635995
  0
ARC
  8
0
 62
7
 10
137.5390430191
 20
807.6631141688
 30
0
 40
2.262738886038616
 50
228.9763883262004
 51
272.1437927167998
  0
ARC
  8
0
 62
7
 10
138.9294181332
 20
808.4535807881
 30
0
 40
3.808770172539246
 50
175.8939597884
 51
220.9758338433007
  0
ARC
  8
0
 62
7
 10
124.4945646187
 20
817.4342811831
 30
0
 40
4.837175960439217
 50
0.7649726247003141
 51
44.47507526300068
  0
ARC
  8
0
 62
7
 10
125.8519541758
 20
818.6091716059
 30
0
 40
3.047558704827126
 50
46.59318359389947
 51
92.29459931309977
  0
ARC
  8
0
 62
7
 10
125.6316860598
 20
817.883024962
 30
0
 40
3.772541367094056
 50
88.50763385799992
 51
135.0953179556003
  0
ARC
  8
0
 62
7
 10
131.5801512524
 20
813.2009870092001
 30
0
 40
11.32539565351379
 50
139.5669638730001
 51
183.9541457669997
  0
ARC
  8
0
 62
7
 10
131.3954831957
 20
811.3101082442
 30
0
 40
11.16905200612712
 50
174.2969396636001
 51
214.7721023986999
  0
ARC
  8
0
 62
7
 10
125.1593268258
 20
807.6521463865
 30
0
 40
3.998578408068831
 50
222.7044195292
 51
268.9137654554003
  0
ARC
  8
0
 62
7
 10
125.2315117556
 20
807.5407903841
 30
0
 40
3.88932028116516
 50
267.8193945719995
 51
314.264701947701
  0
ARC
  8
0
 62
7
 10
122.7791802498
 20
809.1117536298
 30
0
 40
6.758260127525447
 50
319.8663049495
 51
4.565701702299591
  0
ARC
  8
0
 62
7
 10
123.0156731929
 20
810.030796991
 30
0
 40
6.511481506055399
 50
356.6449672151001
 51
39.52182263809976
  0
ARC
  8
0
 62
7
 10
125.5041725196
 20
811.8312203485
 30
0
 40
3.45165926792715
 50
42.7570692788001
 51
89.31808184609976
  0
ARC
  8
0
 62
7
 10
125.7636325608
 20
811.5772709505
 30
0
 40
3.711793886251793
 50
93.37289781570034
 51
154.7816501549999
  0
ARC
  8
0
 62
7
 10
132.7408188541
 20
813.3167720887
 30
0
 40
10.33641945452719
 50
144.3189836524998
 51
180.8759578464001
  0
ARC
  8
0
 62
7
 10
125.6252442857
 20
818.1432720336001
 30
0
 40
1.756545177268603
 50
89.59665868349828
 51
136.799670518299
  0
ARC
  8
0
 62
7
 10
125.6700242991
 20
818.6418464378
 30
0
 40
1.258344815984356
 50
44.92099167819892
 51
91.4760897183989
  0
ARC
  8
0
 62
7
 10
124.3966564125
 20
817.7231535241
 30
0
 40
2.81969549541602
 50
355.437606806901
 51
39.86177972509984
  0
ARC
  8
0
 62
7
 10
125.1805746661
 20
811.8461296725
 30
0
 40
1.774341870403607
 50
43.4511722093992
 51
90.15152471569927
  0
ARC
  8
0
 62
7
 10
122.3875041736
 20
810.1302642292
 30
0
 40
5.027615504463388
 50
354.5153127536997
 51
35.73261532210014
  0
ARC
  8
0
 62
7
 10
121.9668400973
 20
808.9300360586
 30
0
 40
5.472789237983889
 50
327.0832723321001
 51
7.556473398999606
  0
ARC
  8
0
 62
7
 10
125.0400839074
 20
807.4079178889
 30
0
 40
2.102691583827734
 50
273.7029159542016
 51
316.330525134001
  0
ARC
  8
0
 62
7
 10
125.1733934352
 20
807.0890939839001
 30
0
 40
1.779479698889508
 50
223.5225797374009
 51
270.0801346230994
  0
ARC
  8
0
 62
7
 10
128.3391274369
 20
809.5288050748
 30
0
 40
5.769704609853304
 50
175.1252974824004
 51
219.4376009138002
  0
ARC
  8
0
 62
7
 10
126.6869323618
 20
810.1681161801
 30
0
 40
4.099349460475364
 50
136.8047556512995
 51
182.0832659680994
  0
ARC
  8
0
 62
7
 10
125.1829305373
 20
811.5926118122
 30
0
 40
2.027865774931747
 50
90.19914465029869
 51
137.0597358556998
  0
ARC
  8
0
 62
7
 10
313.8106526313
 20
739.4627605974
 30
0
 40
15.00000000000005
 50
203.0052679809
 51
336.9947320191
  0
ARC
  8
0
 62
7
 10
333.3106526313
 20
761.0820115576
 30
0
 40
5.500000000000025
 50
336.9947320191003
 51
0
  0
ARC
  8
0
 62
7
 10
333.3106526313
 20
863.8435096372
 30
0
 40
5.5
 50
0
 51
23.00526798090013
  0
ARC
  8
0
 62
7
 10
313.8106526313
 20
885.4627605974
 30
0
 40
14.99999999999994
 50
23.00526798090016
 51
156.9947320190999
  0
ARC
  8
0
 62
7
 10
562.3106522147
 20
759.7783549642001
 30
0
 40
4.999997794009309
 50
6.190880030467911e-005
 51
117.4452018100998
  0
ARC
  8
0
 62
7
 10
562.3106515788001
 20
865.1471650101
 30
0
 40
4.999998429823297
 50
242.5607747366002
 51
359.9999520763997
  0
ARC
  8
0
 62
7
 10
456.0776156079
 20
803.3797603685
 30
0
 40
81.76327546756751
 50
258.7030269503
 51
266.6157879021064
  0
ARC
  8
0
 62
7
 10
56.5893952562
 20
758.9627605974
 30
0
 40
10.00000000000205
 50
90
 51
104.574216198
  0
ARC
  8
0
 62
7
 10
56.5893952562
 20
865.9627605974
 30
0
 40
10.00000000000203
 50
255.4257838019999
 51
270
  0
ARC
  8
0
 62
7
 10
40.3106526313
 20
870.1952336798
 30
0
 40
10.00000000000004
 50
180
 51
255.4257838019999
  0
ARC
  8
0
 62
7
 10
40.3106526313
 20
754.7302875149001
 30
0
 40
10.00000000000003
 50
104.574216198
 51
180
  0
ARC
  8
0
 62
7
 10
399.8106526313
 20
603.5800625977
 30
0
 40
2
 50
270
 51
29.99999999999973
  0
ARC
  8
0
 62
7
 10
402.644890305
 20
604.7426206191
 30
0
 40
0.9498933222009298
 50
286.3403838252008
 51
350.1460396488974
  0
ARC
  8
0
 62
7
 10
401.5517150466
 20
621.5247480197
 30
0
 40
4.945003773818048
 50
270.6553343819004
 51
0.6409251104004354
  0
ARC
  8
0
 62
7
 10
401.4783430991
 20
614.479238659
 30
0
 40
2.104843121617298
 50
2.745600231101115
 51
86.46092425550019
  0
ARC
  8
0
 62
7
 10
562.2927399538
 20
416.781380588
 30
0
 40
2.01796856286183
 50
359.5688380779
 51
88.02856328240132
  0
ARC
  8
0
 62
7
 10
566.1119864362
 20
498.2506570145
 30
0
 40
79.54094112318606
 50
239.9817793613999
 51
267.2978839301
  0
ARC
  8
0
 62
7
 10
517.1391419295001
 20
592.5102708345
 30
0
 40
5.04968804954014
 50
52.98400568990032
 51
76.9762241783999
  0
ARC
  8
0
 62
7
 10
399.4979188425
 20
592.4765136283
 30
0
 40
5.086133389044225
 50
103.1109998815001
 51
126.9287702502001
  0
ARC
  8
0
 62
7
 10
406.0639909582
 20
601.5681083766
 30
0
 40
2.01201472207393
 50
89.5329634069992
 51
179.659451481799
  0
ARC
  8
0
 62
7
 10
472.3106526313
 20
594.4300625977
 30
0
 40
2
 50
180
 51
270
  0
ARC
  8
0
 62
7
 10
444.3106526313
 20
594.4300625977
 30
0
 40
2
 50
270
 51
0
  0
ARC
  8
0
 62
7
 10
397.8106526313
 20
614.5800625977
 30
0
 40
2
 50
90
 51
180
  0
ARC
  8
0
 62
7
 10
399.8106526313
 20
603.5800625977
 30
0
 40
1.600000000000051
 50
244.9125144386019
 51
115.0874855613982
  0
ARC
  8
0
 62
7
 10
392.7905712716
 20
586.9508742857
 30
0
 40
19.68217384400481
 50
59.0526387793999
 51
63.59757388059993
  0
ARC
  8
0
 62
7
 10
399.8106526313
 20
603.5800625977
 30
0
 40
4.000000000000122
 50
311.4096221092999
 51
0
  0
ARC
  8
0
 62
7
 10
436.3106503641
 20
619.0800704036
 30
0
 40
2.999998105318956
 50
14.14446204380118
 51
180.0000971724001
  0
ARC
  8
0
 62
7
 10
291.5891468174
 20
497.5467235665
 30
0
 40
2.120110100759062
 50
273.268438515701
 51
342.7763097019993
  0
ARC
  8
0
 62
7
 10
336.0321690194
 20
497.5467428834
 30
0
 40
2.120130247479947
 50
197.2240680565997
 51
266.7311837256997
  0
ARC
  8
0
 62
7
 10
319.4645796851
 20
464.3573102622
 30
0
 40
26.22448721596463
 50
168.0263614938998
 51
179.8410490514
  0
ARC
  8
0
 62
7
 10
142.3646150111999
 20
464.4329772422039
 30
0
 40
151.541034458086
 50
359.9988980091985
 51
2.02882884509856
  0
ARC
  8
0
 62
7
 10
301.8007111538
 20
487.6346006572
 30
0
 40
2.204559318353722
 50
248.8527842520996
 51
270.2499401313995
  0
ARC
  8
0
 62
7
 10
302.1157084613
 20
488.2911160172
 30
0
 40
2.931055884849851
 50
197.0837362810998
 51
247.7397349743994
  0
ARC
  8
0
 62
7
 10
485.2566612036
 20
464.4327674678022
 30
0
 40
151.5410099364224
 50
177.9710914636008
 51
180.0010226779008
  0
ARC
  8
0
 62
7
 10
308.1022969895
 20
464.3515620712
 30
0
 40
26.27892760724426
 50
0.171154455500015
 51
11.96127772150004
  0
ARC
  8
0
 62
7
 10
325.5056557991
 20
488.2910579844
 30
0
 40
2.930978112030805
 50
292.2595454574999
 51
342.9169832869995
  0
ARC
  8
0
 62
7
 10
325.8206108141
 20
487.634485506
 30
0
 40
2.204444260972923
 50
269.7494948916005
 51
291.1477807248002
  0
ARC
  8
0
 62
7
 10
318.7105693993
 20
490.9577293802
 30
0
 40
13.66826069667894
 50
69.89227003160008
 51
110.1077299683997
  0
ARC
  8
0
 62
7
 10
309.212166923
 20
490.3879598115
 30
0
 40
14.23820671646165
 50
70.30081838750002
 51
109.6991816125002
  0
ARC
  8
0
 62
7
 10
437.5606526313
 20
606.3300625977
 30
0
 40
3.250000000000114
 50
0
 51
46.30910472049865
  0
ARC
  8
0
 62
7
 10
437.5606526313
 20
606.3300625977
 30
0
 40
3.250000000000078
 50
133.6908952795992
 51
180
  0
ARC
  8
0
 62
7
 10
437.5606526313
 20
606.3300625977
 30
0
 40
4.25
 50
0
 51
180
  0
ARC
  8
0
 62
7
 10
437.5606526313
 20
607.5800625977
 30
0
 40
2.600000000000005
 50
285.9423686056016
 51
0
  0
ARC
  8
0
 62
7
 10
437.5606526313
 20
607.5800625977
 30
0
 40
2.599999999999988
 50
159.8416808113003
 51
254.0576313944008
  0
ARC
  8
0
 62
7
 10
437.5606526313
 20
607.5800625977
 30
0
 40
3.100000000000039
 50
62.7518916647987
 51
117.2481083350998
  0
ARC
  8
0
 62
7
 10
437.5606526313
 20
607.5800625977
 30
0
 40
3.100000000000054
 50
184.5144018112991
 51
233.7506791170996
  0
ARC
  8
0
 62
7
 10
437.5606526313
 20
607.5800625977
 30
0
 40
3.10000000000004
 50
306.2493208829004
 51
355.4855981885997
  0
ARC
  8
0
 62
7
 10
380.0488243977
 20
602.2073228993
 30
0
 40
5.223978947283795
 50
91.24466311470067
 51
123.1400536300993
  0
ARC
  8
0
 62
7
 10
388.2923952159
 20
588.4397701222
 30
0
 40
18.99074274761199
 50
90.39161696759997
 51
107.1965643792999
  0
ARC
  8
0
 62
7
 10
466.6513608826
 20
602.2073314042
 30
0
 40
5.223970292438461
 50
91.24458842989934
 51
123.1400788661004
  0
ARC
  8
0
 62
7
 10
458.440447658
 20
588.4398044907
 30
0
 40
18.99070834037224
 50
90.39160019730007
 51
107.1965796796999
  0
ARC
  8
0
 62
7
 10
520.3449359043
 20
602.2073259088
 30
0
 40
5.22397574977716
 50
91.24456854359963
 51
123.1400602922998
  0
ARC
  8
0
 62
7
 10
536.799420218
 20
602.2073259088
 30
0
 40
5.22397574977716
 50
91.24456854359963
 51
123.1400602922998
  0
ARC
  8
0
 62
7
 10
382.8467070012
 20
568.9273712927
 30
0
 40
13.49784325669334
 50
270.5090423604
 51
290.4302305513001
  0
ARC
  8
0
 62
7
 10
452.9947581317
 20
568.9274151113
 30
0
 40
13.49788712428159
 50
270.5090649369002
 51
290.4301975920001
  0
ARC
  8
0
 62
7
 10
462.4773753466
 20
570.6759042901
 30
0
 40
15.24633877111277
 50
270.4618063960002
 51
289.2108288313002
  0
ARC
  8
0
 62
7
 10
532.6254274743
 20
570.6759564422
 30
0
 40
15.24639094828083
 50
270.4618172700002
 51
289.2107959333002
  0
ARC
  8
0
 62
7
 10
557.3106526312999
 20
388.3616081972
 30
0
 40
10.00000000000008
 50
45.57299599920022
 51
62.50255806519969
  0
ARC
  8
0
 62
7
 10
557.3106526312999
 20
540.0560722751
 30
0
 40
10.00000000000004
 50
301.2757041747999
 51
314.4270040008
  0
ARC
  8
0
 62
7
 10
543.7897555674
 20
525.9941170935
 30
0
 40
5.001005074759279
 50
214.7812533586005
 51
284.3129124480778
  0
ARC
  8
0
 62
7
 10
557.3108910103
 20
540.0559704485
 30
0
 40
9.999758998866611
 50
314.4264349180002
 51
0.000575044499997945
  0
ARC
  8
0
 62
7
 10
557.3108910103
 20
388.3617094688
 30
0
 40
9.9997589988667
 50
359.9994249555003
 51
45.57356508200006
  0
ARC
  8
0
 62
7
 10
342.5484845337
 20
526.5857011666
 30
0
 40
20.00000000000005
 50
285.4686456647
 51
342.7322759364002
  0
ARC
  8
0
 62
7
 10
513.4564082372
 20
536.4287422221
 30
0
 40
21.00112633296575
 50
4.148264619600088
 51
57.8030239694999
  0
ARC
  8
0
 62
7
 10
397.8533506812
 20
521.607082599
 30
0
 40
35.53585530536808
 50
112.5331174487001
 51
177.6829697253
  0
ARC
  8
0
 62
7
 10
458.3450458154
 20
491.0495147233
 30
0
 40
125.5885991756831
 50
285.9226312214
 51
292.6529480149
  0
ARC
  8
0
 62
7
 10
462.3676655502
 20
411.4559890783
 30
0
 40
3.268003673707645
 50
351.718202155999
 51
35.53579207430042
  0
ARC
  8
0
 62
7
 10
462.5278851195
 20
411.3986317404
 30
0
 40
3.992935824989119
 50
354.0577613583998
 51
38.02213897839989
  0
ARC
  8
0
 62
7
 10
462.1430352841
 20
410.5835773368
 30
0
 40
3.481801807544045
 50
326.9940599968993
 51
6.624751591400089
  0
ARC
  8
0
 62
7
 10
453.0344579971925
 20
815.7768705563047
 30
0
 40
450.3535886661273
 50
267.5970987789495
 51
270.3420560407495
  0
ARC
  8
0
 62
7
 10
564.33941109
 20
540.28165269
 30
0
 40
30.02910720292653
 50
184.4269300224
 51
209.5727859233
  0
ARC
  8
0
 62
7
 10
228.794306407698
 20
110.4290371170999
 30
0
 40
398.5010265909313
 50
89.99764915159973
 51
92.15483090039972
  0
ARC
  8
0
 62
7
 10
161.6597270341
 20
508.2755271099
 30
0
 40
0.6740287385041944
 50
74.1414291252032
 51
118.2062476065931
  0
ARC
  8
0
 62
7
 10
162.5074416032
 20
462.0587633203
 30
0
 40
46.86983536717355
 50
89.84535713299998
 51
90.81115207569995
  0
ARC
  8
0
 62
7
 10
162.699629187497
 20
469.5219340984
 30
0
 40
39.40654861511526
 50
89.36448695279562
 51
90.09550347369567
  0
ARC
  8
0
 62
7
 10
165.107127045
 20
508.2761013464
 30
0
 40
0.6734882019940911
 50
74.12454138820216
 51
118.2238616647986
  0
ARC
  8
0
 62
7
 10
165.9173851797987
 20
466.5721619574
 30
0
 40
42.35636638075592
 50
89.87526851439829
 51
90.84686271569829
  0
ARC
  8
0
 62
7
 10
166.1026157659987
 20
461.8191686606
 30
0
 40
47.10935114991157
 50
89.41433024339843
 51
90.11313605119837
  0
ARC
  8
0
 62
7
 10
166.6552467811
 20
508.6624682332
 30
0
 40
0.2730096621968164
 50
63.19904495439431
 51
105.0942827038952
  0
ARC
  8
0
 62
7
 10
152.4664854379
 20
508.2755271099
 30
0
 40
0.6740287385041944
 50
74.1414291252032
 51
118.2062476065995
  0
ARC
  8
0
 62
7
 10
153.314200007
 20
462.0587633203
 30
0
 40
46.86983536717355
 50
89.84535713299999
 51
90.81115207570001
  0
ARC
  8
0
 62
7
 10
153.506387591197
 20
469.5219340984
 30
0
 40
39.40654861511526
 50
89.36448695279562
 51
90.09550347369567
  0
ARC
  8
0
 62
7
 10
155.9139444562
 20
508.2756568182
 30
0
 40
0.673907802901373
 50
74.13726811169846
 51
118.2104086201006
  0
ARC
  8
0
 62
7
 10
156.7240495347986
 20
466.591207186
 30
0
 40
42.33732140229421
 50
89.87508512719809
 51
90.84707606729816
  0
ARC
  8
0
 62
7
 10
156.9093645732985
 20
461.8107840945
 30
0
 40
47.11773568079605
 50
89.41438655409814
 51
90.11310424929816
  0
ARC
  8
0
 62
7
 10
157.4620192639
 20
508.6624991405
 30
0
 40
0.27297572688682
 50
63.19875757029362
 51
105.0927856871926
  0
ARC
  8
0
 62
7
 10
122.7003059008
 20
512.997466103
 30
0
 40
4.732180098812678
 50
239.2632438939994
 51
264.1857982430005
  0
ARC
  8
0
 62
7
 10
127.9360595054
 20
510.6881795088
 30
0
 40
2.430645141622315
 50
270.2380240910009
 51
310.5420857598996
  0
ARC
  8
0
 62
7
 10
125.0820968951968
 20
596.1715462292
 30
0
 40
87.25659460656797
 50
270.0615827993021
 51
270.9105161922021
  0
ARC
  8
0
 62
7
 10
126.805503302
 20
507.5252835734
 30
0
 40
1.440615243782049
 50
65.97179325580009
 51
103.5213178375006
  0
ARC
  8
0
 62
7
 10
126.6192310531
 20
509.4093103266
 30
0
 40
0.9592889827646739
 50
266.5219436534003
 51
323.6750843554988
  0
ARC
  8
0
 62
7
 10
125.1763294084
 20
517.9500491784
 30
0
 40
9.598664960577427
 50
269.9973307766
 51
278.2944404144001
  0
ARC
  8
0
 62
7
 10
125.1000346773
 20
516.9067733226
 30
0
 40
8.555725300030954
 50
261.8226422460999
 51
270.5079408095998
  0
ARC
  8
0
 62
7
 10
123.8490299666
 20
510.5136760676
 30
0
 40
2.075917251414203
 50
232.6737703450007
 51
270.9400320399994
  0
ARC
  8
0
 62
7
 10
123.257747951
 20
506.9379706114
 30
0
 40
2.0373777100103
 50
77.50907036209985
 51
109.1234871565995
  0
ARC
  8
0
 62
7
 10
125.3126636425965
 20
615.6324276413
 30
0
 40
106.7175132747648
 50
269.1332829408018
 51
269.9265631375019
  0
ARC
  8
0
 62
7
 10
125.3194641556
 20
524.6055813165
 30
0
 40
16.55770120473612
 50
269.1835349416002
 51
279.1278930194
  0
ARC
  8
0
 62
7
 10
134.4017175436
 20
510.3970939975
 30
0
 40
2.141121881000541
 50
229.3376253425004
 51
272.2035099222008
  0
ARC
  8
0
 62
7
 10
137.7006153435
 20
526.4863371429
 30
0
 40
18.4375528371861
 50
269.4740181245001
 51
279.2710604072999
  0
ARC
  8
0
 62
7
 10
140.668359198
 20
511.3142684377
 30
0
 40
3.024639502900046
 50
270.0500951579988
 51
305.5167534844014
  0
ARC
  8
0
 62
7
 10
138.0175019442967
 20
585.1215142702
 30
0
 40
76.20904217518044
 50
270.0510577866025
 51
271.0230662828025
  0
ARC
  8
0
 62
7
 10
139.7054196136
 20
507.1693076791
 30
0
 40
1.7855505641436
 50
70.49369907389894
 51
100.5594045923004
  0
ARC
  8
0
 62
7
 10
137.5899486249
 20
519.8597580523
 30
0
 40
11.4934849269414
 50
270.1681855243
 51
278.0200925203
  0
ARC
  8
0
 62
7
 10
137.5117970809
 20
520.7712969905
 30
0
 40
12.40547894319635
 50
263.2507429544003
 51
270.5167777558
  0
ARC
  8
0
 62
7
 10
135.9901562972
 20
509.7568744935
 30
0
 40
1.306639534273759
 50
228.8546164622995
 51
272.7940197114998
  0
ARC
  8
0
 62
7
 10
137.2689710045
 20
526.6324075196
 30
0
 40
18.5846986636213
 50
261.3817276402
 51
270.808956671
  0
ARC
  8
0
 62
7
 10
125.0529294012
 20
524.8717347651
 30
0
 40
16.82220137972492
 50
260.3081381097001
 51
270.1042069636001
  0
ARC
  8
0
 62
7
 10
140.8129417744
 20
509.8027689192
 30
0
 40
2.532064382634524
 50
266.7865284778007
 51
309.5576027804995
  0
ARC
  8
0
 62
7
 10
137.6744787815
 20
525.376252863
 30
0
 40
18.34791234174941
 50
269.5530689968999
 51
279.3994761436001
  0
ARC
  8
0
 62
7
 10
137.3149185608
 20
525.8417926173
 30
0
 40
18.81413891547649
 50
261.3461017712
 51
270.6591526205001
  0
ARC
  8
0
 62
7
 10
134.6338509616
 20
509.9945751299
 30
0
 40
2.75680109944896
 50
233.8229972261996
 51
266.8849131283004
  0
ARC
  8
0
 62
7
 10
125.2792976224
 20
523.7445617761
 30
0
 40
16.71680945433814
 50
269.3289861575
 51
279.1797101301
  0
ARC
  8
0
 62
7
 10
125.0528935129
 20
523.4649326667
 30
0
 40
16.4360624883474
 50
260.0782940934998
 51
270.1067802478
  0
ARC
  8
0
 62
7
 10
122.7398993967
 20
512.0070894728
 30
0
 40
4.760775198947377
 50
238.9128556337999
 51
263.7416908236
  0
ARC
  8
0
 62
7
 10
166.6384336602
 20
507.507613381
 30
0
 40
0.4218606041198185
 50
70.63089609300461
 51
97.39274633450305
  0
ARC
  8
0
 62
7
 10
166.0842546940918
 20
457.5545218656001
 30
0
 40
50.37392587903905
 50
89.4314017952907
 51
90.08491996729062
  0
ARC
  8
0
 62
7
 10
165.9313330969
 20
464.3627047021
 30
0
 40
43.56575800703009
 50
89.89707480919999
 51
90.84169767239996
  0
ARC
  8
0
 62
7
 10
165.1562123617
 20
506.8457649967
 30
0
 40
1.086435269674773
 50
82.85426507380117
 51
109.7760692003992
  0
ARC
  8
0
 62
7
 10
162.6862500199015
 20
466.6561673611
 30
0
 40
41.27225819911829
 50
89.37464181290213
 51
90.07261273400208
  0
ARC
  8
0
 62
7
 10
162.5251894933955
 20
459.0863961873
 30
0
 40
48.8421173090435
 50
89.87242152459463
 51
90.79921677189468
  0
ARC
  8
0
 62
7
 10
161.7087609784
 20
506.845641613
 30
0
 40
1.086558707207722
 50
82.85464868589787
 51
109.7749429506
  0
ARC
  8
0
 62
7
 10
157.445204572
 20
507.5076532109
 30
0
 40
0.4218188801864202
 50
70.63070462410316
 51
97.39111288919453
  0
ARC
  8
0
 62
7
 10
156.8910201232027
 20
457.5500430266
 30
0
 40
50.37840472347651
 50
89.43142644190307
 51
90.08492040750308
  0
ARC
  8
0
 62
7
 10
156.7380606245025
 20
464.3716124739
 30
0
 40
43.55685030508937
 50
89.89701314490327
 51
90.84178999160331
  0
ARC
  8
0
 62
7
 10
155.9629822883
 20
506.8457332705
 30
0
 40
1.086469023373579
 50
82.85351669839967
 51
109.776074937997
  0
ARC
  8
0
 62
7
 10
153.4930084237015
 20
466.6561673611
 30
0
 40
41.27225819911829
 50
89.37464181290208
 51
90.07261273400205
  0
ARC
  8
0
 62
7
 10
153.3319478971955
 20
459.0863961873
 30
0
 40
48.8421173090435
 50
89.87242152459466
 51
90.79921677189472
  0
ARC
  8
0
 62
7
 10
152.5155296867
 20
506.8455484963
 30
0
 40
1.086649819212269
 50
82.85579850290208
 51
109.773793133601
  0
ARC
  8
0
 62
7
 10
228.7932825453
 20
118.4867091749
 30
0
 40
389.4433525587111
 50
89.99744384260001
 51
92.20482169020001
  0
ARC
  8
0
 62
7
 10
304.8190500571
 20
408.2532966937
 30
0
 40
2.999331407539792
 50
202.2751481691017
 51
269.9262978485001
  0
ARC
  8
0
 62
7
 10
322.8021682198
 20
408.2534193725
 30
0
 40
2.9994542130277
 50
270.0755588529015
 51
337.7232803313988
  0
ARC
  8
0
 62
7
 10
312.6108817018985
 20
290.5079560304
 30
0
 40
159.7018549492696
 50
92.16355093819949
 51
93.06744393749946
  0
ARC
  8
0
 62
7
 10
315.0981697177481
 20
412.8838998233462
 30
0
 40
37.05350460515628
 50
77.65370918839197
 51
80.94838847893917
  0
ARC
  8
0
 62
7
 10
142.3646150112
 20
464.4271479533
 30
0
 40
151.5410344580846
 50
357.9711711549
 51
0.001101990799989537
  0
ARC
  8
0
 62
7
 10
319.518901673
 20
464.5085879602
 30
0
 40
26.27882561185688
 50
180.1712092699998
 51
191.9613801846999
  0
ARC
  8
0
 62
7
 10
308.1567416386
 20
464.5027771371
 30
0
 40
26.22446652003184
 50
348.0264363189
 51
359.8411315041
  0
ARC
  8
0
 62
7
 10
485.2566612036
 20
464.4273577275978
 30
0
 40
151.5410099364208
 50
179.9989773220991
 51
182.0289085363991
  0
ARC
  8
0
 62
7
 10
332.1542133512106
 20
-14.89377891219925
 30
0
 40
465.7341942735744
 50
93.9235453092013
 51
94.1557131412013
  0
ARC
  8
0
 62
7
 10
267.4860078403017
 20
249.3909787780995
 30
0
 40
207.3723288069406
 50
72.75150472060048
 51
73.28161353100049
  0
ARC
  8
0
 62
7
 10
302.8063254682
 20
411.0417426304
 30
0
 40
3.018501525260569
 50
336.9621873001997
 51
89.70393072259952
  0
ARC
  8
0
 62
7
 10
324.8117416464
 20
411.0438693923
 30
0
 40
3.01635980396144
 50
90.23485623409839
 51
203.0990257429999
  0
ARC
  8
0
 62
7
 10
306.5098681163
 20
409.4673332396
 30
0
 40
1.005798886958819
 50
156.9903153706958
 51
269.7124106279999
  0
ARC
  8
0
 62
7
 10
321.1123987175
 20
409.4666973893
 30
0
 40
1.005158656629442
 50
270.2327025473003
 51
23.06457145400015
  0
ARC
  8
0
 62
7
 10
322.6771332796
 20
408.4396448113
 30
0
 40
2.995512751339136
 50
270.0363123789006
 51
333.708240867701
  0
ARC
  8
0
 62
7
 10
304.9458968698
 20
408.4424262345
 30
0
 40
2.998295767817747
 50
206.3247736432997
 51
269.9306731101015
  0
ARC
  8
0
 62
7
 10
377.3106526313
 20
590.4300625977
 30
0
 40
2.000000000000634
 50
125.0316505289987
 51
180
  0
ARC
  8
0
 62
7
 10
539.3106526312999
 20
590.4300625977
 30
0
 40
2.000000000000682
 50
0
 51
54.96834947099997
  0
ARC
  8
0
 62
7
 10
400.3106526313
 20
621.5800625977
 30
0
 40
5.000000000000114
 50
270
 51
0
  0
ARC
  8
0
 62
7
 10
504.3106526313
 20
623.0800625977
 30
0
 40
7.000000000000114
 50
0
 51
90
  0
ARC
  8
0
 62
7
 10
412.3106526313
 20
623.0800625977
 30
0
 40
7
 50
90
 51
180
  0
ARC
  8
0
 62
7
 10
333.3106526313
 20
514.2228771065001
 30
0
 40
5.5
 50
0
 51
19.99999999999977
  0
ARC
  8
0
 62
7
 10
-29.3464591098
 20
531.8936497404
 30
0
 40
338.0098303938744
 50
348.4872504232
 51
352.0980930594
  0
ARC
  8
0
 62
7
 10
631.6329670326001
 20
527.4787561363
 30
0
 40
312.3069816793821
 50
187.737673402
 51
191.6478357222
  0
ARC
  8
0
 62
7
 10
534.1933200987962
 20
406.0550245205054
 30
0
 40
4.97896686494617
 50
62.87401418038888
 51
176.4387149252891
  0
ARC
  8
0
 62
7
 10
458.3106526313
 20
491.4300625977
 30
0
 40
126
 50
271.1777465194999
 51
285.8870382585
  0
ARC
  8
0
 62
7
 10
492.7630643754345
 20
408.8784833077997
 30
0
 40
36.54748439473141
 50
297.0182538631331
 51
356.0553775433331
  0
ARC
  8
0
 62
7
 10
56.5893952562
 20
410.9300625977
 30
0
 40
10.00000000000193
 50
90
 51
104.5742161979999
  0
ARC
  8
0
 62
7
 10
56.5893952562
 20
517.9300625977
 30
0
 40
10.00000000000198
 50
255.425783802
 51
270
  0
ARC
  8
0
 62
7
 10
40.3106526313
 20
522.1625356802
 30
0
 40
10.00000000000004
 50
180
 51
255.4257838019999
  0
ARC
  8
0
 62
7
 10
40.3106526313
 20
406.6975895152
 30
0
 40
9.999999999999977
 50
104.574216198
 51
180
  0
ARC
  8
0
 62
7
 10
22.9204882352
 20
406.9055814427
 30
0
 40
284.8141722763565
 50
8.703298829299996
 51
11.65327384630002
  0
ARC
  8
0
 62
7
 10
601.3222148555987
 20
407.3575249979022
 30
0
 40
281.4114507608937
 50
168.2991044262069
 51
171.473713009793
  0
CIRCLE
  8
0
 62
7
 10
458.3106526313
 20
812.4627605974
 30
0
 40
53.00000000000003
  0
CIRCLE
  8
0
 62
7
 10
388.1625949247
 20
852.9627605974
 30
0
 40
9.500000000000041
  0
CIRCLE
  8
0
 62
7
 10
458.3106526313
 20
731.4627605974
 30
0
 40
9.500000000000197
  0
CIRCLE
  8
0
 62
7
 10
388.1625949247
 20
771.9627605974
 30
0
 40
9.5
  0
CIRCLE
  8
0
 62
7
 10
458.3106526313
 20
893.4627605974
 30
0
 40
9.500000000000197
  0
CIRCLE
  8
0
 62
7
 10
528.4587103378
 20
852.9627605974
 30
0
 40
9.499999999999991
  0
CIRCLE
  8
0
 62
7
 10
528.4587103378
 20
771.9627605974
 30
0
 40
9.500000000000147
  0
CIRCLE
  8
0
 62
2
  6
DASHDOT
 10
809.949862283
 20
464.4300625977
 30
0
 40
69.99999999999989
  0
CIRCLE
  8
0
 62
2
  6
DASHDOT
 10
809.949862283
 20
464.4300625977
 30
0
 40
75
  0
CIRCLE
  8
0
 62
7
 10
809.949862283
 20
464.4300625977
 30
0
 40
35.49999999999977
  0
CIRCLE
  8
0
 62
7
 10
809.949862283
 20
464.4300625977
 30
0
 40
56.00000000000011
  0
CIRCLE
  8
0
 62
7
 10
809.949862283
 20
464.4300625977
 30
0
 40
58.00000000000011
  0
CIRCLE
  8
0
 62
7
 10
809.949862283
 20
464.4300625977
 30
0
 40
35.99999999999989
  0
CIRCLE
  8
0
 62
7
 10
528.4587103378
 20
771.9627605974
 30
0
 40
12.00000000000011
  0
CIRCLE
  8
0
 62
7
 10
388.1625949247
 20
771.9627605974
 30
0
 40
12.00000000000011
  0
CIRCLE
  8
0
 62
7
 10
528.4587103378
 20
852.9627605974
 30
0
 40
12.00000000000011
  0
CIRCLE
  8
0
 62
7
 10
388.1625949247
 20
852.9627605974
 30
0
 40
12
  0
CIRCLE
  8
0
 62
7
 10
458.3106526313
 20
893.4627605974
 30
0
 40
12.00000000000011
  0
CIRCLE
  8
0
 62
7
 10
313.8106526313
 20
885.4627605974
 30
0
 40
6
  0
CIRCLE
  8
0
 62
7
 10
313.8106526313
 20
737.4627605974
 30
0
 40
6
  0
CIRCLE
  8
0
 62
7
 10
313.8106526313
 20
737.4627605974
 30
0
 40
9
  0
CIRCLE
  8
0
 62
7
 10
313.8106526313
 20
885.4627605974
 30
0
 40
9.000000000000114
  0
CIRCLE
  8
0
 62
7
 10
437.5606526313
 20
607.5800625977
 30
0
 40
2.5
  0
LINE
  8
1
 62
2
 10
532.2521771524999
 20
325.4858091653
 30
0
 11
493.8540832349
 21
325.4858091653
 31
0
  0
LINE
  8
1
 62
2
 10
493.8540832349
 20
325.4858091653
 30
0
 11
461.2380988344
 21
404.9300612268
 31
0
  0
LINE
  8
1
 62
2
 10
463.2466195798581
 20
402.2954752371153
 30
0
 11
461.2380988344
 21
404.9300612268
 31
0
  0
LINE
  8
1
 62
2
 10
461.6602358291524
 20
401.6441824585494
 30
0
 11
461.2380988344
 21
404.9300612268
 31
0
  0
LINE
  8
1
 62
2
 10
934.8747694401
 20
546.2610695399
 30
0
 11
912.8452667125
 21
546.2610695399
 31
0
  0
LINE
  8
1
 62
2
 10
912.8452667125
 20
546.2610695399
 30
0
 11
871.2094026629
 21
522.214299942855
 31
0
  0
LINE
  8
1
 62
2
 10
873.5516153391617
 20
524.5572123827761
 30
0
 11
871.2094026629
 21
522.214299942855
 31
0
  0
LINE
  8
1
 62
2
 10
874.4092745615692
 20
523.0722152965384
 30
0
 11
871.2094026629
 21
522.214299942855
 31
0
  0
DIMENSION
  8
1
  6
CONTINUOUS
 62
2
  2
*D0
  3
DMST_1
 10
609.7435544236
 20
905.4627628027
 30
0
 11
607.1435544236
 21
812.46276059735
 31
0
 12
0
 22
0
 32
0
 70
1
 13
583.3106526312999
 23
719.462758392
 33
0
 14
583.3106526312999
 24
905.4627628027
 34
0
 53
0
  0
DIMENSION
  8
1
  6
CONTINUOUS
 62
2
  2
*D1
  3
DMST_1
 10
585.3106566844
 20
334.4719758709
 30
0
 11
297.8106477437
 21
337.0719758709
 31
0
 12
0
 22
0
 32
0
 70
0
 13
10.310638803
 23
408.4300608692
 33
0
 14
585.3106566844
 24
408.4300608692
 34
0
 53
0
  0
DIMENSION
  8
1
  6
CONTINUOUS
 62
2
  2
*D2
  3
DMST_1
 10
312.310654777
 20
342.4798565309
 30
0
 11
161.31064679
 21
345.0798565309
 31
0
 12
0
 22
0
 32
0
 70
0
 13
10.310638803
 23
408.4300608692
 33
0
 14
312.310654777
 24
414.060203856
 34
0
 53
0
  0
DIMENSION
  8
1
  6
CONTINUOUS
 62
2
  2
*D3
  3
DMST_1
 10
585.3106566844
 20
342.4798565309
 30
0
 11
458.3106526313
 21
345.0798565309
 31
0
 12
0
 22
0
 32
0
 70
0
 13
315.3106459556
 23
414.060203856
 33
0
 14
585.3106566844
 24
408.4300608692
 34
0
 53
0
  0
DIMENSION
  8
1
  6
CONTINUOUS
 62
2
  2
*D4
  3
DMST_1
 10
585.3106566844
 20
350.1101591825
 30
0
 11
521.81065465785
 21
352.7101591825
 31
0
 12
0
 22
0
 32
0
 70
0
 13
458.3106526313
 23
353.6013701988
 33
0
 14
585.3106566844
 24
408.4300608692
 34
0
 53
0
  0
DIMENSION
  8
1
  6
CONTINUOUS
 62
2
  2
*D5
  3
DMST_1
 10
458.3106526313
 20
350.1101591825
 30
0
 11
386.81064929345
 21
352.7101591825
 31
0
 12
0
 22
0
 32
0
 70
0
 13
315.3106459556
 23
414.060203856
 33
0
 14
458.3106526313
 24
353.6013701988
 34
0
 53
0
  0
DIMENSION
  8
1
  6
CONTINUOUS
 62
2
  2
*D6
  3
DMST_1
 10
605.6439859646
 20
464.4300625977
 30
0
 11
603.0439859646
 21
414.43006185265
 31
0
 12
0
 22
0
 32
0
 70
0
 13
508.3106533763
 23
364.4300611076
 33
0
 14
605.8231868809999
 24
464.4300625977
 34
0
 50
90
 53
0
  0
DIMENSION
  8
1
  6
CONTINUOUS
 62
2
  2
*D7
  3
DMST_1
 10
613.3209959381001
 20
631.0800598321
 30
0
 11
610.7209959381
 21
497.75506046985
 31
0
 12
0
 22
0
 32
0
 70
0
  1
267
 13
508.3106533763
 23
364.4300611076
 33
0
 14
495.3106531081
 24
631.0800598321
 34
0
 50
90
 53
0
  0
DIMENSION
  8
1
  6
CONTINUOUS
 62
2
  2
*D8
  3
DMST_2
 10
740.2758868621691
 20
436.6715116798759
 30
0
 11
937.8353325681711
 21
518.1791893834404
 31
0
 12
0
 22
0
 32
0
 70
3
 15
879.623837703831
 25
492.1886135155241
 35
0
 40
0
 53
0
  0
DIMENSION
  8
1
  6
CONTINUOUS
 62
2
  2
*D9
  3
DMST_2
 10
741.980898808765
 20
447.6902894738462
 30
0
 11
938.4717379835719
 21
498.7608353711326
 31
0
 12
0
 22
0
 32
0
 70
3
 15
877.918825757235
 25
481.1698357215537
 35
0
 40
0
 53
0
  0
DIMENSION
  8
1
  6
CONTINUOUS
 62
2
  2
*D10
  3
DMST_2
 10
754.1411337304077
 20
459.805582373602
 30
0
 11
940.0622809162154
 21
477.8204824524478
 31
0
 12
0
 22
0
 32
0
 70
3
 15
865.7585908355924
 25
469.054542821798
 35
0
 40
0
 53
0
  0
DIMENSION
  8
1
  6
CONTINUOUS
 62
2
  2
*D11
  3
DMST_1
 10
728.3681568559309
 20
419.7822704953923
 30
0
 11
935.4783072589855
 21
536.092794868481
 31
0
 12
0
 22
0
 32
0
 70
3
 15
891.5315677100691
 25
509.0778547000077
 35
0
 40
0
 53
0
  0
ENDSEC
  0
EOF
