  0
SECTION
  2
HEADER
  9
$ACADVER
  1
AC1009
  9
$INSBASE
 10
0
 20
0
  9
$EXTMIN
 10
25.7069129462
 20
209.5901835637387
  9
$EXTMAX
 10
1018.344325413
 20
892.2461858925
  9
$LIMMIN
 10
25.7069129462
 20
209.5901835637387
  9
$LIMMAX
 10
1018.344325413
 20
892.2461858925
  9
$VIEWCTR
 10
10
 20
10
  9
$VIEWSIZE
 40
10
  9
$SNAPMODE
 70
0
  9
$SNAPUNIT
 10
1
 20
1
  9
$SNAPBASE
 10
0
 20
0
  9
$SNAPANG
 50
0
  9
$SNAPSTYLE
 70
0
  9
$SNAPISOPAIR
 70
0
  9
$GRIDMODE
 70
0
  9
$GRIDUNIT
 10
0
 20
0
  9
$ORTHOMODE
 70
0
  9
$REGENMODE
 70
1
  9
$FILLMODE
 70
1
  9
$QTEXTMODE
 70
0
  9
$DRAGMODE
 70
2
  9
$LTSCALE
 40
1
  9
$OSMODE
 70
0
  9
$ATTMODE
 70
1
  9
$TEXTSIZE
 40
3.5
  9
$TRACEWID
 40
0.5
  9
$TEXTSTYLE
  7
STANDARD
  9
$CLAYER
  8
0
  9
$CELTYPE
  6
BYLAYER
  9
$CECOLOR
 62
256
  9
$DIMSCALE
 40
1
  9
$DIMASZ
 40
0.18
  9
$DIMEXO
 40
0.0625
  9
$DIMDLI
 40
0.38
  9
$DIMRND
 40
0
  9
$DIMDLE
 40
0
  9
$DIMEXE
 40
0.18
  9
$DIMTP
 40
0
  9
$DIMTM
 40
0
  9
$DIMTXT
 40
0.18
  9
$DIMCEN
 40
0.09
  9
$DIMTSZ
 40
0
  9
$DIMTOL
 70
0
  9
$DIMLIM
 70
0
  9
$DIMTIH
 70
1
  9
$DIMTOH
 70
1
  9
$DIMSE1
 70
0
  9
$DIMSE2
 70
0
  9
$DIMTAD
 70
0
  9
$DIMZIN
 70
0
  9
$DIMBLK
  1

  9
$DIMASO
 70
1
  9
$DIMSHO
 70
1
  9
$DIMPOST
  1

  9
$DIMAPOST
  1

  9
$DIMALT
 70
0
  9
$DIMALTD
 70
2
  9
$DIMALTF
 40
25.4
  9
$DIMLFAC
 40
1
  9
$DIMTOFL
 70
0
  9
$DIMTVP
 40
0
  9
$DIMTIX
 70
0
  9
$DIMSOXD
 70
0
  9
$DIMSAH
 70
0
  9
$DIMBLK1
  1

  9
$DIMBLK2
  1

  9
$DIMSTYLE
  2
*UNNAMED
  9
$DIMCLRD
 70
0
  9
$DIMCLRE
 70
0
  9
$DIMCLRT
 70
0
  9
$DIMTFAC
 40
1
  9
$DIMGAP
 40
0.09
  9
$LUNITS
 70
2
  9
$LUPREC
 70
4
  9
$AXISMODE
 70
0
  9
$AXISUNIT
 10
0
 20
0
  9
$SKETCHINC
 40
0.1
  9
$FILLETRAD
 40
2
  9
$AUNITS
 70
0
  9
$AUPREC
 70
0
  9
$MENU
  1
ACAD
  9
$ELEVATION
 40
0
  9
$THICKNESS
 40
0
  9
$VIEWDIR
 10
0
 20
0
 30
1
  9
$LIMCHECK
 70
0
  9
$BLIPMODE
 70
1
  9
$CHAMFERA
 40
0
  9
$CHAMFERB
 40
0
  9
$FASTZOOM
 70
1
  9
$SKPOLY
 70
0
  9
$ANGBASE
 50
0
  9
$ANGDIR
 70
0
  9
$PDMODE
 70
0
  9
$PDSIZE
 40
0
  9
$PLINEWID
 40
0
  9
$COORDS
 70
2
  0
ENDSEC
  0
SECTION
  2
TABLES
  0
TABLE
  2
DIMSTYLE
 70
2
  0
DIMSTYLE
  2
DMST_1
 70
0
  3

  4

  5

  6

  7

 40
1
 41
3.200000000000001
 42
0.5
 43
7
 44
1.5
 45
0
 46
0
 47
0
 48
0
140
3.200000000000001
141
0
142
0
143
25.4
144
1
145
0
146
1
147
0.09
 71
0
 72
0
 73
0
 74
0
 75
0
 76
0
 77
1
 78
9
170
0
171
2
172
0
173
0
174
0
175
0
176
2
177
2
178
2
  0
DIMSTYLE
  2
DMST_2
 70
0
  3

  4

  5

  6

  7

 40
1
 41
3.200000000000001
 42
0.5
 43
7
 44
1.5
 45
0
 46
0
 47
0
 48
0
140
3.200000000000001
141
0
142
0
143
25.4
144
1
145
0
146
1
147
0.09
 71
0
 72
0
 73
0
 74
0
 75
0
 76
0
 77
1
 78
9
170
0
171
2
172
1
173
0
174
0
175
0
176
2
177
2
178
2
  0
ENDTAB
  0
TABLE
  2
LTYPE
 70
9
  0
LTYPE
  2
CONTINUOUS
 70
64
  3
Solid line
 72
65
 73
0
 40
0
  0
LTYPE
  2
BORDER
 70
64
  3
__ __ . __ __ .
 72
65
 73
6
 40
45.71356504781316
 49
13.06101858508947
 49
-6.530509292544737
 49
13.06101858508947
 49
-6.530509292544737
 49
0
 49
-6.530509292544737
  0
LTYPE
  2
CENTER
 70
64
  3
____ _ ____ _
 72
65
 73
4
 40
52.2440743403579
 49
32.65254646272368
 49
-6.530509292544737
 49
6.530509292544737
 49
-6.530509292544737
  0
LTYPE
  2
DASHDOT
 70
64
  3
__ . __ . __ .
 72
65
 73
4
 40
26.12203717017895
 49
13.06101858508947
 49
-6.530509292544737
 49
0
 49
-6.530509292544737
  0
LTYPE
  2
DASHED
 70
64
  3
__ __ __ __ __
 72
65
 73
2
 40
19.59152787763421
 49
13.06101858508947
 49
-6.530509292544737
  0
LTYPE
  2
DIVIDE
 70
64
  3
__ . . __ . . 
 72
65
 73
6
 40
32.65254646272368
 49
13.06101858508947
 49
-6.530509292544737
 49
0
 49
-6.530509292544737
 49
0
 49
-6.530509292544737
  0
LTYPE
  2
DOT
 70
64
  3
..............
 72
65
 73
4
 40
13.06101858508947
 49
0
 49
-6.530509292544737
 49
0
 49
-6.530509292544737
  0
LTYPE
  2
HIDDEN
 70
64
  3
_ _ _ _ _ _ _
 72
65
 73
2
 40
9.795763938817107
 49
6.530509292544737
 49
-3.265254646272369
  0
LTYPE
  2
PHANTOM
 70
64
  3
_____ _ _ _____ _ _ 
 72
65
 73
6
 40
65.30509292544737
 49
32.65254646272368
 49
-6.530509292544737
 49
6.530509292544737
 49
-6.530509292544737
 49
6.530509292544737
 49
-6.530509292544737
  0
ENDTAB
  0
TABLE
  2
LAYER
 70
3
  0
LAYER
  2
0
 70
0
 62
7
  6
CONTINUOUS
  0
LAYER
  2
1
 70
0
 62
7
  6
CONTINUOUS
  0
ENDTAB
  0
TABLE
  2
STYLE
 70
4
  0
STYLE
  2
STANDARD
 70
0
 40
0
 41
1
 50
0
 71
0
 42
3.5
  3
txt
  4

  0
STYLE
  2
SIMPLEX
 70
0
 40
0
 41
1
 50
0
 71
0
 42
3.5
  3
simplex
  4

  0
STYLE
  2
COMPLEX
 70
0
 40
0
 41
1
 50
0
 71
0
 42
3.5
  3
complex
  4

  0
STYLE
  2
ITALIC
 70
0
 40
0
 41
1
 50
0
 71
0
 42
3.5
  3
italic
  4

  0
ENDTAB
  0
TABLE
  2
VIEW
 70
0
  0
ENDTAB
  0
ENDSEC
  0
SECTION
  2
BLOCKS
  0
BLOCK
  8
1
  2
*D0
 70
1
 10
0
 20
0
 30
0
  0
LINE
  8
1
 62
2
 10
51.25568641270002
 20
322.5991389006
 30
0
 11
378.255693446
 21
322.5991389006
 31
0
  0
LINE
  8
1
 62
2
 10
378.255693446
 20
399.802749949
 30
0
 11
378.255693446
 21
321.0991389006
 31
0
  0
LINE
  8
1
 62
2
 10
51.25568641270002
 20
388.0527484887
 30
0
 11
51.25568641270002
 21
321.0991389006
 31
0
  0
LINE
  8
1
 62
2
 10
378.255693446
 20
322.5991389006
 30
0
 11
375.055693446
 21
321.7351389006
 31
0
  0
LINE
  8
1
 62
2
 10
378.255693446
 20
322.5991389006
 30
0
 11
375.055693446
 21
323.4631389006
 31
0
  0
LINE
  8
1
 62
2
 10
51.25568641270002
 20
322.5991389006
 30
0
 11
54.45568641270002
 21
323.4631389006
 31
0
  0
LINE
  8
1
 62
2
 10
51.25568641270002
 20
322.5991389006
 30
0
 11
54.45568641270002
 21
321.7351389006
 31
0
  0
TEXT
  8
1
 62
2
 10
210.4869712214602
 20
323.5991389006
 30
0
 40
3.200000000000001
  1
327
 41
0.9
 51
15
  0
ENDBLK
  8
0
  0
BLOCK
  8
1
  2
*D1
 70
1
 10
0
 20
0
 30
0
  0
LINE
  8
1
 62
2
 10
51.25568641269996
 20
317.0381862688
 30
0
 11
681.2556965454
 21
317.0381862688
 31
0
  0
LINE
  8
1
 62
2
 10
681.2556965454
 20
388.0527484886999
 30
0
 11
681.2556965454
 21
315.5381862688
 31
0
  0
LINE
  8
1
 62
2
 10
51.25568641269996
 20
388.0527484886999
 30
0
 11
51.25568641269996
 21
315.5381862688
 31
0
  0
LINE
  8
1
 62
2
 10
681.2556965454
 20
317.0381862688
 30
0
 11
678.0556965454
 21
316.1741862688
 31
0
  0
LINE
  8
1
 62
2
 10
681.2556965454
 20
317.0381862688
 30
0
 11
678.0556965454
 21
317.9021862687999
 31
0
  0
LINE
  8
1
 62
2
 10
51.25568641269996
 20
317.0381862688
 30
0
 11
54.45568641269996
 21
317.9021862687999
 31
0
  0
LINE
  8
1
 62
2
 10
51.25568641269996
 20
317.0381862688
 30
0
 11
54.45568641269996
 21
316.1741862688
 31
0
  0
TEXT
  8
1
 62
2
 10
361.9869727711602
 20
318.0381862688
 30
0
 40
3.200000000000001
  1
630
 41
0.9
 51
15
  0
ENDBLK
  8
0
  0
BLOCK
  8
1
  2
*D2
 70
1
 10
0
 20
0
 30
0
  0
LINE
  8
1
 62
2
 10
381.2556995256999
 20
322.5991389006
 30
0
 11
681.2556965454
 21
322.5991389006
 31
0
  0
LINE
  8
1
 62
2
 10
681.2556965454
 20
388.0527484887
 30
0
 11
681.2556965454
 21
321.0991389006
 31
0
  0
LINE
  8
1
 62
2
 10
381.2556995256999
 20
399.802749949
 30
0
 11
381.2556995256999
 21
321.0991389006
 31
0
  0
LINE
  8
1
 62
2
 10
681.2556965454
 20
322.5991389006
 30
0
 11
678.0556965454
 21
321.7351389006
 31
0
  0
LINE
  8
1
 62
2
 10
681.2556965454
 20
322.5991389006
 30
0
 11
678.0556965454
 21
323.4631389006
 31
0
  0
LINE
  8
1
 62
2
 10
381.2556995256999
 20
322.5991389006
 30
0
 11
384.4556995256999
 21
323.4631389006
 31
0
  0
LINE
  8
1
 62
2
 10
381.2556995256999
 20
322.5991389006
 30
0
 11
384.4556995256999
 21
321.7351389006
 31
0
  0
TEXT
  8
1
 62
2
 10
526.9869793276603
 20
323.5991389006
 30
0
 40
3.200000000000001
  1
300
 41
0.9
 51
15
  0
ENDBLK
  8
0
  0
BLOCK
  8
1
  2
*D3
 70
1
 10
0
 20
0
 30
0
  0
LINE
  8
1
 62
2
 10
381.2556995257
 20
331.8041234191
 30
0
 11
541.2556959494
 21
331.8041234191
 31
0
  0
LINE
  8
1
 62
2
 10
541.2556959494
 20
342.5527484887
 30
0
 11
541.2556959494
 21
330.3041234191
 31
0
  0
LINE
  8
1
 62
2
 10
381.2556995257
 20
399.802749949
 30
0
 11
381.2556995257
 21
330.3041234191
 31
0
  0
LINE
  8
1
 62
2
 10
541.2556959494
 20
331.8041234191
 30
0
 11
538.0556959493999
 21
330.9401234191
 31
0
  0
LINE
  8
1
 62
2
 10
541.2556959494
 20
331.8041234191
 30
0
 11
538.0556959493999
 21
332.6681234191
 31
0
  0
LINE
  8
1
 62
2
 10
381.2556995257
 20
331.8041234191
 30
0
 11
384.4556995257
 21
332.6681234191
 31
0
  0
LINE
  8
1
 62
2
 10
381.2556995257
 20
331.8041234191
 30
0
 11
384.4556995257
 21
330.9401234191
 31
0
  0
TEXT
  8
1
 62
2
 10
457.4669790296602
 20
332.8041234191
 30
0
 40
3.200000000000001
  1
160
 41
0.9
 51
15
  0
ENDBLK
  8
0
  0
BLOCK
  8
1
  2
*D4
 70
1
 10
0
 20
0
 30
0
  0
LINE
  8
1
 62
2
 10
541.2556959494
 20
331.8041234191
 30
0
 11
681.2556965454
 21
331.8041234191
 31
0
  0
LINE
  8
1
 62
2
 10
681.2556965454
 20
388.0527484887
 30
0
 11
681.2556965454
 21
330.3041234191
 31
0
  0
LINE
  8
1
 62
2
 10
541.2556959494
 20
342.5527484887
 30
0
 11
541.2556959494
 21
330.3041234191
 31
0
  0
LINE
  8
1
 62
2
 10
681.2556965454
 20
331.8041234191
 30
0
 11
678.0556965454
 21
330.9401234191
 31
0
  0
LINE
  8
1
 62
2
 10
681.2556965454
 20
331.8041234191
 30
0
 11
678.0556965454
 21
332.6681234191
 31
0
  0
LINE
  8
1
 62
2
 10
541.2556959494
 20
331.8041234191
 30
0
 11
544.4556959494
 21
332.6681234191
 31
0
  0
LINE
  8
1
 62
2
 10
541.2556959494
 20
331.8041234191
 30
0
 11
544.4556959494
 21
330.9401234191
 31
0
  0
TEXT
  8
1
 62
2
 10
607.4669775395103
 20
332.8041234191
 30
0
 40
3.200000000000001
  1
140
 41
0.9
 51
15
  0
ENDBLK
  8
0
  0
BLOCK
  8
1
  2
*D5
 70
1
 10
0
 20
0
 30
0
  0
LINE
  8
1
 62
2
 10
697.2556959494
 20
351.0527469986
 30
0
 11
697.2556959494
 21
451.0527484887
 31
0
  0
LINE
  8
1
 62
2
 10
689.2682301991001
 20
451.0527484887
 30
0
 11
698.7556959494
 21
451.0527484887
 31
0
  0
LINE
  8
1
 62
2
 10
591.7556966945
 20
351.0527469986
 30
0
 11
698.7556959494
 21
351.0527469986
 31
0
  0
LINE
  8
1
 62
2
 10
697.2556959494
 20
351.0527469986
 30
0
 11
696.3916959494
 21
354.2527469986
 31
0
  0
LINE
  8
1
 62
2
 10
697.2556959494
 20
351.0527469986
 30
0
 11
698.1196959494
 21
354.2527469986
 31
0
  0
LINE
  8
1
 62
2
 10
697.2556959494
 20
451.0527484887
 30
0
 11
698.1196959494
 21
447.8527484887
 31
0
  0
LINE
  8
1
 62
2
 10
697.2556959494
 20
451.0527484887
 30
0
 11
696.3916959494
 21
447.8527484887
 31
0
  0
TEXT
  8
1
 62
2
 10
696.2556959494
 20
397.2640290357602
 30
0
 40
3.200000000000001
  1
100
 50
90
 41
0.9
 51
15
  0
ENDBLK
  8
0
  0
BLOCK
  8
1
  2
*D6
 70
1
 10
0
 20
0
 30
0
  0
LINE
  8
1
 62
2
 10
705.6885977417001
 20
351.0527469986
 30
0
 11
705.6885977417001
 21
617.702745723
 31
0
  0
LINE
  8
1
 62
2
 10
578.7556964262
 20
617.702745723
 30
0
 11
707.1885977417001
 21
617.702745723
 31
0
  0
LINE
  8
1
 62
2
 10
591.7556966945
 20
351.0527469986
 30
0
 11
707.1885977417001
 21
351.0527469986
 31
0
  0
LINE
  8
1
 62
2
 10
705.6885977417001
 20
617.702745723
 30
0
 11
706.5525977417001
 21
614.502745723
 31
0
  0
LINE
  8
1
 62
2
 10
705.6885977417001
 20
617.702745723
 30
0
 11
704.8245977417
 21
614.502745723
 31
0
  0
LINE
  8
1
 62
2
 10
705.6885977417001
 20
351.0527469986
 30
0
 11
704.8245977417
 21
354.2527469986
 31
0
  0
LINE
  8
1
 62
2
 10
705.6885977417001
 20
351.0527469986
 30
0
 11
706.5525977417001
 21
354.2527469986
 31
0
  0
TEXT
  8
1
 62
2
 10
704.6885977417001
 20
480.1090276529102
 30
0
 40
3.200000000000001
  1
267
 50
90
 41
0.9
 51
15
  0
ENDBLK
  8
0
  0
BLOCK
  8
1
  2
*D7
 70
1
 10
0
 20
0
 30
0
  0
LINE
  8
1
 62
2
 10
705.6885977417001
 20
660.9370776554
 30
0
 11
705.6885977417001
 21
871.9370731255
 31
0
  0
LINE
  8
1
 62
2
 10
679.7556924923
 20
871.9370731255
 30
0
 11
707.1885977417001
 21
871.9370731255
 31
0
  0
LINE
  8
1
 62
2
 10
679.7556924923
 20
660.9370776554
 30
0
 11
707.1885977417001
 21
660.9370776554
 31
0
  0
LINE
  8
1
 62
2
 10
705.6885977417001
 20
871.9370731255
 30
0
 11
706.5525977417001
 21
868.7370731254999
 31
0
  0
LINE
  8
1
 62
2
 10
705.6885977417001
 20
871.9370731255
 30
0
 11
704.8245977417
 21
868.7370731254999
 31
0
  0
LINE
  8
1
 62
2
 10
705.6885977417001
 20
660.9370776554
 30
0
 11
704.8245977417
 21
664.1370776554001
 31
0
  0
LINE
  8
1
 62
2
 10
705.6885977417001
 20
660.9370776554
 30
0
 11
706.5525977417001
 21
664.1370776554001
 31
0
  0
TEXT
  8
1
 62
2
 10
704.6885977417001
 20
763.1283566825601
 30
0
 40
3.200000000000001
  1
211
 50
90
 41
0.9
 51
15
  0
ENDBLK
  8
0
  0
BLOCK
  8
1
  2
*D8
 70
1
 10
0
 20
0
 30
0
  0
LINE
  8
1
 62
2
 10
795.2105274210653
 20
423.0731244416191
 30
0
 11
1011.379121100204
 21
499.4377030940124
 31
0
  0
LINE
  8
1
 62
2
 10
953.6168484841342
 20
479.0323725357809
 30
0
 11
950.8873756445599
 21
477.1518210161392
 31
0
  0
LINE
  8
1
 62
2
 10
953.6168484841342
 20
479.0323725357809
 30
0
 11
950.31179480702
 21
478.781143175645
 31
0
  0
LINE
  8
1
 62
2
 10
795.2105274210653
 20
423.0731244416191
 30
0
 11
797.9400002606395
 21
424.9536759612608
 31
0
  0
LINE
  8
1
 62
2
 10
795.2105274210653
 20
423.0731244416191
 30
0
 11
798.5155810981795
 21
423.324353801755
 31
0
  0
TEXT
  8
1
 62
2
 10
1005.409935870963
 20
498.3895686758347
 30
0
 40
3.200000000000001
  1
D2
 50
19.45647994528483
 41
0.9
 51
15
  0
TEXT
  8
1
 62
2
 10
1001.78921996095
 20
497.1105001479681
 30
0
 40
3.200000000000001
  1
%%c
 50
19.45647994528483
 41
0.9
  0
ENDBLK
  8
0
  0
BLOCK
  8
1
  2
*D9
 70
1
 10
0
 20
0
 30
0
  0
LINE
  8
1
 62
2
 10
812.8005946735594
 20
440.5610023714798
 30
0
 11
1012.979822441467
 21
474.6483939291524
 31
0
  0
LINE
  8
1
 62
2
 10
936.0267812316412
 20
461.5444946059201
 30
0
 11
933.0172287540787
 21
460.155577803229
 31
0
  0
LINE
  8
1
 62
2
 10
936.0267812316412
 20
461.5444946059201
 30
0
 11
932.7271529574298
 21
461.8590566062079
 31
0
  0
LINE
  8
1
 62
2
 10
812.8005946735594
 20
440.5610023714798
 30
0
 11
815.8101471511219
 21
441.949919174171
 31
0
  0
LINE
  8
1
 62
2
 10
812.8005946735594
 20
440.5610023714798
 30
0
 11
816.1002229477708
 21
440.2464403711921
 31
0
  0
TEXT
  8
1
 62
2
 10
1006.919339958503
 20
474.6307833288502
 30
0
 40
3.200000000000001
  1
D3
 50
9.663879532586586
 41
0.9
 51
15
  0
TEXT
  8
1
 62
2
 10
1003.133831507438
 20
473.9861704474082
 30
0
 40
3.200000000000001
  1
%%c
 50
9.663879532586586
 41
0.9
  0
ENDBLK
  8
0
  0
BLOCK
  8
1
  2
*D10
 70
1
 10
0
 20
0
 30
0
  0
LINE
  8
1
 62
2
 10
781.6861634735711
 20
400.7351948519111
 30
0
 11
1005.44536870959
 21
522.1556239472116
 31
0
  0
LINE
  8
1
 62
2
 10
967.1412124316286
 20
501.3703021254888
 30
0
 11
964.7407033132332
 21
499.0846836156537
 31
0
  0
LINE
  8
1
 62
2
 10
967.1412124316286
 20
501.3703021254888
 30
0
 11
963.9165447095899
 21
500.6034813625709
 31
0
  0
LINE
  8
1
 62
2
 10
781.6861634735711
 20
400.7351948519111
 30
0
 11
784.0866725919665
 21
403.0208133617462
 31
0
  0
LINE
  8
1
 62
2
 10
781.6861634735711
 20
400.7351948519111
 30
0
 11
784.9108311956098
 21
401.5020156148291
 31
0
  0
TEXT
  8
1
 62
2
 10
1000.558429331102
 20
520.6415229822002
 30
0
 40
3.200000000000001
  1
D1
 50
28.48597561194803
 41
0.9
 51
15
  0
TEXT
  8
1
 62
2
 10
997.1833232268419
 20
518.8100594185484
 30
0
 40
3.200000000000001
  1
%%c
 50
28.48597561194803
 41
0.9
  0
ENDBLK
  8
0
  0
ENDSEC
  0
SECTION
  2
ENTITIES
  0
POLYLINE
  8
0
 62
7
 66
1
  0
VERTEX
  8
0
 10
938.2981697402
 20
541.8524377816
 30
0
  0
VERTEX
  8
0
 10
937.4866599521999
 20
540.9028091304
 30
0
  0
VERTEX
  8
0
 10
936.371438422
 20
540.3630816214001
 30
0
  0
VERTEX
  8
0
 10
934.82764832
 20
539.9707713001
 30
0
  0
VERTEX
  8
0
 10
932.9252282463
 20
539.7223614924
 30
0
  0
VERTEX
  8
0
 10
931.4130956612
 20
539.6273665898
 30
0
  0
SEQEND
  8
0
  0
POLYLINE
  8
0
 62
7
 66
1
  0
VERTEX
  8
0
 10
810.5292061649
 20
541.8524377816
 30
0
  0
VERTEX
  8
0
 10
811.3407159529
 20
540.9028091304
 30
0
  0
VERTEX
  8
0
 10
812.4559374831
 20
540.3630816214001
 30
0
  0
VERTEX
  8
0
 10
813.9997275851
 20
539.9707713001
 30
0
  0
VERTEX
  8
0
 10
815.9021476589001
 20
539.7223614924
 30
0
  0
VERTEX
  8
0
 10
817.4224796079
 20
539.6268450492
 30
0
  0
SEQEND
  8
0
  0
POLYLINE
  8
0
 62
7
 66
1
  0
VERTEX
  8
0
 10
796.2408030711
 20
583.1649684184
 30
0
  0
VERTEX
  8
0
 10
793.4339681945
 20
582.0610307925
 30
0
  0
VERTEX
  8
0
 10
793.4136877141
 20
582.0527457469
 30
0
  0
SEQEND
  8
0
  0
POLYLINE
  8
0
 62
7
 66
1
  0
VERTEX
  8
0
 10
955.413688191
 20
582.0527457469
 30
0
  0
VERTEX
  8
0
 10
955.3934077105999
 20
582.0610307925
 30
0
  0
VERTEX
  8
0
 10
954.9030551992
 20
582.2609745734
 30
0
  0
VERTEX
  8
0
 10
952.5865728341
 20
583.1649684184
 30
0
  0
SEQEND
  8
0
  0
POLYLINE
  8
0
 62
7
 66
1
  0
VERTEX
  8
0
 10
845.4270253263001
 20
583.1649684184
 30
0
  0
VERTEX
  8
0
 10
844.3161195449
 20
582.0610307925
 30
0
  0
VERTEX
  8
0
 10
844.3059923432001
 20
582.0527457469
 30
0
  0
SEQEND
  8
0
  0
POLYLINE
  8
0
 62
7
 66
1
  0
VERTEX
  8
0
 10
845.906704881
 20
584.0527498
 30
0
  0
VERTEX
  8
0
 10
845.854135447
 20
583.9663975709
 30
0
  0
VERTEX
  8
0
 10
845.6877583943
 20
583.6074882023
 30
0
  0
VERTEX
  8
0
 10
845.4270253263001
 20
583.1649684184
 30
0
  0
SEQEND
  8
0
  0
POLYLINE
  8
0
 62
7
 66
1
  0
VERTEX
  8
0
 10
903.4003505788
 20
583.1649684184
 30
0
  0
VERTEX
  8
0
 10
903.1368272684
 20
583.6132400506
 30
0
  0
VERTEX
  8
0
 10
902.9732404582001
 20
583.9663975709
 30
0
  0
VERTEX
  8
0
 10
902.9206710241
 20
584.0527498
 30
0
  0
SEQEND
  8
0
  0
POLYLINE
  8
0
 62
7
 66
1
  0
VERTEX
  8
0
 10
784.9372962795
 20
542.0527466409
 30
0
  0
VERTEX
  8
0
 10
783.6740428887
 20
542.2856368892
 30
0
  0
VERTEX
  8
0
 10
782.4606860362
 20
542.9012560122
 30
0
  0
SEQEND
  8
0
  0
POLYLINE
  8
0
 62
7
 66
1
  0
VERTEX
  8
0
 10
792.8903961859
 20
542.0527466409
 30
0
  0
VERTEX
  8
0
 10
788.797792264
 20
542.5414823764
 30
0
  0
VERTEX
  8
0
 10
787.4138990722
 20
542.9012560122
 30
0
  0
SEQEND
  8
0
  0
POLYLINE
  8
0
 62
7
 66
1
  0
VERTEX
  8
0
 10
798.3669007502
 20
542.9012560122
 30
0
  0
VERTEX
  8
0
 10
794.3807730756
 20
542.1200402849
 30
0
  0
VERTEX
  8
0
 10
792.8903961859
 20
542.0527466409
 30
0
  0
SEQEND
  8
0
  0
POLYLINE
  8
0
 62
7
 66
1
  0
VERTEX
  8
0
 10
801.3667950712
 20
542.0527466409
 30
0
  0
VERTEX
  8
0
 10
799.8366320811
 20
542.2856368892
 30
0
  0
VERTEX
  8
0
 10
798.3669007502
 20
542.9012560122
 30
0
  0
SEQEND
  8
0
  0
POLYLINE
  8
0
 62
7
 66
1
  0
VERTEX
  8
0
 10
946.9372967563
 20
542.0527466409
 30
0
  0
VERTEX
  8
0
 10
945.6740433655
 20
542.2856368892
 30
0
  0
VERTEX
  8
0
 10
944.460686513
 20
542.9012560122
 30
0
  0
SEQEND
  8
0
  0
POLYLINE
  8
0
 62
7
 66
1
  0
VERTEX
  8
0
 10
954.8903966628
 20
542.0527466409
 30
0
  0
VERTEX
  8
0
 10
953.4000272236
 20
542.1200402849
 30
0
  0
VERTEX
  8
0
 10
949.4138995491001
 20
542.9012560122
 30
0
  0
SEQEND
  8
0
  0
POLYLINE
  8
0
 62
7
 66
1
  0
VERTEX
  8
0
 10
960.366901227
 20
542.9012560122
 30
0
  0
VERTEX
  8
0
 10
958.9830005846
 20
542.5414823764
 30
0
  0
VERTEX
  8
0
 10
954.8903966628
 20
542.0527466409
 30
0
  0
SEQEND
  8
0
  0
POLYLINE
  8
0
 62
7
 66
1
  0
VERTEX
  8
0
 10
963.366795548
 20
542.0527466409
 30
0
  0
VERTEX
  8
0
 10
961.8366325579
 20
542.2856368892
 30
0
  0
VERTEX
  8
0
 10
960.366901227
 20
542.9012560122
 30
0
  0
SEQEND
  8
0
  0
POLYLINE
  8
0
 62
7
 66
1
  0
VERTEX
  8
0
 10
463.4605257018
 20
766.940733009
 30
0
  0
VERTEX
  8
0
 10
463.5963050826
 20
766.7318799635
 30
0
  0
VERTEX
  8
0
 10
463.6657295926
 20
766.4239174959999
 30
0
  0
SEQEND
  8
0
  0
POLYLINE
  8
0
 62
7
 66
1
  0
VERTEX
  8
0
 10
463.6657295926
 20
766.4239174959999
 30
0
  0
VERTEX
  8
0
 10
463.6251239284
 20
766.1654669195
 30
0
  0
VERTEX
  8
0
 10
463.4605257018
 20
765.8767011003
 30
0
  0
SEQEND
  8
0
  0
POLYLINE
  8
0
 62
7
 66
1
  0
VERTEX
  8
0
 10
459.8694129093
 20
765.9679038029
 30
0
  0
VERTEX
  8
0
 10
459.7466273411
 20
766.1649726783001
 30
0
  0
VERTEX
  8
0
 10
459.6898613675
 20
766.4543184078
 30
0
  0
SEQEND
  8
0
  0
POLYLINE
  8
0
 62
7
 66
1
  0
VERTEX
  8
0
 10
459.6898613675
 20
766.4543184078
 30
0
  0
VERTEX
  8
0
 10
459.7148953183
 20
766.6815924735
 30
0
  0
VERTEX
  8
0
 10
459.8437605604
 20
766.940733009
 30
0
  0
SEQEND
  8
0
  0
POLYLINE
  8
0
 62
7
 66
1
  0
VERTEX
  8
0
 10
459.8437605604
 20
766.940733009
 30
0
  0
VERTEX
  8
0
 10
460.287777911
 20
767.2077318407
 30
0
  0
VERTEX
  8
0
 10
460.9467445119
 20
767.3055439359
 30
0
  0
SEQEND
  8
0
  0
POLYLINE
  8
0
 62
7
 66
1
  0
VERTEX
  8
0
 10
460.9467445119
 20
767.974364046
 30
0
  0
VERTEX
  8
0
 10
460.2337463005
 20
767.8802274736
 30
0
  0
VERTEX
  8
0
 10
459.4846500262
 20
767.3663457958
 30
0
  0
SEQEND
  8
0
  0
POLYLINE
  8
0
 62
7
 66
1
  0
VERTEX
  8
0
 10
459.4846500262
 20
767.3663457958
 30
0
  0
VERTEX
  8
0
 10
459.2796174987
 20
766.9925482464
 30
0
  0
VERTEX
  8
0
 10
459.202496539
 20
766.4543184078
 30
0
  0
SEQEND
  8
0
  0
POLYLINE
  8
0
 62
7
 66
1
  0
VERTEX
  8
0
 10
459.202496539
 20
766.4543184078
 30
0
  0
VERTEX
  8
0
 10
459.2719508513
 20
765.9950995862
 30
0
  0
VERTEX
  8
0
 10
459.5616070731
 20
765.4814892434
 30
0
  0
SEQEND
  8
0
  0
POLYLINE
  8
0
 62
7
 66
1
  0
VERTEX
  8
0
 10
459.5616070731
 20
765.4814892434
 30
0
  0
VERTEX
  8
0
 10
460.4644758805
 20
764.8709087502
 30
0
  0
VERTEX
  8
0
 10
461.8445245727
 20
764.6606645416
 30
0
  0
SEQEND
  8
0
  0
POLYLINE
  8
0
 62
7
 66
1
  0
VERTEX
  8
0
 10
463.8452811344
 20
765.4206874417
 30
0
  0
VERTEX
  8
0
 10
464.0919624074
 20
765.8286243081
 30
0
  0
VERTEX
  8
0
 10
464.2024917706
 20
766.4239174959999
 30
0
  0
SEQEND
  8
0
  0
POLYLINE
  8
0
 62
7
 66
1
  0
VERTEX
  8
0
 10
464.2024917706
 20
766.4239174959999
 30
0
  0
VERTEX
  8
0
 10
464.1353992923
 20
766.896162559
 30
0
  0
VERTEX
  8
0
 10
463.8452811344
 20
767.4271475393
 30
0
  0
SEQEND
  8
0
  0
POLYLINE
  8
0
 62
7
 66
1
  0
VERTEX
  8
0
 10
463.8452811344
 20
767.4271475393
 30
0
  0
VERTEX
  8
0
 10
463.2179124459
 20
767.8258588407
 30
0
  0
VERTEX
  8
0
 10
462.2805847033
 20
768.0047649760001
 30
0
  0
SEQEND
  8
0
  0
POLYLINE
  8
0
 62
7
 66
1
  0
VERTEX
  8
0
 10
459.9207176073
 20
770.3638754887001
 30
0
  0
VERTEX
  8
0
 10
459.765104781
 20
770.6102107754
 30
0
  0
VERTEX
  8
0
 10
459.6898613675
 20
770.9718940882
 30
0
  0
SEQEND
  8
0
  0
POLYLINE
  8
0
 62
7
 66
1
  0
VERTEX
  8
0
 10
463.7170268401
 20
770.9718940882
 30
0
  0
VERTEX
  8
0
 10
463.6706171735
 20
770.6845522029
 30
0
  0
VERTEX
  8
0
 10
463.4861706003
 20
770.3638754887001
 30
0
  0
SEQEND
  8
0
  0
POLYLINE
  8
0
 62
7
 66
1
  0
VERTEX
  8
0
 10
459.202496539
 20
770.9718940882
 30
0
  0
VERTEX
  8
0
 10
459.2585621579
 20
770.4882964594
 30
0
  0
VERTEX
  8
0
 10
459.5359547242
 20
769.9382629348
 30
0
  0
SEQEND
  8
0
  0
POLYLINE
  8
0
 62
7
 66
1
  0
VERTEX
  8
0
 10
459.5359547242
 20
771.9751240788
 30
0
  0
VERTEX
  8
0
 10
459.2996223076
 20
771.5657086214
 30
0
  0
VERTEX
  8
0
 10
459.202496539
 20
770.9718940882
 30
0
  0
SEQEND
  8
0
  0
POLYLINE
  8
0
 62
7
 66
1
  0
VERTEX
  8
0
 10
459.6898613675
 20
770.9718940882
 30
0
  0
VERTEX
  8
0
 10
459.7390202983
 20
771.2456470458
 30
0
  0
VERTEX
  8
0
 10
459.9207176073
 20
771.5495110592
 30
0
  0
SEQEND
  8
0
  0
POLYLINE
  8
0
 62
7
 66
1
  0
VERTEX
  8
0
 10
463.8709334834
 20
769.9382629348
 30
0
  0
VERTEX
  8
0
 10
464.1087858184
 20
770.3610661542
 30
0
  0
VERTEX
  8
0
 10
464.2024917706
 20
770.9718940882
 30
0
  0
SEQEND
  8
0
  0
POLYLINE
  8
0
 62
7
 66
1
  0
VERTEX
  8
0
 10
464.2024917706
 20
770.9718940882
 30
0
  0
VERTEX
  8
0
 10
464.1450850471
 20
771.4419577373
 30
0
  0
VERTEX
  8
0
 10
463.8709334834
 20
771.9751240788
 30
0
  0
SEQEND
  8
0
  0
POLYLINE
  8
0
 62
7
 66
1
  0
VERTEX
  8
0
 10
463.4861706003
 20
771.5495110592
 30
0
  0
VERTEX
  8
0
 10
463.6386020287
 20
771.3160778498
 30
0
  0
VERTEX
  8
0
 10
463.7170268401
 20
770.9718940882
 30
0
  0
SEQEND
  8
0
  0
POLYLINE
  8
0
 62
7
 66
1
  0
VERTEX
  8
0
 10
571.2674001410001
 20
781.0362775912
 30
0
  0
VERTEX
  8
0
 10
571.4436007841
 20
780.2693939869999
 30
0
  0
VERTEX
  8
0
 10
572.1220841809
 20
779.5354605755
 30
0
  0
SEQEND
  8
0
  0
POLYLINE
  8
0
 62
7
 66
1
  0
VERTEX
  8
0
 10
571.5690536602
 20
782.0753038963001
 30
0
  0
VERTEX
  8
0
 10
571.3455921217
 20
781.6479143789001
 30
0
  0
VERTEX
  8
0
 10
571.2674001410001
 20
781.0362775912
 30
0
  0
SEQEND
  8
0
  0
POLYLINE
  8
0
 62
7
 66
1
  0
VERTEX
  8
0
 10
571.2674001410001
 20
778.3232622882
 30
0
  0
VERTEX
  8
0
 10
571.4436007841
 20
777.556378684
 30
0
  0
VERTEX
  8
0
 10
572.1220841809
 20
776.8224452725
 30
0
  0
SEQEND
  8
0
  0
POLYLINE
  8
0
 62
7
 66
1
  0
VERTEX
  8
0
 10
572.4740123554
 20
777.2265107473
 30
0
  0
VERTEX
  8
0
 10
572.3061544998
 20
777.482427015
 30
0
  0
VERTEX
  8
0
 10
572.222635354
 20
777.8614725089
 30
0
  0
SEQEND
  8
0
  0
POLYLINE
  8
0
 62
7
 66
1
  0
VERTEX
  8
0
 10
572.222635354
 20
777.8614725089
 30
0
  0
VERTEX
  8
0
 10
572.2512083306
 20
778.0526627889
 30
0
  0
VERTEX
  8
0
 10
572.3734611823001
 20
778.2655379837
 30
0
  0
SEQEND
  8
0
  0
POLYLINE
  8
0
 62
7
 66
1
  0
VERTEX
  8
0
 10
572.3734611823001
 20
778.2655379837
 30
0
  0
VERTEX
  8
0
 10
572.6094899877
 20
778.3437048187
 30
0
  0
VERTEX
  8
0
 10
572.9264935656
 20
778.364227443
 30
0
  0
SEQEND
  8
0
  0
POLYLINE
  8
0
 62
7
 66
1
  0
VERTEX
  8
0
 10
572.4740123554
 20
779.9972503548
 30
0
  0
VERTEX
  8
0
 10
572.3129587426
 20
780.2290416425
 30
0
  0
VERTEX
  8
0
 10
572.222635354
 20
780.5744878119
 30
0
  0
SEQEND
  8
0
  0
POLYLINE
  8
0
 62
7
 66
1
  0
VERTEX
  8
0
 10
572.222635354
 20
780.5744878119
 30
0
  0
VERTEX
  8
0
 10
572.2474662765
 20
780.7909020325
 30
0
  0
VERTEX
  8
0
 10
572.3734611823001
 20
781.0362775912
 30
0
  0
SEQEND
  8
0
  0
POLYLINE
  8
0
 62
7
 66
1
  0
VERTEX
  8
0
 10
572.3734611823001
 20
781.0362775912
 30
0
  0
VERTEX
  8
0
 10
572.6247897549
 20
781.1535739442001
 30
0
  0
VERTEX
  8
0
 10
572.9767663582001
 20
781.1926904237
 30
0
  0
SEQEND
  8
0
  0
POLYLINE
  8
0
 62
7
 66
1
  0
VERTEX
  8
0
 10
571.5690536602
 20
791.0753053715
 30
0
  0
VERTEX
  8
0
 10
571.3455921217
 20
790.6479139915
 30
0
  0
VERTEX
  8
0
 10
571.2674001410001
 20
790.0362772038
 30
0
  0
SEQEND
  8
0
  0
POLYLINE
  8
0
 62
7
 66
1
  0
VERTEX
  8
0
 10
571.2674001410001
 20
790.0362772038
 30
0
  0
VERTEX
  8
0
 10
571.4436007841
 20
789.2693945308999
 30
0
  0
VERTEX
  8
0
 10
572.1220841809
 20
788.535460188
 30
0
  0
SEQEND
  8
0
  0
POLYLINE
  8
0
 62
7
 66
1
  0
VERTEX
  8
0
 10
571.2674001410001
 20
787.3232619008001
 30
0
  0
VERTEX
  8
0
 10
571.4436007841
 20
786.5563792279
 30
0
  0
VERTEX
  8
0
 10
572.1220841809
 20
785.822444885
 30
0
  0
SEQEND
  8
0
  0
POLYLINE
  8
0
 62
7
 66
1
  0
VERTEX
  8
0
 10
572.4740123554
 20
786.2265103599
 30
0
  0
VERTEX
  8
0
 10
572.3061544998
 20
786.4824266275
 30
0
  0
VERTEX
  8
0
 10
572.222635354
 20
786.8614730528
 30
0
  0
SEQEND
  8
0
  0
POLYLINE
  8
0
 62
7
 66
1
  0
VERTEX
  8
0
 10
572.222635354
 20
786.8614730528
 30
0
  0
VERTEX
  8
0
 10
572.2512083306
 20
787.0526624015
 30
0
  0
VERTEX
  8
0
 10
572.3734611823001
 20
787.2655385276
 30
0
  0
SEQEND
  8
0
  0
POLYLINE
  8
0
 62
7
 66
1
  0
VERTEX
  8
0
 10
572.3734611823001
 20
787.2655385276
 30
0
  0
VERTEX
  8
0
 10
572.6094899877
 20
787.3437044313
 30
0
  0
VERTEX
  8
0
 10
572.9264935656
 20
787.3642270556001
 30
0
  0
SEQEND
  8
0
  0
POLYLINE
  8
0
 62
7
 66
1
  0
VERTEX
  8
0
 10
572.4740123554
 20
788.9972508987
 30
0
  0
VERTEX
  8
0
 10
572.3129587426
 20
789.2290403237
 30
0
  0
VERTEX
  8
0
 10
572.222635354
 20
789.5744883558
 30
0
  0
SEQEND
  8
0
  0
POLYLINE
  8
0
 62
7
 66
1
  0
VERTEX
  8
0
 10
572.222635354
 20
789.5744883558
 30
0
  0
VERTEX
  8
0
 10
572.2474662765
 20
789.7909016451
 30
0
  0
VERTEX
  8
0
 10
572.3734611823001
 20
790.0362772038
 30
0
  0
SEQEND
  8
0
  0
POLYLINE
  8
0
 62
7
 66
1
  0
VERTEX
  8
0
 10
572.3734611823001
 20
790.0362772038
 30
0
  0
VERTEX
  8
0
 10
572.6247897549
 20
790.1535735568
 30
0
  0
VERTEX
  8
0
 10
572.9767663582001
 20
790.1926909676
 30
0
  0
SEQEND
  8
0
  0
POLYLINE
  8
0
 62
7
 66
1
  0
VERTEX
  8
0
 10
180.3493632181
 20
776.6498814439
 30
0
  0
VERTEX
  8
0
 10
180.1460815771
 20
773.0248433640001
 30
0
  0
VERTEX
  8
0
 10
179.9404455527
 20
769.357479467
 30
0
  0
VERTEX
  8
0
 10
179.7337366446
 20
765.671352447
 30
0
  0
SEQEND
  8
0
  0
POLYLINE
  8
0
 62
7
 66
1
  0
VERTEX
  8
0
 10
182.0214225157
 20
768.0312232682001
 30
0
  0
VERTEX
  8
0
 10
182.1589006289
 20
770.2676705653
 30
0
  0
VERTEX
  8
0
 10
182.2958124979
 20
772.4950316464
 30
0
  0
VERTEX
  8
0
 10
182.4318302973
 20
774.7080235844001
 30
0
  0
SEQEND
  8
0
  0
POLYLINE
  8
0
 62
7
 66
1
  0
VERTEX
  8
0
 10
170.2425910338
 20
756.649881891
 30
0
  0
VERTEX
  8
0
 10
171.439005266
 20
761.0773242181
 30
0
  0
VERTEX
  8
0
 10
172.6492477759
 20
765.5558055253
 30
0
  0
VERTEX
  8
0
 10
173.8617254599
 20
770.0426786309
 30
0
  0
VERTEX
  8
0
 10
175.0649346217
 20
774.4952173075
 30
0
  0
SEQEND
  8
0
  0
POLYLINE
  8
0
 62
7
 66
1
  0
VERTEX
  8
0
 10
172.9102565153
 20
774.7080235844001
 30
0
  0
VERTEX
  8
0
 10
171.6563834055
 20
770.2043369049
 30
0
  0
VERTEX
  8
0
 10
170.3922880991
 20
765.6639079782
 30
0
  0
VERTEX
  8
0
 10
169.1303087576
 20
761.1310196211
 30
0
  0
VERTEX
  8
0
 10
167.8827239378
 20
756.649881891
 30
0
  0
SEQEND
  8
0
  0
POLYLINE
  8
0
 62
7
 66
1
  0
VERTEX
  8
0
 10
399.9521566733
 20
822.1571103772
 30
0
  0
VERTEX
  8
0
 10
400.4401399
 20
822.8206479093
 30
0
  0
VERTEX
  8
0
 10
401.0447843178
 20
823.6434229752
 30
0
  0
VERTEX
  8
0
 10
401.8496854409
 20
824.7396976789
 30
0
  0
VERTEX
  8
0
 10
401.8563164576
 20
824.7487389585
 30
0
  0
SEQEND
  8
0
  0
POLYLINE
  8
0
 62
7
 66
1
  0
VERTEX
  8
0
 10
401.8563164576
 20
708.1254118225
 30
0
  0
VERTEX
  8
0
 10
401.8496854409
 20
708.134453102
 30
0
  0
VERTEX
  8
0
 10
401.0447843178
 20
709.2307278057
 30
0
  0
VERTEX
  8
0
 10
400.4401399
 20
710.0535028716
 30
0
  0
VERTEX
  8
0
 10
399.9521566733
 20
710.7170404037
 30
0
  0
SEQEND
  8
0
  0
POLYLINE
  8
0
 62
7
 66
1
  0
VERTEX
  8
0
 10
357.6550765141
 20
708.1254118225
 30
0
  0
VERTEX
  8
0
 10
357.6617075308
 20
708.134453102
 30
0
  0
VERTEX
  8
0
 10
358.4666086539
 20
709.2307278057
 30
0
  0
VERTEX
  8
0
 10
359.0712530716
 20
710.0535028716
 30
0
  0
VERTEX
  8
0
 10
359.5592362984
 20
710.7170404037
 30
0
  0
SEQEND
  8
0
  0
POLYLINE
  8
0
 62
7
 66
1
  0
VERTEX
  8
0
 10
359.5592362984
 20
822.1571103772
 30
0
  0
VERTEX
  8
0
 10
359.0712530716
 20
822.8206479093
 30
0
  0
VERTEX
  8
0
 10
358.4666086539
 20
823.6434229752
 30
0
  0
VERTEX
  8
0
 10
357.6617075308
 20
824.7396976789
 30
0
  0
VERTEX
  8
0
 10
357.6550765141
 20
824.7487389585
 30
0
  0
SEQEND
  8
0
  0
POLYLINE
  8
0
 62
7
 66
1
  0
VERTEX
  8
0
 10
481.2822697862
 20
697.811379387
 30
0
  0
VERTEX
  8
0
 10
476.2701450094
 20
698.956973209
 30
0
  0
VERTEX
  8
0
 10
470.6659076913
 20
700.6524422308
 30
0
  0
VERTEX
  8
0
 10
465.6840322717
 20
702.5844522854
 30
0
  0
VERTEX
  8
0
 10
461.186228524
 20
704.6355784973
 30
0
  0
VERTEX
  8
0
 10
453.9155794485
 20
707.967962428
 30
0
  0
VERTEX
  8
0
 10
447.0780773266
 20
711.1018181881
 30
0
  0
VERTEX
  8
0
 10
440.6737147077
 20
714.0371495029
 30
0
  0
VERTEX
  8
0
 10
436.6272224291
 20
715.8917927286
 30
0
  0
VERTEX
  8
0
 10
432.7749593361
 20
717.657412692
 30
0
  0
VERTEX
  8
0
 10
428.9802594288
 20
719.25844933
 30
0
  0
VERTEX
  8
0
 10
424.9922616585
 20
720.5308185061
 30
0
  0
VERTEX
  8
0
 10
420.9211601122
 20
721.4967564782
 30
0
  0
VERTEX
  8
0
 10
416.8689830407
 20
722.1877680262001
 30
0
  0
VERTEX
  8
0
 10
412.9171354874
 20
722.6362110218
 30
0
  0
VERTEX
  8
0
 10
411.2453891142
 20
722.7415100774
 30
0
  0
SEQEND
  8
0
  0
POLYLINE
  8
0
 62
7
 66
1
  0
VERTEX
  8
0
 10
411.2425578936
 20
810.1507418891
 30
0
  0
VERTEX
  8
0
 10
414.2636789187
 20
810.3671551784
 30
0
  0
VERTEX
  8
0
 10
419.2811308606
 20
811.0677034696
 30
0
  0
VERTEX
  8
0
 10
424.0893481477
 20
812.1029132148
 30
0
  0
VERTEX
  8
0
 10
428.5875020727
 20
813.4734177133
 30
0
  0
VERTEX
  8
0
 10
432.6778484686
 20
815.1722283205
 30
0
  0
VERTEX
  8
0
 10
436.6595952018
 20
816.9971958836001
 30
0
  0
VERTEX
  8
0
 10
440.7060874804
 20
818.8518391093
 30
0
  0
VERTEX
  8
0
 10
444.8173253043
 20
820.7361542722
 30
0
  0
VERTEX
  8
0
 10
449.5951591237
 20
822.9259953936
 30
0
  0
VERTEX
  8
0
 10
454.4575495823
 20
825.1545944353001
 30
0
  0
VERTEX
  8
0
 10
459.4045115813
 20
827.4219513973
 30
0
  0
VERTEX
  8
0
 10
464.43603767
 20
829.7280662795
 30
0
  0
VERTEX
  8
0
 10
469.8186276658
 20
831.9246464511
 30
0
  0
VERTEX
  8
0
 10
475.8501632317
 20
833.8049122235
 30
0
  0
VERTEX
  8
0
 10
481.2780900105
 20
835.0588896414
 30
0
  0
SEQEND
  8
0
  0
POLYLINE
  8
0
 62
7
 66
1
  0
VERTEX
  8
0
 10
526.7027097000999
 20
676.6083755633
 30
0
  0
VERTEX
  8
0
 10
528.9031169550349
 20
676.3401862864836
 30
0
  0
VERTEX
  8
0
 10
526.7027097000999
 20
676.6083755633
 30
0
  0
VERTEX
  8
0
 10
523.0056962176
 20
677.3516305825
 30
0
  0
SEQEND
  8
0
  0
POLYLINE
  8
0
 62
7
 66
1
  0
VERTEX
  8
0
 10
598.2030390008
 20
588.2027529948
 30
0
  0
VERTEX
  8
0
 10
597.9241041644
 20
589.8347728722
 30
0
  0
VERTEX
  8
0
 10
597.7778418167
 20
590.2027421467
 30
0
  0
SEQEND
  8
0
  0
POLYLINE
  8
0
 62
7
 66
1
  0
VERTEX
  8
0
 10
491.2439083858
 20
601.2027495377
 30
0
  0
VERTEX
  8
0
 10
491.2054522141
 20
602.4953805678
 30
0
  0
VERTEX
  8
0
 10
490.9450059934
 20
604.739435839
 30
0
  0
VERTEX
  8
0
 10
490.4900884434
 20
606.595315861
 30
0
  0
VERTEX
  8
0
 10
489.9563400253
 20
607.7876471751
 30
0
  0
VERTEX
  8
0
 10
489.441452752
 20
608.2027488225
 30
0
  0
SEQEND
  8
0
  0
POLYLINE
  8
0
 62
7
 66
1
  0
VERTEX
  8
0
 10
368.476478587
 20
472.0527482056
 30
0
  0
VERTEX
  8
0
 10
366.8272478684
 20
461.378618034
 30
0
  0
VERTEX
  8
0
 10
364.9120165213
 20
451.0527484887
 30
0
  0
SEQEND
  8
0
  0
POLYLINE
  8
0
 62
7
 66
1
  0
VERTEX
  8
0
 10
394.5993764504
 20
451.0527484887
 30
0
  0
VERTEX
  8
0
 10
392.6825655802
 20
461.3878213637
 30
0
  0
VERTEX
  8
0
 10
391.0349143847
 20
472.0527482056
 30
0
  0
SEQEND
  8
0
  0
POLYLINE
  8
0
 62
7
 66
1
  0
VERTEX
  8
0
 10
392.0772208079
 20
437.0841848501
 30
0
  0
VERTEX
  8
0
 10
392.6841451033
 20
440.7268789433
 30
0
  0
VERTEX
  8
0
 10
394.5993764504
 20
451.0527484887
 30
0
  0
SEQEND
  8
0
  0
POLYLINE
  8
0
 62
7
 66
1
  0
VERTEX
  8
0
 10
459.1989947661
 20
577.6504360907001
 30
0
  0
VERTEX
  8
0
 10
459.1172916992
 20
577.0588897936
 30
0
  0
VERTEX
  8
0
 10
459.1182528241
 20
577.0527505152001
 30
0
  0
SEQEND
  8
0
  0
POLYLINE
  8
0
 62
7
 66
1
  0
VERTEX
  8
0
 10
623.3931390746
 20
577.0527505152001
 30
0
  0
VERTEX
  8
0
 10
623.3941001995
 20
577.0588897936
 30
0
  0
VERTEX
  8
0
 10
623.3183799489
 20
577.6070886128
 30
0
  0
SEQEND
  8
0
  0
POLYLINE
  8
0
 62
7
 66
1
  0
VERTEX
  8
0
 10
623.3410893186
 20
577.3507737391
 30
0
  0
VERTEX
  8
0
 10
623.393913935
 20
577.0643883220999
 30
0
  0
VERTEX
  8
0
 10
623.3931390746
 20
577.0527505152001
 30
0
  0
SEQEND
  8
0
  0
POLYLINE
  8
0
 62
7
 66
1
  0
VERTEX
  8
0
 10
459.1182528241
 20
577.0527505152001
 30
0
  0
VERTEX
  8
0
 10
459.1174779638
 20
577.0643883220999
 30
0
  0
VERTEX
  8
0
 10
459.1703025802
 20
577.3507737391
 30
0
  0
SEQEND
  8
0
  0
POLYLINE
  8
0
 62
7
 66
1
  0
VERTEX
  8
0
 10
487.7503944739
 20
588.2027529948
 30
0
  0
VERTEX
  8
0
 10
487.7614772125
 20
588.4239011281001
 30
0
  0
VERTEX
  8
0
 10
487.8897799357
 20
588.9768534177
 30
0
  0
VERTEX
  8
0
 10
488.1097248002
 20
589.4162588589001
 30
0
  0
VERTEX
  8
0
 10
488.3803522392
 20
589.7583597176
 30
0
  0
VERTEX
  8
0
 10
488.6376729413
 20
589.9897598498
 30
0
  0
VERTEX
  8
0
 10
488.754792343
 20
590.0930546992
 30
0
  0
VERTEX
  8
0
 10
488.6762930258
 20
590.108656215
 30
0
  0
VERTEX
  8
0
 10
488.4414544507
 20
590.0614046328
 30
0
  0
VERTEX
  8
0
 10
488.1167022689
 20
589.9419122212
 30
0
  0
VERTEX
  8
0
 10
487.7292124732
 20
589.7049688571
 30
0
  0
VERTEX
  8
0
 10
487.3326925739
 20
589.2832957976
 30
0
  0
VERTEX
  8
0
 10
487.0683385237
 20
588.7133859866
 30
0
  0
VERTEX
  8
0
 10
486.9995324119
 20
588.2027529948
 30
0
  0
SEQEND
  8
0
  0
POLYLINE
  8
0
 62
7
 66
1
  0
VERTEX
  8
0
 10
526.2556962847
 20
590.2027421467
 30
0
  0
VERTEX
  8
0
 10
524.8796085074
 20
595.6631385558
 30
0
  0
VERTEX
  8
0
 10
523.5156214042
 20
601.0755085223
 30
0
  0
VERTEX
  8
0
 10
522.1647398724
 20
606.4358585351
 30
0
  0
SEQEND
  8
0
  0
POLYLINE
  8
0
 62
7
 66
1
  0
VERTEX
  8
0
 10
370.156808029
 20
490.4155664914
 30
0
  0
VERTEX
  8
0
 10
370.2294809922
 20
491.1944725387
 30
0
  0
VERTEX
  8
0
 10
370.2815605505
 20
491.2109718495
 30
0
  0
VERTEX
  8
0
 10
370.3317923649
 20
490.7825113111
 30
0
  0
VERTEX
  8
0
 10
370.3577650889
 20
490.4155664914
 30
0
  0
SEQEND
  8
0
  0
POLYLINE
  8
0
 62
7
 66
1
  0
VERTEX
  8
0
 10
389.3545700415
 20
490.4155664914
 30
0
  0
VERTEX
  8
0
 10
389.3286122187
 20
490.7825113111
 30
0
  0
VERTEX
  8
0
 10
389.2770691021
 20
491.2165113561
 30
0
  0
VERTEX
  8
0
 10
389.2572803601
 20
491.207924562
 30
0
  0
SEQEND
  8
0
  0
POLYLINE
  8
0
 62
7
 66
1
  0
VERTEX
  8
0
 10
551.0433932944
 20
542.9012560122
 30
0
  0
VERTEX
  8
0
 10
550.8234922021001
 20
542.1200402849
 30
0
  0
VERTEX
  8
0
 10
550.7412731825
 20
542.0527466409
 30
0
  0
SEQEND
  8
0
  0
POLYLINE
  8
0
 62
7
 66
1
  0
VERTEX
  8
0
 10
531.4679986044
 20
542.9012560122
 30
0
  0
VERTEX
  8
0
 10
531.5443437724
 20
542.5414823764
 30
0
  0
VERTEX
  8
0
 10
531.7701187163
 20
542.0527466409
 30
0
  0
SEQEND
  8
0
  0
POLYLINE
  8
0
 62
7
 66
1
  0
VERTEX
  8
0
 10
550.7412731825
 20
542.0527466409
 30
0
  0
VERTEX
  8
0
 10
550.5154973074
 20
542.5414823764
 30
0
  0
VERTEX
  8
0
 10
550.4391521393
 20
542.9012560122
 30
0
  0
SEQEND
  8
0
  0
POLYLINE
  8
0
 62
7
 66
1
  0
VERTEX
  8
0
 10
621.1914478048
 20
542.9012560122
 30
0
  0
VERTEX
  8
0
 10
621.0513545378
 20
542.3096426599
 30
0
  0
VERTEX
  8
0
 10
620.910814236
 20
542.0573660009
 30
0
  0
VERTEX
  8
0
 10
620.8893342121
 20
542.0527466409
 30
0
  0
SEQEND
  8
0
  0
POLYLINE
  8
0
 62
7
 66
1
  0
VERTEX
  8
0
 10
601.6160568400001
 20
542.9012560122
 30
0
  0
VERTEX
  8
0
 10
601.7561538323
 20
542.3096426599
 30
0
  0
VERTEX
  8
0
 10
601.8966904088001
 20
542.0573660009
 30
0
  0
VERTEX
  8
0
 10
601.9181778832
 20
542.0527466409
 30
0
  0
SEQEND
  8
0
  0
POLYLINE
  8
0
 62
7
 66
1
  0
VERTEX
  8
0
 10
620.8893342121
 20
542.0527466409
 30
0
  0
VERTEX
  8
0
 10
620.7352264031
 20
542.2856368892
 30
0
  0
VERTEX
  8
0
 10
620.5872131689
 20
542.9012560122
 30
0
  0
SEQEND
  8
0
  0
POLYLINE
  8
0
 62
7
 66
1
  0
VERTEX
  8
0
 10
480.8953350588
 20
542.9012560122
 30
0
  0
VERTEX
  8
0
 10
480.7552380665
 20
542.3096426599
 30
0
  0
VERTEX
  8
0
 10
480.61470149
 20
542.0573660009
 30
0
  0
VERTEX
  8
0
 10
480.5932140156
 20
542.0527466409
 30
0
  0
SEQEND
  8
0
  0
POLYLINE
  8
0
 62
7
 66
1
  0
VERTEX
  8
0
 10
480.5932140156
 20
542.0527466409
 30
0
  0
VERTEX
  8
0
 10
480.4391136571
 20
542.2856368892
 30
0
  0
VERTEX
  8
0
 10
480.2910929724
 20
542.9012560122
 30
0
  0
SEQEND
  8
0
  0
POLYLINE
  8
0
 62
7
 66
1
  0
VERTEX
  8
0
 10
461.319944094
 20
542.9012560122
 30
0
  0
VERTEX
  8
0
 10
461.460037361
 20
542.3096426599
 30
0
  0
VERTEX
  8
0
 10
461.6005776628
 20
542.0573660009
 30
0
  0
VERTEX
  8
0
 10
461.6220576866
 20
542.0527466409
 30
0
  0
SEQEND
  8
0
  0
POLYLINE
  8
0
 62
7
 66
1
  0
VERTEX
  8
0
 10
647.2511125906
 20
495.1667197817
 30
0
  0
VERTEX
  8
0
 10
646.1671127184
 20
494.8639952414
 30
0
  0
VERTEX
  8
0
 10
642.8047327503
 20
494.7044224315
 30
0
  0
SEQEND
  8
0
  0
POLYLINE
  8
0
 62
7
 66
1
  0
VERTEX
  8
0
 10
601.4455763801
 20
420.7822521054
 30
0
  0
VERTEX
  8
0
 10
600.8370613857001
 20
421.630612465
 30
0
  0
VERTEX
  8
0
 10
600.615779142
 20
422.3952804529
 30
0
  0
SEQEND
  8
0
  0
POLYLINE
  8
0
 62
7
 66
1
  0
VERTEX
  8
0
 10
411.2557007178
 20
427.525455954
 30
0
  0
VERTEX
  8
0
 10
412.805332075
 20
424.8309739702
 30
0
  0
VERTEX
  8
0
 10
413.8434065684
 20
422.1148666762
 30
0
  0
VERTEX
  8
0
 10
414.5278765066
 20
419.5179127925
 30
0
  0
VERTEX
  8
0
 10
415.0537086829
 20
416.6079767816
 30
0
  0
VERTEX
  8
0
 10
415.3779281481
 20
413.9062286191
 30
0
  0
VERTEX
  8
0
 10
415.6816585167
 20
409.413193243
 30
0
  0
SEQEND
  8
0
  0
POLYLINE
  8
0
 62
7
 66
1
  0
VERTEX
  8
0
 10
411.2557007178
 20
404.6046853833
 30
0
  0
VERTEX
  8
0
 10
417.7878780468
 20
402.1515295677
 30
0
  0
VERTEX
  8
0
 10
424.0176661118
 20
399.0001388662
 30
0
  0
VERTEX
  8
0
 10
430.1599620088
 20
394.9731782847
 30
0
  0
VERTEX
  8
0
 10
435.8378855689
 20
390.2334504597
 30
0
  0
VERTEX
  8
0
 10
443.0504946216
 20
383.4326722496
 30
0
  0
VERTEX
  8
0
 10
450.6924880846
 20
377.224461066
 30
0
  0
VERTEX
  8
0
 10
458.7512968286
 20
371.6607698076
 30
0
  0
VERTEX
  8
0
 10
467.185324262
 20
366.757378804
 30
0
  0
VERTEX
  8
0
 10
475.9529737933
 20
362.5300460332
 30
0
  0
VERTEX
  8
0
 10
485.0126711829
 20
358.9945369237
 30
0
  0
SEQEND
  8
0
  0
POLYLINE
  8
0
 62
7
 66
1
  0
VERTEX
  8
0
 10
411.2557007178
 20
494.552747237
 30
0
  0
VERTEX
  8
0
 10
413.7839807375
 20
494.4958508783
 30
0
  0
VERTEX
  8
0
 10
421.9314066871421
 20
493.5269475750582
 30
0
  0
SEQEND
  8
0
  0
POLYLINE
  8
0
 62
7
 66
1
  0
VERTEX
  8
0
 10
533.755696117
 20
352.2761621349
 30
0
  0
VERTEX
  8
0
 10
537.5040278017
 20
352.1084495657
 30
0
  0
VERTEX
  8
0
 10
538.6658901992
 20
352.0792358391
 30
0
  0
SEQEND
  8
0
  0
POLYLINE
  8
0
 62
7
 66
1
  0
VERTEX
  8
0
 10
537.7066512304
 20
363.0433835857
 30
0
  0
VERTEX
  8
0
 10
539.2046852215
 20
362.9809998744
 30
0
  0
VERTEX
  8
0
 10
541.2556959494
 20
362.9068814986
 30
0
  0
SEQEND
  8
0
  0
POLYLINE
  8
0
 62
7
 66
1
  0
VERTEX
  8
0
 10
490.7174056574
 20
357.2054364555
 30
0
  0
VERTEX
  8
0
 10
498.7046888276
 20
355.1341601484
 30
0
  0
VERTEX
  8
0
 10
506.4824616714
 20
353.6446996801
 30
0
  0
SEQEND
  8
0
  0
POLYLINE
  8
0
 62
7
 66
1
  0
VERTEX
  8
0
 10
610.3610752328
 20
538.6058770888
 30
0
  0
VERTEX
  8
0
 10
613.463646005
 20
535.0877874367
 30
0
  0
VERTEX
  8
0
 10
615.7243905767
 20
530.9357055299
 30
0
  0
VERTEX
  8
0
 10
616.6974587544
 20
527.8811910026
 30
0
  0
VERTEX
  8
0
 10
617.1967743142
 20
524.6435188525001
 30
0
  0
VERTEX
  8
0
 10
617.3406599267
 20
521.2993853562
 30
0
  0
VERTEX
  8
0
 10
618.2207225068
 20
516.1066957586
 30
0
  0
SEQEND
  8
0
  0
POLYLINE
  8
0
 62
7
 66
1
  0
VERTEX
  8
0
 10
546.8588119551
 20
394.1272319131
 30
0
  0
VERTEX
  8
0
 10
547.734500113
 20
394.2572370939
 30
0
  0
VERTEX
  8
0
 10
548.6902768901
 20
394.8427931242
 30
0
  0
SEQEND
  8
0
  0
POLYLINE
  8
0
 62
7
 66
1
  0
VERTEX
  8
0
 10
548.6902768901
 20
394.8427931242
 30
0
  0
VERTEX
  8
0
 10
549.2729658439
 20
395.9778294735
 30
0
  0
VERTEX
  8
0
 10
549.4444092913
 20
397.6079457276
 30
0
  0
SEQEND
  8
0
  0
POLYLINE
  8
0
 62
7
 66
1
  0
VERTEX
  8
0
 10
548.6184546902
 20
400.4808300011
 30
0
  0
VERTEX
  8
0
 10
547.9149704046
 20
400.9431087248
 30
0
  0
VERTEX
  8
0
 10
546.8588119551
 20
401.1272311978
 30
0
  0
SEQEND
  8
0
  0
POLYLINE
  8
0
 62
7
 66
1
  0
VERTEX
  8
0
 10
548.0079666889
 20
395.3096353285
 30
0
  0
VERTEX
  8
0
 10
547.5541085183
 20
394.9735359125
 30
0
  0
VERTEX
  8
0
 10
546.8588119551
 20
394.8068813257
 30
0
  0
SEQEND
  8
0
  0
POLYLINE
  8
0
 62
7
 66
1
  0
VERTEX
  8
0
 10
546.8588119551
 20
400.4475817852
 30
0
  0
VERTEX
  8
0
 10
547.3947764552
 20
400.3558949404
 30
0
  0
VERTEX
  8
0
 10
547.9720553561
 20
399.9780759983
 30
0
  0
SEQEND
  8
0
  0
POLYLINE
  8
0
 62
7
 66
1
  0
VERTEX
  8
0
 10
201.7336620196
 20
496.8868055217
 30
0
  0
VERTEX
  8
0
 10
201.8528713091
 20
496.9232500367
 30
0
  0
VERTEX
  8
0
 10
201.8726004465
 20
496.9405204826
 30
0
  0
VERTEX
  8
0
 10
201.8778754576
 20
496.9565988355
 30
0
  0
SEQEND
  8
0
  0
POLYLINE
  8
0
 62
7
 66
1
  0
VERTEX
  8
0
 10
205.79673184
 20
496.8868055217
 30
0
  0
VERTEX
  8
0
 10
205.9819234713
 20
496.9256752007
 30
0
  0
VERTEX
  8
0
 10
206.0139907702
 20
496.9445549719
 30
0
  0
VERTEX
  8
0
 10
206.0256136759
 20
496.9620005064
 30
0
  0
SEQEND
  8
0
  0
POLYLINE
  8
0
 62
7
 66
1
  0
VERTEX
  8
0
 10
212.5685347422
 20
496.8868055217
 30
0
  0
VERTEX
  8
0
 10
212.6877440317
 20
496.9232500367
 30
0
  0
VERTEX
  8
0
 10
212.7075029715
 20
496.9405204826
 30
0
  0
VERTEX
  8
0
 10
212.7127481802
 20
496.9565988355
 30
0
  0
SEQEND
  8
0
  0
POLYLINE
  8
0
 62
7
 66
1
  0
VERTEX
  8
0
 10
216.6316343649
 20
496.8868055217
 30
0
  0
VERTEX
  8
0
 10
216.8167961939
 20
496.9256752007
 30
0
  0
VERTEX
  8
0
 10
216.8488634928
 20
496.9445549719
 30
0
  0
VERTEX
  8
0
 10
216.8604863985
 20
496.9620005064
 30
0
  0
SEQEND
  8
0
  0
POLYLINE
  8
0
 62
7
 66
1
  0
VERTEX
  8
0
 10
189.7166503771
 20
496.9599515968
 30
0
  0
VERTEX
  8
0
 10
189.6739436491
 20
497.0132679515
 30
0
  0
VERTEX
  8
0
 10
189.2273260458
 20
497.0441319816
 30
0
  0
SEQEND
  8
0
  0
POLYLINE
  8
0
 62
7
 66
1
  0
VERTEX
  8
0
 10
181.9188131197
 20
497.0463746064
 30
0
  0
VERTEX
  8
0
 10
182.1172965868
 20
497.0508859329
 30
0
  0
VERTEX
  8
0
 10
182.9886568888
 20
497.0479839318
 30
0
  0
VERTEX
  8
0
 10
183.8764680727
 20
497.0369421714
 30
0
  0
VERTEX
  8
0
 10
184.8943067892
 20
497.0317751937
 30
0
  0
SEQEND
  8
0
  0
POLYLINE
  8
0
 62
7
 66
1
  0
VERTEX
  8
0
 10
187.3567832812
 20
496.9599515968
 30
0
  0
VERTEX
  8
0
 10
187.3249544009
 20
496.8941704207
 30
0
  0
VERTEX
  8
0
 10
186.8896616801
 20
496.6815941804
 30
0
  0
VERTEX
  8
0
 10
186.125530134
 20
496.5132408612
 30
0
  0
SEQEND
  8
0
  0
POLYLINE
  8
0
 62
7
 66
1
  0
VERTEX
  8
0
 10
354.755697976
 20
428.839503678
 30
0
  0
VERTEX
  8
0
 10
351.340232621
 20
425.3453695052
 30
0
  0
VERTEX
  8
0
 10
348.2556922539
 20
421.3346157991
 30
0
  0
SEQEND
  8
0
  0
POLYLINE
  8
0
 62
7
 66
1
  0
VERTEX
  8
0
 10
359.7556932076
 20
390.5303560965
 30
0
  0
VERTEX
  8
0
 10
354.80053557
 20
405.3135373466
 30
0
  0
VERTEX
  8
0
 10
354.755697976
 20
405.4506354802
 30
0
  0
SEQEND
  8
0
  0
POLYLINE
  8
0
 62
7
 66
1
  0
VERTEX
  8
0
 10
404.4240100487
 20
404.4383250945
 30
0
  0
VERTEX
  8
0
 10
404.744161497
 20
406.1349899345
 30
0
  0
VERTEX
  8
0
 10
404.7556949957
 20
406.532705652
 30
0
  0
SEQEND
  8
0
  0
POLYLINE
  8
0
 62
7
 66
1
  0
VERTEX
  8
0
 10
404.3182714089
 20
433.1752684735
 30
0
  0
VERTEX
  8
0
 10
404.5006169184
 20
433.0820598476
 30
0
  0
VERTEX
  8
0
 10
404.7556949957
 20
432.9487335705
 30
0
  0
SEQEND
  8
0
  0
POLYLINE
  8
0
 62
7
 66
1
  0
VERTEX
  8
0
 10
372.2639663323
 20
438.1708930083
 30
0
  0
VERTEX
  8
0
 10
372.7759255274
 20
438.2758567878
 30
0
  0
VERTEX
  8
0
 10
376.352949272
 20
438.759441378
 30
0
  0
SEQEND
  8
0
  0
POLYLINE
  8
0
 62
7
 66
1
  0
VERTEX
  8
0
 10
395.1785547837
 20
436.3818623893
 30
0
  0
VERTEX
  8
0
 10
399.7699750765
 20
435.0572367035
 30
0
  0
VERTEX
  8
0
 10
404.3182714089
 20
433.1752684735
 30
0
  0
SEQEND
  8
0
  0
POLYLINE
  8
0
 62
7
 66
1
  0
VERTEX
  8
0
 10
354.755697976
 20
428.8916800939
 30
0
  0
VERTEX
  8
0
 10
359.5560474499
 20
432.7102218591
 30
0
  0
VERTEX
  8
0
 10
364.4314242705
 20
435.4952852078
 30
0
  0
SEQEND
  8
0
  0
POLYLINE
  8
0
 62
7
 66
1
  0
VERTEX
  8
0
 10
367.4827648505
 20
436.7811147891
 30
0
  0
VERTEX
  8
0
 10
368.4947176083
 20
437.1375188999
 30
0
  0
VERTEX
  8
0
 10
369.3415058955
 20
437.409812475
 30
0
  0
VERTEX
  8
0
 10
369.9438555344
 20
437.5892690219
 30
0
  0
VERTEX
  8
0
 10
370.232237707
 20
437.6710214489
 30
0
  0
VERTEX
  8
0
 10
370.2140880926
 20
437.6659466722
 30
0
  0
SEQEND
  8
0
  0
POLYLINE
  8
0
 62
7
 66
1
  0
VERTEX
  8
0
 10
385.7408447369
 20
438.2538095884
 30
0
  0
VERTEX
  8
0
 10
385.7549412354
 20
438.2516489201
 30
0
  0
VERTEX
  8
0
 10
385.3853775366
 20
438.3080740296
 30
0
  0
VERTEX
  8
0
 10
384.3739165171
 20
438.4519810625
 30
0
  0
VERTEX
  8
0
 10
382.8495128258
 20
438.6351228528
 30
0
  0
VERTEX
  8
0
 10
381.0028268202
 20
438.7913717725
 30
0
  0
VERTEX
  8
0
 10
379.0169788702
 20
438.8627064251
 30
0
  0
VERTEX
  8
0
 10
377.0860715016
 20
438.8193039991
 30
0
  0
VERTEX
  8
0
 10
375.4552735194
 20
438.6861407035
 30
0
  0
VERTEX
  8
0
 10
374.3215335711
 20
438.5412073531
 30
0
  0
VERTEX
  8
0
 10
373.7886680468
 20
438.4585031145
 30
0
  0
VERTEX
  8
0
 10
373.8282902344
 20
438.4649152704
 30
0
  0
SEQEND
  8
0
  0
POLYLINE
  8
0
 62
7
 66
1
  0
VERTEX
  8
0
 10
371.5291453703
 20
438.0054631107
 30
0
  0
VERTEX
  8
0
 10
371.6818673714
 20
438.0412780516
 30
0
  0
VERTEX
  8
0
 10
371.7315329417
 20
438.0527528771
 30
0
  0
SEQEND
  8
0
  0
POLYLINE
  8
0
 62
7
 66
1
  0
VERTEX
  8
0
 10
387.7834959133
 20
437.9120486625
 30
0
  0
VERTEX
  8
0
 10
387.7501471146
 20
437.9179877066
 30
0
  0
VERTEX
  8
0
 10
387.9822476013
 20
437.8765270882
 30
0
  0
SEQEND
  8
0
  0
POLYLINE
  8
0
 62
7
 66
1
  0
VERTEX
  8
0
 10
368.2035787209
 20
437.0384597056
 30
0
  0
VERTEX
  8
0
 10
368.303520809
 20
437.0727817364
 30
0
  0
VERTEX
  8
0
 10
368.4228791102
 20
437.1122148656
 30
0
  0
SEQEND
  8
0
  0
POLYLINE
  8
0
 62
7
 66
1
  0
VERTEX
  8
0
 10
369.8256148203
 20
437.554377953
 30
0
  0
VERTEX
  8
0
 10
369.8696328505
 20
437.5677917921
 30
0
  0
VERTEX
  8
0
 10
370.8873225554
 20
437.8467331477
 30
0
  0
SEQEND
  8
0
  0
POLYLINE
  8
0
 62
7
 66
1
  0
VERTEX
  8
0
 10
388.6240704163
 20
437.7596423798
 30
0
  0
VERTEX
  8
0
 10
388.7666149243
 20
437.7332822256
 30
0
  0
VERTEX
  8
0
 10
389.74620236
 20
437.5486987479
 30
0
  0
SEQEND
  8
0
  0
POLYLINE
  8
0
 62
7
 66
1
  0
VERTEX
  8
0
 10
597.0080702577
 20
426.7887577601
 30
0
  0
VERTEX
  8
0
 10
592.9474913156
 20
428.2197779111
 30
0
  0
VERTEX
  8
0
 10
588.8547637009
 20
429.124790744
 30
0
  0
VERTEX
  8
0
 10
584.7176695878
 20
429.5782186718
 30
0
  0
VERTEX
  8
0
 10
580.5239911509
 20
429.6544841075
 30
0
  0
VERTEX
  8
0
 10
576.2615105645
 20
429.4280094642
 30
0
  0
VERTEX
  8
0
 10
571.9180100032
 20
428.973217155
 30
0
  0
VERTEX
  8
0
 10
567.4812716413001
 20
428.3645295927
 30
0
  0
VERTEX
  8
0
 10
562.9390776533001
 20
427.6763691906
 30
0
  0
VERTEX
  8
0
 10
558.2792102136
 20
426.9831583616
 30
0
  0
VERTEX
  8
0
 10
553.4894514967
 20
426.3593195188
 30
0
  0
VERTEX
  8
0
 10
548.5580317458
 20
425.8786468903
 30
0
  0
VERTEX
  8
0
 10
543.495039078
 20
425.5842903423
 30
0
  0
VERTEX
  8
0
 10
538.3418296425
 20
425.4755624987
 30
0
  0
VERTEX
  8
0
 10
533.1421656453
 20
425.5484027337
 30
0
  0
VERTEX
  8
0
 10
527.9398092926
 20
425.7987504209
 30
0
  0
VERTEX
  8
0
 10
522.7785227903
 20
426.2225449344
 30
0
  0
VERTEX
  8
0
 10
517.7020683445001
 20
426.815725648
 30
0
  0
VERTEX
  8
0
 10
512.7542081612
 20
427.5742319357
 30
0
  0
VERTEX
  8
0
 10
507.9787044465
 20
428.4940031714
 30
0
  0
VERTEX
  8
0
 10
503.4193194064
 20
429.5709787289
 30
0
  0
VERTEX
  8
0
 10
499.1173118742
 20
430.8011386952
 30
0
  0
VERTEX
  8
0
 10
495.0801748918
 20
432.1810122978
 30
0
  0
VERTEX
  8
0
 10
491.2911762088
 20
433.707522746
 30
0
  0
VERTEX
  8
0
 10
487.7330544968
 20
435.3776018536
 30
0
  0
VERTEX
  8
0
 10
484.3885484274
 20
437.1881814343
 30
0
  0
VERTEX
  8
0
 10
481.2403966723
 20
439.1361933018
 30
0
  0
VERTEX
  8
0
 10
478.2713379032
 20
441.2185692699
 30
0
  0
VERTEX
  8
0
 10
475.4641107916
 20
443.4322411523
 30
0
  0
VERTEX
  8
0
 10
472.8014540094
 20
445.7741407628
 30
0
  0
VERTEX
  8
0
 10
470.266106228
 20
448.241199915
 30
0
  0
VERTEX
  8
0
 10
467.8408061192
 20
450.8303504227
 30
0
  0
VERTEX
  8
0
 10
465.5082923547
 20
453.5385240997
 30
0
  0
VERTEX
  8
0
 10
463.251303606
 20
456.3626527597
 30
0
  0
VERTEX
  8
0
 10
461.0525785448
 20
459.2996682164
 30
0
  0
VERTEX
  8
0
 10
458.8948558429
 20
462.3465022835
 30
0
  0
VERTEX
  8
0
 10
456.7608741717
 20
465.5000867749
 30
0
  0
VERTEX
  8
0
 10
454.6333722031
 20
468.7573535042
 30
0
  0
VERTEX
  8
0
 10
452.4950886086
 20
472.1152342852
 30
0
  0
VERTEX
  8
0
 10
450.32876206
 20
475.5706609315
 30
0
  0
VERTEX
  8
0
 10
448.1171312288
 20
479.1205652571
 30
0
  0
SEQEND
  8
0
  0
POLYLINE
  8
0
 62
7
 66
1
 70
1
  0
VERTEX
  8
0
 10
526.7027097000999
 20
856.2657752177
 30
0
  0
VERTEX
  8
0
 10
528.9031169550349
 20
856.5339644945165
 30
0
  0
VERTEX
  8
0
 10
518.0056953981075
 20
854.3285944602128
 30
0
  0
VERTEX
  8
0
 10
526.7027097000999
 20
856.2657752177
 30
0
  0
SEQEND
  8
0
  0
LINE
  8
1
 62
2
 10
629.0890292827334
 20
239.5901835637387
 30
0
 11
629.7556959494
 21
239.2151835637387
 31
0
  0
LINE
  8
1
 62
2
 10
623.0890292827334
 20
239.5901835637387
 30
0
 11
629.0890292827334
 21
239.5901835637387
 31
0
  0
LINE
  8
1
 62
2
 10
622.4223626160666
 20
239.9651835637387
 30
0
 11
623.0890292827334
 21
239.5901835637387
 31
0
  0
LINE
  8
1
 62
2
 10
613.7556959494
 20
240.7151835637387
 30
0
 11
616.4223626160666
 21
237.7151835637387
 31
0
  0
LINE
  8
1
 62
2
 10
612.7556959494
 20
242.2151835637387
 30
0
 11
611.0890292827334
 21
240.3401835637387
 31
0
  0
LINE
  8
1
 62
2
 10
614.4223626160666
 20
244.4651835637387
 30
0
 11
612.7556959494
 21
242.2151835637387
 31
0
  0
LINE
  8
1
 62
2
 10
617.7556959494
 20
242.9651835637387
 30
0
 11
613.4223626160666
 21
242.9651835637387
 31
0
  0
LINE
  8
1
 62
2
 10
616.4223626160666
 20
240.3401835637387
 30
0
 11
617.7556959494
 21
242.9651835637387
 31
0
  0
LINE
  8
1
 62
2
 10
613.7556959494
 20
237.3401835637387
 30
0
 11
616.4223626160666
 21
240.3401835637387
 31
0
  0
LINE
  8
1
 62
2
 10
610.7556959494
 20
235.0901835637387
 30
0
 11
613.7556959494
 21
237.3401835637387
 31
0
  0
LINE
  8
1
 62
2
 10
605.0890292827334
 20
239.5901835637387
 30
0
 11
605.7556959494
 21
239.2151835637387
 31
0
  0
LINE
  8
1
 62
2
 10
599.0890292827334
 20
239.5901835637387
 30
0
 11
605.0890292827334
 21
239.5901835637387
 31
0
  0
LINE
  8
1
 62
2
 10
598.4223626160666
 20
239.9651835637387
 30
0
 11
599.0890292827334
 21
239.5901835637387
 31
0
  0
LINE
  8
1
 62
2
 10
591.0890292827334
 20
239.5901835637387
 30
0
 11
592.7556959494
 21
236.9651835637387
 31
0
  0
LINE
  8
1
 62
2
 10
589.4223626160666
 20
241.4651835637387
 30
0
 11
591.0890292827334
 21
239.5901835637387
 31
0
  0
LINE
  8
1
 62
2
 10
591.7556959494
 20
240.3401835637387
 30
0
 11
593.4223626160666
 21
243.7151835637387
 31
0
  0
LINE
  8
1
 62
2
 10
589.0890292827334
 20
236.9651835637387
 30
0
 11
591.7556959494
 21
240.3401835637387
 31
0
  0
LINE
  8
1
 62
2
 10
586.7556959494
 20
235.0901835637387
 30
0
 11
589.0890292827334
 21
236.9651835637387
 31
0
  0
LINE
  8
1
 62
2
 10
579.0890292827334
 20
242.9651835637387
 30
0
 11
582.7556959494
 21
242.9651835637387
 31
0
  0
LINE
  8
1
 62
2
 10
578.0890292827334
 20
241.0901835637387
 30
0
 11
577.4223626160666
 21
241.0901835637387
 31
0
  0
LINE
  8
1
 62
2
 10
577.4223626160666
 20
239.5901835637387
 30
0
 11
577.4223626160666
 21
237.7151835637387
 31
0
  0
LINE
  8
1
 62
2
 10
581.4223626160666
 20
237.7151835637387
 30
0
 11
581.4223626160666
 21
241.0901835637387
 31
0
  0
LINE
  8
1
 62
2
 10
577.4223626160666
 20
237.7151835637387
 30
0
 11
577.4223626160666
 21
236.2151835637387
 31
0
  0
LINE
  8
1
 62
2
 10
576.7556959494
 20
234.7151835637387
 30
0
 11
583.0890292827334
 21
234.7151835637387
 31
0
  0
LINE
  8
1
 62
2
 10
575.4223626160666
 20
235.0901835637387
 30
0
 11
576.7556959494
 21
234.7151835637387
 31
0
  0
LINE
  8
1
 62
2
 10
574.4223626160666
 20
235.8401835637387
 30
0
 11
575.4223626160666
 21
235.0901835637387
 31
0
  0
LINE
  8
1
 62
2
 10
581.4223626160666
 20
237.7151835637387
 30
0
 11
577.4223626160666
 21
237.7151835637387
 31
0
  0
LINE
  8
1
 62
2
 10
577.4223626160666
 20
239.5901835637387
 30
0
 11
581.4223626160666
 21
239.5901835637387
 31
0
  0
LINE
  8
1
 62
2
 10
581.4223626160666
 20
241.0901835637387
 30
0
 11
578.0890292827334
 21
241.0901835637387
 31
0
  0
LINE
  8
1
 62
2
 10
581.4223626160666
 20
236.2151835637387
 30
0
 11
581.4223626160666
 21
237.7151835637387
 31
0
  0
LINE
  8
1
 62
2
 10
577.4223626160666
 20
236.2151835637387
 30
0
 11
581.4223626160666
 21
236.2151835637387
 31
0
  0
LINE
  8
1
 62
2
 10
577.4223626160666
 20
241.0901835637387
 30
0
 11
577.4223626160666
 21
239.5901835637387
 31
0
  0
LINE
  8
1
 62
2
 10
579.0890292827334
 20
242.9651835637387
 30
0
 11
578.0890292827334
 21
241.0901835637387
 31
0
  0
LINE
  8
1
 62
2
 10
575.7556959494
 20
242.9651835637387
 30
0
 11
579.0890292827334
 21
242.9651835637387
 31
0
  0
LINE
  8
1
 62
2
 10
581.0890292827334
 20
245.2151835637387
 30
0
 11
579.7556959494
 21
242.9651835637387
 31
0
  0
LINE
  8
1
 62
2
 10
577.4223626160666
 20
245.2151835637387
 30
0
 11
578.4223626160666
 21
243.7151835637387
 31
0
  0
LINE
  8
1
 62
2
 10
573.7556959494
 20
245.2151835637387
 30
0
 11
575.0890292827334
 21
243.7151835637387
 31
0
  0
LINE
  8
1
 62
2
 10
574.4223626160666
 20
240.3401835637387
 30
0
 11
573.0890292827334
 21
240.3401835637387
 31
0
  0
LINE
  8
1
 62
2
 10
574.4223626160666
 20
235.8401835637387
 30
0
 11
574.4223626160666
 21
240.3401835637387
 31
0
  0
LINE
  8
1
 62
2
 10
573.4223626160666
 20
234.7151835637387
 30
0
 11
574.4223626160666
 21
235.8401835637387
 31
0
  0
LINE
  8
1
 62
2
 10
569.7556959494
 20
237.3401835637387
 30
0
 11
571.4223626160666
 21
235.4651835637387
 31
0
  0
LINE
  8
1
 62
2
 10
568.4223626160666
 20
239.5901835637387
 30
0
 11
569.7556959494
 21
237.3401835637387
 31
0
  0
LINE
  8
1
 62
2
 10
567.4223626160666
 20
242.2151835637387
 30
0
 11
568.4223626160666
 21
239.5901835637387
 31
0
  0
LINE
  8
1
 62
2
 10
570.4223626160666
 20
242.5901835637387
 30
0
 11
568.0890292827334
 21
240.7151835637387
 31
0
  0
LINE
  8
1
 62
2
 10
566.4223626160666
 20
233.5901835637387
 30
0
 11
565.4223626160666
 21
233.9651835637387
 31
0
  0
LINE
  8
1
 62
2
 10
566.4223626160666
 20
245.2151835637387
 30
0
 11
566.4223626160666
 21
233.5901835637387
 31
0
  0
LINE
  8
1
 62
2
 10
564.7556959494
 20
241.4651835637387
 30
0
 11
561.4223626160666
 21
241.4651835637387
 31
0
  0
LINE
  8
1
 62
2
 10
564.0890292827334
 20
239.2151835637387
 30
0
 11
564.7556959494
 21
241.4651835637387
 31
0
  0
LINE
  8
1
 62
2
 10
562.7556959494
 20
236.9651835637387
 30
0
 11
564.0890292827334
 21
239.2151835637387
 31
0
  0
LINE
  8
1
 62
2
 10
561.4223626160666
 20
235.4651835637387
 30
0
 11
562.7556959494
 21
236.9651835637387
 31
0
  0
LINE
  8
1
 62
2
 10
552.9556959494
 20
241.9901835637387
 30
0
 11
555.3556959494
 21
241.9901835637387
 31
0
  0
LINE
  8
1
 62
2
 10
552.9556959494
 20
241.9901835637387
 30
0
 11
552.9556959494
 21
233.5901835637387
 31
0
  0
LINE
  8
1
 62
2
 10
557.1556959494
 20
240.4901835637387
 30
0
 11
557.1556959494
 21
233.5901835637387
 31
0
  0
LINE
  8
1
 62
2
 10
556.8556959494
 20
241.0901835637387
 30
0
 11
557.1556959494
 21
240.4901835637387
 31
0
  0
LINE
  8
1
 62
2
 10
556.2556959494
 20
241.6901835637387
 30
0
 11
556.8556959494
 21
241.0901835637387
 31
0
  0
LINE
  8
1
 62
2
 10
555.3556959494
 20
241.9901835637387
 30
0
 11
556.2556959494
 21
241.6901835637387
 31
0
  0
LINE
  8
1
 62
2
 10
548.7556959494
 20
241.9901835637387
 30
0
 11
552.9556959494
 21
241.9901835637387
 31
0
  0
LINE
  8
1
 62
2
 10
548.7556959494
 20
233.5901835637387
 30
0
 11
548.7556959494
 21
241.9901835637387
 31
0
  0
LINE
  8
1
 62
2
 10
540.9556959494
 20
241.9901835637387
 30
0
 11
543.3556959494
 21
241.9901835637387
 31
0
  0
LINE
  8
1
 62
2
 10
540.9556959494
 20
241.9901835637387
 30
0
 11
540.9556959494
 21
233.5901835637387
 31
0
  0
LINE
  8
1
 62
2
 10
545.1556959494
 20
240.4901835637387
 30
0
 11
545.1556959494
 21
233.5901835637387
 31
0
  0
LINE
  8
1
 62
2
 10
544.8556959494
 20
241.0901835637387
 30
0
 11
545.1556959494
 21
240.4901835637387
 31
0
  0
LINE
  8
1
 62
2
 10
544.2556959494
 20
241.6901835637387
 30
0
 11
544.8556959494
 21
241.0901835637387
 31
0
  0
LINE
  8
1
 62
2
 10
543.3556959494
 20
241.9901835637387
 30
0
 11
544.2556959494
 21
241.6901835637387
 31
0
  0
LINE
  8
1
 62
2
 10
536.7556959494
 20
241.9901835637387
 30
0
 11
540.9556959494
 21
241.9901835637387
 31
0
  0
LINE
  8
1
 62
2
 10
536.7556959494
 20
233.5901835637387
 30
0
 11
536.7556959494
 21
241.9901835637387
 31
0
  0
LINE
  8
1
 62
2
 10
530.4556959494
 20
233.5901835637387
 30
0
 11
525.9556959494
 21
233.5901835637387
 31
0
  0
LINE
  8
1
 62
2
 10
531.3556959494
 20
233.8901835637387
 30
0
 11
530.4556959494
 21
233.5901835637387
 31
0
  0
LINE
  8
1
 62
2
 10
532.2556959494
 20
234.4901835637387
 30
0
 11
531.3556959494
 21
233.8901835637387
 31
0
  0
LINE
  8
1
 62
2
 10
532.8556959494
 20
235.3901835637387
 30
0
 11
532.2556959494
 21
234.4901835637387
 31
0
  0
LINE
  8
1
 62
2
 10
533.1556959494001
 20
236.5901835637387
 30
0
 11
532.8556959494
 21
235.3901835637387
 31
0
  0
LINE
  8
1
 62
2
 10
533.1556959494001
 20
238.3901835637387
 30
0
 11
533.1556959494001
 21
236.5901835637387
 31
0
  0
LINE
  8
1
 62
2
 10
532.8556959494
 20
239.5901835637387
 30
0
 11
533.1556959494001
 21
238.3901835637387
 31
0
  0
LINE
  8
1
 62
2
 10
531.9556959494
 20
240.4901835637387
 30
0
 11
532.8556959494
 21
239.5901835637387
 31
0
  0
LINE
  8
1
 62
2
 10
530.4556959494
 20
240.7901835637387
 30
0
 11
531.9556959494
 21
240.4901835637387
 31
0
  0
LINE
  8
1
 62
2
 10
525.9556959494
 20
240.7901835637387
 30
0
 11
530.4556959494
 21
240.7901835637387
 31
0
  0
LINE
  8
1
 62
2
 10
525.9556959494
 20
245.5901835637387
 30
0
 11
525.9556959494
 21
240.7901835637387
 31
0
  0
LINE
  8
1
 62
2
 10
532.5556959494001
 20
245.5901835637387
 30
0
 11
525.9556959494
 21
245.5901835637387
 31
0
  0
LINE
  8
1
 62
2
 10
522.3556959494
 20
245.5901835637387
 30
0
 11
516.3556959494
 21
233.5901835637387
 31
0
  0
LINE
  8
1
 62
2
 10
515.1556959494
 20
245.5901835637387
 30
0
 11
522.3556959494
 21
245.5901835637387
 31
0
  0
LINE
  8
1
 62
2
 10
515.1556959494
 20
244.3901835637387
 30
0
 11
515.1556959494
 21
245.5901835637387
 31
0
  0
LINE
  8
1
 62
2
 10
507.1556959494
 20
244.8401835637387
 30
0
 11
503.8223626160666
 21
244.8401835637387
 31
0
  0
LINE
  8
1
 62
2
 10
508.8223626160666
 20
233.9651835637387
 30
0
 11
513.4890292827333
 21
233.9651835637387
 31
0
  0
LINE
  8
1
 62
2
 10
508.8223626160666
 20
238.4651835637387
 30
0
 11
508.8223626160666
 21
233.9651835637387
 31
0
  0
LINE
  8
1
 62
2
 10
512.8223626160666
 20
238.4651835637387
 30
0
 11
511.8223626160666
 21
238.4651835637387
 31
0
  0
LINE
  8
1
 62
2
 10
512.8223626160666
 20
245.2151835637387
 30
0
 11
512.8223626160666
 21
238.4651835637387
 31
0
  0
LINE
  8
1
 62
2
 10
510.4890292827333
 20
239.9651835637387
 30
0
 11
510.4890292827333
 21
244.8401835637387
 31
0
  0
LINE
  8
1
 62
2
 10
507.1556959494
 20
244.8401835637387
 30
0
 11
507.1556959494
 21
238.4651835637387
 31
0
  0
LINE
  8
1
 62
2
 10
503.4890292827333
 20
242.2151835637387
 30
0
 11
509.1556959494
 21
242.2151835637387
 31
0
  0
LINE
  8
1
 62
2
 10
508.8223626160666
 20
244.8401835637387
 30
0
 11
507.1556959494
 21
244.8401835637387
 31
0
  0
LINE
  8
1
 62
2
 10
505.4890292827333
 20
242.2151835637387
 30
0
 11
505.4890292827333
 21
244.8401835637387
 31
0
  0
LINE
  8
1
 62
2
 10
504.8223626160666
 20
239.5901835637387
 30
0
 11
505.4890292827333
 21
242.2151835637387
 31
0
  0
LINE
  8
1
 62
2
 10
503.8223626160666
 20
238.0901835637387
 30
0
 11
504.8223626160666
 21
239.5901835637387
 31
0
  0
LINE
  8
1
 62
2
 10
512.1556959494
 20
236.5901835637387
 30
0
 11
504.8223626160666
 21
236.5901835637387
 31
0
  0
LINE
  8
1
 62
2
 10
503.8223626160666
 20
233.9651835637387
 30
0
 11
508.8223626160666
 21
233.9651835637387
 31
0
  0
LINE
  8
1
 62
2
 10
497.1556959494
 20
233.5901835637387
 30
0
 11
499.5556959494
 21
245.5901835637387
 31
0
  0
LINE
  8
1
 62
2
 10
494.1556959494
 20
241.9901835637387
 30
0
 11
497.1556959494
 21
233.5901835637387
 31
0
  0
LINE
  8
1
 62
2
 10
491.1556959494
 20
233.5901835637387
 30
0
 11
494.1556959494
 21
241.9901835637387
 31
0
  0
LINE
  8
1
 62
2
 10
488.7556959494
 20
245.5901835637387
 30
0
 11
491.1556959494
 21
233.5901835637387
 31
0
  0
LINE
  8
1
 62
2
 10
484.8556959494
 20
243.1901835637387
 30
0
 11
485.1556959494
 21
241.9901835637387
 31
0
  0
LINE
  8
1
 62
2
 10
484.2556959494
 20
244.0901835637387
 30
0
 11
484.8556959494
 21
243.1901835637387
 31
0
  0
LINE
  8
1
 62
2
 10
483.6556959494
 20
244.6901835637387
 30
0
 11
484.2556959494
 21
244.0901835637387
 31
0
  0
LINE
  8
1
 62
2
 10
482.7556959494
 20
245.2901835637387
 30
0
 11
483.6556959494
 21
244.6901835637387
 31
0
  0
LINE
  8
1
 62
2
 10
481.5556959494
 20
245.5901835637387
 30
0
 11
482.7556959494
 21
245.2901835637387
 31
0
  0
LINE
  8
1
 62
2
 10
476.7556959494
 20
245.5901835637387
 30
0
 11
481.5556959494
 21
245.5901835637387
 31
0
  0
LINE
  8
1
 62
2
 10
476.7556959494
 20
233.5901835637387
 30
0
 11
476.7556959494
 21
245.5901835637387
 31
0
  0
LINE
  8
1
 62
2
 10
481.5556959494
 20
233.5901835637387
 30
0
 11
476.7556959494
 21
233.5901835637387
 31
0
  0
LINE
  8
1
 62
2
 10
482.7556959494
 20
233.8901835637387
 30
0
 11
481.5556959494
 21
233.5901835637387
 31
0
  0
LINE
  8
1
 62
2
 10
483.6556959494
 20
234.4901835637387
 30
0
 11
482.7556959494
 21
233.8901835637387
 31
0
  0
LINE
  8
1
 62
2
 10
484.2556959494
 20
235.0901835637387
 30
0
 11
483.6556959494
 21
234.4901835637387
 31
0
  0
LINE
  8
1
 62
2
 10
484.8556959494
 20
235.9901835637387
 30
0
 11
484.2556959494
 21
235.0901835637387
 31
0
  0
LINE
  8
1
 62
2
 10
485.1556959494
 20
237.1901835637387
 30
0
 11
484.8556959494
 21
235.9901835637387
 31
0
  0
LINE
  8
1
 62
2
 10
485.1556959494
 20
241.9901835637387
 30
0
 11
485.1556959494
 21
237.1901835637387
 31
0
  0
LINE
  8
1
 62
2
 10
464.7556959494
 20
240.1901835637387
 30
0
 11
464.7556959494
 21
233.5901835637387
 31
0
  0
LINE
  8
1
 62
2
 10
464.7556959494
 20
245.5901835637387
 30
0
 11
464.7556959494
 21
240.1901835637387
 31
0
  0
LINE
  8
1
 62
2
 10
473.1556959494
 20
245.5901835637387
 30
0
 11
464.7556959494
 21
245.5901835637387
 31
0
  0
LINE
  8
1
 62
2
 10
464.7556959494
 20
240.1901835637387
 30
0
 11
473.1556959494
 21
240.1901835637387
 31
0
  0
LINE
  8
1
 62
2
 10
461.1556959494
 20
240.1901835637387
 30
0
 11
458.1556959494
 21
240.1901835637387
 31
0
  0
LINE
  8
1
 62
2
 10
461.1556959494
 20
233.5901835637387
 30
0
 11
461.1556959494
 21
240.1901835637387
 31
0
  0
LINE
  8
1
 62
2
 10
456.0556959494
 20
233.5901835637387
 30
0
 11
461.1556959494
 21
233.5901835637387
 31
0
  0
LINE
  8
1
 62
2
 10
455.1556959494
 20
233.8901835637387
 30
0
 11
456.0556959494
 21
233.5901835637387
 31
0
  0
LINE
  8
1
 62
2
 10
453.9556959494
 20
234.4901835637387
 30
0
 11
455.1556959494
 21
233.8901835637387
 31
0
  0
LINE
  8
1
 62
2
 10
453.3556959494
 20
235.0901835637387
 30
0
 11
453.9556959494
 21
234.4901835637387
 31
0
  0
LINE
  8
1
 62
2
 10
453.0556959494
 20
235.9901835637387
 30
0
 11
453.3556959494
 21
235.0901835637387
 31
0
  0
LINE
  8
1
 62
2
 10
452.7556959494
 20
237.1901835637387
 30
0
 11
453.0556959494
 21
235.9901835637387
 31
0
  0
LINE
  8
1
 62
2
 10
452.7556959494
 20
241.9901835637387
 30
0
 11
452.7556959494
 21
237.1901835637387
 31
0
  0
LINE
  8
1
 62
2
 10
453.0556959494
 20
243.1901835637387
 30
0
 11
452.7556959494
 21
241.9901835637387
 31
0
  0
LINE
  8
1
 62
2
 10
453.3556959494
 20
244.0901835637387
 30
0
 11
453.0556959494
 21
243.1901835637387
 31
0
  0
LINE
  8
1
 62
2
 10
453.9556959494
 20
244.6901835637387
 30
0
 11
453.3556959494
 21
244.0901835637387
 31
0
  0
LINE
  8
1
 62
2
 10
454.8556959494
 20
245.2901835637387
 30
0
 11
453.9556959494
 21
244.6901835637387
 31
0
  0
LINE
  8
1
 62
2
 10
456.0556959494
 20
245.5901835637387
 30
0
 11
454.8556959494
 21
245.2901835637387
 31
0
  0
LINE
  8
1
 62
2
 10
461.1556959494
 20
245.5901835637387
 30
0
 11
456.0556959494
 21
245.5901835637387
 31
0
  0
LINE
  8
1
 62
2
 10
592.5890292827332
 20
216.7151835637387
 30
0
 11
592.9223626160666
 21
217.0901835637387
 31
0
  0
LINE
  8
1
 62
2
 10
592.5890292827332
 20
218.9651835637387
 30
0
 11
590.5890292827332
 21
218.9651835637387
 31
0
  0
LINE
  8
1
 62
2
 10
597.5890292827332
 20
210.3401835637387
 30
0
 11
600.5890292827332
 21
210.3401835637387
 31
0
  0
LINE
  8
1
 62
2
 10
594.2556959494
 20
210.3401835637387
 30
0
 11
597.5890292827332
 21
210.3401835637387
 31
0
  0
LINE
  8
1
 62
2
 10
597.5890292827332
 20
221.2151835637387
 30
0
 11
597.5890292827332
 21
210.3401835637387
 31
0
  0
LINE
  8
1
 62
2
 10
595.2556959494
 20
216.7151835637387
 30
0
 11
599.9223626160666
 21
216.7151835637387
 31
0
  0
LINE
  8
1
 62
2
 10
593.2556959494
 20
216.3401835637387
 30
0
 11
594.9223626160666
 21
214.4651835637387
 31
0
  0
LINE
  8
1
 62
2
 10
592.5890292827332
 20
218.9651835637387
 30
0
 11
592.5890292827332
 21
221.2151835637387
 31
0
  0
LINE
  8
1
 62
2
 10
594.2556959494
 20
218.9651835637387
 30
0
 11
592.5890292827332
 21
218.9651835637387
 31
0
  0
LINE
  8
1
 62
2
 10
592.9223626160666
 20
217.0901835637387
 30
0
 11
594.2556959494
 21
218.9651835637387
 31
0
  0
LINE
  8
1
 62
2
 10
591.2556959494
 20
215.2151835637387
 30
0
 11
592.5890292827332
 21
216.7151835637387
 31
0
  0
LINE
  8
1
 62
2
 10
589.9223626160666
 20
214.0901835637387
 30
0
 11
591.2556959494
 21
215.2151835637387
 31
0
  0
LINE
  8
1
 62
2
 10
592.5890292827332
 20
209.9651835637387
 30
0
 11
592.5890292827332
 21
216.7151835637387
 31
0
  0
LINE
  8
1
 62
2
 10
583.2556959494
 20
214.0901835637387
 30
0
 11
579.9223626160666
 21
209.9651835637387
 31
0
  0
LINE
  8
1
 62
2
 10
586.2556959494
 20
210.7151835637387
 30
0
 11
584.9223626160666
 21
212.2151835637387
 31
0
  0
LINE
  8
1
 62
2
 10
587.2556959494
 20
209.5901835637387
 30
0
 11
586.2556959494
 21
210.7151835637387
 31
0
  0
LINE
  8
1
 62
2
 10
578.9223626160666
 20
209.9651835637387
 30
0
 11
586.2556959494
 21
210.7151835637387
 31
0
  0
LINE
  8
1
 62
2
 10
579.5890292827332
 20
214.4651835637387
 30
0
 11
587.2556959494
 21
214.4651835637387
 31
0
  0
LINE
  8
1
 62
2
 10
580.9223626160666
 20
216.3401835637387
 30
0
 11
585.5890292827332
 21
216.3401835637387
 31
0
  0
LINE
  8
1
 62
2
 10
583.2556959494
 20
221.2151835637387
 30
0
 11
588.5890292827332
 21
215.5901835637387
 31
0
  0
LINE
  8
1
 62
2
 10
583.2556959494
 20
221.2151835637387
 30
0
 11
577.9223626160666
 21
215.5901835637387
 31
0
  0
LINE
  8
1
 62
2
 10
568.9223626160666
 20
215.9651835637387
 30
0
 11
566.5890292827332
 21
215.9651835637387
 31
0
  0
LINE
  8
1
 62
2
 10
568.9223626160666
 20
211.8401835637387
 30
0
 11
571.2556959494
 21
212.5901835637387
 31
0
  0
LINE
  8
1
 62
2
 10
575.5890292827332
 20
209.9651835637387
 30
0
 11
576.5890292827332
 21
211.0901835637387
 31
0
  0
LINE
  8
1
 62
2
 10
574.2556959494
 20
211.4651835637387
 30
0
 11
575.5890292827332
 21
209.9651835637387
 31
0
  0
LINE
  8
1
 62
2
 10
572.9223626160666
 20
214.0901835637387
 30
0
 11
574.2556959494
 21
211.4651835637387
 31
0
  0
LINE
  8
1
 62
2
 10
572.2556959494
 20
217.0901835637387
 30
0
 11
572.9223626160666
 21
214.0901835637387
 31
0
  0
LINE
  8
1
 62
2
 10
571.9223626160666
 20
221.5901835637387
 30
0
 11
572.2556959494
 21
217.0901835637387
 31
0
  0
LINE
  8
1
 62
2
 10
573.9223626160666
 20
220.0901835637387
 30
0
 11
572.9223626160666
 21
221.2151835637387
 31
0
  0
LINE
  8
1
 62
2
 10
565.9223626160666
 20
218.9651835637387
 30
0
 11
575.5890292827332
 21
218.9651835637387
 31
0
  0
LINE
  8
1
 62
2
 10
568.9223626160666
 20
215.9651835637387
 30
0
 11
568.9223626160666
 21
211.8401835637387
 31
0
  0
LINE
  8
1
 62
2
 10
571.2556959494
 20
215.9651835637387
 30
0
 11
568.9223626160666
 21
215.9651835637387
 31
0
  0
LINE
  8
1
 62
2
 10
566.5890292827332
 20
211.0901835637387
 30
0
 11
568.9223626160666
 21
211.8401835637387
 31
0
  0
LINE
  8
1
 62
2
 10
556.2556959494
 20
218.2151835637387
 30
0
 11
556.2556959494
 21
221.5901835637387
 31
0
  0
LINE
  8
1
 62
2
 10
556.2556959494
 20
218.2151835637387
 30
0
 11
554.5890292827332
 21
218.2151835637387
 31
0
  0
LINE
  8
1
 62
2
 10
562.9223626160666
 20
212.5901835637387
 30
0
 11
564.2556959494
 21
209.9651835637387
 31
0
  0
LINE
  8
1
 62
2
 10
561.2556959494
 20
215.9651835637387
 30
0
 11
562.9223626160666
 21
212.5901835637387
 31
0
  0
LINE
  8
1
 62
2
 10
560.2556959494
 20
213.3401835637387
 30
0
 11
561.2556959494
 21
215.9651835637387
 31
0
  0
LINE
  8
1
 62
2
 10
558.9223626160666
 20
211.4651835637387
 30
0
 11
560.2556959494
 21
213.3401835637387
 31
0
  0
LINE
  8
1
 62
2
 10
557.9223626160666
 20
209.9651835637387
 30
0
 11
558.9223626160666
 21
211.4651835637387
 31
0
  0
LINE
  8
1
 62
2
 10
561.2556959494
 20
221.5901835637387
 30
0
 11
561.2556959494
 21
209.5901835637387
 31
0
  0
LINE
  8
1
 62
2
 10
564.2556959494
 20
215.9651835637387
 30
0
 11
558.5890292827332
 21
215.9651835637387
 31
0
  0
LINE
  8
1
 62
2
 10
559.5890292827332
 20
218.5901835637387
 30
0
 11
563.9223626160666
 21
218.5901835637387
 31
0
  0
LINE
  8
1
 62
2
 10
559.5890292827332
 20
218.5901835637387
 30
0
 11
559.9223626160666
 21
220.4651835637387
 31
0
  0
LINE
  8
1
 62
2
 10
558.5890292827332
 20
216.7151835637387
 30
0
 11
559.5890292827332
 21
218.5901835637387
 31
0
  0
LINE
  8
1
 62
2
 10
556.2556959494
 20
218.2151835637387
 30
0
 11
557.9223626160666
 21
215.2151835637387
 31
0
  0
LINE
  8
1
 62
2
 10
554.2556959494
 20
212.9651835637387
 30
0
 11
556.2556959494
 21
218.2151835637387
 31
0
  0
LINE
  8
1
 62
2
 10
557.9223626160666
 20
218.2151835637387
 30
0
 11
556.2556959494
 21
218.2151835637387
 31
0
  0
LINE
  8
1
 62
2
 10
556.2556959494
 20
209.9651835637387
 30
0
 11
556.2556959494
 21
218.2151835637387
 31
0
  0
LINE
  8
1
 62
2
 10
542.9223626160666
 20
217.0901835637387
 30
0
 11
542.9223626160666
 21
218.9651835637387
 31
0
  0
LINE
  8
1
 62
2
 10
546.2556959494
 20
218.9651835637387
 30
0
 11
546.2556959494
 21
217.0901835637387
 31
0
  0
LINE
  8
1
 62
2
 10
542.9223626160666
 20
218.9651835637387
 30
0
 11
542.9223626160666
 21
220.8401835637387
 31
0
  0
LINE
  8
1
 62
2
 10
551.5890292827332
 20
217.0901835637387
 30
0
 11
551.5890292827332
 21
218.9651835637387
 31
0
  0
LINE
  8
1
 62
2
 10
548.2556959494
 20
218.9651835637387
 30
0
 11
548.2556959494
 21
217.0901835637387
 31
0
  0
LINE
  8
1
 62
2
 10
551.5890292827332
 20
218.9651835637387
 30
0
 11
551.5890292827332
 21
220.8401835637387
 31
0
  0
LINE
  8
1
 62
2
 10
542.9223626160666
 20
210.3401835637387
 30
0
 11
542.9223626160666
 21
209.9651835637387
 31
0
  0
LINE
  8
1
 62
2
 10
548.2556959494
 20
218.9651835637387
 30
0
 11
551.5890292827332
 21
218.9651835637387
 31
0
  0
LINE
  8
1
 62
2
 10
548.2556959494
 20
217.0901835637387
 30
0
 11
551.5890292827332
 21
217.0901835637387
 31
0
  0
LINE
  8
1
 62
2
 10
548.2556959494
 20
220.8401835637387
 30
0
 11
548.2556959494
 21
218.9651835637387
 31
0
  0
LINE
  8
1
 62
2
 10
551.5890292827332
 20
220.8401835637387
 30
0
 11
548.2556959494
 21
220.8401835637387
 31
0
  0
LINE
  8
1
 62
2
 10
551.5890292827332
 20
210.3401835637387
 30
0
 11
551.5890292827332
 21
217.0901835637387
 31
0
  0
LINE
  8
1
 62
2
 10
551.2556959494
 20
209.9651835637387
 30
0
 11
551.5890292827332
 21
210.3401835637387
 31
0
  0
LINE
  8
1
 62
2
 10
550.2556959494
 20
209.9651835637387
 30
0
 11
551.2556959494
 21
209.9651835637387
 31
0
  0
LINE
  8
1
 62
2
 10
546.2556959494
 20
218.9651835637387
 30
0
 11
542.9223626160666
 21
218.9651835637387
 31
0
  0
LINE
  8
1
 62
2
 10
546.2556959494
 20
217.0901835637387
 30
0
 11
542.9223626160666
 21
217.0901835637387
 31
0
  0
LINE
  8
1
 62
2
 10
546.2556959494
 20
220.8401835637387
 30
0
 11
546.2556959494
 21
218.9651835637387
 31
0
  0
LINE
  8
1
 62
2
 10
542.9223626160666
 20
220.8401835637387
 30
0
 11
546.2556959494
 21
220.8401835637387
 31
0
  0
LINE
  8
1
 62
2
 10
542.9223626160666
 20
210.3401835637387
 30
0
 11
542.9223626160666
 21
217.0901835637387
 31
0
  0
LINE
  8
1
 62
2
 10
535.2556959494
 20
209.9651835637387
 30
0
 11
539.2556959494
 21
209.9651835637387
 31
0
  0
LINE
  8
1
 62
2
 10
535.2556959494
 20
217.0901835637387
 30
0
 11
537.5890292827332
 21
217.0901835637387
 31
0
  0
LINE
  8
1
 62
2
 10
539.2556959494
 20
216.7151835637387
 30
0
 11
540.5890292827332
 21
215.5901835637387
 31
0
  0
LINE
  8
1
 62
2
 10
536.9223626160666
 20
219.3401835637387
 30
0
 11
539.2556959494
 21
216.7151835637387
 31
0
  0
LINE
  8
1
 62
2
 10
535.2556959494
 20
221.5901835637387
 30
0
 11
536.9223626160666
 21
219.3401835637387
 31
0
  0
LINE
  8
1
 62
2
 10
533.5890292827332
 20
219.3401835637387
 30
0
 11
535.2556959494
 21
221.5901835637387
 31
0
  0
LINE
  8
1
 62
2
 10
531.2556959494
 20
216.7151835637387
 30
0
 11
533.5890292827332
 21
219.3401835637387
 31
0
  0
LINE
  8
1
 62
2
 10
529.9223626160666
 20
215.5901835637387
 30
0
 11
531.2556959494
 21
216.7151835637387
 31
0
  0
LINE
  8
1
 62
2
 10
536.9223626160666
 20
211.4651835637387
 30
0
 11
537.5890292827332
 21
213.3401835637387
 31
0
  0
LINE
  8
1
 62
2
 10
532.9223626160666
 20
213.3401835637387
 30
0
 11
533.5890292827332
 21
211.4651835637387
 31
0
  0
LINE
  8
1
 62
2
 10
538.5890292827332
 20
214.8401835637387
 30
0
 11
531.9223626160666
 21
214.8401835637387
 31
0
  0
LINE
  8
1
 62
2
 10
532.9223626160666
 20
217.0901835637387
 30
0
 11
535.2556959494
 21
217.0901835637387
 31
0
  0
LINE
  8
1
 62
2
 10
535.2556959494
 20
209.9651835637387
 30
0
 11
535.2556959494
 21
217.0901835637387
 31
0
  0
LINE
  8
1
 62
2
 10
530.9223626160666
 20
209.9651835637387
 30
0
 11
535.2556959494
 21
209.9651835637387
 31
0
  0
LINE
  8
1
 62
2
 10
526.2556959494
 20
213.3401835637387
 30
0
 11
527.9223626160666
 21
215.5901835637387
 31
0
  0
LINE
  8
1
 62
2
 10
523.5890292827332
 20
211.8401835637387
 30
0
 11
526.2556959494
 21
213.3401835637387
 31
0
  0
LINE
  8
1
 62
2
 10
523.5890292827332
 20
218.5901835637387
 30
0
 11
523.5890292827332
 21
211.8401835637387
 31
0
  0
LINE
  8
1
 62
2
 10
520.9223626160666
 20
215.5901835637387
 30
0
 11
521.2556959494
 21
218.5901835637387
 31
0
  0
LINE
  8
1
 62
2
 10
520.2556959494
 20
213.3401835637387
 30
0
 11
520.9223626160666
 21
215.5901835637387
 31
0
  0
LINE
  8
1
 62
2
 10
519.2556959494
 20
211.4651835637387
 30
0
 11
520.2556959494
 21
213.3401835637387
 31
0
  0
LINE
  8
1
 62
2
 10
507.9223626160667
 20
214.4651835637387
 30
0
 11
507.9223626160667
 21
212.2151835637387
 31
0
  0
LINE
  8
1
 62
2
 10
511.5890292827334
 20
210.7151835637387
 30
0
 11
513.5890292827334
 21
211.0901835637387
 31
0
  0
LINE
  8
1
 62
2
 10
508.2556959494
 20
211.0901835637387
 30
0
 11
511.5890292827334
 21
210.7151835637387
 31
0
  0
LINE
  8
1
 62
2
 10
507.9223626160667
 20
212.2151835637387
 30
0
 11
508.2556959494
 21
211.0901835637387
 31
0
  0
LINE
  8
1
 62
2
 10
507.9223626160667
 20
218.5901835637387
 30
0
 11
507.9223626160667
 21
214.4651835637387
 31
0
  0
LINE
  8
1
 62
2
 10
514.2556959494
 20
219.3401835637387
 30
0
 11
515.2556959494
 21
218.2151835637387
 31
0
  0
LINE
  8
1
 62
2
 10
514.5890292827334
 20
217.4651835637387
 30
0
 11
513.5890292827334
 21
218.5901835637387
 31
0
  0
LINE
  8
1
 62
2
 10
510.9223626160667
 20
215.5901835637387
 30
0
 11
512.9223626160667
 21
216.7151835637387
 31
0
  0
LINE
  8
1
 62
2
 10
507.9223626160667
 20
214.4651835637387
 30
0
 11
510.9223626160667
 21
215.5901835637387
 31
0
  0
LINE
  8
1
 62
2
 10
500.5890292827334
 20
213.3401835637387
 30
0
 11
502.5890292827334
 21
211.0901835637387
 31
0
  0
LINE
  8
1
 62
2
 10
498.9223626160667
 20
214.8401835637387
 30
0
 11
500.5890292827334
 21
213.3401835637387
 31
0
  0
LINE
  8
1
 62
2
 10
502.9223626160667
 20
220.0901835637387
 30
0
 11
503.9223626160667
 21
218.9651835637387
 31
0
  0
LINE
  8
1
 62
2
 10
502.2556959494
 20
219.3401835637387
 30
0
 11
503.2556959494
 21
218.2151835637387
 31
0
  0
LINE
  8
1
 62
2
 10
500.9223626160667
 20
218.5901835637387
 30
0
 11
496.5890292827334
 21
218.5901835637387
 31
0
  0
LINE
  8
1
 62
2
 10
499.9223626160667
 20
216.3401835637387
 30
0
 11
500.9223626160667
 21
218.5901835637387
 31
0
  0
LINE
  8
1
 62
2
 10
497.5890292827334
 20
212.9651835637387
 30
0
 11
499.9223626160667
 21
216.3401835637387
 31
0
  0
LINE
  8
1
 62
2
 10
495.2556959494
 20
211.0901835637387
 30
0
 11
497.5890292827334
 21
212.9651835637387
 31
0
  0
LINE
  8
1
 62
2
 10
491.2556959494
 20
218.2151835637387
 30
0
 11
488.2556959494
 21
214.8401835637387
 31
0
  0
LINE
  8
1
 62
2
 10
483.5890292827334
 20
218.2151835637387
 30
0
 11
491.2556959494
 21
218.2151835637387
 31
0
  0
LINE
  8
1
 62
2
 10
487.2556959494
 20
214.8401835637387
 30
0
 11
487.5890292827334
 21
216.7151835637387
 31
0
  0
LINE
  8
1
 62
2
 10
486.5890292827334
 20
212.5901835637387
 30
0
 11
487.2556959494
 21
214.8401835637387
 31
0
  0
LINE
  8
1
 62
2
 10
485.2556959494
 20
210.3401835637387
 30
0
 11
486.5890292827334
 21
212.5901835637387
 31
0
  0
LINE
  8
1
 62
7
 10
479.3871028526703
 20
583.1649684183495
 30
0
 11
477.1076349719
 21
582.0527457469
 31
0
  0
LINE
  8
1
 62
7
 10
603.1242890461459
 20
583.1649684184067
 30
0
 11
605.4037569269
 21
582.0527457469
 31
0
  0
LINE
  8
1
 62
2
  6
DASHDOT
 10
389.6204123168371
 20
451.0527484887
 30
0
 11
688.7682301991001
 21
451.0527484887
 31
0
  0
LINE
  8
0
 62
7
 10
385.7608940029796
 20
472.0527482056
 30
0
 11
373.7514486898631
 21
472.0527482056
 31
0
  0
LINE
  8
1
 62
7
 10
385.7608940029796
 20
472.0527482056
 30
0
 11
389.6204123168371
 21
451.0527484887
 31
0
  0
LINE
  8
0
 62
7
 10
373.7514486898631
 20
472.0527482056
 30
0
 11
367.7553815945
 21
472.0527482056
 31
0
  0
LINE
  8
1
 62
2
  6
DASHDOT
 10
369.888721238
 20
451.0527484887
 30
0
 11
389.6204123168371
 21
451.0527484887
 31
0
  0
LINE
  8
1
 62
7
 10
369.888721238
 20
451.0527484887
 30
0
 11
373.7514486898631
 21
472.0527482056
 31
0
  0
LINE
  8
1
 62
7
 10
584.2281265362276
 20
686.2315976163584
 30
0
 11
646.6437263592052
 21
720.0023972531969
 31
0
  0
LINE
  8
1
 62
7
 10
584.2281265362
 20
846.6425531646
 30
0
 11
646.6377807959178
 21
812.8502586027212
 31
0
  0
LINE
  8
1
 62
2
  6
DASHDOT
 10
367.8074409297
 20
451.0527484887
 30
0
 11
369.888721238
 21
451.0527484887
 31
0
  0
LINE
  8
0
 62
7
 10
354.755697976
 20
451.0527484887
 30
0
 11
354.755697976
 21
428.8916800939
 31
0
  0
LINE
  8
0
 62
7
 10
404.7556949957
 20
451.0527484887
 30
0
 11
404.7556949957
 21
432.9487335705
 31
0
  0
LINE
  8
1
 62
7
 10
364.9120165213
 20
451.0527484887
 30
0
 11
367.4827648505
 21
436.7811147891
 31
0
  0
LINE
  8
1
 62
2
  6
DASHDOT
 10
25.7069129462
 20
451.0527484887
 30
0
 11
367.8074409297
 21
451.0527484887
 31
0
  0
LINE
  8
1
 62
7
 10
372.2639663323
 20
438.1708930083
 30
0
 11
369.888721238
 21
451.0527484887
 31
0
  0
LINE
  8
1
 62
7
 10
484.5533168121334
 20
754.2370756259099
 30
0
 11
489.441452752
 21
755.288799583
 31
0
  0
LINE
  8
1
 62
7
 10
484.5533150470054
 20
778.6370753904903
 30
0
 11
489.441452752
 21
777.585351198
 31
0
  0
LINE
  8
1
 62
7
 10
535.7708686209001
 20
694.9370722911001
 30
0
 11
530.2860412924
 21
685.4370753905
 31
0
  0
LINE
  8
1
 62
7
 10
546.7405232779
 20
694.9370722911001
 30
0
 11
535.7708686209001
 21
694.9370722911001
 31
0
  0
LINE
  8
1
 62
7
 10
552.2253506063
 20
685.4370753905
 30
0
 11
546.7405232779
 21
694.9370722911001
 31
0
  0
LINE
  8
1
 62
7
 10
546.7405232779
 20
675.9370784899001
 30
0
 11
552.2253506063
 21
685.4370753905
 31
0
  0
LINE
  8
1
 62
7
 10
535.7708686209001
 20
675.9370784899001
 30
0
 11
546.7405232779
 21
675.9370784899001
 31
0
  0
LINE
  8
1
 62
7
 10
530.2860412924
 20
685.4370753905
 30
0
 11
535.7708686209001
 21
675.9370784899001
 31
0
  0
LINE
  8
1
 62
7
 10
535.7708686209001
 20
856.9370725295
 30
0
 11
530.2860412924
 21
847.4370756289
 31
0
  0
LINE
  8
1
 62
7
 10
546.7405232779
 20
856.9370725295
 30
0
 11
535.7708686209001
 21
856.9370725295
 31
0
  0
LINE
  8
1
 62
7
 10
552.2253506063
 20
847.4370756289
 30
0
 11
546.7405232779
 21
856.9370725295
 31
0
  0
LINE
  8
1
 62
7
 10
546.7405232779
 20
837.9370787283
 30
0
 11
552.2253506063
 21
847.4370756289
 31
0
  0
LINE
  8
1
 62
7
 10
535.7708686209001
 20
837.9370787283
 30
0
 11
546.7405232779
 21
837.9370787283
 31
0
  0
LINE
  8
1
 62
7
 10
530.2860412924
 20
847.4370756289
 30
0
 11
535.7708686209001
 21
837.9370787283
 31
0
  0
LINE
  8
1
 62
7
 10
616.8885799896
 20
735.4370760163
 30
0
 11
605.9189262639
 21
735.4370760163
 31
0
  0
LINE
  8
1
 62
7
 10
622.3734105777
 20
725.9370753905
 30
0
 11
616.8885799896
 21
735.4370760163
 31
0
  0
LINE
  8
1
 62
7
 10
616.8885799896
 20
716.4370747646001
 30
0
 11
622.3734105777
 21
725.9370753905
 31
0
  0
LINE
  8
1
 62
7
 10
605.9189262639
 20
716.4370747646001
 30
0
 11
616.8885799896
 21
716.4370747646001
 31
0
  0
LINE
  8
1
 62
7
 10
600.4340994011
 20
725.9370753905
 30
0
 11
605.9189262639
 21
716.4370747646001
 31
0
  0
LINE
  8
1
 62
7
 10
605.9189262639
 20
735.4370760163
 30
0
 11
600.4340994011
 21
725.9370753905
 31
0
  0
LINE
  8
1
 62
7
 10
616.8885799896
 20
816.4370761355
 30
0
 11
605.9189262639
 21
816.4370761355
 31
0
  0
LINE
  8
1
 62
7
 10
622.3734105777
 20
806.9370755097
 30
0
 11
616.8885799896
 21
816.4370761355
 31
0
  0
LINE
  8
1
 62
7
 10
616.8885799896
 20
797.4370748838001
 30
0
 11
622.3734105777
 21
806.9370755097
 31
0
  0
LINE
  8
1
 62
7
 10
605.9189262639
 20
797.4370748838001
 30
0
 11
616.8885799896
 21
797.4370748838001
 31
0
  0
LINE
  8
1
 62
7
 10
600.4340994011
 20
806.9370755097
 30
0
 11
605.9189262639
 21
797.4370748838001
 31
0
  0
LINE
  8
1
 62
7
 10
605.9189262639
 20
816.4370761355
 30
0
 11
600.4340994011
 21
806.9370755097
 31
0
  0
LINE
  8
1
 62
7
 10
476.5924645766
 20
735.4370760163
 30
0
 11
465.6228108509
 21
735.4370760163
 31
0
  0
LINE
  8
1
 62
7
 10
482.0772951647
 20
725.9370753905
 30
0
 11
476.5924645766
 21
735.4370760163
 31
0
  0
LINE
  8
1
 62
7
 10
476.5924645766
 20
716.4370747646001
 30
0
 11
482.0772951647
 21
725.9370753905
 31
0
  0
LINE
  8
1
 62
7
 10
465.6228108509
 20
716.4370747646001
 30
0
 11
476.5924645766
 21
716.4370747646001
 31
0
  0
LINE
  8
1
 62
7
 10
460.1379839881
 20
725.9370753905
 30
0
 11
465.6228108509
 21
716.4370747646001
 31
0
  0
LINE
  8
1
 62
7
 10
465.6228108509
 20
735.4370760163
 30
0
 11
460.1379839881
 21
725.9370753905
 31
0
  0
LINE
  8
1
 62
7
 10
465.6228108509
 20
816.4370761355
 30
0
 11
460.1379839881
 21
806.9370755097
 31
0
  0
LINE
  8
1
 62
7
 10
476.5924645766
 20
816.4370761355
 30
0
 11
465.6228108509
 21
816.4370761355
 31
0
  0
LINE
  8
1
 62
7
 10
482.0772951647
 20
806.9370755097
 30
0
 11
476.5924645766
 21
816.4370761355
 31
0
  0
LINE
  8
1
 62
7
 10
476.5924645766
 20
797.4370748838001
 30
0
 11
482.0772951647
 21
806.9370755097
 31
0
  0
LINE
  8
1
 62
7
 10
465.6228108509
 20
797.4370748838001
 30
0
 11
476.5924645766
 21
797.4370748838001
 31
0
  0
LINE
  8
1
 62
7
 10
460.1379839881
 20
806.9370755097
 30
0
 11
465.6228108509
 21
797.4370748838001
 31
0
  0
LINE
  8
1
 62
7
 10
374.3170483216
 20
700.9103470585001
 30
0
 11
368.7861694201
 21
691.4370753905
 31
0
  0
LINE
  8
1
 62
7
 10
385.2865679367
 20
700.9103470585001
 30
0
 11
374.3170483216
 21
700.9103470585001
 31
0
  0
LINE
  8
1
 62
7
 10
390.7252235516
 20
691.4370753905
 30
0
 11
385.2865679367
 21
700.9103470585001
 31
0
  0
LINE
  8
1
 62
7
 10
385.2865679367
 20
681.9105693242001
 30
0
 11
390.7252235516
 21
691.4370753905
 31
0
  0
LINE
  8
1
 62
7
 10
374.3170483216
 20
681.9105693242001
 30
0
 11
385.2865679367
 21
681.9105693242001
 31
0
  0
LINE
  8
1
 62
7
 10
368.7861694201
 20
691.4370753905
 30
0
 11
374.3170483216
 21
681.9105693242001
 31
0
  0
LINE
  8
1
 62
7
 10
374.3170483216
 20
848.9635878345
 30
0
 11
368.7861694201
 21
839.4903161665
 31
0
  0
LINE
  8
1
 62
7
 10
385.2865679367
 20
848.9635878345
 30
0
 11
374.3170483216
 21
848.9635878345
 31
0
  0
LINE
  8
1
 62
7
 10
390.7252235516
 20
839.4903161665
 30
0
 11
385.2865679367
 21
848.9635878345
 31
0
  0
LINE
  8
1
 62
7
 10
385.2865679367
 20
829.9638101002
 30
0
 11
390.7252235516
 21
839.4903161665
 31
0
  0
LINE
  8
1
 62
7
 10
374.3170483216
 20
829.9638101002
 30
0
 11
385.2865679367
 21
829.9638101002
 31
0
  0
LINE
  8
1
 62
7
 10
368.7861694201
 20
839.4903161665
 30
0
 11
374.3170483216
 21
829.9638101002
 31
0
  0
LINE
  8
1
 62
7
 10
357.6617075308
 20
824.7396976789
 30
0
 11
354.755697976
 21
815.3073147973
 31
0
  0
LINE
  8
0
 62
7
 10
843.4136884592
 20
594.0527551644
 30
0
 11
843.4136884592
 21
586.0527538530999
 31
0
  0
LINE
  8
1
 62
7
 10
281.2557054861
 20
766.4370753905
 30
0
 11
266.2556899889
 21
761.4370755022
 31
0
  0
LINE
  8
1
 62
2
  6
DASHDOT
 10
281.2557054861
 20
766.4370753905
 30
0
 11
25.7069129462
 21
766.4370753905
 31
0
  0
LINE
  8
1
 62
7
 10
266.2556899889
 20
771.4370752787
 30
0
 11
281.2557054861
 21
766.4370753905
 31
0
  0
LINE
  8
1
 62
7
 10
566.2556963219
 20
506.0527481907
 30
0
 11
548.2556961655
 21
501.0527492337
 31
0
  0
LINE
  8
1
 62
7
 10
548.2556961655
 20
511.0527471476
 30
0
 11
566.2556963219
 21
506.0527481907
 31
0
  0
LINE
  8
1
 62
2
  6
DASHDOT
 10
766.4136879526
 20
451.0527484887
 30
0
 11
982.4136879526
 21
451.0527484887
 31
0
  0
LINE
  8
1
 62
2
  6
DASHDOT
 10
874.4136879526
 20
343.0527484887
 30
0
 11
874.4136879526
 21
632.9419438999
 31
0
  0
LINE
  8
1
 62
2
  6
DASHDOT
 10
541.2556959494
 20
632.9419438999
 30
0
 11
541.2556959494
 21
343.0527484887
 31
0
  0
LINE
  8
1
 62
2
  6
DASHDOT
 10
541.2556959494
 20
892.2461858925
 30
0
 11
541.2556959494
 21
654.2509607457
 31
0
  0
LINE
  8
1
 62
2
  6
DASHDOT
 10
688.7682301991
 20
766.4370753905
 30
0
 11
281.2557054861
 21
766.4370753905
 31
0
  0
LINE
  8
1
 62
2
 10
1007.445464845224
 20
544.5391527058
 30
0
 11
1008.600464845224
 21
544.5391527058
 31
0
  0
LINE
  8
1
 62
2
 10
1006.290464845224
 20
545.1891527058001
 30
0
 11
1006.290464845224
 21
543.3891527058
 31
0
  0
LINE
  8
1
 62
2
 10
1006.222523668753
 20
545.3891527058
 30
0
 11
1006.290464845224
 21
545.1891527058001
 31
0
  0
LINE
  8
1
 62
2
 10
1006.018700139341
 20
545.5891527058001
 30
0
 11
1006.222523668753
 21
545.3891527058
 31
0
  0
LINE
  8
1
 62
2
 10
1005.8828177864
 20
545.5891527058001
 30
0
 11
1006.018700139341
 21
545.5891527058001
 31
0
  0
LINE
  8
1
 62
2
 10
1005.543111904047
 20
545.3891527058
 30
0
 11
1005.8828177864
 21
545.5891527058001
 31
0
  0
LINE
  8
1
 62
2
 10
1005.339288374635
 20
544.9891527058001
 30
0
 11
1005.543111904047
 21
545.3891527058
 31
0
  0
LINE
  8
1
 62
2
 10
1005.339288374635
 20
545.5891527058001
 30
0
 11
1005.339288374635
 21
543.3891527058
 31
0
  0
LINE
  8
1
 62
2
 10
1011.2358179696
 20
546.4891527058001
 30
0
 11
1010.3118179696
 21
543.4891527058001
 31
0
  0
LINE
  8
1
 62
2
 10
1011.5245679696
 20
545.4391527058001
 30
0
 11
1011.5823179696
 21
545.1391527058
 31
0
  0
LINE
  8
1
 62
2
 10
1011.3513179696
 20
545.7391527058001
 30
0
 11
1011.5245679696
 21
545.4391527058001
 31
0
  0
LINE
  8
1
 62
2
 10
1011.1203179696
 20
545.9641527058001
 30
0
 11
1011.3513179696
 21
545.7391527058001
 31
0
  0
LINE
  8
1
 62
2
 10
1010.8893179696
 20
546.0391527058
 30
0
 11
1011.1203179696
 21
545.9641527058001
 31
0
  0
LINE
  8
1
 62
2
 10
1010.6583179696
 20
546.0391527058
 30
0
 11
1010.8893179696
 21
546.0391527058
 31
0
  0
LINE
  8
1
 62
2
 10
1010.4273179696
 20
545.9641527058001
 30
0
 11
1010.6583179696
 21
546.0391527058
 31
0
  0
LINE
  8
1
 62
2
 10
1010.1963179696
 20
545.7391527058001
 30
0
 11
1010.4273179696
 21
545.9641527058001
 31
0
  0
LINE
  8
1
 62
2
 10
1010.0230679696
 20
545.4391527058001
 30
0
 11
1010.1963179696
 21
545.7391527058001
 31
0
  0
LINE
  8
1
 62
2
 10
1009.9653179696
 20
545.1391527058
 30
0
 11
1010.0230679696
 21
545.4391527058001
 31
0
  0
LINE
  8
1
 62
2
 10
1009.9653179696
 20
544.8391527058001
 30
0
 11
1009.9653179696
 21
545.1391527058
 31
0
  0
LINE
  8
1
 62
2
 10
1010.0230679696
 20
544.5391527058
 30
0
 11
1009.9653179696
 21
544.8391527058001
 31
0
  0
LINE
  8
1
 62
2
 10
1010.1963179696
 20
544.2391527058001
 30
0
 11
1010.0230679696
 21
544.5391527058
 31
0
  0
LINE
  8
1
 62
2
 10
1010.4273179696
 20
544.0141527058
 30
0
 11
1010.1963179696
 21
544.2391527058001
 31
0
  0
LINE
  8
1
 62
2
 10
1010.6583179696
 20
543.9391527058001
 30
0
 11
1010.4273179696
 21
544.0141527058
 31
0
  0
LINE
  8
1
 62
2
 10
1010.8893179696
 20
543.9391527058001
 30
0
 11
1010.6583179696
 21
543.9391527058001
 31
0
  0
LINE
  8
1
 62
2
 10
1011.1203179696
 20
544.0141527058
 30
0
 11
1010.8893179696
 21
543.9391527058001
 31
0
  0
LINE
  8
1
 62
2
 10
1011.3513179696
 20
544.2391527058001
 30
0
 11
1011.1203179696
 21
544.0141527058
 31
0
  0
LINE
  8
1
 62
2
 10
1011.5245679696
 20
544.5391527058
 30
0
 11
1011.3513179696
 21
544.2391527058001
 31
0
  0
LINE
  8
1
 62
2
 10
1011.5823179696
 20
544.8391527058001
 30
0
 11
1011.5245679696
 21
544.5391527058
 31
0
  0
LINE
  8
1
 62
2
 10
1011.5823179696
 20
545.1391527058
 30
0
 11
1011.5823179696
 21
544.8391527058001
 31
0
  0
LINE
  8
1
 62
2
 10
1014.837939935124
 20
545.189152473
 30
0
 11
1014.837939935124
 21
543.989152473
 31
0
  0
LINE
  8
1
 62
2
 10
1014.837939935124
 20
543.989152473
 30
0
 11
1014.837939935124
 21
543.489152473
 31
0
  0
LINE
  8
1
 62
2
 10
1014.634116405712
 20
543.589152473
 30
0
 11
1014.837939935124
 21
543.989152473
 31
0
  0
LINE
  8
1
 62
2
 10
1014.362351699829
 20
543.489152473
 30
0
 11
1014.634116405712
 21
543.589152473
 31
0
  0
LINE
  8
1
 62
2
 10
1014.090586993947
 20
543.589152473
 30
0
 11
1014.362351699829
 21
543.489152473
 31
0
  0
LINE
  8
1
 62
2
 10
1013.886763464535
 20
544.089152473
 30
0
 11
1014.090586993947
 21
543.589152473
 31
0
  0
LINE
  8
1
 62
2
 10
1013.818822288065
 20
544.489152473
 30
0
 11
1013.886763464535
 21
544.089152473
 31
0
  0
LINE
  8
1
 62
2
 10
1013.886763464535
 20
545.089152473
 30
0
 11
1013.818822288065
 21
544.489152473
 31
0
  0
LINE
  8
1
 62
2
 10
1014.090586993947
 20
545.489152473
 30
0
 11
1013.886763464535
 21
545.089152473
 31
0
  0
LINE
  8
1
 62
2
 10
1014.362351699829
 20
545.689152473
 30
0
 11
1014.090586993947
 21
545.489152473
 31
0
  0
LINE
  8
1
 62
2
 10
1014.634116405712
 20
545.489152473
 30
0
 11
1014.362351699829
 21
545.689152473
 31
0
  0
LINE
  8
1
 62
2
 10
1014.837939935124
 20
545.189152473
 30
0
 11
1014.634116405712
 21
545.489152473
 31
0
  0
LINE
  8
1
 62
2
 10
1014.837939935124
 20
546.489152473
 30
0
 11
1014.837939935124
 21
545.189152473
 31
0
  0
LINE
  8
1
 62
2
 10
610.0717458439589
 20
304.9811306315
 30
0
 11
609.8407458439589
 21
304.3811306315
 31
0
  0
LINE
  8
1
 62
2
 10
610.1872458439589
 20
305.5811306315
 30
0
 11
610.0717458439589
 21
304.9811306315
 31
0
  0
LINE
  8
1
 62
2
 10
610.1872458439589
 20
306.1811306315
 30
0
 11
610.1872458439589
 21
305.5811306315
 31
0
  0
LINE
  8
1
 62
2
 10
610.0717458439589
 20
306.7811306315
 30
0
 11
610.1872458439589
 21
306.1811306315
 31
0
  0
LINE
  8
1
 62
2
 10
609.8407458439589
 20
307.3811306315
 30
0
 11
610.0717458439589
 21
306.7811306315
 31
0
  0
LINE
  8
1
 62
2
 10
609.0899958439588
 20
306.7811306315
 30
0
 11
609.1477458439588
 21
306.4811306315
 31
0
  0
LINE
  8
1
 62
2
 10
608.9744958439588
 20
307.0061306315
 30
0
 11
609.0899958439588
 21
306.7811306315
 31
0
  0
LINE
  8
1
 62
2
 10
608.8589958439588
 20
307.1561306315
 30
0
 11
608.9744958439588
 21
307.0061306315
 31
0
  0
LINE
  8
1
 62
2
 10
608.6857458439588
 20
307.3061306315
 30
0
 11
608.8589958439588
 21
307.1561306315
 31
0
  0
LINE
  8
1
 62
2
 10
608.4547458439588
 20
307.3811306315
 30
0
 11
608.6857458439588
 21
307.3061306315
 31
0
  0
LINE
  8
1
 62
2
 10
607.5307458439588
 20
307.3811306315
 30
0
 11
608.4547458439588
 21
307.3811306315
 31
0
  0
LINE
  8
1
 62
2
 10
607.5307458439588
 20
304.3811306315
 30
0
 11
607.5307458439588
 21
307.3811306315
 31
0
  0
LINE
  8
1
 62
2
 10
608.4547458439588
 20
304.3811306315
 30
0
 11
607.5307458439588
 21
304.3811306315
 31
0
  0
LINE
  8
1
 62
2
 10
608.6857458439588
 20
304.4561306315
 30
0
 11
608.4547458439588
 21
304.3811306315
 31
0
  0
LINE
  8
1
 62
2
 10
608.8589958439588
 20
304.6061306315
 30
0
 11
608.6857458439588
 21
304.4561306315
 31
0
  0
LINE
  8
1
 62
2
 10
608.9744958439588
 20
304.7561306315
 30
0
 11
608.8589958439588
 21
304.6061306315
 31
0
  0
LINE
  8
1
 62
2
 10
609.0899958439588
 20
304.9811306315
 30
0
 11
608.9744958439588
 21
304.7561306315
 31
0
  0
LINE
  8
1
 62
2
 10
609.1477458439588
 20
305.2811306315
 30
0
 11
609.0899958439588
 21
304.9811306315
 31
0
  0
LINE
  8
1
 62
2
 10
609.1477458439588
 20
306.4811306315
 30
0
 11
609.1477458439588
 21
305.2811306315
 31
0
  0
LINE
  8
1
 62
2
 10
605.8322164321941
 20
305.2811306315
 30
0
 11
606.0360399616059
 21
304.7811306315
 31
0
  0
LINE
  8
1
 62
2
 10
605.7642752557235
 20
305.8811306315
 30
0
 11
605.8322164321941
 21
305.2811306315
 31
0
  0
LINE
  8
1
 62
2
 10
605.8322164321941
 20
306.4811306315
 30
0
 11
605.7642752557235
 21
305.8811306315
 31
0
  0
LINE
  8
1
 62
2
 10
606.0360399616059
 20
306.9811306315
 30
0
 11
605.8322164321941
 21
306.4811306315
 31
0
  0
LINE
  8
1
 62
2
 10
602.8428046674883
 20
306.0811306315
 30
0
 11
604.2016281969001
 21
306.0811306315
 31
0
  0
LINE
  8
1
 62
2
 10
603.4542752557236
 20
304.2811306315
 30
0
 11
602.4351576086648
 21
304.5811306315
 31
0
  0
LINE
  8
1
 62
2
 10
603.9298634910177
 20
304.6811306315
 30
0
 11
603.4542752557236
 21
304.2811306315
 31
0
  0
LINE
  8
1
 62
2
 10
603.9978046674883
 20
305.3811306315
 30
0
 11
603.9298634910177
 21
304.6811306315
 31
0
  0
LINE
  8
1
 62
2
 10
602.7069223145471
 20
305.3811306315
 30
0
 11
603.9978046674883
 21
305.3811306315
 31
0
  0
LINE
  8
1
 62
2
 10
602.8428046674883
 20
306.0811306315
 30
0
 11
602.7069223145471
 21
305.3811306315
 31
0
  0
LINE
  8
1
 62
2
 10
602.1633929027825
 20
306.0811306315
 30
0
 11
602.8428046674883
 21
306.0811306315
 31
0
  0
LINE
  8
1
 62
2
 10
602.4351576086648
 20
306.3811306315
 30
0
 11
602.4351576086648
 21
307.2811306315
 31
0
  0
LINE
  8
1
 62
2
 10
603.9978046674883
 20
306.3811306315
 30
0
 11
602.4351576086648
 21
306.3811306315
 31
0
  0
LINE
  8
1
 62
2
 10
603.9978046674883
 20
307.2811306315
 30
0
 11
603.9978046674883
 21
306.3811306315
 31
0
  0
LINE
  8
1
 62
2
 10
602.4351576086648
 20
307.2811306315
 30
0
 11
603.9978046674883
 21
307.2811306315
 31
0
  0
LINE
  8
1
 62
2
 10
601.4839811380765
 20
304.3811306315
 30
0
 11
601.4839811380765
 21
305.0811306315
 31
0
  0
LINE
  8
1
 62
2
 10
600.4648634910177
 20
304.3811306315
 30
0
 11
601.4839811380765
 21
304.3811306315
 31
0
  0
LINE
  8
1
 62
2
 10
600.4648634910177
 20
306.0811306315
 30
0
 11
600.4648634910177
 21
304.3811306315
 31
0
  0
LINE
  8
1
 62
2
 10
601.3480987851353
 20
306.0811306315
 30
0
 11
600.4648634910177
 21
306.0811306315
 31
0
  0
LINE
  8
1
 62
2
 10
601.3480987851353
 20
307.2811306315
 30
0
 11
601.3480987851353
 21
306.0811306315
 31
0
  0
LINE
  8
1
 62
2
 10
600.3969223145471
 20
307.2811306315
 30
0
 11
601.3480987851353
 21
307.2811306315
 31
0
  0
LINE
  8
1
 62
2
 10
599.5136870204294
 20
304.3811306315
 30
0
 11
599.5136870204294
 21
305.3811306315
 31
0
  0
LINE
  8
1
 62
2
 10
600.2610399616059
 20
304.3811306315
 30
0
 11
599.5136870204294
 21
304.3811306315
 31
0
  0
LINE
  8
1
 62
2
 10
600.2610399616059
 20
305.3811306315
 30
0
 11
600.2610399616059
 21
304.3811306315
 31
0
  0
LINE
  8
1
 62
2
 10
599.5136870204294
 20
305.3811306315
 30
0
 11
600.2610399616059
 21
305.3811306315
 31
0
  0
LINE
  8
1
 62
2
 10
599.5816281969001
 20
305.7811306315
 30
0
 11
600.1930987851354
 21
305.7811306315
 31
0
  0
LINE
  8
1
 62
2
 10
599.5816281969001
 20
306.2811306315
 30
0
 11
600.1930987851354
 21
306.2811306315
 31
0
  0
LINE
  8
1
 62
2
 10
599.4457458439589
 20
306.7811306315
 30
0
 11
600.3289811380765
 21
306.7811306315
 31
0
  0
LINE
  8
1
 62
2
 10
599.5816281969001
 20
307.2811306315
 30
0
 11
600.1930987851354
 21
307.2811306315
 31
0
  0
LINE
  8
1
 62
2
 10
597.1357458439588
 20
306.0811306315
 30
0
 11
597.611334079253
 21
306.0811306315
 31
0
  0
LINE
  8
1
 62
2
 10
597.1357458439588
 20
306.0811306315
 30
0
 11
597.1357458439588
 21
304.3811306315
 31
0
  0
LINE
  8
1
 62
2
 10
598.5625105498411
 20
307.2811306315
 30
0
 11
598.5625105498411
 21
304.3811306315
 31
0
  0
LINE
  8
1
 62
2
 10
597.6792752557235
 20
304.8811306315
 30
0
 11
598.7663340792529
 21
305.1811306315
 31
0
  0
LINE
  8
1
 62
2
 10
597.7472164321941
 20
306.2811306315
 30
0
 11
598.3586870204294
 21
305.4811306315
 31
0
  0
LINE
  8
1
 62
2
 10
597.8151576086647
 20
307.1811306315
 30
0
 11
598.3586870204294
 21
306.4811306315
 31
0
  0
LINE
  8
1
 62
2
 10
597.1357458439588
 20
306.0811306315
 30
0
 11
597.611334079253
 21
305.1811306315
 31
0
  0
LINE
  8
1
 62
2
 10
597.1357458439588
 20
306.0811306315
 30
0
 11
596.7280987851353
 21
304.8811306315
 31
0
  0
LINE
  8
1
 62
2
 10
597.1357458439588
 20
307.3811306315
 30
0
 11
597.1357458439588
 21
306.0811306315
 31
0
  0
LINE
  8
1
 62
2
 10
596.7280987851353
 20
306.0811306315
 30
0
 11
597.1357458439588
 21
306.0811306315
 31
0
  0
LINE
  8
1
 62
2
 10
597.611334079253
 20
307.1811306315
 30
0
 11
597.3395693733705
 21
306.3811306315
 31
0
  0
LINE
  8
1
 62
2
 10
596.7960399616059
 20
307.1811306315
 30
0
 11
596.931922314547
 21
306.2811306315
 31
0
  0
LINE
  8
1
 62
2
 10
594.4180987851353
 20
306.8811306315
 30
0
 11
594.8257458439588
 21
306.8811306315
 31
0
  0
LINE
  8
1
 62
2
 10
594.4180987851353
 20
306.8811306315
 30
0
 11
594.4180987851353
 21
304.3811306315
 31
0
  0
LINE
  8
1
 62
2
 10
595.7769223145471
 20
306.8811306315
 30
0
 11
595.7769223145471
 21
304.3811306315
 31
0
  0
LINE
  8
1
 62
2
 10
595.7769223145471
 20
306.8811306315
 30
0
 11
594.8257458439588
 21
305.0811306315
 31
0
  0
LINE
  8
1
 62
2
 10
595.7769223145471
 20
304.3811306315
 30
0
 11
595.1654517263117
 21
304.7811306315
 31
0
  0
LINE
  8
1
 62
2
 10
595.7769223145471
 20
307.3811306315
 30
0
 11
595.7769223145471
 21
306.8811306315
 31
0
  0
LINE
  8
1
 62
2
 10
594.9616281968999
 20
306.8811306315
 30
0
 11
596.0486870204294
 21
306.8811306315
 31
0
  0
LINE
  8
1
 62
2
 10
594.4180987851353
 20
306.8811306315
 30
0
 11
594.8257458439588
 21
305.6811306315
 31
0
  0
LINE
  8
1
 62
2
 10
594.4180987851353
 20
306.8811306315
 30
0
 11
594.0104517263118
 21
305.3811306315
 31
0
  0
LINE
  8
1
 62
2
 10
594.4180987851353
 20
307.3811306315
 30
0
 11
594.4180987851353
 21
306.8811306315
 31
0
  0
LINE
  8
1
 62
2
 10
594.0104517263118
 20
306.8811306315
 30
0
 11
594.4180987851353
 21
306.8811306315
 31
0
  0
LINE
  8
1
 62
2
 10
593.2630987851353
 20
307.4811306315
 30
0
 11
593.3989811380765
 21
307.0811306315
 31
0
  0
LINE
  8
1
 62
2
 10
592.9233929027824
 20
307.4811306315
 30
0
 11
593.0592752557236
 21
307.0811306315
 31
0
  0
LINE
  8
1
 62
2
 10
592.7875105498413
 20
306.9811306315
 30
0
 11
593.1951576086648
 21
305.8811306315
 31
0
  0
LINE
  8
1
 62
2
 10
592.8554517263118
 20
306.4811306315
 30
0
 11
592.7875105498413
 21
306.9811306315
 31
0
  0
LINE
  8
1
 62
2
 10
592.9233929027824
 20
306.0811306315
 30
0
 11
592.8554517263118
 21
306.4811306315
 31
0
  0
LINE
  8
1
 62
2
 10
592.8554517263118
 20
305.5811306315
 30
0
 11
592.9233929027824
 21
306.0811306315
 31
0
  0
LINE
  8
1
 62
2
 10
592.7195693733706
 20
305.1811306315
 30
0
 11
592.8554517263118
 21
305.5811306315
 31
0
  0
LINE
  8
1
 62
2
 10
592.4478046674883
 20
304.8811306315
 30
0
 11
592.7195693733706
 21
305.1811306315
 31
0
  0
LINE
  8
1
 62
2
 10
592.0401576086648
 20
304.6811306315
 30
0
 11
592.4478046674883
 21
304.8811306315
 31
0
  0
LINE
  8
1
 62
2
 10
591.7004517263118
 20
304.8811306315
 30
0
 11
592.0401576086648
 21
304.6811306315
 31
0
  0
LINE
  8
1
 62
2
 10
591.5645693733707
 20
305.4811306315
 30
0
 11
591.7004517263118
 21
304.8811306315
 31
0
  0
LINE
  8
1
 62
2
 10
591.7004517263118
 20
306.0811306315
 30
0
 11
591.5645693733707
 21
305.4811306315
 31
0
  0
LINE
  8
1
 62
2
 10
591.9042752557235
 20
306.5811306315
 30
0
 11
591.7004517263118
 21
306.0811306315
 31
0
  0
LINE
  8
1
 62
2
 10
592.176039961606
 20
306.9811306315
 30
0
 11
591.9042752557235
 21
306.5811306315
 31
0
  0
LINE
  8
1
 62
2
 10
591.5645693733707
 20
306.9811306315
 30
0
 11
592.176039961606
 21
306.9811306315
 31
0
  0
LINE
  8
1
 62
2
 10
589.5942752557236
 20
306.5811306315
 30
0
 11
589.5942752557236
 21
305.0811306315
 31
0
  0
LINE
  8
1
 62
2
 10
590.0698634910177
 20
305.2811306315
 30
0
 11
590.4775105498412
 21
304.8811306315
 31
0
  0
LINE
  8
1
 62
2
 10
589.5942752557236
 20
305.4811306315
 30
0
 11
590.0698634910177
 21
305.2811306315
 31
0
  0
LINE
  8
1
 62
2
 10
589.1866281969
 20
305.5811306315
 30
0
 11
589.5942752557236
 21
305.4811306315
 31
0
  0
LINE
  8
1
 62
2
 10
588.9148634910176
 20
305.4811306315
 30
0
 11
589.1866281969
 21
305.5811306315
 31
0
  0
LINE
  8
1
 62
2
 10
588.7789811380765
 20
305.0811306315
 30
0
 11
588.9148634910176
 21
305.4811306315
 31
0
  0
LINE
  8
1
 62
2
 10
588.9148634910176
 20
304.6811306315
 30
0
 11
588.7789811380765
 21
305.0811306315
 31
0
  0
LINE
  8
1
 62
2
 10
589.1866281969
 20
304.5811306315
 30
0
 11
588.9148634910176
 21
304.6811306315
 31
0
  0
LINE
  8
1
 62
2
 10
589.4583929027824
 20
304.6811306315
 30
0
 11
589.1866281969
 21
304.5811306315
 31
0
  0
LINE
  8
1
 62
2
 10
589.5942752557236
 20
305.0811306315
 30
0
 11
589.4583929027824
 21
304.6811306315
 31
0
  0
LINE
  8
1
 62
2
 10
589.5942752557236
 20
307.2811306315
 30
0
 11
589.5942752557236
 21
306.5811306315
 31
0
  0
LINE
  8
1
 62
2
 10
589.5942752557236
 20
306.5811306315
 30
0
 11
590.4095693733706
 21
306.5811306315
 31
0
  0
LINE
  8
1
 62
2
 10
587.5560399616059
 20
306.9811306315
 30
0
 11
587.8957458439588
 21
306.3811306315
 31
0
  0
LINE
  8
1
 62
2
 10
587.4201576086647
 20
304.6811306315
 30
0
 11
587.0804517263117
 21
304.5811306315
 31
0
  0
LINE
  8
1
 62
2
 10
587.691922314547
 20
305.0811306315
 30
0
 11
587.4201576086647
 21
304.6811306315
 31
0
  0
LINE
  8
1
 62
2
 10
587.7598634910177
 20
305.6811306315
 30
0
 11
587.691922314547
 21
305.0811306315
 31
0
  0
LINE
  8
1
 62
2
 10
587.4880987851353
 20
306.0811306315
 30
0
 11
587.7598634910177
 21
305.6811306315
 31
0
  0
LINE
  8
1
 62
2
 10
587.1483929027824
 20
306.2811306315
 30
0
 11
587.4880987851353
 21
306.0811306315
 31
0
  0
LINE
  8
1
 62
2
 10
586.7407458439589
 20
306.1811306315
 30
0
 11
587.1483929027824
 21
306.2811306315
 31
0
  0
LINE
  8
1
 62
2
 10
586.536922314547
 20
306.0811306315
 30
0
 11
586.7407458439589
 21
306.1811306315
 31
0
  0
LINE
  8
1
 62
2
 10
586.3330987851352
 20
305.8811306315
 30
0
 11
586.536922314547
 21
306.0811306315
 31
0
  0
LINE
  8
1
 62
2
 10
586.1972164321941
 20
305.6811306315
 30
0
 11
586.3330987851352
 21
305.8811306315
 31
0
  0
LINE
  8
1
 62
2
 10
586.0613340792529
 20
305.2811306315
 30
0
 11
586.1972164321941
 21
305.6811306315
 31
0
  0
LINE
  8
1
 62
2
 10
586.1292752557235
 20
304.7811306315
 30
0
 11
586.0613340792529
 21
305.2811306315
 31
0
  0
LINE
  8
1
 62
2
 10
586.4689811380764
 20
304.5811306315
 30
0
 11
586.1292752557235
 21
304.7811306315
 31
0
  0
LINE
  8
1
 62
2
 10
586.6728046674882
 20
304.7811306315
 30
0
 11
586.4689811380764
 21
304.5811306315
 31
0
  0
LINE
  8
1
 62
2
 10
586.6728046674882
 20
307.2811306315
 30
0
 11
586.6728046674882
 21
304.7811306315
 31
0
  0
LINE
  8
1
 62
2
 10
586.1972164321941
 20
306.8811306315
 30
0
 11
587.1483929027824
 21
306.8811306315
 31
0
  0
LINE
  8
1
 62
2
 10
583.4795693733705
 20
305.0811306315
 30
0
 11
585.2460399616058
 21
305.0811306315
 31
0
  0
LINE
  8
1
 62
2
 10
584.3628046674882
 20
307.0811306315
 30
0
 11
585.2460399616058
 21
307.0811306315
 31
0
  0
LINE
  8
1
 62
2
 10
584.3628046674882
 20
307.0811306315
 30
0
 11
584.3628046674882
 21
304.2811306315
 31
0
  0
LINE
  8
1
 62
2
 10
583.071922314547
 20
305.0811306315
 30
0
 11
583.4795693733705
 21
305.0811306315
 31
0
  0
LINE
  8
1
 62
2
 10
583.4795693733705
 20
306.2811306315
 30
0
 11
583.4795693733705
 21
305.0811306315
 31
0
  0
LINE
  8
1
 62
2
 10
585.1780987851353
 20
306.2811306315
 30
0
 11
583.4795693733705
 21
306.2811306315
 31
0
  0
LINE
  8
1
 62
2
 10
583.5475105498412
 20
307.0811306315
 30
0
 11
584.3628046674882
 21
307.0811306315
 31
0
  0
LINE
  8
1
 62
2
 10
583.5475105498412
 20
307.0811306315
 30
0
 11
583.2078046674882
 21
306.4811306315
 31
0
  0
LINE
  8
1
 62
2
 10
583.6833929027823
 20
307.4811306315
 30
0
 11
583.5475105498412
 21
307.0811306315
 31
0
  0
LINE
  8
1
 62
2
 10
581.7130987851353
 20
306.1811306315
 30
0
 11
582.4604517263118
 21
306.1811306315
 31
0
  0
LINE
  8
1
 62
2
 10
581.1695693733707
 20
304.7811306315
 30
0
 11
581.1695693733707
 21
305.7811306315
 31
0
  0
LINE
  8
1
 62
2
 10
582.2566281969
 20
304.7811306315
 30
0
 11
581.1695693733707
 21
304.7811306315
 31
0
  0
LINE
  8
1
 62
2
 10
582.2566281969
 20
305.7811306315
 30
0
 11
582.2566281969
 21
304.7811306315
 31
0
  0
LINE
  8
1
 62
2
 10
581.1695693733707
 20
305.7811306315
 30
0
 11
582.2566281969
 21
305.7811306315
 31
0
  0
LINE
  8
1
 62
2
 10
581.7130987851353
 20
307.3811306315
 30
0
 11
581.7130987851353
 21
306.1811306315
 31
0
  0
LINE
  8
1
 62
2
 10
580.8978046674882
 20
306.1811306315
 30
0
 11
581.7130987851353
 21
306.1811306315
 31
0
  0
LINE
  8
1
 62
2
 10
581.1016281969
 20
306.8811306315
 30
0
 11
582.3925105498412
 21
306.8811306315
 31
0
  0
LINE
  8
1
 62
2
 10
581.1016281969
 20
306.8811306315
 30
0
 11
580.8978046674882
 21
306.4811306315
 31
0
  0
LINE
  8
1
 62
2
 10
581.1695693733707
 20
307.2811306315
 30
0
 11
581.1016281969
 21
306.8811306315
 31
0
  0
LINE
  8
1
 62
2
 10
581.3733929027824
 20
304.3811306315
 30
0
 11
582.5283929027823
 21
304.3811306315
 31
0
  0
LINE
  8
1
 62
2
 10
580.7619223145471
 20
305.0811306315
 30
0
 11
581.3733929027824
 21
304.3811306315
 31
0
  0
LINE
  8
1
 62
2
 10
580.7619223145471
 20
305.0811306315
 30
0
 11
580.4222164321942
 21
304.3811306315
 31
0
  0
LINE
  8
1
 62
2
 10
580.7619223145471
 20
306.0811306315
 30
0
 11
580.7619223145471
 21
305.0811306315
 31
0
  0
LINE
  8
1
 62
2
 10
580.4222164321942
 20
306.0811306315
 30
0
 11
580.7619223145471
 21
306.0811306315
 31
0
  0
LINE
  8
1
 62
2
 10
580.4901576086647
 20
307.2811306315
 30
0
 11
580.8298634910177
 21
306.7811306315
 31
0
  0
LINE
  8
1
 62
2
 10
578.1122164321942
 20
306.3811306315
 30
0
 11
578.4519223145471
 21
306.3811306315
 31
0
  0
LINE
  8
1
 62
2
 10
578.1122164321942
 20
304.4811306315
 30
0
 11
578.5198634910177
 21
304.5811306315
 31
0
  0
LINE
  8
1
 62
2
 10
579.6069223145471
 20
306.2811306315
 30
0
 11
579.8107458439588
 21
306.2811306315
 31
0
  0
LINE
  8
1
 62
2
 10
579.131334079253
 20
305.3811306315
 30
0
 11
579.3351576086648
 21
304.6811306315
 31
0
  0
LINE
  8
1
 62
2
 10
579.6069223145471
 20
304.3811306315
 30
0
 11
579.0633929027823
 21
304.5811306315
 31
0
  0
LINE
  8
1
 62
2
 10
579.6069223145471
 20
306.2811306315
 30
0
 11
579.6069223145471
 21
304.3811306315
 31
0
  0
LINE
  8
1
 62
2
 10
578.6557458439588
 20
305.5811306315
 30
0
 11
579.8107458439588
 21
305.5811306315
 31
0
  0
LINE
  8
1
 62
2
 10
579.0633929027823
 20
305.9811306315
 30
0
 11
578.6557458439588
 21
304.6811306315
 31
0
  0
LINE
  8
1
 62
2
 10
579.131334079253
 20
307.3811306315
 30
0
 11
579.0633929027823
 21
305.9811306315
 31
0
  0
LINE
  8
1
 62
2
 10
578.5878046674883
 20
306.2811306315
 30
0
 11
579.6069223145471
 21
306.2811306315
 31
0
  0
LINE
  8
1
 62
2
 10
578.7236870204295
 20
306.6811306315
 30
0
 11
579.6748634910176
 21
306.6811306315
 31
0
  0
LINE
  8
1
 62
2
 10
578.6557458439588
 20
307.0811306315
 30
0
 11
579.7428046674883
 21
307.0811306315
 31
0
  0
LINE
  8
1
 62
2
 10
577.7045693733707
 20
304.3811306315
 30
0
 11
578.1122164321942
 21
304.4811306315
 31
0
  0
LINE
  8
1
 62
2
 10
578.5198634910177
 20
305.4811306315
 30
0
 11
578.3839811380765
 21
304.7811306315
 31
0
  0
LINE
  8
1
 62
2
 10
577.7725105498412
 20
305.4811306315
 30
0
 11
577.9083929027823
 21
304.6811306315
 31
0
  0
LINE
  8
1
 62
2
 10
578.1122164321942
 20
306.3811306315
 30
0
 11
578.1122164321942
 21
304.4811306315
 31
0
  0
LINE
  8
1
 62
2
 10
577.7045693733707
 20
305.7811306315
 30
0
 11
578.5198634910177
 21
305.7811306315
 31
0
  0
LINE
  8
1
 62
2
 10
577.7725105498412
 20
306.3811306315
 30
0
 11
578.1122164321942
 21
306.3811306315
 31
0
  0
LINE
  8
1
 62
2
 10
578.1801576086647
 20
307.2811306315
 30
0
 11
578.5198634910177
 21
306.6811306315
 31
0
  0
LINE
  8
1
 62
2
 10
577.7045693733707
 20
306.5811306315
 30
0
 11
578.1801576086647
 21
307.2811306315
 31
0
  0
LINE
  8
1
 62
2
 10
812.6507751873667
 20
780.7830762092001
 30
0
 11
812.6507751873667
 21
775.4914095425
 31
0
  0
LINE
  8
1
 62
2
 10
811.428400187359
 20
779.19557620919
 30
0
 11
812.6507751873667
 21
780.7830762092001
 31
0
  0
LINE
  8
1
 62
2
 10
810.1041606040174
 20
779.72474287586
 30
0
 11
810.2060251873513
 21
779.19557620919
 31
0
  0
LINE
  8
1
 62
2
 10
809.9004314373494
 20
780.1216178758625
 30
0
 11
810.1041606040174
 21
779.72474287586
 31
0
  0
LINE
  8
1
 62
2
 10
809.6967022706814
 20
780.3862012091976
 30
0
 11
809.9004314373494
 21
780.1216178758625
 31
0
  0
LINE
  8
1
 62
2
 10
809.3911085206795
 20
780.6507845425325
 30
0
 11
809.6967022706814
 21
780.3862012091976
 31
0
  0
LINE
  8
1
 62
2
 10
808.9836501873436
 20
780.7830762092001
 30
0
 11
809.3911085206795
 21
780.6507845425325
 31
0
  0
LINE
  8
1
 62
2
 10
807.353816854
 20
780.7830762092001
 30
0
 11
808.9836501873436
 21
780.7830762092001
 31
0
  0
LINE
  8
1
 62
2
 10
807.353816854
 20
775.4914095425
 30
0
 11
807.353816854
 21
780.7830762092001
 31
0
  0
LINE
  8
1
 62
2
 10
808.9836501873436
 20
775.4914095425
 30
0
 11
807.353816854
 21
775.4914095425
 31
0
  0
LINE
  8
1
 62
2
 10
809.3911085206795
 20
775.6237012091675
 30
0
 11
808.9836501873436
 21
775.4914095425
 31
0
  0
LINE
  8
1
 62
2
 10
809.6967022706814
 20
775.8882845425026
 30
0
 11
809.3911085206795
 21
775.6237012091675
 31
0
  0
LINE
  8
1
 62
2
 10
809.9004314373494
 20
776.1528678758375
 30
0
 11
809.6967022706814
 21
775.8882845425026
 31
0
  0
LINE
  8
1
 62
2
 10
810.1041606040174
 20
776.54974287584
 30
0
 11
809.9004314373494
 21
776.1528678758375
 31
0
  0
LINE
  8
1
 62
2
 10
810.2060251873513
 20
777.07890954251
 30
0
 11
810.1041606040174
 21
776.54974287584
 31
0
  0
LINE
  8
1
 62
2
 10
810.2060251873513
 20
779.19557620919
 30
0
 11
810.2060251873513
 21
777.07890954251
 31
0
  0
LINE
  8
1
 62
2
 10
839.4422194234589
 20
775.4914095425
 30
0
 11
841.8869694234743
 21
775.4914095425
 31
0
  0
LINE
  8
1
 62
2
 10
841.6832402568064
 20
778.9309928758551
 30
0
 11
839.4422194234589
 21
775.4914095425
 31
0
  0
LINE
  8
1
 62
2
 10
841.8869694234743
 20
779.4601595425251
 30
0
 11
841.6832402568064
 21
778.9309928758551
 31
0
  0
LINE
  8
1
 62
2
 10
841.8869694234743
 20
779.989326209195
 30
0
 11
841.8869694234743
 21
779.4601595425251
 31
0
  0
LINE
  8
1
 62
2
 10
841.6832402568064
 20
780.3862012091976
 30
0
 11
841.8869694234743
 21
779.989326209195
 31
0
  0
LINE
  8
1
 62
2
 10
841.3776465068045
 20
780.6507845425325
 30
0
 11
841.6832402568064
 21
780.3862012091976
 31
0
  0
LINE
  8
1
 62
2
 10
840.9701881734686
 20
780.7830762092001
 30
0
 11
841.3776465068045
 21
780.6507845425325
 31
0
  0
LINE
  8
1
 62
2
 10
840.3590006734647
 20
780.7830762092001
 30
0
 11
840.9701881734686
 21
780.7830762092001
 31
0
  0
LINE
  8
1
 62
2
 10
839.9515423401289
 20
780.6507845425325
 30
0
 11
840.3590006734647
 21
780.7830762092001
 31
0
  0
LINE
  8
1
 62
2
 10
839.6459485901269
 20
780.3862012091976
 30
0
 11
839.9515423401289
 21
780.6507845425325
 31
0
  0
LINE
  8
1
 62
2
 10
839.4422194234589
 20
779.989326209195
 30
0
 11
839.6459485901269
 21
780.3862012091976
 31
0
  0
LINE
  8
1
 62
2
 10
838.1179798401173
 20
779.72474287586
 30
0
 11
838.2198444234513
 21
779.19557620919
 31
0
  0
LINE
  8
1
 62
2
 10
837.9142506734494
 20
780.1216178758625
 30
0
 11
838.1179798401173
 21
779.72474287586
 31
0
  0
LINE
  8
1
 62
2
 10
837.7105215067813
 20
780.3862012091976
 30
0
 11
837.9142506734494
 21
780.1216178758625
 31
0
  0
LINE
  8
1
 62
2
 10
837.4049277567794
 20
780.6507845425325
 30
0
 11
837.7105215067813
 21
780.3862012091976
 31
0
  0
LINE
  8
1
 62
2
 10
836.9974694234436
 20
780.7830762092001
 30
0
 11
837.4049277567794
 21
780.6507845425325
 31
0
  0
LINE
  8
1
 62
2
 10
835.3676360901
 20
780.7830762092001
 30
0
 11
836.9974694234436
 21
780.7830762092001
 31
0
  0
LINE
  8
1
 62
2
 10
835.3676360901
 20
775.4914095425
 30
0
 11
835.3676360901
 21
780.7830762092001
 31
0
  0
LINE
  8
1
 62
2
 10
836.9974694234436
 20
775.4914095425
 30
0
 11
835.3676360901
 21
775.4914095425
 31
0
  0
LINE
  8
1
 62
2
 10
837.4049277567794
 20
775.6237012091675
 30
0
 11
836.9974694234436
 21
775.4914095425
 31
0
  0
LINE
  8
1
 62
2
 10
837.7105215067813
 20
775.8882845425026
 30
0
 11
837.4049277567794
 21
775.6237012091675
 31
0
  0
LINE
  8
1
 62
2
 10
837.9142506734494
 20
776.1528678758375
 30
0
 11
837.7105215067813
 21
775.8882845425026
 31
0
  0
LINE
  8
1
 62
2
 10
838.1179798401173
 20
776.54974287584
 30
0
 11
837.9142506734494
 21
776.1528678758375
 31
0
  0
LINE
  8
1
 62
2
 10
838.2198444234513
 20
777.07890954251
 30
0
 11
838.1179798401173
 21
776.54974287584
 31
0
  0
LINE
  8
1
 62
2
 10
838.2198444234513
 20
779.19557620919
 30
0
 11
838.2198444234513
 21
777.07890954251
 31
0
  0
LINE
  8
1
 62
2
 10
868.0843942780687
 20
775.4914095425
 30
0
 11
866.556425528059
 21
775.4914095425
 31
0
  0
LINE
  8
1
 62
2
 10
868.3899880280706
 20
775.6237012091675
 30
0
 11
868.0843942780687
 21
775.4914095425
 31
0
  0
LINE
  8
1
 62
2
 10
868.6955817780724
 20
775.8882845425026
 30
0
 11
868.3899880280706
 21
775.6237012091675
 31
0
  0
LINE
  8
1
 62
2
 10
868.8993109447404
 20
776.2851595425051
 30
0
 11
868.6955817780724
 21
775.8882845425026
 31
0
  0
LINE
  8
1
 62
2
 10
869.0011755280743
 20
776.8143262091751
 30
0
 11
868.8993109447404
 21
776.2851595425051
 31
0
  0
LINE
  8
1
 62
2
 10
869.0011755280743
 20
777.4757845425125
 30
0
 11
869.0011755280743
 21
776.8143262091751
 31
0
  0
LINE
  8
1
 62
2
 10
868.8993109447404
 20
778.0049512091825
 30
0
 11
869.0011755280743
 21
777.4757845425125
 31
0
  0
LINE
  8
1
 62
2
 10
868.7974463614064
 20
778.2695345425176
 30
0
 11
868.8993109447404
 21
778.0049512091825
 31
0
  0
LINE
  8
1
 62
2
 10
868.5937171947385
 20
778.5341178758525
 30
0
 11
868.7974463614064
 21
778.2695345425176
 31
0
  0
LINE
  8
1
 62
2
 10
868.1862588614026
 20
778.66640954252
 30
0
 11
868.5937171947385
 21
778.5341178758525
 31
0
  0
LINE
  8
1
 62
2
 10
868.4918526114045
 20
778.7987012091876
 30
0
 11
868.1862588614026
 21
778.66640954252
 31
0
  0
LINE
  8
1
 62
2
 10
868.6955817780724
 20
778.9309928758551
 30
0
 11
868.4918526114045
 21
778.7987012091876
 31
0
  0
LINE
  8
1
 62
2
 10
868.8993109447404
 20
779.19557620919
 30
0
 11
868.6955817780724
 21
778.9309928758551
 31
0
  0
LINE
  8
1
 62
2
 10
869.0011755280743
 20
779.5924512091925
 30
0
 11
868.8993109447404
 21
779.19557620919
 31
0
  0
LINE
  8
1
 62
2
 10
869.0011755280743
 20
779.989326209195
 30
0
 11
869.0011755280743
 21
779.5924512091925
 31
0
  0
LINE
  8
1
 62
2
 10
868.8993109447404
 20
780.3862012091976
 30
0
 11
869.0011755280743
 21
779.989326209195
 31
0
  0
LINE
  8
1
 62
2
 10
868.5937171947385
 20
780.6507845425325
 30
0
 11
868.8993109447404
 21
780.3862012091976
 31
0
  0
LINE
  8
1
 62
2
 10
868.0843942780687
 20
780.7830762092001
 30
0
 11
868.5937171947385
 21
780.6507845425325
 31
0
  0
LINE
  8
1
 62
2
 10
866.556425528059
 20
780.7830762092001
 30
0
 11
868.0843942780687
 21
780.7830762092001
 31
0
  0
LINE
  8
1
 62
2
 10
867.1676130280629
 20
778.66640954252
 30
0
 11
868.1862588614026
 21
778.66640954252
 31
0
  0
LINE
  8
1
 62
2
 10
865.2321859447173
 20
779.72474287586
 30
0
 11
865.3340505280513
 21
779.19557620919
 31
0
  0
LINE
  8
1
 62
2
 10
865.0284567780494
 20
780.1216178758625
 30
0
 11
865.2321859447173
 21
779.72474287586
 31
0
  0
LINE
  8
1
 62
2
 10
864.8247276113814
 20
780.3862012091976
 30
0
 11
865.0284567780494
 21
780.1216178758625
 31
0
  0
LINE
  8
1
 62
2
 10
864.5191338613795
 20
780.6507845425325
 30
0
 11
864.8247276113814
 21
780.3862012091976
 31
0
  0
LINE
  8
1
 62
2
 10
864.1116755280436
 20
780.7830762092001
 30
0
 11
864.5191338613795
 21
780.6507845425325
 31
0
  0
LINE
  8
1
 62
2
 10
862.4818421947
 20
780.7830762092001
 30
0
 11
864.1116755280436
 21
780.7830762092001
 31
0
  0
LINE
  8
1
 62
2
 10
862.4818421947
 20
775.4914095425
 30
0
 11
862.4818421947
 21
780.7830762092001
 31
0
  0
LINE
  8
1
 62
2
 10
864.1116755280436
 20
775.4914095425
 30
0
 11
862.4818421947
 21
775.4914095425
 31
0
  0
LINE
  8
1
 62
2
 10
864.5191338613795
 20
775.6237012091675
 30
0
 11
864.1116755280436
 21
775.4914095425
 31
0
  0
LINE
  8
1
 62
2
 10
864.8247276113814
 20
775.8882845425026
 30
0
 11
864.5191338613795
 21
775.6237012091675
 31
0
  0
LINE
  8
1
 62
2
 10
865.0284567780494
 20
776.1528678758375
 30
0
 11
864.8247276113814
 21
775.8882845425026
 31
0
  0
LINE
  8
1
 62
2
 10
865.2321859447173
 20
776.54974287584
 30
0
 11
865.0284567780494
 21
776.1528678758375
 31
0
  0
LINE
  8
1
 62
2
 10
865.3340505280513
 20
777.07890954251
 30
0
 11
865.2321859447173
 21
776.54974287584
 31
0
  0
LINE
  8
1
 62
2
 10
865.3340505280513
 20
779.19557620919
 30
0
 11
865.3340505280513
 21
777.07890954251
 31
0
  0
LINE
  8
1
 62
2
 10
921.3764836242134
 20
783.1017300033201
 30
0
 11
922.095527741865
 21
781.6906188922001
 31
0
  0
LINE
  8
1
 62
2
 10
921.0169615653875
 20
785.0420077811101
 30
0
 11
921.3764836242134
 21
783.1017300033201
 31
0
  0
LINE
  8
1
 62
2
 10
919.4590326438091
 20
785.0420077811101
 30
0
 11
921.0169615653875
 21
785.0420077811101
 31
0
  0
LINE
  8
1
 62
2
 10
919.4590326438091
 20
784.33645222555
 30
0
 11
918.500307153607
 21
781.6906188922001
 31
0
  0
LINE
  8
1
 62
2
 10
922.095527741865
 20
786.2767300033401
 30
0
 11
921.8558463693145
 21
785.0420077811101
 31
0
  0
LINE
  8
1
 62
2
 10
918.500307153607
 20
786.2767300033401
 30
0
 11
922.095527741865
 21
786.2767300033401
 31
0
  0
LINE
  8
1
 62
2
 10
918.500307153607
 20
785.0420077811101
 30
0
 11
918.500307153607
 21
786.2767300033401
 31
0
  0
LINE
  8
1
 62
2
 10
920.297917447736
 20
786.9822855589001
 30
0
 11
920.297917447736
 21
786.2767300033401
 31
0
  0
LINE
  8
1
 62
2
 10
915.0249272516244
 20
784.86561889222
 30
0
 11
916.702696859478
 21
783.80728555888
 31
0
  0
LINE
  8
1
 62
2
 10
915.0249272516244
 20
786.6295077811201
 30
0
 11
915.0249272516244
 21
782.2197855588701
 31
0
  0
LINE
  8
1
 62
2
 10
912.148750781018
 20
783.6308966699901
 30
0
 11
912.3884321535685
 21
784.33645222555
 31
0
  0
LINE
  8
1
 62
2
 10
911.7892287221922
 20
782.92534111443
 30
0
 11
912.148750781018
 21
783.6308966699901
 31
0
  0
LINE
  8
1
 62
2
 10
911.0701846045406
 20
782.5725633366501
 30
0
 11
911.7892287221922
 21
782.92534111443
 31
0
  0
LINE
  8
1
 62
2
 10
911.0701846045406
 20
786.1003411144501
 30
0
 11
911.0701846045406
 21
782.5725633366501
 31
0
  0
LINE
  8
1
 62
2
 10
909.7519370555127
 20
783.2781188922101
 30
0
 11
909.1527336241363
 21
782.39617444776
 31
0
  0
LINE
  8
1
 62
2
 10
909.9916184280633
 20
784.1600633366601
 30
0
 11
909.7519370555127
 21
783.2781188922101
 31
0
  0
LINE
  8
1
 62
2
 10
909.9916184280633
 20
785.92395222556
 30
0
 11
909.9916184280633
 21
784.1600633366601
 31
0
  0
LINE
  8
1
 62
2
 10
907.4749640162827
 20
786.9822855589001
 30
0
 11
907.7146453888332
 21
786.2767300033401
 31
0
  0
LINE
  8
1
 62
2
 10
906.9956012711816
 20
786.9822855589001
 30
0
 11
907.2352826437322
 21
786.2767300033401
 31
0
  0
LINE
  8
1
 62
2
 10
906.8757605849063
 20
784.1600633366601
 30
0
 11
907.4749640162827
 21
782.5725633366501
 31
0
  0
LINE
  8
1
 62
2
 10
905.0781502907773
 20
784.1600633366601
 30
0
 11
904.4789468594011
 21
782.5725633366501
 31
0
  0
LINE
  8
1
 62
2
 10
906.0368757809795
 20
786.6295077811201
 30
0
 11
906.0368757809795
 21
782.0433966699801
 31
0
  0
LINE
  8
1
 62
2
 10
904.5987875456763
 20
785.39478555889
 30
0
 11
907.4749640162827
 21
785.39478555889
 31
0
  0
LINE
  8
1
 62
2
 10
897.9695818221618
 20
770.87970019281
 30
0
 11
897.610059763336
 21
769.99775574836
 31
0
  0
LINE
  8
1
 62
2
 10
898.089422508437
 20
771.93803352615
 30
0
 11
897.9695818221618
 21
770.87970019281
 31
0
  0
LINE
  8
1
 62
2
 10
897.9695818221618
 20
772.99636685949
 30
0
 11
898.089422508437
 21
771.93803352615
 31
0
  0
LINE
  8
1
 62
2
 10
897.610059763336
 20
773.87831130394
 30
0
 11
897.9695818221618
 21
772.99636685949
 31
0
  0
LINE
  8
1
 62
2
 10
894.014839175078
 20
770.52692241503
 30
0
 11
894.6140426064544
 21
769.46858908169
 31
0
  0
LINE
  8
1
 62
2
 10
893.5354764299769
 20
771.76164463726
 30
0
 11
894.014839175078
 21
770.52692241503
 31
0
  0
LINE
  8
1
 62
2
 10
893.2957950574264
 20
773.17275574838
 30
0
 11
893.5354764299769
 21
771.76164463726
 31
0
  0
LINE
  8
1
 62
2
 10
893.4156357437017
 20
770.52692241503
 30
0
 11
892.6965916260501
 21
769.2922001928
 31
0
  0
LINE
  8
1
 62
2
 10
894.014839175078
 20
771.93803352615
 30
0
 11
893.4156357437017
 21
770.52692241503
 31
0
  0
LINE
  8
1
 62
2
 10
894.2545205476285
 20
773.70192241505
 30
0
 11
894.014839175078
 21
771.93803352615
 31
0
  0
LINE
  8
1
 62
2
 10
893.4156357437017
 20
773.70192241505
 30
0
 11
894.6140426064544
 21
773.70192241505
 31
0
  0
LINE
  8
1
 62
2
 10
893.2957950574264
 20
773.17275574838
 30
0
 11
892.9362729986007
 21
772.1144224150401
 31
0
  0
LINE
  8
1
 62
2
 10
893.4156357437017
 20
773.70192241505
 30
0
 11
893.2957950574264
 21
773.17275574838
 31
0
  0
LINE
  8
1
 62
2
 10
893.4156357437017
 20
774.5838668595001
 30
0
 11
893.4156357437017
 21
773.70192241505
 31
0
  0
LINE
  8
1
 62
2
 10
891.0188220181964
 20
771.40886685948
 30
0
 11
893.056113684876
 21
771.40886685948
 31
0
  0
LINE
  8
1
 62
2
 10
892.0973881946738
 20
770.17414463725
 30
0
 11
891.1386627044717
 21
769.2922001928
 31
0
  0
LINE
  8
1
 62
2
 10
892.6965916260501
 20
771.40886685948
 30
0
 11
892.0973881946738
 21
770.17414463725
 31
0
  0
LINE
  8
1
 62
2
 10
891.2585033907469
 20
770.52692241503
 30
0
 11
892.6965916260501
 21
769.82136685947
 31
0
  0
LINE
  8
1
 62
2
 10
891.8577068221233
 20
771.76164463726
 30
0
 11
891.2585033907469
 21
770.52692241503
 31
0
  0
LINE
  8
1
 62
2
 10
891.9775475083985
 20
773.52553352616
 30
0
 11
892.8164323123255
 21
772.29081130393
 31
0
  0
LINE
  8
1
 62
2
 10
891.9775475083985
 20
773.52553352616
 30
0
 11
891.0188220181964
 21
771.93803352615
 31
0
  0
LINE
  8
1
 62
2
 10
891.9775475083985
 20
774.5838668595001
 30
0
 11
891.9775475083985
 21
772.1144224150401
 31
0
  0
LINE
  8
1
 62
2
 10
891.0188220181964
 20
773.52553352616
 30
0
 11
892.9362729986007
 21
773.52553352616
 31
0
  0
LINE
  8
1
 62
2
 10
892.8164323123255
 20
774.23108908172
 30
0
 11
892.3370695672244
 21
773.70192241505
 31
0
  0
LINE
  8
1
 62
2
 10
891.2585033907469
 20
774.23108908172
 30
0
 11
891.6180254495728
 21
773.70192241505
 31
0
  0
LINE
  8
1
 62
2
 10
887.9029641750395
 20
770.87970019281
 30
0
 11
888.2624862338654
 21
769.99775574836
 31
0
  0
LINE
  8
1
 62
2
 10
887.7831234887643
 20
771.93803352615
 30
0
 11
887.9029641750395
 21
770.87970019281
 31
0
  0
LINE
  8
1
 62
2
 10
887.9029641750395
 20
772.99636685949
 30
0
 11
887.7831234887643
 21
771.93803352615
 31
0
  0
LINE
  8
1
 62
2
 10
888.2624862338654
 20
773.87831130394
 30
0
 11
887.9029641750395
 21
772.99636685949
 31
0
  0
LINE
  8
1
 62
2
 10
884.0680622142311
 20
772.29081130393
 30
0
 11
884.0680622142311
 21
769.1158113039101
 31
0
  0
LINE
  8
1
 62
2
 10
883.9482215279558
 20
772.6435890817101
 30
0
 11
884.0680622142311
 21
772.29081130393
 31
0
  0
LINE
  8
1
 62
2
 10
883.58869946913
 20
772.99636685949
 30
0
 11
883.9482215279558
 21
772.6435890817101
 31
0
  0
LINE
  8
1
 62
2
 10
883.3490180965795
 20
772.99636685949
 30
0
 11
883.58869946913
 21
772.99636685949
 31
0
  0
LINE
  8
1
 62
2
 10
882.7498146652032
 20
772.6435890817101
 30
0
 11
883.3490180965795
 21
772.99636685949
 31
0
  0
LINE
  8
1
 62
2
 10
882.3902926063773
 20
771.93803352615
 30
0
 11
882.7498146652032
 21
772.6435890817101
 31
0
  0
LINE
  8
1
 62
2
 10
882.3902926063773
 20
772.99636685949
 30
0
 11
882.3902926063773
 21
769.1158113039101
 31
0
  0
LINE
  8
1
 62
2
 10
939.345125301683
 20
770.87970019281
 30
0
 11
938.9856032428572
 21
769.99775574836
 31
0
  0
LINE
  8
1
 62
2
 10
939.4649659879582
 20
771.93803352615
 30
0
 11
939.345125301683
 21
770.87970019281
 31
0
  0
LINE
  8
1
 62
2
 10
939.345125301683
 20
772.99636685949
 30
0
 11
939.4649659879582
 21
771.93803352615
 31
0
  0
LINE
  8
1
 62
2
 10
938.9856032428572
 20
773.87831130394
 30
0
 11
939.345125301683
 21
772.99636685949
 31
0
  0
LINE
  8
1
 62
2
 10
933.3530909879197
 20
769.2922001928
 30
0
 11
935.9895860859756
 21
769.2922001928
 31
0
  0
LINE
  8
1
 62
2
 10
934.6713385369476
 20
771.76164463726
 30
0
 11
934.6713385369476
 21
769.2922001928
 31
0
  0
LINE
  8
1
 62
2
 10
933.472931674195
 20
770.87970019281
 30
0
 11
935.8697453997003
 21
770.87970019281
 31
0
  0
LINE
  8
1
 62
2
 10
935.1507012820487
 20
772.29081130393
 30
0
 11
935.9895860859756
 21
771.93803352615
 31
0
  0
LINE
  8
1
 62
2
 10
934.3118164781218
 20
772.99636685949
 30
0
 11
935.1507012820487
 21
772.29081130393
 31
0
  0
LINE
  8
1
 62
2
 10
933.7126130467456
 20
774.05470019283
 30
0
 11
934.3118164781218
 21
772.99636685949
 31
0
  0
LINE
  8
1
 62
2
 10
934.4316571643972
 20
772.46720019282
 30
0
 11
933.3530909879197
 21
771.93803352615
 31
0
  0
LINE
  8
1
 62
2
 10
935.270541968324
 20
773.34914463727
 30
0
 11
934.4316571643972
 21
772.46720019282
 31
0
  0
LINE
  8
1
 62
2
 10
935.7499047134251
 20
774.40747797061
 30
0
 11
935.270541968324
 21
773.34914463727
 31
0
  0
LINE
  8
1
 62
2
 10
933.5927723604702
 20
774.40747797061
 30
0
 11
935.7499047134251
 21
774.40747797061
 31
0
  0
LINE
  8
1
 62
2
 10
932.8737282428186
 20
771.93803352615
 30
0
 11
932.8737282428186
 21
769.2922001928
 31
0
  0
LINE
  8
1
 62
2
 10
933.1134096153692
 20
772.99636685949
 30
0
 11
932.6340468702681
 21
770.87970019281
 31
0
  0
LINE
  8
1
 62
2
 10
933.1134096153692
 20
774.40747797061
 30
0
 11
932.6340468702681
 21
772.99636685949
 31
0
  0
LINE
  8
1
 62
2
 10
930.4769145173134
 20
770.70331130392
 30
0
 11
931.195958634965
 21
769.2922001928
 31
0
  0
LINE
  8
1
 62
2
 10
930.1173924584875
 20
772.6435890817101
 30
0
 11
930.4769145173134
 21
770.70331130392
 31
0
  0
LINE
  8
1
 62
2
 10
928.5594635369091
 20
772.6435890817101
 30
0
 11
930.1173924584875
 21
772.6435890817101
 31
0
  0
LINE
  8
1
 62
2
 10
928.5594635369091
 20
771.93803352615
 30
0
 11
927.600738046707
 21
769.2922001928
 31
0
  0
LINE
  8
1
 62
2
 10
931.195958634965
 20
773.87831130394
 30
0
 11
930.9562772624145
 21
772.6435890817101
 31
0
  0
LINE
  8
1
 62
2
 10
927.600738046707
 20
773.87831130394
 30
0
 11
931.195958634965
 21
773.87831130394
 31
0
  0
LINE
  8
1
 62
2
 10
927.600738046707
 20
772.6435890817101
 30
0
 11
927.600738046707
 21
773.87831130394
 31
0
  0
LINE
  8
1
 62
2
 10
929.398348340836
 20
774.5838668595001
 30
0
 11
929.398348340836
 21
773.87831130394
 31
0
  0
LINE
  8
1
 62
2
 10
924.4848802035501
 20
770.87970019281
 30
0
 11
924.844402262376
 21
769.99775574836
 31
0
  0
LINE
  8
1
 62
2
 10
924.3650395172749
 20
771.93803352615
 30
0
 11
924.4848802035501
 21
770.87970019281
 31
0
  0
LINE
  8
1
 62
2
 10
924.4848802035501
 20
772.99636685949
 30
0
 11
924.3650395172749
 21
771.93803352615
 31
0
  0
LINE
  8
1
 62
2
 10
924.844402262376
 20
773.87831130394
 30
0
 11
924.4848802035501
 21
772.99636685949
 31
0
  0
LINE
  8
1
 62
2
 10
920.2904561839158
 20
769.46858908169
 30
0
 11
920.6499782427417
 21
770.17414463725
 31
0
  0
LINE
  8
1
 62
2
 10
919.8110934388149
 20
769.2922001928
 30
0
 11
920.2904561839158
 21
769.46858908169
 31
0
  0
LINE
  8
1
 62
2
 10
919.3317306937138
 20
769.46858908169
 30
0
 11
919.8110934388149
 21
769.2922001928
 31
0
  0
LINE
  8
1
 62
2
 10
918.9722086348879
 20
770.35053352614
 30
0
 11
919.3317306937138
 21
769.46858908169
 31
0
  0
LINE
  8
1
 62
2
 10
918.8523679486127
 20
771.0560890817001
 30
0
 11
918.9722086348879
 21
770.35053352614
 31
0
  0
LINE
  8
1
 62
2
 10
918.9722086348879
 20
772.1144224150401
 30
0
 11
918.8523679486127
 21
771.0560890817001
 31
0
  0
LINE
  8
1
 62
2
 10
919.3317306937138
 20
772.8199779706
 30
0
 11
918.9722086348879
 21
772.1144224150401
 31
0
  0
LINE
  8
1
 62
2
 10
919.8110934388149
 20
773.17275574838
 30
0
 11
919.3317306937138
 21
772.8199779706
 31
0
  0
LINE
  8
1
 62
2
 10
920.2904561839158
 20
772.8199779706
 30
0
 11
919.8110934388149
 21
773.17275574838
 31
0
  0
LINE
  8
1
 62
2
 10
920.6499782427417
 20
772.29081130393
 30
0
 11
920.2904561839158
 21
772.8199779706
 31
0
  0
LINE
  8
1
 62
2
 10
920.6499782427417
 20
774.5838668595001
 30
0
 11
920.6499782427417
 21
769.2922001928
 31
0
  0
LINE
  8
1
 62
2
 10
914.4182625564279
 20
769.64497797058
 30
0
 11
915.6166694191805
 21
769.64497797058
 31
0
  0
LINE
  8
1
 62
2
 10
915.0174659878043
 20
773.87831130394
 30
0
 11
915.0174659878043
 21
769.64497797058
 31
0
  0
LINE
  8
1
 62
2
 10
913.6992184387763
 20
772.8199779706
 30
0
 11
914.1785811838773
 21
772.99636685949
 31
0
  0
LINE
  8
1
 62
2
 10
913.4595370662257
 20
772.29081130393
 30
0
 11
913.6992184387763
 21
772.8199779706
 31
0
  0
LINE
  8
1
 62
2
 10
913.3396963799505
 20
771.76164463726
 30
0
 11
913.4595370662257
 21
772.29081130393
 31
0
  0
LINE
  8
1
 62
2
 10
913.4595370662257
 20
771.23247797059
 30
0
 11
913.3396963799505
 21
771.76164463726
 31
0
  0
LINE
  8
1
 62
2
 10
913.8190591250516
 20
770.70331130392
 30
0
 11
913.4595370662257
 21
771.23247797059
 31
0
  0
LINE
  8
1
 62
2
 10
914.1785811838773
 20
770.52692241503
 30
0
 11
913.8190591250516
 21
770.70331130392
 31
0
  0
LINE
  8
1
 62
2
 10
915.8563507917311
 20
770.52692241503
 30
0
 11
914.1785811838773
 21
770.52692241503
 31
0
  0
LINE
  8
1
 62
2
 10
916.3357135368322
 20
770.70331130392
 30
0
 11
915.8563507917311
 21
770.52692241503
 31
0
  0
LINE
  8
1
 62
2
 10
916.5753949093827
 20
771.23247797059
 30
0
 11
916.3357135368322
 21
770.70331130392
 31
0
  0
LINE
  8
1
 62
2
 10
916.6952355956579
 20
771.76164463726
 30
0
 11
916.5753949093827
 21
771.23247797059
 31
0
  0
LINE
  8
1
 62
2
 10
916.5753949093827
 20
772.29081130393
 30
0
 11
916.6952355956579
 21
771.76164463726
 31
0
  0
LINE
  8
1
 62
2
 10
916.3357135368322
 20
772.8199779706
 30
0
 11
916.5753949093827
 21
772.29081130393
 31
0
  0
LINE
  8
1
 62
2
 10
915.8563507917311
 20
772.99636685949
 30
0
 11
916.3357135368322
 21
772.8199779706
 31
0
  0
LINE
  8
1
 62
2
 10
914.1785811838773
 20
772.99636685949
 30
0
 11
915.8563507917311
 21
772.99636685949
 31
0
  0
LINE
  8
1
 62
2
 10
914.4182625564279
 20
773.87831130394
 30
0
 11
915.6166694191805
 21
773.87831130394
 31
0
  0
LINE
  8
1
 62
2
 10
783.0021224029922
 20
758.30489260462
 30
0
 11
783.841007206919
 21
757.07017038239
 31
0
  0
LINE
  8
1
 62
2
 10
782.4029189716158
 20
759.71600371574
 30
0
 11
783.0021224029922
 21
758.30489260462
 31
0
  0
LINE
  8
1
 62
2
 10
781.9235562265149
 20
761.65628149353
 30
0
 11
782.4029189716158
 21
759.71600371574
 31
0
  0
LINE
  8
1
 62
2
 10
783.6013258343685
 20
761.65628149353
 30
0
 11
782.6426003441663
 21
759.89239260463
 31
0
  0
LINE
  8
1
 62
2
 10
780.8449900500374
 20
758.48128149351
 30
0
 11
780.1259459323858
 21
757.24655927128
 31
0
  0
LINE
  8
1
 62
2
 10
781.2045121088632
 20
759.71600371574
 30
0
 11
780.8449900500374
 21
758.48128149351
 31
0
  0
LINE
  8
1
 62
2
 10
781.3243527951385
 20
761.12711482686
 30
0
 11
781.2045121088632
 21
759.71600371574
 31
0
  0
LINE
  8
1
 62
2
 10
780.1259459323858
 20
761.12711482686
 30
0
 11
781.3243527951385
 21
761.12711482686
 31
0
  0
LINE
  8
1
 62
2
 10
781.9235562265149
 20
756.71739260461
 30
0
 11
781.0846714225879
 21
757.42294816017
 31
0
  0
LINE
  8
1
 62
2
 10
781.9235562265149
 20
762.1854481602001
 30
0
 11
781.9235562265149
 21
756.71739260461
 31
0
  0
LINE
  8
1
 62
2
 10
775.3323184813752
 20
756.8937814935
 30
0
 11
778.9275390696332
 21
756.8937814935
 31
0
  0
LINE
  8
1
 62
2
 10
776.7704067166784
 20
762.00905927131
 30
0
 11
776.7704067166784
 21
756.8937814935
 31
0
  0
LINE
  8
1
 62
2
 10
776.7704067166784
 20
760.4215592713
 30
0
 11
778.6878576970827
 21
760.4215592713
 31
0
  0
LINE
  8
1
 62
2
 10
812.9241777536462
 20
762.1854481602001
 30
0
 11
812.9241777536462
 21
756.8937814935
 31
0
  0
LINE
  8
1
 62
2
 10
811.7018027536385
 20
760.59794816019
 30
0
 11
812.9241777536462
 21
762.1854481602001
 31
0
  0
LINE
  8
1
 62
2
 10
810.4794277536308
 20
762.1854481602001
 30
0
 11
810.4794277536308
 21
756.8937814935
 31
0
  0
LINE
  8
1
 62
2
 10
809.2570527536232
 20
760.59794816019
 30
0
 11
810.4794277536308
 21
762.1854481602001
 31
0
  0
LINE
  8
1
 62
2
 10
805.5899277536
 20
756.8937814935
 30
0
 11
808.0346777536154
 21
756.8937814935
 31
0
  0
LINE
  8
1
 62
2
 10
807.8309485869474
 20
760.333364826855
 30
0
 11
805.5899277536
 21
756.8937814935
 31
0
  0
LINE
  8
1
 62
2
 10
808.0346777536154
 20
760.862531493525
 30
0
 11
807.8309485869474
 21
760.333364826855
 31
0
  0
LINE
  8
1
 62
2
 10
808.0346777536154
 20
761.391698160195
 30
0
 11
808.0346777536154
 21
760.862531493525
 31
0
  0
LINE
  8
1
 62
2
 10
807.8309485869474
 20
761.7885731601975
 30
0
 11
808.0346777536154
 21
761.391698160195
 31
0
  0
LINE
  8
1
 62
2
 10
807.5253548369456
 20
762.0531564935325
 30
0
 11
807.8309485869474
 21
761.7885731601975
 31
0
  0
LINE
  8
1
 62
2
 10
807.1178965036097
 20
762.1854481602001
 30
0
 11
807.5253548369456
 21
762.0531564935325
 31
0
  0
LINE
  8
1
 62
2
 10
806.5067090036058
 20
762.1854481602001
 30
0
 11
807.1178965036097
 21
762.1854481602001
 31
0
  0
LINE
  8
1
 62
2
 10
806.09925067027
 20
762.0531564935325
 30
0
 11
806.5067090036058
 21
762.1854481602001
 31
0
  0
LINE
  8
1
 62
2
 10
805.793656920268
 20
761.7885731601975
 30
0
 11
806.09925067027
 21
762.0531564935325
 31
0
  0
LINE
  8
1
 62
2
 10
805.5899277536
 20
761.391698160195
 30
0
 11
805.793656920268
 21
761.7885731601975
 31
0
  0
LINE
  8
1
 62
2
 10
840.1230803230743
 20
761.7885731601975
 30
0
 11
840.4286740730763
 21
762.0531564935325
 31
0
  0
LINE
  8
1
 62
2
 10
839.9193511564064
 20
761.391698160195
 30
0
 11
840.1230803230743
 21
761.7885731601975
 31
0
  0
LINE
  8
1
 62
2
 10
839.9193511564064
 20
760.862531493525
 30
0
 11
839.9193511564064
 21
761.391698160195
 31
0
  0
LINE
  8
1
 62
2
 10
840.1230803230743
 20
760.4656564935225
 30
0
 11
839.9193511564064
 21
760.862531493525
 31
0
  0
LINE
  8
1
 62
2
 10
840.4286740730763
 20
760.2010731601876
 30
0
 11
840.1230803230743
 21
760.4656564935225
 31
0
  0
LINE
  8
1
 62
2
 10
840.7342678230782
 20
760.06878149352
 30
0
 11
840.4286740730763
 21
760.2010731601876
 31
0
  0
LINE
  8
1
 62
2
 10
841.1417261564141
 20
760.06878149352
 30
0
 11
840.7342678230782
 21
760.06878149352
 31
0
  0
LINE
  8
1
 62
2
 10
841.4473199064161
 20
760.2010731601876
 30
0
 11
841.1417261564141
 21
760.06878149352
 31
0
  0
LINE
  8
1
 62
2
 10
841.752913656418
 20
760.4656564935225
 30
0
 11
841.4473199064161
 21
760.2010731601876
 31
0
  0
LINE
  8
1
 62
2
 10
841.9566428230859
 20
760.862531493525
 30
0
 11
841.752913656418
 21
760.4656564935225
 31
0
  0
LINE
  8
1
 62
2
 10
841.9566428230859
 20
761.391698160195
 30
0
 11
841.9566428230859
 21
760.862531493525
 31
0
  0
LINE
  8
1
 62
2
 10
841.752913656418
 20
761.7885731601975
 30
0
 11
841.9566428230859
 21
761.391698160195
 31
0
  0
LINE
  8
1
 62
2
 10
841.4473199064161
 20
762.0531564935325
 30
0
 11
841.752913656418
 21
761.7885731601975
 31
0
  0
LINE
  8
1
 62
2
 10
841.1417261564141
 20
762.1854481602001
 30
0
 11
841.4473199064161
 21
762.0531564935325
 31
0
  0
LINE
  8
1
 62
2
 10
840.7342678230782
 20
762.1854481602001
 30
0
 11
841.1417261564141
 21
762.1854481602001
 31
0
  0
LINE
  8
1
 62
2
 10
840.4286740730763
 20
762.0531564935325
 30
0
 11
840.7342678230782
 21
762.1854481602001
 31
0
  0
LINE
  8
1
 62
2
 10
841.651049073084
 20
759.804198160185
 30
0
 11
841.1417261564141
 21
760.06878149352
 31
0
  0
LINE
  8
1
 62
2
 10
841.9566428230859
 20
759.4073231601825
 30
0
 11
841.651049073084
 21
759.804198160185
 31
0
  0
LINE
  8
1
 62
2
 10
842.1603719897538
 20
758.8781564935125
 30
0
 11
841.9566428230859
 21
759.4073231601825
 31
0
  0
LINE
  8
1
 62
2
 10
842.1603719897538
 20
758.0844064935075
 30
0
 11
842.1603719897538
 21
758.8781564935125
 31
0
  0
LINE
  8
1
 62
2
 10
841.9566428230859
 20
757.5552398268375
 30
0
 11
842.1603719897538
 21
758.0844064935075
 31
0
  0
LINE
  8
1
 62
2
 10
841.651049073084
 20
757.1583648268351
 30
0
 11
841.9566428230859
 21
757.5552398268375
 31
0
  0
LINE
  8
1
 62
2
 10
841.2435907397481
 20
756.8937814935
 30
0
 11
841.651049073084
 21
757.1583648268351
 31
0
  0
LINE
  8
1
 62
2
 10
840.6324032397442
 20
756.8937814935
 30
0
 11
841.2435907397481
 21
756.8937814935
 31
0
  0
LINE
  8
1
 62
2
 10
840.2249449064084
 20
757.1583648268351
 30
0
 11
840.6324032397442
 21
756.8937814935
 31
0
  0
LINE
  8
1
 62
2
 10
839.9193511564064
 20
757.5552398268375
 30
0
 11
840.2249449064084
 21
757.1583648268351
 31
0
  0
LINE
  8
1
 62
2
 10
839.7156219897385
 20
758.0844064935075
 30
0
 11
839.9193511564064
 21
757.5552398268375
 31
0
  0
LINE
  8
1
 62
2
 10
839.7156219897385
 20
758.8781564935125
 30
0
 11
839.7156219897385
 21
758.0844064935075
 31
0
  0
LINE
  8
1
 62
2
 10
839.9193511564064
 20
759.4073231601825
 30
0
 11
839.7156219897385
 21
758.8781564935125
 31
0
  0
LINE
  8
1
 62
2
 10
840.2249449064084
 20
759.804198160185
 30
0
 11
839.9193511564064
 21
759.4073231601825
 31
0
  0
LINE
  8
1
 62
2
 10
840.7342678230782
 20
760.06878149352
 30
0
 11
840.2249449064084
 21
759.804198160185
 31
0
  0
LINE
  8
1
 62
2
 10
836.7615490730532
 20
760.9948231601925
 30
0
 11
837.8820594897269
 21
762.1854481602001
 31
0
  0
LINE
  8
1
 62
2
 10
836.3540907397172
 20
760.333364826855
 30
0
 11
836.7615490730532
 21
760.9948231601925
 31
0
  0
LINE
  8
1
 62
2
 10
836.1503615730493
 20
759.804198160185
 30
0
 11
836.3540907397172
 21
760.333364826855
 31
0
  0
LINE
  8
1
 62
2
 10
836.0484969897153
 20
758.745864826845
 30
0
 11
836.1503615730493
 21
759.804198160185
 31
0
  0
LINE
  8
1
 62
2
 10
836.0484969897153
 20
758.216698160175
 30
0
 11
836.0484969897153
 21
758.745864826845
 31
0
  0
LINE
  8
1
 62
2
 10
836.1503615730493
 20
757.6875314935051
 30
0
 11
836.0484969897153
 21
758.216698160175
 31
0
  0
LINE
  8
1
 62
2
 10
836.3540907397172
 20
757.2906564935025
 30
0
 11
836.1503615730493
 21
757.6875314935051
 31
0
  0
LINE
  8
1
 62
2
 10
836.6596844897192
 20
757.0260731601675
 30
0
 11
836.3540907397172
 21
757.2906564935025
 31
0
  0
LINE
  8
1
 62
2
 10
836.9652782397211
 20
756.8937814935
 30
0
 11
836.6596844897192
 21
757.0260731601675
 31
0
  0
LINE
  8
1
 62
2
 10
837.576465739725
 20
756.8937814935
 30
0
 11
836.9652782397211
 21
756.8937814935
 31
0
  0
LINE
  8
1
 62
2
 10
837.8820594897269
 20
757.0260731601675
 30
0
 11
837.576465739725
 21
756.8937814935
 31
0
  0
LINE
  8
1
 62
2
 10
838.1876532397288
 20
757.2906564935025
 30
0
 11
837.8820594897269
 21
757.0260731601675
 31
0
  0
LINE
  8
1
 62
2
 10
838.3913824063967
 20
757.6875314935051
 30
0
 11
838.1876532397288
 21
757.2906564935025
 31
0
  0
LINE
  8
1
 62
2
 10
838.4932469897307
 20
758.216698160175
 30
0
 11
838.3913824063967
 21
757.6875314935051
 31
0
  0
LINE
  8
1
 62
2
 10
838.4932469897307
 20
758.745864826845
 30
0
 11
838.4932469897307
 21
758.216698160175
 31
0
  0
LINE
  8
1
 62
2
 10
838.3913824063967
 20
759.275031493515
 30
0
 11
838.4932469897307
 21
758.745864826845
 31
0
  0
LINE
  8
1
 62
2
 10
838.1876532397288
 20
759.6719064935176
 30
0
 11
838.3913824063967
 21
759.275031493515
 31
0
  0
LINE
  8
1
 62
2
 10
837.8820594897269
 20
759.9364898268525
 30
0
 11
838.1876532397288
 21
759.6719064935176
 31
0
  0
LINE
  8
1
 62
2
 10
837.576465739725
 20
760.06878149352
 30
0
 11
837.8820594897269
 21
759.9364898268525
 31
0
  0
LINE
  8
1
 62
2
 10
836.9652782397211
 20
760.06878149352
 30
0
 11
837.576465739725
 21
760.06878149352
 31
0
  0
LINE
  8
1
 62
2
 10
836.6596844897192
 20
759.9364898268525
 30
0
 11
836.9652782397211
 21
760.06878149352
 31
0
  0
LINE
  8
1
 62
2
 10
836.3540907397172
 20
759.6719064935176
 30
0
 11
836.6596844897192
 21
759.9364898268525
 31
0
  0
LINE
  8
1
 62
2
 10
836.1503615730493
 20
759.275031493515
 30
0
 11
836.3540907397172
 21
759.6719064935176
 31
0
  0
LINE
  8
1
 62
2
 10
836.0484969897153
 20
758.745864826845
 30
0
 11
836.1503615730493
 21
759.275031493515
 31
0
  0
LINE
  8
1
 62
2
 10
834.8261219897076
 20
762.1854481602001
 30
0
 11
834.8261219897076
 21
756.8937814935
 31
0
  0
LINE
  8
1
 62
2
 10
833.6037469897
 20
760.59794816019
 30
0
 11
834.8261219897076
 21
762.1854481602001
 31
0
  0
LINE
  8
1
 62
2
 10
868.3577968443482
 20
756.8937814935
 30
0
 11
866.8298280943385
 21
756.8937814935
 31
0
  0
LINE
  8
1
 62
2
 10
868.6633905943501
 20
757.0260731601675
 30
0
 11
868.3577968443482
 21
756.8937814935
 31
0
  0
LINE
  8
1
 62
2
 10
868.968984344352
 20
757.2906564935025
 30
0
 11
868.6633905943501
 21
757.0260731601675
 31
0
  0
LINE
  8
1
 62
2
 10
869.1727135110199
 20
757.6875314935051
 30
0
 11
868.968984344352
 21
757.2906564935025
 31
0
  0
LINE
  8
1
 62
2
 10
869.2745780943538
 20
758.216698160175
 30
0
 11
869.1727135110199
 21
757.6875314935051
 31
0
  0
LINE
  8
1
 62
2
 10
869.2745780943538
 20
759.01044816018
 30
0
 11
869.2745780943538
 21
758.216698160175
 31
0
  0
LINE
  8
1
 62
2
 10
869.1727135110199
 20
759.53961482685
 30
0
 11
869.2745780943538
 21
759.01044816018
 31
0
  0
LINE
  8
1
 62
2
 10
868.867119761018
 20
759.9364898268525
 30
0
 11
869.1727135110199
 21
759.53961482685
 31
0
  0
LINE
  8
1
 62
2
 10
868.3577968443482
 20
760.06878149352
 30
0
 11
868.867119761018
 21
759.9364898268525
 31
0
  0
LINE
  8
1
 62
2
 10
866.8298280943385
 20
760.06878149352
 30
0
 11
868.3577968443482
 21
760.06878149352
 31
0
  0
LINE
  8
1
 62
2
 10
866.8298280943385
 20
762.1854481602001
 30
0
 11
866.8298280943385
 21
760.06878149352
 31
0
  0
LINE
  8
1
 62
2
 10
869.0708489276859
 20
762.1854481602001
 30
0
 11
866.8298280943385
 21
762.1854481602001
 31
0
  0
LINE
  8
1
 62
2
 10
863.1627030943154
 20
756.8937814935
 30
0
 11
865.6074530943307
 21
756.8937814935
 31
0
  0
LINE
  8
1
 62
2
 10
865.4037239276628
 20
760.333364826855
 30
0
 11
863.1627030943154
 21
756.8937814935
 31
0
  0
LINE
  8
1
 62
2
 10
865.6074530943307
 20
760.862531493525
 30
0
 11
865.4037239276628
 21
760.333364826855
 31
0
  0
LINE
  8
1
 62
2
 10
865.6074530943307
 20
761.391698160195
 30
0
 11
865.6074530943307
 21
760.862531493525
 31
0
  0
LINE
  8
1
 62
2
 10
865.4037239276628
 20
761.7885731601975
 30
0
 11
865.6074530943307
 21
761.391698160195
 31
0
  0
LINE
  8
1
 62
2
 10
865.0981301776609
 20
762.0531564935325
 30
0
 11
865.4037239276628
 21
761.7885731601975
 31
0
  0
LINE
  8
1
 62
2
 10
864.690671844325
 20
762.1854481602001
 30
0
 11
865.0981301776609
 21
762.0531564935325
 31
0
  0
LINE
  8
1
 62
2
 10
864.0794843443211
 20
762.1854481602001
 30
0
 11
864.690671844325
 21
762.1854481602001
 31
0
  0
LINE
  8
1
 62
2
 10
863.6720260109853
 20
762.0531564935325
 30
0
 11
864.0794843443211
 21
762.1854481602001
 31
0
  0
LINE
  8
1
 62
2
 10
863.3664322609833
 20
761.7885731601975
 30
0
 11
863.6720260109853
 21
762.0531564935325
 31
0
  0
LINE
  8
1
 62
2
 10
863.1627030943154
 20
761.391698160195
 30
0
 11
863.3664322609833
 21
761.7885731601975
 31
0
  0
LINE
  8
1
 62
2
 10
861.9403280943077
 20
762.1854481602001
 30
0
 11
861.9403280943077
 21
756.8937814935
 31
0
  0
LINE
  8
1
 62
2
 10
860.7179530943
 20
760.59794816019
 30
0
 11
861.9403280943077
 21
762.1854481602001
 31
0
  0
LINE
  8
1
 62
2
 10
895.4925110029116
 20
759.01044816018
 30
0
 11
895.4925110029116
 21
756.8937814935
 31
0
  0
LINE
  8
1
 62
2
 10
893.6589485029
 20
757.95211482684
 30
0
 11
896.1036985029153
 21
757.95211482684
 31
0
  0
LINE
  8
1
 62
2
 10
895.4925110029116
 20
762.1854481602001
 30
0
 11
893.6589485029
 21
757.95211482684
 31
0
  0
LINE
  8
1
 62
2
 10
934.406027751823
 20
757.42294816017
 30
0
 11
933.4892465018172
 21
756.8937814935
 31
0
  0
LINE
  8
1
 62
2
 10
935.1190798351609
 20
758.216698160175
 30
0
 11
934.406027751823
 21
757.42294816017
 31
0
  0
LINE
  8
1
 62
2
 10
935.4246735851627
 20
758.745864826845
 30
0
 11
935.1190798351609
 21
758.216698160175
 31
0
  0
LINE
  8
1
 62
2
 10
935.5265381684967
 20
759.275031493515
 30
0
 11
935.4246735851627
 21
758.745864826845
 31
0
  0
LINE
  8
1
 62
2
 10
935.6284027518307
 20
759.9364898268525
 30
0
 11
935.5265381684967
 21
759.275031493515
 31
0
  0
LINE
  8
1
 62
2
 10
935.6284027518307
 20
760.862531493525
 30
0
 11
935.6284027518307
 21
759.9364898268525
 31
0
  0
LINE
  8
1
 62
2
 10
935.5265381684967
 20
761.391698160195
 30
0
 11
935.6284027518307
 21
760.862531493525
 31
0
  0
LINE
  8
1
 62
2
 10
935.3228090018288
 20
761.7885731601975
 30
0
 11
935.5265381684967
 21
761.391698160195
 31
0
  0
LINE
  8
1
 62
2
 10
935.0172152518269
 20
762.0531564935325
 30
0
 11
935.3228090018288
 21
761.7885731601975
 31
0
  0
LINE
  8
1
 62
2
 10
934.711621501825
 20
762.1854481602001
 30
0
 11
935.0172152518269
 21
762.0531564935325
 31
0
  0
LINE
  8
1
 62
2
 10
934.1004340018211
 20
762.1854481602001
 30
0
 11
934.711621501825
 21
762.1854481602001
 31
0
  0
LINE
  8
1
 62
2
 10
933.7948402518192
 20
762.0531564935325
 30
0
 11
934.1004340018211
 21
762.1854481602001
 31
0
  0
LINE
  8
1
 62
2
 10
933.4892465018172
 20
761.7885731601975
 30
0
 11
933.7948402518192
 21
762.0531564935325
 31
0
  0
LINE
  8
1
 62
2
 10
933.2855173351493
 20
761.391698160195
 30
0
 11
933.4892465018172
 21
761.7885731601975
 31
0
  0
LINE
  8
1
 62
2
 10
933.1836527518153
 20
760.862531493525
 30
0
 11
933.2855173351493
 21
761.391698160195
 31
0
  0
LINE
  8
1
 62
2
 10
933.1836527518153
 20
760.59794816019
 30
0
 11
933.1836527518153
 21
760.862531493525
 31
0
  0
LINE
  8
1
 62
2
 10
933.2855173351493
 20
760.06878149352
 30
0
 11
933.1836527518153
 21
760.59794816019
 31
0
  0
LINE
  8
1
 62
2
 10
933.4892465018172
 20
759.6719064935176
 30
0
 11
933.2855173351493
 21
760.06878149352
 31
0
  0
LINE
  8
1
 62
2
 10
933.7948402518192
 20
759.4073231601825
 30
0
 11
933.4892465018172
 21
759.6719064935176
 31
0
  0
LINE
  8
1
 62
2
 10
934.1004340018211
 20
759.275031493515
 30
0
 11
933.7948402518192
 21
759.4073231601825
 31
0
  0
LINE
  8
1
 62
2
 10
935.5265381684967
 20
759.275031493515
 30
0
 11
934.1004340018211
 21
759.275031493515
 31
0
  0
LINE
  8
1
 62
2
 10
931.9612777518076
 20
762.1854481602001
 30
0
 11
931.9612777518076
 21
756.8937814935
 31
0
  0
LINE
  8
1
 62
2
 10
930.7389027518
 20
760.59794816019
 30
0
 11
931.9612777518076
 21
762.1854481602001
 31
0
  0
LINE
  8
1
 62
2
 10
785.9457421923564
 20
744.4953627942
 30
0
 11
785.9457421923564
 21
749.7870294609
 31
0
  0
LINE
  8
1
 62
2
 10
786.7606588590282
 20
747.14119612755
 30
0
 11
788.7979505257077
 21
744.4953627942
 31
0
  0
LINE
  8
1
 62
2
 10
788.7979505257077
 20
749.7870294609
 30
0
 11
785.9457421923564
 21
746.08286279421
 31
0
  0
LINE
  8
1
 62
2
 10
784.7233671923488
 20
747.8026544608875
 30
0
 11
784.7233671923488
 21
746.4797377942125
 31
0
  0
LINE
  8
1
 62
2
 10
784.6215026090148
 20
748.5964044608925
 30
0
 11
784.7233671923488
 21
747.8026544608875
 31
0
  0
LINE
  8
1
 62
2
 10
784.4177734423469
 20
749.1255711275625
 30
0
 11
784.6215026090148
 21
748.5964044608925
 31
0
  0
LINE
  8
1
 62
2
 10
784.2140442756789
 20
749.3901544608975
 30
0
 11
784.4177734423469
 21
749.1255711275625
 31
0
  0
LINE
  8
1
 62
2
 10
783.908450525677
 20
749.6547377942325
 30
0
 11
784.2140442756789
 21
749.3901544608975
 31
0
  0
LINE
  8
1
 62
2
 10
783.602856775675
 20
749.7870294609
 30
0
 11
783.908450525677
 21
749.6547377942325
 31
0
  0
LINE
  8
1
 62
2
 10
783.3991276090071
 20
749.7870294609
 30
0
 11
783.602856775675
 21
749.7870294609
 31
0
  0
LINE
  8
1
 62
2
 10
783.0935338590052
 20
749.6547377942325
 30
0
 11
783.3991276090071
 21
749.7870294609
 31
0
  0
LINE
  8
1
 62
2
 10
782.7879401090033
 20
749.3901544608975
 30
0
 11
783.0935338590052
 21
749.6547377942325
 31
0
  0
LINE
  8
1
 62
2
 10
782.5842109423353
 20
749.1255711275625
 30
0
 11
782.7879401090033
 21
749.3901544608975
 31
0
  0
LINE
  8
1
 62
2
 10
782.3804817756674
 20
748.5964044608925
 30
0
 11
782.5842109423353
 21
749.1255711275625
 31
0
  0
LINE
  8
1
 62
2
 10
782.2786171923334
 20
747.8026544608875
 30
0
 11
782.3804817756674
 21
748.5964044608925
 31
0
  0
LINE
  8
1
 62
2
 10
782.2786171923334
 20
746.4797377942125
 30
0
 11
782.2786171923334
 21
747.8026544608875
 31
0
  0
LINE
  8
1
 62
2
 10
782.3804817756674
 20
745.6859877942075
 30
0
 11
782.2786171923334
 21
746.4797377942125
 31
0
  0
LINE
  8
1
 62
2
 10
782.5842109423353
 20
745.1568211275375
 30
0
 11
782.3804817756674
 21
745.6859877942075
 31
0
  0
LINE
  8
1
 62
2
 10
782.7879401090033
 20
744.8922377942025
 30
0
 11
782.5842109423353
 21
745.1568211275375
 31
0
  0
LINE
  8
1
 62
2
 10
783.0935338590052
 20
744.6276544608675
 30
0
 11
782.7879401090033
 21
744.8922377942025
 31
0
  0
LINE
  8
1
 62
2
 10
783.3991276090071
 20
744.4953627942
 30
0
 11
783.0935338590052
 21
744.6276544608675
 31
0
  0
LINE
  8
1
 62
2
 10
783.602856775675
 20
744.4953627942
 30
0
 11
783.3991276090071
 21
744.4953627942
 31
0
  0
LINE
  8
1
 62
2
 10
783.908450525677
 20
744.6276544608675
 30
0
 11
783.602856775675
 21
744.4953627942
 31
0
  0
LINE
  8
1
 62
2
 10
784.2140442756789
 20
744.8922377942025
 30
0
 11
783.908450525677
 21
744.6276544608675
 31
0
  0
LINE
  8
1
 62
2
 10
784.4177734423469
 20
745.1568211275375
 30
0
 11
784.2140442756789
 21
744.8922377942025
 31
0
  0
LINE
  8
1
 62
2
 10
784.6215026090148
 20
745.6859877942075
 30
0
 11
784.4177734423469
 21
745.1568211275375
 31
0
  0
LINE
  8
1
 62
2
 10
784.7233671923488
 20
746.4797377942125
 30
0
 11
784.6215026090148
 21
745.6859877942075
 31
0
  0
LINE
  8
1
 62
2
 10
781.0562421923256
 20
749.7870294609
 30
0
 11
781.0562421923256
 21
744.4953627942
 31
0
  0
LINE
  8
1
 62
2
 10
779.8338671923179
 20
748.19952946089
 30
0
 11
781.0562421923256
 21
749.7870294609
 31
0
  0
LINE
  8
1
 62
2
 10
775.9630130256269
 20
744.8922377942025
 30
0
 11
775.759283858959
 21
745.1568211275375
 31
0
  0
LINE
  8
1
 62
2
 10
776.3704713589629
 20
744.6276544608675
 30
0
 11
775.9630130256269
 21
744.8922377942025
 31
0
  0
LINE
  8
1
 62
2
 10
776.8797942756327
 20
744.4953627942
 30
0
 11
776.3704713589629
 21
744.6276544608675
 31
0
  0
LINE
  8
1
 62
2
 10
777.4909817756366
 20
744.4953627942
 30
0
 11
776.8797942756327
 21
744.4953627942
 31
0
  0
LINE
  8
1
 62
2
 10
778.0003046923064
 20
744.6276544608675
 30
0
 11
777.4909817756366
 21
744.4953627942
 31
0
  0
LINE
  8
1
 62
2
 10
778.3058984423084
 20
744.8922377942025
 30
0
 11
778.0003046923064
 21
744.6276544608675
 31
0
  0
LINE
  8
1
 62
2
 10
778.5096276089763
 20
745.289112794205
 30
0
 11
778.3058984423084
 21
744.8922377942025
 31
0
  0
LINE
  8
1
 62
2
 10
778.6114921923103
 20
745.6859877942075
 30
0
 11
778.5096276089763
 21
745.289112794205
 31
0
  0
LINE
  8
1
 62
2
 10
778.6114921923103
 20
745.9505711275425
 30
0
 11
778.6114921923103
 21
745.6859877942075
 31
0
  0
LINE
  8
1
 62
2
 10
778.5096276089763
 20
746.347446127545
 30
0
 11
778.6114921923103
 21
745.9505711275425
 31
0
  0
LINE
  8
1
 62
2
 10
778.3058984423084
 20
746.7443211275474
 30
0
 11
778.5096276089763
 21
746.347446127545
 31
0
  0
LINE
  8
1
 62
2
 10
778.0003046923064
 20
747.0089044608825
 30
0
 11
778.3058984423084
 21
746.7443211275474
 31
0
  0
LINE
  8
1
 62
2
 10
776.2686067756289
 20
747.934946127555
 30
0
 11
778.0003046923064
 21
747.0089044608825
 31
0
  0
LINE
  8
1
 62
2
 10
775.9630130256269
 20
748.19952946089
 30
0
 11
776.2686067756289
 21
747.934946127555
 31
0
  0
LINE
  8
1
 62
2
 10
775.8611484422929
 20
748.5964044608925
 30
0
 11
775.9630130256269
 21
748.19952946089
 31
0
  0
LINE
  8
1
 62
2
 10
775.8611484422929
 20
748.8609877942275
 30
0
 11
775.8611484422929
 21
748.5964044608925
 31
0
  0
LINE
  8
1
 62
2
 10
775.9630130256269
 20
749.2578627942299
 30
0
 11
775.8611484422929
 21
748.8609877942275
 31
0
  0
LINE
  8
1
 62
2
 10
776.2686067756289
 20
749.522446127565
 30
0
 11
775.9630130256269
 21
749.2578627942299
 31
0
  0
LINE
  8
1
 62
2
 10
776.5742005256308
 20
749.6547377942325
 30
0
 11
776.2686067756289
 21
749.522446127565
 31
0
  0
LINE
  8
1
 62
2
 10
776.9816588589666
 20
749.7870294609
 30
0
 11
776.5742005256308
 21
749.6547377942325
 31
0
  0
LINE
  8
1
 62
2
 10
777.3891171923026
 20
749.7870294609
 30
0
 11
776.9816588589666
 21
749.7870294609
 31
0
  0
LINE
  8
1
 62
2
 10
777.8984401089724
 20
749.6547377942325
 30
0
 11
777.3891171923026
 21
749.7870294609
 31
0
  0
LINE
  8
1
 62
2
 10
778.2040338589743
 20
749.522446127565
 30
0
 11
777.8984401089724
 21
749.6547377942325
 31
0
  0
LINE
  8
1
 62
2
 10
778.5096276089763
 20
749.2578627942299
 30
0
 11
778.2040338589743
 21
749.522446127565
 31
0
  0
LINE
  8
1
 62
2
 10
774.5369088589513
 20
744.4953627942
 30
0
 11
774.5369088589513
 21
749.7870294609
 31
0
  0
LINE
  8
1
 62
2
 10
772.4996171922718
 20
744.4953627942
 30
0
 11
771.6847005256
 21
744.4953627942
 31
0
  0
LINE
  8
1
 62
2
 10
772.8052109422737
 20
744.6276544608675
 30
0
 11
772.4996171922718
 21
744.4953627942
 31
0
  0
LINE
  8
1
 62
2
 10
773.1108046922756
 20
744.8922377942025
 30
0
 11
772.8052109422737
 21
744.6276544608675
 31
0
  0
LINE
  8
1
 62
2
 10
773.3145338589436
 20
745.4214044608725
 30
0
 11
773.1108046922756
 21
744.8922377942025
 31
0
  0
LINE
  8
1
 62
2
 10
773.3145338589436
 20
749.7870294609
 30
0
 11
773.3145338589436
 21
745.4214044608725
 31
0
  0
LINE
  8
1
 62
2
 10
812.9241777536462
 20
749.7870294609
 30
0
 11
812.9241777536462
 21
744.4953627942
 31
0
  0
LINE
  8
1
 62
2
 10
811.7018027536385
 20
748.19952946089
 30
0
 11
812.9241777536462
 21
749.7870294609
 31
0
  0
LINE
  8
1
 62
2
 10
810.4794277536308
 20
749.7870294609
 30
0
 11
810.4794277536308
 21
744.4953627942
 31
0
  0
LINE
  8
1
 62
2
 10
809.2570527536232
 20
748.19952946089
 30
0
 11
810.4794277536308
 21
749.7870294609
 31
0
  0
LINE
  8
1
 62
2
 10
805.5899277536
 20
744.4953627942
 30
0
 11
808.0346777536154
 21
744.4953627942
 31
0
  0
LINE
  8
1
 62
2
 10
807.8309485869474
 20
747.934946127555
 30
0
 11
805.5899277536
 21
744.4953627942
 31
0
  0
LINE
  8
1
 62
2
 10
808.0346777536154
 20
748.464112794225
 30
0
 11
807.8309485869474
 21
747.934946127555
 31
0
  0
LINE
  8
1
 62
2
 10
808.0346777536154
 20
748.993279460895
 30
0
 11
808.0346777536154
 21
748.464112794225
 31
0
  0
LINE
  8
1
 62
2
 10
807.8309485869474
 20
749.3901544608975
 30
0
 11
808.0346777536154
 21
748.993279460895
 31
0
  0
LINE
  8
1
 62
2
 10
807.5253548369456
 20
749.6547377942325
 30
0
 11
807.8309485869474
 21
749.3901544608975
 31
0
  0
LINE
  8
1
 62
2
 10
807.1178965036097
 20
749.7870294609
 30
0
 11
807.5253548369456
 21
749.6547377942325
 31
0
  0
LINE
  8
1
 62
2
 10
806.5067090036058
 20
749.7870294609
 30
0
 11
807.1178965036097
 21
749.7870294609
 31
0
  0
LINE
  8
1
 62
2
 10
806.09925067027
 20
749.6547377942325
 30
0
 11
806.5067090036058
 21
749.7870294609
 31
0
  0
LINE
  8
1
 62
2
 10
805.793656920268
 20
749.3901544608975
 30
0
 11
806.09925067027
 21
749.6547377942325
 31
0
  0
LINE
  8
1
 62
2
 10
805.5899277536
 20
748.993279460895
 30
0
 11
805.793656920268
 21
749.3901544608975
 31
0
  0
LINE
  8
1
 62
2
 10
842.1603719897538
 20
747.8026544608875
 30
0
 11
842.1603719897538
 21
746.4797377942125
 31
0
  0
LINE
  8
1
 62
2
 10
842.0585074064198
 20
748.5964044608925
 30
0
 11
842.1603719897538
 21
747.8026544608875
 31
0
  0
LINE
  8
1
 62
2
 10
841.8547782397519
 20
749.1255711275625
 30
0
 11
842.0585074064198
 21
748.5964044608925
 31
0
  0
LINE
  8
1
 62
2
 10
841.651049073084
 20
749.3901544608975
 30
0
 11
841.8547782397519
 21
749.1255711275625
 31
0
  0
LINE
  8
1
 62
2
 10
841.3454553230821
 20
749.6547377942325
 30
0
 11
841.651049073084
 21
749.3901544608975
 31
0
  0
LINE
  8
1
 62
2
 10
841.0398615730801
 20
749.7870294609
 30
0
 11
841.3454553230821
 21
749.6547377942325
 31
0
  0
LINE
  8
1
 62
2
 10
840.8361324064122
 20
749.7870294609
 30
0
 11
841.0398615730801
 21
749.7870294609
 31
0
  0
LINE
  8
1
 62
2
 10
840.5305386564103
 20
749.6547377942325
 30
0
 11
840.8361324064122
 21
749.7870294609
 31
0
  0
LINE
  8
1
 62
2
 10
840.2249449064084
 20
749.3901544608975
 30
0
 11
840.5305386564103
 21
749.6547377942325
 31
0
  0
LINE
  8
1
 62
2
 10
840.0212157397403
 20
749.1255711275625
 30
0
 11
840.2249449064084
 21
749.3901544608975
 31
0
  0
LINE
  8
1
 62
2
 10
839.8174865730724
 20
748.5964044608925
 30
0
 11
840.0212157397403
 21
749.1255711275625
 31
0
  0
LINE
  8
1
 62
2
 10
839.7156219897385
 20
747.8026544608875
 30
0
 11
839.8174865730724
 21
748.5964044608925
 31
0
  0
LINE
  8
1
 62
2
 10
839.7156219897385
 20
746.4797377942125
 30
0
 11
839.7156219897385
 21
747.8026544608875
 31
0
  0
LINE
  8
1
 62
2
 10
839.8174865730724
 20
745.6859877942075
 30
0
 11
839.7156219897385
 21
746.4797377942125
 31
0
  0
LINE
  8
1
 62
2
 10
840.0212157397403
 20
745.1568211275375
 30
0
 11
839.8174865730724
 21
745.6859877942075
 31
0
  0
LINE
  8
1
 62
2
 10
840.2249449064084
 20
744.8922377942025
 30
0
 11
840.0212157397403
 21
745.1568211275375
 31
0
  0
LINE
  8
1
 62
2
 10
840.5305386564103
 20
744.6276544608675
 30
0
 11
840.2249449064084
 21
744.8922377942025
 31
0
  0
LINE
  8
1
 62
2
 10
840.8361324064122
 20
744.4953627942
 30
0
 11
840.5305386564103
 21
744.6276544608675
 31
0
  0
LINE
  8
1
 62
2
 10
841.0398615730801
 20
744.4953627942
 30
0
 11
840.8361324064122
 21
744.4953627942
 31
0
  0
LINE
  8
1
 62
2
 10
841.3454553230821
 20
744.6276544608675
 30
0
 11
841.0398615730801
 21
744.4953627942
 31
0
  0
LINE
  8
1
 62
2
 10
841.651049073084
 20
744.8922377942025
 30
0
 11
841.3454553230821
 21
744.6276544608675
 31
0
  0
LINE
  8
1
 62
2
 10
841.8547782397519
 20
745.1568211275375
 30
0
 11
841.651049073084
 21
744.8922377942025
 31
0
  0
LINE
  8
1
 62
2
 10
842.0585074064198
 20
745.6859877942075
 30
0
 11
841.8547782397519
 21
745.1568211275375
 31
0
  0
LINE
  8
1
 62
2
 10
842.1603719897538
 20
746.4797377942125
 30
0
 11
842.0585074064198
 21
745.6859877942075
 31
0
  0
LINE
  8
1
 62
2
 10
837.576465739725
 20
744.4953627942
 30
0
 11
836.0484969897153
 21
744.4953627942
 31
0
  0
LINE
  8
1
 62
2
 10
837.8820594897269
 20
744.6276544608675
 30
0
 11
837.576465739725
 21
744.4953627942
 31
0
  0
LINE
  8
1
 62
2
 10
838.1876532397288
 20
744.8922377942025
 30
0
 11
837.8820594897269
 21
744.6276544608675
 31
0
  0
LINE
  8
1
 62
2
 10
838.3913824063967
 20
745.289112794205
 30
0
 11
838.1876532397288
 21
744.8922377942025
 31
0
  0
LINE
  8
1
 62
2
 10
838.4932469897307
 20
745.818279460875
 30
0
 11
838.3913824063967
 21
745.289112794205
 31
0
  0
LINE
  8
1
 62
2
 10
838.4932469897307
 20
746.61202946088
 30
0
 11
838.4932469897307
 21
745.818279460875
 31
0
  0
LINE
  8
1
 62
2
 10
838.3913824063967
 20
747.14119612755
 30
0
 11
838.4932469897307
 21
746.61202946088
 31
0
  0
LINE
  8
1
 62
2
 10
838.0857886563948
 20
747.5380711275525
 30
0
 11
838.3913824063967
 21
747.14119612755
 31
0
  0
LINE
  8
1
 62
2
 10
837.576465739725
 20
747.67036279422
 30
0
 11
838.0857886563948
 21
747.5380711275525
 31
0
  0
LINE
  8
1
 62
2
 10
836.0484969897153
 20
747.67036279422
 30
0
 11
837.576465739725
 21
747.67036279422
 31
0
  0
LINE
  8
1
 62
2
 10
836.0484969897153
 20
749.7870294609
 30
0
 11
836.0484969897153
 21
747.67036279422
 31
0
  0
LINE
  8
1
 62
2
 10
838.2895178230627
 20
749.7870294609
 30
0
 11
836.0484969897153
 21
749.7870294609
 31
0
  0
LINE
  8
1
 62
2
 10
834.8261219897076
 20
749.7870294609
 30
0
 11
834.8261219897076
 21
744.4953627942
 31
0
  0
LINE
  8
1
 62
2
 10
833.6037469897
 20
748.19952946089
 30
0
 11
834.8261219897076
 21
749.7870294609
 31
0
  0
LINE
  8
1
 62
2
 10
868.3577968443482
 20
744.4953627942
 30
0
 11
866.8298280943385
 21
744.4953627942
 31
0
  0
LINE
  8
1
 62
2
 10
868.6633905943501
 20
744.6276544608675
 30
0
 11
868.3577968443482
 21
744.4953627942
 31
0
  0
LINE
  8
1
 62
2
 10
868.968984344352
 20
744.8922377942025
 30
0
 11
868.6633905943501
 21
744.6276544608675
 31
0
  0
LINE
  8
1
 62
2
 10
869.1727135110199
 20
745.289112794205
 30
0
 11
868.968984344352
 21
744.8922377942025
 31
0
  0
LINE
  8
1
 62
2
 10
869.2745780943538
 20
745.818279460875
 30
0
 11
869.1727135110199
 21
745.289112794205
 31
0
  0
LINE
  8
1
 62
2
 10
869.2745780943538
 20
746.61202946088
 30
0
 11
869.2745780943538
 21
745.818279460875
 31
0
  0
LINE
  8
1
 62
2
 10
869.1727135110199
 20
747.14119612755
 30
0
 11
869.2745780943538
 21
746.61202946088
 31
0
  0
LINE
  8
1
 62
2
 10
868.867119761018
 20
747.5380711275525
 30
0
 11
869.1727135110199
 21
747.14119612755
 31
0
  0
LINE
  8
1
 62
2
 10
868.3577968443482
 20
747.67036279422
 30
0
 11
868.867119761018
 21
747.5380711275525
 31
0
  0
LINE
  8
1
 62
2
 10
866.8298280943385
 20
747.67036279422
 30
0
 11
868.3577968443482
 21
747.67036279422
 31
0
  0
LINE
  8
1
 62
2
 10
866.8298280943385
 20
749.7870294609
 30
0
 11
866.8298280943385
 21
747.67036279422
 31
0
  0
LINE
  8
1
 62
2
 10
869.0708489276859
 20
749.7870294609
 30
0
 11
866.8298280943385
 21
749.7870294609
 31
0
  0
LINE
  8
1
 62
2
 10
863.1627030943154
 20
744.4953627942
 30
0
 11
865.6074530943307
 21
744.4953627942
 31
0
  0
LINE
  8
1
 62
2
 10
865.4037239276628
 20
747.934946127555
 30
0
 11
863.1627030943154
 21
744.4953627942
 31
0
  0
LINE
  8
1
 62
2
 10
865.6074530943307
 20
748.464112794225
 30
0
 11
865.4037239276628
 21
747.934946127555
 31
0
  0
LINE
  8
1
 62
2
 10
865.6074530943307
 20
748.993279460895
 30
0
 11
865.6074530943307
 21
748.464112794225
 31
0
  0
LINE
  8
1
 62
2
 10
865.4037239276628
 20
749.3901544608975
 30
0
 11
865.6074530943307
 21
748.993279460895
 31
0
  0
LINE
  8
1
 62
2
 10
865.0981301776609
 20
749.6547377942325
 30
0
 11
865.4037239276628
 21
749.3901544608975
 31
0
  0
LINE
  8
1
 62
2
 10
864.690671844325
 20
749.7870294609
 30
0
 11
865.0981301776609
 21
749.6547377942325
 31
0
  0
LINE
  8
1
 62
2
 10
864.0794843443211
 20
749.7870294609
 30
0
 11
864.690671844325
 21
749.7870294609
 31
0
  0
LINE
  8
1
 62
2
 10
863.6720260109853
 20
749.6547377942325
 30
0
 11
864.0794843443211
 21
749.7870294609
 31
0
  0
LINE
  8
1
 62
2
 10
863.3664322609833
 20
749.3901544608975
 30
0
 11
863.6720260109853
 21
749.6547377942325
 31
0
  0
LINE
  8
1
 62
2
 10
863.1627030943154
 20
748.993279460895
 30
0
 11
863.3664322609833
 21
749.3901544608975
 31
0
  0
LINE
  8
1
 62
2
 10
861.9403280943077
 20
749.7870294609
 30
0
 11
861.9403280943077
 21
744.4953627942
 31
0
  0
LINE
  8
1
 62
2
 10
860.7179530943
 20
748.19952946089
 30
0
 11
861.9403280943077
 21
749.7870294609
 31
0
  0
LINE
  8
1
 62
2
 10
894.0664068362358
 20
749.3901544608975
 30
0
 11
894.3720005862379
 21
749.6547377942325
 31
0
  0
LINE
  8
1
 62
2
 10
893.8626776695679
 20
748.993279460895
 30
0
 11
894.0664068362358
 21
749.3901544608975
 31
0
  0
LINE
  8
1
 62
2
 10
893.8626776695679
 20
748.464112794225
 30
0
 11
893.8626776695679
 21
748.993279460895
 31
0
  0
LINE
  8
1
 62
2
 10
894.0664068362358
 20
748.0672377942225
 30
0
 11
893.8626776695679
 21
748.464112794225
 31
0
  0
LINE
  8
1
 62
2
 10
894.3720005862379
 20
747.8026544608875
 30
0
 11
894.0664068362358
 21
748.0672377942225
 31
0
  0
LINE
  8
1
 62
2
 10
894.6775943362397
 20
747.67036279422
 30
0
 11
894.3720005862379
 21
747.8026544608875
 31
0
  0
LINE
  8
1
 62
2
 10
895.0850526695756
 20
747.67036279422
 30
0
 11
894.6775943362397
 21
747.67036279422
 31
0
  0
LINE
  8
1
 62
2
 10
895.3906464195776
 20
747.8026544608875
 30
0
 11
895.0850526695756
 21
747.67036279422
 31
0
  0
LINE
  8
1
 62
2
 10
895.6962401695795
 20
748.0672377942225
 30
0
 11
895.3906464195776
 21
747.8026544608875
 31
0
  0
LINE
  8
1
 62
2
 10
895.8999693362474
 20
748.464112794225
 30
0
 11
895.6962401695795
 21
748.0672377942225
 31
0
  0
LINE
  8
1
 62
2
 10
895.8999693362474
 20
748.993279460895
 30
0
 11
895.8999693362474
 21
748.464112794225
 31
0
  0
LINE
  8
1
 62
2
 10
895.6962401695795
 20
749.3901544608975
 30
0
 11
895.8999693362474
 21
748.993279460895
 31
0
  0
LINE
  8
1
 62
2
 10
895.3906464195776
 20
749.6547377942325
 30
0
 11
895.6962401695795
 21
749.3901544608975
 31
0
  0
LINE
  8
1
 62
2
 10
895.0850526695756
 20
749.7870294609
 30
0
 11
895.3906464195776
 21
749.6547377942325
 31
0
  0
LINE
  8
1
 62
2
 10
894.6775943362397
 20
749.7870294609
 30
0
 11
895.0850526695756
 21
749.7870294609
 31
0
  0
LINE
  8
1
 62
2
 10
894.3720005862379
 20
749.6547377942325
 30
0
 11
894.6775943362397
 21
749.7870294609
 31
0
  0
LINE
  8
1
 62
2
 10
895.5943755862455
 20
747.405779460885
 30
0
 11
895.0850526695756
 21
747.67036279422
 31
0
  0
LINE
  8
1
 62
2
 10
895.8999693362474
 20
747.0089044608825
 30
0
 11
895.5943755862455
 21
747.405779460885
 31
0
  0
LINE
  8
1
 62
2
 10
896.1036985029153
 20
746.4797377942125
 30
0
 11
895.8999693362474
 21
747.0089044608825
 31
0
  0
LINE
  8
1
 62
2
 10
896.1036985029153
 20
745.6859877942075
 30
0
 11
896.1036985029153
 21
746.4797377942125
 31
0
  0
LINE
  8
1
 62
2
 10
895.8999693362474
 20
745.1568211275375
 30
0
 11
896.1036985029153
 21
745.6859877942075
 31
0
  0
LINE
  8
1
 62
2
 10
895.5943755862455
 20
744.759946127535
 30
0
 11
895.8999693362474
 21
745.1568211275375
 31
0
  0
LINE
  8
1
 62
2
 10
895.1869172529097
 20
744.4953627942
 30
0
 11
895.5943755862455
 21
744.759946127535
 31
0
  0
LINE
  8
1
 62
2
 10
894.5757297529058
 20
744.4953627942
 30
0
 11
895.1869172529097
 21
744.4953627942
 31
0
  0
LINE
  8
1
 62
2
 10
894.1682714195699
 20
744.759946127535
 30
0
 11
894.5757297529058
 21
744.4953627942
 31
0
  0
LINE
  8
1
 62
2
 10
893.8626776695679
 20
745.1568211275375
 30
0
 11
894.1682714195699
 21
744.759946127535
 31
0
  0
LINE
  8
1
 62
2
 10
893.6589485029
 20
745.6859877942075
 30
0
 11
893.8626776695679
 21
745.1568211275375
 31
0
  0
LINE
  8
1
 62
2
 10
893.6589485029
 20
746.4797377942125
 30
0
 11
893.6589485029
 21
745.6859877942075
 31
0
  0
LINE
  8
1
 62
2
 10
893.8626776695679
 20
747.0089044608825
 30
0
 11
893.6589485029
 21
746.4797377942125
 31
0
  0
LINE
  8
1
 62
2
 10
894.1682714195699
 20
747.405779460885
 30
0
 11
893.8626776695679
 21
747.0089044608825
 31
0
  0
LINE
  8
1
 62
2
 10
894.6775943362397
 20
747.67036279422
 30
0
 11
894.1682714195699
 21
747.405779460885
 31
0
  0
LINE
  8
1
 62
2
 10
934.406027751823
 20
745.02452946087
 30
0
 11
933.4892465018172
 21
744.4953627942
 31
0
  0
LINE
  8
1
 62
2
 10
935.1190798351609
 20
745.818279460875
 30
0
 11
934.406027751823
 21
745.02452946087
 31
0
  0
LINE
  8
1
 62
2
 10
935.4246735851627
 20
746.347446127545
 30
0
 11
935.1190798351609
 21
745.818279460875
 31
0
  0
LINE
  8
1
 62
2
 10
935.5265381684967
 20
746.876612794215
 30
0
 11
935.4246735851627
 21
746.347446127545
 31
0
  0
LINE
  8
1
 62
2
 10
935.6284027518307
 20
747.5380711275525
 30
0
 11
935.5265381684967
 21
746.876612794215
 31
0
  0
LINE
  8
1
 62
2
 10
935.6284027518307
 20
748.464112794225
 30
0
 11
935.6284027518307
 21
747.5380711275525
 31
0
  0
LINE
  8
1
 62
2
 10
935.5265381684967
 20
748.993279460895
 30
0
 11
935.6284027518307
 21
748.464112794225
 31
0
  0
LINE
  8
1
 62
2
 10
935.3228090018288
 20
749.3901544608975
 30
0
 11
935.5265381684967
 21
748.993279460895
 31
0
  0
LINE
  8
1
 62
2
 10
935.0172152518269
 20
749.6547377942325
 30
0
 11
935.3228090018288
 21
749.3901544608975
 31
0
  0
LINE
  8
1
 62
2
 10
934.711621501825
 20
749.7870294609
 30
0
 11
935.0172152518269
 21
749.6547377942325
 31
0
  0
LINE
  8
1
 62
2
 10
934.1004340018211
 20
749.7870294609
 30
0
 11
934.711621501825
 21
749.7870294609
 31
0
  0
LINE
  8
1
 62
2
 10
933.7948402518192
 20
749.6547377942325
 30
0
 11
934.1004340018211
 21
749.7870294609
 31
0
  0
LINE
  8
1
 62
2
 10
933.4892465018172
 20
749.3901544608975
 30
0
 11
933.7948402518192
 21
749.6547377942325
 31
0
  0
LINE
  8
1
 62
2
 10
933.2855173351493
 20
748.993279460895
 30
0
 11
933.4892465018172
 21
749.3901544608975
 31
0
  0
LINE
  8
1
 62
2
 10
933.1836527518153
 20
748.464112794225
 30
0
 11
933.2855173351493
 21
748.993279460895
 31
0
  0
LINE
  8
1
 62
2
 10
933.1836527518153
 20
748.19952946089
 30
0
 11
933.1836527518153
 21
748.464112794225
 31
0
  0
LINE
  8
1
 62
2
 10
933.2855173351493
 20
747.67036279422
 30
0
 11
933.1836527518153
 21
748.19952946089
 31
0
  0
LINE
  8
1
 62
2
 10
933.4892465018172
 20
747.2734877942175
 30
0
 11
933.2855173351493
 21
747.67036279422
 31
0
  0
LINE
  8
1
 62
2
 10
933.7948402518192
 20
747.0089044608825
 30
0
 11
933.4892465018172
 21
747.2734877942175
 31
0
  0
LINE
  8
1
 62
2
 10
934.1004340018211
 20
746.876612794215
 30
0
 11
933.7948402518192
 21
747.0089044608825
 31
0
  0
LINE
  8
1
 62
2
 10
935.5265381684967
 20
746.876612794215
 30
0
 11
934.1004340018211
 21
746.876612794215
 31
0
  0
LINE
  8
1
 62
2
 10
931.9612777518076
 20
749.7870294609
 30
0
 11
931.9612777518076
 21
744.4953627942
 31
0
  0
LINE
  8
1
 62
2
 10
930.7389027518
 20
748.19952946089
 30
0
 11
931.9612777518076
 21
749.7870294609
 31
0
  0
LINE
  8
0
 62
2
 10
767.8113170816
 20
789.9907203456
 30
0
 11
767.8113170816
 21
740.3970455483001
 31
0
  0
LINE
  8
0
 62
2
 10
767.8113170816
 20
740.3970455483001
 30
0
 11
956.9545381713
 21
740.3970455483001
 31
0
  0
LINE
  8
0
 62
2
 10
956.9545381713
 20
740.3970455483001
 30
0
 11
956.9545381713
 21
789.9907203456
 31
0
  0
LINE
  8
0
 62
2
 10
956.9545381713
 20
789.9907203456
 30
0
 11
767.8113170816
 21
789.9907203456
 31
0
  0
LINE
  8
0
 62
2
 10
796.7247494492
 20
789.9907203456
 30
0
 11
796.7247494492
 21
740.3970455483001
 31
0
  0
LINE
  8
0
 62
2
 10
825.0384397291
 20
789.9907203456
 30
0
 11
825.0384397291
 21
740.3970455483001
 31
0
  0
LINE
  8
0
 62
2
 10
852.7523879214
 20
789.9907203456
 30
0
 11
852.7523879214
 21
740.3970455483001
 31
0
  0
LINE
  8
0
 62
2
 10
879.2668519384
 20
789.9907203456
 30
0
 11
879.2668519384
 21
740.3970455483001
 31
0
  0
LINE
  8
0
 62
2
 10
911.5788228025
 20
777.5923016463
 30
0
 11
911.5788228025
 21
740.3970455483001
 31
0
  0
LINE
  8
0
 62
2
 10
879.2668519384
 20
777.5923016463
 30
0
 11
956.9545381713
 21
777.5923016463
 31
0
  0
LINE
  8
0
 62
2
 10
767.8113170816
 20
765.193882947
 30
0
 11
956.9545381713
 21
765.193882947
 31
0
  0
LINE
  8
0
 62
2
 10
767.8113170816
 20
752.7954642477
 30
0
 11
956.9545381713
 21
752.7954642477
 31
0
  0
LINE
  8
0
 62
7
 10
793.4136879526
 20
582.0527484887
 30
0
 11
793.4136879526
 21
578.8472036393
 31
0
  0
LINE
  8
0
 62
7
 10
844.305992798
 20
582.0527484887
 30
0
 11
844.305992798
 21
579.0527484887
 31
0
  0
LINE
  8
0
 62
7
 10
904.5213831072
 20
582.0527484887
 30
0
 11
904.5213831072
 21
579.0527484887
 31
0
  0
LINE
  8
0
 62
2
  6
DASHDOT
 10
803.8211951976
 20
379.6560598616
 30
0
 11
824.5167183329
 21
401.155778869
 31
0
  0
LINE
  8
0
 62
2
  6
DASHDOT
 10
945.3660073573
 20
380.1004290839
 30
0
 11
924.3106575721999
 21
401.155778869
 31
0
  0
LINE
  8
0
 62
2
  6
DASHDOT
 10
944.921638135
 20
521.5606986711
 30
0
 11
924.3106575721999
 21
500.9497181083
 31
0
  0
LINE
  8
0
 62
2
  6
DASHDOT
 10
803.8211951976
 20
521.6452412436
 30
0
 11
824.5167183329
 21
500.9497181083
 31
0
  0
LINE
  8
0
 62
7
 10
955.4136879526
 20
582.0527484887
 30
0
 11
793.4136879526
 21
578.7717960455
 31
0
  0
LINE
  8
0
 62
7
 10
822.9606861554
 20
547.0527493231
 30
0
 11
810.4136849127
 21
547.0527493231
 31
0
  0
LINE
  8
0
 62
7
 10
938.4136909924
 20
547.0527493231
 30
0
 11
925.8666897498
 21
547.0527493231
 31
0
  0
LINE
  8
0
 62
7
 10
833.6620966278
 20
552.0527520054
 30
0
 11
833.6620966278
 21
567.0527451508
 31
0
  0
LINE
  8
0
 62
7
 10
915.1652792774
 20
552.0527520054
 30
0
 11
915.1652792774
 21
567.0527451508
 31
0
  0
LINE
  8
0
 62
7
 10
787.8234127841
 20
577.0527505152001
 30
0
 11
787.8234127841
 21
567.0527451508
 31
0
  0
LINE
  8
0
 62
7
 10
795.2115351639
 20
579.0527545684
 30
0
 11
793.8940713487
 21
578.9385967724001
 31
0
  0
LINE
  8
0
 62
7
 10
961.003963121
 20
577.0527505152001
 30
0
 11
961.003963121
 21
567.0527451508
 31
0
  0
LINE
  8
0
 62
7
 10
954.9333045564
 20
578.9385967724001
 30
0
 11
953.6158407412
 21
579.0527545684
 31
0
  0
LINE
  8
0
 62
7
 10
821.9136895917
 20
582.0527457469
 30
0
 11
793.4136877141
 21
582.0527457469
 31
0
  0
LINE
  8
0
 62
7
 10
955.413688191
 20
582.0527457469
 30
0
 11
926.9136863134
 21
582.0527457469
 31
0
  0
LINE
  8
0
 62
7
 10
821.9136895917
 20
577.0527505152001
 30
0
 11
787.8234127841
 21
577.0527505152001
 31
0
  0
LINE
  8
0
 62
7
 10
961.003963121
 20
577.0527505152001
 30
0
 11
926.9136863134
 21
577.0527505152001
 31
0
  0
LINE
  8
0
 62
7
 10
904.5213835619001
 20
582.0527457469
 30
0
 11
844.3059923432001
 21
582.0527457469
 31
0
  0
LINE
  8
0
 62
7
 10
915.4183196209
 20
577.0527505152001
 30
0
 11
915.4183196209
 21
567.0527451508
 31
0
  0
LINE
  8
0
 62
7
 10
915.4183196209
 20
577.0527505152001
 30
0
 11
833.4090562842
 21
577.0527505152001
 31
0
  0
LINE
  8
0
 62
7
 10
833.4090562842
 20
577.0527505152001
 30
0
 11
833.4090562842
 21
567.0527451508
 31
0
  0
LINE
  8
0
 62
7
 10
862.85005159
 20
607.7027552598
 30
0
 11
862.85005159
 21
609.7027444117
 31
0
  0
LINE
  8
0
 62
7
 10
885.9773243151
 20
609.7027444117
 30
0
 11
885.9773243151
 21
607.7027552598
 31
0
  0
LINE
  8
0
 62
7
 10
823.7614708326
 20
358.5076042288
 30
0
 11
824.4136872075
 21
351.0527469986
 31
0
  0
LINE
  8
0
 62
7
 10
908.0328794501
 20
351.0527469986
 30
0
 11
924.4136886976
 21
351.0527469986
 31
0
  0
LINE
  8
0
 62
7
 10
824.4136872075
 20
351.0527469986
 30
0
 11
840.7944964549999
 21
351.0527469986
 31
0
  0
LINE
  8
0
 62
7
 10
925.0659050725
 20
358.5076042288
 30
0
 11
924.4136886976
 21
351.0527469986
 31
0
  0
LINE
  8
0
 62
7
 10
938.2981697402
 20
541.8524377816
 30
0
 11
938.4136909924
 21
542.4691819422
 31
0
  0
LINE
  8
0
 62
7
 10
810.5292061649
 20
541.8524377816
 30
0
 11
810.4136849127
 21
542.4691819422
 31
0
  0
LINE
  8
0
 62
7
 10
843.9300863377
 20
552.0527520054
 30
0
 11
781.4136857472
 21
552.0527520054
 31
0
  0
LINE
  8
0
 62
7
 10
904.8972895674
 20
552.0527520054
 30
0
 11
967.4136901579
 21
552.0527520054
 31
0
  0
LINE
  8
0
 62
7
 10
874.4136879526
 20
556.5527462237
 30
0
 11
874.4136879526
 21
567.0527451508
 31
0
  0
LINE
  8
0
 62
7
 10
908.0328794501
 20
351.0527469986
 30
0
 11
840.7944964549999
 21
351.0527469986
 31
0
  0
LINE
  8
0
 62
7
 10
805.4136896811
 20
586.0527538530999
 30
0
 11
781.4136857472
 21
586.0527538530999
 31
0
  0
LINE
  8
0
 62
7
 10
967.4136901579
 20
586.0527538530999
 30
0
 11
943.413686224
 21
586.0527538530999
 31
0
  0
LINE
  8
0
 62
7
 10
799.0557069264
 20
584.0527498
 30
0
 11
821.9136895917
 21
584.0527498
 31
0
  0
LINE
  8
0
 62
7
 10
926.9136863134
 20
584.0527498
 30
0
 11
949.7716689787
 21
584.0527498
 31
0
  0
LINE
  8
0
 62
7
 10
924.4136886976
 20
587.2027509682
 30
0
 11
937.9136899791
 21
587.2027509682
 31
0
  0
LINE
  8
0
 62
7
 10
881.2656511858
 20
587.2027509682
 30
0
 11
905.4136874459
 21
587.2027509682
 31
0
  0
LINE
  8
0
 62
7
 10
843.4136884592
 20
587.2027509682
 30
0
 11
867.5617247194
 21
587.2027509682
 31
0
  0
LINE
  8
0
 62
7
 10
810.913685926
 20
587.2027509682
 30
0
 11
824.4136872075
 21
587.2027509682
 31
0
  0
LINE
  8
0
 62
7
 10
882.4136883325
 20
587.2027509682
 30
0
 11
882.4136883325
 21
590.2027421467
 31
0
  0
LINE
  8
0
 62
7
 10
866.4136875726
 20
587.2027509682
 30
0
 11
866.4136875726
 21
590.2027421467
 31
0
  0
LINE
  8
0
 62
7
 10
868.8647101938
 20
584.0527498
 30
0
 11
868.8647101938
 21
585.702755379
 31
0
  0
LINE
  8
0
 62
7
 10
879.9626657113
 20
585.702755379
 30
0
 11
879.9626657113
 21
584.0527498
 31
0
  0
LINE
  8
0
 62
7
 10
795.2115351639
 20
579.0527545684
 30
0
 11
821.9136895917
 21
579.0527545684
 31
0
  0
LINE
  8
0
 62
7
 10
926.9136863134
 20
579.0527545684
 30
0
 11
953.6158407412
 21
579.0527545684
 31
0
  0
LINE
  8
0
 62
7
 10
845.906704881
 20
584.0527498
 30
0
 11
902.9206710241
 21
584.0527498
 31
0
  0
LINE
  8
0
 62
7
 10
845.9136879377001
 20
586.0527538530999
 30
0
 11
821.9136895917
 21
586.0527538530999
 31
0
  0
LINE
  8
0
 62
7
 10
926.9136863134
 20
586.0527538530999
 30
0
 11
902.9136879675
 21
586.0527538530999
 31
0
  0
LINE
  8
0
 62
7
 10
843.3351146362001
 20
579.0527545684
 30
0
 11
905.4922612689001
 21
579.0527545684
 31
0
  0
LINE
  8
0
 62
7
 10
967.4136901579
 20
567.0527451508
 30
0
 11
781.4136857472
 21
567.0527451508
 31
0
  0
LINE
  8
0
 62
7
 10
901.4136886529
 20
617.702745723
 30
0
 11
901.4136886529
 21
616.7027436965
 31
0
  0
LINE
  8
0
 62
7
 10
847.4136872522
 20
617.702745723
 30
0
 11
847.4136872522
 21
616.7027436965
 31
0
  0
LINE
  8
0
 62
7
 10
885.838085071
 20
617.702745723
 30
0
 11
885.838085071
 21
616.7027436965
 31
0
  0
LINE
  8
0
 62
7
 10
888.551100374
 20
617.702745723
 30
0
 11
888.551100374
 21
616.7027436965
 31
0
  0
LINE
  8
0
 62
7
 10
894.8380856148
 20
617.702745723
 30
0
 11
894.8380856148
 21
616.7027436965
 31
0
  0
LINE
  8
0
 62
7
 10
897.5511009179
 20
617.702745723
 30
0
 11
897.5511009179
 21
616.7027436965
 31
0
  0
LINE
  8
0
 62
7
 10
886.2421505458
 20
617.702745723
 30
0
 11
886.2421505458
 21
616.7027436965
 31
0
  0
LINE
  8
0
 62
7
 10
895.2421510897
 20
617.702745723
 30
0
 11
895.2421510897
 21
616.7027436965
 31
0
  0
LINE
  8
0
 62
7
 10
889.0128901533
 20
617.702745723
 30
0
 11
889.0128901533
 21
616.7027436965
 31
0
  0
LINE
  8
0
 62
7
 10
898.0128897659
 20
617.702745723
 30
0
 11
898.0128897659
 21
616.7027436965
 31
0
  0
LINE
  8
0
 62
7
 10
885.2031233094
 20
617.702745723
 30
0
 11
885.2031233094
 21
616.7027436965
 31
0
  0
LINE
  8
0
 62
7
 10
887.9738629169
 20
617.702745723
 30
0
 11
887.9738629169
 21
616.7027436965
 31
0
  0
LINE
  8
0
 62
7
 10
894.203122922
 20
617.702745723
 30
0
 11
894.203122922
 21
616.7027436965
 31
0
  0
LINE
  8
0
 62
7
 10
896.9738634608
 20
617.702745723
 30
0
 11
896.9738634608
 21
616.7027436965
 31
0
  0
LINE
  8
0
 62
7
 10
884.7990578346
 20
617.702745723
 30
0
 11
884.7990578346
 21
616.7027436965
 31
0
  0
LINE
  8
0
 62
7
 10
883.5701003976
 20
617.702745723
 30
0
 11
883.5701003976
 21
616.7027436965
 31
0
  0
LINE
  8
0
 62
7
 10
887.5697965107
 20
617.702745723
 30
0
 11
887.5697965107
 21
616.7027436965
 31
0
  0
LINE
  8
0
 62
7
 10
886.3408400051
 20
617.702745723
 30
0
 11
886.3408400051
 21
616.7027436965
 31
0
  0
LINE
  8
0
 62
7
 10
890.3982585601
 20
617.702745723
 30
0
 11
890.3982585601
 21
616.7027436965
 31
0
  0
LINE
  8
0
 62
7
 10
889.1693029858
 20
617.702745723
 30
0
 11
889.1693029858
 21
616.7027436965
 31
0
  0
LINE
  8
0
 62
7
 10
893.7990574471
 20
617.702745723
 30
0
 11
893.7990574471
 21
616.7027436965
 31
0
  0
LINE
  8
0
 62
7
 10
892.5701009415
 20
617.702745723
 30
0
 11
892.5701009415
 21
616.7027436965
 31
0
  0
LINE
  8
0
 62
7
 10
896.5697961233
 20
617.702745723
 30
0
 11
896.5697961233
 21
616.7027436965
 31
0
  0
LINE
  8
0
 62
7
 10
895.3408396177
 20
617.702745723
 30
0
 11
895.3408396177
 21
616.7027436965
 31
0
  0
LINE
  8
0
 62
7
 10
899.3982600353
 20
617.702745723
 30
0
 11
899.3982600353
 21
616.7027436965
 31
0
  0
LINE
  8
0
 62
7
 10
898.1693035297
 20
617.702745723
 30
0
 11
898.1693035297
 21
616.7027436965
 31
0
  0
LINE
  8
0
 62
7
 10
847.4136872522
 20
617.702745723
 30
0
 11
901.4136886529
 21
617.702745723
 31
0
  0
LINE
  8
0
 62
7
 10
879.4136878408
 20
617.702745723
 30
0
 11
879.4136878408
 21
616.7027436965
 31
0
  0
LINE
  8
0
 62
7
 10
849.41368758
 20
617.702745723
 30
0
 11
849.41368758
 21
616.7027436965
 31
0
  0
LINE
  8
0
 62
7
 10
828.4136878632
 20
616.7027436965
 30
0
 11
920.413688042
 21
616.7027436965
 31
0
  0
LINE
  8
0
 62
7
 10
924.4136886976
 20
590.2027421467
 30
0
 11
927.4136873267
 21
590.2027421467
 31
0
  0
LINE
  8
0
 62
7
 10
843.3136886291001
 20
590.2027421467
 30
0
 11
905.4136874459
 21
590.2027421467
 31
0
  0
LINE
  8
0
 62
7
 10
821.4136885784
 20
590.2027421467
 30
0
 11
824.4136872075
 21
590.2027421467
 31
0
  0
LINE
  8
0
 62
7
 10
862.85005159
 20
607.7027552598
 30
0
 11
885.9773243151
 21
607.7027552598
 31
0
  0
LINE
  8
0
 62
7
 10
862.85005159
 20
609.7027444117
 30
0
 11
885.9773243151
 21
609.7027444117
 31
0
  0
LINE
  8
0
 62
7
 10
746.6136852584
 20
596.7027478688
 30
0
 11
746.6136852584
 21
591.7027526372
 31
0
  0
LINE
  8
0
 62
7
 10
799.4136849723
 20
541.0527520650001
 30
0
 11
787.413690456
 21
541.0527520650001
 31
0
  0
LINE
  8
0
 62
7
 10
802.9136846147
 20
594.0527551644
 30
0
 11
802.9136846147
 21
586.0527538530999
 31
0
  0
LINE
  8
0
 62
7
 10
802.9136846147
 20
594.0527551644
 30
0
 11
783.9136908136001
 21
594.0527551644
 31
0
  0
LINE
  8
0
 62
7
 10
793.4136877141
 20
593.2042383425001
 30
0
 11
793.4136877141
 21
586.0527538530999
 31
0
  0
LINE
  8
0
 62
7
 10
783.9136908136001
 20
594.0527551644
 30
0
 11
783.9136908136001
 21
586.0527538530999
 31
0
  0
LINE
  8
0
 62
7
 10
961.4136854492
 20
541.0527520650001
 30
0
 11
949.4136909328
 21
541.0527520650001
 31
0
  0
LINE
  8
0
 62
7
 10
964.9136850915
 20
594.0527551644
 30
0
 11
964.9136850915
 21
586.0527538530999
 31
0
  0
LINE
  8
0
 62
7
 10
964.9136850915
 20
594.0527551644
 30
0
 11
945.9136912904
 21
594.0527551644
 31
0
  0
LINE
  8
0
 62
7
 10
955.413688191
 20
593.2042383425001
 30
0
 11
955.413688191
 21
586.0527538530999
 31
0
  0
LINE
  8
0
 62
7
 10
945.9136912904
 20
594.0527551644
 30
0
 11
945.9136912904
 21
586.0527538530999
 31
0
  0
LINE
  8
0
 62
7
 10
824.4136872075
 20
594.0527551644
 30
0
 11
824.4136872075
 21
586.0527538530999
 31
0
  0
LINE
  8
0
 62
7
 10
843.4136884592
 20
594.0527551644
 30
0
 11
824.4136872075
 21
594.0527551644
 31
0
  0
LINE
  8
0
 62
7
 10
833.9136878334
 20
593.2042383425001
 30
0
 11
833.9136878334
 21
586.0527538530999
 31
0
  0
LINE
  8
0
 62
7
 10
905.4136874459
 20
594.0527551644
 30
0
 11
905.4136874459
 21
586.0527538530999
 31
0
  0
LINE
  8
0
 62
7
 10
924.4136886976
 20
594.0527551644
 30
0
 11
905.4136874459
 21
594.0527551644
 31
0
  0
LINE
  8
0
 62
7
 10
924.4136886976
 20
594.0527551644
 30
0
 11
924.4136886976
 21
586.0527538530999
 31
0
  0
LINE
  8
0
 62
7
 10
914.9136880718
 20
593.2042383425001
 30
0
 11
914.9136880718
 21
586.0527538530999
 31
0
  0
LINE
  8
0
 62
7
 10
804.3666893921001
 20
542.9012560122
 30
0
 11
804.0613198958
 21
542.7463211887
 31
0
  0
LINE
  8
0
 62
7
 10
782.4606860362
 20
542.9012560122
 30
0
 11
782.4606860362
 21
552.0527520054
 31
0
  0
LINE
  8
0
 62
7
 10
787.4138990722
 20
542.9012560122
 30
0
 11
787.4138990722
 21
552.0527520054
 31
0
  0
LINE
  8
0
 62
7
 10
783.9136908136001
 20
542.0527466409
 30
0
 11
802.9136846147
 21
542.0527466409
 31
0
  0
LINE
  8
0
 62
7
 10
798.3669007502
 20
542.9012560122
 30
0
 11
798.3669007502
 21
552.0527520054
 31
0
  0
LINE
  8
0
 62
7
 10
804.3666893921001
 20
542.9012560122
 30
0
 11
804.3666893921001
 21
552.0527520054
 31
0
  0
LINE
  8
0
 62
7
 10
925.8666897498
 20
543.1550749414
 30
0
 11
925.8666897498
 21
552.0527520054
 31
0
  0
LINE
  8
0
 62
7
 10
908.9138994298
 20
550.7522233598
 30
0
 11
908.9138994298
 21
552.0527520054
 31
0
  0
LINE
  8
0
 62
7
 10
919.8669011078
 20
546.2591358297
 30
0
 11
919.8669011078
 21
552.0527520054
 31
0
  0
LINE
  8
0
 62
7
 10
966.366689869
 20
542.9012560122
 30
0
 11
966.0613203726
 21
542.7463211887
 31
0
  0
LINE
  8
0
 62
7
 10
944.460686513
 20
542.9012560122
 30
0
 11
944.460686513
 21
552.0527520054
 31
0
  0
LINE
  8
0
 62
7
 10
949.4138995491001
 20
542.9012560122
 30
0
 11
949.4138995491001
 21
552.0527520054
 31
0
  0
LINE
  8
0
 62
7
 10
964.9136850915
 20
542.0527466409
 30
0
 11
945.9136912904
 21
542.0527466409
 31
0
  0
LINE
  8
0
 62
7
 10
960.366901227
 20
542.9012560122
 30
0
 11
960.366901227
 21
552.0527520054
 31
0
  0
LINE
  8
0
 62
7
 10
966.366689869
 20
542.9012560122
 30
0
 11
966.366689869
 21
552.0527520054
 31
0
  0
LINE
  8
0
 62
7
 10
822.9606861554
 20
543.1550749414
 30
0
 11
822.9606861554
 21
552.0527520054
 31
0
  0
LINE
  8
0
 62
7
 10
827.9138991914
 20
545.7523771398001
 30
0
 11
827.9138991914
 21
552.0527520054
 31
0
  0
LINE
  8
0
 62
7
 10
838.8669008694
 20
550.3838890069
 30
0
 11
838.8669008694
 21
552.0527520054
 31
0
  0
LINE
  8
0
 62
7
 10
810.4136849127
 20
547.0527493231
 30
0
 11
810.4136849127
 21
542.4691819422
 31
0
  0
LINE
  8
0
 62
7
 10
938.4136909924
 20
542.4692415469
 30
0
 11
938.4136909924
 21
547.0527493231
 31
0
  0
LINE
  8
0
 62
7
 10
781.4136857472
 20
586.0527538530999
 30
0
 11
781.4136857472
 21
552.0527520054
 31
0
  0
LINE
  8
0
 62
7
 10
805.4136896811
 20
584.0527498
 30
0
 11
805.4136896811
 21
586.0527538530999
 31
0
  0
LINE
  8
0
 62
7
 10
943.413686224
 20
586.0527538530999
 30
0
 11
943.413686224
 21
584.0527498
 31
0
  0
LINE
  8
0
 62
7
 10
967.4136901579
 20
552.0527520054
 30
0
 11
967.4136901579
 21
586.0527538530999
 31
0
  0
LINE
  8
0
 62
7
 10
819.4136882506
 20
588.2027529948
 30
0
 11
819.4136882506
 21
587.2027509682
 31
0
  0
LINE
  8
0
 62
7
 10
929.4136876545
 20
587.2027509682
 30
0
 11
929.4136876545
 21
588.2027529948
 31
0
  0
LINE
  8
0
 62
7
 10
809.4136903367
 20
585.702755379
 30
0
 11
809.4136903367
 21
584.0527498
 31
0
  0
LINE
  8
0
 62
7
 10
939.4136855684
 20
584.0527498
 30
0
 11
939.4136855684
 21
585.702755379
 31
0
  0
LINE
  8
0
 62
7
 10
821.9136895917
 20
586.0527538530999
 30
0
 11
821.9136895917
 21
552.0527520054
 31
0
  0
LINE
  8
0
 62
7
 10
845.9136879377001
 20
584.0527498
 30
0
 11
845.9136879377001
 21
586.0527538530999
 31
0
  0
LINE
  8
0
 62
7
 10
902.9136879675
 20
586.0527538530999
 30
0
 11
902.9136879675
 21
584.0527498
 31
0
  0
LINE
  8
0
 62
7
 10
926.9136863134
 20
552.0527520054
 30
0
 11
926.9136863134
 21
586.0527538530999
 31
0
  0
LINE
  8
0
 62
7
 10
821.4136885784
 20
609.7027444117
 30
0
 11
821.4136885784
 21
590.2027421467
 31
0
  0
LINE
  8
0
 62
7
 10
927.4136873267
 20
590.2027421467
 30
0
 11
927.4136873267
 21
609.7027444117
 31
0
  0
LINE
  8
0
 62
7
 10
821.4136885784
 20
596.7027478688
 30
0
 11
746.6136852584
 21
596.7027478688
 31
0
  0
LINE
  8
0
 62
7
 10
802.9136846147
 20
591.7027526372
 30
0
 11
821.4136885784
 21
591.7027526372
 31
0
  0
LINE
  8
0
 62
7
 10
746.6136852584
 20
591.7027526372
 30
0
 11
783.9136908136001
 21
591.7027526372
 31
0
  0
LINE
  8
0
 62
7
 10
799.4136849723
 20
541.0527520650001
 30
0
 11
799.4136849723
 21
542.0527466409
 31
0
  0
LINE
  8
0
 62
7
 10
787.413690456
 20
542.0527466409
 30
0
 11
787.413690456
 21
541.0527520650001
 31
0
  0
LINE
  8
0
 62
7
 10
961.4136854492
 20
541.0527520650001
 30
0
 11
961.4136854492
 21
542.0527466409
 31
0
  0
LINE
  8
0
 62
7
 10
949.4136909328
 20
542.0527466409
 30
0
 11
949.4136909328
 21
541.0527520650001
 31
0
  0
LINE
  8
0
 62
7
 10
782.7526370368
 20
542.7230828278
 30
0
 11
783.9136908136001
 21
542.0527466409
 31
0
  0
LINE
  8
0
 62
7
 10
802.9136846147
 20
542.0527466409
 30
0
 11
804.0747383914001
 21
542.7230828278
 31
0
  0
LINE
  8
0
 62
7
 10
944.7526375137001
 20
542.7230828278
 30
0
 11
945.9136912904
 21
542.0527466409
 31
0
  0
LINE
  8
0
 62
7
 10
964.9136850915
 20
542.0527466409
 30
0
 11
966.0747388683
 21
542.7230828278
 31
0
  0
LINE
  8
0
 62
7
 10
478.7556959494
 20
754.2370756259001
 30
0
 11
484.5533168121
 21
754.2370756259001
 31
0
  0
LINE
  8
0
 62
7
 10
484.5533168121
 20
778.6370751550001
 30
0
 11
478.7556959494
 21
778.6370751550001
 31
0
  0
LINE
  8
0
 62
7
 10
480.7556962772
 20
752.2370752981
 30
0
 11
480.7556962772
 21
780.6370754829
 31
0
  0
LINE
  8
0
 62
7
 10
401.8563164576
 20
708.1254118225
 30
0
 11
357.6550765141
 21
708.1254118225
 31
0
  0
LINE
  8
0
 62
7
 10
357.6550765141
 20
824.7487389585
 30
0
 11
401.8563164576
 21
824.7487389585
 31
0
  0
LINE
  8
0
 62
7
 10
401.8563164576
 20
824.7487389585
 30
0
 11
404.7556949957
 21
815.3073147973
 31
0
  0
LINE
  8
0
 62
7
 10
404.7556949957
 20
717.5668359836
 30
0
 11
401.8563164576
 21
708.1254118225
 31
0
  0
LINE
  8
0
 62
7
 10
357.6550765141
 20
708.1254118225
 30
0
 11
354.755697976
 21
717.5668359836
 31
0
  0
LINE
  8
0
 62
7
 10
411.2557007178
 20
812.9370764932
 30
0
 11
411.2557007178
 21
719.9370742878
 31
0
  0
LINE
  8
0
 62
7
 10
421.75871713
 20
763.4370753644
 30
0
 11
446.0351376041
 21
763.4370753644
 31
0
  0
LINE
  8
0
 62
7
 10
421.9314066871
 20
766.4370753905
 30
0
 11
445.4051016076
 21
766.4370753905
 31
0
  0
LINE
  8
0
 62
7
 10
421.75871713
 20
769.4370754165
 30
0
 11
446.0351376041
 21
769.4370754165
 31
0
  0
LINE
  8
0
 62
7
 10
681.2556965454
 20
828.9370753905
 30
0
 11
681.2556965454
 21
703.9370753905
 31
0
  0
LINE
  8
0
 62
7
 10
624.1927875384
 20
769.4370754165
 30
0
 11
661.2556932671999
 21
769.4370754165
 31
0
  0
LINE
  8
0
 62
7
 10
661.2556932671999
 20
763.4370753644
 30
0
 11
624.1927875384
 21
763.4370753644
 31
0
  0
LINE
  8
0
 62
7
 10
528.9031169550349
 20
676.3401862864836
 30
0
 11
534.1017425238
 21
675.8445345899
 31
0
  0
LINE
  8
0
 62
7
 10
445.4049376949
 20
766.4370753905
 30
0
 11
458.2556991084
 21
766.4370753905
 31
0
  0
LINE
  8
0
 62
7
 10
553.6060907746769
 20
676.349742085594
 30
0
 11
548.3734651647
 21
675.8458235403
 31
0
  0
LINE
  8
0
 62
7
 10
661.2556932671999
 20
660.9370776554
 30
0
 11
661.2556932671999
 21
871.9370731255
 31
0
  0
LINE
  8
0
 62
7
 10
679.2556924923
 20
660.9370776554
 30
0
 11
679.2556924923
 21
871.9370731255
 31
0
  0
LINE
  8
0
 62
7
 10
595.2574892146999
 20
756.0060409
 30
0
 11
595.3389650389
 21
756.437075614
 31
0
  0
LINE
  8
0
 62
7
 10
595.3389650389
 20
776.437075167
 30
0
 11
595.2574892146999
 21
776.8681098809
 31
0
  0
LINE
  8
0
 62
7
 10
461.7913199766
 20
762.9095721627
 30
0
 11
461.7913199766
 21
760.8423100887
 31
0
  0
LINE
  8
0
 62
7
 10
461.3058550461
 20
762.9095721627
 30
0
 11
461.7913199766
 21
762.9095721627
 31
0
  0
LINE
  8
0
 62
7
 10
459.202496539
 20
763.0919775097
 30
0
 11
459.6879614695
 21
763.0919775097
 31
0
  0
LINE
  8
0
 62
7
 10
464.2024917706
 20
763.2439821595
 30
0
 11
464.2024917706
 21
760.1231386056001
 31
0
  0
LINE
  8
0
 62
7
 10
461.3058550461
 20
760.8423100887
 30
0
 11
461.3058550461
 21
762.9095721627
 31
0
  0
LINE
  8
0
 62
7
 10
459.202496539
 20
760.1231386056001
 30
0
 11
459.202496539
 21
763.0919775097
 31
0
  0
LINE
  8
0
 62
7
 10
463.7170268401
 20
760.8423100887
 30
0
 11
463.7170268401
 21
763.2439821595
 31
0
  0
LINE
  8
0
 62
7
 10
459.6879614695
 20
763.0919775097
 30
0
 11
459.6879614695
 21
760.8423100887
 31
0
  0
LINE
  8
0
 62
7
 10
459.6879614695
 20
760.8423100887
 30
0
 11
461.3058550461
 21
760.8423100887
 31
0
  0
LINE
  8
0
 62
7
 10
464.2024917706
 20
760.1231386056001
 30
0
 11
459.202496539
 21
760.1231386056001
 31
0
  0
LINE
  8
0
 62
7
 10
463.7170268401
 20
763.2439821595
 30
0
 11
464.2024917706
 21
763.2439821595
 31
0
  0
LINE
  8
0
 62
7
 10
461.7913199766
 20
760.8423100887
 30
0
 11
463.7170268401
 21
760.8423100887
 31
0
  0
LINE
  8
0
 62
7
 10
462.2805847033
 20
767.2751430059
 30
0
 11
462.2805847033
 21
768.0047649760001
 31
0
  0
LINE
  8
0
 62
7
 10
460.9467445119
 20
767.974364046
 30
0
 11
460.9467445119
 21
767.3055439359
 31
0
  0
LINE
  8
0
 62
7
 10
529.2556958451
 20
685.4370751521
 30
0
 11
529.2556958451
 21
688.264190509
 31
0
  0
LINE
  8
0
 62
7
 10
553.2556960537
 20
688.264190509
 30
0
 11
553.2556960537
 21
685.4370751521
 31
0
  0
LINE
  8
0
 62
7
 10
465.1076404556
 20
736.3293797811
 30
0
 11
467.5559906467
 21
737.7429374595999
 31
0
  0
LINE
  8
0
 62
7
 10
479.5559926136
 20
716.9583284398
 30
0
 11
477.1076349719
 21
715.5447707614
 31
0
  0
LINE
  8
0
 62
7
 10
605.4037569269
 20
715.5447707614
 30
0
 11
602.9553992852
 21
716.9583284398
 31
0
  0
LINE
  8
0
 62
7
 10
614.9554012521001
 20
737.7429374595999
 30
0
 11
617.4037514432
 21
736.3293797811
 31
0
  0
LINE
  8
0
 62
7
 10
617.4037514432
 20
796.5447709998
 30
0
 11
614.9554012521001
 21
795.1312133213
 31
0
  0
LINE
  8
0
 62
7
 10
467.5559906467
 20
795.1312133213
 30
0
 11
465.1076404556
 21
796.5447709998
 31
0
  0
LINE
  8
0
 62
7
 10
602.9553992852
 20
815.9158223411
 30
0
 11
605.4037569269
 21
817.3293800196
 31
0
  0
LINE
  8
0
 62
7
 10
477.1076349719
 20
817.3293800196
 30
0
 11
479.5559926136
 21
815.9158223411
 31
0
  0
LINE
  8
0
 62
7
 10
529.2556958451
 20
844.609960272
 30
0
 11
529.2556958451
 21
847.4370756289
 31
0
  0
LINE
  8
0
 62
7
 10
553.2556960537
 20
847.4370756289
 30
0
 11
553.2556960537
 21
844.609960272
 31
0
  0
LINE
  8
0
 62
7
 10
525.3181962474
 20
693.1499981424
 30
0
 11
523.0056962176
 21
693.6913722297001
 31
0
  0
LINE
  8
0
 62
7
 10
477.7964560493
 20
780.5056500351
 30
0
 11
466.0809023484
 21
783.1029252252
 31
0
  0
LINE
  8
0
 62
7
 10
477.7964560493
 20
752.3685007458
 30
0
 11
466.0809023484
 21
749.7712255558
 31
0
  0
LINE
  8
0
 62
7
 10
478.6557760097533
 20
748.9370747176475
 30
0
 11
488.340670447
 21
751.4370757257
 31
0
  0
LINE
  8
0
 62
7
 10
488.340670447
 20
781.4370750552
 30
0
 11
478.6557760097272
 21
783.9370760632592
 31
0
  0
LINE
  8
0
 62
7
 10
598.7013226553
 20
758.4370750105001
 30
0
 11
600.255696307
 21
758.4370750105001
 31
0
  0
LINE
  8
0
 62
7
 10
600.255696307
 20
774.4370757705
 30
0
 11
598.7013226553
 21
774.4370757705
 31
0
  0
LINE
  8
0
 62
7
 10
595.3746123417
 20
776.437075167
 30
0
 11
595.2574892146999
 21
776.8681098809
 31
0
  0
LINE
  8
0
 62
7
 10
595.2574892146999
 20
756.0060409
 30
0
 11
595.3746123417
 21
756.437075614
 31
0
  0
LINE
  8
0
 62
7
 10
601.0056941017
 20
761.4936454323999
 30
0
 11
601.0056941017
 21
771.3805053485
 31
0
  0
LINE
  8
0
 62
7
 10
599.5056947871
 20
771.3805053485
 30
0
 11
599.5056947871
 21
761.4936454323999
 31
0
  0
LINE
  8
0
 62
7
 10
599.052304606
 20
761.5840503117
 30
0
 11
599.5056947871
 21
761.4936454323999
 31
0
  0
LINE
  8
0
 62
7
 10
599.5056947871
 20
771.3805053485
 30
0
 11
599.052304606
 21
771.2901004692
 31
0
  0
LINE
  8
0
 62
7
 10
486.5258133217
 20
752.2370752981
 30
0
 11
480.7556962772
 21
752.2370752981
 31
0
  0
LINE
  8
0
 62
7
 10
478.7556959494
 20
754.2370756259001
 30
0
 11
478.7556959494
 21
778.6370751550001
 31
0
  0
LINE
  8
0
 62
7
 10
480.7556962772
 20
780.6370754829
 30
0
 11
486.5258133217
 21
780.6370754829
 31
0
  0
LINE
  8
0
 62
7
 10
594.9306434198001
 20
756.437075614
 30
0
 11
596.6813212438
 21
756.437075614
 31
0
  0
LINE
  8
0
 62
7
 10
596.6813212438
 20
776.437075167
 30
0
 11
594.9306434198001
 21
776.437075167
 31
0
  0
LINE
  8
0
 62
7
 10
534.3556960291001
 20
767.5370753845
 30
0
 11
538.7556960053
 21
767.5370753845
 31
0
  0
LINE
  8
0
 62
7
 10
534.3556960291001
 20
767.5370753845
 30
0
 11
534.3556960291001
 21
771.9370753607
 31
0
  0
LINE
  8
0
 62
7
 10
532.1556955754001
 20
771.9370753607
 30
0
 11
534.3556960291001
 21
771.9370753607
 31
0
  0
LINE
  8
0
 62
7
 10
532.1556955754001
 20
767.5370753845
 30
0
 11
532.1556955754001
 21
771.9370753607
 31
0
  0
LINE
  8
0
 62
7
 10
527.7556955992
 20
767.5370753845
 30
0
 11
532.1556955754001
 21
767.5370753845
 31
0
  0
LINE
  8
0
 62
7
 10
527.7556955992
 20
765.3370753964
 30
0
 11
527.7556955992
 21
767.5370753845
 31
0
  0
LINE
  8
0
 62
7
 10
527.7556955992
 20
765.3370753964
 30
0
 11
532.1556955754001
 21
765.3370753964
 31
0
  0
LINE
  8
0
 62
7
 10
532.1556955754001
 20
760.9370754203
 30
0
 11
532.1556955754001
 21
765.3370753964
 31
0
  0
LINE
  8
0
 62
7
 10
532.1556955754001
 20
760.9370754203
 30
0
 11
534.3556960291001
 21
760.9370754203
 31
0
  0
LINE
  8
0
 62
7
 10
534.3556960291001
 20
760.9370754203
 30
0
 11
534.3556960291001
 21
765.3370753964
 31
0
  0
LINE
  8
0
 62
7
 10
534.3556960291001
 20
765.3370753964
 30
0
 11
538.7556960053
 21
765.3370753964
 31
0
  0
LINE
  8
0
 62
7
 10
538.7556960053
 20
765.3370753964
 30
0
 11
538.7556960053
 21
767.5370753845
 31
0
  0
LINE
  8
0
 62
7
 10
566.2556963219
 20
741.4370750179
 30
0
 11
578.2556964262
 21
741.4370750179
 31
0
  0
LINE
  8
0
 62
7
 10
578.2556964262
 20
741.4370750179
 30
0
 11
578.2556964262
 21
771.4370752787
 31
0
  0
LINE
  8
0
 62
7
 10
578.2556964262
 20
771.4370752787
 30
0
 11
566.2556963219
 21
771.4370752787
 31
0
  0
LINE
  8
0
 62
7
 10
566.2556963219
 20
771.4370752787
 30
0
 11
566.2556963219
 21
741.4370750179
 31
0
  0
LINE
  8
0
 62
7
 10
515.255695413
 20
784.4370746156
 30
0
 11
505.2556974991
 21
784.4370746156
 31
0
  0
LINE
  8
0
 62
7
 10
515.255695413
 20
748.4370761653
 30
0
 11
515.255695413
 21
784.4370746156
 31
0
  0
LINE
  8
0
 62
7
 10
505.2556974991
 20
748.4370761653
 30
0
 11
515.255695413
 21
748.4370761653
 31
0
  0
LINE
  8
0
 62
7
 10
505.2556974991
 20
784.4370746156
 30
0
 11
505.2556974991
 21
748.4370761653
 31
0
  0
LINE
  8
0
 62
7
 10
525.7556962027001
 20
779.4274560278
 30
0
 11
525.7556962027001
 21
770.7672024248
 31
0
  0
LINE
  8
0
 62
7
 10
527.7556955992
 20
775.9633551454
 30
0
 11
527.7556955992
 21
769.6125018978
 31
0
  0
LINE
  8
0
 62
7
 10
533.2556955694
 20
772.7879284052
 30
0
 11
527.7556955992
 21
775.9633551454
 31
0
  0
LINE
  8
0
 62
7
 10
538.7556960053
 20
775.9633551454
 30
0
 11
533.2556955694
 21
772.7879284052
 31
0
  0
LINE
  8
0
 62
7
 10
538.7556960053
 20
769.6125018978
 30
0
 11
538.7556960053
 21
775.9633551454
 31
0
  0
LINE
  8
0
 62
7
 10
544.2556959755
 20
766.4370753905
 30
0
 11
538.7556960053
 21
769.6125018978
 31
0
  0
LINE
  8
0
 62
7
 10
538.7556960053
 20
763.2616488831
 30
0
 11
544.2556959755
 21
766.4370753905
 31
0
  0
LINE
  8
0
 62
7
 10
538.7556960053
 20
756.9107956355
 30
0
 11
538.7556960053
 21
763.2616488831
 31
0
  0
LINE
  8
0
 62
7
 10
533.2556955694
 20
760.0862223757
 30
0
 11
538.7556960053
 21
756.9107956355
 31
0
  0
LINE
  8
0
 62
7
 10
527.7556955992
 20
756.9107956355
 30
0
 11
533.2556955694
 21
760.0862223757
 31
0
  0
LINE
  8
0
 62
7
 10
527.7556955992
 20
763.2616488831
 30
0
 11
527.7556955992
 21
756.9107956355
 31
0
  0
LINE
  8
0
 62
7
 10
522.2556965603
 20
766.4370753905
 30
0
 11
527.7556955992
 21
763.2616488831
 31
0
  0
LINE
  8
0
 62
7
 10
527.7556955992
 20
769.6125018978
 30
0
 11
522.2556965603
 21
766.4370753905
 31
0
  0
LINE
  8
0
 62
7
 10
525.7556962027001
 20
770.7672024248
 30
0
 11
518.2556959047
 21
766.4370753905
 31
0
  0
LINE
  8
0
 62
7
 10
518.2556959047
 20
766.4370753905
 30
0
 11
525.7556962027001
 21
762.1069483561
 31
0
  0
LINE
  8
0
 62
7
 10
525.7556962027001
 20
762.1069483561
 30
0
 11
525.7556962027001
 21
753.4466947531
 31
0
  0
LINE
  8
0
 62
7
 10
525.7556962027001
 20
753.4466947531
 30
0
 11
533.2556955694
 21
757.7768213218
 31
0
  0
LINE
  8
0
 62
7
 10
533.2556955694
 20
757.7768213218
 30
0
 11
540.7556959256
 21
753.4466947531
 31
0
  0
LINE
  8
0
 62
7
 10
540.7556959256
 20
753.4466947531
 30
0
 11
540.7556959256
 21
762.1069483561
 31
0
  0
LINE
  8
0
 62
7
 10
540.7556959256
 20
762.1069483561
 30
0
 11
548.2556961655
 21
766.4370753905
 31
0
  0
LINE
  8
0
 62
7
 10
548.2556961655
 20
766.4370753905
 30
0
 11
540.7556959256
 21
770.7672024248
 31
0
  0
LINE
  8
0
 62
7
 10
540.7556959256
 20
770.7672024248
 30
0
 11
540.7556959256
 21
779.4274560278
 31
0
  0
LINE
  8
0
 62
7
 10
540.7556959256
 20
779.4274560278
 30
0
 11
533.2556955694
 21
775.0973294591
 31
0
  0
LINE
  8
0
 62
7
 10
533.2556955694
 20
775.0973294591
 30
0
 11
525.7556962027001
 21
779.4274560278
 31
0
  0
LINE
  8
0
 62
7
 10
572.5242888733
 20
782.421645998
 30
0
 11
578.1514218255001
 21
782.421645998
 31
0
  0
LINE
  8
0
 62
7
 10
571.2674001410001
 20
776.8224452725
 30
0
 11
572.1220841809
 21
776.8224452725
 31
0
  0
LINE
  8
0
 62
7
 10
571.2674001410001
 20
775.5934878355
 30
0
 11
571.2674001410001
 21
776.8224452725
 31
0
  0
LINE
  8
0
 62
7
 10
578.1514218255001
 20
775.5934878355
 30
0
 11
571.2674001410001
 21
775.5934878355
 31
0
  0
LINE
  8
0
 62
7
 10
578.1514218255001
 20
776.8224452725
 30
0
 11
578.1514218255001
 21
775.5934878355
 31
0
  0
LINE
  8
0
 62
7
 10
573.5800733968
 20
776.8224452725
 30
0
 11
578.1514218255001
 21
776.8224452725
 31
0
  0
LINE
  8
0
 62
7
 10
578.1514218255001
 20
778.364227443
 30
0
 11
572.9264935656
 21
778.364227443
 31
0
  0
LINE
  8
0
 62
7
 10
578.1514218255001
 20
779.5931839487
 30
0
 11
578.1514218255001
 21
778.364227443
 31
0
  0
LINE
  8
0
 62
7
 10
573.5800733968
 20
779.5931839487
 30
0
 11
578.1514218255001
 21
779.5931839487
 31
0
  0
LINE
  8
0
 62
7
 10
578.1514218255001
 20
781.1926904237
 30
0
 11
572.9767663582001
 21
781.1926904237
 31
0
  0
LINE
  8
0
 62
7
 10
578.1514218255001
 20
782.421645998
 30
0
 11
578.1514218255001
 21
781.1926904237
 31
0
  0
LINE
  8
0
 62
7
 10
551.2556957259
 20
793.4370760908
 30
0
 11
551.2556957259
 21
739.4370746901
 31
0
  0
LINE
  8
0
 62
7
 10
551.2556957259
 20
739.4370746901
 30
0
 11
563.2556958302
 21
739.4370746901
 31
0
  0
LINE
  8
0
 62
7
 10
563.2556958302
 20
739.4370746901
 30
0
 11
563.2556958302
 21
793.4370760908
 31
0
  0
LINE
  8
0
 62
7
 10
563.2556958302
 20
793.4370760908
 30
0
 11
551.2556957259
 21
793.4370760908
 31
0
  0
LINE
  8
0
 62
7
 10
572.5242888733
 20
791.4216474732
 30
0
 11
578.1514218255001
 21
791.4216474732
 31
0
  0
LINE
  8
0
 62
7
 10
571.2674001410001
 20
785.822444885
 30
0
 11
572.1220841809
 21
785.822444885
 31
0
  0
LINE
  8
0
 62
7
 10
571.2674001410001
 20
784.5934883794
 30
0
 11
571.2674001410001
 21
785.822444885
 31
0
  0
LINE
  8
0
 62
7
 10
578.1514218255001
 20
784.5934883794
 30
0
 11
571.2674001410001
 21
784.5934883794
 31
0
  0
LINE
  8
0
 62
7
 10
578.1514218255001
 20
785.822444885
 30
0
 11
578.1514218255001
 21
784.5934883794
 31
0
  0
LINE
  8
0
 62
7
 10
573.5800733968
 20
785.822444885
 30
0
 11
578.1514218255001
 21
785.822444885
 31
0
  0
LINE
  8
0
 62
7
 10
578.1514218255001
 20
787.3642270556001
 30
0
 11
572.9264935656
 21
787.3642270556001
 31
0
  0
LINE
  8
0
 62
7
 10
578.1514218255001
 20
788.5931835612
 30
0
 11
578.1514218255001
 21
787.3642270556001
 31
0
  0
LINE
  8
0
 62
7
 10
573.5800733968
 20
788.5931835612
 30
0
 11
578.1514218255001
 21
788.5931835612
 31
0
  0
LINE
  8
0
 62
7
 10
578.1514218255001
 20
790.1926909676
 30
0
 11
572.9767663582001
 21
790.1926909676
 31
0
  0
LINE
  8
0
 62
7
 10
578.1514218255001
 20
791.4216474732
 30
0
 11
578.1514218255001
 21
790.1926909676
 31
0
  0
LINE
  8
0
 62
7
 10
266.2556899889
 20
768.4370754855
 30
0
 11
266.2556899889
 21
771.4370752787
 31
0
  0
LINE
  8
0
 62
7
 10
231.2556935652
 20
768.4370754855
 30
0
 11
266.2556899889
 21
768.4370754855
 31
0
  0
LINE
  8
0
 62
7
 10
231.2556935652
 20
764.4370752955
 30
0
 11
231.2556935652
 21
768.4370754855
 31
0
  0
LINE
  8
0
 62
7
 10
266.2556899889
 20
764.4370752955
 30
0
 11
231.2556935652
 21
764.4370752955
 31
0
  0
LINE
  8
0
 62
7
 10
266.2556899889
 20
761.4370755022
 30
0
 11
266.2556899889
 21
764.4370752955
 31
0
  0
LINE
  8
0
 62
7
 10
197.8147758349
 20
760.6126408195
 30
0
 11
197.8147758349
 21
772.2030834397
 31
0
  0
LINE
  8
0
 62
7
 10
207.8282667502
 20
770.0868947999001
 30
0
 11
207.8282667502
 21
760.6126408195
 31
0
  0
LINE
  8
0
 62
7
 10
199.6174587115
 20
772.2030834397
 30
0
 11
199.6174587115
 21
770.7640750436
 31
0
  0
LINE
  8
0
 62
7
 10
197.8147758349
 20
772.2030834397
 30
0
 11
199.6174587115
 21
772.2030834397
 31
0
  0
LINE
  8
0
 62
7
 10
199.6174587115
 20
760.6126408195
 30
0
 11
197.8147758349
 21
760.6126408195
 31
0
  0
LINE
  8
0
 62
7
 10
199.6174587115
 20
768.3092965148001
 30
0
 11
199.6174587115
 21
760.6126408195
 31
0
  0
LINE
  8
0
 62
7
 10
201.8778754576
 20
760.6126408195
 30
0
 11
201.8778754576
 21
769.4097145563
 31
0
  0
LINE
  8
0
 62
7
 10
203.6805583342
 20
760.6126408195
 30
0
 11
201.8778754576
 21
760.6126408195
 31
0
  0
LINE
  8
0
 62
7
 10
203.6805583342
 20
768.3092965148001
 30
0
 11
203.6805583342
 21
760.6126408195
 31
0
  0
LINE
  8
0
 62
7
 10
206.0256136759
 20
760.6126408195
 30
0
 11
206.0256136759
 21
769.3250671131
 31
0
  0
LINE
  8
0
 62
7
 10
207.8282667502
 20
760.6126408195
 30
0
 11
206.0256136759
 21
760.6126408195
 31
0
  0
LINE
  8
0
 62
7
 10
218.6631692751
 20
770.0868947999001
 30
0
 11
218.6631692751
 21
760.6126408195
 31
0
  0
LINE
  8
0
 62
7
 10
210.4523612364
 20
772.2030834397
 30
0
 11
210.4523612364
 21
770.7640750436
 31
0
  0
LINE
  8
0
 62
7
 10
208.6496783598
 20
772.2030834397
 30
0
 11
210.4523612364
 21
772.2030834397
 31
0
  0
LINE
  8
0
 62
7
 10
208.6496783598
 20
760.6126408195
 30
0
 11
208.6496783598
 21
772.2030834397
 31
0
  0
LINE
  8
0
 62
7
 10
210.4523612364
 20
760.6126408195
 30
0
 11
208.6496783598
 21
760.6126408195
 31
0
  0
LINE
  8
0
 62
7
 10
210.4523612364
 20
768.3092965148001
 30
0
 11
210.4523612364
 21
760.6126408195
 31
0
  0
LINE
  8
0
 62
7
 10
212.7127481802
 20
760.6126408195
 30
0
 11
212.7127481802
 21
769.4097145563
 31
0
  0
LINE
  8
0
 62
7
 10
214.5154310568
 20
760.6126408195
 30
0
 11
212.7127481802
 21
760.6126408195
 31
0
  0
LINE
  8
0
 62
7
 10
214.5154310568
 20
768.3092965148001
 30
0
 11
214.5154310568
 21
760.6126408195
 31
0
  0
LINE
  8
0
 62
7
 10
216.8604863985
 20
760.6126408195
 30
0
 11
216.8604863985
 21
769.3250671131
 31
0
  0
LINE
  8
0
 62
7
 10
218.6631692751
 20
760.6126408195
 30
0
 11
216.8604863985
 21
760.6126408195
 31
0
  0
LINE
  8
0
 62
7
 10
179.2511476382
 20
762.2854507631
 30
0
 11
181.6110147341
 21
762.2854507631
 31
0
  0
LINE
  8
0
 62
7
 10
189.3062425955
 20
774.7080235844001
 30
0
 11
182.4318302973
 21
774.7080235844001
 31
0
  0
LINE
  8
0
 62
7
 10
189.3062425955
 20
776.6498814439
 30
0
 11
189.3062425955
 21
774.7080235844001
 31
0
  0
LINE
  8
0
 62
7
 10
180.3493632181
 20
776.6498814439
 30
0
 11
189.3062425955
 21
776.6498814439
 31
0
  0
LINE
  8
0
 62
7
 10
181.9188131197
 20
765.671352447
 30
0
 11
179.7337366446
 21
765.671352447
 31
0
  0
LINE
  8
0
 62
7
 10
170.2425910338
 20
756.649881891
 30
0
 11
167.8827239378
 21
756.649881891
 31
0
  0
LINE
  8
0
 62
7
 10
175.0649346217
 20
776.6498814439
 30
0
 11
175.0649346217
 21
774.4952173075
 31
0
  0
LINE
  8
0
 62
7
 10
165.3176380499
 20
776.6498814439
 30
0
 11
175.0649346217
 21
776.6498814439
 31
0
  0
LINE
  8
0
 62
7
 10
165.3176380499
 20
774.7080235844001
 30
0
 11
165.3176380499
 21
776.6498814439
 31
0
  0
LINE
  8
0
 62
7
 10
172.9102565153
 20
774.7080235844001
 30
0
 11
165.3176380499
 21
774.7080235844001
 31
0
  0
LINE
  8
0
 62
7
 10
348.2556922539
 20
812.9370764932
 30
0
 11
348.2556922539
 21
719.9370742878
 31
0
  0
LINE
  8
0
 62
7
 10
51.2556864127
 20
828.9370753905
 30
0
 11
51.2556864127
 21
703.9370753905
 31
0
  0
LINE
  8
0
 62
7
 10
71.25569714149999
 20
871.9370731255
 30
0
 11
71.25569714149999
 21
660.9370776554
 31
0
  0
LINE
  8
0
 62
7
 10
53.2556904658
 20
871.9370731255
 30
0
 11
53.2556904658
 21
660.9370776554
 31
0
  0
LINE
  8
0
 62
7
 10
354.755697976
 20
713.9370770296
 30
0
 11
365.9486605032
 21
687.5748404404
 31
0
  0
LINE
  8
0
 62
7
 10
393.5627324684
 20
687.5748404404
 30
0
 11
404.3182714089
 21
712.906840547
 31
0
  0
LINE
  8
0
 62
7
 10
404.3182714089
 20
819.967310234
 30
0
 11
393.5627324684
 21
845.2993103405
 31
0
  0
LINE
  8
0
 62
7
 10
365.9486605032
 20
845.2993103405
 30
0
 11
354.755697976
 21
818.9370737513
 31
0
  0
LINE
  8
0
 62
7
 10
404.7556949957
 20
817.8178251823
 30
0
 11
404.7556949957
 21
715.0563255986
 31
0
  0
LINE
  8
0
 62
7
 10
354.755697976
 20
713.9370770296
 30
0
 11
354.755697976
 21
818.9370737513
 31
0
  0
LINE
  8
0
 62
7
 10
399.7556997641
 20
711.2993405303
 30
0
 11
399.7556997641
 21
821.5748102507
 31
0
  0
LINE
  8
0
 62
7
 10
399.7556997641
 20
821.5748102507
 30
0
 11
399.9521566733
 21
822.1571103772
 31
0
  0
LINE
  8
0
 62
7
 10
359.5592362984
 20
822.1571103772
 30
0
 11
359.7556932076
 21
821.5748102507
 31
0
  0
LINE
  8
0
 62
7
 10
359.7556932076
 20
711.2993405303
 30
0
 11
359.7556932076
 21
821.5748102507
 31
0
  0
LINE
  8
0
 62
7
 10
359.7556932076
 20
711.2993405303
 30
0
 11
359.5592362984
 21
710.7170404037
 31
0
  0
LINE
  8
0
 62
7
 10
399.9521566733
 20
710.7170404037
 30
0
 11
399.7556997641
 21
711.2993405303
 31
0
  0
LINE
  8
0
 62
7
 10
518.0056953981
 20
638.6370726963
 30
0
 11
523.0056962176
 21
638.6370726963
 31
0
  0
LINE
  8
0
 62
7
 10
654.4760151013001
 20
813.1104999324
 30
0
 11
653.3254964455
 21
812.719150736
 31
0
  0
LINE
  8
0
 62
7
 10
653.3098576768
 20
720.1603234848
 30
0
 11
654.4760151013001
 21
719.7636508485
 31
0
  0
LINE
  8
0
 62
7
 10
404.7556949957
 20
719.9370742878
 30
0
 11
411.2557007178
 21
719.9370742878
 31
0
  0
LINE
  8
0
 62
7
 10
411.2557007178
 20
812.9370764932
 30
0
 11
404.7556949957
 21
812.9370764932
 31
0
  0
LINE
  8
0
 62
7
 10
681.2556965454
 20
828.9370753905
 30
0
 11
679.2556924923
 21
830.937071993
 31
0
  0
LINE
  8
0
 62
7
 10
679.2556924923
 20
701.9370787879
 30
0
 11
681.2556965454
 21
703.9370753905
 31
0
  0
LINE
  8
0
 62
7
 10
584.2281265362
 20
846.6425531646
 30
0
 11
579.180835019
 21
848.9600190064
 31
0
  0
LINE
  8
0
 62
7
 10
661.2556932671999
 20
660.9370776554
 30
0
 11
679.2556924923
 21
660.9370776554
 31
0
  0
LINE
  8
0
 62
7
 10
679.2556924923
 20
871.9370731255
 30
0
 11
661.2556932671999
 21
871.9370731255
 31
0
  0
LINE
  8
0
 62
7
 10
93.6882926329
 20
721.9370746156
 30
0
 11
348.2556922539
 21
721.9370746156
 31
0
  0
LINE
  8
0
 62
7
 10
348.2556922539
 20
810.9370761653
 30
0
 11
93.6882926329
 21
810.9370761653
 31
0
  0
LINE
  8
0
 62
7
 10
348.2556922539
 20
719.9370742878
 30
0
 11
354.755697976
 21
719.9370742878
 31
0
  0
LINE
  8
0
 62
7
 10
354.755697976
 20
812.9370764932
 30
0
 11
348.2556922539
 21
812.9370764932
 31
0
  0
LINE
  8
0
 62
7
 10
91.17193354210001
 20
811.2588518402
 30
0
 11
78.7393583163
 21
814.491323485
 31
0
  0
LINE
  8
0
 62
7
 10
78.7393583163
 20
718.3828272959
 30
0
 11
91.17193354210001
 21
721.6152989408
 31
0
  0
LINE
  8
0
 62
7
 10
51.2556864127
 20
703.9370753905
 30
0
 11
53.2556904658
 21
701.9370787879
 31
0
  0
LINE
  8
0
 62
7
 10
53.2556904658
 20
830.937071993
 30
0
 11
51.2556864127
 21
828.9370753905
 31
0
  0
LINE
  8
0
 62
7
 10
71.25569714149999
 20
871.9370731255
 30
0
 11
53.2556904658
 21
871.9370731255
 31
0
  0
LINE
  8
0
 62
7
 10
53.2556904658
 20
660.9370776554
 30
0
 11
71.25569714149999
 21
660.9370776554
 31
0
  0
LINE
  8
0
 62
7
 10
518.0056953981
 20
718.8089595279
 30
0
 11
518.0056953981
 21
638.6370726963
 31
0
  0
LINE
  8
0
 62
7
 10
523.0056962176
 20
638.6370726963
 30
0
 11
523.0056962176
 21
716.678283467
 31
0
  0
LINE
  8
0
 62
7
 10
600.255696307
 20
587.2027509682
 30
0
 11
600.255696307
 21
590.2027421467
 31
0
  0
LINE
  8
0
 62
7
 10
598.2030390008
 20
588.2027529948
 30
0
 11
598.2030390008
 21
587.2027509682
 31
0
  0
LINE
  8
0
 62
7
 10
479.5559926136
 20
581.0527437203
 30
0
 11
479.5559926136
 21
582.0527457469
 31
0
  0
LINE
  8
0
 62
7
 10
479.5559926136
 20
582.0527457469
 30
0
 11
477.1076349719
 21
582.0527457469
 31
0
  0
LINE
  8
0
 62
7
 10
602.9553992852
 20
582.0527457469
 30
0
 11
602.9553992852
 21
581.0527437203
 31
0
  0
LINE
  8
0
 62
7
 10
605.4037569269
 20
582.0527457469
 30
0
 11
602.9553992852
 21
582.0527457469
 31
0
  0
LINE
  8
0
 62
7
 10
478.6646200522
 20
581.0527437203
 30
0
 11
479.5559926136
 21
581.0527437203
 31
0
  0
LINE
  8
0
 62
7
 10
602.9553992852
 20
581.0527437203
 30
0
 11
603.8467718466
 21
581.0527437203
 31
0
  0
LINE
  8
0
 62
7
 10
477.1076349719
 20
580.8244430297
 30
0
 11
478.6646200522
 21
581.0527437203
 31
0
  0
LINE
  8
0
 62
7
 10
603.8467718466
 20
581.0527437203
 30
0
 11
605.4037569269
 21
580.8244430297
 31
0
  0
LINE
  8
0
 62
7
 10
605.4037569269
 20
582.0527457469
 30
0
 11
605.4037569269
 21
580.8244430297
 31
0
  0
LINE
  8
0
 62
7
 10
477.1076349719
 20
582.0527457469
 30
0
 11
477.1076349719
 21
580.8244430297
 31
0
  0
LINE
  8
0
 62
7
 10
592.9788259967
 20
607.7027552598
 30
0
 11
592.9788259967
 21
609.7027444117
 31
0
  0
LINE
  8
0
 62
7
 10
491.2439083858
 20
601.2027495377
 30
0
 11
491.2439083858
 21
591.2027441733
 31
0
  0
LINE
  8
0
 62
7
 10
491.2439083858
 20
591.2027441733
 30
0
 11
491.2170713945
 21
590.2027421467
 31
0
  0
LINE
  8
0
 62
7
 10
394.9126882656
 20
451.0527484887
 30
0
 11
392.5609721049
 21
472.2011898481
 31
0
  0
LINE
  8
0
 62
7
 10
366.9504208668
 20
472.2011898481
 30
0
 11
364.598704706
 21
451.0527484887
 31
0
  0
LINE
  8
0
 62
7
 10
362.7014292582
 20
451.0527484887
 30
0
 11
365.2590347632
 21
474.0527485334
 31
0
  0
LINE
  8
0
 62
7
 10
365.2590347632
 20
474.0527485334
 30
0
 11
365.9486605032
 21
474.0527485334
 31
0
  0
LINE
  8
0
 62
7
 10
394.2523582085
 20
474.0527485334
 30
0
 11
396.8099637135
 21
451.0527484887
 31
0
  0
LINE
  8
0
 62
7
 10
393.5627324684
 20
474.0527485334
 30
0
 11
394.2523582085
 21
474.0527485334
 31
0
  0
LINE
  8
0
 62
7
 10
365.9486605032
 20
474.0527485334
 30
0
 11
365.9486605032
 21
482.052747982
 31
0
  0
LINE
  8
0
 62
7
 10
393.5627324684
 20
474.0527485334
 30
0
 11
393.5627324684
 21
482.052747982
 31
0
  0
LINE
  8
0
 62
7
 10
516.5056960835
 20
599.2027454846
 30
0
 11
516.5056960835
 21
594.3888955586
 31
0
  0
LINE
  8
0
 62
7
 10
459.1102732523
 20
552.0527520054
 30
0
 11
459.1102732523
 21
567.0527451508
 31
0
  0
LINE
  8
0
 62
7
 10
623.4011186465
 20
552.0527520054
 30
0
 11
623.4011186465
 21
567.0527451508
 31
0
  0
LINE
  8
0
 62
7
 10
601.6160568400001
 20
547.0527493231
 30
0
 11
551.0433932944
 21
547.0527493231
 31
0
  0
LINE
  8
0
 62
7
 10
531.4679986044
 20
547.0527493231
 30
0
 11
480.8953350588
 21
547.0527493231
 31
0
  0
LINE
  8
0
 62
7
 10
218.8108993872
 20
406.2007860117
 30
0
 11
218.8108993872
 21
407.7405267232
 31
0
  0
LINE
  8
0
 62
7
 10
404.4240100487
 20
399.3788220756
 30
0
 11
404.4240100487
 21
404.4383250945
 31
0
  0
LINE
  8
0
 62
7
 10
387.218458782
 20
438.0111190327
 30
0
 11
389.6226717337
 21
451.0527484887
 31
0
  0
LINE
  8
0
 62
7
 10
404.3182714089
 20
433.1752684735
 30
0
 11
404.3182714089
 21
482.052747982
 31
0
  0
LINE
  8
0
 62
7
 10
396.8099637135
 20
451.0527484887
 30
0
 11
395.1785547837
 21
436.3818623893
 31
0
  0
LINE
  8
0
 62
7
 10
393.3293802841
 20
436.8144458928
 30
0
 11
394.9126882656
 21
451.0527484887
 31
0
  0
LINE
  8
0
 62
7
 10
364.598704706
 20
451.0527484887
 30
0
 11
366.2396354779
 21
436.2962421798
 31
0
  0
LINE
  8
0
 62
7
 10
364.4314242705
 20
435.4952852078
 30
0
 11
362.7014292582
 21
451.0527484887
 31
0
  0
LINE
  8
0
 62
7
 10
371.5291453703
 20
400.8632235997
 30
0
 11
371.5291453703
 21
399.9110170477
 31
0
  0
LINE
  8
0
 62
7
 10
387.9822476013
 20
399.9507211917
 30
0
 11
387.9822476013
 21
400.8632235997
 31
0
  0
LINE
  8
0
 62
7
 10
370.8873225554
 20
396.0937642329
 30
0
 11
370.8873225554
 21
395.8897189074
 31
0
  0
LINE
  8
0
 62
7
 10
388.6240704163
 20
395.8897189074
 30
0
 11
388.6240704163
 21
396.0937642329
 31
0
  0
LINE
  8
0
 62
7
 10
554.1966485037
 20
468.6383613222
 30
0
 11
554.1966485037
 21
468.5527485632
 31
0
  0
LINE
  8
0
 62
7
 10
486.9970550938
 20
587.2027509682
 30
0
 11
486.9970550938
 21
588.2027529948
 31
0
  0
LINE
  8
0
 62
7
 10
486.9995324119
 20
587.2027509682
 30
0
 11
486.9995324119
 21
588.2027529948
 31
0
  0
LINE
  8
0
 62
7
 10
525.8776761769
 20
591.7027526372
 30
0
 11
516.2556955769001
 21
591.7027526372
 31
0
  0
LINE
  8
0
 62
7
 10
623.403756152
 20
586.0527538530999
 30
0
 11
599.4037522181
 21
586.0527538530999
 31
0
  0
LINE
  8
0
 62
7
 10
483.1076396807
 20
586.0527538530999
 30
0
 11
459.1076357468
 21
586.0527538530999
 31
0
  0
LINE
  8
0
 62
7
 10
487.7503944739
 20
588.2027529948
 30
0
 11
487.7503944739
 21
587.2027509682
 31
0
  0
LINE
  8
0
 62
7
 10
489.0254346832
 20
590.2027421467
 30
0
 11
530.2860412924
 21
590.2027421467
 31
0
  0
LINE
  8
0
 62
7
 10
552.2253506063
 20
587.2027509682
 30
0
 11
600.4340967341
 21
587.2027509682
 31
0
  0
LINE
  8
0
 62
7
 10
482.0772951647
 20
587.2027509682
 30
0
 11
530.2860412924
 21
587.2027509682
 31
0
  0
LINE
  8
0
 62
7
 10
553.2556960537
 20
584.0527498
 30
0
 11
601.222159545
 21
584.0527498
 31
0
  0
LINE
  8
0
 62
7
 10
481.2892323538
 20
584.0527498
 30
0
 11
529.2556958451
 21
584.0527498
 31
0
  0
LINE
  8
0
 62
7
 10
479.6646220787
 20
579.0527545684
 30
0
 11
527.2556955173
 21
579.0527545684
 31
0
  0
LINE
  8
0
 62
7
 10
555.2556963815
 20
579.0527545684
 30
0
 11
602.8467698201
 21
579.0527545684
 31
0
  0
LINE
  8
0
 62
7
 10
553.2556960537
 20
586.0527538530999
 30
0
 11
529.2556958451
 21
586.0527538530999
 31
0
  0
LINE
  8
0
 62
7
 10
552.2253506063
 20
590.2027421467
 30
0
 11
600.4340967341
 21
590.2027421467
 31
0
  0
LINE
  8
0
 62
7
 10
518.2556959047
 20
617.702745723
 30
0
 11
518.2556959047
 21
616.7027436965
 31
0
  0
LINE
  8
0
 62
7
 10
548.2556961655
 20
617.702745723
 30
0
 11
548.2556961655
 21
616.7027436965
 31
0
  0
LINE
  8
0
 62
7
 10
592.9788259967
 20
609.7027444117
 30
0
 11
599.2556942805001
 21
609.7027444117
 31
0
  0
LINE
  8
0
 62
7
 10
599.2556942805001
 20
607.7027552598
 30
0
 11
592.9788259967
 21
607.7027552598
 31
0
  0
LINE
  8
0
 62
7
 10
525.7556962027001
 20
617.702745723
 30
0
 11
525.7556962027001
 21
616.7027436965
 31
0
  0
LINE
  8
0
 62
7
 10
518.2556959047
 20
617.702745723
 30
0
 11
548.2556961655
 21
617.702745723
 31
0
  0
LINE
  8
0
 62
7
 10
540.7556959256
 20
617.702745723
 30
0
 11
540.7556959256
 21
616.7027436965
 31
0
  0
LINE
  8
0
 62
7
 10
533.2556955694
 20
617.702745723
 30
0
 11
533.2556955694
 21
616.7027436965
 31
0
  0
LINE
  8
0
 62
7
 10
478.7556959494
 20
594.0527551644
 30
0
 11
478.7556959494
 21
601.2027495377
 31
0
  0
LINE
  8
0
 62
7
 10
480.7556962772
 20
603.2027535907999
 30
0
 11
484.5533168121
 21
603.2027535907999
 31
0
  0
LINE
  8
0
 62
7
 10
515.255695413
 20
617.702745723
 30
0
 11
515.255695413
 21
616.7027436965
 31
0
  0
LINE
  8
0
 62
7
 10
505.2556974991
 20
617.702745723
 30
0
 11
515.255695413
 21
617.702745723
 31
0
  0
LINE
  8
0
 62
7
 10
505.2556974991
 20
617.702745723
 30
0
 11
505.2556974991
 21
616.7027436965
 31
0
  0
LINE
  8
0
 62
7
 10
578.2556964262
 20
617.702745723
 30
0
 11
578.2556964262
 21
616.7027436965
 31
0
  0
LINE
  8
0
 62
7
 10
566.2556963219
 20
617.702745723
 30
0
 11
578.2556964262
 21
617.702745723
 31
0
  0
LINE
  8
0
 62
7
 10
566.2556963219
 20
617.702745723
 30
0
 11
566.2556963219
 21
616.7027436965
 31
0
  0
LINE
  8
0
 62
7
 10
563.2556958302
 20
617.702745723
 30
0
 11
563.2556958302
 21
616.7027436965
 31
0
  0
LINE
  8
0
 62
7
 10
551.2556957259
 20
617.702745723
 30
0
 11
563.2556958302
 21
617.702745723
 31
0
  0
LINE
  8
0
 62
7
 10
551.2556957259
 20
617.702745723
 30
0
 11
551.2556957259
 21
616.7027436965
 31
0
  0
LINE
  8
0
 62
7
 10
587.2556960388
 20
616.7027436965
 30
0
 11
495.25569586
 21
616.7027436965
 31
0
  0
LINE
  8
0
 62
7
 10
526.2556962847
 20
590.2027421467
 30
0
 11
530.2860412924
 21
590.2027421467
 31
0
  0
LINE
  8
0
 62
7
 10
486.2209132119
 20
590.2027421467
 30
0
 11
516.2556955769001
 21
590.2027421467
 31
0
  0
LINE
  8
0
 62
7
 10
516.2556955769001
 20
590.2027421467
 30
0
 11
516.2556955769001
 21
605.7027512067
 31
0
  0
LINE
  8
0
 62
7
 10
399.7556997641
 20
484.5203504734
 30
0
 11
399.7556997641
 21
515.5527450912
 31
0
  0
LINE
  8
0
 62
7
 10
359.7556932076
 20
484.5203504734
 30
0
 11
359.7556932076
 21
515.5527450912
 31
0
  0
LINE
  8
0
 62
7
 10
359.7556932076
 20
484.5203504734
 30
0
 11
359.5592362984
 21
483.5416384809
 31
0
  0
LINE
  8
0
 62
7
 10
399.9521566733
 20
483.5416384809
 30
0
 11
399.7556997641
 21
484.5203504734
 31
0
  0
LINE
  8
0
 62
7
 10
404.7556949957
 20
451.0527484887
 30
0
 11
354.755697976
 21
451.0527484887
 31
0
  0
LINE
  8
0
 62
7
 10
354.755697976
 20
482.052747982
 30
0
 11
404.7556949957
 21
482.052747982
 31
0
  0
LINE
  8
0
 62
7
 10
391.7560113772
 20
472.0527482056
 30
0
 11
385.7608940029796
 21
472.0527482056
 31
0
  0
LINE
  8
0
 62
7
 10
370.156808029
 20
482.052747982
 30
0
 11
370.156808029
 21
490.4155664914
 31
0
  0
LINE
  8
0
 62
7
 10
389.3545700415
 20
482.052747982
 30
0
 11
389.3545700415
 21
490.4155664914
 31
0
  0
LINE
  8
0
 62
7
 10
379.9566460951
 20
482.052747982
 30
0
 11
379.9566460951
 21
490.4155664914
 31
0
  0
LINE
  8
0
 62
7
 10
370.3577650889
 20
482.052747982
 30
0
 11
370.3577650889
 21
490.4155664914
 31
0
  0
LINE
  8
0
 62
7
 10
370.7557005986
 20
491.5527486079
 30
0
 11
388.7541873558
 21
491.5527486079
 31
0
  0
LINE
  8
0
 62
7
 10
524.7556960388
 20
591.7027526372
 30
0
 11
524.7556960388
 21
592.9527514451
 31
0
  0
LINE
  8
0
 62
7
 10
523.7556958749
 20
592.9527514451
 30
0
 11
523.7556958749
 21
591.7027526372
 31
0
  0
LINE
  8
0
 62
7
 10
517.2556957408
 20
591.7027526372
 30
0
 11
517.2556957408
 21
592.9527514451
 31
0
  0
LINE
  8
0
 62
7
 10
523.1056960477
 20
594.202750253
 30
0
 11
522.9464305743001
 21
595.0987421743999
 31
0
  0
LINE
  8
0
 62
7
 10
521.2881399496
 20
599.7027539485
 30
0
 11
521.2881399496
 21
599.2027454846
 31
0
  0
LINE
  8
0
 62
7
 10
521.7452367946
 20
599.7027539485
 30
0
 11
521.2881399496
 21
599.7027539485
 31
0
  0
LINE
  8
0
 62
7
 10
521.7452367946
 20
599.7027539485
 30
0
 11
521.7452367946
 21
599.2027454846
 31
0
  0
LINE
  8
0
 62
7
 10
521.3897155776
 20
599.7027539485
 30
0
 11
521.3897155776
 21
599.2027454846
 31
0
  0
LINE
  8
0
 62
7
 10
523.8615723505
 20
599.7027539485
 30
0
 11
521.7615479781
 21
599.7027539485
 31
0
  0
LINE
  8
0
 62
7
 10
521.7615479781
 20
599.7027539485
 30
0
 11
521.7615479781
 21
599.2027454846
 31
0
  0
LINE
  8
0
 62
7
 10
516.2556955769001
 20
599.2027454846
 30
0
 11
523.9875802948
 21
599.2027454846
 31
0
  0
LINE
  8
0
 62
7
 10
516.2556955769001
 20
598.202743458
 30
0
 11
524.2395924582
 21
598.202743458
 31
0
  0
LINE
  8
0
 62
7
 10
617.4037514432
 20
541.0527520650001
 30
0
 11
605.4037569269
 21
541.0527520650001
 31
0
  0
LINE
  8
0
 62
7
 10
600.4340967341
 20
593.2042383425001
 30
0
 11
600.4340967341
 21
586.0527538530999
 31
0
  0
LINE
  8
0
 62
7
 10
605.9189273222
 20
593.2042383425001
 30
0
 11
605.9189273222
 21
586.0527538530999
 31
0
  0
LINE
  8
0
 62
7
 10
620.9037510856
 20
594.0527551644
 30
0
 11
601.9037535592
 21
594.0527551644
 31
0
  0
LINE
  8
0
 62
7
 10
622.3734079107001
 20
593.2042383425001
 30
0
 11
622.3734079107001
 21
586.0527538530999
 31
0
  0
LINE
  8
0
 62
7
 10
616.8885810479
 20
593.2042383425001
 30
0
 11
616.8885810479
 21
586.0527538530999
 31
0
  0
LINE
  8
0
 62
7
 10
547.2556960015
 20
541.0527520650001
 30
0
 11
535.2556958972
 21
541.0527520650001
 31
0
  0
LINE
  8
0
 62
7
 10
530.2860412924
 20
593.2042383425001
 30
0
 11
530.2860412924
 21
586.0527538530999
 31
0
  0
LINE
  8
0
 62
7
 10
552.2253506063
 20
593.2042383425001
 30
0
 11
552.2253506063
 21
586.0527538530999
 31
0
  0
LINE
  8
0
 62
7
 10
550.7556956439
 20
594.0527551644
 30
0
 11
531.7556962549
 21
594.0527551644
 31
0
  0
LINE
  8
0
 62
7
 10
546.7405232779
 20
593.2042383425001
 30
0
 11
546.7405232779
 21
586.0527538530999
 31
0
  0
LINE
  8
0
 62
7
 10
535.7708686209001
 20
593.2042383425001
 30
0
 11
535.7708686209001
 21
586.0527538530999
 31
0
  0
LINE
  8
0
 62
7
 10
477.1076349719
 20
541.0527520650001
 30
0
 11
465.1076404556
 21
541.0527520650001
 31
0
  0
LINE
  8
0
 62
7
 10
460.1379839881
 20
593.2042383425001
 30
0
 11
460.1379839881
 21
586.0527538530999
 31
0
  0
LINE
  8
0
 62
7
 10
482.0772951647
 20
593.2042383425001
 30
0
 11
482.0772951647
 21
586.0527538530999
 31
0
  0
LINE
  8
0
 62
7
 10
480.6076383396
 20
594.0527551644
 30
0
 11
461.6076408132
 21
594.0527551644
 31
0
  0
LINE
  8
0
 62
7
 10
476.5924645766
 20
593.2042383425001
 30
0
 11
476.5924645766
 21
586.0527538530999
 31
0
  0
LINE
  8
0
 62
7
 10
465.6228108509
 20
593.2042383425001
 30
0
 11
465.6228108509
 21
586.0527538530999
 31
0
  0
LINE
  8
0
 62
7
 10
551.0433932944
 20
542.9012560122
 30
0
 11
551.0433932944
 21
552.0527520054
 31
0
  0
LINE
  8
0
 62
7
 10
531.4679986044
 20
542.9012560122
 30
0
 11
531.4679986044
 21
552.0527520054
 31
0
  0
LINE
  8
0
 62
7
 10
550.7556956439
 20
542.0527466409
 30
0
 11
531.7701187163
 21
542.0527466409
 31
0
  0
LINE
  8
0
 62
7
 10
540.6514547943
 20
542.9012560122
 30
0
 11
540.6514547943
 21
552.0527520054
 31
0
  0
LINE
  8
0
 62
7
 10
550.4391521393
 20
542.9012560122
 30
0
 11
550.4391521393
 21
552.0527520054
 31
0
  0
LINE
  8
0
 62
7
 10
621.1914478048
 20
542.9012560122
 30
0
 11
621.1914478048
 21
552.0527520054
 31
0
  0
LINE
  8
0
 62
7
 10
601.6160568400001
 20
542.9012560122
 30
0
 11
601.6160568400001
 21
552.0527520054
 31
0
  0
LINE
  8
0
 62
7
 10
620.8893342121
 20
542.0527466409
 30
0
 11
601.9181778832
 21
542.0527466409
 31
0
  0
LINE
  8
0
 62
7
 10
610.7995120986
 20
542.9012560122
 30
0
 11
610.7995120986
 21
552.0527520054
 31
0
  0
LINE
  8
0
 62
7
 10
620.5872131689
 20
542.9012560122
 30
0
 11
620.5872131689
 21
552.0527520054
 31
0
  0
LINE
  8
0
 62
7
 10
480.8953350588
 20
542.9012560122
 30
0
 11
480.8953350588
 21
552.0527520054
 31
0
  0
LINE
  8
0
 62
7
 10
480.2910929724
 20
542.9012560122
 30
0
 11
480.2910929724
 21
552.0527520054
 31
0
  0
LINE
  8
0
 62
7
 10
480.5932140156
 20
542.0527466409
 30
0
 11
461.6220576866
 21
542.0527466409
 31
0
  0
LINE
  8
0
 62
7
 10
461.319944094
 20
542.9012560122
 30
0
 11
461.319944094
 21
552.0527520054
 31
0
  0
LINE
  8
0
 62
7
 10
470.5033956273
 20
542.9012560122
 30
0
 11
470.5033956273
 21
552.0527520054
 31
0
  0
LINE
  8
0
 62
7
 10
654.9168212517
 20
518.558860647
 30
0
 11
631.5395070418
 21
509.3615659349
 31
0
  0
LINE
  8
0
 62
7
 10
506.4824616714
 20
353.6446996801
 30
0
 11
506.2556958004
 21
351.0527469986
 31
0
  0
LINE
  8
0
 62
7
 10
490.7174056574
 20
357.2054364555
 30
0
 11
491.2556952043
 21
351.0527469986
 31
0
  0
LINE
  8
0
 62
7
 10
491.2556952043
 20
351.0527469986
 30
0
 11
506.2556958004
 21
351.0527469986
 31
0
  0
LINE
  8
0
 62
7
 10
575.7439492448
 20
356.9020562642
 30
0
 11
576.2556960984
 21
351.0527469986
 31
0
  0
LINE
  8
0
 62
7
 10
576.2556960984
 20
351.0527469986
 30
0
 11
591.2556966945
 21
351.0527469986
 31
0
  0
LINE
  8
0
 62
7
 10
592.2983830973
 20
362.9707329743
 30
0
 11
591.2556966945
 21
351.0527469986
 31
0
  0
LINE
  8
0
 62
7
 10
655.0025699838
 20
383.5798063152
 30
0
 11
625.1070780857
 21
395.6613921397
 31
0
  0
LINE
  8
0
 62
7
 10
381.2556995257
 20
405.4646760993
 30
0
 11
381.2556995257
 21
420.9037841134
 31
0
  0
LINE
  8
0
 62
7
 10
395.2556980952
 20
405.4646760993
 30
0
 11
395.2556980952
 21
410.2488280111
 31
0
  0
LINE
  8
0
 62
7
 10
411.2557007178
 20
410.2488280111
 30
0
 11
411.2557007178
 21
410.9613270335
 31
0
  0
LINE
  8
0
 62
7
 10
647.2511125906
 20
495.1667197817
 30
0
 11
654.4760151013001
 21
497.6296582096
 31
0
  0
LINE
  8
0
 62
7
 10
610.3610752328
 20
538.6058770888
 30
0
 11
606.9366319283
 21
541.0527520650001
 31
0
  0
LINE
  8
0
 62
7
 10
381.2556995257
 20
438.7311580427
 30
0
 11
381.2556995257
 21
420.9037841134
 31
0
  0
LINE
  8
0
 62
7
 10
381.2556995257
 20
420.9037841134
 30
0
 11
392.0552862986
 21
420.9037841134
 31
0
  0
LINE
  8
0
 62
7
 10
392.0552862986
 20
437.0325197302
 30
0
 11
392.0552862986
 21
420.9037841134
 31
0
  0
LINE
  8
0
 62
7
 10
411.2557007178
 20
497.5527495914
 30
0
 11
411.2557007178
 21
427.525455954
 31
0
  0
LINE
  8
0
 62
7
 10
411.2557007178
 20
410.2488280111
 30
0
 11
411.2557007178
 21
404.552747386
 31
0
  0
LINE
  8
0
 62
7
 10
395.2556980952
 20
410.2488280111
 30
0
 11
411.2557007178
 21
410.2488280111
 31
0
  0
LINE
  8
0
 62
7
 10
645.4802138909
 20
407.5425647967
 30
0
 11
643.2338638409
 21
408.0295310192
 31
0
  0
LINE
  8
0
 62
7
 10
654.4760151013001
 20
404.4758387678
 30
0
 11
645.4802138909
 21
407.5425647967
 31
0
  0
LINE
  8
0
 62
7
 10
381.2556995257
 20
405.4646760993
 30
0
 11
381.2556995257
 21
400.302749949
 31
0
  0
LINE
  8
0
 62
7
 10
381.2556995257
 20
405.4646760993
 30
0
 11
395.2556980952
 21
405.4646760993
 31
0
  0
LINE
  8
0
 62
7
 10
537.7066512304
 20
363.0433835857
 30
0
 11
538.7556960053
 21
351.0527469986
 31
0
  0
LINE
  8
0
 62
7
 10
538.7556960053
 20
351.0527469986
 30
0
 11
543.7556958935001
 21
351.0527469986
 31
0
  0
LINE
  8
0
 62
7
 10
544.7983843918
 20
362.9707329743
 30
0
 11
543.7556958935001
 21
351.0527469986
 31
0
  0
LINE
  8
0
 62
7
 10
681.2556965454
 20
513.5527484887
 30
0
 11
681.2556965454
 21
388.5527484887
 31
0
  0
LINE
  8
0
 62
7
 10
415.6816585167
 20
409.413193243
 30
0
 11
411.2557007178
 21
410.9613270335
 31
0
  0
LINE
  8
0
 62
7
 10
490.7174056574
 20
357.2054364555
 30
0
 11
485.0126711829
 21
358.9945369237
 31
0
  0
LINE
  8
0
 62
7
 10
541.2556959494
 20
362.9065164201
 30
0
 11
544.7983843918
 21
362.9707329743
 31
0
  0
LINE
  8
0
 62
7
 10
590.1337212129
 20
361.9708799594
 30
0
 11
592.2983830973
 21
362.9707329743
 31
0
  0
LINE
  8
0
 62
7
 10
550.255695562
 20
403.5527490847
 30
0
 11
550.255695562
 21
391.5527471178
 31
0
  0
LINE
  8
0
 62
7
 10
532.2556963368
 20
403.5527490847
 30
0
 11
550.255695562
 21
403.5527490847
 31
0
  0
LINE
  8
0
 62
7
 10
532.2556963368
 20
391.5527471178
 30
0
 11
532.2556963368
 21
403.5527490847
 31
0
  0
LINE
  8
0
 62
7
 10
550.255695562
 20
391.5527471178
 30
0
 11
532.2556963368
 21
391.5527471178
 31
0
  0
LINE
  8
0
 62
7
 10
545.6138949088
 20
401.1272311978
 30
0
 11
546.8588119551
 21
401.1272311978
 31
0
  0
LINE
  8
0
 62
7
 10
545.6138949088
 20
394.1272319131
 30
0
 11
545.6138949088
 21
401.1272311978
 31
0
  0
LINE
  8
0
 62
7
 10
546.8588119551
 20
394.1272319131
 30
0
 11
545.6138949088
 21
394.1272319131
 31
0
  0
LINE
  8
0
 62
7
 10
546.463790088
 20
394.8068813257
 30
0
 11
546.8588119551
 21
394.8068813257
 31
0
  0
LINE
  8
0
 62
7
 10
546.463790088
 20
400.4475817852
 30
0
 11
546.463790088
 21
394.8068813257
 31
0
  0
LINE
  8
0
 62
7
 10
546.8588119551
 20
400.4475817852
 30
0
 11
546.463790088
 21
400.4475817852
 31
0
  0
LINE
  8
0
 62
7
 10
548.2556961655
 20
511.0527471476
 30
0
 11
548.2556961655
 21
508.0527485185
 31
0
  0
LINE
  8
0
 62
7
 10
548.2556961655
 20
501.0527492337
 30
0
 11
548.2556961655
 21
504.0527478628
 31
0
  0
LINE
  8
0
 62
7
 10
548.2556961655
 20
508.0527485185
 30
0
 11
516.2556955769001
 21
508.0527485185
 31
0
  0
LINE
  8
0
 62
7
 10
516.2556955769001
 20
508.0527485185
 30
0
 11
516.2556955769001
 21
504.0527478628
 31
0
  0
LINE
  8
0
 62
7
 10
548.2556961655
 20
504.0527478628
 30
0
 11
516.2556955769001
 21
504.0527478628
 31
0
  0
LINE
  8
0
 62
7
 10
624.2556927903
 20
567.0527451508
 30
0
 11
458.2556991084
 21
567.0527451508
 31
0
  0
LINE
  8
0
 62
7
 10
624.2556927903
 20
552.0527520054
 30
0
 11
458.2556991084
 21
552.0527520054
 31
0
  0
LINE
  8
0
 62
7
 10
541.2556959494
 20
491.0527475946
 30
0
 11
541.2571512722
 21
491.0502292984
 31
0
  0
LINE
  8
0
 62
7
 10
541.2556957435612
 20
491.0527472380767
 30
0
 11
536.9255689151
 21
483.5527472966
 31
0
  0
LINE
  8
0
 62
7
 10
536.9255689151
 20
483.5527472966
 30
0
 11
528.265315312
 21
483.5527472966
 31
0
  0
LINE
  8
0
 62
7
 10
528.265315312
 20
483.5527472966
 30
0
 11
532.5954418807
 21
476.0527488612
 31
0
  0
LINE
  8
0
 62
7
 10
532.5954418807
 20
476.0527488612
 30
0
 11
528.265315312
 21
468.5527485632
 31
0
  0
LINE
  8
0
 62
7
 10
528.265315312
 20
468.5527485632
 30
0
 11
536.9255689151
 21
468.5527485632
 31
0
  0
LINE
  8
0
 62
7
 10
536.9255689151
 20
468.5527485632
 30
0
 11
541.2556959822981
 21
461.0527482082187
 31
0
  0
LINE
  8
0
 62
7
 10
541.2579958282
 20
465.0567321875
 30
0
 11
541.2556959494
 21
465.0527489208
 31
0
  0
LINE
  8
0
 62
7
 10
538.080269442
 20
470.552748891
 30
0
 11
541.2556961455404
 21
465.0527485810749
 31
0
  0
LINE
  8
0
 62
7
 10
531.7294161945
 20
470.552748891
 30
0
 11
538.080269442
 21
470.552748891
 31
0
  0
LINE
  8
0
 62
7
 10
534.9048429347
 20
476.0527488612
 30
0
 11
531.7294161945
 21
470.552748891
 31
0
  0
LINE
  8
0
 62
7
 10
531.7294161945
 20
481.5527488314
 30
0
 11
534.9048429347
 21
476.0527488612
 31
0
  0
LINE
  8
0
 62
7
 10
538.080269442
 20
481.5527488314
 30
0
 11
531.7294161945
 21
481.5527488314
 31
0
  0
LINE
  8
0
 62
7
 10
541.2556962639796
 20
487.0527474838677
 30
0
 11
538.080269442
 21
481.5527488314
 31
0
  0
LINE
  8
0
 62
7
 10
541.2556957435612
 20
491.0527472380767
 30
0
 11
545.5858229837
 21
483.5527472966
 31
0
  0
LINE
  8
0
 62
7
 10
541.2556962639796
 20
487.0527474838677
 30
0
 11
544.4311224568
 21
481.5527488314
 31
0
  0
LINE
  8
0
 62
7
 10
544.4311224568
 20
481.5527488314
 30
0
 11
550.7819757043
 21
481.5527488314
 31
0
  0
LINE
  8
0
 62
7
 10
550.7819757043
 20
481.5527488314
 30
0
 11
547.6065489641001
 21
476.0527488612
 31
0
  0
LINE
  8
0
 62
7
 10
547.6065489641001
 20
476.0527488612
 30
0
 11
550.7819757043
 21
470.552748891
 31
0
  0
LINE
  8
0
 62
7
 10
550.7819757043
 20
470.552748891
 30
0
 11
544.4311224568
 21
470.552748891
 31
0
  0
LINE
  8
0
 62
7
 10
544.4311224568
 20
470.552748891
 30
0
 11
541.2556961455404
 21
465.0527485810749
 31
0
  0
LINE
  8
0
 62
7
 10
545.5858229837
 20
468.5527485632
 30
0
 11
541.2556959822981
 21
461.0527482082187
 31
0
  0
LINE
  8
0
 62
7
 10
554.2460765867
 20
468.5527485632
 30
0
 11
545.5858229837
 21
468.5527485632
 31
0
  0
LINE
  8
0
 62
7
 10
549.9159500181
 20
476.0527488612
 30
0
 11
554.2460765867
 21
468.5527485632
 31
0
  0
LINE
  8
0
 62
7
 10
554.2460765867
 20
483.5527472966
 30
0
 11
549.9159500181
 21
476.0527488612
 31
0
  0
LINE
  8
0
 62
7
 10
545.5858229837
 20
483.5527472966
 30
0
 11
554.2460765867
 21
483.5527472966
 31
0
  0
LINE
  8
0
 62
7
 10
542.3556959434
 20
477.3027476691
 30
0
 11
542.3556959434
 21
481.5527488314
 31
0
  0
LINE
  8
0
 62
7
 10
542.3556959434
 20
474.8027481907
 30
0
 11
542.3556959434
 21
470.552748891
 31
0
  0
LINE
  8
0
 62
7
 10
546.7556959196
 20
474.8027481907
 30
0
 11
542.3556959434
 21
474.8027481907
 31
0
  0
LINE
  8
0
 62
7
 10
546.7556959196
 20
477.3027476691
 30
0
 11
546.7556959196
 21
474.8027481907
 31
0
  0
LINE
  8
0
 62
7
 10
542.3556959434
 20
477.3027476691
 30
0
 11
546.7556959196
 21
477.3027476691
 31
0
  0
LINE
  8
0
 62
7
 10
542.3556959434
 20
481.5527488314
 30
0
 11
540.1556959554
 21
481.5527488314
 31
0
  0
LINE
  8
0
 62
7
 10
540.1556959554
 20
477.3027476691
 30
0
 11
540.1556959554
 21
481.5527488314
 31
0
  0
LINE
  8
0
 62
7
 10
540.1556959554
 20
477.3027476691
 30
0
 11
535.7556959792
 21
477.3027476691
 31
0
  0
LINE
  8
0
 62
7
 10
535.7556959792
 20
477.3027476691
 30
0
 11
535.7556959792
 21
474.8027481907
 31
0
  0
LINE
  8
0
 62
7
 10
535.7556959792
 20
474.8027481907
 30
0
 11
540.1556959554
 21
474.8027481907
 31
0
  0
LINE
  8
0
 62
7
 10
540.1556959554
 20
474.8027481907
 30
0
 11
540.1556959554
 21
470.552748891
 31
0
  0
LINE
  8
0
 62
7
 10
542.3556959434
 20
470.552748891
 30
0
 11
540.1556959554
 21
470.552748891
 31
0
  0
LINE
  8
0
 62
7
 10
679.2556924923
 20
351.0527469986
 30
0
 11
679.2556924923
 21
556.5527462237
 31
0
  0
LINE
  8
0
 62
7
 10
661.2556932671999
 20
351.0527469986
 30
0
 11
661.2556932671999
 21
556.5527462237
 31
0
  0
LINE
  8
0
 62
7
 10
661.2556932671999
 20
351.0527469986
 30
0
 11
679.2556924923
 21
351.0527469986
 31
0
  0
LINE
  8
0
 62
7
 10
165.3176380499
 20
496.3030674331
 30
0
 11
165.3176380499
 21
495.5527492635
 31
0
  0
LINE
  8
0
 62
7
 10
218.8108993872
 20
405.7266981177
 30
0
 11
218.8108993872
 21
405.8024295442
 31
0
  0
LINE
  8
0
 62
7
 10
205.1195634707
 20
496.8644649558
 30
0
 11
205.1195634707
 21
495.5527492635
 31
0
  0
LINE
  8
0
 62
7
 10
215.9544361933
 20
496.8644649558
 30
0
 11
215.9544361933
 21
495.5527492635
 31
0
  0
LINE
  8
0
 62
7
 10
211.9760049685
 20
496.8644649558
 30
0
 11
211.9760049685
 21
495.5527492635
 31
0
  0
LINE
  8
0
 62
7
 10
201.1411322459
 20
496.8644649558
 30
0
 11
201.1411322459
 21
495.5527492635
 31
0
  0
LINE
  8
0
 62
7
 10
201.7336620196
 20
496.8868055217
 30
0
 11
201.7336620196
 21
495.5527492635
 31
0
  0
LINE
  8
0
 62
7
 10
212.5685347422
 20
496.8868055217
 30
0
 11
212.5685347422
 21
495.5527492635
 31
0
  0
LINE
  8
0
 62
7
 10
205.79673184
 20
496.8868055217
 30
0
 11
205.79673184
 21
495.5527492635
 31
0
  0
LINE
  8
0
 62
7
 10
216.6316343649
 20
496.8868055217
 30
0
 11
216.6316343649
 21
495.5527492635
 31
0
  0
LINE
  8
0
 62
7
 10
204.2730881079
 20
496.9009094708
 30
0
 11
204.2730881079
 21
495.5527492635
 31
0
  0
LINE
  8
0
 62
7
 10
200.2099884852
 20
496.9009094708
 30
0
 11
200.2099884852
 21
495.5527492635
 31
0
  0
LINE
  8
0
 62
7
 10
215.1079608305
 20
496.9009094708
 30
0
 11
215.1079608305
 21
495.5527492635
 31
0
  0
LINE
  8
0
 62
7
 10
211.0448910101
 20
496.9009094708
 30
0
 11
211.0448910101
 21
495.5527492635
 31
0
  0
LINE
  8
0
 62
7
 10
179.7337366446
 20
497.0463746064
 30
0
 11
179.7337366446
 21
496.8650162988
 31
0
  0
LINE
  8
0
 62
7
 10
181.9188131197
 20
497.0463746064
 30
0
 11
181.9188131197
 21
496.6572345071
 31
0
  0
LINE
  8
0
 62
7
 10
184.8943067892
 20
497.0317751937
 30
0
 11
184.8943067892
 21
496.3989340537
 31
0
  0
LINE
  8
0
 62
7
 10
186.330748926
 20
497.0462479465
 30
0
 11
186.330748926
 21
496.5584509843
 31
0
  0
LINE
  8
0
 62
7
 10
281.2557054861
 20
497.0527485781
 30
0
 11
281.2557054861
 21
495.5527492635
 31
0
  0
LINE
  8
0
 62
7
 10
231.2556935652
 20
495.5077812843
 30
0
 11
231.2556935652
 21
497.0527485781
 31
0
  0
LINE
  8
0
 62
7
 10
266.2556899889
 20
497.0092483633
 30
0
 11
231.2556935652
 21
497.0092483633
 31
0
  0
LINE
  8
0
 62
7
 10
266.2556899889
 20
495.2709571295
 30
0
 11
266.2556899889
 21
497.0092483633
 31
0
  0
LINE
  8
0
 62
7
 10
199.6174587115
 20
497.0527485781
 30
0
 11
199.6174587115
 21
495.1699347072
 31
0
  0
LINE
  8
0
 62
7
 10
197.8147758349
 20
495.1699347072
 30
0
 11
197.8147758349
 21
497.0527485781
 31
0
  0
LINE
  8
0
 62
7
 10
199.6174587115
 20
496.6825180524
 30
0
 11
197.8147758349
 21
496.6825180524
 31
0
  0
LINE
  8
0
 62
7
 10
201.8778754576
 20
497.0527485781
 30
0
 11
201.8778754576
 21
495.1699347072
 31
0
  0
LINE
  8
0
 62
7
 10
203.6805583342
 20
497.0527485781
 30
0
 11
203.6805583342
 21
495.1699347072
 31
0
  0
LINE
  8
0
 62
7
 10
203.6805583342
 20
496.6825180524
 30
0
 11
201.8778754576
 21
496.6825180524
 31
0
  0
LINE
  8
0
 62
7
 10
206.0256136759
 20
497.0527485781
 30
0
 11
206.0256136759
 21
495.1699347072
 31
0
  0
LINE
  8
0
 62
7
 10
207.8282667502
 20
497.0527485781
 30
0
 11
207.8282667502
 21
495.1699347072
 31
0
  0
LINE
  8
0
 62
7
 10
207.8282667502
 20
496.6825180524
 30
0
 11
206.0256136759
 21
496.6825180524
 31
0
  0
LINE
  8
0
 62
7
 10
218.6631692751
 20
497.0527485781
 30
0
 11
218.6631692751
 21
495.1699347072
 31
0
  0
LINE
  8
0
 62
7
 10
208.6496783598
 20
495.1699347072
 30
0
 11
208.6496783598
 21
497.0527485781
 31
0
  0
LINE
  8
0
 62
7
 10
210.4523612364
 20
496.6825180524
 30
0
 11
208.6496783598
 21
496.6825180524
 31
0
  0
LINE
  8
0
 62
7
 10
210.4523612364
 20
497.0527485781
 30
0
 11
210.4523612364
 21
495.1699347072
 31
0
  0
LINE
  8
0
 62
7
 10
216.8604863985
 20
495.1699347072
 30
0
 11
216.8604863985
 21
497.0527485781
 31
0
  0
LINE
  8
0
 62
7
 10
218.6631692751
 20
496.6825180524
 30
0
 11
216.8604863985
 21
496.6825180524
 31
0
  0
LINE
  8
0
 62
7
 10
212.7127481802
 20
497.0527485781
 30
0
 11
212.7127481802
 21
495.1699347072
 31
0
  0
LINE
  8
0
 62
7
 10
214.5154310568
 20
497.0527485781
 30
0
 11
214.5154310568
 21
495.1699347072
 31
0
  0
LINE
  8
0
 62
7
 10
214.5154310568
 20
496.6825180524
 30
0
 11
212.7127481802
 21
496.6825180524
 31
0
  0
LINE
  8
0
 62
7
 10
189.7166503771
 20
496.9599515968
 30
0
 11
189.7166503771
 21
495.4568155878
 31
0
  0
LINE
  8
0
 62
7
 10
229.0712131365
 20
405.0530203455
 30
0
 11
229.0712131365
 21
406.5530271106
 31
0
  0
LINE
  8
0
 62
7
 10
179.2511476382
 20
496.8650162988
 30
0
 11
179.2511476382
 21
495.358661639
 31
0
  0
LINE
  8
0
 62
7
 10
168.3048440321
 20
496.3030674331
 30
0
 11
165.3176380499
 21
496.3030674331
 31
0
  0
LINE
  8
0
 62
7
 10
167.8827239378
 20
495.9995047026
 30
0
 11
167.8827239378
 21
494.463124203
 31
0
  0
LINE
  8
0
 62
7
 10
170.2425910338
 20
495.9995047026
 30
0
 11
167.8827239378
 21
495.9995047026
 31
0
  0
LINE
  8
0
 62
7
 10
170.2425910338
 20
495.9995047026
 30
0
 11
170.2425910338
 21
494.463124203
 31
0
  0
LINE
  8
0
 62
7
 10
175.0649346217
 20
496.3414490991
 30
0
 11
175.0649346217
 21
495.5527492635
 31
0
  0
LINE
  8
0
 62
7
 10
187.7671910628
 20
496.2870039814
 30
0
 11
187.7671910628
 21
494.7607339196
 31
0
  0
LINE
  8
0
 62
7
 10
179.2511476382
 20
496.8650162988
 30
0
 11
181.6110147341
 21
496.8650162988
 31
0
  0
LINE
  8
0
 62
7
 10
179.7337366446
 20
497.0463746064
 30
0
 11
179.7766817911
 21
497.0527485781
 31
0
  0
LINE
  8
0
 62
7
 10
181.9188131197
 20
497.0463746064
 30
0
 11
179.7337366446
 21
497.0463746064
 31
0
  0
LINE
  8
0
 62
7
 10
180.8927787646
 20
496.248603689
 30
0
 11
180.8927787646
 21
494.7209925227
 31
0
  0
LINE
  8
0
 62
7
 10
184.2786802157
 20
495.9995047026
 30
0
 11
184.2786802157
 21
494.463124203
 31
0
  0
LINE
  8
0
 62
7
 10
213.8745321139
 20
406.2007860117
 30
0
 11
218.8108993872
 21
406.2007860117
 31
0
  0
LINE
  8
0
 62
7
 10
213.8745321139
 20
405.0527483993
 30
0
 11
213.8745321139
 21
407.7405267232
 31
0
  0
LINE
  8
0
 62
7
 10
217.2452343806
 20
405.7266981177
 30
0
 11
218.8108993872
 21
405.7266981177
 31
0
  0
LINE
  8
0
 62
7
 10
217.2452343806
 20
405.8024295442
 30
0
 11
217.2452343806
 21
405.0527483993
 31
0
  0
LINE
  8
0
 62
7
 10
218.8108993872
 20
405.8024295442
 30
0
 11
217.2452343806
 21
405.8024295442
 31
0
  0
LINE
  8
0
 62
7
 10
225.7954908713
 20
405.8198974304
 30
0
 11
225.7954908713
 21
407.3462159209
 31
0
  0
LINE
  8
0
 62
7
 10
364.2556948765
 20
410.2488280111
 30
0
 11
364.2556948765
 21
405.4646760993
 31
0
  0
LINE
  8
0
 62
7
 10
378.255693446
 20
405.4646760993
 30
0
 11
378.255693446
 21
420.9037841134
 31
0
  0
LINE
  8
0
 62
7
 10
348.2556922539
 20
412.5435286038
 30
0
 11
348.2556922539
 21
410.2488280111
 31
0
  0
LINE
  8
0
 62
7
 10
378.255693446
 20
420.9037841134
 30
0
 11
378.255693446
 21
438.8597615831
 31
0
  0
LINE
  8
0
 62
7
 10
378.255693446
 20
420.9037841134
 30
0
 11
347.963674198
 21
420.9037841134
 31
0
  0
LINE
  8
0
 62
7
 10
348.2556922539
 20
412.5435286038
 30
0
 11
343.4150202378
 21
412.5435286038
 31
0
  0
LINE
  8
0
 62
7
 10
218.8108993872
 20
407.7405267232
 30
0
 11
213.8745321139
 21
407.7405267232
 31
0
  0
LINE
  8
0
 62
7
 10
167.8827239378
 20
494.463124203
 30
0
 11
170.2425910338
 21
494.463124203
 31
0
  0
LINE
  8
0
 62
7
 10
216.8604863985
 20
495.1699347072
 30
0
 11
218.6631692751
 21
495.1699347072
 31
0
  0
LINE
  8
0
 62
7
 10
212.7127481802
 20
495.1699347072
 30
0
 11
214.5154310568
 21
495.1699347072
 31
0
  0
LINE
  8
0
 62
7
 10
208.6496783598
 20
495.1699347072
 30
0
 11
210.4523612364
 21
495.1699347072
 31
0
  0
LINE
  8
0
 62
7
 10
206.0256136759
 20
495.1699347072
 30
0
 11
207.8282667502
 21
495.1699347072
 31
0
  0
LINE
  8
0
 62
7
 10
201.8778754576
 20
495.1699347072
 30
0
 11
203.6805583342
 21
495.1699347072
 31
0
  0
LINE
  8
0
 62
7
 10
197.8147758349
 20
495.1699347072
 30
0
 11
199.6174587115
 21
495.1699347072
 31
0
  0
LINE
  8
0
 62
7
 10
231.2556935652
 20
495.5077812843
 30
0
 11
266.2556899889
 21
495.5077812843
 31
0
  0
LINE
  8
0
 62
7
 10
348.2556922539
 20
497.5527495914
 30
0
 11
348.2556922539
 21
421.3346157991
 31
0
  0
LINE
  8
0
 62
7
 10
348.2556922539
 20
410.2488280111
 30
0
 11
348.2556922539
 21
404.552747386
 31
0
  0
LINE
  8
0
 62
7
 10
348.2556922539
 20
410.2488280111
 30
0
 11
364.2556948765
 21
410.2488280111
 31
0
  0
LINE
  8
0
 62
7
 10
378.255693446
 20
405.4646760993
 30
0
 11
378.255693446
 21
400.302749949
 31
0
  0
LINE
  8
0
 62
7
 10
364.2556948765
 20
405.4646760993
 30
0
 11
378.255693446
 21
405.4646760993
 31
0
  0
LINE
  8
0
 62
7
 10
51.2556864127
 20
513.5527484887
 30
0
 11
51.2556864127
 21
451.0527484887
 31
0
  0
LINE
  8
0
 62
7
 10
51.2556864127
 20
451.0527484887
 30
0
 11
51.2556864127
 21
388.5527484887
 31
0
  0
LINE
  8
0
 62
7
 10
53.2556904658
 20
556.5527462237
 30
0
 11
53.2556904658
 21
351.0527469986
 31
0
  0
LINE
  8
0
 62
7
 10
71.25569714149999
 20
351.0527469986
 30
0
 11
53.2556904658
 21
351.0527469986
 31
0
  0
LINE
  8
0
 62
7
 10
71.25569714149999
 20
556.5527462237
 30
0
 11
71.25569714149999
 21
351.0527469986
 31
0
  0
LINE
  8
0
 62
7
 10
354.755697976
 20
400.290136116
 30
0
 11
354.755697976
 21
405.4506354802
 31
0
  0
LINE
  8
0
 62
7
 10
359.7556932076
 20
386.5527518861
 30
0
 11
359.7556932076
 21
390.5303560965
 31
0
  0
LINE
  8
0
 62
7
 10
354.755697976
 20
409.1127895587
 30
0
 11
364.2556948765
 21
409.1127895587
 31
0
  0
LINE
  8
0
 62
7
 10
354.755697976
 20
409.1127895587
 30
0
 11
354.755697976
 21
405.4506354802
 31
0
  0
LINE
  8
0
 62
7
 10
359.7556932076
 20
390.5303560965
 30
0
 11
399.7556997641
 21
390.5303560965
 31
0
  0
LINE
  8
0
 62
7
 10
404.7556949957
 20
406.532705652
 30
0
 11
404.7556949957
 21
409.1127895587
 31
0
  0
LINE
  8
0
 62
7
 10
395.2556980952
 20
409.1127895587
 30
0
 11
404.7556949957
 21
409.1127895587
 31
0
  0
LINE
  8
0
 62
7
 10
395.2556980952
 20
405.4646760993
 30
0
 11
395.2556980952
 21
409.1127895587
 31
0
  0
LINE
  8
0
 62
7
 10
394.3800611599
 20
405.4646760993
 30
0
 11
395.2556980952
 21
405.4646760993
 31
0
  0
LINE
  8
0
 62
7
 10
370.7602305516
 20
395.8897189074
 30
0
 11
388.7511624201
 21
395.8897189074
 31
0
  0
LINE
  8
0
 62
7
 10
365.1313318117
 20
405.4646760993
 30
0
 11
367.9885996683
 21
397.89253928
 31
0
  0
LINE
  8
0
 62
7
 10
364.2556948765
 20
405.4646760993
 30
0
 11
365.1313318117
 21
405.4646760993
 31
0
  0
LINE
  8
0
 62
7
 10
364.2556948765
 20
409.1127895587
 30
0
 11
364.2556948765
 21
405.4646760993
 31
0
  0
LINE
  8
0
 62
7
 10
399.7556997641
 20
390.5303560965
 30
0
 11
404.4240100487
 21
404.4383250945
 31
0
  0
LINE
  8
0
 62
7
 10
399.7556997641
 20
386.5527518861
 30
0
 11
399.7556997641
 21
390.5303560965
 31
0
  0
LINE
  8
0
 62
7
 10
404.7556949957
 20
406.532705652
 30
0
 11
404.7556949957
 21
401.2599334889
 31
0
  0
LINE
  8
0
 62
7
 10
391.5227933033
 20
397.89253928
 30
0
 11
394.3800611599
 21
405.4646760993
 31
0
  0
LINE
  8
0
 62
7
 10
404.7556949957
 20
500.8455634885
 30
0
 11
404.7556949957
 21
451.0527484887
 31
0
  0
LINE
  8
0
 62
7
 10
399.7556997641
 20
445.6849260092
 30
0
 11
399.7556997641
 21
456.4205709681
 31
0
  0
LINE
  8
0
 62
7
 10
359.7556932076
 20
445.6849260092
 30
0
 11
359.7556932076
 21
456.4205709681
 31
0
  0
LINE
  8
0
 62
7
 10
387.218458782
 20
438.0111190327
 30
0
 11
383.8675303562
 21
438.5128187784
 31
0
  0
LINE
  8
0
 62
7
 10
354.755697976
 20
501.8153608613
 30
0
 11
354.755697976
 21
451.0527484887
 31
0
  0
LINE
  8
0
 62
7
 10
392.0772208079
 20
437.0841848501
 30
0
 11
393.3293802841
 21
436.8144458928
 31
0
  0
LINE
  8
0
 62
7
 10
366.2396354779
 20
436.2962421798
 30
0
 11
367.4827648505
 21
436.7811147891
 31
0
  0
LINE
  8
0
 62
7
 10
373.7556917771
 20
501.552750247
 30
0
 11
385.7557011946
 21
501.552750247
 31
0
  0
LINE
  8
0
 62
7
 10
364.7557033404
 20
405.4646760993
 30
0
 11
368.7669767245
 21
405.4646760993
 31
0
  0
LINE
  8
0
 62
7
 10
390.7444162472
 20
405.4646760993
 30
0
 11
394.7556896313
 21
405.4646760993
 31
0
  0
LINE
  8
0
 62
7
 10
372.4498583182
 20
399.3456446402
 30
0
 11
387.0615346535
 21
399.3456446402
 31
0
  0
LINE
  8
0
 62
7
 10
368.2035787209
 20
437.0384597056
 30
0
 11
366.8754829272
 21
436.5026735537
 31
0
  0
LINE
  8
0
 62
7
 10
368.2035787209
 20
397.8886836045
 30
0
 11
364.7557033404
 21
405.4646760993
 31
0
  0
LINE
  8
0
 62
7
 10
394.7556896313
 20
405.4646760993
 30
0
 11
391.3078142508
 21
397.8886836045
 31
0
  0
LINE
  8
0
 62
7
 10
388.6240704163
 20
396.0937642329
 30
0
 11
370.8873225554
 21
396.0937642329
 31
0
  0
LINE
  8
0
 62
7
 10
391.3078142508
 20
437.2423131787
 30
0
 11
391.1861164673
 21
437.2666104533
 31
0
  0
LINE
  8
0
 62
7
 10
458.2556991084
 20
577.0527505152001
 30
0
 11
458.2556991084
 21
552.0527520054
 31
0
  0
LINE
  8
0
 62
7
 10
624.2556927903
 20
552.0527520054
 30
0
 11
624.2556927903
 21
577.0527505152001
 31
0
  0
LINE
  8
0
 62
7
 10
599.4037522181
 20
586.0527538530999
 30
0
 11
599.4037522181
 21
584.0527498
 31
0
  0
LINE
  8
0
 62
7
 10
623.403756152
 20
577.3507737391
 30
0
 11
623.403756152
 21
586.0527538530999
 31
0
  0
LINE
  8
0
 62
7
 10
459.1076357468
 20
586.0527538530999
 30
0
 11
459.1076357468
 21
577.3507737391
 31
0
  0
LINE
  8
0
 62
7
 10
483.1076396807
 20
584.0527498
 30
0
 11
483.1076396807
 21
586.0527538530999
 31
0
  0
LINE
  8
0
 62
7
 10
529.2556958451
 20
586.0527538530999
 30
0
 11
529.2556958451
 21
580.8244430297
 31
0
  0
LINE
  8
0
 62
7
 10
553.2556960537
 20
580.8244430297
 30
0
 11
553.2556960537
 21
586.0527538530999
 31
0
  0
LINE
  8
0
 62
7
 10
599.2556942805001
 20
607.7027552598
 30
0
 11
599.2556942805001
 21
609.7027444117
 31
0
  0
LINE
  8
0
 62
7
 10
488.2556965752
 20
609.7027444117
 30
0
 11
488.2556965752
 21
608.2027488225
 31
0
  0
LINE
  8
0
 62
7
 10
594.2556953235001
 20
590.2027421467
 30
0
 11
594.2556953235001
 21
607.7027552598
 31
0
  0
LINE
  8
0
 62
7
 10
359.7556932076
 20
515.5527450912
 30
0
 11
354.755697976
 21
501.8153608613
 31
0
  0
LINE
  8
0
 62
7
 10
404.4240100487
 20
502.7266749017
 30
0
 11
399.7556997641
 21
515.5527450912
 31
0
  0
LINE
  8
0
 62
7
 10
399.7556997641
 20
515.5527450912
 30
0
 11
359.7556932076
 21
515.5527450912
 31
0
  0
LINE
  8
0
 62
7
 10
370.7557005986
 20
491.5527486079
 30
0
 11
370.2540977104
 21
491.2631519907
 31
0
  0
LINE
  8
0
 62
7
 10
389.2572952612
 20
491.2631519907
 30
0
 11
388.7556923731
 21
491.5527486079
 31
0
  0
LINE
  8
0
 62
7
 10
601.9037535592
 20
594.0527551644
 30
0
 11
600.4340967341
 21
593.2042383425001
 31
0
  0
LINE
  8
0
 62
7
 10
622.3734079107001
 20
593.2042383425001
 30
0
 11
620.9037510856
 21
594.0527551644
 31
0
  0
LINE
  8
0
 62
7
 10
617.4037514432
 20
541.0527520650001
 30
0
 11
617.4037514432
 21
542.0527466409
 31
0
  0
LINE
  8
0
 62
7
 10
605.4037569269
 20
542.0527466409
 30
0
 11
605.4037569269
 21
541.0527520650001
 31
0
  0
LINE
  8
0
 62
7
 10
531.7556962549
 20
594.0527551644
 30
0
 11
530.2860412924
 21
593.2042383425001
 31
0
  0
LINE
  8
0
 62
7
 10
552.2253506063
 20
593.2042383425001
 30
0
 11
550.7556956439
 21
594.0527551644
 31
0
  0
LINE
  8
0
 62
7
 10
547.2556960015
 20
541.0527520650001
 30
0
 11
547.2556960015
 21
542.0527466409
 31
0
  0
LINE
  8
0
 62
7
 10
535.2556958972
 20
542.0527466409
 30
0
 11
535.2556958972
 21
541.0527520650001
 31
0
  0
LINE
  8
0
 62
7
 10
461.6076408132
 20
594.0527551644
 30
0
 11
460.1379839881
 21
593.2042383425001
 31
0
  0
LINE
  8
0
 62
7
 10
482.0772951647
 20
593.2042383425001
 30
0
 11
480.6076383396
 21
594.0527551644
 31
0
  0
LINE
  8
0
 62
7
 10
477.1076349719
 20
541.0527520650001
 30
0
 11
477.1076349719
 21
542.0527466409
 31
0
  0
LINE
  8
0
 62
7
 10
465.1076404556
 20
542.0527466409
 30
0
 11
465.1076404556
 21
541.0527520650001
 31
0
  0
LINE
  8
0
 62
7
 10
550.7556956439
 20
542.0527466409
 30
0
 11
550.7701413884
 21
542.0610912912
 31
0
  0
LINE
  8
0
 62
7
 10
404.7556949957
 20
404.552747386
 30
0
 11
411.2557007178
 21
404.552747386
 31
0
  0
LINE
  8
0
 62
7
 10
411.2557007178
 20
497.5527495914
 30
0
 11
404.7556949957
 21
497.5527495914
 31
0
  0
LINE
  8
0
 62
7
 10
381.2556995257
 20
400.302749949
 30
0
 11
387.7444250687
 21
400.302749949
 31
0
  0
LINE
  8
0
 62
7
 10
605.2556989892
 20
542.0291506522
 30
0
 11
605.2556989892
 21
542.0527466409
 31
0
  0
LINE
  8
0
 62
7
 10
681.2556965454
 20
513.5527484887
 30
0
 11
679.2556924923
 21
515.5527450912
 31
0
  0
LINE
  8
0
 62
7
 10
679.2556924923
 20
386.5527518861
 30
0
 11
681.2556965454
 21
388.5527484887
 31
0
  0
LINE
  8
0
 62
7
 10
679.2556924923
 20
556.5527462237
 30
0
 11
661.2556932671999
 21
556.5527462237
 31
0
  0
LINE
  8
0
 62
7
 10
281.2557054861
 20
497.0527485781
 30
0
 11
231.2556935652
 21
497.0527485781
 31
0
  0
LINE
  8
0
 62
7
 10
207.8282667502
 20
497.0527485781
 30
0
 11
206.0256136759
 21
497.0527485781
 31
0
  0
LINE
  8
0
 62
7
 10
203.6805583342
 20
497.0527485781
 30
0
 11
201.8778754576
 21
497.0527485781
 31
0
  0
LINE
  8
0
 62
7
 10
199.6174587115
 20
497.0527485781
 30
0
 11
197.8147758349
 21
497.0527485781
 31
0
  0
LINE
  8
0
 62
7
 10
218.6631692751
 20
497.0527485781
 30
0
 11
216.8604863985
 21
497.0527485781
 31
0
  0
LINE
  8
0
 62
7
 10
214.5154310568
 20
497.0527485781
 30
0
 11
212.7127481802
 21
497.0527485781
 31
0
  0
LINE
  8
0
 62
7
 10
210.4523612364
 20
497.0527485781
 30
0
 11
208.6496783598
 21
497.0527485781
 31
0
  0
LINE
  8
0
 62
7
 10
172.8873683317
 20
497.0527485781
 30
0
 11
170.6075502737
 21
497.0527485781
 31
0
  0
LINE
  8
0
 62
7
 10
189.2273260458
 20
497.0527485781
 30
0
 11
186.7841316565
 21
497.0527485781
 31
0
  0
LINE
  8
0
 62
7
 10
182.4524535044
 20
497.0527485781
 30
0
 11
179.7766817911
 21
497.0527485781
 31
0
  0
LINE
  8
0
 62
7
 10
213.8745321139
 20
405.0527483993
 30
0
 11
217.2452343806
 21
405.0527483993
 31
0
  0
LINE
  8
0
 62
7
 10
225.5030406817
 20
405.0527483993
 30
0
 11
229.0621830328
 21
405.0527483993
 31
0
  0
LINE
  8
0
 62
7
 10
93.6882926329
 20
406.5527477138
 30
0
 11
213.8745321139
 21
406.5527477138
 31
0
  0
LINE
  8
0
 62
7
 10
229.0712131365
 20
406.5527477138
 30
0
 11
348.2556922539
 21
406.5527477138
 31
0
  0
LINE
  8
0
 62
7
 10
348.2556922539
 20
495.5527492635
 30
0
 11
281.2557054861
 21
495.5527492635
 31
0
  0
LINE
  8
0
 62
7
 10
231.2556935652
 20
495.5527492635
 30
0
 11
218.6631692751
 21
495.5527492635
 31
0
  0
LINE
  8
0
 62
7
 10
216.8604863985
 20
495.5527492635
 30
0
 11
214.5154310568
 21
495.5527492635
 31
0
  0
LINE
  8
0
 62
7
 10
212.7127481802
 20
495.5527492635
 30
0
 11
210.4523612364
 21
495.5527492635
 31
0
  0
LINE
  8
0
 62
7
 10
208.6496783598
 20
495.5527492635
 30
0
 11
207.8282667502
 21
495.5527492635
 31
0
  0
LINE
  8
0
 62
7
 10
206.0256136759
 20
495.5527492635
 30
0
 11
203.6805583342
 21
495.5527492635
 31
0
  0
LINE
  8
0
 62
7
 10
201.8778754576
 20
495.5527492635
 30
0
 11
199.6174587115
 21
495.5527492635
 31
0
  0
LINE
  8
0
 62
7
 10
197.8147758349
 20
495.5527492635
 30
0
 11
189.7166503771
 21
495.5527492635
 31
0
  0
LINE
  8
0
 62
7
 10
179.2511476382
 20
495.5527492635
 30
0
 11
172.8873683317
 21
495.5527492635
 31
0
  0
LINE
  8
0
 62
7
 10
167.8827239378
 20
495.5527492635
 30
0
 11
93.6882926329
 21
495.5527492635
 31
0
  0
LINE
  8
0
 62
7
 10
348.2556922539
 20
404.552747386
 30
0
 11
354.755697976
 21
404.552747386
 31
0
  0
LINE
  8
0
 62
7
 10
354.755697976
 20
497.5527495914
 30
0
 11
348.2556922539
 21
497.5527495914
 31
0
  0
LINE
  8
0
 62
7
 10
91.17193354210001
 20
495.8745249384
 30
0
 11
78.7393583163
 21
499.1069965832
 31
0
  0
LINE
  8
0
 62
7
 10
78.7393583163
 20
402.9985003941
 30
0
 11
91.17193354210001
 21
406.230972039
 31
0
  0
LINE
  8
0
 62
7
 10
371.766967903
 20
400.302749949
 30
0
 11
378.255693446
 21
400.302749949
 31
0
  0
LINE
  8
0
 62
7
 10
51.2556864127
 20
388.5527484887
 30
0
 11
53.2556904658
 21
386.5527518861
 31
0
  0
LINE
  8
0
 62
7
 10
53.2556904658
 20
515.5527450912
 30
0
 11
51.2556864127
 21
513.5527484887
 31
0
  0
LINE
  8
0
 62
7
 10
71.25569714149999
 20
556.5527462237
 30
0
 11
53.2556904658
 21
556.5527462237
 31
0
  0
LINE
  8
0
 62
7
 10
354.755697976
 20
400.290136116
 30
0
 11
359.7556932076
 21
386.5527518861
 31
0
  0
LINE
  8
0
 62
7
 10
359.7556932076
 20
386.5527518861
 30
0
 11
399.7556997641
 21
386.5527518861
 31
0
  0
LINE
  8
0
 62
7
 10
399.7556997641
 20
386.5527518861
 30
0
 11
404.4240100487
 21
399.3788220756
 31
0
  0
LINE
  8
0
 62
7
 10
373.7556917771
 20
472.0527482056
 30
0
 11
373.7556917771
 21
438.4649152704
 31
0
  0
LINE
  8
0
 62
7
 10
373.7556917771
 20
501.552750247
 30
0
 11
373.7556917771
 21
491.5527486079
 31
0
  0
LINE
  8
0
 62
7
 10
385.7557011946
 20
491.5527486079
 30
0
 11
385.7557011946
 21
501.552750247
 31
0
  0
LINE
  8
0
 62
7
 10
385.7557011946
 20
438.2538095884
 30
0
 11
385.7557011946
 21
472.0527482056
 31
0
  0
LINE
  8
0
 62
7
 10
371.766967903
 20
399.5458640926
 30
0
 11
371.766967903
 21
402.1760494285
 31
0
  0
LINE
  8
0
 62
7
 10
387.7444250687
 20
402.1683865063
 30
0
 11
387.7444250687
 21
399.5065362029
 31
0
  0
LINE
  8
0
 62
7
 10
392.0398543747
 20
399.4971922306
 30
0
 11
388.6364553936
 21
396.0937932495
 31
0
  0
LINE
  8
0
 62
7
 10
392.977417748
 20
401.557287619
 30
0
 11
387.5138952003
 21
396.0937650713
 31
0
  0
LINE
  8
0
 62
7
 10
393.9149811213
 20
403.6173830075
 30
0
 11
386.3913631851
 21
396.0937650713
 31
0
  0
LINE
  8
0
 62
7
 10
394.639740489
 20
405.4646743903
 30
0
 11
385.26883117
 21
396.0937650713
 31
0
  0
LINE
  8
0
 62
7
 10
393.5172084738
 20
405.4646743903
 30
0
 11
384.1462991549
 21
396.0937650713
 31
0
  0
LINE
  8
0
 62
7
 10
392.3946764587
 20
405.4646743903
 30
0
 11
387.9365621894
 21
401.0065601209
 31
0
  0
LINE
  8
0
 62
7
 10
386.2756464993
 20
399.3456444309
 30
0
 11
383.0237671397
 21
396.0937650713
 31
0
  0
LINE
  8
0
 62
7
 10
391.2721444436
 20
405.4646743903
 30
0
 11
387.7657415543
 21
401.958271501
 31
0
  0
LINE
  8
0
 62
7
 10
385.1531144842
 20
399.3456444309
 30
0
 11
381.9012351246
 21
396.0937650713
 31
0
  0
LINE
  8
0
 62
7
 10
390.0440799623
 20
405.3591419241
 30
0
 11
387.9143216487
 21
403.2293836106
 31
0
  0
LINE
  8
0
 62
7
 10
384.0305824691
 20
399.3456444309
 30
0
 11
380.7787031094
 21
396.0937650713
 31
0
  0
LINE
  8
0
 62
7
 10
382.9080504539
 20
399.3456444309
 30
0
 11
379.6561710943
 21
396.0937650713
 31
0
  0
LINE
  8
0
 62
7
 10
381.7855184388
 20
399.3456444309
 30
0
 11
378.5336390792
 21
396.0937650713
 31
0
  0
LINE
  8
0
 62
7
 10
380.6629864237
 20
399.3456444309
 30
0
 11
377.411107064
 21
396.0937650713
 31
0
  0
LINE
  8
0
 62
7
 10
379.5404544085
 20
399.3456444309
 30
0
 11
376.2885750489
 21
396.0937650713
 31
0
  0
LINE
  8
0
 62
7
 10
378.4179223934
 20
399.3456444309
 30
0
 11
375.1660430338
 21
396.0937650713
 31
0
  0
LINE
  8
0
 62
7
 10
377.2953903782
 20
399.3456444309
 30
0
 11
374.0435110186
 21
396.0937650713
 31
0
  0
LINE
  8
0
 62
7
 10
376.1728583631
 20
399.3456444309
 30
0
 11
372.9209790035
 21
396.0937650713
 31
0
  0
LINE
  8
0
 62
7
 10
375.050326348
 20
399.3456444309
 30
0
 11
371.7984469884
 21
396.0937650713
 31
0
  0
LINE
  8
0
 62
7
 10
373.9277943328
 20
399.3456444309
 30
0
 11
370.692695615
 21
396.1105457131
 31
0
  0
LINE
  8
0
 62
7
 10
372.8052623177
 20
399.3456444309
 30
0
 11
369.8067852081
 21
396.3471673213
 31
0
  0
LINE
  8
0
 62
7
 10
371.8830104023
 20
399.5459245306
 30
0
 11
369.109322446
 21
396.7722365743
 31
0
  0
LINE
  8
0
 62
7
 10
371.4760320488
 20
400.2614781922
 30
0
 11
368.5632043248
 21
397.3486504683
 31
0
  0
LINE
  8
0
 62
7
 10
371.7035563921
 20
401.6115345507
 30
0
 11
368.0714368576
 21
397.9794150161
 31
0
  0
LINE
  8
0
 62
7
 10
371.7049890848
 20
402.7354992585
 30
0
 11
367.7827841133
 21
398.813294287
 31
0
  0
LINE
  8
0
 62
7
 10
371.4447937422
 20
403.597835931
 30
0
 11
367.4316951514
 21
399.5847373402
 31
0
  0
LINE
  8
0
 62
7
 10
371.0112973637
 20
404.2868715677
 30
0
 11
367.0806061895
 21
400.3561803935
 31
0
  0
LINE
  8
0
 62
7
 10
370.4422093523
 20
404.8403155715
 30
0
 11
366.7295172276
 21
401.1276234467
 31
0
  0
LINE
  8
0
 62
7
 10
369.7517767648
 20
405.2724149991
 30
0
 11
366.3784282657
 21
401.8990665
 31
0
  0
LINE
  8
0
 62
7
 10
368.8139522483
 20
405.4571224976
 30
0
 11
366.0273393038
 21
402.6705095532
 31
0
  0
LINE
  8
0
 62
7
 10
367.6989721258
 20
405.4646743903
 30
0
 11
365.6762503419
 21
403.4419526065
 31
0
  0
LINE
  8
0
 62
7
 10
366.5764401106
 20
405.4646743903
 30
0
 11
365.3251613801
 21
404.2133956597
 31
0
  0
LINE
  8
0
 62
7
 10
365.4539080955
 20
405.4646743903
 30
0
 11
364.9740724182
 21
404.984838713
 31
0
  0
LINE
  8
0
 62
7
 10
403.5905306095
 20
409.1127914072
 30
0
 11
404.7556959494
 21
407.9476260673
 31
0
  0
LINE
  8
0
 62
7
 10
401.3454665793
 20
409.1127914072
 30
0
 11
404.6773518792
 21
405.7809061072
 31
0
  0
LINE
  8
0
 62
7
 10
399.100402549
 20
409.1127914072
 30
0
 11
404.2608744214
 21
403.9523195348
 31
0
  0
LINE
  8
0
 62
7
 10
396.8553385187
 20
409.1127914072
 30
0
 11
403.6966788514
 21
402.2714510745
 31
0
  0
LINE
  8
0
 62
7
 10
395.2556959494
 20
408.4673699462
 30
0
 11
403.1324832814
 21
400.5905826142
 31
0
  0
LINE
  8
0
 62
7
 10
395.2556959494
 20
406.222305916
 30
0
 11
402.5682877114
 21
398.9097141539
 31
0
  0
LINE
  8
0
 62
7
 10
394.2125601123
 20
405.0203777228
 30
0
 11
402.0040921415
 21
397.2288456936
 31
0
  0
LINE
  8
0
 62
7
 10
393.5978859979
 20
403.3899878069
 30
0
 11
401.4398965715
 21
395.5479772334
 31
0
  0
LINE
  8
0
 62
7
 10
392.9832118836
 20
401.7595978909
 30
0
 11
400.8757010015
 21
393.8671087731
 31
0
  0
LINE
  8
0
 62
7
 10
392.3685377693
 20
400.129207975
 30
0
 11
400.3115054315
 21
392.1862403128
 31
0
  0
LINE
  8
0
 62
7
 10
391.753863655
 20
398.498818059
 30
0
 11
399.7223257755
 21
390.5303559385
 31
0
  0
LINE
  8
0
 62
7
 10
390.9726507686
 20
397.0349669152
 30
0
 11
397.4772617453
 21
390.5303559385
 31
0
  0
LINE
  8
0
 62
7
 10
389.7013870171
 20
396.0611666364
 30
0
 11
395.232197715
 21
390.5303559385
 31
0
  0
LINE
  8
0
 62
7
 10
387.6277722333
 20
395.8897173899
 30
0
 11
392.9871336847
 21
390.5303559385
 31
0
  0
LINE
  8
0
 62
7
 10
385.382708203
 20
395.8897173899
 30
0
 11
390.7420696545
 21
390.5303559385
 31
0
  0
LINE
  8
0
 62
7
 10
383.1376441727
 20
395.8897173899
 30
0
 11
388.4970056242
 21
390.5303559385
 31
0
  0
LINE
  8
0
 62
7
 10
380.8925801425
 20
395.8897173899
 30
0
 11
386.2519415939
 21
390.5303559385
 31
0
  0
LINE
  8
0
 62
7
 10
378.6475161122
 20
395.8897173899
 30
0
 11
384.0068775637
 21
390.5303559385
 31
0
  0
LINE
  8
0
 62
7
 10
363.1793780647
 20
409.1127914072
 30
0
 11
364.2556959494
 21
408.0364735225
 31
0
  0
LINE
  8
0
 62
7
 10
376.4024520819
 20
395.8897173899
 30
0
 11
381.7618135334
 21
390.5303559385
 31
0
  0
LINE
  8
0
 62
7
 10
360.9343140345
 20
409.1127914072
 30
0
 11
364.2556959494
 21
405.7914094922
 31
0
  0
LINE
  8
0
 62
7
 10
364.5824310513
 20
405.4646743903
 30
0
 11
365.4579697947
 21
404.5891356469
 31
0
  0
LINE
  8
0
 62
7
 10
374.1573880517
 20
395.8897173899
 30
0
 11
379.5167495031
 21
390.5303559385
 31
0
  0
LINE
  8
0
 62
7
 10
358.6892500042
 20
409.1127914072
 30
0
 11
366.8201589465
 21
400.9818824649
 31
0
  0
LINE
  8
0
 62
7
 10
371.9123240214
 20
395.8897173899
 30
0
 11
377.2716854729
 21
390.5303559385
 31
0
  0
LINE
  8
0
 62
7
 10
356.4441859739
 20
409.1127914072
 30
0
 11
375.0266214426
 21
390.5303559385
 31
0
  0
LINE
  8
0
 62
7
 10
354.7556959494
 20
408.5562174014
 30
0
 11
372.7815574123
 21
390.5303559385
 31
0
  0
LINE
  8
0
 62
7
 10
354.7556959494
 20
406.3111533711
 30
0
 11
370.5364933821
 21
390.5303559385
 31
0
  0
LINE
  8
0
 62
7
 10
355.4520897203
 20
403.36969557
 30
0
 11
368.2914293518
 21
390.5303559385
 31
0
  0
LINE
  8
0
 62
7
 10
356.5840219269
 20
399.9926993331
 30
0
 11
366.0463653215
 21
390.5303559385
 31
0
  0
LINE
  8
0
 62
7
 10
357.7159541336
 20
396.6157030962
 30
0
 11
363.8013012913
 21
390.5303559385
 31
0
  0
LINE
  8
0
 62
7
 10
358.8478863402
 20
393.2387068593
 30
0
 11
361.556237261
 21
390.5303559385
 31
0
  0
LINE
  8
0
 62
7
 10
378.2556959494
 20
407.0411420928
 30
0
 11
376.6792282468
 21
405.4646743903
 31
0
  0
LINE
  8
0
 62
7
 10
378.2556959494
 20
409.2862061231
 30
0
 11
374.4341642166
 21
405.4646743903
 31
0
  0
LINE
  8
0
 62
7
 10
378.2556959494
 20
411.5312701534
 30
0
 11
372.1891001863
 21
405.4646743903
 31
0
  0
LINE
  8
0
 62
7
 10
378.2556959494
 20
413.7763341836
 30
0
 11
369.944036156
 21
405.4646743903
 31
0
  0
LINE
  8
0
 62
7
 10
378.2556959494
 20
416.0213982139
 30
0
 11
367.6989721258
 21
405.4646743903
 31
0
  0
LINE
  8
0
 62
7
 10
378.2556959494
 20
418.2664622442
 30
0
 11
365.4539080955
 21
405.4646743903
 31
0
  0
LINE
  8
0
 62
7
 10
378.2556959494
 20
420.5115262744
 30
0
 11
364.2556959494
 21
406.5115262744
 31
0
  0
LINE
  8
0
 62
7
 10
376.4028906354
 20
420.9037849907
 30
0
 11
364.2556959494
 21
408.7565903047
 31
0
  0
LINE
  8
0
 62
7
 10
374.1578266052
 20
420.9037849907
 30
0
 11
363.5028687229
 21
410.2488271085
 31
0
  0
LINE
  8
0
 62
7
 10
371.9127625749
 20
420.9037849907
 30
0
 11
361.2578046926
 21
410.2488271085
 31
0
  0
LINE
  8
0
 62
7
 10
369.6676985446
 20
420.9037849907
 30
0
 11
359.0127406624
 21
410.2488271085
 31
0
  0
LINE
  8
0
 62
7
 10
367.4226345144
 20
420.9037849907
 30
0
 11
356.7676766321
 21
410.2488271085
 31
0
  0
LINE
  8
0
 62
7
 10
365.1775704841
 20
420.9037849907
 30
0
 11
354.5226126018
 21
410.2488271085
 31
0
  0
LINE
  8
0
 62
7
 10
362.9325064538
 20
420.9037849907
 30
0
 11
352.2775485716
 21
410.2488271085
 31
0
  0
LINE
  8
0
 62
7
 10
360.6874424235
 20
420.9037849907
 30
0
 11
350.0324845413
 21
410.2488271085
 31
0
  0
LINE
  8
0
 62
7
 10
358.4423783933
 20
420.9037849907
 30
0
 11
348.2556959494
 21
410.7171025469
 31
0
  0
LINE
  8
0
 62
7
 10
356.197314363
 20
420.9037849907
 30
0
 11
347.8370581857
 21
412.5435288134
 31
0
  0
LINE
  8
0
 62
7
 10
353.9522503327
 20
420.9037849907
 30
0
 11
345.5919941554
 21
412.5435288134
 31
0
  0
LINE
  8
0
 62
7
 10
351.7071863025
 20
420.9037849907
 30
0
 11
343.4690506142
 21
412.6656493025
 31
0
  0
LINE
  8
0
 62
7
 10
349.4621222722
 20
420.9037849907
 30
0
 11
345.6547868635
 21
417.096449582
 31
0
  0
LINE
  8
0
 62
7
 10
415.6198257925
 20
410.7293114819
 30
0
 11
414.6832291188
 21
409.7927148083
 31
0
  0
LINE
  8
0
 62
7
 10
415.4753870217
 20
412.8299367414
 30
0
 11
413.0263534187
 21
410.3809031384
 31
0
  0
LINE
  8
0
 62
7
 10
415.2755824565
 20
414.8751962065
 30
0
 11
410.6492133585
 21
410.2488271085
 31
0
  0
LINE
  8
0
 62
7
 10
415.0149021151
 20
416.8595798953
 30
0
 11
408.4041493283
 21
410.2488271085
 31
0
  0
LINE
  8
0
 62
7
 10
413.8750122238
 20
417.9647540343
 30
0
 11
406.159085298
 21
410.2488271085
 31
0
  0
LINE
  8
0
 62
7
 10
412.1573539335
 20
418.4921597742
 30
0
 11
403.9140212677
 21
410.2488271085
 31
0
  0
LINE
  8
0
 62
7
 10
410.4216929822
 20
419.0015628532
 30
0
 11
401.6689572375
 21
410.2488271085
 31
0
  0
LINE
  8
0
 62
7
 10
408.5323867207
 20
419.357320622
 30
0
 11
399.4238932072
 21
410.2488271085
 31
0
  0
LINE
  8
0
 62
7
 10
395.2556959494
 20
406.0806298507
 30
0
 11
394.639740489
 21
405.4646743903
 31
0
  0
LINE
  8
0
 62
7
 10
406.6430804592
 20
419.7130783908
 30
0
 11
397.1788291769
 21
410.2488271085
 31
0
  0
LINE
  8
0
 62
7
 10
395.2556959494
 20
408.325693881
 30
0
 11
392.3946764587
 21
405.4646743903
 31
0
  0
LINE
  8
0
 62
7
 10
404.7537741977
 20
420.0688361596
 30
0
 11
390.1496124284
 21
405.4646743903
 31
0
  0
LINE
  8
0
 62
7
 10
402.7071668007
 20
420.2672927929
 30
0
 11
387.9045483982
 21
405.4646743903
 31
0
  0
LINE
  8
0
 62
7
 10
400.6487552873
 20
420.4539453096
 30
0
 11
385.6594843679
 21
405.4646743903
 31
0
  0
LINE
  8
0
 62
7
 10
398.5903437738
 20
420.6405978264
 30
0
 11
383.4144203376
 21
405.4646743903
 31
0
  0
LINE
  8
0
 62
7
 10
396.4400143568
 20
420.7353324397
 30
0
 11
381.2556959494
 21
405.5510140323
 31
0
  0
LINE
  8
0
 62
7
 10
394.2780066802
 20
420.8183887934
 30
0
 11
381.2556959494
 21
407.7960780626
 31
0
  0
LINE
  8
0
 62
7
 10
392.1159990037
 20
420.9014451471
 30
0
 11
381.2556959494
 21
410.0411420928
 31
0
  0
LINE
  8
0
 62
7
 10
389.8716131604
 20
420.9021233341
 30
0
 11
381.2556959494
 21
412.2862061231
 31
0
  0
LINE
  8
0
 62
7
 10
387.6265491302
 20
420.9021233341
 30
0
 11
381.2556959494
 21
414.5312701534
 31
0
  0
LINE
  8
0
 62
7
 10
385.3814850999
 20
420.9021233341
 30
0
 11
381.2556959494
 21
416.7763341836
 31
0
  0
LINE
  8
0
 62
7
 10
383.1364210696
 20
420.9021233341
 30
0
 11
381.2556959494
 21
419.0213982139
 31
0
  0
LINE
  8
0
 62
7
 10
548.3734651647
 20
857.0283272407
 30
0
 11
553.6060907746769
 21
856.524408695406
 31
0
  0
LINE
  8
0
 62
7
 10
534.1017425238
 20
857.0296161911
 30
0
 11
528.9031169550349
 21
856.5339644945165
 31
0
  0
ARC
  8
0
 62
7
 10
615.2713201866
 20
555.5500571836
 30
0
 40
13.49784325669323
 50
270.5090423604
 51
293.1931967049377
  0
ARC
  8
0
 62
7
 10
615.5111592692999
 20
555.5500571836
 30
0
 40
13.49784325669319
 50
249.5697694487006
 51
269.4909576396
  0
ARC
  8
0
 62
7
 10
606.0878686532999
 20
555.5500571836
 30
0
 40
13.49784325669323
 50
270.5090423604
 51
290.4302305513003
  0
ARC
  8
0
 62
7
 10
606.3277077360001
 20
555.5500571836
 30
0
 40
13.49784325669326
 50
249.5697694486997
 51
269.4909576396
  0
ARC
  8
0
 62
7
 10
545.1232610196
 20
555.5500571836
 30
0
 40
13.49784325669323
 50
270.5090423604
 51
293.193188103396
  0
ARC
  8
0
 62
7
 10
545.3631001023
 20
555.5500571836
 30
0
 40
13.49784325669322
 50
249.5697694487001
 51
269.4909576396
  0
ARC
  8
0
 62
7
 10
535.9398094863
 20
555.5500571836
 30
0
 40
13.49784325669323
 50
270.5090423604
 51
290.4302305513003
  0
ARC
  8
0
 62
7
 10
536.1796485690001
 20
555.5500571836
 30
0
 40
13.49784325669322
 50
249.5697694487001
 51
269.4909576396
  0
ARC
  8
0
 62
7
 10
475.2150409353001
 20
555.5500571836
 30
0
 40
13.49784325669328
 50
249.5697694486995
 51
269.4909576396
  0
ARC
  8
0
 62
7
 10
474.9752018526
 20
555.5500571836
 30
0
 40
13.49784325669323
 50
270.5090423604
 51
293.1931881038582
  0
ARC
  8
0
 62
7
 10
466.0315894020001
 20
555.5500571836
 30
0
 40
13.49784325669328
 50
249.5697694486995
 51
269.4909576396
  0
ARC
  8
0
 62
7
 10
603.2899823243999
 20
588.8300087903
 30
0
 40
5.223978947283792
 50
91.24466311469942
 51
123.1400536300993
  0
ARC
  8
0
 62
7
 10
603.0630417318002
 20
588.8300087903
 30
0
 40
5.22397894728384
 50
56.85994636990069
 51
88.75533688530058
  0
ARC
  8
0
 62
7
 10
619.5175223203003
 20
588.8300087903
 30
0
 40
5.22397894728384
 50
56.85994636990069
 51
88.75533688530058
  0
ARC
  8
0
 62
7
 10
619.7444629129
 20
588.8300087903
 30
0
 40
5.223978947283795
 50
91.24466311470067
 51
123.1400536300993
  0
ARC
  8
0
 62
7
 10
611.2739515020999
 20
575.0624560132
 30
0
 40
18.99074274761215
 50
72.80343562069973
 51
89.60838303239987
  0
ARC
  8
0
 62
7
 10
611.5335531425999
 20
575.0624560132
 30
0
 40
18.99074274761211
 50
90.39161696759979
 51
107.1965643792996
  0
ARC
  8
0
 62
7
 10
549.3694650160003
 20
588.8300087903
 30
0
 40
5.22397894728384
 50
56.85994636990069
 51
88.75533688530058
  0
ARC
  8
0
 62
7
 10
549.5964056086
 20
588.8300087903
 30
0
 40
5.223978947283795
 50
91.24466311470067
 51
123.1400536300993
  0
ARC
  8
0
 62
7
 10
541.1258941977999
 20
575.0624560132
 30
0
 40
18.99074274761215
 50
72.80343562069973
 51
89.60838303239987
  0
ARC
  8
0
 62
7
 10
541.3854958382999
 20
575.0624560132
 30
0
 40
18.99074274761211
 50
90.39161696759979
 51
107.1965643792996
  0
ARC
  8
0
 62
7
 10
532.9149844275003
 20
588.8300087903
 30
0
 40
5.22397894728384
 50
56.85994636990069
 51
88.75533688530058
  0
ARC
  8
0
 62
7
 10
533.1419250201
 20
588.8300087903
 30
0
 40
5.223978947283792
 50
91.24466311469942
 51
123.1400536300993
  0
ARC
  8
0
 62
7
 10
479.2214077117002
 20
588.8300087903
 30
0
 40
5.223978947283869
 50
56.85994636990017
 51
88.75533688529933
  0
ARC
  8
0
 62
7
 10
479.4483483042999
 20
588.8300087903
 30
0
 40
5.223978947283791
 50
91.24466311469881
 51
123.1400536300983
  0
ARC
  8
0
 62
7
 10
470.9778368935
 20
575.0624560132
 30
0
 40
18.9907427476121
 50
72.80343562070021
 51
89.60838303240038
  0
ARC
  8
0
 62
7
 10
462.7669271232003
 20
588.8300087903
 30
0
 40
5.223978947283869
 50
56.85994636990017
 51
88.75533688529933
  0
ARC
  8
0
 62
7
 10
541.2556959494
 20
766.4370753905
 30
0
 40
65.00000000000017
 50
4.897237558599962
 51
164.3815011085957
  0
ARC
  8
0
 62
7
 10
541.2556959494
 20
766.4370753905
 30
0
 40
65.00000000000009
 50
195.6184982755999
 51
195.6184988914897
  0
ARC
  8
0
 62
7
 10
960.0419333063002
 20
579.6516930059
 30
0
 40
14.40157679767673
 50
70.22795632789993
 51
89.51562096440019
  0
ARC
  8
0
 62
7
 10
960.2854325253999
 20
579.6516930059
 30
0
 40
14.40157679767666
 50
90.48437903559983
 51
109.7720436721001
  0
ARC
  8
0
 62
7
 10
950.5419364058002
 20
579.6516930059
 30
0
 40
14.40157679767673
 50
70.22795632789993
 51
89.51562096440019
  0
ARC
  8
0
 62
7
 10
950.7854356249
 20
579.6516930059
 30
0
 40
14.40157679767666
 50
90.48437903559983
 51
109.7720436721001
  0
ARC
  8
0
 62
7
 10
919.5419331871002
 20
579.6516930059
 30
0
 40
14.40157679767673
 50
70.22795632789993
 51
89.51562096440019
  0
ARC
  8
0
 62
7
 10
919.7854324061999
 20
579.6516930059
 30
0
 40
14.40157679767666
 50
90.48437903559983
 51
109.7720436721001
  0
ARC
  8
0
 62
7
 10
910.0419362866003
 20
579.6516930059
 30
0
 40
14.40157679767673
 50
70.22795632789993
 51
89.51562096440019
  0
ARC
  8
0
 62
7
 10
910.2854355057
 20
579.6516930059
 30
0
 40
14.40157679767666
 50
90.48437903559983
 51
109.7720436721001
  0
ARC
  8
0
 62
7
 10
838.5419329487002
 20
579.6516930059
 30
0
 40
14.40157679767673
 50
70.22795632789993
 51
89.51562096440019
  0
ARC
  8
0
 62
7
 10
838.7854321677999
 20
579.6516930059
 30
0
 40
14.40157679767666
 50
90.48437903559983
 51
109.7720436721001
  0
ARC
  8
0
 62
7
 10
829.0419360482002
 20
579.6516930059
 30
0
 40
14.40157679767673
 50
70.22795632789993
 51
89.51562096440019
  0
ARC
  8
0
 62
7
 10
829.2854352672999
 20
579.6516930059
 30
0
 40
14.40157679767666
 50
90.48437903559983
 51
109.7720436721001
  0
ARC
  8
0
 62
7
 10
798.0419365548003
 20
579.6516930059
 30
0
 40
14.40157679767673
 50
70.22795632789993
 51
89.51562096440019
  0
ARC
  8
0
 62
7
 10
798.2854357739
 20
579.6516930059
 30
0
 40
14.40157679767666
 50
90.48437903559983
 51
109.7720436721001
  0
ARC
  8
0
 62
7
 10
788.5419396543003
 20
579.6516930059
 30
0
 40
14.40157679767673
 50
70.22795632789993
 51
89.51562096440019
  0
ARC
  8
0
 62
7
 10
803.8449745747
 20
536.1921685614
 30
0
 40
43.8893791231181
 50
103.1044473754001
 51
111.4103007688
  0
ARC
  8
0
 62
7
 10
942.5389637408
 20
528.3265881762
 30
0
 40
52.10753398889881
 50
69.24557046210003
 51
76.23968139369998
  0
ARC
  8
0
 62
7
 10
899.0775757427
 20
521.5849369541
 30
0
 40
57.82472007494401
 50
73.58509691350004
 51
83.63088248029997
  0
ARC
  8
0
 62
7
 10
849.7498001624
 20
521.5849369541
 30
0
 40
57.824720074944
 50
96.36911751970003
 51
106.4149030865
  0
ARC
  8
0
 62
7
 10
874.4136879526
 20
451.0527484887
 30
0
 40
105.5
 50
288.5822281093
 51
251.4177718907
  0
ARC
  8
0
 62
7
 10
800.0143858009
 20
576.1065270541
 30
0
 40
8.003844145891938
 50
96.87925034720009
 51
118.1298436491998
  0
ARC
  8
0
 62
7
 10
948.8250116993
 20
576.1446441346
 30
0
 40
7.964564973692659
 50
61.81714145100008
 51
83.17376455259961
  0
ARC
  8
0
 62
7
 10
867.3284482248
 20
585.6841899421
 30
0
 40
1.53637414482111
 50
0.6923750106983879
 51
81.26667501299967
  0
ARC
  8
0
 62
7
 10
881.4916035591
 20
585.6905521099
 30
0
 40
1.52898654742326
 50
98.49824846590174
 51
179.5427015104985
  0
ARC
  8
0
 62
7
 10
909.6308797662
 20
588.3237839666
 30
0
 40
8.089058771910322
 50
219.6244149802996
 51
230.8276524295003
  0
ARC
  8
0
 62
7
 10
788.7854388734
 20
579.6516930059
 30
0
 40
14.40157679767666
 50
90.48437903559983
 51
109.7720436721001
  0
ARC
  8
0
 62
7
 10
784.8217792297
 20
546.4284845489
 30
0
 40
4.377262435404163
 50
271.5122255079003
 51
306.3117400705007
  0
ARC
  8
0
 62
7
 10
801.2545209472
 20
548.1769896107001
 30
0
 40
6.125272029197718
 50
271.0502706961
 51
300.5364608590999
  0
ARC
  8
0
 62
7
 10
946.8217797065
 20
546.4284845489
 30
0
 40
4.377262435404163
 50
271.5122255079003
 51
306.3117400705007
  0
ARC
  8
0
 62
7
 10
963.2545214241
 20
548.1769896107001
 30
0
 40
6.125272029197718
 50
271.0502706961
 51
300.5364608591004
  0
ARC
  8
0
 62
7
 10
805.4136879526
 20
547.0527484887
 30
0
 40
5.000000000000114
 50
0
 51
90
  0
ARC
  8
0
 62
7
 10
943.4136879526
 20
547.0527484887
 30
0
 40
5.000000000000114
 50
90
 51
180
  0
ARC
  8
0
 62
7
 10
821.4136879526
 20
588.2027484887
 30
0
 40
2
 50
90
 51
180
  0
ARC
  8
0
 62
7
 10
927.4136879526
 20
588.2027484887
 30
0
 40
2
 50
0
 51
90
  0
ARC
  8
0
 62
7
 10
937.9136879526
 20
585.7027484887
 30
0
 40
1.500000000000114
 50
0
 51
90
  0
ARC
  8
0
 62
7
 10
810.9136879526
 20
585.7027484887
 30
0
 40
1.5
 50
90
 51
180
  0
ARC
  8
0
 62
7
 10
920.4136879526
 20
609.7027484887
 30
0
 40
7
 50
0
 51
90
  0
ARC
  8
0
 62
7
 10
828.4136879526
 20
609.7027484887
 30
0
 40
7
 50
90
 51
180
  0
ARC
  8
0
 62
7
 10
1433.3348964229
 20
766.4370753905104
 30
0
 40
973.0792004735532
 50
179.6859527075006
 51
179.7816184650006
  0
ARC
  8
0
 62
7
 10
541.2556959494
 20
766.4370753905
 30
0
 40
58.00000000000002
 50
167.8574392186999
 51
192.1425607813
  0
ARC
  8
0
 62
7
 10
494.1371367168
 20
771.1577366738
 30
0
 40
12.1568954952105
 50
128.7623120781001
 51
142.0310567239
  0
ARC
  8
0
 62
7
 10
494.2106903296
 20
761.7889562175
 30
0
 40
12.25951727130802
 50
218.0247245639
 51
231.1819066340998
  0
ARC
  8
0
 62
7
 10
462.0757118674
 20
768.3925664149
 30
0
 40
16.78859476694459
 50
186.688843657
 51
197.1677370689001
  0
ARC
  8
0
 62
7
 10
462.0757118674
 20
764.481584366
 30
0
 40
16.78859476694467
 50
162.8322629310999
 51
173.311156343
  0
ARC
  8
0
 62
7
 10
541.2556959494
 20
766.4370753905
 30
0
 40
79.99999999999999
 50
226.4486131294999
 51
253.1046224398
  0
ARC
  8
0
 62
7
 10
541.2556959494
 20
766.4370753905
 30
0
 40
79.99999999999999
 50
286.4486131295
 51
313.5513868704999
  0
ARC
  8
0
 62
7
 10
541.2556959494
 20
766.4370753905
 30
0
 40
79.99999999999999
 50
106.4486131295
 51
133.5513868705
  0
ARC
  8
0
 62
7
 10
541.2556959494
 20
766.4370753905
 30
0
 40
80.00000000000007
 50
46.44861312949999
 51
73.55138687050001
  0
ARC
  8
0
 62
7
 10
512.9401665637
 20
670.5296679831
 30
0
 40
20.00000000000009
 50
27.76566615159988
 51
59.78299275280001
  0
ARC
  8
0
 62
7
 10
610.1561824825
 20
693.9614039172
 30
0
 40
20.00000000000006
 50
87.76566615159997
 51
133.5513868704998
  0
ARC
  8
0
 62
7
 10
472.3552094163
 20
838.9127468638
 30
0
 40
19.99999999999994
 50
267.7656661516001
 51
313.5513868704998
  0
ARC
  8
0
 62
7
 10
569.571225335
 20
862.3444827979
 30
0
 40
19.99999999999999
 50
207.7656661516
 51
253.5513868705001
  0
ARC
  8
0
 62
7
 10
569.571225335
 20
670.5296679831
 30
0
 40
20.00000000000001
 50
106.4486131294999
 51
152.2343338484
  0
ARC
  8
0
 62
7
 10
472.3552094163
 20
693.9614039172
 30
0
 40
19.99999999999992
 50
46.44861312949995
 51
92.23433384839989
  0
ARC
  8
0
 62
7
 10
610.1561824825
 20
838.9127468638
 30
0
 40
20.00000000000008
 50
226.4486131294999
 51
272.2343338484
  0
ARC
  8
0
 62
7
 10
512.9401665637
 20
862.3444827979
 30
0
 40
20.00000000000012
 50
286.4486131294998
 51
332.2343338484001
  0
ARC
  8
0
 62
7
 10
-350.8235045242
 20
766.4370753905
 30
0
 40
975.0792004735531
 50
357.5898518572
 51
2.410148142800002
  0
ARC
  8
0
 62
7
 10
1433.3348964229
 20
766.4370753905
 30
0
 40
975.0792004735531
 50
177.5898518572
 51
182.4101481428
  0
ARC
  8
0
 62
7
 10
461.5008557517
 20
767.7823583156001
 30
0
 40
2.440051418892588
 50
228.0401236267996
 51
276.8816472617001
  0
ARC
  8
0
 62
7
 10
462.4397866381
 20
765.5880029131999
 30
0
 40
1.694634753704499
 50
52.96263412180086
 51
95.39058329470088
  0
ARC
  8
0
 62
7
 10
462.0924133545
 20
767.342520452
 30
0
 40
2.005082982582892
 50
261.4184174441991
 51
313.0253644199004
  0
ARC
  8
0
 62
7
 10
462.0605904852
 20
767.1053744595999
 30
0
 40
2.45423940594613
 50
264.9492650748004
 51
316.6510741876
  0
ARC
  8
0
 62
7
 10
462.0862517226
 20
770.04542496
 30
0
 40
2.628464889693725
 50
47.23581398359916
 51
98.65700205549913
  0
ARC
  8
0
 62
7
 10
461.3048862469
 20
771.8319037058
 30
0
 40
2.591330565853138
 50
226.9501469367991
 51
278.5605594359006
  0
ARC
  8
0
 62
7
 10
462.0339598225
 20
772.038430706
 30
0
 40
2.79019298580127
 50
262.9316614419014
 51
311.1755225190009
  0
ARC
  8
0
 62
7
 10
461.3557685202
 20
769.9175615303
 30
0
 40
2.746868379288995
 50
82.99810099119972
 51
131.4911926359984
  0
ARC
  8
0
 62
7
 10
461.3491390746
 20
772.6001303774
 30
0
 40
2.653530443642657
 50
237.4313457941009
 51
277.3938123719016
  0
ARC
  8
0
 62
7
 10
461.2914459794
 20
769.571628076
 30
0
 40
2.406432497502343
 50
80.45181150170066
 51
124.7230446910004
  0
ARC
  8
0
 62
7
 10
462.040387302
 20
769.2573754762
 30
0
 40
2.710013814722917
 50
57.75798458130048
 51
97.41559629070038
  0
ARC
  8
0
 62
7
 10
462.097665387
 20
772.3957829141
 30
0
 40
2.461014935482885
 50
260.4796321041002
 51
304.3467728512994
  0
ARC
  8
0
 62
7
 10
541.2556959494
 20
766.4370753905
 30
0
 40
74.99999999999999
 50
222.2688989960001
 51
251.9407695092
  0
ARC
  8
0
 62
7
 10
541.2556959494
 20
766.4370753905
 30
0
 40
75.00000000000001
 50
282.268898996
 51
317.731101004
  0
ARC
  8
0
 62
7
 10
541.2556959494
 20
766.4370753905
 30
0
 40
75
 50
162.2688989959999
 51
197.731101004
  0
ARC
  8
0
 62
7
 10
541.2556959494
 20
766.4370753905
 30
0
 40
75.00000000000003
 50
342.268898996
 51
17.73110100399997
  0
ARC
  8
0
 62
7
 10
541.2556959494
 20
766.4370753905
 30
0
 40
64.99999999999999
 50
167.5
 51
192.5
  0
ARC
  8
0
 62
7
 10
541.2556959494
 20
766.4370753905
 30
0
 40
75.00000000000003
 50
42.26889899600002
 51
77.73110100400001
  0
ARC
  8
0
 62
7
 10
541.2556959494
 20
766.4370753905
 30
0
 40
75.00000000000001
 50
102.268898996
 51
137.731101004
  0
ARC
  8
0
 62
7
 10
524.2556959494
 20
688.2641900657
 30
0
 40
5.000000000000114
 50
0
 51
77.73110100399964
  0
ARC
  8
0
 62
7
 10
558.2556959494
 20
688.2641900657
 30
0
 40
5.000000000000077
 50
102.2688989960004
 51
180
  0
ARC
  8
0
 62
7
 10
600.4554005278
 20
712.6282008638
 30
0
 40
5.000000000000017
 50
60.00000000000011
 51
137.7311010039995
  0
ARC
  8
0
 62
7
 10
482.055991371
 20
712.6282008638
 30
0
 40
5.000000000000073
 50
42.26889899599962
 51
119.9999999999999
  0
ARC
  8
0
 62
7
 10
465.055991371
 20
742.0730645924
 30
0
 40
5.000000000000017
 50
299.9999999999998
 51
17.73110100400025
  0
ARC
  8
0
 62
7
 10
617.4554005278
 20
742.0730645924
 30
0
 40
5.000000000000132
 50
162.268898996
 51
240.0000000000001
  0
ARC
  8
0
 62
7
 10
617.4554005278
 20
790.8010861885
 30
0
 40
5.000000000000172
 50
120.0000000000004
 51
197.7311010039996
  0
ARC
  8
0
 62
7
 10
465.055991371
 20
790.8010861885
 30
0
 40
5.000000000000076
 50
342.2688989959997
 51
60.00000000000011
  0
ARC
  8
0
 62
7
 10
600.4554005278
 20
820.2459499172001
 30
0
 40
4.999999999999989
 50
222.2688989960005
 51
299.9999999999998
  0
ARC
  8
0
 62
7
 10
482.055991371
 20
820.2459499172001
 30
0
 40
5.000000000000017
 50
240.0000000000001
 51
317.7311010040004
  0
ARC
  8
0
 62
7
 10
524.2556959494
 20
844.6099607152
 30
0
 40
5.000000000000077
 50
282.2688989960004
 51
0
  0
ARC
  8
0
 62
7
 10
558.2556959494
 20
844.6099607152
 30
0
 40
5
 50
180
 51
257.7311010039994
  0
ARC
  8
0
 62
7
 10
541.2556959494
 20
766.4370753905
 30
0
 40
65.00000000000007
 50
164.3815011085957
 51
164.3815017244
  0
ARC
  8
0
 62
7
 10
541.2556959494
 20
766.4370753905
 30
0
 40
65.00000000000007
 50
195.6184988914897
 51
249.0414597964
  0
ARC
  8
0
 62
7
 10
541.2556959494
 20
766.4370753905
 30
0
 40
65
 50
253.693879841
 51
355.1027624414001
  0
ARC
  8
0
 62
7
 10
600.2556959494
 20
766.4370753905
 30
0
 40
5.250000000000206
 50
256.5054122686996
 51
103.4945877313004
  0
ARC
  8
0
 62
7
 10
600.2556959494
 20
766.4370753905
 30
0
 40
8.000000000000114
 50
270
 51
90
  0
ARC
  8
0
 62
7
 10
541.2556959494
 20
766.4370753905
 30
0
 40
55.00000000000002
 50
195.2729592612
 51
244.9931082523001
  0
ARC
  8
0
 62
7
 10
541.2556959494
 20
766.4370753905
 30
0
 40
55.00000000000003
 50
250.6208310665001
 51
349.0673388552
  0
ARC
  8
0
 62
7
 10
541.2556959494
 20
766.4370753905
 30
0
 40
55
 50
10.93266114479996
 51
164.7270407388
  0
ARC
  8
0
 62
7
 10
600.2556959494
 20
766.4370753905
 30
0
 40
5.00000000000013
 50
261.3730734413005
 51
98.62692655869969
  0
ARC
  8
0
 62
7
 10
480.7556959494
 20
754.2370753905
 30
0
 40
2
 50
180
 51
270
  0
ARC
  8
0
 62
7
 10
480.7556959494
 20
778.6370753904999
 30
0
 40
2
 50
90
 51
180
  0
ARC
  8
0
 62
7
 10
486.5258138008
 20
785.6370753904999
 30
0
 40
5
 50
270
 51
340.6684235940996
  0
ARC
  8
0
 62
7
 10
486.5258138008
 20
747.2370753905
 30
0
 40
5.000000000000043
 50
19.33157640590034
 51
90
  0
ARC
  8
0
 62
7
 10
596.6813217916
 20
758.4370753905
 30
0
 40
2
 50
270
 51
351.7867892982997
  0
ARC
  8
0
 62
7
 10
541.2556959494
 20
766.4370753905
 30
0
 40
57.99999999999989
 50
351.7867892983
 51
8.213210701700012
  0
ARC
  8
0
 62
7
 10
596.6813217916
 20
774.4370753905
 30
0
 40
1.999999999999962
 50
8.213210701700268
 51
90
  0
ARC
  8
0
 62
7
 10
594.9306435507
 20
778.4370753905
 30
0
 40
2.000000000000134
 50
192.6022648414993
 51
270
  0
ARC
  8
0
 62
7
 10
594.9306435507
 20
754.4370753905
 30
0
 40
2.000000000000114
 50
90
 51
167.3977351585007
  0
ARC
  8
0
 62
7
 10
572.4152157077
 20
781.2320041634
 30
0
 40
1.194631595998997
 50
84.76144147939829
 51
135.0970713793031
  0
ARC
  8
0
 62
7
 10
572.4466080975
 20
778.3992436921
 30
0
 40
1.18165332419235
 50
105.940291767401
 51
183.6867152256026
  0
ARC
  8
0
 62
7
 10
573.4572347926001
 20
778.2020557757001
 30
0
 40
1.385068396597639
 50
224.7754297650018
 51
275.0881189961019
  0
ARC
  8
0
 62
7
 10
573.4572357887
 20
780.9727949302001
 30
0
 40
1.385068784736989
 50
224.7753874394994
 51
275.0880761944988
  0
ARC
  8
0
 62
7
 10
572.4152189283
 20
790.2319967561
 30
0
 40
1.19464014737857
 50
84.76163419050043
 51
135.0968786681998
  0
ARC
  8
0
 62
7
 10
572.4466063129
 20
787.3992445629
 30
0
 40
1.181651624168657
 50
105.9402253178982
 51
183.6867816750983
  0
ARC
  8
0
 62
7
 10
573.4572382049
 20
787.2020647291
 30
0
 40
1.385077397992417
 50
224.7756046358998
 51
275.0879441252022
  0
ARC
  8
0
 62
7
 10
573.4572365678
 20
789.9727944267
 30
0
 40
1.385068600028231
 50
224.7753339850016
 51
275.0880445218999
  0
ARC
  8
0
 62
7
 10
205.5360797486
 20
770.2474170151
 30
0
 40
2.29780082510098
 50
355.9941076312991
 51
39.05547775019984
  0
ARC
  8
0
 62
7
 10
205.9396371729
 20
770.0923244430001
 30
0
 40
2.115591046619107
 50
49.25730990219984
 51
93.87320220029976
  0
ARC
  8
0
 62
7
 10
205.8773167134
 20
769.6773304972001
 30
0
 40
2.527038157350631
 50
91.82741840680059
 51
154.5294729551995
  0
ARC
  8
0
 62
7
 10
201.8487612255
 20
770.4232897773001
 30
0
 40
1.780054305281208
 50
11.03721560070119
 51
90.98050357130063
  0
ARC
  8
0
 62
7
 10
201.8988431285
 20
769.6773952834
 30
0
 40
2.526972053514678
 50
91.82650527749856
 51
154.5303860845004
  0
ARC
  8
0
 62
7
 10
202.4011692869
 20
768.4489635536
 30
0
 40
2.787212128534058
 50
141.8276298695988
 51
182.8722911150009
  0
ARC
  8
0
 62
7
 10
201.2038077059
 20
769.2209911303
 30
0
 40
1.37521798421467
 50
92.61215580640165
 51
136.2747866007022
  0
ARC
  8
0
 62
7
 10
201.1387888256
 20
769.7710595363
 30
0
 40
0.8237239544598565
 50
43.76561943669589
 51
89.83699846289755
  0
ARC
  8
0
 62
7
 10
199.3712420507
 20
769.4982137015001
 30
0
 40
2.508195194827958
 50
357.977956327999
 51
19.63021344859913
  0
ARC
  8
0
 62
7
 10
206.4636003787
 20
768.4491762669001
 30
0
 40
2.786555107416262
 50
141.8225728464994
 51
182.8773481380997
  0
ARC
  8
0
 62
7
 10
205.2578009728
 20
769.2602109497
 30
0
 40
1.341709572521282
 50
95.91372827280165
 51
137.2163740814
  0
ARC
  8
0
 62
7
 10
205.1617094708
 20
769.6773208218
 30
0
 40
0.9184268711960479
 50
46.2570642495027
 51
92.63018900609792
  0
ARC
  8
0
 62
7
 10
203.9842066422
 20
769.3987523550001
 30
0
 40
2.042736447069006
 50
357.9327879159993
 51
27.46378420240142
  0
ARC
  8
0
 62
7
 10
216.3706475843
 20
770.2472782587
 30
0
 40
2.298125008940071
 50
355.9981415137992
 51
39.05337473670103
  0
ARC
  8
0
 62
7
 10
216.7745490289
 20
770.0924334575
 30
0
 40
2.115482911450358
 50
49.25618590389918
 51
93.87365378639984
  0
ARC
  8
0
 62
7
 10
216.7121655806
 20
769.6774125622
 30
0
 40
2.526954423414152
 50
91.82626173349929
 51
154.5306296285002
  0
ARC
  8
0
 62
7
 10
212.6836175232
 20
770.4232333034
 30
0
 40
1.780110489838777
 50
11.03871482739977
 51
90.979943879099
  0
ARC
  8
0
 62
7
 10
212.7337193531
 20
769.6774371754
 30
0
 40
2.526930294489856
 50
91.82661491700026
 51
154.5309871879004
  0
ARC
  8
0
 62
7
 10
213.2354032809
 20
768.4491762669001
 30
0
 40
2.786555107416262
 50
141.8225728464994
 51
182.8773481380997
  0
ARC
  8
0
 62
7
 10
212.0387146311
 20
769.220985864
 30
0
 40
1.375224804249014
 50
92.61356930640004
 51
136.2747547598978
  0
ARC
  8
0
 62
7
 10
211.9736615482
 20
769.7710595363
 30
0
 40
0.8237239544598565
 50
43.76561943669589
 51
89.83699846289953
  0
ARC
  8
0
 62
7
 10
210.2073769387
 20
769.4984091872
 30
0
 40
2.506940724339119
 50
357.972473488601
 51
19.63569628799877
  0
ARC
  8
0
 62
7
 10
217.2991416322
 20
768.4489635536
 30
0
 40
2.787212128534147
 50
141.8276298696002
 51
182.8722911150009
  0
ARC
  8
0
 62
7
 10
216.092705828
 20
769.2601466844
 30
0
 40
1.341776806702154
 50
95.91481034110014
 51
137.215292013101
  0
ARC
  8
0
 62
7
 10
215.9965444671
 20
769.6771456884
 30
0
 40
0.9186000899632674
 50
46.26157414650201
 51
92.62733710479887
  0
ARC
  8
0
 62
7
 10
214.81875015
 20
769.3987313624
 30
0
 40
2.043064690652026
 50
357.9337092811986
 51
27.45966319770097
  0
ARC
  8
0
 62
7
 10
185.8615396133
 20
762.2337220662
 30
0
 40
6.610594369911604
 50
179.5516490514999
 51
221.2677055002
  0
ARC
  8
0
 62
7
 10
184.0540013113
 20
761.3245265485
 30
0
 40
4.680040948989496
 50
227.5094192043999
 51
272.7517073371007
  0
ARC
  8
0
 62
7
 10
184.3466662878
 20
761.4569051349
 30
0
 40
4.807503985836586
 50
269.1897157325
 51
315.3568481464998
  0
ARC
  8
0
 62
7
 10
182.2339906078
 20
763.1307385678
 30
0
 40
7.492606627038916
 50
317.6027793762001
 51
2.952651395899815
  0
ARC
  8
0
 62
7
 10
182.6652742769
 20
763.9022982881
 30
0
 40
7.061911945155592
 50
356.8698498193004
 51
40.00029323469984
  0
ARC
  8
0
 62
7
 10
185.4244908417
 20
765.8938504253
 30
0
 40
3.676459100389844
 50
43.86803259039979
 51
90.26753814600052
  0
ARC
  8
0
 62
7
 10
185.3254758702
 20
765.2563207197001
 30
0
 40
4.314725103954912
 50
88.91306359470023
 51
139.9748477472003
  0
ARC
  8
0
 62
7
 10
185.1754023579
 20
764.3059939605
 30
0
 40
3.531228860191261
 50
94.56573282620018
 51
157.2536317923005
  0
ARC
  8
0
 62
7
 10
184.899508714
 20
765.8544976187
 30
0
 40
1.971526293138538
 50
43.45161377239954
 51
90.15117661879985
  0
ARC
  8
0
 62
7
 10
182.0771177754
 20
764.0394695810001
 30
0
 40
5.305484765416149
 50
354.3451216097004
 51
36.70320404399977
  0
ARC
  8
0
 62
7
 10
181.3117090496
 20
763.0934819405001
 30
0
 40
6.059870106135278
 50
322.5964458130999
 51
4.004651213499559
  0
ARC
  8
0
 62
7
 10
184.178873507
 20
761.2855258119
 30
0
 40
2.701380318333812
 50
274.2972359609998
 51
316.1053236687012
  0
ARC
  8
0
 62
7
 10
184.2871103902
 20
761.1036997647
 30
0
 40
2.513724893279454
 50
228.9725296031018
 51
272.1471463043993
  0
ARC
  8
0
 62
7
 10
185.8322095638
 20
761.9824681036999
 30
0
 40
4.232054380824402
 50
175.8945491368006
 51
220.9754681253002
  0
ARC
  8
0
 62
7
 10
379.7556959494
 20
693.4370753905
 30
0
 40
15.00000000000005
 50
203.0052679809
 51
336.9947320191001
  0
ARC
  8
0
 62
7
 10
399.2556959494
 20
715.0563263507
 30
0
 40
5.500000000000025
 50
336.9947320191003
 51
0
  0
ARC
  8
0
 62
7
 10
399.2556959494
 20
817.8178244303
 30
0
 40
5.5
 50
0
 51
23.00526798089989
  0
ARC
  8
0
 62
7
 10
379.7556959494
 20
839.4370753905
 30
0
 40
15
 50
23.00526798090008
 51
156.9947320190998
  0
ARC
  8
0
 62
7
 10
650.1474718096
 20
821.3821962869
 30
0
 40
9.22561063877251
 50
247.6397336165996
 51
290.1634219209999
  0
ARC
  8
0
 62
7
 10
650.1241238898
 20
711.8202062174
 30
0
 40
8.891648728849264
 50
69.07904136980005
 51
113.0430836084
  0
ARC
  8
0
 62
7
 10
651.2556959494
 20
710.2963632996
 30
0
 40
10.00000000000011
 50
0
 51
71.21417090459994
  0
ARC
  8
0
 62
7
 10
651.2556959494
 20
822.5777874814
 30
0
 40
10.00000000000004
 50
288.7858290955
 51
0
  0
ARC
  8
0
 62
7
 10
540.6441473364
 20
766.4559874995
 30
0
 40
90.7785405048441
 50
224.6670782619
 51
255.5591083227
  0
ARC
  8
0
 62
7
 10
534.4934295344
 20
770.1017258575
 30
0
 40
89.23771850350467
 50
184.2843665337
 51
229.1324249871
  0
ARC
  8
0
 62
7
 10
534.2629207458
 20
762.9080456502001
 30
0
 40
88.98437513559011
 50
130.8124726367
 51
175.7916170061
  0
ARC
  8
0
 62
7
 10
542.1893400513
 20
764.1150628483
 30
0
 40
88.50476668327191
 50
277.4115722269632
 51
298.3586307782
  0
ARC
  8
0
 62
7
 10
93.6882847281
 20
711.9370753905
 30
0
 40
10.00000000000182
 50
90
 51
104.574216198
  0
ARC
  8
0
 62
7
 10
93.6882847281
 20
820.9370753905
 30
0
 40
10.0000000000018
 50
255.425783802
 51
270
  0
ARC
  8
0
 62
7
 10
81.25569594940001
 20
824.1695484729
 30
0
 40
10.00000000000004
 50
180
 51
255.4257838019999
  0
ARC
  8
0
 62
7
 10
81.25569594940001
 20
708.704602308
 30
0
 40
10.00000000000003
 50
104.574216198
 51
180
  0
ARC
  8
0
 62
7
 10
600.0841852476
 20
579.1329567255
 30
0
 40
5.049688049540299
 50
52.98400568990007
 51
76.97622417840017
  0
ARC
  8
0
 62
7
 10
482.4429621606
 20
579.0991995192001
 30
0
 40
5.086133389044336
 50
103.1109998814999
 51
126.9287702501999
  0
ARC
  8
0
 62
7
 10
489.0090342763
 20
588.1907942676
 30
0
 40
2.012014722074044
 50
89.53296340699924
 51
179.659451481799
  0
ARC
  8
0
 62
7
 10
527.2556959494
 20
581.0527484887
 30
0
 40
2
 50
270
 51
0
  0
ARC
  8
0
 62
7
 10
555.2556959494
 20
581.0527484887
 30
0
 40
2
 50
180
 51
270
  0
ARC
  8
0
 62
7
 10
480.7556959494
 20
601.2027484887
 30
0
 40
2
 50
90
 51
180
  0
ARC
  8
0
 62
7
 10
482.7556959494
 20
590.2027484887
 30
0
 40
1.600000000000106
 50
244.9125144385016
 51
115.0874855614984
  0
ARC
  8
0
 62
7
 10
482.7556959494
 20
590.2027484887
 30
0
 40
4.000000000000159
 50
311.4096221093006
 51
0
  0
ARC
  8
0
 62
7
 10
519.2556936822
 20
605.7027562946
 30
0
 40
2.999998105319066
 50
14.14446204380065
 51
180.0000971724001
  0
ARC
  8
0
 62
7
 10
357.5341701751
 20
484.1694480964
 30
0
 40
2.12015039963664
 50
273.2691941257996
 51
342.775554091899
  0
ARC
  8
0
 62
7
 10
401.9772227966
 20
484.1694480964
 30
0
 40
2.120150399636602
 50
197.2244459081015
 51
266.7308058742004
  0
ARC
  8
0
 62
7
 10
385.4111790589
 20
450.9798302905
 30
0
 40
26.22604837542124
 50
168.0267143918999
 51
179.8406961532999
  0
ARC
  8
0
 62
7
 10
208.309713434
 20
451.0552435103973
 30
0
 40
151.5409895978486
 50
359.999056663101
 51
2.02898819960102
  0
ARC
  8
0
 62
7
 10
367.7457503291
 20
474.2572883278
 30
0
 40
2.204561160790997
 50
248.8527886647018
 51
270.2503140426002
  0
ARC
  8
0
 62
7
 10
368.0606727026
 20
474.9137113711
 30
0
 40
2.930943901127006
 50
197.0825574965986
 51
247.7404110426013
  0
ARC
  8
0
 62
7
 10
551.2016795375999
 20
451.0552435104
 30
0
 40
151.5409895978487
 50
177.9710118004
 51
180.000943337
  0
ARC
  8
0
 62
7
 10
374.0472334978
 20
450.9742727889
 30
0
 40
26.27902969331473
 50
0.1710996611999978
 51
11.96117523810006
  0
ARC
  8
0
 62
7
 10
391.4507202691
 20
474.9137113711
 30
0
 40
2.930943901127034
 50
292.2595889574008
 51
342.9174425034014
  0
ARC
  8
0
 62
7
 10
391.7656426426
 20
474.2572883278
 30
0
 40
2.204561160791025
 50
269.7496859574013
 51
291.1472113352996
  0
ARC
  8
0
 62
7
 10
375.157205592
 20
477.0106457024
 30
0
 40
14.23820671646162
 50
70.30081838749972
 51
109.6991816125001
  0
ARC
  8
0
 62
7
 10
384.6556080683
 20
477.5804325023
 30
0
 40
13.66824451579146
 50
69.8922451995
 51
110.1077548005
  0
ARC
  8
0
 62
7
 10
520.5056959494
 20
592.9527484887
 30
0
 40
4.250000000000114
 50
0
 51
180
  0
ARC
  8
0
 62
7
 10
520.5056959494
 20
592.9527484887
 30
0
 40
3.25
 50
0
 51
46.30910472069996
  0
ARC
  8
0
 62
7
 10
520.5056959494
 20
592.9527484887
 30
0
 40
3.250000000000063
 50
133.6908952793
 51
180
  0
ARC
  8
0
 62
7
 10
520.5056959494
 20
594.2027484887
 30
0
 40
2.600000000000114
 50
285.942368605601
 51
0
  0
ARC
  8
0
 62
7
 10
520.5056959494
 20
594.2027484887
 30
0
 40
2.600000000000029
 50
159.8416808115995
 51
254.057631394399
  0
ARC
  8
0
 62
7
 10
520.5056959494
 20
594.2027484887
 30
0
 40
3.099999999999934
 50
62.75189166499979
 51
117.2481083349006
  0
ARC
  8
0
 62
7
 10
520.5056959494
 20
594.2027484887
 30
0
 40
3.100000000000111
 50
184.5144018118998
 51
233.7506791170996
  0
ARC
  8
0
 62
7
 10
520.5056959494
 20
594.2027484887
 30
0
 40
3.10000000000004
 50
306.2493208829004
 51
355.4855981883004
  0
ARC
  8
0
 62
7
 10
462.9938677158
 20
588.8300087903
 30
0
 40
5.223978947283793
 50
91.24466311470006
 51
123.1400536300993
  0
ARC
  8
0
 62
7
 10
471.237438534
 20
575.0624560132
 30
0
 40
18.99074274761211
 50
90.39161696759997
 51
107.1965643793
  0
ARC
  8
0
 62
7
 10
465.7917503193
 20
555.5500571836
 30
0
 40
13.49784325669323
 50
270.5090423604
 51
290.4302305513001
  0
ARC
  8
0
 62
7
 10
651.2556959494
 20
527.8645632366
 30
0
 40
10.00000000000004
 50
291.4760679237002
 51
0
  0
ARC
  8
0
 62
7
 10
627.8782638769
 20
518.6672835112
 30
0
 40
10.00005405595327
 50
194.8996294717002
 51
291.4766695933
  0
ARC
  8
0
 62
7
 10
425.4975006012
 20
513.2018091175
 30
0
 40
19.99542954072597
 50
259.7265981391001
 51
354.6278370882999
  0
ARC
  8
0
 62
7
 10
621.3552341388
 20
386.3885793501
 30
0
 40
10.00306903071561
 50
67.97140487670025
 51
169.0051399839999
  0
ARC
  8
0
 62
7
 10
651.2556959494
 20
374.30829513
 30
0
 40
10
 50
0
 51
67.99502377410043
  0
ARC
  8
0
 62
7
 10
651.2400160036
 20
507.1081668853
 30
0
 40
10.01567855295268
 50
288.8501008897002
 51
0.02907240070046102
  0
ARC
  8
0
 62
7
 10
396.7482917248
 20
416.6914688037
 30
0
 40
18.10635781325503
 50
36.75200565990003
 51
63.75294257100004
  0
ARC
  8
0
 62
7
 10
541.2899966868
 20
477.6724387033
 30
0
 40
125.5888534917226
 50
285.9226419802
 51
292.8871705421
  0
ARC
  8
0
 62
7
 10
651.2401218551
 20
394.9974057637
 30
0
 40
10.0155727401142
 50
359.9704943994001
 51
71.15033231020036
  0
ARC
  8
0
 62
7
 10
480.996368627
 20
508.1834131985
 30
0
 40
35.7302316297632
 50
113.0840394926
 51
174.9480827221
  0
ARC
  8
0
 62
7
 10
394.2789401737
 20
354.697048553
 30
0
 40
66.24405998706172
 50
71.87405533789993
 51
91.9236429772
  0
ARC
  8
0
 62
7
 10
526.3935456237649
 20
478.0026723413685
 30
0
 40
125.9418779778153
 50
260.9035200401791
 51
273.3512344602791
  0
ARC
  8
0
 62
7
 10
576.2173370412
 20
395.1367537062
 30
0
 40
35.97475642129058
 50
349.0388191294
 51
45.38801615029997
  0
ARC
  8
0
 62
7
 10
651.2008453133
 20
488.707928403
 30
0
 40
81.07081224576963
 50
231.9168582809
 51
264.3603334442
  0
ARC
  8
0
 62
7
 10
646.3806601532
 20
523.6445169751
 30
0
 40
29.16018396694865
 50
195.0026481688999
 51
262.9560604182
  0
ARC
  8
0
 62
7
 10
545.3127088683
 20
398.0786749693
 30
0
 40
3.268003673707645
 50
351.718202155999
 51
35.53579207430042
  0
ARC
  8
0
 62
7
 10
545.4729284376
 20
398.0213176314
 30
0
 40
3.992935824989232
 50
354.0577613584
 51
38.02213897839989
  0
ARC
  8
0
 62
7
 10
545.0880786022
 20
397.2062632277
 30
0
 40
3.481801807544093
 50
326.9940599968998
 51
6.624751591399981
  0
ARC
  8
0
 62
7
 10
281.2402980967983
 20
84.98918110499989
 30
0
 40
412.063567761118
 50
89.99785766459978
 51
92.08400889419974
  0
ARC
  8
0
 62
7
 10
200.0628751072
 20
497.7349002717
 30
0
 40
0.8468665785899482
 50
238.2672308063039
 51
280.0038843088991
  0
ARC
  8
0
 62
7
 10
201.125479699
 20
508.3779583209
 30
0
 40
11.51350400486582
 50
265.4393367724001
 51
270.0778933285
  0
ARC
  8
0
 62
7
 10
201.1754138833015
 20
503.8241107625001
 30
0
 40
6.959730237957673
 50
269.7177762618873
 51
274.6007041487872
  0
ARC
  8
0
 62
7
 10
204.1258678414
 20
497.7343433463
 30
0
 40
0.8463367129131311
 50
238.2535550420974
 51
280.0175600731007
  0
ARC
  8
0
 62
7
 10
205.1603975885
 20
507.6614105612
 30
0
 40
10.79702282253358
 50
265.2860627227998
 51
269.7833080257999
  0
ARC
  8
0
 62
7
 10
205.1894286912
 20
505.0208175658
 30
0
 40
8.15665182823326
 50
269.5092310782997
 51
274.2699059929999
  0
ARC
  8
0
 62
7
 10
210.8976707436
 20
497.7343433463
 30
0
 40
0.8463367129131161
 50
238.2535550420991
 51
280.0175600731007
  0
ARC
  8
0
 62
7
 10
211.9603809339989
 20
508.3779381506001
 30
0
 40
11.51348379582608
 50
265.4393351903057
 51
270.0777515761057
  0
ARC
  8
0
 62
7
 10
212.0102866059015
 20
503.8241107625001
 30
0
 40
6.959730237957671
 50
269.717776261888
 51
274.6007041487879
  0
ARC
  8
0
 62
7
 10
214.9608474525
 20
497.7349002717
 30
0
 40
0.8468665785899482
 50
238.2672308063039
 51
280.0038843088991
  0
ARC
  8
0
 62
7
 10
215.9952996984
 20
507.6620931203
 30
0
 40
10.79770548789779
 50
265.2862049610004
 51
269.7831657877
  0
ARC
  8
0
 62
7
 10
216.0242641919
 20
505.0227560204
 30
0
 40
8.158589893058707
 50
269.5096090736004
 51
274.2693618049998
  0
ARC
  8
0
 62
7
 10
170.6928219306
 20
492.7808499495
 30
0
 40
4.272749600461221
 50
91.14353305980035
 51
131.1231049314996
  0
ARC
  8
0
 62
7
 10
172.8645684446
 20
493.1975458478
 30
0
 40
3.837413056531237
 50
55.01245785460007
 51
133.0994624172991
  0
ARC
  8
0
 62
7
 10
180.8201583201
 20
498.5494045256
 30
0
 40
2.301946615125733
 50
227.0310688299009
 51
271.8078331729996
  0
ARC
  8
0
 62
7
 10
184.4649806493
 20
515.0474509181
 30
0
 40
19.04885725923
 50
269.4396304935
 51
279.9829305313999
  0
ARC
  8
0
 62
7
 10
187.7447228134
 20
499.5122565033
 30
0
 40
3.225330781882963
 50
270.3991362003993
 51
307.6899103784005
  0
ARC
  8
0
 62
7
 10
184.8187401028017
 20
575.8236210867
 30
0
 40
78.79188212978471
 50
270.0549504942988
 51
271.0995681249988
  0
ARC
  8
0
 62
7
 10
186.6943472275
 20
495.2265599693
 30
0
 40
1.855658389697709
 50
69.08505391519942
 51
101.2996597880003
  0
ARC
  8
0
 62
7
 10
184.3432162193
 20
508.2548045781
 30
0
 40
11.87606674821466
 50
270.1836844197003
 51
278.6313373421
  0
ARC
  8
0
 62
7
 10
184.2569336436
 20
509.1845807915
 30
0
 40
12.80638572326739
 50
262.7331686972001
 51
270.5563774403001
  0
ARC
  8
0
 62
7
 10
182.5753798291
 20
497.8791540125
 30
0
 40
1.399455372247461
 50
226.4410692846005
 51
272.5256488800986
  0
ARC
  8
0
 62
7
 10
183.9885613393
 20
515.1921783292
 30
0
 40
19.19486623814319
 50
260.7186957078
 51
270.8660242755002
  0
ARC
  8
0
 62
7
 10
225.0163943675
 20
395.1124029229
 30
0
 40
10.73580132044446
 50
67.80925034149978
 51
85.83839022589974
  0
ARC
  8
0
 62
7
 10
218.9881901225989
 20
365.7230494292
 30
0
 40
40.07977223500009
 50
83.92414551839846
 51
90.25344565209845
  0
ARC
  8
0
 62
7
 10
222.9706932917
 20
399.2322446561
 30
0
 40
6.350748251806947
 50
66.42675636919998
 51
87.65598588889968
  0
ARC
  8
0
 62
7
 10
218.8990808788
 20
361.2505999497
 30
0
 40
44.47618558539193
 50
84.22931154309998
 51
90.11359855949998
  0
ARC
  8
0
 62
7
 10
219.3596645268
 20
352.0329851142
 30
0
 40
54.17058055120915
 50
83.17676281160006
 51
90.5804343229
  0
ARC
  8
0
 62
7
 10
393.0943647549
 20
390.9166525713
 30
0
 40
54.18264517879548
 50
145.8475495887
 51
156.4750946064999
  0
ARC
  8
0
 62
7
 10
219.3636230502
 20
355.4735066508
 30
0
 40
52.26994251668178
 50
82.93178358419999
 51
90.6058802023
  0
ARC
  8
0
 62
7
 10
224.5555946862
 20
395.0650190144
 30
0
 40
12.34362750600137
 50
68.5415821173
 51
84.2350148368002
  0
ARC
  8
0
 62
7
 10
187.9024332697
 20
497.4598589786
 30
0
 40
2.702511154188986
 50
267.1315398449013
 51
312.1680901424006
  0
ARC
  8
0
 62
7
 10
184.4356924787
 20
513.2172187157
 30
0
 40
18.75475176705974
 50
269.5203218252
 51
280.2320300251
  0
ARC
  8
0
 62
7
 10
184.0389636377
 20
513.6735322477
 30
0
 40
19.21190363500892
 50
260.5746604659
 51
270.7149267909001
  0
ARC
  8
0
 62
7
 10
181.0834152639
 20
497.6437342584
 30
0
 40
2.928952291899891
 50
231.2758900936007
 51
266.2681558300006
  0
ARC
  8
0
 62
7
 10
172.9843567073
 20
491.5627735597
 30
0
 40
3.991154327057457
 50
91.39247225250036
 51
133.3899910414001
  0
ARC
  8
0
 62
7
 10
281.2393735408969
 20
97.04994218550002
 30
0
 40
398.5028074126692
 50
89.99765183199955
 51
92.15482608209955
  0
ARC
  8
0
 62
7
 10
388.7001076419
 20
398.8795619711
 30
0
 40
2.990278939554433
 50
270.978291830301
 51
340.7265429476011
  0
ARC
  8
0
 62
7
 10
370.8365078369
 20
398.914466489
 30
0
 40
3.025709199026467
 50
199.7397288873006
 51
268.5554363348009
  0
ARC
  8
0
 62
7
 10
362.2197075741989
 20
294.2059963684003
 30
0
 40
145.9618130417604
 50
79.15526020899952
 51
80.13838345819953
  0
ARC
  8
0
 62
7
 10
379.199922513099
 20
405.6197139137997
 30
0
 40
33.28192825817624
 50
102.0286087248983
 51
106.3142344441981
  0
ARC
  8
0
 62
7
 10
374.1018008786
 20
451.1254252341
 30
0
 40
26.22444584438781
 50
348.0265111485
 51
359.8412139522001
  0
ARC
  8
0
 62
7
 10
551.2016795375999
 20
451.0502534669
 30
0
 40
151.5409895978487
 50
179.999056663
 51
182.0289881996
  0
ARC
  8
0
 62
7
 10
208.309713434
 20
451.0502534669
 30
0
 40
151.540989597847
 50
357.9710118004
 51
0.0009433369999790209
  0
ARC
  8
0
 62
7
 10
385.463940342
 20
451.1312738511
 30
0
 40
26.27882561185716
 50
180.1712092699998
 51
191.9613801847
  0
ARC
  8
0
 62
7
 10
361.2973207778934
 20
288.7684624383013
 30
0
 40
151.4759246889817
 50
78.27585402339747
 51
79.34852386939744
  0
ARC
  8
0
 62
7
 10
375.5726015084014
 20
356.7404956847997
 30
0
 40
82.01914833985136
 50
76.17004357240099
 51
77.49671859250105
  0
ARC
  8
0
 62
7
 10
380.303638521
 20
402.1043082765
 30
0
 40
36.97140145632984
 50
112.3585990645
 51
115.4238165425001
  0
ARC
  8
0
 62
7
 10
368.5009113924
 20
402.1751957262
 30
0
 40
3.300223005491227
 50
336.5754903267007
 51
85.37577219259853
  0
ARC
  8
0
 62
7
 10
390.9716054697
 20
402.1985323511
 30
0
 40
3.27403572474423
 50
93.97901972479973
 51
204.0697177558994
  0
ARC
  8
0
 62
7
 10
372.5206563334
 20
400.4266847761
 30
0
 40
1.083355959197468
 50
156.2372415721998
 51
266.2530133336971
  0
ARC
  8
0
 62
7
 10
387.0019851871
 20
400.4198602979
 30
0
 40
1.075864962771534
 50
273.1729610925
 51
24.33678400160016
  0
ARC
  8
0
 62
7
 10
370.9588358145
 20
399.1045019928
 30
0
 40
3.011586957950978
 50
203.8105351249995
 51
268.6393243323
  0
ARC
  8
0
 62
7
 10
388.5757585929
 20
399.0698114596
 30
0
 40
2.976439337198248
 50
270.9300324406008
 51
336.6201081020998
  0
ARC
  8
0
 62
7
 10
460.2556959494
 20
577.0527484887
 30
0
 40
2.000000000000225
 50
125.031650528999
 51
180
  0
ARC
  8
0
 62
7
 10
622.2556959494
 20
577.0527484887
 30
0
 40
2.000000000000227
 50
0
 51
54.9683494709997
  0
ARC
  8
0
 62
7
 10
483.2556959494
 20
608.2027484887
 30
0
 40
5
 50
270
 51
0
  0
ARC
  8
0
 62
7
 10
587.2556959494
 20
609.7027484887
 30
0
 40
7.000000000000114
 50
0
 51
90
  0
ARC
  8
0
 62
7
 10
495.2556959494
 20
609.7027484887
 30
0
 40
7
 50
90
 51
180
  0
ARC
  8
0
 62
7
 10
399.2556959494
 20
500.8455629975
 30
0
 40
5.5
 50
0
 51
20.00000000000032
  0
ARC
  8
0
 62
7
 10
36.61479720910023
 20
518.5137989947016
 30
0
 40
337.9934327616639
 50
348.486852784082
 51
352.0981413781997
  0
ARC
  8
0
 62
7
 10
697.5991568
 20
514.1050546979
 30
0
 40
312.3284265974298
 50
187.7378076928
 51
191.6477014314
  0
ARC
  8
0
 62
7
 10
541.2556959494
 20
478.0527484887
 30
0
 40
126.0000000000001
 50
271.1777465195
 51
285.8870382585
  0
ARC
  8
0
 62
7
 10
604.0606883740001
 20
422.6474060378
 30
0
 40
3.475516785485017
 50
138.9662201379004
 51
184.2605176192998
  0
ARC
  8
0
 62
7
 10
576.2556959494
 20
395.1371287298
 30
0
 40
36.00000000000006
 50
296.4851519808
 51
349.0116719968001
  0
ARC
  8
0
 62
7
 10
93.6882847281
 20
396.5527484887
 30
0
 40
10.00000000000193
 50
90
 51
104.5742161979999
  0
ARC
  8
0
 62
7
 10
93.6882847281
 20
505.5527484887
 30
0
 40
10.00000000000186
 50
255.425783802
 51
270
  0
ARC
  8
0
 62
7
 10
81.25569594940001
 20
508.7852215712
 30
0
 40
10.00000000000001
 50
180
 51
255.4257838020002
  0
ARC
  8
0
 62
7
 10
81.25569594940001
 20
393.3202754062
 30
0
 40
9.999999999999977
 50
104.574216198
 51
180
  0
ARC
  8
0
 62
7
 10
399.2556959494
 20
401.2599339798
 30
0
 40
5.500000000000008
 50
339.9999999999997
 51
0
  0
ARC
  8
0
 62
7
 10
658.817442115
 20
395.4289387013
 30
0
 40
272.8435831993639
 50
168.2371514874
 51
171.1001184958
  0
ARC
  8
0
 62
7
 10
94.54318141179458
 20
394.4808437163286
 30
0
 40
279.0586603914013
 50
8.903202677983693
 51
11.69630006368367
  0
ARC
  8
0
 62
7
 10
542.1893400513
 20
768.7590879327
 30
0
 40
88.50476668327188
 50
61.6413692218
 51
82.58842777303671
  0
ARC
  8
0
 62
7
 10
540.6441473364
 20
766.4181632814998
 30
0
 40
90.77854050484406
 50
104.4408916773
 51
135.3329217381
  0
CIRCLE
  8
0
 62
7
 10
541.2556959494
 20
766.4370753905
 30
0
 40
52.99999999999997
  0
CIRCLE
  8
0
 62
7
 10
471.1076382429
 20
806.9370753905
 30
0
 40
9.500000000000041
  0
CIRCLE
  8
0
 62
7
 10
541.2556959494
 20
685.4370753905
 30
0
 40
9.499999999999991
  0
CIRCLE
  8
0
 62
7
 10
541.2556959494
 20
847.4370753905
 30
0
 40
9.499999999999991
  0
CIRCLE
  8
0
 62
7
 10
611.4037536559
 20
725.9370753905
 30
0
 40
9.5
  0
CIRCLE
  8
0
 62
7
 10
611.4037536559
 20
806.9370753905
 30
0
 40
9.499999999999991
  0
CIRCLE
  8
0
 62
7
 10
471.1076382429
 20
725.9370753905
 30
0
 40
9.5
  0
CIRCLE
  8
0
 62
2
  6
DASHDOT
 10
874.4136879526
 20
451.0527484887
 30
0
 40
84
  0
CIRCLE
  8
0
 62
7
 10
933.8106575721999
 20
510.4497181083
 30
0
 40
9.499999999999886
  0
CIRCLE
  8
0
 62
7
 10
933.8106575721999
 20
391.655778869
 30
0
 40
9.5
  0
CIRCLE
  8
0
 62
7
 10
815.0167183329
 20
510.4497181083
 30
0
 40
9.499999999999886
  0
CIRCLE
  8
0
 62
7
 10
815.0167183329
 20
391.655778869
 30
0
 40
9.5
  0
CIRCLE
  8
0
 62
7
 10
874.4136879526
 20
451.0527484887
 30
0
 40
40
  0
CIRCLE
  8
0
 62
7
 10
874.4136879526
 20
451.0527484887
 30
0
 40
46.99999999999989
  0
CIRCLE
  8
0
 62
7
 10
874.4136879526
 20
451.0527484887
 30
0
 40
47.5
  0
CIRCLE
  8
0
 62
7
 10
874.4136879526
 20
451.0527484887
 30
0
 40
64.5
  0
CIRCLE
  8
0
 62
7
 10
874.4136879526
 20
451.0527484887
 30
0
 40
47.99999999999989
  0
CIRCLE
  8
0
 62
7
 10
874.4136879526
 20
451.0527484887
 30
0
 40
54.99999999999989
  0
CIRCLE
  8
0
 62
7
 10
874.4136879526
 20
451.0527484887
 30
0
 40
54.5
  0
CIRCLE
  8
0
 62
7
 10
874.4136879526
 20
451.0527484887
 30
0
 40
55.5
  0
CIRCLE
  8
0
 62
7
 10
874.4136879526
 20
451.0527484887
 30
0
 40
62.5
  0
CIRCLE
  8
0
 62
7
 10
874.4136879526
 20
451.0527484887
 30
0
 40
37.5
  0
CIRCLE
  8
0
 62
7
 10
541.2556959494
 20
766.4370753905
 30
0
 40
45.99999999999989
  0
CIRCLE
  8
0
 62
7
 10
541.2556959494
 20
685.4370753905
 30
0
 40
12.00000000000011
  0
CIRCLE
  8
0
 62
7
 10
611.4037536559
 20
725.9370753905
 30
0
 40
12
  0
CIRCLE
  8
0
 62
7
 10
471.1076382429
 20
725.9370753905
 30
0
 40
12.00000000000011
  0
CIRCLE
  8
0
 62
7
 10
471.1076382429
 20
806.9370753905
 30
0
 40
12.00000000000011
  0
CIRCLE
  8
0
 62
7
 10
611.4037536559
 20
806.9370753905
 30
0
 40
12
  0
CIRCLE
  8
0
 62
7
 10
541.2556959494
 20
847.4370753905
 30
0
 40
12.00000000000011
  0
CIRCLE
  8
0
 62
7
 10
379.7556959494
 20
839.4370753905
 30
0
 40
6
  0
CIRCLE
  8
0
 62
7
 10
379.7556959494
 20
691.4370753905
 30
0
 40
6
  0
CIRCLE
  8
0
 62
7
 10
379.7556959494
 20
839.4370753905
 30
0
 40
9
  0
CIRCLE
  8
0
 62
7
 10
379.7556959494
 20
691.4370753905
 30
0
 40
8.999999999999943
  0
CIRCLE
  8
0
 62
7
 10
520.5056959494
 20
594.2027484887
 30
0
 40
2.500000000000114
  0
CIRCLE
  8
0
 62
7
 10
441.1305835001
 20
492.8294971454
 30
0
 40
1.249999999999886
  0
LINE
  8
1
 62
2
 10
1018.344325413
 20
542.4293723454
 30
0
 11
1001.5528177864
 21
542.4293723454
 31
0
  0
LINE
  8
1
 62
2
 10
1001.5528177864
 20
542.4293723454
 30
0
 11
942.4014945927
 21
514.5052722365546
 31
0
  0
LINE
  8
1
 62
2
 10
944.9292098152275
 20
516.6467331107667
 30
0
 11
942.4014945927
 21
514.5052722365546
 31
0
  0
LINE
  8
1
 62
2
 10
945.6612906260476
 20
515.0959741435689
 30
0
 11
942.4014945927
 21
514.5052722365546
 31
0
  0
LINE
  8
1
 62
2
 10
615.5327660534999
 20
303.3177930881
 30
0
 11
577.1320106546
 21
303.3177930881
 31
0
  0
LINE
  8
1
 62
2
 10
577.1320106546
 20
303.3177930881
 30
0
 11
544.1831421525
 21
391.5527471178
 31
0
  0
LINE
  8
1
 62
2
 10
546.1058482758447
 20
388.854896105377
 30
0
 11
544.1831421525
 21
391.5527471178
 31
0
  0
LINE
  8
1
 62
2
 10
544.4993289931168
 20
388.2549865437438
 30
0
 11
544.1831421525
 21
391.5527471178
 31
0
  0
DIMENSION
  8
1
  6
CONTINUOUS
 62
2
  2
*D0
  3
DMST_1
 10
378.255693446
 20
322.5991389006
 30
0
 11
214.75568992935
 21
325.1991389006
 31
0
 12
0
 22
0
 32
0
 70
0
 13
51.2556864127
 23
388.5527484887
 33
0
 14
378.255693446
 24
400.302749949
 34
0
 53
0
  0
DIMENSION
  8
1
  6
CONTINUOUS
 62
2
  2
*D1
  3
DMST_1
 10
681.2556965454
 20
317.0381862688
 30
0
 11
366.25569147905
 21
319.6381862688
 31
0
 12
0
 22
0
 32
0
 70
1
 13
51.2556864127
 23
388.5527484887
 33
0
 14
681.2556965454
 24
388.5527484887
 34
0
 53
0
  0
DIMENSION
  8
1
  6
CONTINUOUS
 62
2
  2
*D2
  3
DMST_1
 10
681.2556965454
 20
322.5991389006
 30
0
 11
531.25569803555
 21
325.1991389006
 31
0
 12
0
 22
0
 32
0
 70
0
 13
381.2556995257
 23
400.302749949
 33
0
 14
681.2556965454
 24
388.5527484887
 34
0
 53
0
  0
DIMENSION
  8
1
  6
CONTINUOUS
 62
2
  2
*D3
  3
DMST_1
 10
541.2556959494
 20
331.8041234191
 30
0
 11
461.25569773755
 21
334.4041234191
 31
0
 12
0
 22
0
 32
0
 70
0
 13
381.2556995257
 23
400.302749949
 33
0
 14
541.2556959494
 24
343.0527484887
 34
0
 53
0
  0
DIMENSION
  8
1
  6
CONTINUOUS
 62
2
  2
*D4
  3
DMST_1
 10
681.2556965454
 20
331.8041234191
 30
0
 11
611.2556962474
 21
334.4041234191
 31
0
 12
0
 22
0
 32
0
 70
0
 13
541.2556959494
 23
343.0527484887
 33
0
 14
681.2556965454
 24
388.5527484887
 34
0
 53
0
  0
DIMENSION
  8
1
  6
CONTINUOUS
 62
2
  2
*D5
  3
DMST_1
 10
697.2556959494
 20
451.0527484887
 30
0
 11
694.6556959494
 21
401.05274774365
 31
0
 12
0
 22
0
 32
0
 70
0
 13
591.2556966945
 23
351.0527469986
 33
0
 14
688.7682301991001
 24
451.0527484887
 34
0
 50
90
 53
0
  0
DIMENSION
  8
1
  6
CONTINUOUS
 62
2
  2
*D6
  3
DMST_1
 10
705.6885977417001
 20
617.702745723
 30
0
 11
703.0885977417
 21
484.3777463608
 31
0
 12
0
 22
0
 32
0
 70
0
  1
267
 13
591.2556966945
 23
351.0527469986
 33
0
 14
578.2556964262
 24
617.702745723
 34
0
 50
90
 53
0
  0
DIMENSION
  8
1
  6
CONTINUOUS
 62
2
  2
*D7
  3
DMST_1
 10
705.6885977417001
 20
871.9370731255
 30
0
 11
703.0885977417
 21
766.43707539045
 31
0
 12
0
 22
0
 32
0
 70
1
 13
679.2556924923
 23
660.9370776554
 33
0
 14
679.2556924923
 24
871.9370731255
 34
0
 53
0
  0
DIMENSION
  8
1
  6
CONTINUOUS
 62
2
  2
*D8
  3
DMST_2
 10
795.2105274210655
 20
423.0731244416191
 30
0
 11
1005.8846799294
 21
500.2541806342786
 31
0
 12
0
 22
0
 32
0
 70
3
  1
D2
 15
953.6168484841344
 25
479.032372535781
 35
0
 40
0
 53
0
  0
DIMENSION
  8
1
  6
CONTINUOUS
 62
2
  2
*D9
  3
DMST_2
 10
812.8005946735591
 20
440.5610023714798
 30
0
 11
1007.704304304914
 21
476.3874821224561
 31
0
 12
0
 22
0
 32
0
 70
3
  1
D3
 15
936.0267812316409
 25
461.5444946059201
 35
0
 40
0
 53
0
  0
DIMENSION
  8
1
  6
CONTINUOUS
 62
2
  2
*D10
  3
DMST_2
 10
781.6861634735712
 20
400.7351948519112
 30
0
 11
1000.312764331844
 21
522.3286028336473
 31
0
 12
0
 22
0
 32
0
 70
3
  1
D1
 15
967.1412124316287
 25
501.3703021254889
 35
0
 40
0
 53
0
  0
ENDSEC
  0
EOF
