  0
SECTION
  2
HEADER
  9
$ACADVER
  1
AC1009
  9
$INSBASE
 10
0
 20
0
  9
$EXTMIN
 10
241.635499755539
 20
404.5046336654492
  9
$EXTMAX
 10
552.3309083418909
 20
815.360818779692
  9
$LIMMIN
 10
241.635499755539
 20
404.5046336654492
  9
$LIMMAX
 10
552.3309083418909
 20
815.360818779692
  9
$VIEWCTR
 10
10
 20
10
  9
$VIEWSIZE
 40
10
  9
$SNAPMODE
 70
0
  9
$SNAPUNIT
 10
1
 20
1
  9
$SNAPBASE
 10
0
 20
0
  9
$SNAPANG
 50
0
  9
$SNAPSTYLE
 70
0
  9
$SNAPISOPAIR
 70
0
  9
$GRIDMODE
 70
0
  9
$GRIDUNIT
 10
0
 20
0
  9
$ORTHOMODE
 70
0
  9
$REGENMODE
 70
1
  9
$FILLMODE
 70
1
  9
$QTEXTMODE
 70
0
  9
$DRAGMODE
 70
2
  9
$LTSCALE
 40
1
  9
$OSMODE
 70
0
  9
$ATTMODE
 70
1
  9
$TEXTSIZE
 40
3.5
  9
$TRACEWID
 40
0.5
  9
$TEXTSTYLE
  7
STANDARD
  9
$CLAYER
  8
0
  9
$CELTYPE
  6
BYLAYER
  9
$CECOLOR
 62
256
  9
$DIMSCALE
 40
1
  9
$DIMASZ
 40
0.18
  9
$DIMEXO
 40
0.0625
  9
$DIMDLI
 40
0.38
  9
$DIMRND
 40
0
  9
$DIMDLE
 40
0
  9
$DIMEXE
 40
0.18
  9
$DIMTP
 40
0
  9
$DIMTM
 40
0
  9
$DIMTXT
 40
0.18
  9
$DIMCEN
 40
0.09
  9
$DIMTSZ
 40
0
  9
$DIMTOL
 70
0
  9
$DIMLIM
 70
0
  9
$DIMTIH
 70
1
  9
$DIMTOH
 70
1
  9
$DIMSE1
 70
0
  9
$DIMSE2
 70
0
  9
$DIMTAD
 70
0
  9
$DIMZIN
 70
0
  9
$DIMBLK
  1

  9
$DIMASO
 70
1
  9
$DIMSHO
 70
1
  9
$DIMPOST
  1

  9
$DIMAPOST
  1

  9
$DIMALT
 70
0
  9
$DIMALTD
 70
2
  9
$DIMALTF
 40
25.4
  9
$DIMLFAC
 40
1
  9
$DIMTOFL
 70
0
  9
$DIMTVP
 40
0
  9
$DIMTIX
 70
0
  9
$DIMSOXD
 70
0
  9
$DIMSAH
 70
0
  9
$DIMBLK1
  1

  9
$DIMBLK2
  1

  9
$DIMSTYLE
  2
*UNNAMED
  9
$DIMCLRD
 70
0
  9
$DIMCLRE
 70
0
  9
$DIMCLRT
 70
0
  9
$DIMTFAC
 40
1
  9
$DIMGAP
 40
0.09
  9
$LUNITS
 70
2
  9
$LUPREC
 70
4
  9
$AXISMODE
 70
0
  9
$AXISUNIT
 10
0
 20
0
  9
$SKETCHINC
 40
0.1
  9
$FILLETRAD
 40
2
  9
$AUNITS
 70
0
  9
$AUPREC
 70
0
  9
$MENU
  1
ACAD
  9
$ELEVATION
 40
0
  9
$THICKNESS
 40
0
  9
$VIEWDIR
 10
0
 20
0
 30
1
  9
$LIMCHECK
 70
0
  9
$BLIPMODE
 70
1
  9
$CHAMFERA
 40
0
  9
$CHAMFERB
 40
0
  9
$FASTZOOM
 70
1
  9
$SKPOLY
 70
0
  9
$ANGBASE
 50
0
  9
$ANGDIR
 70
0
  9
$PDMODE
 70
0
  9
$PDSIZE
 40
0
  9
$PLINEWID
 40
0
  9
$COORDS
 70
2
  0
ENDSEC
  0
SECTION
  2
TABLES
  0
TABLE
  2
DIMSTYLE
 70
2
  0
DIMSTYLE
  2
DMST_1
 70
0
  3

  4

  5

  6

  7

 40
1
 41
3.2
 42
0.5
 43
7
 44
1.5
 45
0
 46
0
 47
0
 48
0
140
3.2
141
0
142
0
143
25.4
144
1
145
0
146
1
147
0.09
 71
0
 72
0
 73
0
 74
0
 75
0
 76
0
 77
1
 78
9
170
0
171
2
172
0
173
0
174
0
175
0
176
2
177
2
178
2
  0
DIMSTYLE
  2
DMST_2
 70
0
  3

  4

  5

  6

  7

 40
1
 41
3
 42
0.5
 43
7
 44
1
 45
0
 46
0
 47
0
 48
0
140
3
141
0
142
0
143
25.4
144
1
145
0
146
1
147
0.09
 71
0
 72
0
 73
0
 74
0
 75
0
 76
0
 77
1
 78
9
170
0
171
2
172
0
173
0
174
0
175
0
176
2
177
2
178
2
  0
ENDTAB
  0
TABLE
  2
LTYPE
 70
9
  0
LTYPE
  2
CONTINUOUS
 70
64
  3
Solid line
 72
65
 73
0
 40
0
  0
LTYPE
  2
BORDER
 70
64
  3
__ __ . __ __ .
 72
65
 73
6
 40
18.92100852499802
 49
5.40600243571372
 49
-2.70300121785686
 49
5.40600243571372
 49
-2.70300121785686
 49
0
 49
-2.70300121785686
  0
LTYPE
  2
CENTER
 70
64
  3
____ _ ____ _
 72
65
 73
4
 40
21.62400974285488
 49
13.5150060892843
 49
-2.70300121785686
 49
2.70300121785686
 49
-2.70300121785686
  0
LTYPE
  2
DASHDOT
 70
64
  3
__ . __ . __ .
 72
65
 73
4
 40
10.81200487142744
 49
5.40600243571372
 49
-2.70300121785686
 49
0
 49
-2.70300121785686
  0
LTYPE
  2
DASHED
 70
64
  3
__ __ __ __ __
 72
65
 73
2
 40
8.10900365357058
 49
5.40600243571372
 49
-2.70300121785686
  0
LTYPE
  2
DIVIDE
 70
64
  3
__ . . __ . . 
 72
65
 73
6
 40
13.5150060892843
 49
5.40600243571372
 49
-2.70300121785686
 49
0
 49
-2.70300121785686
 49
0
 49
-2.70300121785686
  0
LTYPE
  2
DOT
 70
64
  3
..............
 72
65
 73
4
 40
5.40600243571372
 49
0
 49
-2.70300121785686
 49
0
 49
-2.70300121785686
  0
LTYPE
  2
HIDDEN
 70
64
  3
_ _ _ _ _ _ _
 72
65
 73
2
 40
4.05450182678529
 49
2.70300121785686
 49
-1.35150060892843
  0
LTYPE
  2
PHANTOM
 70
64
  3
_____ _ _ _____ _ _ 
 72
65
 73
6
 40
27.0300121785686
 49
13.5150060892843
 49
-2.70300121785686
 49
2.70300121785686
 49
-2.70300121785686
 49
2.70300121785686
 49
-2.70300121785686
  0
ENDTAB
  0
TABLE
  2
LAYER
 70
3
  0
LAYER
  2
0
 70
0
 62
7
  6
CONTINUOUS
  0
LAYER
  2
1
 70
0
 62
7
  6
CONTINUOUS
  0
ENDTAB
  0
TABLE
  2
STYLE
 70
4
  0
STYLE
  2
STANDARD
 70
0
 40
0
 41
1
 50
0
 71
0
 42
3.5
  3
txt
  4

  0
STYLE
  2
SIMPLEX
 70
0
 40
0
 41
1
 50
0
 71
0
 42
3.5
  3
simplex
  4

  0
STYLE
  2
COMPLEX
 70
0
 40
0
 41
1
 50
0
 71
0
 42
3.5
  3
complex
  4

  0
STYLE
  2
ITALIC
 70
0
 40
0
 41
1
 50
0
 71
0
 42
3.5
  3
italic
  4

  0
ENDTAB
  0
TABLE
  2
VIEW
 70
0
  0
ENDTAB
  0
ENDSEC
  0
SECTION
  2
BLOCKS
  0
BLOCK
  8
1
  2
*X0
 70
1
 10
0
 20
0
 30
0
  0
ENDBLK
  8
0
  0
BLOCK
  8
1
  2
*X1
 70
1
 10
0
 20
0
 30
0
  0
ENDBLK
  8
0
  0
BLOCK
  8
1
  2
*D0
 70
1
 10
0
 20
0
 30
0
  0
LINE
  8
1
 62
2
 10
267.1142027330375
 20
491.352965591376
 30
0
 11
287.1142027330375
 21
491.352965591376
 31
0
  0
LINE
  8
1
 62
2
 10
287.1142027330375
 20
500.4268499588737
 30
0
 11
287.1142027330375
 21
489.852965591376
 31
0
  0
LINE
  8
1
 62
2
 10
267.1142027330375
 20
501.4268499588736
 30
0
 11
267.1142027330375
 21
489.852965591376
 31
0
  0
LINE
  8
1
 62
2
 10
267.1142027330375
 20
491.352965591376
 30
0
 11
270.3142027330375
 21
492.216965591376
 31
0
  0
LINE
  8
1
 62
2
 10
267.1142027330375
 20
491.352965591376
 30
0
 11
270.3142027330375
 21
490.488965591376
 31
0
  0
LINE
  8
1
 62
2
 10
287.1142027330375
 20
491.352965591376
 30
0
 11
283.9142027330375
 21
490.488965591376
 31
0
  0
LINE
  8
1
 62
2
 10
287.1142027330375
 20
491.352965591376
 30
0
 11
283.9142027330375
 21
492.216965591376
 31
0
  0
TEXT
  8
1
 62
2
 10
274.2854840251477
 20
492.352965591376
 30
0
 40
3.2
  1
20
 41
0.9
 51
15
  0
ENDBLK
  8
0
  0
BLOCK
  8
1
  2
*D1
 70
1
 10
0
 20
0
 30
0
  0
LINE
  8
1
 62
2
 10
551.3309083418909
 20
680.2907311283973
 30
0
 11
551.3309083418909
 21
808.2907341681973
 31
0
  0
LINE
  8
1
 62
2
 10
406.6142029230373
 20
808.2907341681973
 30
0
 11
552.3309083418909
 21
808.2907341681973
 31
0
  0
LINE
  8
1
 62
2
 10
406.6142027330375
 20
680.2907311283973
 30
0
 11
552.3309083418909
 21
680.2907311283973
 31
0
  0
LINE
  8
1
 62
2
 10
551.3309083418909
 20
808.2907341681973
 30
0
 11
552.1409083418909
 21
805.2907341681973
 31
0
  0
LINE
  8
1
 62
2
 10
551.3309083418909
 20
808.2907341681973
 30
0
 11
550.520908341891
 21
805.2907341681973
 31
0
  0
LINE
  8
1
 62
2
 10
551.3309083418909
 20
680.2907311283973
 30
0
 11
550.520908341891
 21
683.2907311283973
 31
0
  0
LINE
  8
1
 62
2
 10
551.3309083418909
 20
680.2907311283973
 30
0
 11
552.1409083418909
 21
683.2907311283973
 31
0
  0
TEXT
  8
1
 62
2
 10
550.530908341891
 20
740.7388088596506
 30
0
 40
3
  1
128
 50
90
 41
0.9
 51
15
  0
ENDBLK
  8
0
  0
BLOCK
  8
1
  2
*D2
 70
1
 10
0
 20
0
 30
0
  0
LINE
  8
1
 62
2
 10
551.3309083418909
 20
483.9268499588736
 30
0
 11
551.3309083418909
 21
625.9268499588736
 31
0
  0
LINE
  8
1
 62
2
 10
386.5620651689376
 20
625.9268499588736
 30
0
 11
552.3309083418909
 21
625.9268499588736
 31
0
  0
LINE
  8
1
 62
2
 10
437.6142027330375
 20
483.9268499588736
 30
0
 11
552.3309083418909
 21
483.9268499588736
 31
0
  0
LINE
  8
1
 62
2
 10
551.3309083418909
 20
625.9268499588736
 30
0
 11
552.1409083418909
 21
622.9268499588736
 31
0
  0
LINE
  8
1
 62
2
 10
551.3309083418909
 20
625.9268499588736
 30
0
 11
550.520908341891
 21
622.9268499588736
 31
0
  0
LINE
  8
1
 62
2
 10
551.3309083418909
 20
483.9268499588736
 30
0
 11
550.520908341891
 21
486.9268499588736
 31
0
  0
LINE
  8
1
 62
2
 10
551.3309083418909
 20
483.9268499588736
 30
0
 11
552.1409083418909
 21
486.9268499588736
 31
0
  0
TEXT
  8
1
 62
2
 10
550.530908341891
 20
551.3749261702269
 30
0
 40
3
  1
142
 50
90
 41
0.9
 51
15
  0
ENDBLK
  8
0
  0
BLOCK
  8
1
  2
*D3
 70
1
 10
0
 20
0
 30
0
  0
LINE
  8
1
 62
2
 10
534.84335346868
 20
483.9268499588736
 30
0
 11
534.84335346868
 21
528.9268499588734
 31
0
  0
LINE
  8
1
 62
2
 10
521.3128109766012
 20
528.9268499588734
 30
0
 11
535.84335346868
 21
528.9268499588734
 31
0
  0
LINE
  8
1
 62
2
 10
437.6142027330375
 20
483.9268499588736
 30
0
 11
535.84335346868
 21
483.9268499588736
 31
0
  0
LINE
  8
1
 62
2
 10
534.84335346868
 20
528.9268499588734
 30
0
 11
535.6533534686799
 21
525.9268499588734
 31
0
  0
LINE
  8
1
 62
2
 10
534.84335346868
 20
528.9268499588734
 30
0
 11
534.0333534686801
 21
525.9268499588734
 31
0
  0
LINE
  8
1
 62
2
 10
534.84335346868
 20
483.9268499588736
 30
0
 11
534.0333534686801
 21
486.9268499588736
 31
0
  0
LINE
  8
1
 62
2
 10
534.84335346868
 20
483.9268499588736
 30
0
 11
535.6533534686799
 21
486.9268499588736
 31
0
  0
TEXT
  8
1
 62
2
 10
534.04335346868
 20
503.7749261702268
 30
0
 40
3
  1
45
 50
90
 41
0.9
 51
15
  0
ENDBLK
  8
0
  0
BLOCK
  8
1
  2
*D4
 70
1
 10
0
 20
0
 30
0
  0
LINE
  8
1
 62
2
 10
267.1142027330375
 20
457.268216669036
 30
0
 11
512.1142027330375
 21
457.268216669036
 31
0
  0
LINE
  8
1
 62
2
 10
512.1142027330375
 20
501.4268499588736
 30
0
 11
512.1142027330375
 21
456.268216669036
 31
0
  0
LINE
  8
1
 62
2
 10
267.1142027330375
 20
501.4268499588736
 30
0
 11
267.1142027330375
 21
456.268216669036
 31
0
  0
LINE
  8
1
 62
2
 10
267.1142027330375
 20
457.268216669036
 30
0
 11
270.1142027330375
 21
458.078216669036
 31
0
  0
LINE
  8
1
 62
2
 10
267.1142027330375
 20
457.268216669036
 30
0
 11
270.1142027330375
 21
456.458216669036
 31
0
  0
LINE
  8
1
 62
2
 10
512.1142027330375
 20
457.268216669036
 30
0
 11
509.1142027330375
 21
456.458216669036
 31
0
  0
LINE
  8
1
 62
2
 10
512.1142027330375
 20
457.268216669036
 30
0
 11
509.1142027330375
 21
458.078216669036
 31
0
  0
TEXT
  8
1
 62
2
 10
399.4802953282913
 20
458.068216669036
 30
0
 40
3
  1
245
 41
0.9
 51
15
  0
ENDBLK
  8
0
  0
ENDSEC
  0
SECTION
  2
ENTITIES
  0
INSERT
  8
1
  2
*X0
 10
0
 20
0
 30
0
  0
INSERT
  8
1
  2
*X1
 10
0
 20
0
 30
0
  0
POLYLINE
  8
0
 62
2
 66
1
  0
VERTEX
  8
0
 10
382.8746150237374
 20
757.5419752188973
 30
0
  0
VERTEX
  8
0
 10
382.8513878387374
 20
757.6956928037973
 30
0
  0
VERTEX
  8
0
 10
382.7984328371374
 20
757.8053234405973
 30
0
  0
SEQEND
  8
0
  0
POLYLINE
  8
0
 62
2
 66
1
  0
VERTEX
  8
0
 10
383.0777700049784
 20
757.8053234407041
 30
0
  0
VERTEX
  8
0
 10
383.0231144083374
 20
757.6628832407973
 30
0
  0
VERTEX
  8
0
 10
383.0185155374375
 20
757.5419752188973
 30
0
  0
SEQEND
  8
0
  0
POLYLINE
  8
0
 62
2
 66
1
  0
VERTEX
  8
0
 10
383.7966467243374
 20
757.6187851168972
 30
0
  0
VERTEX
  8
0
 10
383.7676695538374
 20
757.3876494802973
 30
0
  0
VERTEX
  8
0
 10
383.6872312231482
 20
757.2237637157131
 30
0
  0
SEQEND
  8
0
  0
POLYLINE
  8
0
 62
2
 66
1
  0
VERTEX
  8
0
 10
383.6787673634374
 20
758.0028346069973
 30
0
  0
VERTEX
  8
0
 10
383.7762190950374
 20
757.7972358353973
 30
0
  0
VERTEX
  8
0
 10
383.7966467243374
 20
757.6187851168972
 30
0
  0
SEQEND
  8
0
  0
POLYLINE
  8
0
 62
2
 66
1
  0
VERTEX
  8
0
 10
383.3232461464374
 20
758.1784000881974
 30
0
  0
VERTEX
  8
0
 10
383.5443607521374
 20
758.1226837150973
 30
0
  0
VERTEX
  8
0
 10
383.6787673634374
 20
758.0028346069973
 30
0
  0
SEQEND
  8
0
  0
POLYLINE
  8
0
 62
2
 66
1
  0
VERTEX
  8
0
 10
383.0354451191374
 20
758.0247802920974
 30
0
  0
VERTEX
  8
0
 10
383.1790364337375
 20
758.1460533924974
 30
0
  0
VERTEX
  8
0
 10
383.3232461464374
 20
758.1784000881974
 30
0
  0
SEQEND
  8
0
  0
POLYLINE
  8
0
 62
2
 66
1
  0
VERTEX
  8
0
 10
382.9423333508374
 20
757.8053234405973
 30
0
  0
VERTEX
  8
0
 10
382.9832500768374
 20
757.9332052059972
 30
0
  0
VERTEX
  8
0
 10
383.0354451191374
 20
758.0247802920974
 30
0
  0
SEQEND
  8
0
  0
POLYLINE
  8
0
 62
2
 66
1
  0
VERTEX
  8
0
 10
382.8322920007374
 20
758.0138074494973
 30
0
  0
VERTEX
  8
0
 10
382.9045514566374
 20
757.9024557285973
 30
0
  0
VERTEX
  8
0
 10
382.9423333508374
 20
757.8053234405973
 30
0
  0
SEQEND
  8
0
  0
POLYLINE
  8
0
 62
2
 66
1
  0
VERTEX
  8
0
 10
382.5614186925375
 20
758.1345087178972
 30
0
  0
VERTEX
  8
0
 10
382.7287531447374
 20
758.0994444228973
 30
0
  0
VERTEX
  8
0
 10
382.8322920007374
 20
758.0138074494973
 30
0
  0
SEQEND
  8
0
  0
POLYLINE
  8
0
 62
2
 66
1
  0
VERTEX
  8
0
 10
382.2482223612374
 20
757.9808889217973
 30
0
  0
VERTEX
  8
0
 10
382.4057760638374
 20
758.1050612293973
 30
0
  0
VERTEX
  8
0
 10
382.5614186925375
 20
758.1345087178972
 30
0
  0
SEQEND
  8
0
  0
POLYLINE
  8
0
 62
2
 66
1
  0
VERTEX
  8
0
 10
382.1466467333374
 20
757.6297579593972
 30
0
  0
VERTEX
  8
0
 10
382.1745193553375
 20
757.8355811797974
 30
0
  0
VERTEX
  8
0
 10
382.2482223612374
 20
757.9808889217973
 30
0
  0
SEQEND
  8
0
  0
POLYLINE
  8
0
 62
2
 66
1
  0
VERTEX
  8
0
 10
382.2482223612374
 20
757.2896007709971
 30
0
  0
VERTEX
  8
0
 10
382.1637905192374
 20
757.4719425551973
 30
0
  0
VERTEX
  8
0
 10
382.1466467333374
 20
757.6297579593972
 30
0
  0
SEQEND
  8
0
  0
POLYLINE
  8
0
 62
2
 66
1
  0
VERTEX
  8
0
 10
382.6037435782374
 20
757.1030624471973
 30
0
  0
VERTEX
  8
0
 10
382.3828059238374
 20
757.1675909943974
 30
0
  0
VERTEX
  8
0
 10
382.2482223612374
 20
757.2896007709971
 30
0
  0
SEQEND
  8
0
  0
POLYLINE
  8
0
 62
2
 66
1
  0
VERTEX
  8
0
 10
382.3497998518375
 20
757.4651662521974
 30
0
  0
VERTEX
  8
0
 10
382.4791680080374
 20
757.3702384047974
 30
0
  0
VERTEX
  8
0
 10
382.6037435782374
 20
757.3444649837973
 30
0
  0
SEQEND
  8
0
  0
POLYLINE
  8
0
 62
2
 66
1
  0
VERTEX
  8
0
 10
382.2990111065375
 20
757.6297579593972
 30
0
  0
VERTEX
  8
0
 10
382.3138154101374
 20
757.5330661870974
 30
0
  0
VERTEX
  8
0
 10
382.3497998518375
 20
757.4651662521974
 30
0
  0
SEQEND
  8
0
  0
POLYLINE
  8
0
 62
2
 66
1
  0
VERTEX
  8
0
 10
382.3497998518375
 20
757.7943505980973
 30
0
  0
VERTEX
  8
0
 10
382.3078698468374
 20
757.7062102295975
 30
0
  0
VERTEX
  8
0
 10
382.2990111065375
 20
757.6297579593972
 30
0
  0
SEQEND
  8
0
  0
POLYLINE
  8
0
 62
2
 66
1
  0
VERTEX
  8
0
 10
382.5952778560375
 20
757.8931061811973
 30
0
  0
VERTEX
  8
0
 10
382.4449046504374
 20
757.8665700070974
 30
0
  0
VERTEX
  8
0
 10
382.3497998518375
 20
757.7943505980973
 30
0
  0
SEQEND
  8
0
  0
POLYLINE
  8
0
 62
2
 66
1
  0
VERTEX
  8
0
 10
383.6364424777374
 20
757.6187851168972
 30
0
  0
VERTEX
  8
0
 10
383.6109596294374
 20
757.7419627718973
 30
0
  0
VERTEX
  8
0
 10
383.5602602911174
 20
757.8272691257405
 30
0
  0
SEQEND
  8
0
  0
POLYLINE
  8
0
 62
2
 66
1
  0
VERTEX
  8
0
 10
383.5771898729374
 20
757.4103020392975
 30
0
  0
VERTEX
  8
0
 10
383.6268647563375
 20
757.5223326943974
 30
0
  0
VERTEX
  8
0
 10
383.6364424777374
 20
757.6187851168972
 30
0
  0
SEQEND
  8
0
  0
POLYLINE
  8
0
 62
2
 66
1
  0
VERTEX
  8
0
 10
383.3063184273374
 20
757.3115464560974
 30
0
  0
VERTEX
  8
0
 10
383.4721124721374
 20
757.3325570933973
 30
0
  0
VERTEX
  8
0
 10
383.5771898729374
 20
757.4103020392975
 30
0
  0
SEQEND
  8
0
  0
POLYLINE
  8
0
 62
2
 66
1
  0
VERTEX
  8
0
 10
382.6200547618374
 20
756.1903318651973
 30
0
  0
VERTEX
  8
0
 10
382.6591516834375
 20
756.4961502589974
 30
0
  0
VERTEX
  8
0
 10
382.7708805900912
 20
756.709845949018
 30
0
  0
SEQEND
  8
0
  0
POLYLINE
  8
0
 62
2
 66
1
  0
VERTEX
  8
0
 10
383.0473958504341
 20
755.4399233572983
 30
0
  0
VERTEX
  8
0
 10
382.7081541520374
 20
755.8068905286973
 30
0
  0
VERTEX
  8
0
 10
382.6200547618374
 20
756.1903318651973
 30
0
  0
SEQEND
  8
0
  0
POLYLINE
  8
0
 62
2
 66
1
  0
VERTEX
  8
0
 10
383.0473958504374
 20
754.0834157057973
 30
0
  0
VERTEX
  8
0
 10
382.7081541520374
 20
754.4503828771974
 30
0
  0
VERTEX
  8
0
 10
382.6200547618374
 20
754.8338242135974
 30
0
  0
SEQEND
  8
0
  0
POLYLINE
  8
0
 62
2
 66
1
  0
VERTEX
  8
0
 10
383.0976723683374
 20
754.6029297895973
 30
0
  0
VERTEX
  8
0
 10
383.1394328725374
 20
754.4134065769974
 30
0
  0
VERTEX
  8
0
 10
383.2233618003243
 20
754.2854493744851
 30
0
  0
SEQEND
  8
0
  0
POLYLINE
  8
0
 62
2
 66
1
  0
VERTEX
  8
0
 10
383.1730852824375
 20
754.8049625270974
 30
0
  0
VERTEX
  8
0
 10
383.1119588566374
 20
754.6985244639973
 30
0
  0
VERTEX
  8
0
 10
383.0976723683374
 20
754.6029297895973
 30
0
  0
SEQEND
  8
0
  0
POLYLINE
  8
0
 62
2
 66
1
  0
VERTEX
  8
0
 10
383.4496005428374
 20
754.8543067909973
 30
0
  0
VERTEX
  8
0
 10
383.2910987538375
 20
754.8440454788974
 30
0
  0
VERTEX
  8
0
 10
383.1730852824375
 20
754.8049625270974
 30
0
  0
SEQEND
  8
0
  0
POLYLINE
  8
0
 62
2
 66
1
  0
VERTEX
  8
0
 10
383.0976723683374
 20
755.9594374410974
 30
0
  0
VERTEX
  8
0
 10
383.1428340626375
 20
755.7867143563974
 30
0
  0
VERTEX
  8
0
 10
383.2233618003374
 20
755.6708187125973
 30
0
  0
SEQEND
  8
0
  0
POLYLINE
  8
0
 62
2
 66
1
  0
VERTEX
  8
0
 10
383.1730852824375
 20
756.1903318651973
 30
0
  0
VERTEX
  8
0
 10
383.1100887609374
 20
756.0676450170975
 30
0
  0
VERTEX
  8
0
 10
383.0976723683374
 20
755.9594374410974
 30
0
  0
SEQEND
  8
0
  0
POLYLINE
  8
0
 62
2
 66
1
  0
VERTEX
  8
0
 10
383.4747388017374
 20
756.2685387469971
 30
0
  0
VERTEX
  8
0
 10
383.2987505001374
 20
756.2489809729973
 30
0
  0
VERTEX
  8
0
 10
383.1730852824375
 20
756.1903318651973
 30
0
  0
SEQEND
  8
0
  0
LINE
  8
1
 62
2
 10
440.6142027330375
 20
409.8483836654492
 30
0
 11
440.8642027330375
 21
410.1296336654492
 31
0
  0
LINE
  8
1
 62
2
 10
440.6142027330375
 20
411.5358836654492
 30
0
 11
439.1142027330375
 21
411.5358836654492
 31
0
  0
LINE
  8
1
 62
2
 10
444.3642027330375
 20
405.0671336654492
 30
0
 11
446.6142027330375
 21
405.0671336654492
 31
0
  0
LINE
  8
1
 62
2
 10
441.8642027330375
 20
405.0671336654492
 30
0
 11
444.3642027330375
 21
405.0671336654492
 31
0
  0
LINE
  8
1
 62
2
 10
444.3642027330375
 20
413.2233836654492
 30
0
 11
444.3642027330375
 21
405.0671336654492
 31
0
  0
LINE
  8
1
 62
2
 10
442.6142027330375
 20
409.8483836654492
 30
0
 11
446.1142027330375
 21
409.8483836654492
 31
0
  0
LINE
  8
1
 62
2
 10
441.1142027330375
 20
409.5671336654492
 30
0
 11
442.3642027330375
 21
408.1608836654492
 31
0
  0
LINE
  8
1
 62
2
 10
440.6142027330375
 20
411.5358836654492
 30
0
 11
440.6142027330375
 21
413.2233836654492
 31
0
  0
LINE
  8
1
 62
2
 10
441.8642027330375
 20
411.5358836654492
 30
0
 11
440.6142027330375
 21
411.5358836654492
 31
0
  0
LINE
  8
1
 62
2
 10
440.8642027330375
 20
410.1296336654492
 30
0
 11
441.8642027330375
 21
411.5358836654492
 31
0
  0
LINE
  8
1
 62
2
 10
439.6142027330375
 20
408.7233836654492
 30
0
 11
440.6142027330375
 21
409.8483836654492
 31
0
  0
LINE
  8
1
 62
2
 10
438.6142027330375
 20
407.8796336654492
 30
0
 11
439.6142027330375
 21
408.7233836654492
 31
0
  0
LINE
  8
1
 62
2
 10
440.6142027330375
 20
404.7858836654492
 30
0
 11
440.6142027330375
 21
409.8483836654492
 31
0
  0
LINE
  8
1
 62
2
 10
433.6142027330375
 20
407.8796336654492
 30
0
 11
431.1142027330375
 21
404.7858836654492
 31
0
  0
LINE
  8
1
 62
2
 10
435.8642027330375
 20
405.3483836654492
 30
0
 11
434.8642027330375
 21
406.4733836654492
 31
0
  0
LINE
  8
1
 62
2
 10
436.6142027330375
 20
404.5046336654492
 30
0
 11
435.8642027330375
 21
405.3483836654492
 31
0
  0
LINE
  8
1
 62
2
 10
430.3642027330375
 20
404.7858836654492
 30
0
 11
435.8642027330375
 21
405.3483836654492
 31
0
  0
LINE
  8
1
 62
2
 10
430.8642027330375
 20
408.1608836654492
 30
0
 11
436.6142027330375
 21
408.1608836654492
 31
0
  0
LINE
  8
1
 62
2
 10
431.8642027330375
 20
409.5671336654492
 30
0
 11
435.3642027330375
 21
409.5671336654492
 31
0
  0
LINE
  8
1
 62
2
 10
433.6142027330375
 20
413.2233836654492
 30
0
 11
437.6142027330375
 21
409.0046336654492
 31
0
  0
LINE
  8
1
 62
2
 10
433.6142027330375
 20
413.2233836654492
 30
0
 11
429.6142027330375
 21
409.0046336654492
 31
0
  0
LINE
  8
1
 62
2
 10
422.8642027330375
 20
409.2858836654492
 30
0
 11
421.1142027330375
 21
409.2858836654492
 31
0
  0
LINE
  8
1
 62
2
 10
422.8642027330375
 20
406.1921336654492
 30
0
 11
424.6142027330375
 21
406.7546336654492
 31
0
  0
LINE
  8
1
 62
2
 10
427.8642027330375
 20
404.7858836654492
 30
0
 11
428.6142027330375
 21
405.6296336654492
 31
0
  0
LINE
  8
1
 62
2
 10
426.8642027330375
 20
405.9108836654492
 30
0
 11
427.8642027330375
 21
404.7858836654492
 31
0
  0
LINE
  8
1
 62
2
 10
425.8642027330375
 20
407.8796336654492
 30
0
 11
426.8642027330375
 21
405.9108836654492
 31
0
  0
LINE
  8
1
 62
2
 10
425.3642027330375
 20
410.1296336654492
 30
0
 11
425.8642027330375
 21
407.8796336654492
 31
0
  0
LINE
  8
1
 62
2
 10
425.1142027330375
 20
413.5046336654492
 30
0
 11
425.3642027330375
 21
410.1296336654492
 31
0
  0
LINE
  8
1
 62
2
 10
426.6142027330375
 20
412.3796336654492
 30
0
 11
425.8642027330375
 21
413.2233836654492
 31
0
  0
LINE
  8
1
 62
2
 10
420.6142027330375
 20
411.5358836654492
 30
0
 11
427.8642027330375
 21
411.5358836654492
 31
0
  0
LINE
  8
1
 62
2
 10
422.8642027330375
 20
409.2858836654492
 30
0
 11
422.8642027330375
 21
406.1921336654492
 31
0
  0
LINE
  8
1
 62
2
 10
424.6142027330375
 20
409.2858836654492
 30
0
 11
422.8642027330375
 21
409.2858836654492
 31
0
  0
LINE
  8
1
 62
2
 10
421.1142027330375
 20
405.6296336654492
 30
0
 11
422.8642027330375
 21
406.1921336654492
 31
0
  0
LINE
  8
1
 62
2
 10
413.3642027330375
 20
410.9733836654492
 30
0
 11
413.3642027330375
 21
413.5046336654492
 31
0
  0
LINE
  8
1
 62
2
 10
413.3642027330375
 20
410.9733836654492
 30
0
 11
412.1142027330375
 21
410.9733836654492
 31
0
  0
LINE
  8
1
 62
2
 10
418.3642027330375
 20
406.7546336654492
 30
0
 11
419.3642027330375
 21
404.7858836654492
 31
0
  0
LINE
  8
1
 62
2
 10
417.1142027330375
 20
409.2858836654492
 30
0
 11
418.3642027330375
 21
406.7546336654492
 31
0
  0
LINE
  8
1
 62
2
 10
416.3642027330375
 20
407.3171336654492
 30
0
 11
417.1142027330375
 21
409.2858836654492
 31
0
  0
LINE
  8
1
 62
2
 10
415.3642027330375
 20
405.9108836654492
 30
0
 11
416.3642027330375
 21
407.3171336654492
 31
0
  0
LINE
  8
1
 62
2
 10
414.6142027330375
 20
404.7858836654492
 30
0
 11
415.3642027330375
 21
405.9108836654492
 31
0
  0
LINE
  8
1
 62
2
 10
417.1142027330375
 20
413.5046336654492
 30
0
 11
417.1142027330375
 21
404.5046336654492
 31
0
  0
LINE
  8
1
 62
2
 10
419.3642027330375
 20
409.2858836654492
 30
0
 11
415.1142027330375
 21
409.2858836654492
 31
0
  0
LINE
  8
1
 62
2
 10
415.8642027330375
 20
411.2546336654492
 30
0
 11
419.1142027330375
 21
411.2546336654492
 31
0
  0
LINE
  8
1
 62
2
 10
415.8642027330375
 20
411.2546336654492
 30
0
 11
416.1142027330375
 21
412.6608836654492
 31
0
  0
LINE
  8
1
 62
2
 10
415.1142027330375
 20
409.8483836654492
 30
0
 11
415.8642027330375
 21
411.2546336654492
 31
0
  0
LINE
  8
1
 62
2
 10
413.3642027330375
 20
410.9733836654492
 30
0
 11
414.6142027330375
 21
408.7233836654492
 31
0
  0
LINE
  8
1
 62
2
 10
411.8642027330375
 20
407.0358836654492
 30
0
 11
413.3642027330375
 21
410.9733836654492
 31
0
  0
LINE
  8
1
 62
2
 10
414.6142027330375
 20
410.9733836654492
 30
0
 11
413.3642027330375
 21
410.9733836654492
 31
0
  0
LINE
  8
1
 62
2
 10
413.3642027330375
 20
404.7858836654492
 30
0
 11
413.3642027330375
 21
410.9733836654492
 31
0
  0
LINE
  8
1
 62
2
 10
403.3642027330375
 20
410.1296336654492
 30
0
 11
403.3642027330375
 21
411.5358836654492
 31
0
  0
LINE
  8
1
 62
2
 10
405.8642027330375
 20
411.5358836654492
 30
0
 11
405.8642027330375
 21
410.1296336654492
 31
0
  0
LINE
  8
1
 62
2
 10
403.3642027330375
 20
411.5358836654492
 30
0
 11
403.3642027330375
 21
412.9421336654492
 31
0
  0
LINE
  8
1
 62
2
 10
409.8642027330375
 20
410.1296336654492
 30
0
 11
409.8642027330375
 21
411.5358836654492
 31
0
  0
LINE
  8
1
 62
2
 10
407.3642027330375
 20
411.5358836654492
 30
0
 11
407.3642027330375
 21
410.1296336654492
 31
0
  0
LINE
  8
1
 62
2
 10
409.8642027330375
 20
411.5358836654492
 30
0
 11
409.8642027330375
 21
412.9421336654492
 31
0
  0
LINE
  8
1
 62
2
 10
403.3642027330375
 20
405.0671336654492
 30
0
 11
403.3642027330375
 21
404.7858836654492
 31
0
  0
LINE
  8
1
 62
2
 10
407.3642027330375
 20
411.5358836654492
 30
0
 11
409.8642027330375
 21
411.5358836654492
 31
0
  0
LINE
  8
1
 62
2
 10
407.3642027330375
 20
410.1296336654492
 30
0
 11
409.8642027330375
 21
410.1296336654492
 31
0
  0
LINE
  8
1
 62
2
 10
407.3642027330375
 20
412.9421336654492
 30
0
 11
407.3642027330375
 21
411.5358836654492
 31
0
  0
LINE
  8
1
 62
2
 10
409.8642027330375
 20
412.9421336654492
 30
0
 11
407.3642027330375
 21
412.9421336654492
 31
0
  0
LINE
  8
1
 62
2
 10
409.8642027330375
 20
405.0671336654492
 30
0
 11
409.8642027330375
 21
410.1296336654492
 31
0
  0
LINE
  8
1
 62
2
 10
409.6142027330375
 20
404.7858836654492
 30
0
 11
409.8642027330375
 21
405.0671336654492
 31
0
  0
LINE
  8
1
 62
2
 10
408.8642027330375
 20
404.7858836654492
 30
0
 11
409.6142027330375
 21
404.7858836654492
 31
0
  0
LINE
  8
1
 62
2
 10
405.8642027330375
 20
411.5358836654492
 30
0
 11
403.3642027330375
 21
411.5358836654492
 31
0
  0
LINE
  8
1
 62
2
 10
405.8642027330375
 20
410.1296336654492
 30
0
 11
403.3642027330375
 21
410.1296336654492
 31
0
  0
LINE
  8
1
 62
2
 10
405.8642027330375
 20
412.9421336654492
 30
0
 11
405.8642027330375
 21
411.5358836654492
 31
0
  0
LINE
  8
1
 62
2
 10
403.3642027330375
 20
412.9421336654492
 30
0
 11
405.8642027330375
 21
412.9421336654492
 31
0
  0
LINE
  8
1
 62
2
 10
403.3642027330375
 20
405.0671336654492
 30
0
 11
403.3642027330375
 21
410.1296336654492
 31
0
  0
LINE
  8
1
 62
2
 10
397.6142027330375
 20
404.7858836654492
 30
0
 11
400.6142027330375
 21
404.7858836654492
 31
0
  0
LINE
  8
1
 62
2
 10
397.6142027330375
 20
410.1296336654492
 30
0
 11
399.3642027330375
 21
410.1296336654492
 31
0
  0
LINE
  8
1
 62
2
 10
400.6142027330375
 20
409.8483836654492
 30
0
 11
401.6142027330375
 21
409.0046336654492
 31
0
  0
LINE
  8
1
 62
2
 10
398.8642027330375
 20
411.8171336654492
 30
0
 11
400.6142027330375
 21
409.8483836654492
 31
0
  0
LINE
  8
1
 62
2
 10
397.6142027330375
 20
413.5046336654492
 30
0
 11
398.8642027330375
 21
411.8171336654492
 31
0
  0
LINE
  8
1
 62
2
 10
396.3642027330375
 20
411.8171336654492
 30
0
 11
397.6142027330375
 21
413.5046336654492
 31
0
  0
LINE
  8
1
 62
2
 10
394.6142027330375
 20
409.8483836654492
 30
0
 11
396.3642027330375
 21
411.8171336654492
 31
0
  0
LINE
  8
1
 62
2
 10
393.6142027330375
 20
409.0046336654492
 30
0
 11
394.6142027330375
 21
409.8483836654492
 31
0
  0
LINE
  8
1
 62
2
 10
398.8642027330375
 20
405.9108836654492
 30
0
 11
399.3642027330375
 21
407.3171336654492
 31
0
  0
LINE
  8
1
 62
2
 10
395.8642027330375
 20
407.3171336654492
 30
0
 11
396.3642027330375
 21
405.9108836654492
 31
0
  0
LINE
  8
1
 62
2
 10
400.1142027330375
 20
408.4421336654492
 30
0
 11
395.1142027330375
 21
408.4421336654492
 31
0
  0
LINE
  8
1
 62
2
 10
395.8642027330375
 20
410.1296336654492
 30
0
 11
397.6142027330375
 21
410.1296336654492
 31
0
  0
LINE
  8
1
 62
2
 10
397.6142027330375
 20
404.7858836654492
 30
0
 11
397.6142027330375
 21
410.1296336654492
 31
0
  0
LINE
  8
1
 62
2
 10
394.3642027330375
 20
404.7858836654492
 30
0
 11
397.6142027330375
 21
404.7858836654492
 31
0
  0
LINE
  8
1
 62
2
 10
390.8642027330375
 20
407.3171336654492
 30
0
 11
392.1142027330375
 21
409.0046336654492
 31
0
  0
LINE
  8
1
 62
2
 10
388.8642027330375
 20
406.1921336654492
 30
0
 11
390.8642027330375
 21
407.3171336654492
 31
0
  0
LINE
  8
1
 62
2
 10
388.8642027330375
 20
411.2546336654492
 30
0
 11
388.8642027330375
 21
406.1921336654492
 31
0
  0
LINE
  8
1
 62
2
 10
386.8642027330375
 20
409.0046336654492
 30
0
 11
387.1142027330375
 21
411.2546336654492
 31
0
  0
LINE
  8
1
 62
2
 10
386.3642027330375
 20
407.3171336654492
 30
0
 11
386.8642027330375
 21
409.0046336654492
 31
0
  0
LINE
  8
1
 62
2
 10
385.6142027330375
 20
405.9108836654492
 30
0
 11
386.3642027330375
 21
407.3171336654492
 31
0
  0
LINE
  8
1
 62
2
 10
377.1142027330375
 20
408.1608836654492
 30
0
 11
377.1142027330375
 21
406.4733836654492
 31
0
  0
LINE
  8
1
 62
2
 10
379.8642027330375
 20
405.3483836654492
 30
0
 11
381.3642027330375
 21
405.6296336654492
 31
0
  0
LINE
  8
1
 62
2
 10
377.3642027330375
 20
405.6296336654492
 30
0
 11
379.8642027330375
 21
405.3483836654492
 31
0
  0
LINE
  8
1
 62
2
 10
377.1142027330375
 20
406.4733836654492
 30
0
 11
377.3642027330375
 21
405.6296336654492
 31
0
  0
LINE
  8
1
 62
2
 10
377.1142027330375
 20
411.2546336654492
 30
0
 11
377.1142027330375
 21
408.1608836654492
 31
0
  0
LINE
  8
1
 62
2
 10
381.8642027330375
 20
411.8171336654492
 30
0
 11
382.6142027330375
 21
410.9733836654492
 31
0
  0
LINE
  8
1
 62
2
 10
382.1142027330375
 20
410.4108836654492
 30
0
 11
381.3642027330375
 21
411.2546336654492
 31
0
  0
LINE
  8
1
 62
2
 10
379.3642027330375
 20
409.0046336654492
 30
0
 11
380.8642027330375
 21
409.8483836654492
 31
0
  0
LINE
  8
1
 62
2
 10
377.1142027330375
 20
408.1608836654492
 30
0
 11
379.3642027330375
 21
409.0046336654492
 31
0
  0
LINE
  8
1
 62
2
 10
371.6142027330375
 20
407.3171336654492
 30
0
 11
373.1142027330375
 21
405.6296336654492
 31
0
  0
LINE
  8
1
 62
2
 10
370.3642027330375
 20
408.4421336654492
 30
0
 11
371.6142027330375
 21
407.3171336654492
 31
0
  0
LINE
  8
1
 62
2
 10
373.3642027330375
 20
412.3796336654492
 30
0
 11
374.1142027330375
 21
411.5358836654492
 31
0
  0
LINE
  8
1
 62
2
 10
372.8642027330375
 20
411.8171336654492
 30
0
 11
373.6142027330375
 21
410.9733836654492
 31
0
  0
LINE
  8
1
 62
2
 10
371.8642027330375
 20
411.2546336654492
 30
0
 11
368.6142027330375
 21
411.2546336654492
 31
0
  0
LINE
  8
1
 62
2
 10
371.1142027330375
 20
409.5671336654492
 30
0
 11
371.8642027330375
 21
411.2546336654492
 31
0
  0
LINE
  8
1
 62
2
 10
369.3642027330375
 20
407.0358836654492
 30
0
 11
371.1142027330375
 21
409.5671336654492
 31
0
  0
LINE
  8
1
 62
2
 10
367.6142027330375
 20
405.6296336654492
 30
0
 11
369.3642027330375
 21
407.0358836654492
 31
0
  0
LINE
  8
1
 62
2
 10
364.6142027330375
 20
410.9733836654492
 30
0
 11
362.3642027330375
 21
408.4421336654492
 31
0
  0
LINE
  8
1
 62
2
 10
358.8642027330375
 20
410.9733836654492
 30
0
 11
364.6142027330375
 21
410.9733836654492
 31
0
  0
LINE
  8
1
 62
2
 10
361.6142027330375
 20
408.4421336654492
 30
0
 11
361.8642027330375
 21
409.8483836654492
 31
0
  0
LINE
  8
1
 62
2
 10
361.1142027330375
 20
406.7546336654492
 30
0
 11
361.6142027330375
 21
408.4421336654492
 31
0
  0
LINE
  8
1
 62
2
 10
360.1142027330375
 20
405.0671336654492
 30
0
 11
361.1142027330375
 21
406.7546336654492
 31
0
  0
LINE
  8
1
 62
2
 10
465.5892027330375
 20
432.3171336654492
 30
0
 11
466.0892027330375
 21
431.4733836654492
 31
0
  0
LINE
  8
1
 62
2
 10
464.8392027330375
 20
433.1608836654492
 30
0
 11
465.5892027330375
 21
432.3171336654492
 31
0
  0
LINE
  8
1
 62
2
 10
463.8392027330375
 20
434.0046336654492
 30
0
 11
464.8392027330375
 21
433.1608836654492
 31
0
  0
LINE
  8
1
 62
2
 10
463.3392027330375
 20
435.1296336654492
 30
0
 11
462.5892027330375
 21
436.5358836654492
 31
0
  0
LINE
  8
1
 62
2
 10
464.5892027330375
 20
435.4108836654492
 30
0
 11
464.0892027330375
 21
436.8171336654492
 31
0
  0
LINE
  8
1
 62
2
 10
466.0892027330375
 20
434.8483836654492
 30
0
 11
466.8392027330375
 21
436.5358836654492
 31
0
  0
LINE
  8
1
 62
2
 10
464.5892027330375
 20
432.5983836654492
 30
0
 11
466.0892027330375
 21
434.8483836654492
 31
0
  0
LINE
  8
1
 62
2
 10
463.8392027330375
 20
431.7546336654492
 30
0
 11
464.5892027330375
 21
432.5983836654492
 31
0
  0
LINE
  8
1
 62
2
 10
462.5892027330375
 20
430.9108836654492
 30
0
 11
463.8392027330375
 21
431.7546336654492
 31
0
  0
LINE
  8
1
 62
2
 10
461.3392027330375
 20
437.9421336654492
 30
0
 11
461.3392027330375
 21
429.7858836654492
 31
0
  0
LINE
  8
1
 62
2
 10
467.8392027330375
 20
437.9421336654492
 30
0
 11
461.3392027330375
 21
437.9421336654492
 31
0
  0
LINE
  8
1
 62
2
 10
467.8392027330375
 20
429.7858836654492
 30
0
 11
467.8392027330375
 21
437.9421336654492
 31
0
  0
LINE
  8
1
 62
2
 10
461.3392027330375
 20
429.7858836654492
 30
0
 11
467.8392027330375
 21
429.7858836654492
 31
0
  0
LINE
  8
1
 62
2
 10
456.3392027330375
 20
433.7233836654492
 30
0
 11
459.3392027330375
 21
433.7233836654492
 31
0
  0
LINE
  8
1
 62
2
 10
457.5892027330375
 20
432.0358836654492
 30
0
 11
459.0892027330375
 21
429.5046336654492
 31
0
  0
LINE
  8
1
 62
2
 10
454.0892027330375
 20
429.7858836654492
 30
0
 11
458.3392027330375
 21
430.6296336654492
 31
0
  0
LINE
  8
1
 62
2
 10
456.3392027330375
 20
433.7233836654492
 30
0
 11
455.0892027330375
 21
430.0671336654492
 31
0
  0
LINE
  8
1
 62
2
 10
453.5892027330375
 20
433.7233836654492
 30
0
 11
456.3392027330375
 21
433.7233836654492
 31
0
  0
LINE
  8
1
 62
2
 10
456.5892027330375
 20
438.2233836654492
 30
0
 11
456.5892027330375
 21
433.7233836654492
 31
0
  0
LINE
  8
1
 62
2
 10
454.3392027330375
 20
435.9733836654492
 30
0
 11
459.0892027330375
 21
435.9733836654492
 31
0
  0
LINE
  8
1
 62
2
 10
452.3392027330375
 20
437.9421336654492
 30
0
 11
453.0892027330375
 21
436.8171336654492
 31
0
  0
LINE
  8
1
 62
2
 10
452.3392027330375
 20
434.5671336654492
 30
0
 11
451.5892027330375
 21
435.4108836654492
 31
0
  0
LINE
  8
1
 62
2
 10
451.8392027330375
 20
429.5046336654492
 30
0
 11
453.0892027330375
 21
433.1608836654492
 31
0
  0
LINE
  8
1
 62
2
 10
446.0892027330375
 20
432.8796336654492
 30
0
 11
445.0892027330375
 21
434.2858836654492
 31
0
  0
LINE
  8
1
 62
2
 10
448.0892027330375
 20
429.7858836654492
 30
0
 11
446.8392027330375
 21
429.7858836654492
 31
0
  0
LINE
  8
1
 62
2
 10
448.0892027330375
 20
437.9421336654492
 30
0
 11
448.0892027330375
 21
429.7858836654492
 31
0
  0
LINE
  8
1
 62
2
 10
443.3392027330375
 20
435.6921336654492
 30
0
 11
450.0892027330375
 21
435.6921336654492
 31
0
  0
LINE
  8
1
 62
2
 10
434.5892027330375
 20
431.4733836654492
 30
0
 11
434.5892027330375
 21
434.2858836654492
 31
0
  0
LINE
  8
1
 62
2
 10
436.0892027330375
 20
430.0671336654492
 30
0
 11
434.5892027330375
 21
430.0671336654492
 31
0
  0
LINE
  8
1
 62
2
 10
436.0892027330375
 20
434.2858836654492
 30
0
 11
437.3392027330375
 21
434.2858836654492
 31
0
  0
LINE
  8
1
 62
2
 10
435.8392027330375
 20
437.0983836654492
 30
0
 11
434.8392027330375
 21
437.0983836654492
 31
0
  0
LINE
  8
1
 62
2
 10
438.0892027330375
 20
435.9733836654492
 30
0
 11
438.0892027330375
 21
434.2858836654492
 31
0
  0
LINE
  8
1
 62
2
 10
440.5892027330375
 20
434.2858836654492
 30
0
 11
440.5892027330375
 21
437.6608836654492
 31
0
  0
LINE
  8
1
 62
2
 10
438.0892027330375
 20
434.2858836654492
 30
0
 11
438.0892027330375
 21
432.5983836654492
 31
0
  0
LINE
  8
1
 62
2
 10
438.8392027330375
 20
432.5983836654492
 30
0
 11
439.5892027330375
 21
432.5983836654492
 31
0
  0
LINE
  8
1
 62
2
 10
439.5892027330375
 20
432.5983836654492
 30
0
 11
440.5892027330375
 21
432.5983836654492
 31
0
  0
LINE
  8
1
 62
2
 10
441.3392027330375
 20
429.5046336654492
 30
0
 11
441.5892027330375
 21
430.0671336654492
 31
0
  0
LINE
  8
1
 62
2
 10
440.3392027330375
 20
429.5046336654492
 30
0
 11
441.3392027330375
 21
429.5046336654492
 31
0
  0
LINE
  8
1
 62
2
 10
439.5892027330375
 20
430.0671336654492
 30
0
 11
440.3392027330375
 21
429.5046336654492
 31
0
  0
LINE
  8
1
 62
2
 10
439.5892027330375
 20
432.5983836654492
 30
0
 11
439.5892027330375
 21
430.0671336654492
 31
0
  0
LINE
  8
1
 62
2
 10
438.0892027330375
 20
430.3483836654492
 30
0
 11
437.3392027330375
 21
429.5046336654492
 31
0
  0
LINE
  8
1
 62
2
 10
438.5892027330375
 20
431.7546336654492
 30
0
 11
438.0892027330375
 21
430.3483836654492
 31
0
  0
LINE
  8
1
 62
2
 10
438.8392027330375
 20
432.5983836654492
 30
0
 11
438.5892027330375
 21
431.7546336654492
 31
0
  0
LINE
  8
1
 62
2
 10
440.5892027330375
 20
434.2858836654492
 30
0
 11
438.0892027330375
 21
434.2858836654492
 31
0
  0
LINE
  8
1
 62
2
 10
438.0892027330375
 20
435.9733836654492
 30
0
 11
440.5892027330375
 21
435.9733836654492
 31
0
  0
LINE
  8
1
 62
2
 10
440.5892027330375
 20
437.6608836654492
 30
0
 11
438.0892027330375
 21
437.6608836654492
 31
0
  0
LINE
  8
1
 62
2
 10
440.5892027330375
 20
432.5983836654492
 30
0
 11
440.5892027330375
 21
434.2858836654492
 31
0
  0
LINE
  8
1
 62
2
 10
438.0892027330375
 20
432.5983836654492
 30
0
 11
438.8392027330375
 21
432.5983836654492
 31
0
  0
LINE
  8
1
 62
2
 10
438.0892027330375
 20
437.6608836654492
 30
0
 11
438.0892027330375
 21
435.9733836654492
 31
0
  0
LINE
  8
1
 62
2
 10
434.5892027330375
 20
437.0983836654492
 30
0
 11
435.0892027330375
 21
438.2233836654492
 31
0
  0
LINE
  8
1
 62
2
 10
433.8392027330375
 20
436.2546336654492
 30
0
 11
434.5892027330375
 21
437.0983836654492
 31
0
  0
LINE
  8
1
 62
2
 10
437.3392027330375
 20
437.0983836654492
 30
0
 11
435.8392027330375
 21
437.0983836654492
 31
0
  0
LINE
  8
1
 62
2
 10
434.8392027330375
 20
434.5671336654492
 30
0
 11
435.8392027330375
 21
437.0983836654492
 31
0
  0
LINE
  8
1
 62
2
 10
433.5892027330375
 20
432.8796336654492
 30
0
 11
434.8392027330375
 21
434.5671336654492
 31
0
  0
LINE
  8
1
 62
2
 10
437.5892027330375
 20
435.6921336654492
 30
0
 11
433.8392027330375
 21
435.6921336654492
 31
0
  0
LINE
  8
1
 62
2
 10
436.0892027330375
 20
434.2858836654492
 30
0
 11
436.3392027330375
 21
434.8483836654492
 31
0
  0
LINE
  8
1
 62
2
 10
436.0892027330375
 20
430.0671336654492
 30
0
 11
436.0892027330375
 21
434.2858836654492
 31
0
  0
LINE
  8
1
 62
2
 10
437.3392027330375
 20
430.0671336654492
 30
0
 11
436.0892027330375
 21
430.0671336654492
 31
0
  0
LINE
  8
1
 62
2
 10
434.5892027330375
 20
431.4733836654492
 30
0
 11
437.3392027330375
 21
431.4733836654492
 31
0
  0
LINE
  8
1
 62
2
 10
437.3392027330375
 20
432.8796336654492
 30
0
 11
434.5892027330375
 21
432.8796336654492
 31
0
  0
LINE
  8
1
 62
2
 10
434.5892027330375
 20
434.2858836654492
 30
0
 11
436.0892027330375
 21
434.2858836654492
 31
0
  0
LINE
  8
1
 62
2
 10
434.5892027330375
 20
429.5046336654492
 30
0
 11
434.5892027330375
 21
431.4733836654492
 31
0
  0
LINE
  8
1
 62
2
 10
431.3392027330375
 20
434.2858836654492
 30
0
 11
432.5892027330375
 21
432.8796336654492
 31
0
  0
LINE
  8
1
 62
2
 10
429.3392027330375
 20
436.2546336654492
 30
0
 11
431.3392027330375
 21
434.2858836654492
 31
0
  0
LINE
  8
1
 62
2
 10
429.8392027330375
 20
438.5046336654492
 30
0
 11
429.8392027330375
 21
429.5046336654492
 31
0
  0
LINE
  8
1
 62
2
 10
425.5892027330375
 20
434.8483836654492
 30
0
 11
427.3392027330375
 21
433.4421336654492
 31
0
  0
LINE
  8
1
 62
2
 10
425.5892027330375
 20
435.1296336654492
 30
0
 11
424.5892027330375
 21
433.7233836654492
 31
0
  0
LINE
  8
1
 62
2
 10
426.3392027330375
 20
436.8171336654492
 30
0
 11
425.5892027330375
 21
435.1296336654492
 31
0
  0
LINE
  8
1
 62
2
 10
426.8392027330375
 20
438.5046336654492
 30
0
 11
426.3392027330375
 21
436.8171336654492
 31
0
  0
LINE
  8
1
 62
2
 10
428.5892027330375
 20
436.5358836654492
 30
0
 11
426.3392027330375
 21
436.5358836654492
 31
0
  0
LINE
  8
1
 62
2
 10
428.0892027330375
 20
434.8483836654492
 30
0
 11
428.5892027330375
 21
436.5358836654492
 31
0
  0
LINE
  8
1
 62
2
 10
427.5892027330375
 20
433.7233836654492
 30
0
 11
428.0892027330375
 21
434.8483836654492
 31
0
  0
LINE
  8
1
 62
2
 10
426.5892027330375
 20
432.0358836654492
 30
0
 11
427.5892027330375
 21
433.7233836654492
 31
0
  0
LINE
  8
1
 62
2
 10
425.0892027330375
 20
430.0671336654492
 30
0
 11
426.5892027330375
 21
432.0358836654492
 31
0
  0
LINE
  8
1
 62
2
 10
409.7392027330375
 20
435.8046336654492
 30
0
 11
411.5392027330375
 21
435.8046336654492
 31
0
  0
LINE
  8
1
 62
2
 10
409.7392027330375
 20
435.8046336654492
 30
0
 11
409.7392027330375
 21
429.5046336654492
 31
0
  0
LINE
  8
1
 62
2
 10
412.8892027330375
 20
434.6796336654492
 30
0
 11
412.8892027330375
 21
429.5046336654492
 31
0
  0
LINE
  8
1
 62
2
 10
412.6642027330375
 20
435.1296336654492
 30
0
 11
412.8892027330375
 21
434.6796336654492
 31
0
  0
LINE
  8
1
 62
2
 10
412.2142027330375
 20
435.5796336654492
 30
0
 11
412.6642027330375
 21
435.1296336654492
 31
0
  0
LINE
  8
1
 62
2
 10
411.5392027330375
 20
435.8046336654492
 30
0
 11
412.2142027330375
 21
435.5796336654492
 31
0
  0
LINE
  8
1
 62
2
 10
406.5892027330375
 20
435.8046336654492
 30
0
 11
409.7392027330375
 21
435.8046336654492
 31
0
  0
LINE
  8
1
 62
2
 10
406.5892027330375
 20
429.5046336654492
 30
0
 11
406.5892027330375
 21
435.8046336654492
 31
0
  0
LINE
  8
1
 62
2
 10
400.7392027330375
 20
435.8046336654492
 30
0
 11
402.5392027330375
 21
435.8046336654492
 31
0
  0
LINE
  8
1
 62
2
 10
400.7392027330375
 20
435.8046336654492
 30
0
 11
400.7392027330375
 21
429.5046336654492
 31
0
  0
LINE
  8
1
 62
2
 10
403.8892027330375
 20
434.6796336654492
 30
0
 11
403.8892027330375
 21
429.5046336654492
 31
0
  0
LINE
  8
1
 62
2
 10
403.6642027330375
 20
435.1296336654492
 30
0
 11
403.8892027330375
 21
434.6796336654492
 31
0
  0
LINE
  8
1
 62
2
 10
403.2142027330375
 20
435.5796336654492
 30
0
 11
403.6642027330375
 21
435.1296336654492
 31
0
  0
LINE
  8
1
 62
2
 10
402.5392027330375
 20
435.8046336654492
 30
0
 11
403.2142027330375
 21
435.5796336654492
 31
0
  0
LINE
  8
1
 62
2
 10
397.5892027330375
 20
435.8046336654492
 30
0
 11
400.7392027330375
 21
435.8046336654492
 31
0
  0
LINE
  8
1
 62
2
 10
397.5892027330375
 20
429.5046336654492
 30
0
 11
397.5892027330375
 21
435.8046336654492
 31
0
  0
LINE
  8
1
 62
2
 10
394.8892027330375
 20
435.1296336654492
 30
0
 11
394.8892027330375
 21
432.8796336654492
 31
0
  0
LINE
  8
1
 62
2
 10
394.6642027330375
 20
436.4796336654492
 30
0
 11
394.8892027330375
 21
435.1296336654492
 31
0
  0
LINE
  8
1
 62
2
 10
394.2142027330375
 20
437.3796336654492
 30
0
 11
394.6642027330375
 21
436.4796336654492
 31
0
  0
LINE
  8
1
 62
2
 10
393.7642027330375
 20
437.8296336654492
 30
0
 11
394.2142027330375
 21
437.3796336654492
 31
0
  0
LINE
  8
1
 62
2
 10
393.0892027330375
 20
438.2796336654492
 30
0
 11
393.7642027330375
 21
437.8296336654492
 31
0
  0
LINE
  8
1
 62
2
 10
392.4142027330375
 20
438.5046336654492
 30
0
 11
393.0892027330375
 21
438.2796336654492
 31
0
  0
LINE
  8
1
 62
2
 10
391.9642027330375
 20
438.5046336654492
 30
0
 11
392.4142027330375
 21
438.5046336654492
 31
0
  0
LINE
  8
1
 62
2
 10
391.2892027330375
 20
438.2796336654492
 30
0
 11
391.9642027330375
 21
438.5046336654492
 31
0
  0
LINE
  8
1
 62
2
 10
390.6142027330375
 20
437.8296336654492
 30
0
 11
391.2892027330375
 21
438.2796336654492
 31
0
  0
LINE
  8
1
 62
2
 10
390.1642027330375
 20
437.3796336654492
 30
0
 11
390.6142027330375
 21
437.8296336654492
 31
0
  0
LINE
  8
1
 62
2
 10
389.7142027330375
 20
436.4796336654492
 30
0
 11
390.1642027330375
 21
437.3796336654492
 31
0
  0
LINE
  8
1
 62
2
 10
389.4892027330375
 20
435.1296336654492
 30
0
 11
389.7142027330375
 21
436.4796336654492
 31
0
  0
LINE
  8
1
 62
2
 10
389.4892027330375
 20
432.8796336654492
 30
0
 11
389.4892027330375
 21
435.1296336654492
 31
0
  0
LINE
  8
1
 62
2
 10
389.7142027330375
 20
431.5296336654492
 30
0
 11
389.4892027330375
 21
432.8796336654492
 31
0
  0
LINE
  8
1
 62
2
 10
390.1642027330375
 20
430.6296336654492
 30
0
 11
389.7142027330375
 21
431.5296336654492
 31
0
  0
LINE
  8
1
 62
2
 10
390.6142027330375
 20
430.1796336654492
 30
0
 11
390.1642027330375
 21
430.6296336654492
 31
0
  0
LINE
  8
1
 62
2
 10
391.2892027330375
 20
429.7296336654492
 30
0
 11
390.6142027330375
 21
430.1796336654492
 31
0
  0
LINE
  8
1
 62
2
 10
391.9642027330375
 20
429.5046336654492
 30
0
 11
391.2892027330375
 21
429.7296336654492
 31
0
  0
LINE
  8
1
 62
2
 10
392.4142027330375
 20
429.5046336654492
 30
0
 11
391.9642027330375
 21
429.5046336654492
 31
0
  0
LINE
  8
1
 62
2
 10
393.0892027330375
 20
429.7296336654492
 30
0
 11
392.4142027330375
 21
429.5046336654492
 31
0
  0
LINE
  8
1
 62
2
 10
393.7642027330375
 20
430.1796336654492
 30
0
 11
393.0892027330375
 21
429.7296336654492
 31
0
  0
LINE
  8
1
 62
2
 10
394.2142027330375
 20
430.6296336654492
 30
0
 11
393.7642027330375
 21
430.1796336654492
 31
0
  0
LINE
  8
1
 62
2
 10
394.6642027330375
 20
431.5296336654492
 30
0
 11
394.2142027330375
 21
430.6296336654492
 31
0
  0
LINE
  8
1
 62
2
 10
394.8892027330375
 20
432.8796336654492
 30
0
 11
394.6642027330375
 21
431.5296336654492
 31
0
  0
LINE
  8
1
 62
2
 10
385.4392027330375
 20
433.1046336654492
 30
0
 11
385.4392027330375
 21
429.5046336654492
 31
0
  0
LINE
  8
1
 62
2
 10
381.3892027330375
 20
431.3046336654492
 30
0
 11
386.7892027330374
 21
431.3046336654492
 31
0
  0
LINE
  8
1
 62
2
 10
385.4392027330375
 20
438.5046336654492
 30
0
 11
381.3892027330375
 21
431.3046336654492
 31
0
  0
LINE
  8
1
 62
2
 10
375.3892027330375
 20
437.9421336654492
 30
0
 11
372.8892027330375
 21
437.9421336654492
 31
0
  0
LINE
  8
1
 62
2
 10
376.6392027330375
 20
429.7858836654492
 30
0
 11
380.1392027330375
 21
429.7858836654492
 31
0
  0
LINE
  8
1
 62
2
 10
376.6392027330375
 20
433.1608836654492
 30
0
 11
376.6392027330375
 21
429.7858836654492
 31
0
  0
LINE
  8
1
 62
2
 10
379.6392027330375
 20
433.1608836654492
 30
0
 11
378.8892027330375
 21
433.1608836654492
 31
0
  0
LINE
  8
1
 62
2
 10
379.6392027330375
 20
438.2233836654492
 30
0
 11
379.6392027330375
 21
433.1608836654492
 31
0
  0
LINE
  8
1
 62
2
 10
377.8892027330375
 20
434.2858836654492
 30
0
 11
377.8892027330375
 21
437.9421336654492
 31
0
  0
LINE
  8
1
 62
2
 10
375.3892027330375
 20
437.9421336654492
 30
0
 11
375.3892027330375
 21
433.1608836654492
 31
0
  0
LINE
  8
1
 62
2
 10
372.6392027330375
 20
435.9733836654492
 30
0
 11
376.8892027330375
 21
435.9733836654492
 31
0
  0
LINE
  8
1
 62
2
 10
376.6392027330375
 20
437.9421336654492
 30
0
 11
375.3892027330375
 21
437.9421336654492
 31
0
  0
LINE
  8
1
 62
2
 10
374.1392027330375
 20
435.9733836654492
 30
0
 11
374.1392027330375
 21
437.9421336654492
 31
0
  0
LINE
  8
1
 62
2
 10
373.6392027330375
 20
434.0046336654492
 30
0
 11
374.1392027330375
 21
435.9733836654492
 31
0
  0
LINE
  8
1
 62
2
 10
372.8892027330375
 20
432.8796336654492
 30
0
 11
373.6392027330375
 21
434.0046336654492
 31
0
  0
LINE
  8
1
 62
2
 10
379.1392027330375
 20
431.7546336654492
 30
0
 11
373.6392027330375
 21
431.7546336654492
 31
0
  0
LINE
  8
1
 62
2
 10
372.8892027330375
 20
429.7858836654492
 30
0
 11
376.6392027330375
 21
429.7858836654492
 31
0
  0
LINE
  8
1
 62
2
 10
363.8392027330374
 20
430.1796336654492
 30
0
 11
363.3892027330375
 21
430.6296336654492
 31
0
  0
LINE
  8
1
 62
2
 10
364.7392027330375
 20
429.7296336654492
 30
0
 11
363.8392027330374
 21
430.1796336654492
 31
0
  0
LINE
  8
1
 62
2
 10
365.8642027330375
 20
429.5046336654492
 30
0
 11
364.7392027330375
 21
429.7296336654492
 31
0
  0
LINE
  8
1
 62
2
 10
367.2142027330374
 20
429.5046336654492
 30
0
 11
365.8642027330375
 21
429.5046336654492
 31
0
  0
LINE
  8
1
 62
2
 10
368.3392027330374
 20
429.7296336654492
 30
0
 11
367.2142027330374
 21
429.5046336654492
 31
0
  0
LINE
  8
1
 62
2
 10
369.0142027330375
 20
430.1796336654492
 30
0
 11
368.3392027330374
 21
429.7296336654492
 31
0
  0
LINE
  8
1
 62
2
 10
369.4642027330374
 20
430.8546336654492
 30
0
 11
369.0142027330375
 21
430.1796336654492
 31
0
  0
LINE
  8
1
 62
2
 10
369.6892027330375
 20
431.5296336654492
 30
0
 11
369.4642027330374
 21
430.8546336654492
 31
0
  0
LINE
  8
1
 62
2
 10
369.6892027330375
 20
431.9796336654492
 30
0
 11
369.6892027330375
 21
431.5296336654492
 31
0
  0
LINE
  8
1
 62
2
 10
369.4642027330374
 20
432.6546336654492
 30
0
 11
369.6892027330375
 21
431.9796336654492
 31
0
  0
LINE
  8
1
 62
2
 10
369.0142027330375
 20
433.3296336654492
 30
0
 11
369.4642027330374
 21
432.6546336654492
 31
0
  0
LINE
  8
1
 62
2
 10
368.3392027330374
 20
433.7796336654492
 30
0
 11
369.0142027330375
 21
433.3296336654492
 31
0
  0
LINE
  8
1
 62
2
 10
364.5142027330375
 20
435.3546336654492
 30
0
 11
368.3392027330374
 21
433.7796336654492
 31
0
  0
LINE
  8
1
 62
2
 10
363.8392027330374
 20
435.8046336654492
 30
0
 11
364.5142027330375
 21
435.3546336654492
 31
0
  0
LINE
  8
1
 62
2
 10
363.6142027330375
 20
436.4796336654492
 30
0
 11
363.8392027330374
 21
435.8046336654492
 31
0
  0
LINE
  8
1
 62
2
 10
363.6142027330375
 20
436.9296336654492
 30
0
 11
363.6142027330375
 21
436.4796336654492
 31
0
  0
LINE
  8
1
 62
2
 10
363.8392027330374
 20
437.6046336654492
 30
0
 11
363.6142027330375
 21
436.9296336654492
 31
0
  0
LINE
  8
1
 62
2
 10
364.5142027330375
 20
438.0546336654492
 30
0
 11
363.8392027330374
 21
437.6046336654492
 31
0
  0
LINE
  8
1
 62
2
 10
365.1892027330375
 20
438.2796336654492
 30
0
 11
364.5142027330375
 21
438.0546336654492
 31
0
  0
LINE
  8
1
 62
2
 10
366.0892027330374
 20
438.5046336654492
 30
0
 11
365.1892027330375
 21
438.2796336654492
 31
0
  0
LINE
  8
1
 62
2
 10
366.9892027330375
 20
438.5046336654492
 30
0
 11
366.0892027330374
 21
438.5046336654492
 31
0
  0
LINE
  8
1
 62
2
 10
368.1142027330375
 20
438.2796336654492
 30
0
 11
366.9892027330375
 21
438.5046336654492
 31
0
  0
LINE
  8
1
 62
2
 10
368.7892027330374
 20
438.0546336654492
 30
0
 11
368.1142027330375
 21
438.2796336654492
 31
0
  0
LINE
  8
1
 62
2
 10
369.4642027330374
 20
437.6046336654492
 30
0
 11
368.7892027330374
 21
438.0546336654492
 31
0
  0
LINE
  8
1
 62
2
 10
360.4642027330374
 20
436.7046336654492
 30
0
 11
360.6892027330375
 21
435.8046336654492
 31
0
  0
LINE
  8
1
 62
2
 10
360.0142027330375
 20
437.3796336654492
 30
0
 11
360.4642027330374
 21
436.7046336654492
 31
0
  0
LINE
  8
1
 62
2
 10
359.5642027330375
 20
437.8296336654492
 30
0
 11
360.0142027330375
 21
437.3796336654492
 31
0
  0
LINE
  8
1
 62
2
 10
358.8892027330375
 20
438.2796336654492
 30
0
 11
359.5642027330375
 21
437.8296336654492
 31
0
  0
LINE
  8
1
 62
2
 10
357.9892027330375
 20
438.5046336654492
 30
0
 11
358.8892027330375
 21
438.2796336654492
 31
0
  0
LINE
  8
1
 62
2
 10
354.3892027330375
 20
438.5046336654492
 30
0
 11
357.9892027330375
 21
438.5046336654492
 31
0
  0
LINE
  8
1
 62
2
 10
354.3892027330375
 20
429.5046336654492
 30
0
 11
354.3892027330375
 21
438.5046336654492
 31
0
  0
LINE
  8
1
 62
2
 10
357.9892027330375
 20
429.5046336654492
 30
0
 11
354.3892027330375
 21
429.5046336654492
 31
0
  0
LINE
  8
1
 62
2
 10
358.8892027330375
 20
429.7296336654492
 30
0
 11
357.9892027330375
 21
429.5046336654492
 31
0
  0
LINE
  8
1
 62
2
 10
359.5642027330375
 20
430.1796336654492
 30
0
 11
358.8892027330375
 21
429.7296336654492
 31
0
  0
LINE
  8
1
 62
2
 10
360.0142027330375
 20
430.6296336654492
 30
0
 11
359.5642027330375
 21
430.1796336654492
 31
0
  0
LINE
  8
1
 62
2
 10
360.4642027330374
 20
431.3046336654492
 30
0
 11
360.0142027330375
 21
430.6296336654492
 31
0
  0
LINE
  8
1
 62
2
 10
360.6892027330375
 20
432.2046336654492
 30
0
 11
360.4642027330374
 21
431.3046336654492
 31
0
  0
LINE
  8
1
 62
2
 10
360.6892027330375
 20
435.8046336654492
 30
0
 11
360.6892027330375
 21
432.2046336654492
 31
0
  0
LINE
  8
1
 62
2
 10
345.3892027330375
 20
432.2046336654492
 30
0
 11
345.3892027330375
 21
438.5046336654492
 31
0
  0
LINE
  8
1
 62
2
 10
345.3892027330375
 20
429.5046336654492
 30
0
 11
345.3892027330375
 21
432.2046336654492
 31
0
  0
LINE
  8
1
 62
2
 10
347.1892027330375
 20
434.0046336654492
 30
0
 11
351.6892027330375
 21
429.5046336654492
 31
0
  0
LINE
  8
1
 62
2
 10
351.6892027330375
 20
438.5046336654492
 30
0
 11
347.1892027330375
 21
434.0046336654492
 31
0
  0
LINE
  8
1
 62
2
 10
347.1892027330375
 20
434.0046336654492
 30
0
 11
345.3892027330375
 21
432.2046336654492
 31
0
  0
LINE
  8
1
 62
2
 10
342.6892027330375
 20
434.4546336654492
 30
0
 11
340.4392027330375
 21
434.4546336654492
 31
0
  0
LINE
  8
1
 62
2
 10
342.6892027330375
 20
429.5046336654492
 30
0
 11
342.6892027330375
 21
434.4546336654492
 31
0
  0
LINE
  8
1
 62
2
 10
338.8642027330375
 20
429.5046336654492
 30
0
 11
342.6892027330375
 21
429.5046336654492
 31
0
  0
LINE
  8
1
 62
2
 10
338.1892027330375
 20
429.7296336654492
 30
0
 11
338.8642027330375
 21
429.5046336654492
 31
0
  0
LINE
  8
1
 62
2
 10
337.2892027330374
 20
430.1796336654492
 30
0
 11
338.1892027330375
 21
429.7296336654492
 31
0
  0
LINE
  8
1
 62
2
 10
336.8392027330374
 20
430.6296336654492
 30
0
 11
337.2892027330374
 21
430.1796336654492
 31
0
  0
LINE
  8
1
 62
2
 10
336.6142027330375
 20
431.3046336654492
 30
0
 11
336.8392027330374
 21
430.6296336654492
 31
0
  0
LINE
  8
1
 62
2
 10
336.3892027330375
 20
432.2046336654492
 30
0
 11
336.6142027330375
 21
431.3046336654492
 31
0
  0
LINE
  8
1
 62
2
 10
336.3892027330375
 20
435.8046336654492
 30
0
 11
336.3892027330375
 21
432.2046336654492
 31
0
  0
LINE
  8
1
 62
2
 10
336.6142027330375
 20
436.7046336654492
 30
0
 11
336.3892027330375
 21
435.8046336654492
 31
0
  0
LINE
  8
1
 62
2
 10
336.8392027330374
 20
437.3796336654492
 30
0
 11
336.6142027330375
 21
436.7046336654492
 31
0
  0
LINE
  8
1
 62
2
 10
337.2892027330374
 20
437.8296336654492
 30
0
 11
336.8392027330374
 21
437.3796336654492
 31
0
  0
LINE
  8
1
 62
2
 10
337.9642027330374
 20
438.2796336654492
 30
0
 11
337.2892027330374
 21
437.8296336654492
 31
0
  0
LINE
  8
1
 62
2
 10
338.8642027330375
 20
438.5046336654492
 30
0
 11
337.9642027330374
 21
438.2796336654492
 31
0
  0
LINE
  8
1
 62
2
 10
342.6892027330375
 20
438.5046336654492
 30
0
 11
338.8642027330375
 21
438.5046336654492
 31
0
  0
LINE
  8
0
 62
7
 10
397.1142028448375
 20
681.2912039920728
 30
0
 11
397.1142028448375
 21
687.6073994003973
 31
0
  0
LINE
  8
0
 62
7
 10
407.1142026213374
 20
681.2912037805745
 30
0
 11
407.1142026213374
 21
681.2902584762201
 31
0
  0
LINE
  8
0
 62
7
 10
465.1137300808603
 20
739.2907312400973
 30
0
 11
458.7975336161375
 21
739.2907311283973
 31
0
  0
LINE
  8
0
 62
7
 10
465.1137298692417
 20
749.2907310165972
 30
0
 11
465.1146755968333
 21
749.2907310165972
 31
0
  0
LINE
  8
0
 62
7
 10
383.8027813285585
 20
768.6907306574974
 30
0
 11
383.8008404013165
 21
768.6907306574974
 31
0
  0
LINE
  8
0
 62
7
 10
380.3642033589374
 20
764.8553631780519
 30
0
 11
380.3642033589374
 21
746.6189344208974
 31
0
  0
LINE
  8
0
 62
7
 10
377.9642018479374
 20
746.6897903312757
 30
0
 11
377.9642018479374
 21
752.691671925519
 31
0
  0
LINE
  8
0
 62
7
 10
377.4646692091575
 20
753.1907309107974
 30
0
 11
375.9637362569172
 21
753.1907309107974
 31
0
  0
LINE
  8
0
 62
7
 10
375.9640238479124
 20
746.1907311603973
 30
0
 11
377.4643816181624
 21
746.1907311603973
 31
0
  0
LINE
  8
0
 62
7
 10
377.3632827332049
 20
728.6907315515973
 30
0
 11
386.8642027330375
 21
728.6907311283974
 31
0
  0
LINE
  8
0
 62
7
 10
397.1142028448375
 20
807.2902582647217
 30
0
 11
397.1142028448375
 21
807.2912039920728
 31
0
  0
LINE
  8
0
 62
7
 10
407.1142026213374
 20
807.2902584762201
 30
0
 11
407.1142027330375
 21
800.9740620113973
 31
0
  0
LINE
  8
0
 62
7
 10
339.1142017198374
 20
741.2908300975207
 30
0
 11
339.1142017198374
 21
747.2906331750854
 31
0
  0
LINE
  8
0
 62
7
 10
339.1142017198374
 20
747.2906331750854
 30
0
 11
339.1142017198374
 21
747.2908291337091
 31
0
  0
LINE
  8
0
 62
7
 10
347.3337474322418
 20
607.9268499588736
 30
0
 11
456.1142027330375
 21
607.9268499588736
 31
0
  0
LINE
  8
1
 62
7
 10
353.0523895809824
 20
525.4620267310594
 30
0
 11
348.4303153950787
 21
525.4620267310594
 31
0
  0
LINE
  8
1
 62
7
 10
348.4303153950787
 20
525.4620267310594
 30
0
 11
348.4303153950787
 21
532.3916731866876
 31
0
  0
LINE
  8
1
 62
7
 10
348.4303153950787
 20
532.3916731866876
 30
0
 11
352.9726986467426
 21
532.3916731866876
 31
0
  0
LINE
  8
1
 62
7
 10
352.9726986467426
 20
532.3916731866876
 30
0
 11
352.9726986467426
 21
531.5254673797341
 31
0
  0
LINE
  8
1
 62
7
 10
352.9726986467426
 20
531.5254673797341
 30
0
 11
349.3069156717156
 21
531.5254673797341
 31
0
  0
LINE
  8
1
 62
7
 10
349.3069156717156
 20
531.5254673797341
 30
0
 11
349.3069156717156
 21
529.4465734430456
 31
0
  0
LINE
  8
1
 62
7
 10
349.3069156717156
 20
529.4465734430456
 30
0
 11
352.6539349097836
 21
529.4465734430456
 31
0
  0
LINE
  8
1
 62
7
 10
352.6539349097836
 20
529.4465734430456
 30
0
 11
352.6539349097836
 21
528.5803676360921
 31
0
  0
LINE
  8
1
 62
7
 10
352.6539349097836
 20
528.5803676360921
 30
0
 11
349.3069156717156
 21
528.5803676360921
 31
0
  0
LINE
  8
1
 62
7
 10
349.3069156717156
 20
528.5803676360921
 30
0
 11
349.3069156717156
 21
526.3282325380129
 31
0
  0
LINE
  8
1
 62
7
 10
349.3069156717156
 20
526.3282325380129
 30
0
 11
353.0523895809824
 21
526.3282325380129
 31
0
  0
LINE
  8
1
 62
7
 10
353.0523895809824
 20
526.3282325380129
 30
0
 11
353.0523895809824
 21
525.4620267310594
 31
0
  0
LINE
  8
1
 62
2
  6
DIVIDE
 10
337.1142027330375
 20
525.4620267310594
 30
0
 11
337.1142027330375
 21
532.3916731866876
 31
0
  0
LINE
  8
1
 62
2
  6
DIVIDE
 10
347.1552604472424
 20
525.4620267310594
 30
0
 11
337.1142027330375
 21
525.4620267310594
 31
0
  0
LINE
  8
1
 62
2
  6
DIVIDE
 10
347.1552604472424
 20
532.3916731866876
 30
0
 11
347.1552604472424
 21
525.4620267310594
 31
0
  0
LINE
  8
1
 62
2
  6
DIVIDE
 10
337.1142027330375
 20
532.3916731866876
 30
0
 11
347.1552604472424
 21
532.3916731866876
 31
0
  0
LINE
  8
1
 62
2
 10
311.5959610143036
 20
462.4383946201779
 30
0
 11
311.5959610143036
 21
460.3170742766182
 31
0
  0
LINE
  8
1
 62
2
 10
311.3602587539085
 20
463.1013072275403
 30
0
 11
311.5959610143036
 21
462.4383946201779
 31
0
  0
LINE
  8
1
 62
2
 10
311.1245564935125
 20
463.4990547919576
 30
0
 11
311.3602587539085
 21
463.1013072275403
 31
0
  0
LINE
  8
1
 62
2
 10
307.7068737177776
 20
462.9687247060678
 30
0
 11
308.7675338895576
 21
462.9687247060678
 31
0
  0
LINE
  8
1
 62
2
 10
307.5890225875805
 20
462.4383946201779
 30
0
 11
307.2354691969865
 21
461.7754820128155
 31
0
  0
LINE
  8
1
 62
2
 10
307.3533203271845
 20
463.2338897490128
 30
0
 11
306.7640646761956
 21
462.3058120987054
 31
0
  0
LINE
  8
1
 62
2
 10
306.0569578950097
 20
463.3664722704853
 30
0
 11
306.0569578950097
 21
459.3889966263108
 31
0
  0
LINE
  8
1
 62
2
 10
303.8177864212526
 20
462.5709771416503
 30
0
 11
304.2891909420434
 21
462.3058120987054
 31
0
  0
LINE
  8
1
 62
2
 10
303.3463819004605
 20
462.7035596631228
 30
0
 11
303.8177864212526
 21
462.5709771416503
 31
0
  0
LINE
  8
1
 62
2
 10
302.5214239890765
 20
462.7035596631228
 30
0
 11
303.3463819004605
 21
462.7035596631228
 31
0
  0
LINE
  8
1
 62
2
 10
302.0500194682854
 20
462.5709771416503
 30
0
 11
302.5214239890765
 21
462.7035596631228
 31
0
  0
LINE
  8
1
 62
2
 10
301.5786149474945
 20
462.3058120987054
 30
0
 11
302.0500194682854
 21
462.5709771416503
 31
0
  0
LINE
  8
1
 62
2
 10
300.4001036455175
 20
462.9687247060678
 30
0
 11
296.8645697395846
 21
462.9687247060678
 31
0
  0
LINE
  8
1
 62
2
 10
298.6323366925506
 20
459.2564141048384
 30
0
 11
298.6323366925506
 21
462.9687247060678
 31
0
  0
LINE
  8
1
 62
2
 10
295.3325050470135
 20
462.4383946201779
 30
0
 11
295.6860584376066
 21
461.9080645342879
 31
0
  0
LINE
  8
1
 62
2
 10
295.3325050470135
 20
463.1013072275403
 30
0
 11
295.3325050470135
 21
461.1125694054531
 31
0
  0
LINE
  8
1
 62
2
 10
294.7432493960246
 20
461.5103169698705
 30
0
 11
295.3325050470135
 21
462.4383946201779
 31
0
  0
LINE
  8
1
 62
2
 10
293.4468869638495
 20
461.7754820128155
 30
0
 11
293.8004403544426
 21
462.4383946201779
 31
0
  0
LINE
  8
1
 62
2
 10
293.8004403544426
 20
463.1013072275403
 30
0
 11
293.8004403544426
 21
461.1125694054531
 31
0
  0
LINE
  8
1
 62
2
 10
294.3896960054315
 20
462.4383946201779
 30
0
 11
293.2111847034535
 21
462.4383946201779
 31
0
  0
LINE
  8
1
 62
2
 10
296.0396118281994
 20
462.4383946201779
 30
0
 11
294.6253982658266
 21
462.4383946201779
 31
0
  0
LINE
  8
1
 62
2
 10
292.7397801826626
 20
463.3664722704853
 30
0
 11
296.0396118281994
 21
463.3664722704853
 31
0
  0
LINE
  8
1
 62
2
 10
292.7397801826626
 20
461.1125694054531
 30
0
 11
292.7397801826626
 21
463.3664722704853
 31
0
  0
LINE
  8
1
 62
2
 10
290.5006087089055
 20
463.1013072275403
 30
0
 11
290.5006087089055
 21
460.9799868839806
 31
0
  0
LINE
  8
1
 62
2
 10
288.3792883653455
 20
463.1013072275403
 30
0
 11
291.9148222712786
 21
463.1013072275403
 31
0
  0
LINE
  8
1
 62
2
 10
289.6756507975215
 20
461.642899491343
 30
0
 11
289.6756507975215
 21
463.1013072275403
 31
0
  0
LINE
  8
1
 62
2
 10
285.6687123707975
 20
462.4383946201779
 30
0
 11
285.6687123707975
 21
460.3170742766182
 31
0
  0
LINE
  8
1
 62
2
 10
285.9044146311926
 20
463.1013072275403
 30
0
 11
285.6687123707975
 21
462.4383946201779
 31
0
  0
LINE
  8
1
 62
2
 10
286.1401168915886
 20
463.4990547919576
 30
0
 11
285.9044146311926
 21
463.1013072275403
 31
0
  0
LINE
  8
1
 62
2
 10
300.7660310061256
 20
467.6616849826974
 30
0
 11
304.5372671724535
 21
467.6616849826974
 31
0
  0
LINE
  8
1
 62
2
 10
301.4731377873115
 20
468.5897626330049
 30
0
 11
301.4731377873115
 21
467.6616849826974
 31
0
  0
LINE
  8
1
 62
2
 10
301.4731377873115
 20
468.7223451544772
 30
0
 11
303.8301603912676
 21
468.7223451544772
 31
0
  0
LINE
  8
1
 62
2
 10
302.6516490892896
 20
469.7830053262571
 30
0
 11
302.6516490892896
 21
466.2032772465002
 31
0
  0
LINE
  8
1
 62
2
 10
301.5909889175096
 20
469.7830053262571
 30
0
 11
303.9480115214647
 21
469.7830053262571
 31
0
  0
LINE
  8
1
 62
2
 10
301.3552866571145
 20
469.5178402833121
 30
0
 11
301.0017332665204
 21
469.1200927188947
 31
0
  0
LINE
  8
1
 62
2
 10
301.7088400477076
 20
470.048170369202
 30
0
 11
301.3552866571145
 21
469.5178402833121
 31
0
  0
LINE
  8
1
 62
2
 10
301.9445423081024
 20
470.4459179336195
 30
0
 11
301.7088400477076
 21
470.048170369202
 31
0
  0
LINE
  8
1
 62
2
 10
296.7590925794016
 20
466.6010248109176
 30
0
 11
296.6412414492036
 21
466.4684422894451
 31
0
  0
LINE
  8
1
 62
2
 10
297.3483482303905
 20
469.7830053262571
 30
0
 11
296.9947948397976
 21
470.313335412147
 31
0
  0
LINE
  8
1
 62
2
 10
298.0554550115764
 20
469.6504228047846
 30
0
 11
297.8197527511816
 21
469.2526752403672
 31
0
  0
LINE
  8
1
 62
2
 10
298.2911572719725
 20
470.313335412147
 30
0
 11
298.0554550115764
 21
469.6504228047846
 31
0
  0
LINE
  8
1
 62
2
 10
299.8232219645436
 20
469.6504228047846
 30
0
 11
298.0554550115764
 21
469.6504228047846
 31
0
  0
LINE
  8
1
 62
2
 10
298.8804129229616
 20
468.7223451544772
 30
0
 11
298.8804129229616
 21
470.4459179336195
 31
0
  0
LINE
  8
1
 62
2
 10
300.0589242249384
 20
468.7223451544772
 30
0
 11
297.8197527511816
 21
468.7223451544772
 31
0
  0
LINE
  8
1
 62
2
 10
298.2911572719725
 20
467.1313548968075
 30
0
 11
299.5875197041476
 21
467.1313548968075
 31
0
  0
LINE
  8
1
 62
2
 10
298.2911572719725
 20
468.1920150685874
 30
0
 11
298.2911572719725
 21
467.1313548968075
 31
0
  0
LINE
  8
1
 62
2
 10
299.5875197041476
 20
468.1920150685874
 30
0
 11
298.2911572719725
 21
468.1920150685874
 31
0
  0
LINE
  8
1
 62
2
 10
299.5875197041476
 20
467.1313548968075
 30
0
 11
299.5875197041476
 21
468.1920150685874
 31
0
  0
LINE
  8
1
 62
2
 10
297.8197527511816
 20
466.4684422894451
 30
0
 11
300.1767753551364
 21
466.4684422894451
 31
0
  0
LINE
  8
1
 62
2
 10
297.5840504907856
 20
466.6010248109176
 30
0
 11
297.8197527511816
 21
466.4684422894451
 31
0
  0
LINE
  8
1
 62
2
 10
297.3483482303905
 20
467.1313548968075
 30
0
 11
297.5840504907856
 21
466.6010248109176
 31
0
  0
LINE
  8
1
 62
2
 10
297.3483482303905
 20
468.5897626330049
 30
0
 11
296.6412414492036
 21
468.5897626330049
 31
0
  0
LINE
  8
1
 62
2
 10
297.3483482303905
 20
467.1313548968075
 30
0
 11
297.3483482303905
 21
468.5897626330049
 31
0
  0
LINE
  8
1
 62
2
 10
296.7590925794016
 20
466.6010248109176
 30
0
 11
297.3483482303905
 21
467.1313548968075
 31
0
  0
LINE
  8
1
 62
2
 10
295.1091767566336
 20
466.7336073323901
 30
0
 11
294.8734744962376
 21
467.3965199397525
 31
0
  0
LINE
  8
1
 62
2
 10
295.5805812774245
 20
466.2032772465002
 30
0
 11
295.1091767566336
 21
466.2032772465002
 31
0
  0
LINE
  8
1
 62
2
 10
295.5805812774245
 20
468.3245975900599
 30
0
 11
295.5805812774245
 21
466.2032772465002
 31
0
  0
LINE
  8
1
 62
2
 10
295.8162835378196
 20
469.1200927188947
 30
0
 11
294.1663677150516
 21
469.1200927188947
 31
0
  0
LINE
  8
1
 62
2
 10
294.0485165848536
 20
469.7830053262571
 30
0
 11
295.8162835378196
 21
469.7830053262571
 31
0
  0
LINE
  8
1
 62
2
 10
294.7556233660396
 20
468.5897626330049
 30
0
 11
294.8734744962376
 21
470.1807528906745
 31
0
  0
LINE
  8
1
 62
2
 10
294.4020699754465
 20
467.26393741828
 30
0
 11
294.7556233660396
 21
468.5897626330049
 31
0
  0
LINE
  8
1
 62
2
 10
293.9306654546556
 20
466.4684422894451
 30
0
 11
294.4020699754465
 21
467.26393741828
 31
0
  0
LINE
  8
1
 62
2
 10
296.0519857982156
 20
467.7942675041699
 30
0
 11
294.0485165848536
 21
467.7942675041699
 31
0
  0
LINE
  8
1
 62
2
 10
293.9306654546556
 20
468.5897626330049
 30
0
 11
296.0519857982156
 21
468.5897626330049
 31
0
  0
LINE
  8
1
 62
2
 10
293.2235586734685
 20
466.6010248109176
 30
0
 11
293.2235586734685
 21
468.7223451544772
 31
0
  0
LINE
  8
1
 62
2
 10
292.6343030224805
 20
467.6616849826974
 30
0
 11
292.8700052828756
 21
466.998772375335
 31
0
  0
LINE
  8
1
 62
2
 10
292.7521541526785
 20
469.2526752403672
 30
0
 11
292.2807496318865
 21
468.3245975900599
 31
0
  0
LINE
  8
1
 62
2
 10
293.2235586734685
 20
470.1807528906745
 30
0
 11
292.7521541526785
 21
469.2526752403672
 31
0
  0
LINE
  8
1
 62
2
 10
293.9306654546556
 20
469.3852577618396
 30
0
 11
293.2235586734685
 21
470.1807528906745
 31
0
  0
LINE
  8
1
 62
2
 10
292.7521541526785
 20
468.7223451544772
 30
0
 11
293.8128143244576
 21
468.7223451544772
 31
0
  0
LINE
  8
1
 62
2
 10
293.8128143244576
 20
468.0594325471149
 30
0
 11
292.6343030224805
 21
468.0594325471149
 31
0
  0
LINE
  8
1
 62
2
 10
293.5771120640625
 20
466.998772375335
 30
0
 11
293.6949631942605
 21
467.6616849826974
 31
0
  0
LINE
  8
1
 62
2
 10
292.5164518922825
 20
466.3358597679726
 30
0
 11
293.8128143244576
 21
466.8661898538626
 31
0
  0
LINE
  8
1
 62
2
 10
311.3602587539085
 20
459.6541616692558
 30
0
 11
311.1245564935125
 21
459.2564141048384
 31
0
  0
LINE
  8
1
 62
2
 10
311.5959610143036
 20
460.3170742766182
 30
0
 11
311.3602587539085
 21
459.6541616692558
 31
0
  0
LINE
  8
1
 62
2
 10
308.2961293687665
 20
459.3889966263108
 30
0
 11
307.9425759781736
 21
459.3889966263108
 31
0
  0
LINE
  8
1
 62
2
 10
308.4139804989645
 20
459.6541616692558
 30
0
 11
308.2961293687665
 21
459.3889966263108
 31
0
  0
LINE
  8
1
 62
2
 10
308.4139804989645
 20
461.9080645342879
 30
0
 11
308.4139804989645
 21
459.6541616692558
 31
0
  0
LINE
  8
1
 62
2
 10
307.5890225875805
 20
461.9080645342879
 30
0
 11
309.0032361499536
 21
461.9080645342879
 31
0
  0
LINE
  8
1
 62
2
 10
307.1176180667897
 20
461.5103169698705
 30
0
 11
307.1176180667897
 21
459.3889966263108
 31
0
  0
LINE
  8
1
 62
2
 10
306.8819158063936
 20
461.1125694054531
 30
0
 11
306.5283624158005
 21
460.7148218410356
 31
0
  0
LINE
  8
1
 62
2
 10
307.2354691969865
 20
461.7754820128155
 30
0
 11
306.8819158063936
 21
461.1125694054531
 31
0
  0
LINE
  8
1
 62
2
 10
306.0569578950097
 20
462.3058120987054
 30
0
 11
306.5283624158005
 21
461.2451519269255
 31
0
  0
LINE
  8
1
 62
2
 10
305.4677022440205
 20
460.8474043625081
 30
0
 11
305.3498511138225
 21
460.5822393195631
 31
0
  0
LINE
  8
1
 62
2
 10
305.7034045044165
 20
461.2451519269255
 30
0
 11
305.4677022440205
 21
460.8474043625081
 31
0
  0
LINE
  8
1
 62
2
 10
306.0569578950097
 20
462.3058120987054
 30
0
 11
305.7034045044165
 21
461.2451519269255
 31
0
  0
LINE
  8
1
 62
2
 10
305.4677022440205
 20
462.3058120987054
 30
0
 11
306.6462135459985
 21
462.3058120987054
 31
0
  0
LINE
  8
1
 62
2
 10
301.3429126870994
 20
459.2564141048384
 30
0
 11
304.4070420722405
 21
459.2564141048384
 31
0
  0
LINE
  8
1
 62
2
 10
301.4607638172975
 20
460.0519092336733
 30
0
 11
301.3429126870994
 21
459.2564141048384
 31
0
  0
LINE
  8
1
 62
2
 10
301.5786149474945
 20
460.3170742766182
 30
0
 11
301.4607638172975
 21
460.0519092336733
 31
0
  0
LINE
  8
1
 62
2
 10
301.9321683380877
 20
460.5822393195631
 30
0
 11
301.5786149474945
 21
460.3170742766182
 31
0
  0
LINE
  8
1
 62
2
 10
303.8177864212526
 20
460.8474043625081
 30
0
 11
301.9321683380877
 21
460.5822393195631
 31
0
  0
LINE
  8
1
 62
2
 10
304.2891909420434
 20
461.1125694054531
 30
0
 11
303.8177864212526
 21
460.8474043625081
 31
0
  0
LINE
  8
1
 62
2
 10
304.4070420722405
 20
461.377734448398
 30
0
 11
304.2891909420434
 21
461.1125694054531
 31
0
  0
LINE
  8
1
 62
2
 10
304.4070420722405
 20
462.0406470557604
 30
0
 11
304.4070420722405
 21
461.377734448398
 31
0
  0
LINE
  8
1
 62
2
 10
304.2891909420434
 20
462.3058120987054
 30
0
 11
304.4070420722405
 21
462.0406470557604
 31
0
  0
LINE
  8
1
 62
2
 10
301.4607638172975
 20
462.0406470557604
 30
0
 11
301.5786149474945
 21
462.3058120987054
 31
0
  0
LINE
  8
1
 62
2
 10
299.2215923435394
 20
462.0406470557604
 30
0
 11
299.9286991247266
 21
461.2451519269255
 31
0
  0
LINE
  8
1
 62
2
 10
293.6825892242446
 20
460.0519092336733
 30
0
 11
295.5682073074095
 21
460.0519092336733
 31
0
  0
LINE
  8
1
 62
2
 10
295.5682073074095
 20
459.3889966263108
 30
0
 11
295.5682073074095
 21
460.7148218410356
 31
0
  0
LINE
  8
1
 62
2
 10
293.6825892242446
 20
459.3889966263108
 30
0
 11
295.5682073074095
 21
459.3889966263108
 31
0
  0
LINE
  8
1
 62
2
 10
293.6825892242446
 20
460.7148218410356
 30
0
 11
293.6825892242446
 21
459.3889966263108
 31
0
  0
LINE
  8
1
 62
2
 10
295.5682073074095
 20
460.7148218410356
 30
0
 11
293.6825892242446
 21
460.7148218410356
 31
0
  0
LINE
  8
1
 62
2
 10
295.6860584376066
 20
461.9080645342879
 30
0
 11
296.2753140885955
 21
461.2451519269255
 31
0
  0
LINE
  8
1
 62
2
 10
294.3896960054315
 20
461.2451519269255
 30
0
 11
294.7432493960246
 21
461.5103169698705
 31
0
  0
LINE
  8
1
 62
2
 10
294.0361426148386
 20
462.0406470557604
 30
0
 11
294.3896960054315
 21
461.642899491343
 31
0
  0
LINE
  8
1
 62
2
 10
293.0933335732566
 20
461.377734448398
 30
0
 11
293.4468869638495
 21
461.7754820128155
 31
0
  0
LINE
  8
1
 62
2
 10
292.6219290524655
 20
459.9193267122008
 30
0
 11
292.7397801826626
 21
461.1125694054531
 31
0
  0
LINE
  8
1
 62
2
 10
292.5040779222675
 20
459.5215791477833
 30
0
 11
292.6219290524655
 21
459.9193267122008
 31
0
  0
LINE
  8
1
 62
2
 10
291.2077154900915
 20
460.7148218410356
 30
0
 11
291.3255666202895
 21
460.9799868839806
 31
0
  0
LINE
  8
1
 62
2
 10
290.6184598391035
 20
460.7148218410356
 30
0
 11
291.2077154900915
 21
460.7148218410356
 31
0
  0
LINE
  8
1
 62
2
 10
290.5006087089055
 20
460.9799868839806
 30
0
 11
290.6184598391035
 21
460.7148218410356
 31
0
  0
LINE
  8
1
 62
2
 10
289.3220974069275
 20
460.8474043625081
 30
0
 11
289.6756507975215
 21
461.642899491343
 31
0
  0
LINE
  8
1
 62
2
 10
288.9685440163346
 20
460.4496567980907
 30
0
 11
289.3220974069275
 21
460.8474043625081
 31
0
  0
LINE
  8
1
 62
2
 10
291.5612688806855
 20
459.5215791477833
 30
0
 11
288.7328417559395
 21
459.5215791477833
 31
0
  0
LINE
  8
1
 62
2
 10
291.5612688806855
 20
462.0406470557604
 30
0
 11
291.5612688806855
 21
459.5215791477833
 31
0
  0
LINE
  8
1
 62
2
 10
288.7328417559395
 20
462.0406470557604
 30
0
 11
291.5612688806855
 21
462.0406470557604
 31
0
  0
LINE
  8
1
 62
2
 10
288.7328417559395
 20
459.5215791477833
 30
0
 11
288.7328417559395
 21
462.0406470557604
 31
0
  0
LINE
  8
1
 62
2
 10
285.9044146311926
 20
459.6541616692558
 30
0
 11
286.1401168915886
 21
459.2564141048384
 31
0
  0
LINE
  8
1
 62
2
 10
285.6687123707975
 20
460.3170742766182
 30
0
 11
285.9044146311926
 21
459.6541616692558
 31
0
  0
LINE
  8
1
 62
2
 10
322.7078435850315
 20
459.2533450475045
 30
0
 11
325.6776920660157
 21
459.2533450475045
 31
0
  0
LINE
  8
1
 62
2
 10
322.7078435850315
 20
463.4959857346238
 30
0
 11
322.7078435850315
 21
459.2533450475045
 31
0
  0
LINE
  8
1
 62
2
 10
325.6776920660157
 20
463.4959857346238
 30
0
 11
322.7078435850315
 21
463.4959857346238
 31
0
  0
LINE
  8
1
 62
2
 10
325.2534279973036
 20
461.5867974254201
 30
0
 11
322.7078435850315
 21
461.5867974254201
 31
0
  0
LINE
  8
1
 62
2
 10
332.6776783934777
 20
465.8140324156645
 30
0
 11
332.2062738726866
 21
466.0791974586095
 31
0
  0
LINE
  8
1
 62
2
 10
332.9133806538735
 20
465.946614937137
 30
0
 11
332.6776783934777
 21
465.8140324156645
 31
0
  0
LINE
  8
1
 62
2
 10
333.2669340444666
 20
466.6095275444994
 30
0
 11
332.9133806538735
 21
465.946614937137
 31
0
  0
LINE
  8
1
 62
2
 10
333.5026363048626
 20
467.4050226733343
 30
0
 11
333.2669340444666
 21
466.6095275444994
 31
0
  0
LINE
  8
1
 62
2
 10
331.8527204820935
 20
467.4050226733343
 30
0
 11
333.5026363048626
 21
467.4050226733343
 31
0
  0
LINE
  8
1
 62
2
 10
332.0884227424886
 20
468.2005178021691
 30
0
 11
331.7348693518954
 21
466.8746925874444
 31
0
  0
LINE
  8
1
 62
2
 10
330.7920603103135
 20
468.2005178021691
 30
0
 11
334.2097430860486
 21
468.2005178021691
 31
0
  0
LINE
  8
1
 62
2
 10
333.5026363048626
 20
469.7915080598389
 30
0
 11
331.6170182216977
 21
469.7915080598389
 31
0
  0
LINE
  8
1
 62
2
 10
333.5026363048626
 20
468.8634304095315
 30
0
 11
333.5026363048626
 21
469.7915080598389
 31
0
  0
LINE
  8
1
 62
2
 10
331.6170182216977
 20
468.8634304095315
 30
0
 11
333.5026363048626
 21
468.8634304095315
 31
0
  0
LINE
  8
1
 62
2
 10
331.6170182216977
 20
469.7915080598389
 30
0
 11
331.6170182216977
 21
468.8634304095315
 31
0
  0
LINE
  8
1
 62
2
 10
329.9671023989295
 20
466.0791974586095
 30
0
 11
329.9671023989295
 21
466.4769450230269
 31
0
  0
LINE
  8
1
 62
2
 10
328.3171865761606
 20
466.0791974586095
 30
0
 11
329.9671023989295
 21
466.0791974586095
 31
0
  0
LINE
  8
1
 62
2
 10
328.3171865761606
 20
468.0679352806966
 30
0
 11
328.3171865761606
 21
466.0791974586095
 31
0
  0
LINE
  8
1
 62
2
 10
329.6135490083366
 20
468.0679352806966
 30
0
 11
328.3171865761606
 21
468.0679352806966
 31
0
  0
LINE
  8
1
 62
2
 10
329.6135490083366
 20
469.3937604954214
 30
0
 11
329.6135490083366
 21
468.0679352806966
 31
0
  0
LINE
  8
1
 62
2
 10
328.3171865761606
 20
469.3937604954214
 30
0
 11
329.6135490083366
 21
469.3937604954214
 31
0
  0
LINE
  8
1
 62
2
 10
326.5494196231946
 20
469.5263430168939
 30
0
 11
327.6100797949746
 21
469.5263430168939
 31
0
  0
LINE
  8
1
 62
2
 10
326.4315684929966
 20
468.8634304095315
 30
0
 11
327.9636331855675
 21
468.8634304095315
 31
0
  0
LINE
  8
1
 62
2
 10
327.6100797949746
 20
468.3331003236416
 30
0
 11
326.6672707533926
 21
468.3331003236416
 31
0
  0
LINE
  8
1
 62
2
 10
326.6672707533926
 20
467.6701877162793
 30
0
 11
327.6100797949746
 21
467.6701877162793
 31
0
  0
LINE
  8
1
 62
2
 10
327.6100797949746
 20
466.0791974586095
 30
0
 11
326.6672707533926
 21
466.0791974586095
 31
0
  0
LINE
  8
1
 62
2
 10
327.6100797949746
 20
467.1398576303893
 30
0
 11
327.6100797949746
 21
466.0791974586095
 31
0
  0
LINE
  8
1
 62
2
 10
326.6672707533926
 20
467.1398576303893
 30
0
 11
327.6100797949746
 21
467.1398576303893
 31
0
  0
LINE
  8
1
 62
2
 10
326.6672707533926
 20
466.0791974586095
 30
0
 11
326.6672707533926
 21
467.1398576303893
 31
0
  0
LINE
  8
1
 62
2
 10
325.2530571910195
 20
470.0566731027839
 30
0
 11
325.2530571910195
 21
465.8140324156645
 31
0
  0
LINE
  8
1
 62
2
 10
324.6638015400306
 20
469.261177973949
 30
0
 11
324.3102481494366
 21
469.7915080598389
 31
0
  0
LINE
  8
1
 62
2
 10
324.6638015400306
 20
468.2005178021691
 30
0
 11
324.3102481494366
 21
468.730847888059
 31
0
  0
LINE
  8
1
 62
2
 10
323.9566947588435
 20
467.2724401518618
 30
0
 11
325.9601639722055
 21
467.6701877162793
 31
0
  0
LINE
  8
1
 62
2
 10
323.4852902380526
 20
467.9353527592242
 30
0
 11
323.7209924984486
 21
467.4050226733343
 31
0
  0
LINE
  8
1
 62
2
 10
323.1317368474595
 20
469.9240905813114
 30
0
 11
323.1317368474595
 21
465.946614937137
 31
0
  0
LINE
  8
1
 62
2
 10
323.4852902380526
 20
469.1285954524765
 30
0
 11
323.7209924984486
 21
469.6589255383664
 31
0
  0
LINE
  8
1
 62
2
 10
322.4246300662726
 20
469.5263430168939
 30
0
 11
322.7781834568666
 21
468.996012931004
 31
0
  0
LINE
  8
1
 62
2
 10
323.9566947588435
 20
468.4656828451142
 30
0
 11
322.3067789360755
 21
468.4656828451142
 31
0
  0
LINE
  8
1
 62
2
 10
322.6603323266686
 20
467.2724401518618
 30
0
 11
323.1317368474595
 21
468.4656828451142
 31
0
  0
LINE
  8
1
 62
2
 10
322.3067789360755
 20
466.6095275444994
 30
0
 11
322.6603323266686
 21
467.2724401518618
 31
0
  0
LINE
  8
1
 62
2
 10
321.0104165038995
 20
466.0791974586095
 30
0
 11
320.6568631133066
 21
466.0791974586095
 31
0
  0
LINE
  8
1
 62
2
 10
320.8925653737015
 20
469.9240905813114
 30
0
 11
321.0104165038995
 21
466.0791974586095
 31
0
  0
LINE
  8
1
 62
2
 10
321.5996721548886
 20
468.730847888059
 30
0
 11
319.8319052019226
 21
468.730847888059
 31
0
  0
LINE
  8
1
 62
2
 10
320.3033097227135
 20
467.4050226733343
 30
0
 11
320.8925653737015
 21
468.5982653665866
 31
0
  0
LINE
  8
1
 62
2
 10
319.5962029415266
 20
466.6095275444994
 30
0
 11
320.3033097227135
 21
467.4050226733343
 31
0
  0
LINE
  8
1
 62
2
 10
318.8890961603395
 20
468.730847888059
 30
0
 11
319.4783518113286
 21
467.8027702377517
 31
0
  0
LINE
  8
1
 62
2
 10
318.5355427697466
 20
467.9353527592242
 30
0
 11
318.8890961603395
 21
468.730847888059
 31
0
  0
LINE
  8
1
 62
2
 10
318.0641382489555
 20
467.1398576303893
 30
0
 11
318.5355427697466
 21
467.9353527592242
 31
0
  0
LINE
  8
1
 62
2
 10
319.4783518113286
 20
468.8634304095315
 30
0
 11
318.1819893791535
 21
468.8634304095315
 31
0
  0
LINE
  8
1
 62
2
 10
318.8890961603395
 20
465.8140324156645
 30
0
 11
318.8890961603395
 21
470.0566731027839
 31
0
  0
LINE
  8
1
 62
2
 10
404.1170152330375
 20
682.9157311283973
 30
0
 11
404.1170152330375
 21
682.2907311283973
 31
0
  0
LINE
  8
1
 62
2
 10
400.8710777330375
 20
682.9157311283973
 30
0
 11
404.1170152330375
 21
682.9157311283973
 31
0
  0
LINE
  8
1
 62
2
 10
400.8710777330375
 20
684.5407311283973
 30
0
 11
400.8710777330375
 21
682.9157311283973
 31
0
  0
LINE
  8
1
 62
2
 10
403.7717027330374
 20
684.5407311283973
 30
0
 11
400.8710777330375
 21
684.5407311283973
 31
0
  0
LINE
  8
1
 62
2
 10
403.7717027330374
 20
685.1657311283973
 30
0
 11
403.7717027330374
 21
684.5407311283973
 31
0
  0
LINE
  8
1
 62
2
 10
400.8710777330375
 20
685.1657311283973
 30
0
 11
403.7717027330374
 21
685.1657311283973
 31
0
  0
LINE
  8
1
 62
2
 10
400.8710777330375
 20
686.6657311283973
 30
0
 11
400.8710777330375
 21
685.1657311283973
 31
0
  0
LINE
  8
1
 62
2
 10
404.0479527330375
 20
686.6657311283973
 30
0
 11
400.8710777330375
 21
686.6657311283973
 31
0
  0
LINE
  8
1
 62
2
 10
404.0479527330375
 20
687.2907311283973
 30
0
 11
404.0479527330375
 21
686.6657311283973
 31
0
  0
LINE
  8
1
 62
2
 10
400.1113902330375
 20
687.2907311283973
 30
0
 11
404.0479527330375
 21
687.2907311283973
 31
0
  0
LINE
  8
1
 62
2
 10
400.1113902330375
 20
682.2907311283973
 30
0
 11
400.1113902330375
 21
687.2907311283973
 31
0
  0
LINE
  8
1
 62
2
 10
404.1170152330375
 20
682.2907311283973
 30
0
 11
400.1113902330375
 21
682.2907311283973
 31
0
  0
LINE
  8
1
 62
2
 10
400.1113902330375
 20
805.6657311283973
 30
0
 11
400.1113902330375
 21
806.2907311283973
 31
0
  0
LINE
  8
1
 62
2
 10
403.3573277330375
 20
805.6657311283973
 30
0
 11
400.1113902330375
 21
805.6657311283973
 31
0
  0
LINE
  8
1
 62
2
 10
403.3573277330375
 20
804.0407311283973
 30
0
 11
403.3573277330375
 21
805.6657311283973
 31
0
  0
LINE
  8
1
 62
2
 10
400.4567027330375
 20
804.0407311283973
 30
0
 11
403.3573277330375
 21
804.0407311283973
 31
0
  0
LINE
  8
1
 62
2
 10
400.4567027330375
 20
803.4157311283973
 30
0
 11
400.4567027330375
 21
804.0407311283973
 31
0
  0
LINE
  8
1
 62
2
 10
403.3573277330375
 20
803.4157311283973
 30
0
 11
400.4567027330375
 21
803.4157311283973
 31
0
  0
LINE
  8
1
 62
2
 10
403.3573277330375
 20
801.9157311283973
 30
0
 11
403.3573277330375
 21
803.4157311283973
 31
0
  0
LINE
  8
1
 62
2
 10
400.1804527330375
 20
801.9157311283973
 30
0
 11
403.3573277330375
 21
801.9157311283973
 31
0
  0
LINE
  8
1
 62
2
 10
400.1804527330375
 20
801.2907311283973
 30
0
 11
400.1804527330375
 21
801.9157311283973
 31
0
  0
LINE
  8
1
 62
2
 10
404.1170152330375
 20
801.2907311283973
 30
0
 11
400.1804527330375
 21
801.2907311283973
 31
0
  0
LINE
  8
1
 62
2
 10
404.1170152330375
 20
806.2907311283973
 30
0
 11
404.1170152330375
 21
801.2907311283973
 31
0
  0
LINE
  8
1
 62
2
 10
400.1113902330375
 20
806.2907311283973
 30
0
 11
404.1170152330375
 21
806.2907311283973
 31
0
  0
LINE
  8
1
 62
2
 10
297.1870296421099
 20
581.766466639662
 30
0
 11
297.1870296421099
 21
575.766466639662
 31
0
  0
LINE
  8
1
 62
2
 10
295.3870296421099
 20
579.966466639662
 30
0
 11
297.1870296421099
 21
581.766466639662
 31
0
  0
LINE
  8
1
 62
2
 10
293.5870296421099
 20
581.766466639662
 30
0
 11
293.5870296421099
 21
575.766466639662
 31
0
  0
LINE
  8
1
 62
2
 10
291.7870296421099
 20
579.966466639662
 30
0
 11
293.5870296421099
 21
581.766466639662
 31
0
  0
LINE
  8
1
 62
2
 10
288.4536963087766
 20
581.391466639662
 30
0
 11
288.4536963087766
 21
576.141466639662
 31
0
  0
LINE
  8
1
 62
2
 10
290.6203629754432
 20
576.141466639662
 30
0
 11
290.6203629754432
 21
580.078966639662
 31
0
  0
LINE
  8
1
 62
2
 10
286.2870296421099
 20
576.141466639662
 30
0
 11
290.6203629754432
 21
576.141466639662
 31
0
  0
LINE
  8
1
 62
2
 10
286.2870296421099
 20
580.078966639662
 30
0
 11
286.2870296421099
 21
576.141466639662
 31
0
  0
LINE
  8
1
 62
2
 10
279.18702964211
 20
579.516466639662
 30
0
 11
279.18702964211
 21
578.016466639662
 31
0
  0
LINE
  8
1
 62
2
 10
279.0370296421099
 20
580.416466639662
 30
0
 11
279.18702964211
 21
579.516466639662
 31
0
  0
LINE
  8
1
 62
2
 10
278.7370296421099
 20
581.016466639662
 30
0
 11
279.0370296421099
 21
580.416466639662
 31
0
  0
LINE
  8
1
 62
2
 10
278.43702964211
 20
581.3164666396619
 30
0
 11
278.7370296421099
 21
581.016466639662
 31
0
  0
LINE
  8
1
 62
2
 10
277.9870296421099
 20
581.616466639662
 30
0
 11
278.43702964211
 21
581.3164666396619
 31
0
  0
LINE
  8
1
 62
2
 10
277.5370296421099
 20
581.766466639662
 30
0
 11
277.9870296421099
 21
581.616466639662
 31
0
  0
LINE
  8
1
 62
2
 10
277.2370296421099
 20
581.766466639662
 30
0
 11
277.5370296421099
 21
581.766466639662
 31
0
  0
LINE
  8
1
 62
2
 10
276.7870296421099
 20
581.616466639662
 30
0
 11
277.2370296421099
 21
581.766466639662
 31
0
  0
LINE
  8
1
 62
2
 10
276.3370296421099
 20
581.3164666396619
 30
0
 11
276.7870296421099
 21
581.616466639662
 31
0
  0
LINE
  8
1
 62
2
 10
276.0370296421099
 20
581.016466639662
 30
0
 11
276.3370296421099
 21
581.3164666396619
 31
0
  0
LINE
  8
1
 62
2
 10
275.7370296421099
 20
580.416466639662
 30
0
 11
276.0370296421099
 21
581.016466639662
 31
0
  0
LINE
  8
1
 62
2
 10
275.5870296421099
 20
579.516466639662
 30
0
 11
275.7370296421099
 21
580.416466639662
 31
0
  0
LINE
  8
1
 62
2
 10
275.5870296421099
 20
578.016466639662
 30
0
 11
275.5870296421099
 21
579.516466639662
 31
0
  0
LINE
  8
1
 62
2
 10
275.7370296421099
 20
577.116466639662
 30
0
 11
275.5870296421099
 21
578.016466639662
 31
0
  0
LINE
  8
1
 62
2
 10
276.0370296421099
 20
576.516466639662
 30
0
 11
275.7370296421099
 21
577.116466639662
 31
0
  0
LINE
  8
1
 62
2
 10
276.3370296421099
 20
576.216466639662
 30
0
 11
276.0370296421099
 21
576.516466639662
 31
0
  0
LINE
  8
1
 62
2
 10
276.7870296421099
 20
575.916466639662
 30
0
 11
276.3370296421099
 21
576.216466639662
 31
0
  0
LINE
  8
1
 62
2
 10
277.2370296421099
 20
575.766466639662
 30
0
 11
276.7870296421099
 21
575.916466639662
 31
0
  0
LINE
  8
1
 62
2
 10
277.5370296421099
 20
575.766466639662
 30
0
 11
277.2370296421099
 21
575.766466639662
 31
0
  0
LINE
  8
1
 62
2
 10
277.9870296421099
 20
575.916466639662
 30
0
 11
277.5370296421099
 21
575.766466639662
 31
0
  0
LINE
  8
1
 62
2
 10
278.43702964211
 20
576.216466639662
 30
0
 11
277.9870296421099
 21
575.916466639662
 31
0
  0
LINE
  8
1
 62
2
 10
278.7370296421099
 20
576.516466639662
 30
0
 11
278.43702964211
 21
576.216466639662
 31
0
  0
LINE
  8
1
 62
2
 10
279.0370296421099
 20
577.116466639662
 30
0
 11
278.7370296421099
 21
576.516466639662
 31
0
  0
LINE
  8
1
 62
2
 10
279.18702964211
 20
578.016466639662
 30
0
 11
279.0370296421099
 21
577.116466639662
 31
0
  0
LINE
  8
1
 62
2
 10
273.7870296421099
 20
575.766466639662
 30
0
 11
273.6370296421099
 21
575.766466639662
 31
0
  0
LINE
  8
1
 62
2
 10
273.7870296421099
 20
575.916466639662
 30
0
 11
273.7870296421099
 21
575.766466639662
 31
0
  0
LINE
  8
1
 62
2
 10
273.6370296421099
 20
575.916466639662
 30
0
 11
273.7870296421099
 21
575.916466639662
 31
0
  0
LINE
  8
1
 62
2
 10
273.6370296421099
 20
575.766466639662
 30
0
 11
273.6370296421099
 21
575.916466639662
 31
0
  0
LINE
  8
1
 62
2
 10
269.2870296421099
 20
580.416466639662
 30
0
 11
270.9370296421099
 21
581.766466639662
 31
0
  0
LINE
  8
1
 62
2
 10
268.6870296421099
 20
579.666466639662
 30
0
 11
269.2870296421099
 21
580.416466639662
 31
0
  0
LINE
  8
1
 62
2
 10
268.3870296421099
 20
579.0664666396619
 30
0
 11
268.6870296421099
 21
579.666466639662
 31
0
  0
LINE
  8
1
 62
2
 10
268.2370296421099
 20
577.866466639662
 30
0
 11
268.3870296421099
 21
579.0664666396619
 31
0
  0
LINE
  8
1
 62
2
 10
268.2370296421099
 20
577.266466639662
 30
0
 11
268.2370296421099
 21
577.866466639662
 31
0
  0
LINE
  8
1
 62
2
 10
268.3870296421099
 20
576.666466639662
 30
0
 11
268.2370296421099
 21
577.266466639662
 31
0
  0
LINE
  8
1
 62
2
 10
268.6870296421099
 20
576.216466639662
 30
0
 11
268.3870296421099
 21
576.666466639662
 31
0
  0
LINE
  8
1
 62
2
 10
269.1370296421099
 20
575.916466639662
 30
0
 11
268.6870296421099
 21
576.216466639662
 31
0
  0
LINE
  8
1
 62
2
 10
269.5870296421099
 20
575.766466639662
 30
0
 11
269.1370296421099
 21
575.916466639662
 31
0
  0
LINE
  8
1
 62
2
 10
270.4870296421099
 20
575.766466639662
 30
0
 11
269.5870296421099
 21
575.766466639662
 31
0
  0
LINE
  8
1
 62
2
 10
270.9370296421099
 20
575.916466639662
 30
0
 11
270.4870296421099
 21
575.766466639662
 31
0
  0
LINE
  8
1
 62
2
 10
271.3870296421099
 20
576.216466639662
 30
0
 11
270.9370296421099
 21
575.916466639662
 31
0
  0
LINE
  8
1
 62
2
 10
271.6870296421099
 20
576.666466639662
 30
0
 11
271.3870296421099
 21
576.216466639662
 31
0
  0
LINE
  8
1
 62
2
 10
271.8370296421099
 20
577.266466639662
 30
0
 11
271.6870296421099
 21
576.666466639662
 31
0
  0
LINE
  8
1
 62
2
 10
271.8370296421099
 20
577.866466639662
 30
0
 11
271.8370296421099
 21
577.266466639662
 31
0
  0
LINE
  8
1
 62
2
 10
271.6870296421099
 20
578.466466639662
 30
0
 11
271.8370296421099
 21
577.866466639662
 31
0
  0
LINE
  8
1
 62
2
 10
271.3870296421099
 20
578.916466639662
 30
0
 11
271.6870296421099
 21
578.466466639662
 31
0
  0
LINE
  8
1
 62
2
 10
270.9370296421099
 20
579.216466639662
 30
0
 11
271.3870296421099
 21
578.916466639662
 31
0
  0
LINE
  8
1
 62
2
 10
270.4870296421099
 20
579.366466639662
 30
0
 11
270.9370296421099
 21
579.216466639662
 31
0
  0
LINE
  8
1
 62
2
 10
269.5870296421099
 20
579.366466639662
 30
0
 11
270.4870296421099
 21
579.366466639662
 31
0
  0
LINE
  8
1
 62
2
 10
269.1370296421099
 20
579.216466639662
 30
0
 11
269.5870296421099
 21
579.366466639662
 31
0
  0
LINE
  8
1
 62
2
 10
268.6870296421099
 20
578.916466639662
 30
0
 11
269.1370296421099
 21
579.216466639662
 31
0
  0
LINE
  8
1
 62
2
 10
268.3870296421099
 20
578.466466639662
 30
0
 11
268.6870296421099
 21
578.916466639662
 31
0
  0
LINE
  8
1
 62
2
 10
268.2370296421099
 20
577.866466639662
 30
0
 11
268.3870296421099
 21
578.466466639662
 31
0
  0
LINE
  8
1
 62
2
 10
265.0870296421099
 20
575.766466639662
 30
0
 11
262.8370296421099
 21
575.766466639662
 31
0
  0
LINE
  8
1
 62
2
 10
265.5370296421099
 20
575.916466639662
 30
0
 11
265.0870296421099
 21
575.766466639662
 31
0
  0
LINE
  8
1
 62
2
 10
265.9870296421099
 20
576.216466639662
 30
0
 11
265.5370296421099
 21
575.916466639662
 31
0
  0
LINE
  8
1
 62
2
 10
266.2870296421099
 20
576.666466639662
 30
0
 11
265.9870296421099
 21
576.216466639662
 31
0
  0
LINE
  8
1
 62
2
 10
266.43702964211
 20
577.266466639662
 30
0
 11
266.2870296421099
 21
576.666466639662
 31
0
  0
LINE
  8
1
 62
2
 10
266.43702964211
 20
578.166466639662
 30
0
 11
266.43702964211
 21
577.266466639662
 31
0
  0
LINE
  8
1
 62
2
 10
266.2870296421099
 20
578.766466639662
 30
0
 11
266.43702964211
 21
578.166466639662
 31
0
  0
LINE
  8
1
 62
2
 10
265.8370296421099
 20
579.216466639662
 30
0
 11
266.2870296421099
 21
578.766466639662
 31
0
  0
LINE
  8
1
 62
2
 10
265.0870296421099
 20
579.366466639662
 30
0
 11
265.8370296421099
 21
579.216466639662
 31
0
  0
LINE
  8
1
 62
2
 10
262.8370296421099
 20
579.366466639662
 30
0
 11
265.0870296421099
 21
579.366466639662
 31
0
  0
LINE
  8
1
 62
2
 10
262.8370296421099
 20
581.766466639662
 30
0
 11
262.8370296421099
 21
579.366466639662
 31
0
  0
LINE
  8
1
 62
2
 10
266.13702964211
 20
581.766466639662
 30
0
 11
262.8370296421099
 21
581.766466639662
 31
0
  0
LINE
  8
1
 62
2
 10
255.2036963087766
 20
580.453966639662
 30
0
 11
256.8703629754432
 21
580.453966639662
 31
0
  0
LINE
  8
1
 62
2
 10
255.2036963087766
 20
579.516466639662
 30
0
 11
256.8703629754432
 21
579.516466639662
 31
0
  0
LINE
  8
1
 62
2
 10
255.2036963087766
 20
581.391466639662
 30
0
 11
255.2036963087766
 21
579.516466639662
 31
0
  0
LINE
  8
1
 62
2
 10
256.8703629754432
 20
581.391466639662
 30
0
 11
255.2036963087766
 21
581.391466639662
 31
0
  0
LINE
  8
1
 62
2
 10
256.8703629754432
 20
576.141466639662
 30
0
 11
256.8703629754432
 21
581.391466639662
 31
0
  0
LINE
  8
1
 62
2
 10
256.7036963087766
 20
575.953966639662
 30
0
 11
256.8703629754432
 21
576.141466639662
 31
0
  0
LINE
  8
1
 62
2
 10
256.2036963087766
 20
575.953966639662
 30
0
 11
256.7036963087766
 21
575.953966639662
 31
0
  0
LINE
  8
1
 62
2
 10
254.2036963087766
 20
580.453966639662
 30
0
 11
252.5370296421099
 21
580.453966639662
 31
0
  0
LINE
  8
1
 62
2
 10
254.2036963087766
 20
579.516466639662
 30
0
 11
252.5370296421099
 21
579.516466639662
 31
0
  0
LINE
  8
1
 62
2
 10
254.2036963087766
 20
581.391466639662
 30
0
 11
254.2036963087766
 21
579.516466639662
 31
0
  0
LINE
  8
1
 62
2
 10
252.5370296421099
 20
581.391466639662
 30
0
 11
254.2036963087766
 21
581.391466639662
 31
0
  0
LINE
  8
1
 62
2
 10
252.5370296421099
 20
575.953966639662
 30
0
 11
252.5370296421099
 21
581.391466639662
 31
0
  0
LINE
  8
1
 62
2
 10
250.7036963087766
 20
579.328966639662
 30
0
 11
251.3703629754433
 21
578.766466639662
 31
0
  0
LINE
  8
1
 62
2
 10
249.5370296421099
 20
580.641466639662
 30
0
 11
250.7036963087766
 21
579.328966639662
 31
0
  0
LINE
  8
1
 62
2
 10
248.7036963087766
 20
581.766466639662
 30
0
 11
249.5370296421099
 21
580.641466639662
 31
0
  0
LINE
  8
1
 62
2
 10
247.8703629754433
 20
580.641466639662
 30
0
 11
248.7036963087766
 21
581.766466639662
 31
0
  0
LINE
  8
1
 62
2
 10
246.7036963087766
 20
579.328966639662
 30
0
 11
247.8703629754433
 21
580.641466639662
 31
0
  0
LINE
  8
1
 62
2
 10
246.0370296421099
 20
578.766466639662
 30
0
 11
246.7036963087766
 21
579.328966639662
 31
0
  0
LINE
  8
1
 62
2
 10
249.5370296421099
 20
576.703966639662
 30
0
 11
249.8703629754433
 21
577.641466639662
 31
0
  0
LINE
  8
1
 62
2
 10
247.5370296421099
 20
577.641466639662
 30
0
 11
247.8703629754433
 21
576.703966639662
 31
0
  0
LINE
  8
1
 62
2
 10
250.3703629754433
 20
578.391466639662
 30
0
 11
247.0370296421099
 21
578.391466639662
 31
0
  0
LINE
  8
1
 62
2
 10
247.5370296421099
 20
579.516466639662
 30
0
 11
249.8703629754433
 21
579.516466639662
 31
0
  0
LINE
  8
1
 62
2
 10
248.7036963087766
 20
575.953966639662
 30
0
 11
248.7036963087766
 21
579.516466639662
 31
0
  0
LINE
  8
1
 62
2
 10
246.5370296421099
 20
575.953966639662
 30
0
 11
250.7036963087766
 21
575.953966639662
 31
0
  0
LINE
  8
1
 62
2
 10
304.9122124448599
 20
591.766466639662
 30
0
 11
304.9122124448599
 21
585.766466639662
 31
0
  0
LINE
  8
1
 62
2
 10
303.1122124448599
 20
589.966466639662
 30
0
 11
304.9122124448599
 21
591.766466639662
 31
0
  0
LINE
  8
1
 62
2
 10
301.3122124448599
 20
591.766466639662
 30
0
 11
301.3122124448599
 21
585.766466639662
 31
0
  0
LINE
  8
1
 62
2
 10
299.5122124448599
 20
589.966466639662
 30
0
 11
301.3122124448599
 21
591.766466639662
 31
0
  0
LINE
  8
1
 62
2
 10
296.1788791115266
 20
591.391466639662
 30
0
 11
296.1788791115266
 21
586.141466639662
 31
0
  0
LINE
  8
1
 62
2
 10
298.3455457781932
 20
586.141466639662
 30
0
 11
298.3455457781932
 21
590.078966639662
 31
0
  0
LINE
  8
1
 62
2
 10
294.0122124448599
 20
586.141466639662
 30
0
 11
298.3455457781932
 21
586.141466639662
 31
0
  0
LINE
  8
1
 62
2
 10
294.0122124448599
 20
590.078966639662
 30
0
 11
294.0122124448599
 21
586.141466639662
 31
0
  0
LINE
  8
1
 62
2
 10
286.0122124448599
 20
588.166466639662
 30
0
 11
286.0122124448599
 21
585.766466639662
 31
0
  0
LINE
  8
1
 62
2
 10
283.3122124448599
 20
586.966466639662
 30
0
 11
286.91221244486
 21
586.966466639662
 31
0
  0
LINE
  8
1
 62
2
 10
286.0122124448599
 20
591.766466639662
 30
0
 11
283.3122124448599
 21
586.966466639662
 31
0
  0
LINE
  8
1
 62
2
 10
281.5122124448599
 20
591.766466639662
 30
0
 11
281.5122124448599
 21
585.766466639662
 31
0
  0
LINE
  8
1
 62
2
 10
279.7122124448599
 20
589.966466639662
 30
0
 11
281.5122124448599
 21
591.766466639662
 31
0
  0
LINE
  8
1
 62
2
 10
275.36221244486
 20
590.416466639662
 30
0
 11
277.0122124448599
 21
591.766466639662
 31
0
  0
LINE
  8
1
 62
2
 10
274.7622124448599
 20
589.666466639662
 30
0
 11
275.36221244486
 21
590.416466639662
 31
0
  0
LINE
  8
1
 62
2
 10
274.4622124448599
 20
589.0664666396619
 30
0
 11
274.7622124448599
 21
589.666466639662
 31
0
  0
LINE
  8
1
 62
2
 10
274.3122124448599
 20
587.866466639662
 30
0
 11
274.4622124448599
 21
589.0664666396619
 31
0
  0
LINE
  8
1
 62
2
 10
274.3122124448599
 20
587.266466639662
 30
0
 11
274.3122124448599
 21
587.866466639662
 31
0
  0
LINE
  8
1
 62
2
 10
274.4622124448599
 20
586.666466639662
 30
0
 11
274.3122124448599
 21
587.266466639662
 31
0
  0
LINE
  8
1
 62
2
 10
274.7622124448599
 20
586.216466639662
 30
0
 11
274.4622124448599
 21
586.666466639662
 31
0
  0
LINE
  8
1
 62
2
 10
275.2122124448599
 20
585.916466639662
 30
0
 11
274.7622124448599
 21
586.216466639662
 31
0
  0
LINE
  8
1
 62
2
 10
275.66221244486
 20
585.766466639662
 30
0
 11
275.2122124448599
 21
585.916466639662
 31
0
  0
LINE
  8
1
 62
2
 10
276.5622124448599
 20
585.766466639662
 30
0
 11
275.66221244486
 21
585.766466639662
 31
0
  0
LINE
  8
1
 62
2
 10
277.0122124448599
 20
585.916466639662
 30
0
 11
276.5622124448599
 21
585.766466639662
 31
0
  0
LINE
  8
1
 62
2
 10
277.4622124448599
 20
586.216466639662
 30
0
 11
277.0122124448599
 21
585.916466639662
 31
0
  0
LINE
  8
1
 62
2
 10
277.7622124448599
 20
586.666466639662
 30
0
 11
277.4622124448599
 21
586.216466639662
 31
0
  0
LINE
  8
1
 62
2
 10
277.91221244486
 20
587.266466639662
 30
0
 11
277.7622124448599
 21
586.666466639662
 31
0
  0
LINE
  8
1
 62
2
 10
277.91221244486
 20
587.866466639662
 30
0
 11
277.91221244486
 21
587.266466639662
 31
0
  0
LINE
  8
1
 62
2
 10
277.7622124448599
 20
588.466466639662
 30
0
 11
277.91221244486
 21
587.866466639662
 31
0
  0
LINE
  8
1
 62
2
 10
277.4622124448599
 20
588.916466639662
 30
0
 11
277.7622124448599
 21
588.466466639662
 31
0
  0
LINE
  8
1
 62
2
 10
277.0122124448599
 20
589.216466639662
 30
0
 11
277.4622124448599
 21
588.916466639662
 31
0
  0
LINE
  8
1
 62
2
 10
276.5622124448599
 20
589.366466639662
 30
0
 11
277.0122124448599
 21
589.216466639662
 31
0
  0
LINE
  8
1
 62
2
 10
275.66221244486
 20
589.366466639662
 30
0
 11
276.5622124448599
 21
589.366466639662
 31
0
  0
LINE
  8
1
 62
2
 10
275.2122124448599
 20
589.216466639662
 30
0
 11
275.66221244486
 21
589.366466639662
 31
0
  0
LINE
  8
1
 62
2
 10
274.7622124448599
 20
588.916466639662
 30
0
 11
275.2122124448599
 21
589.216466639662
 31
0
  0
LINE
  8
1
 62
2
 10
274.4622124448599
 20
588.466466639662
 30
0
 11
274.7622124448599
 21
588.916466639662
 31
0
  0
LINE
  8
1
 62
2
 10
274.3122124448599
 20
587.866466639662
 30
0
 11
274.4622124448599
 21
588.466466639662
 31
0
  0
LINE
  8
1
 62
2
 10
272.5122124448599
 20
585.766466639662
 30
0
 11
272.3622124448599
 21
585.766466639662
 31
0
  0
LINE
  8
1
 62
2
 10
272.5122124448599
 20
585.916466639662
 30
0
 11
272.5122124448599
 21
585.766466639662
 31
0
  0
LINE
  8
1
 62
2
 10
272.3622124448599
 20
585.916466639662
 30
0
 11
272.5122124448599
 21
585.916466639662
 31
0
  0
LINE
  8
1
 62
2
 10
272.3622124448599
 20
585.766466639662
 30
0
 11
272.3622124448599
 21
585.916466639662
 31
0
  0
LINE
  8
1
 62
2
 10
268.7622124448599
 20
586.366466639662
 30
0
 11
267.4122124448599
 21
585.766466639662
 31
0
  0
LINE
  8
1
 62
2
 10
269.8122124448599
 20
587.266466639662
 30
0
 11
268.7622124448599
 21
586.366466639662
 31
0
  0
LINE
  8
1
 62
2
 10
270.2622124448599
 20
587.866466639662
 30
0
 11
269.8122124448599
 21
587.266466639662
 31
0
  0
LINE
  8
1
 62
2
 10
270.4122124448599
 20
588.466466639662
 30
0
 11
270.2622124448599
 21
587.866466639662
 31
0
  0
LINE
  8
1
 62
2
 10
270.5622124448599
 20
589.216466639662
 30
0
 11
270.4122124448599
 21
588.466466639662
 31
0
  0
LINE
  8
1
 62
2
 10
270.5622124448599
 20
590.266466639662
 30
0
 11
270.5622124448599
 21
589.216466639662
 31
0
  0
LINE
  8
1
 62
2
 10
270.4122124448599
 20
590.866466639662
 30
0
 11
270.5622124448599
 21
590.266466639662
 31
0
  0
LINE
  8
1
 62
2
 10
270.1122124448599
 20
591.3164666396619
 30
0
 11
270.4122124448599
 21
590.866466639662
 31
0
  0
LINE
  8
1
 62
2
 10
269.6622124448599
 20
591.616466639662
 30
0
 11
270.1122124448599
 21
591.3164666396619
 31
0
  0
LINE
  8
1
 62
2
 10
269.2122124448599
 20
591.766466639662
 30
0
 11
269.6622124448599
 21
591.616466639662
 31
0
  0
LINE
  8
1
 62
2
 10
268.3122124448599
 20
591.766466639662
 30
0
 11
269.2122124448599
 21
591.766466639662
 31
0
  0
LINE
  8
1
 62
2
 10
267.8622124448599
 20
591.616466639662
 30
0
 11
268.3122124448599
 21
591.766466639662
 31
0
  0
LINE
  8
1
 62
2
 10
267.4122124448599
 20
591.3164666396619
 30
0
 11
267.8622124448599
 21
591.616466639662
 31
0
  0
LINE
  8
1
 62
2
 10
267.1122124448599
 20
590.866466639662
 30
0
 11
267.4122124448599
 21
591.3164666396619
 31
0
  0
LINE
  8
1
 62
2
 10
266.9622124448599
 20
590.266466639662
 30
0
 11
267.1122124448599
 21
590.866466639662
 31
0
  0
LINE
  8
1
 62
2
 10
266.9622124448599
 20
589.966466639662
 30
0
 11
266.9622124448599
 21
590.266466639662
 31
0
  0
LINE
  8
1
 62
2
 10
267.1122124448599
 20
589.366466639662
 30
0
 11
266.9622124448599
 21
589.966466639662
 31
0
  0
LINE
  8
1
 62
2
 10
267.4122124448599
 20
588.916466639662
 30
0
 11
267.1122124448599
 21
589.366466639662
 31
0
  0
LINE
  8
1
 62
2
 10
267.8622124448599
 20
588.616466639662
 30
0
 11
267.4122124448599
 21
588.916466639662
 31
0
  0
LINE
  8
1
 62
2
 10
268.3122124448599
 20
588.466466639662
 30
0
 11
267.8622124448599
 21
588.616466639662
 31
0
  0
LINE
  8
1
 62
2
 10
270.4122124448599
 20
588.466466639662
 30
0
 11
268.3122124448599
 21
588.466466639662
 31
0
  0
LINE
  8
1
 62
2
 10
263.8122124448599
 20
585.766466639662
 30
0
 11
261.5622124448599
 21
585.766466639662
 31
0
  0
LINE
  8
1
 62
2
 10
264.2622124448599
 20
585.916466639662
 30
0
 11
263.8122124448599
 21
585.766466639662
 31
0
  0
LINE
  8
1
 62
2
 10
264.7122124448599
 20
586.216466639662
 30
0
 11
264.2622124448599
 21
585.916466639662
 31
0
  0
LINE
  8
1
 62
2
 10
265.0122124448599
 20
586.666466639662
 30
0
 11
264.7122124448599
 21
586.216466639662
 31
0
  0
LINE
  8
1
 62
2
 10
265.16221244486
 20
587.266466639662
 30
0
 11
265.0122124448599
 21
586.666466639662
 31
0
  0
LINE
  8
1
 62
2
 10
265.16221244486
 20
588.166466639662
 30
0
 11
265.16221244486
 21
587.266466639662
 31
0
  0
LINE
  8
1
 62
2
 10
265.0122124448599
 20
588.766466639662
 30
0
 11
265.16221244486
 21
588.166466639662
 31
0
  0
LINE
  8
1
 62
2
 10
264.5622124448599
 20
589.216466639662
 30
0
 11
265.0122124448599
 21
588.766466639662
 31
0
  0
LINE
  8
1
 62
2
 10
263.8122124448599
 20
589.366466639662
 30
0
 11
264.5622124448599
 21
589.216466639662
 31
0
  0
LINE
  8
1
 62
2
 10
261.5622124448599
 20
589.366466639662
 30
0
 11
263.8122124448599
 21
589.366466639662
 31
0
  0
LINE
  8
1
 62
2
 10
261.5622124448599
 20
591.766466639662
 30
0
 11
261.5622124448599
 21
589.366466639662
 31
0
  0
LINE
  8
1
 62
2
 10
264.86221244486
 20
591.766466639662
 30
0
 11
261.5622124448599
 21
591.766466639662
 31
0
  0
LINE
  8
1
 62
2
 10
255.2622124448599
 20
587.641466639662
 30
0
 11
256.0955457781932
 21
586.703966639662
 31
0
  0
LINE
  8
1
 62
2
 10
254.5955457781933
 20
588.766466639662
 30
0
 11
255.2622124448599
 21
587.641466639662
 31
0
  0
LINE
  8
1
 62
2
 10
254.0955457781933
 20
590.078966639662
 30
0
 11
254.5955457781933
 21
588.766466639662
 31
0
  0
LINE
  8
1
 62
2
 10
255.5955457781933
 20
590.266466639662
 30
0
 11
254.4288791115266
 21
589.328966639662
 31
0
  0
LINE
  8
1
 62
2
 10
253.5955457781933
 20
585.766466639662
 30
0
 11
253.0955457781933
 21
585.953966639662
 31
0
  0
LINE
  8
1
 62
2
 10
253.5955457781933
 20
591.578966639662
 30
0
 11
253.5955457781933
 21
585.766466639662
 31
0
  0
LINE
  8
1
 62
2
 10
252.7622124448599
 20
589.703966639662
 30
0
 11
251.0955457781933
 21
589.703966639662
 31
0
  0
LINE
  8
1
 62
2
 10
252.4288791115266
 20
588.578966639662
 30
0
 11
252.7622124448599
 21
589.703966639662
 31
0
  0
LINE
  8
1
 62
2
 10
251.7622124448599
 20
587.453966639662
 30
0
 11
252.4288791115266
 21
588.578966639662
 31
0
  0
LINE
  8
1
 62
2
 10
251.0955457781933
 20
586.703966639662
 30
0
 11
251.7622124448599
 21
587.453966639662
 31
0
  0
LINE
  8
1
 62
2
 10
247.2622124448599
 20
591.766466639662
 30
0
 11
247.2622124448599
 21
585.953966639662
 31
0
  0
LINE
  8
1
 62
2
 10
249.2622124448599
 20
589.516466639662
 30
0
 11
247.2622124448599
 21
589.516466639662
 31
0
  0
LINE
  8
1
 62
2
 10
244.7622124448599
 20
585.953966639662
 30
0
 11
250.0955457781933
 21
585.953966639662
 31
0
  0
LINE
  8
1
 62
2
 10
415.8782778871484
 20
649.2714668674294
 30
0
 11
415.2116112204818
 21
649.6464668674294
 31
0
  0
LINE
  8
1
 62
2
 10
416.2116112204818
 20
649.4589668674294
 30
0
 11
415.8782778871484
 21
649.2714668674294
 31
0
  0
LINE
  8
1
 62
2
 10
416.7116112204818
 20
650.3964668674294
 30
0
 11
416.2116112204818
 21
649.4589668674294
 31
0
  0
LINE
  8
1
 62
2
 10
417.0449445538151
 20
651.5214668674294
 30
0
 11
416.7116112204818
 21
650.3964668674294
 31
0
  0
LINE
  8
1
 62
2
 10
414.7116112204818
 20
651.5214668674294
 30
0
 11
417.0449445538151
 21
651.5214668674294
 31
0
  0
LINE
  8
1
 62
2
 10
415.0449445538151
 20
652.6464668674294
 30
0
 11
414.5449445538151
 21
650.7714668674294
 31
0
  0
LINE
  8
1
 62
2
 10
413.2116112204818
 20
652.6464668674294
 30
0
 11
418.0449445538151
 21
652.6464668674294
 31
0
  0
LINE
  8
1
 62
2
 10
417.0449445538151
 20
654.8964668674294
 30
0
 11
414.3782778871484
 21
654.8964668674294
 31
0
  0
LINE
  8
1
 62
2
 10
417.0449445538151
 20
653.5839668674294
 30
0
 11
417.0449445538151
 21
654.8964668674294
 31
0
  0
LINE
  8
1
 62
2
 10
414.3782778871484
 20
653.5839668674294
 30
0
 11
417.0449445538151
 21
653.5839668674294
 31
0
  0
LINE
  8
1
 62
2
 10
414.3782778871484
 20
654.8964668674294
 30
0
 11
414.3782778871484
 21
653.5839668674294
 31
0
  0
LINE
  8
1
 62
2
 10
412.0449445538151
 20
649.6464668674294
 30
0
 11
412.0449445538151
 21
650.2089668674294
 31
0
  0
LINE
  8
1
 62
2
 10
409.7116112204818
 20
649.6464668674294
 30
0
 11
412.0449445538151
 21
649.6464668674294
 31
0
  0
LINE
  8
1
 62
2
 10
409.7116112204818
 20
652.4589668674294
 30
0
 11
409.7116112204818
 21
649.6464668674294
 31
0
  0
LINE
  8
1
 62
2
 10
411.5449445538151
 20
652.4589668674294
 30
0
 11
409.7116112204818
 21
652.4589668674294
 31
0
  0
LINE
  8
1
 62
2
 10
411.5449445538151
 20
654.3339668674294
 30
0
 11
411.5449445538151
 21
652.4589668674294
 31
0
  0
LINE
  8
1
 62
2
 10
409.7116112204818
 20
654.3339668674294
 30
0
 11
411.5449445538151
 21
654.3339668674294
 31
0
  0
LINE
  8
1
 62
2
 10
407.2116112204818
 20
654.5214668674294
 30
0
 11
408.7116112204818
 21
654.5214668674294
 31
0
  0
LINE
  8
1
 62
2
 10
407.0449445538151
 20
653.5839668674294
 30
0
 11
409.2116112204818
 21
653.5839668674294
 31
0
  0
LINE
  8
1
 62
2
 10
408.7116112204818
 20
652.8339668674294
 30
0
 11
407.3782778871484
 21
652.8339668674294
 31
0
  0
LINE
  8
1
 62
2
 10
407.3782778871484
 20
651.8964668674294
 30
0
 11
408.7116112204818
 21
651.8964668674294
 31
0
  0
LINE
  8
1
 62
2
 10
408.7116112204818
 20
649.6464668674294
 30
0
 11
407.3782778871484
 21
649.6464668674294
 31
0
  0
LINE
  8
1
 62
2
 10
408.7116112204818
 20
651.1464668674294
 30
0
 11
408.7116112204818
 21
649.6464668674294
 31
0
  0
LINE
  8
1
 62
2
 10
407.3782778871484
 20
651.1464668674294
 30
0
 11
408.7116112204818
 21
651.1464668674294
 31
0
  0
LINE
  8
1
 62
2
 10
407.3782778871484
 20
649.6464668674294
 30
0
 11
407.3782778871484
 21
651.1464668674294
 31
0
  0
LINE
  8
1
 62
2
 10
402.3782778871484
 20
655.0839668674294
 30
0
 11
402.3782778871484
 21
649.4589668674294
 31
0
  0
LINE
  8
1
 62
2
 10
405.3782778871484
 20
655.2714668674294
 30
0
 11
405.3782778871484
 21
649.2714668674294
 31
0
  0
LINE
  8
1
 62
2
 10
404.5449445538151
 20
654.1464668674294
 30
0
 11
404.0449445538151
 21
654.8964668674294
 31
0
  0
LINE
  8
1
 62
2
 10
404.5449445538151
 20
652.6464668674294
 30
0
 11
404.0449445538151
 21
653.3964668674294
 31
0
  0
LINE
  8
1
 62
2
 10
403.5449445538151
 20
651.3339668674294
 30
0
 11
406.3782778871484
 21
651.8964668674294
 31
0
  0
LINE
  8
1
 62
2
 10
402.8782778871484
 20
652.2714668674294
 30
0
 11
403.2116112204818
 21
651.5214668674294
 31
0
  0
LINE
  8
1
 62
2
 10
402.8782778871484
 20
653.9589668674294
 30
0
 11
403.2116112204818
 21
654.7089668674294
 31
0
  0
LINE
  8
1
 62
2
 10
401.3782778871484
 20
654.5214668674294
 30
0
 11
401.8782778871484
 21
653.7714668674294
 31
0
  0
LINE
  8
1
 62
2
 10
403.5449445538151
 20
653.0214668674294
 30
0
 11
401.2116112204818
 21
653.0214668674294
 31
0
  0
LINE
  8
1
 62
2
 10
401.7116112204818
 20
651.3339668674294
 30
0
 11
402.3782778871484
 21
653.0214668674294
 31
0
  0
LINE
  8
1
 62
2
 10
401.2116112204818
 20
650.3964668674294
 30
0
 11
401.7116112204818
 21
651.3339668674294
 31
0
  0
LINE
  8
1
 62
2
 10
399.3782778871484
 20
649.6464668674294
 30
0
 11
398.8782778871484
 21
649.6464668674294
 31
0
  0
LINE
  8
1
 62
2
 10
399.2116112204818
 20
655.0839668674294
 30
0
 11
399.3782778871484
 21
649.6464668674294
 31
0
  0
LINE
  8
1
 62
2
 10
400.2116112204818
 20
653.3964668674294
 30
0
 11
397.7116112204818
 21
653.3964668674294
 31
0
  0
LINE
  8
1
 62
2
 10
398.3782778871484
 20
651.5214668674294
 30
0
 11
399.2116112204818
 21
653.2089668674294
 31
0
  0
LINE
  8
1
 62
2
 10
397.3782778871484
 20
650.3964668674294
 30
0
 11
398.3782778871484
 21
651.5214668674294
 31
0
  0
LINE
  8
1
 62
2
 10
396.3782778871484
 20
653.3964668674294
 30
0
 11
397.2116112204818
 21
652.0839668674294
 31
0
  0
LINE
  8
1
 62
2
 10
395.8782778871484
 20
652.2714668674294
 30
0
 11
396.3782778871484
 21
653.3964668674294
 31
0
  0
LINE
  8
1
 62
2
 10
395.2116112204818
 20
651.1464668674294
 30
0
 11
395.8782778871484
 21
652.2714668674294
 31
0
  0
LINE
  8
1
 62
2
 10
397.2116112204818
 20
653.5839668674294
 30
0
 11
395.3782778871484
 21
653.5839668674294
 31
0
  0
LINE
  8
1
 62
2
 10
396.3782778871484
 20
649.2714668674294
 30
0
 11
396.3782778871484
 21
655.2714668674294
 31
0
  0
LINE
  8
1
 62
2
 10
403.3653884564563
 20
640.1284264204767
 30
0
 11
407.5653884564563
 21
640.1284264204767
 31
0
  0
LINE
  8
1
 62
2
 10
403.3653884564563
 20
646.1284264204767
 30
0
 11
403.3653884564563
 21
640.1284264204767
 31
0
  0
LINE
  8
1
 62
2
 10
407.5653884564563
 20
646.1284264204767
 30
0
 11
403.3653884564563
 21
646.1284264204767
 31
0
  0
LINE
  8
1
 62
2
 10
406.9653884564563
 20
643.4284264204766
 30
0
 11
403.3653884564563
 21
643.4284264204766
 31
0
  0
LINE
  8
0
 62
7
 10
339.1142017198374
 20
745.7907311413974
 30
0
 11
336.6142041039375
 21
745.7907311413974
 31
0
  0
LINE
  8
0
 62
7
 10
336.6142041039375
 20
742.7907311152974
 30
0
 11
336.6142041039375
 21
745.7907311413974
 31
0
  0
LINE
  8
0
 62
7
 10
339.1142017198374
 20
742.7907311152974
 30
0
 11
336.6142041039375
 21
742.7907311152974
 31
0
  0
LINE
  8
0
 62
7
 10
406.1142027330375
 20
680.2907311283973
 30
0
 11
398.1142027330375
 21
680.2907311283973
 31
0
  0
LINE
  8
0
 62
7
 10
397.1142028448375
 20
681.2902582647217
 30
0
 11
397.1142028448375
 21
681.2912039920728
 31
0
  0
LINE
  8
0
 62
7
 10
407.1142027330375
 20
687.6074002452974
 30
0
 11
407.1142026213374
 21
681.2912037805745
 31
0
  0
LINE
  8
0
 62
7
 10
465.1146753852147
 20
739.2907312400973
 30
0
 11
465.1137300808603
 21
739.2907312400973
 31
0
  0
LINE
  8
0
 62
7
 10
458.7975344610375
 20
749.2907310165972
 30
0
 11
465.1137298692417
 21
749.2907310165972
 31
0
  0
LINE
  8
0
 62
7
 10
466.1142057729375
 20
748.2907313182973
 30
0
 11
466.1142057729375
 21
740.2907309383973
 31
0
  0
LINE
  8
0
 62
7
 10
407.1142026213374
 20
807.2912037805745
 30
0
 11
407.1142026213374
 21
807.2902584762201
 31
0
  0
LINE
  8
0
 62
7
 10
397.1142027330375
 20
800.9740620113973
 30
0
 11
397.1142028448375
 21
807.2902582647217
 31
0
  0
LINE
  8
0
 62
7
 10
398.1142025430374
 20
808.2907341681973
 30
0
 11
406.1142029230374
 21
808.2907341681973
 31
0
  0
LINE
  8
0
 62
7
 10
347.3419486535374
 20
739.2907128233621
 30
0
 11
347.3419486535374
 21
740.2907311283959
 31
0
  0
LINE
  8
0
 62
7
 10
347.3419486535374
 20
748.2907311283987
 30
0
 11
347.3419486535374
 21
749.2907310165972
 31
0
  0
LINE
  8
0
 62
7
 10
340.1142018789375
 20
740.2907309383973
 30
0
 11
348.2625546758054
 21
740.2907309383973
 31
0
  0
LINE
  8
0
 62
7
 10
339.2481780601374
 20
740.7907310202972
 30
0
 11
347.7252623987374
 21
740.7907310202972
 31
0
  0
LINE
  8
0
 62
7
 10
340.1142018789375
 20
748.2907313182973
 30
0
 11
348.262554675798
 21
748.2907313182973
 31
0
  0
LINE
  8
0
 62
7
 10
347.7252623987374
 20
747.7907312363973
 30
0
 11
339.2481780601374
 21
747.7907312363973
 31
0
  0
LINE
  8
0
 62
7
 10
339.1142017198374
 20
741.290632107274
 30
0
 11
339.1142017198374
 21
741.2908300975207
 31
0
  0
LINE
  8
0
 62
7
 10
347.7252623987374
 20
747.7907312363973
 30
0
 11
348.1008685184374
 21
748.2853869237974
 31
0
  0
LINE
  8
0
 62
7
 10
347.7252623987374
 20
740.7907310202972
 30
0
 11
348.1008685184374
 21
740.2960753329974
 31
0
  0
LINE
  8
0
 62
7
 10
377.8642020178374
 20
752.6907308287973
 30
0
 11
377.8642020178374
 21
746.6907312423973
 31
0
  0
LINE
  8
0
 62
7
 10
375.8642035526375
 20
752.6907308287973
 30
0
 11
377.9642018479374
 21
752.6907308287973
 31
0
  0
LINE
  8
0
 62
7
 10
375.8642035526375
 20
746.6907312423973
 30
0
 11
377.9642018479374
 21
746.6907312423973
 31
0
  0
LINE
  8
0
 62
7
 10
377.3642028671375
 20
752.6907308287973
 30
0
 11
377.3642028671375
 21
746.6907312423973
 31
0
  0
LINE
  8
0
 62
7
 10
375.8642035526375
 20
752.6907308287973
 30
0
 11
375.8642035526375
 21
746.6907312423973
 31
0
  0
LINE
  8
0
 62
7
 10
387.8642027256374
 20
729.6907307840972
 30
0
 11
387.8642027256374
 21
773.7224741924617
 31
0
  0
LINE
  8
0
 62
7
 10
380.3642033589374
 20
764.8576008549426
 30
0
 11
380.3642033589374
 21
764.8553631780519
 31
0
  0
LINE
  8
0
 62
7
 10
380.3642033589374
 20
746.6189344208974
 30
0
 11
376.3642027032374
 21
739.6907310262973
 31
0
  0
LINE
  8
0
 62
7
 10
376.3642027032374
 20
739.6907310262973
 30
0
 11
376.3642027330375
 21
729.6907311283974
 31
0
  0
LINE
  8
0
 62
2
 10
383.0185155374375
 20
757.5419752188973
 30
0
 11
382.8746150237374
 21
757.5419752188973
 31
0
  0
LINE
  8
0
 62
2
 10
383.3063184273633
 20
757.05917107694
 30
0
 11
383.3063184273374
 21
757.3115464560974
 31
0
  0
LINE
  8
0
 62
2
 10
382.6037435782374
 20
757.3444649837973
 30
0
 11
382.6037435782374
 21
757.1030624471973
 31
0
  0
LINE
  8
0
 62
2
 10
386.0620646727374
 20
754.8543067909973
 30
0
 11
383.4496005428374
 21
754.8543067909973
 31
0
  0
LINE
  8
0
 62
2
 10
386.0620646727374
 20
755.4687850438972
 30
0
 11
386.0620646727374
 21
754.8543067909973
 31
0
  0
LINE
  8
0
 62
2
 10
383.7763923210374
 20
755.4687850438972
 30
0
 11
386.0620646727374
 21
755.4687850438972
 31
0
  0
LINE
  8
0
 62
2
 10
386.0620646727374
 20
756.2685387469971
 30
0
 11
383.4747388017374
 21
756.2685387469971
 31
0
  0
LINE
  8
0
 62
2
 10
386.0620646727374
 20
756.8830169998973
 30
0
 11
386.0620646727374
 21
756.2685387469971
 31
0
  0
LINE
  8
0
 62
2
 10
383.2484981966375
 20
756.8830169998973
 30
0
 11
386.0620646727374
 21
756.8830169998973
 31
0
  0
LINE
  8
0
 62
2
 10
382.6200547618374
 20
754.0834157057973
 30
0
 11
383.0473958504374
 21
754.0834157057973
 31
0
  0
LINE
  8
0
 62
2
 10
382.6200547618374
 20
753.4689374528973
 30
0
 11
382.6200547618374
 21
754.0834157057973
 31
0
  0
LINE
  8
0
 62
2
 10
386.0620646727374
 20
753.4689374528973
 30
0
 11
382.6200547618374
 21
753.4689374528973
 31
0
  0
LINE
  8
0
 62
2
 10
386.0620646727374
 20
754.0834157057973
 30
0
 11
386.0620646727374
 21
753.4689374528973
 31
0
  0
LINE
  8
0
 62
2
 10
383.7763923210014
 20
754.0834157057288
 30
0
 11
386.0620646727374
 21
754.0834157057973
 31
0
  0
LINE
  8
0
 62
7
 10
375.4642027330374
 20
752.6907311283974
 30
0
 11
375.4642023695375
 21
746.6907312423973
 31
0
  0
LINE
  8
0
 62
7
 10
387.8642027256374
 20
729.6907307840972
 30
0
 11
387.8642027256374
 21
714.8589880643328
 31
0
  0
LINE
  8
0
 62
7
 10
387.8642027256374
 20
768.6907306574974
 30
0
 11
383.8027813285585
 21
768.6907306574974
 31
0
  0
LINE
  8
0
 62
7
 10
383.8642030013374
 20
688.3907310925974
 30
0
 11
383.8642030013374
 21
728.6907315515973
 31
0
  0
LINE
  8
0
 62
7
 10
378.8642021817375
 20
728.6907315515973
 30
0
 11
378.8642021817375
 21
688.3907310925974
 31
0
  0
LINE
  8
0
 62
7
 10
348.1142027330375
 20
615.4268499588736
 30
0
 11
348.1945931506374
 21
615.4268499588736
 31
0
  0
LINE
  8
0
 62
7
 10
340.1142027330375
 20
614.4268499588736
 30
0
 11
347.1142027330375
 21
614.4268499588736
 31
0
  0
LINE
  8
0
 62
7
 10
339.1142027330375
 20
588.9268499588734
 30
0
 11
339.1142027330375
 21
613.4268499588736
 31
0
  0
LINE
  8
0
 62
7
 10
345.1932048500374
 20
587.9268499588734
 30
0
 11
340.1142027330375
 21
587.9268499588734
 31
0
  0
LINE
  8
0
 62
7
 10
345.3339244667375
 20
588.9268499588734
 30
0
 11
345.3339244667375
 21
601.2567785851734
 31
0
  0
LINE
  8
0
 62
7
 10
345.3339244667375
 20
601.2567785851734
 30
0
 11
345.3339244667375
 21
605.9268499588733
 31
0
  0
LINE
  8
0
 62
7
 10
465.1142027330375
 20
587.9268499588734
 30
0
 11
459.1142027330375
 21
587.9268499588734
 31
0
  0
LINE
  8
0
 62
7
 10
466.1142027330375
 20
605.9268499588734
 30
0
 11
466.1142027330375
 21
588.9268499588734
 31
0
  0
LINE
  8
0
 62
7
 10
352.1142027330375
 20
616.9268499588736
 30
0
 11
452.1142027330375
 21
616.9268499588736
 31
0
  0
LINE
  8
0
 62
7
 10
348.1945931506374
 20
615.4268499588736
 30
0
 11
456.1142027330375
 21
615.4268499588736
 31
0
  0
LINE
  8
0
 62
7
 10
348.3378061780375
 20
613.4268499588736
 30
0
 11
348.3378061780586
 21
607.9268499588761
 31
0
  0
LINE
  8
0
 62
7
 10
465.1142027330375
 20
606.9268499588734
 30
0
 11
347.3419469825374
 21
606.9268499588734
 31
0
  0
LINE
  8
0
 62
7
 10
457.8030892147374
 20
588.9268499588734
 30
0
 11
457.803089214711
 21
605.9268499588243
 31
0
  0
LINE
  8
0
 62
7
 10
346.3300696995375
 20
605.9268499588734
 30
0
 11
346.3300696995375
 21
588.9268499588734
 31
0
  0
LINE
  8
0
 62
7
 10
457.1142027330375
 20
585.9268499588734
 30
0
 11
347.1142027330375
 21
585.9268499588734
 31
0
  0
LINE
  8
0
 62
7
 10
457.9761439714374
 20
586.9268499588734
 30
0
 11
458.1142027330375
 21
586.9268499588734
 31
0
  0
LINE
  8
0
 62
7
 10
346.1142027330375
 20
586.9268499588734
 30
0
 11
457.9761439714374
 21
586.9268499588734
 31
0
  0
LINE
  8
0
 62
7
 10
397.1142027330375
 20
588.9268499588734
 30
0
 11
397.1142027330375
 21
605.9268499588734
 31
0
  0
LINE
  8
0
 62
7
 10
407.1142027330375
 20
605.9268499588734
 30
0
 11
407.1142027330375
 21
588.9268499588734
 31
0
  0
LINE
  8
0
 62
7
 10
406.1142027330375
 20
587.9268499588734
 30
0
 11
398.1142027330375
 21
587.9268499588734
 31
0
  0
LINE
  8
0
 62
7
 10
376.3642027330375
 20
624.4268499588736
 30
0
 11
387.8642027330375
 21
624.4268499588736
 31
0
  0
LINE
  8
0
 62
7
 10
382.1466462063374
 20
625.9268499588736
 30
0
 11
382.1466462063374
 21
625.4268499588736
 31
0
  0
LINE
  8
0
 62
7
 10
382.6037429192375
 20
625.9268499588736
 30
0
 11
382.1466462063374
 21
625.9268499588736
 31
0
  0
LINE
  8
0
 62
7
 10
382.6037429192375
 20
625.9268499588736
 30
0
 11
382.6037429192375
 21
625.4268499588736
 31
0
  0
LINE
  8
0
 62
7
 10
382.2482232537375
 20
625.9268499588736
 30
0
 11
382.2482232537375
 21
625.4268499588736
 31
0
  0
LINE
  8
0
 62
7
 10
386.0620651689375
 20
625.9268499588736
 30
0
 11
382.6200549086375
 21
625.9268499588736
 31
0
  0
LINE
  8
0
 62
7
 10
386.0620651689375
 20
625.9268499588736
 30
0
 11
386.0620651689375
 21
625.4268499588736
 31
0
  0
LINE
  8
0
 62
7
 10
382.6200549086375
 20
625.9268499588736
 30
0
 11
382.6200549086375
 21
625.4268499588736
 31
0
  0
LINE
  8
0
 62
7
 10
376.3642027330375
 20
616.9268499588736
 30
0
 11
376.3642027330375
 21
625.4268499588736
 31
0
  0
LINE
  8
0
 62
7
 10
377.3642027330375
 20
625.4268499588736
 30
0
 11
377.3642027330375
 21
616.9268499588736
 31
0
  0
LINE
  8
0
 62
7
 10
387.8642027330375
 20
625.4268499588736
 30
0
 11
387.8642027330375
 21
616.9268499588736
 31
0
  0
LINE
  8
0
 62
7
 10
376.3642027330375
 20
625.4268499588736
 30
0
 11
387.8642027330375
 21
625.4268499588736
 31
0
  0
LINE
  8
0
 62
7
 10
386.8642027330375
 20
616.9268499588736
 30
0
 11
386.8642027330375
 21
625.4268499588736
 31
0
  0
LINE
  8
0
 62
7
 10
352.1142027330375
 20
616.9268499588736
 30
0
 11
352.1142027330375
 21
615.4268499588736
 31
0
  0
LINE
  8
0
 62
7
 10
452.1142027330375
 20
615.4268499588736
 30
0
 11
452.1142027330375
 21
616.9268499588736
 31
0
  0
LINE
  8
0
 62
7
 10
456.1142027330375
 20
607.9268499588736
 30
0
 11
456.1142027330375
 21
615.4268499588736
 31
0
  0
LINE
  8
0
 62
7
 10
457.1142027330375
 20
585.9268499588734
 30
0
 11
458.1142027330375
 21
586.9268499588734
 31
0
  0
LINE
  8
0
 62
7
 10
346.1142027330375
 20
586.9268499588734
 30
0
 11
347.1142027330375
 21
585.9268499588734
 31
0
  0
LINE
  8
1
 62
2
  6
DASHDOT
 10
257.865452314945
 20
744.2907311283973
 30
0
 11
521.75749563111
 21
744.2907311283973
 31
0
  0
LINE
  8
1
 62
2
  6
DASHDOT
 10
402.1142027330375
 20
815.360818779692
 30
0
 11
402.1142027330375
 21
673.880236116014
 31
0
  0
LINE
  8
1
 62
2
 10
393.1795911561314
 20
765.9111758235986
 30
0
 11
395.2098872602722
 21
767.9414719277395
 31
0
  0
LINE
  8
1
 62
2
 10
392.9518004800054
 20
764.2963908879749
 30
0
 11
396.7437466248734
 21
768.0883370328428
 31
0
  0
LINE
  8
1
 62
2
 10
393.5703249470823
 20
763.6778664209071
 30
0
 11
397.3622710919503
 21
767.469812565775
 31
0
  0
LINE
  8
1
 62
2
 10
395.0915709753883
 20
763.9617096729987
 30
0
 11
397.1218670795294
 21
765.9920057771399
 31
0
  0
LINE
  8
1
 62
2
 10
410.2488065117504
 20
722.7156104338686
 30
0
 11
412.2791026158913
 21
724.7459065380095
 31
0
  0
LINE
  8
1
 62
2
 10
410.0210158356244
 20
721.1008254982449
 30
0
 11
413.8129619804925
 21
724.8927716431128
 31
0
  0
LINE
  8
1
 62
2
 10
410.6395403027013
 20
720.4823010311771
 30
0
 11
414.4314864475693
 21
724.274247176045
 31
0
  0
LINE
  8
1
 62
2
 10
412.1607863310073
 20
720.7661442832688
 30
0
 11
414.1910824351484
 21
722.7964403874099
 31
0
  0
LINE
  8
1
 62
2
 10
350.6967027330378
 20
585.9268499588726
 30
0
 11
350.6967027330376
 21
583.8443499588735
 31
0
  0
LINE
  8
1
 62
7
 10
349.6142027330381
 20
584.9268499588731
 30
0
 11
350.6967027330376
 21
583.8443499588735
 31
0
  0
LINE
  8
1
 62
2
 10
453.5317027330374
 20
585.9268499588728
 30
0
 11
453.5317027330374
 21
583.8443499588735
 31
0
  0
LINE
  8
1
 62
7
 10
423.3461152330375
 20
530.5818499588738
 30
0
 11
422.8274152330375
 21
530.0830999588737
 31
0
  0
LINE
  8
1
 62
7
 10
423.9944902330375
 20
530.9143499588738
 30
0
 11
423.3461152330375
 21
530.5818499588738
 31
0
  0
LINE
  8
1
 62
7
 10
424.5131902330375
 20
530.9143499588738
 30
0
 11
423.9944902330375
 21
530.9143499588738
 31
0
  0
LINE
  8
1
 62
7
 10
425.4209152330375
 20
530.5818499588738
 30
0
 11
424.5131902330375
 21
530.9143499588738
 31
0
  0
LINE
  8
1
 62
7
 10
426.1989652330375
 20
529.9168499588737
 30
0
 11
425.4209152330375
 21
530.5818499588738
 31
0
  0
LINE
  8
1
 62
7
 10
426.5879902330375
 20
529.2518499588738
 30
0
 11
426.1989652330375
 21
529.9168499588737
 31
0
  0
LINE
  8
1
 62
7
 10
426.9770152330375
 20
528.2543499588738
 30
0
 11
426.5879902330375
 21
529.2518499588738
 31
0
  0
LINE
  8
1
 62
7
 10
427.1066902330375
 20
526.9243499588738
 30
0
 11
426.9770152330375
 21
528.2543499588738
 31
0
  0
LINE
  8
1
 62
7
 10
427.1066902330375
 20
520.9393499588738
 30
0
 11
427.1066902330375
 21
526.9243499588738
 31
0
  0
LINE
  8
1
 62
7
 10
425.6802652330375
 20
520.9393499588738
 30
0
 11
427.1066902330375
 21
520.9393499588738
 31
0
  0
LINE
  8
1
 62
7
 10
425.6802652330375
 20
527.0905999588738
 30
0
 11
425.6802652330375
 21
520.9393499588738
 31
0
  0
LINE
  8
1
 62
7
 10
425.5505902330375
 20
527.7555999588737
 30
0
 11
425.6802652330375
 21
527.0905999588738
 31
0
  0
LINE
  8
1
 62
7
 10
425.1615652330375
 20
528.5868499588738
 30
0
 11
425.5505902330375
 21
527.7555999588737
 31
0
  0
LINE
  8
1
 62
7
 10
424.7725402330375
 20
529.0855999588738
 30
0
 11
425.1615652330375
 21
528.5868499588738
 31
0
  0
LINE
  8
1
 62
7
 10
424.1241652330375
 20
529.2518499588738
 30
0
 11
424.7725402330375
 21
529.0855999588738
 31
0
  0
LINE
  8
1
 62
7
 10
423.6054652330375
 20
529.0855999588738
 30
0
 11
424.1241652330375
 21
529.2518499588738
 31
0
  0
LINE
  8
1
 62
7
 10
423.0867652330375
 20
528.5868499588738
 30
0
 11
423.6054652330375
 21
529.0855999588738
 31
0
  0
LINE
  8
1
 62
7
 10
422.8274152330375
 20
527.7555999588737
 30
0
 11
423.0867652330375
 21
528.5868499588738
 31
0
  0
LINE
  8
1
 62
7
 10
422.8274152330375
 20
520.9393499588738
 30
0
 11
422.8274152330375
 21
527.7555999588737
 31
0
  0
LINE
  8
1
 62
7
 10
421.4009902330375
 20
520.9393499588738
 30
0
 11
422.8274152330375
 21
520.9393499588738
 31
0
  0
LINE
  8
1
 62
7
 10
421.4009902330375
 20
527.0905999588738
 30
0
 11
421.4009902330375
 21
520.9393499588738
 31
0
  0
LINE
  8
1
 62
7
 10
421.2713152330375
 20
527.7555999588737
 30
0
 11
421.4009902330375
 21
527.0905999588738
 31
0
  0
LINE
  8
1
 62
7
 10
420.8822902330375
 20
528.5868499588738
 30
0
 11
421.2713152330375
 21
527.7555999588737
 31
0
  0
LINE
  8
1
 62
7
 10
420.4932652330375
 20
529.0855999588738
 30
0
 11
420.8822902330375
 21
528.5868499588738
 31
0
  0
LINE
  8
1
 62
7
 10
419.8448902330375
 20
529.2518499588738
 30
0
 11
420.4932652330375
 21
529.0855999588738
 31
0
  0
LINE
  8
1
 62
7
 10
419.3261902330375
 20
529.0855999588738
 30
0
 11
419.8448902330375
 21
529.2518499588738
 31
0
  0
LINE
  8
1
 62
7
 10
418.8074902330375
 20
528.5868499588738
 30
0
 11
419.3261902330375
 21
529.0855999588738
 31
0
  0
LINE
  8
1
 62
7
 10
418.5481402330375
 20
527.7555999588737
 30
0
 11
418.8074902330375
 21
528.5868499588738
 31
0
  0
LINE
  8
1
 62
7
 10
418.5481402330375
 20
520.9393499588738
 30
0
 11
418.5481402330375
 21
527.7555999588737
 31
0
  0
LINE
  8
1
 62
7
 10
417.1217152330375
 20
520.9393499588738
 30
0
 11
418.5481402330375
 21
520.9393499588738
 31
0
  0
LINE
  8
1
 62
7
 10
417.1217152330375
 20
530.7480999588738
 30
0
 11
417.1217152330375
 21
520.9393499588738
 31
0
  0
LINE
  8
1
 62
7
 10
418.5481402330375
 20
530.7480999588738
 30
0
 11
417.1217152330375
 21
530.7480999588738
 31
0
  0
LINE
  8
1
 62
7
 10
418.5481402330375
 20
529.9168499588737
 30
0
 11
418.5481402330375
 21
530.7480999588738
 31
0
  0
LINE
  8
1
 62
7
 10
418.9371652330375
 20
530.5818499588738
 30
0
 11
418.5481402330375
 21
529.9168499588737
 31
0
  0
LINE
  8
1
 62
7
 10
419.7152152330375
 20
530.9143499588738
 30
0
 11
418.9371652330375
 21
530.5818499588738
 31
0
  0
LINE
  8
1
 62
7
 10
420.2339152330375
 20
530.9143499588738
 30
0
 11
419.7152152330375
 21
530.9143499588738
 31
0
  0
LINE
  8
1
 62
7
 10
421.1416402330375
 20
530.5818499588738
 30
0
 11
420.2339152330375
 21
530.9143499588738
 31
0
  0
LINE
  8
1
 62
7
 10
421.9196902330375
 20
529.9168499588737
 30
0
 11
421.1416402330375
 21
530.5818499588738
 31
0
  0
LINE
  8
1
 62
7
 10
422.4383902330375
 20
529.2518499588738
 30
0
 11
421.9196902330375
 21
529.9168499588737
 31
0
  0
LINE
  8
1
 62
7
 10
422.8274152330375
 20
530.0830999588737
 30
0
 11
422.4383902330375
 21
529.2518499588738
 31
0
  0
LINE
  8
1
 62
7
 10
411.3461152330375
 20
530.5818499588738
 30
0
 11
410.8274152330375
 21
530.0830999588737
 31
0
  0
LINE
  8
1
 62
7
 10
411.9944902330375
 20
530.9143499588738
 30
0
 11
411.3461152330375
 21
530.5818499588738
 31
0
  0
LINE
  8
1
 62
7
 10
412.5131902330375
 20
530.9143499588738
 30
0
 11
411.9944902330375
 21
530.9143499588738
 31
0
  0
LINE
  8
1
 62
7
 10
413.4209152330375
 20
530.5818499588738
 30
0
 11
412.5131902330375
 21
530.9143499588738
 31
0
  0
LINE
  8
1
 62
7
 10
414.1989652330375
 20
529.9168499588737
 30
0
 11
413.4209152330375
 21
530.5818499588738
 31
0
  0
LINE
  8
1
 62
7
 10
414.5879902330375
 20
529.2518499588738
 30
0
 11
414.1989652330375
 21
529.9168499588737
 31
0
  0
LINE
  8
1
 62
7
 10
414.9770152330375
 20
528.2543499588738
 30
0
 11
414.5879902330375
 21
529.2518499588738
 31
0
  0
LINE
  8
1
 62
7
 10
415.1066902330375
 20
526.9243499588738
 30
0
 11
414.9770152330375
 21
528.2543499588738
 31
0
  0
LINE
  8
1
 62
7
 10
415.1066902330375
 20
520.9393499588738
 30
0
 11
415.1066902330375
 21
526.9243499588738
 31
0
  0
LINE
  8
1
 62
7
 10
413.6802652330375
 20
520.9393499588738
 30
0
 11
415.1066902330375
 21
520.9393499588738
 31
0
  0
LINE
  8
1
 62
7
 10
413.6802652330375
 20
527.0905999588738
 30
0
 11
413.6802652330375
 21
520.9393499588738
 31
0
  0
LINE
  8
1
 62
7
 10
413.5505902330375
 20
527.7555999588737
 30
0
 11
413.6802652330375
 21
527.0905999588738
 31
0
  0
LINE
  8
1
 62
7
 10
413.1615652330375
 20
528.5868499588738
 30
0
 11
413.5505902330375
 21
527.7555999588737
 31
0
  0
LINE
  8
1
 62
7
 10
412.7725402330375
 20
529.0855999588738
 30
0
 11
413.1615652330375
 21
528.5868499588738
 31
0
  0
LINE
  8
1
 62
7
 10
412.1241652330375
 20
529.2518499588738
 30
0
 11
412.7725402330375
 21
529.0855999588738
 31
0
  0
LINE
  8
1
 62
7
 10
411.6054652330375
 20
529.0855999588738
 30
0
 11
412.1241652330375
 21
529.2518499588738
 31
0
  0
LINE
  8
1
 62
7
 10
411.0867652330375
 20
528.5868499588738
 30
0
 11
411.6054652330375
 21
529.0855999588738
 31
0
  0
LINE
  8
1
 62
7
 10
410.8274152330375
 20
527.7555999588737
 30
0
 11
411.0867652330375
 21
528.5868499588738
 31
0
  0
LINE
  8
1
 62
7
 10
410.8274152330375
 20
520.9393499588738
 30
0
 11
410.8274152330375
 21
527.7555999588737
 31
0
  0
LINE
  8
1
 62
7
 10
409.4009902330375
 20
520.9393499588738
 30
0
 11
410.8274152330375
 21
520.9393499588738
 31
0
  0
LINE
  8
1
 62
7
 10
409.4009902330375
 20
527.0905999588738
 30
0
 11
409.4009902330375
 21
520.9393499588738
 31
0
  0
LINE
  8
1
 62
7
 10
409.2713152330375
 20
527.7555999588737
 30
0
 11
409.4009902330375
 21
527.0905999588738
 31
0
  0
LINE
  8
1
 62
7
 10
408.8822902330375
 20
528.5868499588738
 30
0
 11
409.2713152330375
 21
527.7555999588737
 31
0
  0
LINE
  8
1
 62
7
 10
408.4932652330375
 20
529.0855999588738
 30
0
 11
408.8822902330375
 21
528.5868499588738
 31
0
  0
LINE
  8
1
 62
7
 10
407.8448902330375
 20
529.2518499588738
 30
0
 11
408.4932652330375
 21
529.0855999588738
 31
0
  0
LINE
  8
1
 62
7
 10
407.3261902330375
 20
529.0855999588738
 30
0
 11
407.8448902330375
 21
529.2518499588738
 31
0
  0
LINE
  8
1
 62
7
 10
406.8074902330375
 20
528.5868499588738
 30
0
 11
407.3261902330375
 21
529.0855999588738
 31
0
  0
LINE
  8
1
 62
7
 10
406.5481402330375
 20
527.7555999588737
 30
0
 11
406.8074902330375
 21
528.5868499588738
 31
0
  0
LINE
  8
1
 62
7
 10
406.5481402330375
 20
520.9393499588738
 30
0
 11
406.5481402330375
 21
527.7555999588737
 31
0
  0
LINE
  8
1
 62
7
 10
405.1217152330375
 20
520.9393499588738
 30
0
 11
406.5481402330375
 21
520.9393499588738
 31
0
  0
LINE
  8
1
 62
7
 10
405.1217152330375
 20
530.7480999588738
 30
0
 11
405.1217152330375
 21
520.9393499588738
 31
0
  0
LINE
  8
1
 62
7
 10
406.5481402330375
 20
530.7480999588738
 30
0
 11
405.1217152330375
 21
530.7480999588738
 31
0
  0
LINE
  8
1
 62
7
 10
406.5481402330375
 20
529.9168499588737
 30
0
 11
406.5481402330375
 21
530.7480999588738
 31
0
  0
LINE
  8
1
 62
7
 10
406.9371652330375
 20
530.5818499588738
 30
0
 11
406.5481402330375
 21
529.9168499588737
 31
0
  0
LINE
  8
1
 62
7
 10
407.7152152330375
 20
530.9143499588738
 30
0
 11
406.9371652330375
 21
530.5818499588738
 31
0
  0
LINE
  8
1
 62
7
 10
408.2339152330375
 20
530.9143499588738
 30
0
 11
407.7152152330375
 21
530.9143499588738
 31
0
  0
LINE
  8
1
 62
7
 10
409.1416402330375
 20
530.5818499588738
 30
0
 11
408.2339152330375
 21
530.9143499588738
 31
0
  0
LINE
  8
1
 62
7
 10
409.9196902330375
 20
529.9168499588737
 30
0
 11
409.1416402330375
 21
530.5818499588738
 31
0
  0
LINE
  8
1
 62
7
 10
410.4383902330375
 20
529.2518499588738
 30
0
 11
409.9196902330375
 21
529.9168499588737
 31
0
  0
LINE
  8
1
 62
7
 10
410.8274152330375
 20
530.0830999588737
 30
0
 11
410.4383902330375
 21
529.2518499588738
 31
0
  0
LINE
  8
1
 62
7
 10
399.0985777330375
 20
521.4893499588741
 30
0
 11
399.6948277330375
 21
521.8643499588741
 31
0
  0
LINE
  8
1
 62
7
 10
398.1048277330375
 20
521.1143499588741
 30
0
 11
399.0985777330375
 21
521.4893499588741
 31
0
  0
LINE
  8
1
 62
7
 10
397.3098277330375
 20
520.9268499588741
 30
0
 11
398.1048277330375
 21
521.1143499588741
 31
0
  0
LINE
  8
1
 62
7
 10
395.9185777330375
 20
520.9268499588741
 30
0
 11
397.3098277330375
 21
520.9268499588741
 31
0
  0
LINE
  8
1
 62
7
 10
395.1235777330375
 20
521.1143499588741
 30
0
 11
395.9185777330375
 21
520.9268499588741
 31
0
  0
LINE
  8
1
 62
7
 10
394.1298277330375
 20
521.4893499588741
 30
0
 11
395.1235777330375
 21
521.1143499588741
 31
0
  0
LINE
  8
1
 62
7
 10
393.5335777330375
 20
521.8643499588741
 30
0
 11
394.1298277330375
 21
521.4893499588741
 31
0
  0
LINE
  8
1
 62
7
 10
392.9373277330375
 20
522.4268499588741
 30
0
 11
393.5335777330375
 21
521.8643499588741
 31
0
  0
LINE
  8
1
 62
7
 10
392.3410777330375
 20
523.1768499588741
 30
0
 11
392.9373277330375
 21
522.4268499588741
 31
0
  0
LINE
  8
1
 62
7
 10
391.9435777330375
 20
523.9268499588741
 30
0
 11
392.3410777330375
 21
523.1768499588741
 31
0
  0
LINE
  8
1
 62
7
 10
391.5460777330375
 20
524.8643499588741
 30
0
 11
391.9435777330375
 21
523.9268499588741
 31
0
  0
LINE
  8
1
 62
7
 10
391.3473277330375
 20
525.9893499588741
 30
0
 11
391.5460777330375
 21
524.8643499588741
 31
0
  0
LINE
  8
1
 62
7
 10
391.1485777330375
 20
527.6768499588741
 30
0
 11
391.3473277330375
 21
525.9893499588741
 31
0
  0
LINE
  8
1
 62
7
 10
391.1485777330375
 20
529.1768499588741
 30
0
 11
391.1485777330375
 21
527.6768499588741
 31
0
  0
LINE
  8
1
 62
7
 10
391.3473277330375
 20
530.8643499588741
 30
0
 11
391.1485777330375
 21
529.1768499588741
 31
0
  0
LINE
  8
1
 62
7
 10
391.5460777330375
 20
531.9893499588741
 30
0
 11
391.3473277330375
 21
530.8643499588741
 31
0
  0
LINE
  8
1
 62
7
 10
391.9435777330375
 20
532.9268499588741
 30
0
 11
391.5460777330375
 21
531.9893499588741
 31
0
  0
LINE
  8
1
 62
7
 10
392.3410777330375
 20
533.6768499588741
 30
0
 11
391.9435777330375
 21
532.9268499588741
 31
0
  0
LINE
  8
1
 62
7
 10
392.9373277330375
 20
534.4268499588741
 30
0
 11
392.3410777330375
 21
533.6768499588741
 31
0
  0
LINE
  8
1
 62
7
 10
393.5335777330375
 20
534.9893499588741
 30
0
 11
392.9373277330375
 21
534.4268499588741
 31
0
  0
LINE
  8
1
 62
7
 10
394.1298277330375
 20
535.3643499588741
 30
0
 11
393.5335777330375
 21
534.9893499588741
 31
0
  0
LINE
  8
1
 62
7
 10
395.1235777330375
 20
535.7393499588741
 30
0
 11
394.1298277330375
 21
535.3643499588741
 31
0
  0
LINE
  8
1
 62
7
 10
395.9185777330375
 20
535.9268499588741
 30
0
 11
395.1235777330375
 21
535.7393499588741
 31
0
  0
LINE
  8
1
 62
7
 10
397.3098277330375
 20
535.9268499588741
 30
0
 11
395.9185777330375
 21
535.9268499588741
 31
0
  0
LINE
  8
1
 62
7
 10
398.1048277330375
 20
535.7393499588741
 30
0
 11
397.3098277330375
 21
535.9268499588741
 31
0
  0
LINE
  8
1
 62
7
 10
399.0985777330375
 20
535.3643499588741
 30
0
 11
398.1048277330375
 21
535.7393499588741
 31
0
  0
LINE
  8
1
 62
7
 10
399.6948277330375
 20
534.9893499588741
 30
0
 11
399.0985777330375
 21
535.3643499588741
 31
0
  0
LINE
  8
1
 62
7
 10
400.2910777330375
 20
534.4268499588741
 30
0
 11
399.6948277330375
 21
534.9893499588741
 31
0
  0
LINE
  8
1
 62
7
 10
400.8873277330375
 20
533.6768499588741
 30
0
 11
400.2910777330375
 21
534.4268499588741
 31
0
  0
LINE
  8
1
 62
7
 10
401.2848277330375
 20
532.9268499588741
 30
0
 11
400.8873277330375
 21
533.6768499588741
 31
0
  0
LINE
  8
1
 62
7
 10
401.6823277330375
 20
531.9893499588741
 30
0
 11
401.2848277330375
 21
532.9268499588741
 31
0
  0
LINE
  8
1
 62
7
 10
401.8810777330375
 20
530.8643499588741
 30
0
 11
401.6823277330375
 21
531.9893499588741
 31
0
  0
LINE
  8
1
 62
7
 10
402.0798277330375
 20
529.1768499588741
 30
0
 11
401.8810777330375
 21
530.8643499588741
 31
0
  0
LINE
  8
1
 62
7
 10
402.0798277330375
 20
527.6768499588741
 30
0
 11
402.0798277330375
 21
529.1768499588741
 31
0
  0
LINE
  8
1
 62
7
 10
401.8810777330375
 20
525.9893499588741
 30
0
 11
402.0798277330375
 21
527.6768499588741
 31
0
  0
LINE
  8
1
 62
7
 10
401.6823277330375
 20
524.8643499588741
 30
0
 11
401.8810777330375
 21
525.9893499588741
 31
0
  0
LINE
  8
1
 62
7
 10
401.2848277330375
 20
523.9268499588741
 30
0
 11
401.6823277330375
 21
524.8643499588741
 31
0
  0
LINE
  8
1
 62
7
 10
400.8873277330375
 20
523.1768499588741
 30
0
 11
401.2848277330375
 21
523.9268499588741
 31
0
  0
LINE
  8
1
 62
7
 10
400.2910777330375
 20
522.4268499588741
 30
0
 11
400.8873277330375
 21
523.1768499588741
 31
0
  0
LINE
  8
1
 62
7
 10
399.6948277330375
 20
521.8643499588741
 30
0
 11
400.2910777330375
 21
522.4268499588741
 31
0
  0
LINE
  8
1
 62
7
 10
395.1235777330375
 20
523.1768499588741
 30
0
 11
395.9185777330375
 21
522.8018499588741
 31
0
  0
LINE
  8
1
 62
7
 10
394.3285777330375
 20
523.7393499588741
 30
0
 11
395.1235777330375
 21
523.1768499588741
 31
0
  0
LINE
  8
1
 62
7
 10
393.9310777330375
 20
524.3018499588741
 30
0
 11
394.3285777330375
 21
523.7393499588741
 31
0
  0
LINE
  8
1
 62
7
 10
393.5335777330375
 20
525.2393499588741
 30
0
 11
393.9310777330375
 21
524.3018499588741
 31
0
  0
LINE
  8
1
 62
7
 10
393.3348277330375
 20
527.3018499588741
 30
0
 11
393.5335777330375
 21
525.2393499588741
 31
0
  0
LINE
  8
1
 62
7
 10
393.3348277330375
 20
529.5518499588741
 30
0
 11
393.3348277330375
 21
527.3018499588741
 31
0
  0
LINE
  8
1
 62
7
 10
393.5335777330375
 20
531.6143499588741
 30
0
 11
393.3348277330375
 21
529.5518499588741
 31
0
  0
LINE
  8
1
 62
7
 10
393.9310777330375
 20
532.5518499588741
 30
0
 11
393.5335777330375
 21
531.6143499588741
 31
0
  0
LINE
  8
1
 62
7
 10
394.3285777330375
 20
533.1143499588741
 30
0
 11
393.9310777330375
 21
532.5518499588741
 31
0
  0
LINE
  8
1
 62
7
 10
395.1235777330375
 20
533.6768499588741
 30
0
 11
394.3285777330375
 21
533.1143499588741
 31
0
  0
LINE
  8
1
 62
7
 10
395.9185777330375
 20
534.0518499588741
 30
0
 11
395.1235777330375
 21
533.6768499588741
 31
0
  0
LINE
  8
1
 62
7
 10
397.3098277330375
 20
534.0518499588741
 30
0
 11
395.9185777330375
 21
534.0518499588741
 31
0
  0
LINE
  8
1
 62
7
 10
398.1048277330375
 20
533.6768499588741
 30
0
 11
397.3098277330375
 21
534.0518499588741
 31
0
  0
LINE
  8
1
 62
7
 10
398.8998277330375
 20
533.1143499588741
 30
0
 11
398.1048277330375
 21
533.6768499588741
 31
0
  0
LINE
  8
1
 62
7
 10
399.2973277330375
 20
532.5518499588741
 30
0
 11
398.8998277330375
 21
533.1143499588741
 31
0
  0
LINE
  8
1
 62
7
 10
399.6948277330375
 20
531.6143499588741
 30
0
 11
399.2973277330375
 21
532.5518499588741
 31
0
  0
LINE
  8
1
 62
7
 10
399.8935777330375
 20
529.5518499588741
 30
0
 11
399.6948277330375
 21
531.6143499588741
 31
0
  0
LINE
  8
1
 62
7
 10
399.8935777330375
 20
527.3018499588741
 30
0
 11
399.8935777330375
 21
529.5518499588741
 31
0
  0
LINE
  8
1
 62
7
 10
399.6948277330375
 20
525.2393499588741
 30
0
 11
399.8935777330375
 21
527.3018499588741
 31
0
  0
LINE
  8
1
 62
7
 10
399.2973277330375
 20
524.3018499588741
 30
0
 11
399.6948277330375
 21
525.2393499588741
 31
0
  0
LINE
  8
1
 62
7
 10
398.8998277330375
 20
523.7393499588741
 30
0
 11
399.2973277330375
 21
524.3018499588741
 31
0
  0
LINE
  8
1
 62
7
 10
398.1048277330375
 20
523.1768499588741
 30
0
 11
398.8998277330375
 21
523.7393499588741
 31
0
  0
LINE
  8
1
 62
7
 10
397.3098277330375
 20
522.8018499588741
 30
0
 11
398.1048277330375
 21
523.1768499588741
 31
0
  0
LINE
  8
1
 62
7
 10
395.9185777330375
 20
522.8018499588741
 30
0
 11
397.3098277330375
 21
522.8018499588741
 31
0
  0
LINE
  8
1
 62
7
 10
384.5279527330375
 20
526.1768499588741
 30
0
 11
384.5279527330375
 21
532.5518499588741
 31
0
  0
LINE
  8
1
 62
7
 10
379.5254527330375
 20
526.1768499588741
 30
0
 11
384.5279527330375
 21
526.1768499588741
 31
0
  0
LINE
  8
1
 62
7
 10
384.5279527330375
 20
532.5518499588741
 30
0
 11
379.5254527330375
 21
526.1768499588741
 31
0
  0
LINE
  8
1
 62
7
 10
377.1329527330375
 20
526.3643499588741
 30
0
 11
384.5279527330375
 21
535.9268499588741
 31
0
  0
LINE
  8
1
 62
7
 10
377.1329527330375
 20
524.3018499588741
 30
0
 11
377.1329527330375
 21
526.3643499588741
 31
0
  0
LINE
  8
1
 62
7
 10
384.5279527330375
 20
524.3018499588741
 30
0
 11
377.1329527330375
 21
524.3018499588741
 31
0
  0
LINE
  8
1
 62
7
 10
384.5279527330375
 20
520.9268499588741
 30
0
 11
384.5279527330375
 21
524.3018499588741
 31
0
  0
LINE
  8
1
 62
7
 10
386.9204527330375
 20
520.9268499588741
 30
0
 11
384.5279527330375
 21
520.9268499588741
 31
0
  0
LINE
  8
1
 62
7
 10
386.9204527330375
 20
524.3018499588741
 30
0
 11
386.9204527330375
 21
520.9268499588741
 31
0
  0
LINE
  8
1
 62
7
 10
389.0954527330375
 20
524.3018499588741
 30
0
 11
386.9204527330375
 21
524.3018499588741
 31
0
  0
LINE
  8
1
 62
7
 10
389.0954527330375
 20
526.1768499588741
 30
0
 11
389.0954527330375
 21
524.3018499588741
 31
0
  0
LINE
  8
1
 62
7
 10
386.9204527330375
 20
526.1768499588741
 30
0
 11
389.0954527330375
 21
526.1768499588741
 31
0
  0
LINE
  8
1
 62
7
 10
386.9204527330375
 20
535.9268499588741
 30
0
 11
386.9204527330375
 21
526.1768499588741
 31
0
  0
LINE
  8
1
 62
7
 10
384.5279527330375
 20
535.9268499588741
 30
0
 11
386.9204527330375
 21
535.9268499588741
 31
0
  0
LINE
  8
1
 62
7
 10
353.1142027330375
 20
706.1265646202127
 30
0
 11
353.1142027330375
 21
706.9419086201401
 31
0
  0
LINE
  8
1
 62
7
 10
349.1142027330375
 20
706.913740556994
 30
0
 11
353.1142027330375
 21
706.1265646202127
 31
0
  0
LINE
  8
1
 62
7
 10
349.1142027330375
 20
707.7290845569215
 30
0
 11
349.1142027330375
 21
706.913740556994
 31
0
  0
LINE
  8
1
 62
7
 10
347.1142027330375
 20
707.3073285253846
 30
0
 11
347.1142027330375
 21
708.1226725253122
 31
0
  0
LINE
  8
1
 62
7
 10
343.1142027330375
 20
708.094504462166
 30
0
 11
347.1142027330375
 21
707.3073285253846
 31
0
  0
LINE
  8
1
 62
7
 10
343.1142027330375
 20
708.9098484620935
 30
0
 11
343.1142027330375
 21
708.094504462166
 31
0
  0
LINE
  8
1
 62
7
 10
341.1142027330375
 20
708.4880924305567
 30
0
 11
341.1142027330375
 21
709.3034364304841
 31
0
  0
LINE
  8
1
 62
7
 10
337.1142027330375
 20
709.275268367338
 30
0
 11
341.1142027330375
 21
708.4880924305567
 31
0
  0
LINE
  8
1
 62
7
 10
337.1142027330375
 20
710.0906123672655
 30
0
 11
337.1142027330375
 21
709.275268367338
 31
0
  0
LINE
  8
1
 62
2
  6
DASHDOT
 10
260.053111543709
 20
528.9268499588735
 30
0
 11
520.8128109766012
 21
528.9268499588734
 31
0
  0
LINE
  8
1
 62
7
 10
490.9072544733779
 20
502.1337982185331
 30
0
 11
490.9072544733779
 21
555.7268499588736
 31
0
  0
LINE
  8
1
 62
7
 10
287.1142027330375
 20
500.9268499588737
 30
0
 11
287.1142027330375
 21
556.9268499588736
 31
0
  0
LINE
  8
1
 62
2
  6
DASHDOT
 10
402.1142027330375
 20
627.206764873195
 30
0
 11
402.1142027330375
 21
478.2051155961256
 31
0
  0
LINE
  8
1
 62
7
 10
489.7604036722153
 20
503.2806490196957
 30
0
 11
492.1142027330375
 21
500.9268499588736
 31
0
  0
LINE
  8
1
 62
7
 10
485.9799035792087
 20
505.2325579160139
 30
0
 11
459.1153087510227
 21
509.783835947232
 31
0
  0
LINE
  8
1
 62
2
 10
490.9072544733779
 20
555.7268499588736
 30
0
 11
512.1142027330375
 21
555.7268499588736
 31
0
  0
LINE
  8
1
 62
7
 10
491.0320851645865
 20
555.8447323904226
 30
0
 11
492.1142027330375
 21
556.9268499588736
 31
0
  0
LINE
  8
1
 62
2
 10
512.1142027330375
 20
502.1268499588739
 30
0
 11
490.9142027330371
 21
502.1268499588739
 31
0
  0
LINE
  8
1
 62
7
 10
511.3642027330375
 20
500.9268499588736
 30
0
 11
512.1142027330375
 21
501.9268499588736
 31
0
  0
LINE
  8
1
 62
7
 10
511.3642027330375
 20
500.9268499588736
 30
0
 11
492.1142027330375
 21
500.9268499588736
 31
0
  0
LINE
  8
1
 62
7
 10
487.5109016870953
 20
555.312680689534
 30
0
 11
453.941856189667
 21
573.0230011594579
 31
0
  0
LINE
  8
1
 62
7
 10
291.9337037401316
 20
718.9818627720127
 30
0
 11
359.5078382968799
 21
705.6836796040386
 31
0
  0
LINE
  8
1
 62
7
 10
454.6142027330369
 20
584.9268499588731
 30
0
 11
451.6636963239859
 21
581.976343549822
 31
0
  0
LINE
  8
1
 62
7
 10
359.5078382968799
 20
782.8977826527555
 30
0
 11
291.9337037401315
 21
769.5995994847818
 31
0
  0
LINE
  8
1
 62
7
 10
492.1142027330375
 20
772.5407311283973
 30
0
 11
492.1142027330375
 21
716.0407311283973
 31
0
  0
LINE
  8
1
 62
7
 10
287.1142027330375
 20
716.0407311283974
 30
0
 11
287.1142027330375
 21
772.5407311283974
 31
0
  0
LINE
  8
1
 62
7
 10
492.1142027330375
 20
772.5407311283973
 30
0
 11
490.1218069647788
 21
770.5483353601385
 31
0
  0
LINE
  8
1
 62
7
 10
442.7866575017848
 20
782.7842555589324
 30
0
 11
487.1573636916099
 21
769.7905683959618
 31
0
  0
LINE
  8
1
 62
7
 10
492.1142027330375
 20
716.0407311283973
 30
0
 11
490.1218069647787
 21
718.0331268966559
 31
0
  0
LINE
  8
1
 62
7
 10
442.7866575017841
 20
705.7972066978615
 30
0
 11
487.1573636916099
 21
718.7908938608321
 31
0
  0
LINE
  8
1
 62
7
 10
336.6142027330375
 20
745.7907311283972
 30
0
 11
336.6142027330375
 21
742.7907311283972
 31
0
  0
LINE
  8
1
 62
7
 10
339.1142027330375
 20
745.7907311283969
 30
0
 11
336.6142027330375
 21
745.7907311283972
 31
0
  0
LINE
  8
1
 62
7
 10
348.6142027330375
 20
565.5871039967179
 30
0
 11
348.6142027330375
 21
564.4268499588735
 31
0
  0
LINE
  8
1
 62
7
 10
350.6967027330376
 20
583.8443499588735
 30
0
 11
352.5647091420892
 21
581.9763435498219
 31
0
  0
LINE
  8
1
 62
7
 10
353.2003836324807
 20
577.1479164250757
 30
0
 11
350.4228597819475
 21
572.3371039967179
 31
0
  0
LINE
  8
1
 62
7
 10
451.0280218335943
 20
577.1479164250758
 30
0
 11
452.743643112245
 21
574.1763732039061
 31
0
  0
LINE
  8
1
 62
7
 10
268.1142027330375
 20
556.9268499588736
 30
0
 11
287.1142027330375
 21
556.9268499588736
 31
0
  0
LINE
  8
1
 62
7
 10
287.1142027330375
 20
500.9268499588737
 30
0
 11
268.1142027330375
 21
500.9268499588736
 31
0
  0
LINE
  8
1
 62
7
 10
267.1142027330375
 20
501.9268499588736
 30
0
 11
267.1142027330375
 21
555.9268499588736
 31
0
  0
LINE
  8
1
 62
7
 10
267.1142027330375
 20
555.9268499588736
 30
0
 11
268.1142027330375
 21
556.9268499588736
 31
0
  0
LINE
  8
1
 62
7
 10
267.1142027330375
 20
501.9268499588736
 30
0
 11
268.1142027330375
 21
500.9268499588736
 31
0
  0
LINE
  8
1
 62
2
 10
267.1142027330375
 20
555.7268499588736
 30
0
 11
288.4920570532502
 21
555.7268499588736
 31
0
  0
LINE
  8
1
 62
2
 10
267.1142027330375
 20
502.1268499588737
 30
0
 11
288.4721854506347
 21
502.1268499588737
 31
0
  0
LINE
  8
1
 62
7
 10
310.7101206753021
 20
560.4268499588731
 30
0
 11
344.6142027330375
 21
560.4268499588735
 31
0
  0
LINE
  8
1
 62
7
 10
287.1142027330375
 20
556.9268499588736
 30
0
 11
289.0509764905793
 21
555.2400762013319
 31
0
  0
LINE
  8
1
 62
7
 10
287.1142027330375
 20
500.9268499588737
 30
0
 11
289.2631446208753
 21
502.8257918467116
 31
0
  0
LINE
  8
1
 62
7
 10
437.1142027330375
 20
484.9268499588736
 30
0
 11
404.1142027330375
 21
484.9268499588736
 31
0
  0
LINE
  8
1
 62
7
 10
492.1142027330375
 20
556.9268499588736
 30
0
 11
511.1142027330375
 21
556.9268499588736
 31
0
  0
LINE
  8
1
 62
7
 10
511.1142027330375
 20
556.9268499588736
 30
0
 11
512.1142027330375
 21
555.9268499588736
 31
0
  0
LINE
  8
1
 62
7
 10
512.1142027330375
 20
555.9268499588736
 30
0
 11
512.1142027330375
 21
501.9268499588736
 31
0
  0
LINE
  8
1
 62
7
 10
356.1142027330375
 20
484.9268499588736
 30
0
 11
357.1142027330375
 21
483.9268499588736
 31
0
  0
LINE
  8
1
 62
7
 10
437.1142027330375
 20
483.9268499588736
 30
0
 11
438.1142027330375
 21
484.9538967569624
 31
0
  0
LINE
  8
1
 62
7
 10
403.6142027330375
 20
484.4268499588736
 30
0
 11
403.6142027330375
 21
483.9268499588736
 31
0
  0
LINE
  8
1
 62
7
 10
357.1142027330375
 20
483.9268499588736
 30
0
 11
437.1142027330375
 21
483.9268499588736
 31
0
  0
LINE
  8
1
 62
7
 10
400.6142027330375
 20
484.4268499588736
 30
0
 11
400.6142027330375
 21
483.9268499588736
 31
0
  0
LINE
  8
1
 62
7
 10
400.1142027330375
 20
484.9268499588736
 30
0
 11
351.775145686473
 21
484.9268499588736
 31
0
  0
LINE
  8
1
 62
7
 10
455.6142027330375
 20
506.8259832195359
 30
0
 11
455.6142027330375
 21
503.4268499588736
 31
0
  0
LINE
  8
1
 62
7
 10
349.5115498765235
 20
570.4268499588736
 30
0
 11
338.6142027330375
 21
570.4268499588734
 31
0
  0
LINE
  8
1
 62
7
 10
336.6142027330375
 20
568.4268499588734
 30
0
 11
336.6142027330375
 21
562.4268499588734
 31
0
  0
LINE
  8
1
 62
2
  6
DASHDOT
 10
345.5657875605094
 20
565.4268499588735
 30
0
 11
340.6311817909955
 21
565.4268499588735
 31
0
  0
LINE
  8
1
 62
2
  6
DASHDOT
 10
343.0628763047806
 20
568.2410690648685
 30
0
 11
343.0628763047806
 21
562.6857581671136
 31
0
  0
LINE
  8
1
 62
7
 10
511.1142027330375
 20
716.0407311283973
 30
0
 11
492.1142027330375
 21
716.0407311283973
 31
0
  0
LINE
  8
1
 62
7
 10
492.1142027330375
 20
772.5407311283973
 30
0
 11
511.1142027330375
 21
772.5407311283973
 31
0
  0
LINE
  8
1
 62
7
 10
512.1142027330375
 20
717.0407311283973
 30
0
 11
511.1142027330375
 21
716.0407311283973
 31
0
  0
LINE
  8
1
 62
7
 10
512.1142027330375
 20
771.5407311283973
 30
0
 11
511.1142027330375
 21
772.5407311283973
 31
0
  0
LINE
  8
1
 62
2
 10
512.1142027330375
 20
717.2407311283971
 30
0
 11
490.9142027330374
 21
717.2407311283971
 31
0
  0
LINE
  8
1
 62
2
 10
512.1142027330375
 20
771.340731128397
 30
0
 11
490.9142027330374
 21
771.340731128397
 31
0
  0
LINE
  8
1
 62
7
 10
512.1142027330375
 20
771.5407311283973
 30
0
 11
512.1142027330375
 21
717.0407311283973
 31
0
  0
LINE
  8
1
 62
7
 10
287.1142027330375
 20
716.0407311283974
 30
0
 11
268.1142027330375
 21
716.0407311283974
 31
0
  0
LINE
  8
1
 62
7
 10
268.1142027330375
 20
772.5407311283974
 30
0
 11
287.1142027330375
 21
772.5407311283974
 31
0
  0
LINE
  8
1
 62
7
 10
268.1142027330375
 20
716.0407311283974
 30
0
 11
267.1142027330375
 21
717.0407311283974
 31
0
  0
LINE
  8
1
 62
7
 10
268.1142027330375
 20
772.5407311283974
 30
0
 11
267.1142027330375
 21
771.5407311283974
 31
0
  0
LINE
  8
1
 62
2
 10
288.3142027330375
 20
717.2407311283972
 30
0
 11
267.1142027330375
 21
717.2407311283972
 31
0
  0
LINE
  8
1
 62
7
 10
267.1142027330375
 20
717.0407311283974
 30
0
 11
267.1142027330375
 21
771.5407311283974
 31
0
  0
LINE
  8
1
 62
2
 10
288.3142027330375
 20
771.3407311283971
 30
0
 11
267.1142027330375
 21
771.3407311283971
 31
0
  0
LINE
  8
1
 62
7
 10
289.2331118717791
 20
718.1596402671388
 30
0
 11
287.1142027330375
 21
716.0407311283974
 31
0
  0
LINE
  8
1
 62
7
 10
289.233111871779
 20
770.4218219896558
 30
0
 11
287.1142027330375
 21
772.5407311283974
 31
0
  0
LINE
  8
1
 62
7
 10
422.1142027330375
 20
548.9268499588737
 30
0
 11
412.1142027330375
 21
552.9268499588739
 31
0
  0
LINE
  8
1
 62
7
 10
412.1142027330375
 20
552.9268499588739
 30
0
 11
412.1142027330375
 21
550.4268499588739
 31
0
  0
LINE
  8
1
 62
7
 10
382.1142027330375
 20
550.4268499588739
 30
0
 11
382.1142027330375
 21
547.4268499588737
 31
0
  0
LINE
  8
1
 62
7
 10
412.1142027330375
 20
547.4268499588737
 30
0
 11
412.1142027330375
 21
544.9268499588736
 31
0
  0
LINE
  8
1
 62
7
 10
412.1142027330375
 20
544.9268499588736
 30
0
 11
422.1142027330375
 21
548.9268499588737
 31
0
  0
LINE
  8
1
 62
7
 10
382.1142027330375
 20
552.9268499588739
 30
0
 11
383.5575784060115
 21
550.4268499588739
 31
0
  0
LINE
  8
1
 62
7
 10
412.1142027330375
 20
550.4268499588739
 30
0
 11
382.1142027330375
 21
550.4268499588739
 31
0
  0
LINE
  8
1
 62
7
 10
382.1142027330375
 20
544.9268499588736
 30
0
 11
383.5575784060115
 21
547.4268499588737
 31
0
  0
LINE
  8
1
 62
7
 10
382.1142027330375
 20
547.4268499588737
 30
0
 11
412.1142027330375
 21
547.4268499588737
 31
0
  0
LINE
  8
1
 62
7
 10
402.1142027330375
 20
552.9268499588739
 30
0
 11
403.5575784060115
 21
550.4268499588739
 31
0
  0
LINE
  8
1
 62
7
 10
402.1142027330375
 20
544.9268499588736
 30
0
 11
403.5575784060115
 21
547.4268499588737
 31
0
  0
LINE
  8
1
 62
7
 10
382.1142027330375
 20
552.9268499588739
 30
0
 11
402.1142027330375
 21
552.9268499588739
 31
0
  0
LINE
  8
1
 62
7
 10
382.1142027330375
 20
544.9268499588736
 30
0
 11
402.1142027330375
 21
544.9268499588736
 31
0
  0
LINE
  8
1
 62
2
  6
DASHDOT
 10
424.3980211941196
 20
548.9268499588737
 30
0
 11
380.8897468933295
 21
548.9268499588737
 31
0
  0
LINE
  8
1
 62
7
 10
350.6967027330376
 20
583.8443499588735
 30
0
 11
453.5317027330374
 21
583.8443499588735
 31
0
  0
LINE
  8
1
 62
7
 10
336.6142027330375
 20
742.7907311283972
 30
0
 11
339.1142027330375
 21
742.7907311283972
 31
0
  0
LINE
  8
1
 62
7
 10
454.6142027330375
 20
585.9268499588728
 30
0
 11
454.6142027330369
 21
584.9268499588731
 31
0
  0
LINE
  8
1
 62
7
 10
349.6142027330381
 20
584.9268499588731
 30
0
 11
349.6142027330374
 21
585.9268499588728
 31
0
  0
ARC
  8
0
 62
7
 10
398.1142027330375
 20
681.2907311283973
 30
0
 40
0.9999999999999999
 50
179.972906906096
 51
180.027093093904
  0
ARC
  8
0
 62
7
 10
406.1142027330375
 20
681.2907311283973
 30
0
 40
1
 50
270
 51
359.9729190240591
  0
ARC
  8
0
 62
7
 10
465.1142027330375
 20
740.2907311283973
 30
0
 40
1
 50
269.9729190240624
 51
270.0270809759409
  0
ARC
  8
0
 62
7
 10
465.1142043479823
 20
748.2907297026783
 30
0
 40
1.000001424956506
 50
9.256801801471251e-005
 51
89.97299946721256
  0
ARC
  8
0
 62
7
 10
381.364202733026
 20
764.8564820165045
 30
0
 40
0.9999999999885325
 50
143.506233400626
 51
179.935895266167
  0
ARC
  8
0
 62
7
 10
377.4642027330374
 20
746.6907311283974
 30
0
 40
0.5000000000000001
 50
270.0204987258003
 51
359.89219252749
  0
ARC
  8
0
 62
7
 10
377.4642027330374
 20
752.6907311283974
 30
0
 40
0.4999999999999999
 50
0.107807472510038
 51
89.94654576639535
  0
ARC
  8
0
 62
7
 10
375.9642026083077
 20
746.6907313672123
 30
0
 40
0.500000238770228
 50
180.000014302734
 51
269.9795155769594
  0
ARC
  8
0
 62
7
 10
377.3642027330375
 20
729.6907311283974
 30
0
 40
1
 50
180
 51
269.9472878850064
  0
ARC
  8
0
 62
7
 10
398.1142041586564
 20
807.2907327433422
 30
0
 40
1.000001424856405
 50
90.00009256801802
 51
179.9729994741079
  0
ARC
  8
0
 62
7
 10
406.1142027330375
 20
807.2907311283973
 30
0
 40
1
 50
359.9729190240591
 51
0.0270809759408455
  0
ARC
  8
0
 62
7
 10
345.3339244667375
 20
739.2907311283973
 30
0
 40
0.9999999999998164
 50
5.032413495507803
 51
90
  0
ARC
  8
0
 62
7
 10
402.1142027330375
 20
744.2907311283973
 30
0
 40
53.9999999999999
 50
250.2471847302
 51
244.4971777419999
  0
ARC
  8
1
 62
7
 10
340.1142018789375
 20
741.2907311023973
 30
0
 40
1.000000164000085
 50
179.9943279981589
 51
180.0056720018411
  0
ARC
  8
1
 62
7
 10
340.1142018789375
 20
741.2907311023973
 30
0
 40
1.000000164000085
 50
180.0056720018411
 51
270
  0
ARC
  8
1
 62
7
 10
340.1142018789375
 20
747.2907311543972
 30
0
 40
1.00000016390004
 50
90
 51
179.9943861998644
  0
ARC
  8
1
 62
7
 10
340.1142018789375
 20
747.2907311543972
 30
0
 40
1.00000016390004
 50
179.9943861998644
 51
180.0056138001356
  0
ARC
  8
1
 62
7
 10
382.6142027964374
 20
689.4354894737526
 30
0
 40
1.629116505116792
 50
219.8890991476301
 51
320.1109008523699
  0
ARC
  8
1
 62
7
 10
382.6142027964374
 20
687.3459727114421
 30
0
 40
1.629116505116938
 50
39.88909914763623
 51
140.1109008523638
  0
ARC
  8
1
 62
7
 10
380.1142023866374
 20
689.4354894737526
 30
0
 40
1.629116505116705
 50
219.8890991476326
 51
320.1109008523699
  0
ARC
  8
0
 62
7
 10
440.0559375840375
 20
712.0893503593973
 30
0
 40
6.543405030318056
 50
300.9240135914774
 51
338.4330484594544
  0
ARC
  8
0
 62
7
 10
442.0239708843374
 20
779.3444006230973
 30
0
 40
3.084406910947087
 50
19.82269907620704
 51
62.76446739436081
  0
ARC
  8
0
 62
7
 10
402.1142027330375
 20
744.2907311283973
 30
0
 40
55.00000000000001
 50
185.215927718858
 51
244.9931082522999
  0
ARC
  8
0
 62
7
 10
406.1142027330375
 20
681.2907311283973
 30
0
 40
1
 50
359.9729190240591
 51
0.0270809759408455
  0
ARC
  8
0
 62
7
 10
398.1142027330375
 20
681.2907311283973
 30
0
 40
0.9999999999999999
 50
180.027093093904
 51
270
  0
ARC
  8
0
 62
7
 10
465.1142043480324
 20
740.2907325540659
 30
0
 40
1.000001424906458
 50
270.0269884050821
 51
359.9999074291354
  0
ARC
  8
0
 62
7
 10
465.1142027330375
 20
748.2907311283973
 30
0
 40
0.9999999999999999
 50
89.97290689920445
 51
90.02709310079229
  0
ARC
  8
0
 62
7
 10
406.1142013074189
 20
807.2907327433422
 30
0
 40
1.000001424856402
 50
0.02698840794619428
 51
89.9999074320113
  0
ARC
  8
0
 62
7
 10
398.1142027330375
 20
807.2907311283973
 30
0
 40
0.9999999999999999
 50
179.972906906096
 51
180.027093093904
  0
ARC
  8
0
 62
7
 10
396.1142023194105
 20
687.607399760718
 30
0
 40
1.000000525427091
 50
359.9999793551581
 51
83.9576509361039
  0
ARC
  8
0
 62
7
 10
408.1142027330375
 20
687.6074002452974
 30
0
 40
0.9999999999999185
 50
96.0423284191039
 51
180
  0
ARC
  8
0
 62
7
 10
402.1142027330375
 20
744.2907311283973
 30
0
 40
55.99999999999999
 50
185.0324134954999
 51
245.4694375213
  0
ARC
  8
0
 62
7
 10
402.1142027330375
 20
744.2907311283973
 30
0
 40
56.00000000000001
 50
250.9803227621
 51
263.9576715809487
  0
ARC
  8
0
 62
7
 10
402.1142027329955
 20
744.2907311284098
 30
0
 40
56.0000000000431
 50
276.0423284190918
 51
353.9576715809404
  0
ARC
  8
0
 62
7
 10
458.7975336161375
 20
738.2907311283973
 30
0
 40
1
 50
90
 51
173.9576715809492
  0
ARC
  8
0
 62
7
 10
458.7975341007169
 20
750.290731542024
 30
0
 40
1.000000525427068
 50
186.0423490639241
 51
270.0000206448387
  0
ARC
  8
0
 62
7
 10
402.114202733024
 20
744.2907311283445
 30
0
 40
55.99999999997782
 50
96.04232841904181
 51
174.9675865044419
  0
ARC
  8
0
 62
7
 10
396.1142027330375
 20
800.9740620113973
 30
0
 40
1.000000000000139
 50
276.0423284190993
 51
0
  0
ARC
  8
0
 62
7
 10
408.1142027330375
 20
800.9740620113973
 30
0
 40
1
 50
180
 51
263.957671580938
  0
ARC
  8
0
 62
7
 10
402.1142027330157
 20
744.2907311283673
 30
0
 40
54.99999999996453
 50
250.6208310665109
 51
174.7840914295111
  0
ARC
  8
0
 62
7
 10
345.3339244667375
 20
739.2907311283973
 30
0
 40
0.9999999999998164
 50
5.032413495507803
 51
5.032413495502138
  0
ARC
  8
0
 62
7
 10
345.3339244667375
 20
749.2907311283973
 30
0
 40
1
 50
270
 51
354.9675865045052
  0
ARC
  8
0
 62
7
 10
347.3419469825374
 20
749.2907311283973
 30
0
 40
1.000000000000032
 50
270.0000957412447
 51
354.7840914294984
  0
ARC
  8
0
 62
7
 10
347.3419469825374
 20
739.2907311283973
 30
0
 40
0.9999999999839027
 50
5.215908570455073
 51
89.99990425875531
  0
ARC
  8
0
 62
7
 10
402.1142027330375
 20
744.2907311283973
 30
0
 40
39.99999999999998
 50
242.8546096909998
 51
234.4614909118001
  0
ARC
  8
0
 62
7
 10
402.1142027330375
 20
744.2907311283973
 30
0
 40
41.99999999999995
 50
244.2450029883999
 51
236.3876254014999
  0
ARC
  8
0
 62
7
 10
402.1142027330375
 20
744.2907311283973
 30
0
 40
49.99999999999994
 50
248.5924172960999
 51
242.2897779506999
  0
ARC
  8
0
 62
7
 10
386.8642027330375
 20
767.6907311283974
 30
0
 40
1
 50
0
 51
90
  0
ARC
  8
0
 62
7
 10
383.8018108649669
 20
767.6907311283356
 30
0
 40
1.000000000061657
 50
89.94439652330497
 51
135.0991278455818
  0
ARC
  8
0
 62
7
 10
401.8642027330375
 20
749.6907311283974
 30
0
 40
26.4999999999999
 50
135.0991278440006
 51
143.5062334002
  0
ARC
  8
0
 62
7
 10
386.8642027330375
 20
729.6907311283974
 30
0
 40
1
 50
270
 51
0
  0
ARC
  8
0
 62
7
 10
381.3642027330375
 20
764.8564820164972
 30
0
 40
0.9999999999999999
 50
179.9358952657509
 51
180.0641047342491
  0
ARC
  8
0
 62
2
 10
382.6131012036694
 20
757.6553831851667
 30
0
 40
0.2383902149051285
 50
38.97416006080954
 51
94.28774476323775
  0
ARC
  8
0
 62
2
 10
383.3071249254577
 20
757.6477682073202
 30
0
 40
0.2782576703610284
 50
90.16606551349705
 51
145.5129029716306
  0
ARC
  8
0
 62
2
 10
383.3392688365095
 20
757.5059797279432
 30
0
 40
0.4480219861505261
 50
265.782292890391
 51
320.9561083476118
  0
ARC
  8
0
 62
2
 10
383.3371091967374
 20
757.6293275360974
 30
0
 40
0.2982906029921322
 50
41.57396961319479
 51
95.92485712740884
  0
ARC
  8
0
 62
2
 10
383.1939647675856
 20
756.2881873843861
 30
0
 40
0.5973241719312862
 50
84.76181890159828
 51
135.0966939621031
  0
ARC
  8
0
 62
2
 10
383.2096570914129
 20
754.8718163273932
 30
0
 40
0.59082510758399
 50
105.9402624786249
 51
183.6868621403205
  0
ARC
  8
0
 62
2
 10
383.7149727750374
 20
754.7732180412972
 30
0
 40
0.6925313153800558
 50
224.7752180181041
 51
275.0881604888022
  0
ARC
  8
0
 62
2
 10
383.7149727750019
 20
756.1585873794619
 30
0
 40
0.6925313153825089
 50
224.7752180240109
 51
275.0881604947179
  0
ARC
  8
0
 62
7
 10
375.9642027330374
 20
752.6907311283974
 30
0
 40
0.5000000000000001
 50
90.05345423361769
 51
180
  0
ARC
  8
0
 62
7
 10
402.1142027330375
 20
744.2907311283973
 30
0
 40
32.70000000000011
 50
244.1650747878615
 51
115.8349252121385
  0
ARC
  8
0
 62
7
 10
340.1142027330375
 20
613.4268499588736
 30
0
 40
1
 50
90
 51
180
  0
ARC
  8
0
 62
7
 10
340.1142027330375
 20
588.9268499588734
 30
0
 40
1
 50
180
 51
270
  0
ARC
  8
0
 62
7
 10
310.6142027330375
 20
615.4268499588736
 30
0
 40
37.49999999999996
 50
319.4641978886835
 51
337.7982806810999
  0
ARC
  8
0
 62
7
 10
465.1142027330375
 20
605.9268499588734
 30
0
 40
1
 50
0
 51
90
  0
ARC
  8
0
 62
7
 10
465.1142027330375
 20
588.9268499588734
 30
0
 40
1
 50
270
 51
0
  0
ARC
  8
0
 62
7
 10
343.297154518051
 20
588.7035624400859
 30
0
 40
2.048972703556133
 50
337.7236579974986
 51
6.256252403195878
  0
ARC
  8
0
 62
7
 10
347.3378471947935
 20
605.922927585882
 30
0
 40
2.003926566775665
 50
90.11721949245832
 51
179.887852396738
  0
ARC
  8
0
 62
7
 10
339.6615397087732
 20
613.8107002578317
 30
0
 40
8.684753358483494
 50
357.4668055651648
 51
10.72471491526544
  0
ARC
  8
0
 62
7
 10
347.3398722759079
 20
607.9247838432007
 30
0
 40
0.9979360409846446
 50
270.1191178736403
 51
0.1186246291353261
  0
ARC
  8
0
 62
7
 10
456.8755287594032
 20
606.0001199954161
 30
0
 40
0.9304498355703939
 50
355.4834590716781
 51
84.87492825686904
  0
ARC
  8
0
 62
7
 10
347.3358852365152
 20
605.9210358839973
 30
0
 40
1.0058323408463
 50
89.65469934213
 51
179.6688078184114
  0
ARC
  8
0
 62
7
 10
464.8883677194831
 20
588.5324335454332
 30
0
 40
7.096248008419841
 50
176.8138025376269
 51
193.0768699539272
  0
ARC
  8
0
 62
7
 10
338.2041506581149
 20
588.792259068852
 30
0
 40
8.127033590150328
 50
346.7305171998108
 51
0.9489123446043318
  0
ARC
  8
0
 62
7
 10
406.1142027330375
 20
588.9268499588734
 30
0
 40
1
 50
270
 51
0
  0
ARC
  8
0
 62
7
 10
406.1142027330375
 20
605.9268499588734
 30
0
 40
1
 50
0
 51
90
  0
ARC
  8
0
 62
7
 10
398.1142027330375
 20
605.9268499588734
 30
0
 40
1
 50
90
 51
180
  0
ARC
  8
0
 62
7
 10
398.1142027330375
 20
588.9268499588734
 30
0
 40
1
 50
180
 51
270
  0
ARC
  8
0
 62
7
 10
347.1142027330375
 20
615.4268499588736
 30
0
 40
1
 50
270
 51
0
  0
ARC
  8
0
 62
7
 10
345.1537037915533
 20
586.9663510173449
 30
0
 40
0.9613108499401029
 50
357.6450059631856
 51
87.64500596318554
  0
ARC
  8
0
 62
7
 10
459.1142027330375
 20
586.9268499588734
 30
0
 40
1
 50
90
 51
180
  0
ARC
  8
0
 62
7
 10
457.0364243534625
 20
607.8490715792987
 30
0
 40
0.9254956474823012
 50
175.1791936665425
 51
265.1791936665367
  0
ARC
  8
1
 62
7
 10
488.9107648210269
 20
557.9660527339822
 30
0
 40
3.00000000000002
 50
242.1848161828262
 51
314.9999999999992
  0
ARC
  8
1
 62
7
 10
351.775145686473
 20
588.4268499588737
 30
0
 40
103.5000000000001
 50
235.4553258270819
 51
270
  0
ARC
  8
1
 62
7
 10
310.7101206753021
 20
528.9268499588736
 30
0
 40
31.49999999999943
 50
90
 51
124.4935691976498
  0
ARC
  8
1
 62
7
 10
362.1142027330375
 20
565.5871039967179
 30
0
 40
13.50000000000003
 50
150.0000000000001
 51
180
  0
ARC
  8
1
 62
7
 10
437.1142027330375
 20
503.4268499588736
 30
0
 40
18.5
 50
270
 51
0
  0
ARC
  8
1
 62
2
 10
337.7991188155893
 20
528.9268499588736
 30
0
 40
33.30489513782379
 50
0
 51
64.68338279772374
  0
ARC
  8
1
 62
2
 10
311.3590481182679
 20
528.9268499588736
 30
0
 40
59.74496583514522
 50
331.0299870773966
 51
0
  0
ARC
  8
1
 62
2
 10
454.4612691833971
 20
551.3010881344494
 30
0
 40
15.49999999999747
 50
114.136046999103
 51
172.6498033756812
  0
ARC
  8
0
 62
7
 10
402.1142027330249
 20
744.2907311283551
 30
0
 40
56.0000000000432
 50
6.042328419092057
 51
83.9576715809299
  0
CIRCLE
  8
0
 62
7
 10
343.1142027330375
 20
610.9268499588736
 30
0
 40
1.299999999999955
  0
CIRCLE
  8
0
 62
7
 10
381.3642027330375
 20
620.4268499588736
 30
0
 40
3.099999999999909
  0
CIRCLE
  8
0
 62
7
 10
381.3642027330375
 20
620.4268499588736
 30
0
 40
2.5
  0
CIRCLE
  8
1
 62
7
 10
343.0628763047806
 20
565.4268499588735
 30
0
 40
1
  0
ARC
  8
1
 62
7
 10
484.8106562039096
 20
498.3309015513898
 30
0
 40
6.999999999999976
 50
45.00000000000132
 51
80.38450807059277
  0
ARC
  8
1
 62
7
 10
458.6142027330375
 20
506.8259832195359
 30
0
 40
3.000000000000041
 50
80.38450807059445
 51
180
  0
ARC
  8
1
 62
7
 10
455.3417193235986
 20
575.6763732039061
 30
0
 40
3.000000000000246
 50
209.9999999999973
 51
242.1848161828253
  0
ARC
  8
1
 62
7
 10
334.6142027330375
 20
562.4268499588734
 30
0
 40
2
 50
270
 51
0
  0
ARC
  8
1
 62
7
 10
353.7151230489509
 20
676.2482511197036
 30
0
 40
29.99999999999987
 50
73.60351212163928
 51
78.86680205944975
  0
ARC
  8
1
 62
7
 10
488.0004866212192
 20
772.669655703698
 30
0
 40
3.00000000000011
 50
253.6776567411751
 51
315.0000000000008
  0
ARC
  8
1
 62
7
 10
488.0004866212192
 20
715.9118065530959
 30
0
 40
3.000000000000185
 50
45.00000000000613
 51
106.3223432588249
  0
ARC
  8
1
 62
7
 10
291.3544322153386
 20
772.5431423332153
 30
0
 40
2.999999999999904
 50
224.9999999999992
 51
281.13319794055
  0
ARC
  8
1
 62
7
 10
291.3544322153386
 20
716.0383199235793
 30
0
 40
2.999999999999983
 50
78.86680205944786
 51
134.9999999999992
  0
ARC
  8
1
 62
7
 10
454.4921234487319
 20
579.1479164250757
 30
0
 40
3.999999999999952
 50
134.9999999999965
 51
209.9999999999999
  0
ARC
  8
1
 62
7
 10
349.736282017343
 20
579.1479164250757
 30
0
 40
3.999999999999935
 50
329.9999999999994
 51
45
  0
ARC
  8
1
 62
7
 10
291.1722968341388
 20
557.3613965448916
 30
0
 40
2.999999999999944
 50
225.0000000000015
 51
304.49356919765
  0
ARC
  8
1
 62
7
 10
291.3844649644351
 20
500.7044715031519
 30
0
 40
2.99999999999996
 50
55.45532582708229
 51
135.0000000000015
  0
ARC
  8
1
 62
7
 10
344.6142027330375
 20
564.4268499588735
 30
0
 40
4
 50
270
 51
0
  0
ARC
  8
1
 62
7
 10
404.1142027330375
 20
484.4268499588736
 30
0
 40
0.5
 50
90
 51
180
  0
ARC
  8
1
 62
7
 10
400.1142027330375
 20
484.4268499588736
 30
0
 40
0.5
 50
0
 51
90
  0
ARC
  8
1
 62
7
 10
338.6142027330375
 20
568.4268499588734
 30
0
 40
2
 50
90
 51
180
  0
ARC
  8
1
 62
7
 10
353.715123048951
 20
812.3332111370905
 30
0
 40
29.99999999999984
 50
281.13319794055
 51
286.3964878783605
  0
LINE
  8
1
 62
2
 10
315.8959613648026
 20
464.852748461857
 30
0
 11
336.8035378117525
 21
464.852748461857
 31
0
  0
LINE
  8
1
 62
2
 10
336.8035378117525
 20
464.852748461857
 30
0
 11
350.7630461842296
 21
524.8785360290282
 31
0
  0
LINE
  8
1
 62
2
 10
350.8664585699896
 20
521.7744295865891
 30
0
 11
350.7630461842296
 21
524.8785360290282
 31
0
  0
LINE
  8
1
 62
2
 10
349.3005507161441
 20
522.138594800945
 30
0
 11
350.7630461842296
 21
524.8785360290282
 31
0
  0
LINE
  8
1
 62
2
 10
287.9683999119006
 20
464.852748461857
 30
0
 11
306.9028788588305
 21
464.852748461857
 31
0
  0
LINE
  8
1
 62
2
 10
306.9028788588305
 20
464.852748461857
 30
0
 11
342.2440475154845
 21
525.2958425048632
 31
0
  0
LINE
  8
1
 62
2
 10
341.4237245078991
 20
522.3003056430058
 30
0
 11
342.2440475154845
 21
525.2958425048632
 31
0
  0
LINE
  8
1
 62
2
 10
340.035858520678
 20
523.1117929883147
 30
0
 11
342.2440475154845
 21
525.2958425048632
 31
0
  0
LINE
  8
1
 62
2
 10
241.635499755539
 20
583.450786042135
 30
0
 11
310.99891743401
 21
583.450786042135
 31
0
  0
LINE
  8
1
 62
2
 10
310.99891743401
 20
583.450786042135
 30
0
 11
278.116828531581
 21
556.9268499588736
 31
0
  0
LINE
  8
1
 62
2
 10
279.9471673135682
 20
559.4360392444147
 30
0
 11
278.116828531581
 21
556.9268499588736
 31
0
  0
LINE
  8
1
 62
2
 10
280.9565430570843
 20
558.1847022320624
 30
0
 11
278.116828531581
 21
556.9268499588736
 31
0
  0
LINE
  8
1
 62
2
 10
419.5554556492892
 20
647.7649989670499
 30
0
 11
388.8798042612978
 21
647.7649989670499
 31
0
  0
LINE
  8
1
 62
2
 10
388.8798042612978
 20
647.7649989670499
 30
0
 11
400.7890458857437
 21
682.2083425931103
 31
0
  0
LINE
  8
1
 62
2
 10
400.5684197237524
 20
679.1103601812549
 30
0
 11
400.7890458857437
 21
682.2083425931103
 31
0
  0
LINE
  8
1
 62
2
 10
399.0489868187921
 20
679.6357242049618
 30
0
 11
400.7890458857437
 21
682.2083425931103
 31
0
  0
DIMENSION
  8
1
  6
CONTINUOUS
 62
2
  2
*D0
  3
DMST_1
 10
287.1142027330375
 20
491.352965591376
 30
0
 11
277.1142027330375
 21
493.952965591376
 31
0
 12
0
 22
0
 32
0
 70
0
 13
267.1142027330375
 23
501.9268499588736
 33
0
 14
287.1142027330375
 24
500.9268499588737
 34
0
 53
0
  0
DIMENSION
  8
1
  6
CONTINUOUS
 62
2
  2
*D1
  3
DMST_2
 10
551.3309083418909
 20
808.2907341681973
 30
0
 11
549.030908341891
 21
744.2907326482973
 31
0
 12
0
 22
0
 32
0
 70
0
 13
406.1142027330375
 23
680.2907311283973
 33
0
 14
406.1142029230374
 24
808.2907341681973
 34
0
 50
90
 53
0
  0
DIMENSION
  8
1
  6
CONTINUOUS
 62
2
  2
*D2
  3
DMST_2
 10
551.3309083418909
 20
625.9268499588736
 30
0
 11
549.030908341891
 21
554.9268499588736
 31
0
 12
0
 22
0
 32
0
 70
0
 13
437.1142027330375
 23
483.9268499588736
 33
0
 14
386.0620651689375
 24
625.9268499588736
 34
0
 50
90
 53
0
  0
DIMENSION
  8
1
  6
CONTINUOUS
 62
2
  2
*D3
  3
DMST_2
 10
534.84335346868
 20
528.9268499588734
 30
0
 11
532.54335346868
 21
506.4268499588735
 31
0
 12
0
 22
0
 32
0
 70
0
 13
437.1142027330375
 23
483.9268499588736
 33
0
 14
520.8128109766012
 24
528.9268499588734
 34
0
 50
90
 53
0
  0
DIMENSION
  8
1
  6
CONTINUOUS
 62
2
  2
*D4
  3
DMST_2
 10
512.1142027330375
 20
457.268216669036
 30
0
 11
403.482219116938
 21
459.568216669036
 31
0
 12
0
 22
0
 32
0
 70
0
 13
267.1142027330375
 23
501.9268499588736
 33
0
 14
512.1142027330375
 24
501.9268499588736
 34
0
 53
0
  0
ENDSEC
  0
EOF
