  0
SECTION
  2
HEADER
  9
$ACADVER
  1
AC1009
  9
$INSBASE
 10
0
 20
0
  9
$EXTMIN
 10
253.5189829763464
 20
394.5046336654493
  9
$EXTMAX
 10
552.3309083418909
 20
809.7526928017091
  9
$LIMMIN
 10
253.5189829763464
 20
394.5046336654493
  9
$LIMMAX
 10
552.3309083418909
 20
809.7526928017091
  9
$VIEWCTR
 10
10
 20
10
  9
$VIEWSIZE
 40
10
  9
$SNAPMODE
 70
0
  9
$SNAPUNIT
 10
1
 20
1
  9
$SNAPBASE
 10
0
 20
0
  9
$SNAPANG
 50
0
  9
$SNAPSTYLE
 70
0
  9
$SNAPISOPAIR
 70
0
  9
$GRIDMODE
 70
0
  9
$GRIDUNIT
 10
0
 20
0
  9
$ORTHOMODE
 70
0
  9
$REGENMODE
 70
1
  9
$FILLMODE
 70
1
  9
$QTEXTMODE
 70
0
  9
$DRAGMODE
 70
2
  9
$LTSCALE
 40
1
  9
$OSMODE
 70
0
  9
$ATTMODE
 70
1
  9
$TEXTSIZE
 40
3.5
  9
$TRACEWID
 40
0.5
  9
$TEXTSTYLE
  7
STANDARD
  9
$CLAYER
  8
0
  9
$CELTYPE
  6
BYLAYER
  9
$CECOLOR
 62
256
  9
$DIMSCALE
 40
1
  9
$DIMASZ
 40
0.18
  9
$DIMEXO
 40
0.0625
  9
$DIMDLI
 40
0.38
  9
$DIMRND
 40
0
  9
$DIMDLE
 40
0
  9
$DIMEXE
 40
0.18
  9
$DIMTP
 40
0
  9
$DIMTM
 40
0
  9
$DIMTXT
 40
0.18
  9
$DIMCEN
 40
0.09
  9
$DIMTSZ
 40
0
  9
$DIMTOL
 70
0
  9
$DIMLIM
 70
0
  9
$DIMTIH
 70
1
  9
$DIMTOH
 70
1
  9
$DIMSE1
 70
0
  9
$DIMSE2
 70
0
  9
$DIMTAD
 70
0
  9
$DIMZIN
 70
0
  9
$DIMBLK
  1

  9
$DIMASO
 70
1
  9
$DIMSHO
 70
1
  9
$DIMPOST
  1

  9
$DIMAPOST
  1

  9
$DIMALT
 70
0
  9
$DIMALTD
 70
2
  9
$DIMALTF
 40
25.4
  9
$DIMLFAC
 40
1
  9
$DIMTOFL
 70
0
  9
$DIMTVP
 40
0
  9
$DIMTIX
 70
0
  9
$DIMSOXD
 70
0
  9
$DIMSAH
 70
0
  9
$DIMBLK1
  1

  9
$DIMBLK2
  1

  9
$DIMSTYLE
  2
*UNNAMED
  9
$DIMCLRD
 70
0
  9
$DIMCLRE
 70
0
  9
$DIMCLRT
 70
0
  9
$DIMTFAC
 40
1
  9
$DIMGAP
 40
0.09
  9
$LUNITS
 70
2
  9
$LUPREC
 70
4
  9
$AXISMODE
 70
0
  9
$AXISUNIT
 10
0
 20
0
  9
$SKETCHINC
 40
0.1
  9
$FILLETRAD
 40
2
  9
$AUNITS
 70
0
  9
$AUPREC
 70
0
  9
$MENU
  1
ACAD
  9
$ELEVATION
 40
0
  9
$THICKNESS
 40
0
  9
$VIEWDIR
 10
0
 20
0
 30
1
  9
$LIMCHECK
 70
0
  9
$BLIPMODE
 70
1
  9
$CHAMFERA
 40
0
  9
$CHAMFERB
 40
0
  9
$FASTZOOM
 70
1
  9
$SKPOLY
 70
0
  9
$ANGBASE
 50
0
  9
$ANGDIR
 70
0
  9
$PDMODE
 70
0
  9
$PDSIZE
 40
0
  9
$PLINEWID
 40
0
  9
$COORDS
 70
2
  0
ENDSEC
  0
SECTION
  2
TABLES
  0
TABLE
  2
DIMSTYLE
 70
2
  0
DIMSTYLE
  2
DMST_1
 70
0
  3

  4

  5

  6

  7

 40
1
 41
3
 42
0.5
 43
7
 44
1
 45
0
 46
0
 47
0
 48
0
140
3
141
0
142
0
143
25.4
144
1
145
0
146
1
147
0.09
 71
0
 72
0
 73
0
 74
0
 75
0
 76
0
 77
1
 78
9
170
0
171
2
172
0
173
0
174
0
175
0
176
2
177
2
178
2
  0
DIMSTYLE
  2
DMST_2
 70
0
  3

  4

  5

  6

  7

 40
1
 41
3.200000000000001
 42
0.5
 43
7
 44
1.5
 45
0
 46
0
 47
0
 48
0
140
3.200000000000001
141
0
142
0
143
25.4
144
1
145
0
146
1
147
0.09
 71
0
 72
0
 73
0
 74
0
 75
0
 76
0
 77
1
 78
9
170
0
171
2
172
0
173
0
174
0
175
0
176
2
177
2
178
2
  0
ENDTAB
  0
TABLE
  2
LTYPE
 70
9
  0
LTYPE
  2
CONTINUOUS
 70
64
  3
Solid line
 72
65
 73
0
 40
0
  0
LTYPE
  2
BORDER
 70
64
  3
__ __ . __ __ .
 72
65
 73
6
 40
19.12326588127512
 49
5.463790251792893
 49
-2.731895125896446
 49
5.463790251792893
 49
-2.731895125896446
 49
0
 49
-2.731895125896446
  0
LTYPE
  2
CENTER
 70
64
  3
____ _ ____ _
 72
65
 73
4
 40
21.85516100717157
 49
13.65947562948223
 49
-2.731895125896446
 49
2.731895125896446
 49
-2.731895125896446
  0
LTYPE
  2
DASHDOT
 70
64
  3
__ . __ . __ .
 72
65
 73
4
 40
10.92758050358579
 49
5.463790251792893
 49
-2.731895125896446
 49
0
 49
-2.731895125896446
  0
LTYPE
  2
DASHED
 70
64
  3
__ __ __ __ __
 72
65
 73
2
 40
8.195685377689339
 49
5.463790251792893
 49
-2.731895125896446
  0
LTYPE
  2
DIVIDE
 70
64
  3
__ . . __ . . 
 72
65
 73
6
 40
13.65947562948223
 49
5.463790251792893
 49
-2.731895125896446
 49
0
 49
-2.731895125896446
 49
0
 49
-2.731895125896446
  0
LTYPE
  2
DOT
 70
64
  3
..............
 72
65
 73
4
 40
5.463790251792893
 49
0
 49
-2.731895125896446
 49
0
 49
-2.731895125896446
  0
LTYPE
  2
HIDDEN
 70
64
  3
_ _ _ _ _ _ _
 72
65
 73
2
 40
4.097842688844669
 49
2.731895125896446
 49
-1.365947562948223
  0
LTYPE
  2
PHANTOM
 70
64
  3
_____ _ _ _____ _ _ 
 72
65
 73
6
 40
27.31895125896446
 49
13.65947562948223
 49
-2.731895125896446
 49
2.731895125896446
 49
-2.731895125896446
 49
2.731895125896446
 49
-2.731895125896446
  0
ENDTAB
  0
TABLE
  2
LAYER
 70
3
  0
LAYER
  2
0
 70
0
 62
7
  6
CONTINUOUS
  0
LAYER
  2
1
 70
0
 62
7
  6
CONTINUOUS
  0
ENDTAB
  0
TABLE
  2
STYLE
 70
4
  0
STYLE
  2
STANDARD
 70
0
 40
0
 41
1
 50
0
 71
0
 42
3.5
  3
txt
  4

  0
STYLE
  2
SIMPLEX
 70
0
 40
0
 41
1
 50
0
 71
0
 42
3.5
  3
simplex
  4

  0
STYLE
  2
COMPLEX
 70
0
 40
0
 41
1
 50
0
 71
0
 42
3.5
  3
complex
  4

  0
STYLE
  2
ITALIC
 70
0
 40
0
 41
1
 50
0
 71
0
 42
3.5
  3
italic
  4

  0
ENDTAB
  0
TABLE
  2
VIEW
 70
0
  0
ENDTAB
  0
ENDSEC
  0
SECTION
  2
BLOCKS
  0
BLOCK
  8
1
  2
*X0
 70
1
 10
0
 20
0
 30
0
  0
ENDBLK
  8
0
  0
BLOCK
  8
1
  2
*X1
 70
1
 10
0
 20
0
 30
0
  0
ENDBLK
  8
0
  0
BLOCK
  8
1
  2
*D0
 70
1
 10
0
 20
0
 30
0
  0
LINE
  8
1
 62
2
 10
551.3309083418909
 20
473.9268499588738
 30
0
 11
551.3309083418909
 21
625.9268499588736
 31
0
  0
LINE
  8
1
 62
2
 10
440.1142027330371
 20
473.9268499588738
 30
0
 11
552.3309083418909
 21
473.9268499588738
 31
0
  0
LINE
  8
1
 62
2
 10
386.5620651689376
 20
625.9268499588736
 30
0
 11
552.3309083418909
 21
625.9268499588736
 31
0
  0
LINE
  8
1
 62
2
 10
551.3309083418909
 20
625.9268499588736
 30
0
 11
552.1409083418909
 21
622.9268499588736
 31
0
  0
LINE
  8
1
 62
2
 10
551.3309083418909
 20
625.9268499588736
 30
0
 11
550.520908341891
 21
622.9268499588736
 31
0
  0
LINE
  8
1
 62
2
 10
551.3309083418909
 20
473.9268499588738
 30
0
 11
550.520908341891
 21
476.9268499588738
 31
0
  0
LINE
  8
1
 62
2
 10
551.3309083418909
 20
473.9268499588738
 30
0
 11
552.1409083418909
 21
476.9268499588738
 31
0
  0
TEXT
  8
1
 62
2
 10
550.530908341891
 20
546.374926170227
 30
0
 40
3
  1
152
 50
90
 41
0.9
 51
15
  0
ENDBLK
  8
0
  0
BLOCK
  8
1
  2
*D1
 70
1
 10
0
 20
0
 30
0
  0
LINE
  8
1
 62
2
 10
527.2414365082417
 20
473.9268499588738
 30
0
 11
527.2414365082417
 21
528.9268499588736
 31
0
  0
LINE
  8
1
 62
2
 10
440.1142027330372
 20
473.9268499588738
 30
0
 11
528.2414365082417
 21
473.9268499588738
 31
0
  0
LINE
  8
1
 62
2
 10
513.0156248008809
 20
528.9268499588736
 30
0
 11
528.2414365082417
 21
528.9268499588736
 31
0
  0
LINE
  8
1
 62
2
 10
527.2414365082417
 20
528.9268499588736
 30
0
 11
528.0514365082416
 21
525.9268499588736
 31
0
  0
LINE
  8
1
 62
2
 10
527.2414365082417
 20
528.9268499588736
 30
0
 11
526.4314365082418
 21
525.9268499588736
 31
0
  0
LINE
  8
1
 62
2
 10
527.2414365082417
 20
473.9268499588738
 30
0
 11
526.4314365082418
 21
476.9268499588738
 31
0
  0
LINE
  8
1
 62
2
 10
527.2414365082417
 20
473.9268499588738
 30
0
 11
528.0514365082416
 21
476.9268499588738
 31
0
  0
TEXT
  8
1
 62
2
 10
526.4414365082417
 20
498.7749261702269
 30
0
 40
3
  1
55
 50
90
 41
0.9
 51
15
  0
ENDBLK
  8
0
  0
BLOCK
  8
1
  2
*D2
 70
1
 10
0
 20
0
 30
0
  0
LINE
  8
1
 62
2
 10
264.1142027330373
 20
453.7195210168619
 30
0
 11
509.1142027330373
 21
453.7195210168619
 31
0
  0
LINE
  8
1
 62
2
 10
264.1142027330373
 20
492.3138499588738
 30
0
 11
264.1142027330373
 21
452.7195210168619
 31
0
  0
LINE
  8
1
 62
2
 10
509.1142027330373
 20
492.3138499588738
 30
0
 11
509.1142027330373
 21
452.7195210168619
 31
0
  0
LINE
  8
1
 62
2
 10
264.1142027330373
 20
453.7195210168619
 30
0
 11
267.1142027330373
 21
454.5295210168619
 31
0
  0
LINE
  8
1
 62
2
 10
264.1142027330373
 20
453.7195210168619
 30
0
 11
267.1142027330373
 21
452.9095210168619
 31
0
  0
LINE
  8
1
 62
2
 10
509.1142027330373
 20
453.7195210168619
 30
0
 11
506.1142027330373
 21
452.9095210168619
 31
0
  0
LINE
  8
1
 62
2
 10
509.1142027330373
 20
453.7195210168619
 30
0
 11
506.1142027330373
 21
454.5295210168619
 31
0
  0
TEXT
  8
1
 62
2
 10
397.7059475022031
 20
454.5195210168619
 30
0
 40
3
  1
245
 41
0.9
 51
15
  0
ENDBLK
  8
0
  0
BLOCK
  8
1
  2
*D3
 70
1
 10
0
 20
0
 30
0
  0
LINE
  8
1
 62
2
 10
551.3309083418909
 20
680.2907311283973
 30
0
 11
551.3309083418909
 21
808.2907311283973
 31
0
  0
LINE
  8
1
 62
2
 10
406.6142027330375
 20
680.2907311283973
 30
0
 11
552.3309083418909
 21
680.2907311283973
 31
0
  0
LINE
  8
1
 62
2
 10
406.6142027330375
 20
808.2907311283973
 30
0
 11
552.3309083418909
 21
808.2907311283973
 31
0
  0
LINE
  8
1
 62
2
 10
551.3309083418909
 20
808.2907311283973
 30
0
 11
552.1409083418909
 21
805.2907311283973
 31
0
  0
LINE
  8
1
 62
2
 10
551.3309083418909
 20
808.2907311283973
 30
0
 11
550.520908341891
 21
805.2907311283973
 31
0
  0
LINE
  8
1
 62
2
 10
551.3309083418909
 20
680.2907311283973
 30
0
 11
550.520908341891
 21
683.2907311283973
 31
0
  0
LINE
  8
1
 62
2
 10
551.3309083418909
 20
680.2907311283973
 30
0
 11
552.1409083418909
 21
683.2907311283973
 31
0
  0
TEXT
  8
1
 62
2
 10
550.530908341891
 20
740.7388073397506
 30
0
 40
3
  1
128
 50
90
 41
0.9
 51
15
  0
ENDBLK
  8
0
  0
BLOCK
  8
1
  2
*D4
 70
1
 10
0
 20
0
 30
0
  0
LINE
  8
1
 62
2
 10
264.1142027330372
 20
474.9268499588738
 30
0
 11
287.1142027330372
 21
474.9268499588738
 31
0
  0
LINE
  8
1
 62
2
 10
264.1142027330372
 20
492.3138499588739
 30
0
 11
264.1142027330372
 21
473.4268499588738
 31
0
  0
LINE
  8
1
 62
2
 10
287.1142027330372
 20
492.3138499588739
 30
0
 11
287.1142027330372
 21
473.4268499588738
 31
0
  0
LINE
  8
1
 62
2
 10
264.1142027330372
 20
474.9268499588738
 30
0
 11
267.3142027330372
 21
475.7908499588738
 31
0
  0
LINE
  8
1
 62
2
 10
264.1142027330372
 20
474.9268499588738
 30
0
 11
267.3142027330372
 21
474.0628499588738
 31
0
  0
LINE
  8
1
 62
2
 10
287.1142027330372
 20
474.9268499588738
 30
0
 11
283.9142027330372
 21
474.0628499588738
 31
0
  0
LINE
  8
1
 62
2
 10
287.1142027330372
 20
474.9268499588738
 30
0
 11
283.9142027330372
 21
475.7908499588738
 31
0
  0
TEXT
  8
1
 62
2
 10
274.1907147302852
 20
475.9268499588738
 30
0
 40
3.200000000000001
  1
23
 41
0.9
 51
15
  0
ENDBLK
  8
0
  0
ENDSEC
  0
SECTION
  2
ENTITIES
  0
INSERT
  8
1
  2
*X0
 10
0
 20
0
 30
0
  0
INSERT
  8
1
  2
*X1
 10
0
 20
0
 30
0
  0
POLYLINE
  8
0
 62
2
 66
1
  0
VERTEX
  8
0
 10
382.8746150237374
 20
757.5419752188973
 30
0
  0
VERTEX
  8
0
 10
382.8513878387374
 20
757.6956928037973
 30
0
  0
VERTEX
  8
0
 10
382.7984328371374
 20
757.8053234405973
 30
0
  0
SEQEND
  8
0
  0
POLYLINE
  8
0
 62
2
 66
1
  0
VERTEX
  8
0
 10
383.0777700049374
 20
757.8053234405973
 30
0
  0
VERTEX
  8
0
 10
383.0231144083374
 20
757.6628832407973
 30
0
  0
VERTEX
  8
0
 10
383.0185155374375
 20
757.5419752188973
 30
0
  0
SEQEND
  8
0
  0
POLYLINE
  8
0
 62
2
 66
1
  0
VERTEX
  8
0
 10
383.7966467243374
 20
757.6187851168972
 30
0
  0
VERTEX
  8
0
 10
383.7676695538374
 20
757.3876494802973
 30
0
  0
VERTEX
  8
0
 10
383.6872312230374
 20
757.2237637154974
 30
0
  0
SEQEND
  8
0
  0
POLYLINE
  8
0
 62
2
 66
1
  0
VERTEX
  8
0
 10
383.6787673634374
 20
758.0028346069973
 30
0
  0
VERTEX
  8
0
 10
383.7762190950374
 20
757.7972358353973
 30
0
  0
VERTEX
  8
0
 10
383.7966467243374
 20
757.6187851168972
 30
0
  0
SEQEND
  8
0
  0
POLYLINE
  8
0
 62
2
 66
1
  0
VERTEX
  8
0
 10
383.3232461464374
 20
758.1784000881974
 30
0
  0
VERTEX
  8
0
 10
383.5443607521374
 20
758.1226837150973
 30
0
  0
VERTEX
  8
0
 10
383.6787673634374
 20
758.0028346069973
 30
0
  0
SEQEND
  8
0
  0
POLYLINE
  8
0
 62
2
 66
1
  0
VERTEX
  8
0
 10
383.0354451191374
 20
758.0247802920974
 30
0
  0
VERTEX
  8
0
 10
383.1790364337375
 20
758.1460533924974
 30
0
  0
VERTEX
  8
0
 10
383.3232461464374
 20
758.1784000881974
 30
0
  0
SEQEND
  8
0
  0
POLYLINE
  8
0
 62
2
 66
1
  0
VERTEX
  8
0
 10
382.9423333508374
 20
757.8053234405973
 30
0
  0
VERTEX
  8
0
 10
382.9832500768374
 20
757.9332052059972
 30
0
  0
VERTEX
  8
0
 10
383.0354451191374
 20
758.0247802920974
 30
0
  0
SEQEND
  8
0
  0
POLYLINE
  8
0
 62
2
 66
1
  0
VERTEX
  8
0
 10
382.8322920007374
 20
758.0138074494973
 30
0
  0
VERTEX
  8
0
 10
382.9045514566374
 20
757.9024557285973
 30
0
  0
VERTEX
  8
0
 10
382.9423333508374
 20
757.8053234405973
 30
0
  0
SEQEND
  8
0
  0
POLYLINE
  8
0
 62
2
 66
1
  0
VERTEX
  8
0
 10
382.5614186925375
 20
758.1345087178972
 30
0
  0
VERTEX
  8
0
 10
382.7287531447374
 20
758.0994444228973
 30
0
  0
VERTEX
  8
0
 10
382.8322920007374
 20
758.0138074494973
 30
0
  0
SEQEND
  8
0
  0
POLYLINE
  8
0
 62
2
 66
1
  0
VERTEX
  8
0
 10
382.2482223612374
 20
757.9808889217973
 30
0
  0
VERTEX
  8
0
 10
382.4057760638374
 20
758.1050612293973
 30
0
  0
VERTEX
  8
0
 10
382.5614186925375
 20
758.1345087178972
 30
0
  0
SEQEND
  8
0
  0
POLYLINE
  8
0
 62
2
 66
1
  0
VERTEX
  8
0
 10
382.1466467333374
 20
757.6297579593972
 30
0
  0
VERTEX
  8
0
 10
382.1745193553375
 20
757.8355811797974
 30
0
  0
VERTEX
  8
0
 10
382.2482223612374
 20
757.9808889217973
 30
0
  0
SEQEND
  8
0
  0
POLYLINE
  8
0
 62
2
 66
1
  0
VERTEX
  8
0
 10
382.2482223612374
 20
757.2896007709971
 30
0
  0
VERTEX
  8
0
 10
382.1637905192374
 20
757.4719425551973
 30
0
  0
VERTEX
  8
0
 10
382.1466467333374
 20
757.6297579593972
 30
0
  0
SEQEND
  8
0
  0
POLYLINE
  8
0
 62
2
 66
1
  0
VERTEX
  8
0
 10
382.6037435782374
 20
757.1030624471973
 30
0
  0
VERTEX
  8
0
 10
382.3828059238374
 20
757.1675909943974
 30
0
  0
VERTEX
  8
0
 10
382.2482223612374
 20
757.2896007709971
 30
0
  0
SEQEND
  8
0
  0
POLYLINE
  8
0
 62
2
 66
1
  0
VERTEX
  8
0
 10
382.3497998518375
 20
757.4651662521974
 30
0
  0
VERTEX
  8
0
 10
382.4791680080374
 20
757.3702384047974
 30
0
  0
VERTEX
  8
0
 10
382.6037435782374
 20
757.3444649837973
 30
0
  0
SEQEND
  8
0
  0
POLYLINE
  8
0
 62
2
 66
1
  0
VERTEX
  8
0
 10
382.2990111065375
 20
757.6297579593972
 30
0
  0
VERTEX
  8
0
 10
382.3138154101374
 20
757.5330661870974
 30
0
  0
VERTEX
  8
0
 10
382.3497998518375
 20
757.4651662521974
 30
0
  0
SEQEND
  8
0
  0
POLYLINE
  8
0
 62
2
 66
1
  0
VERTEX
  8
0
 10
382.3497998518375
 20
757.7943505980973
 30
0
  0
VERTEX
  8
0
 10
382.3078698468374
 20
757.7062102295975
 30
0
  0
VERTEX
  8
0
 10
382.2990111065375
 20
757.6297579593972
 30
0
  0
SEQEND
  8
0
  0
POLYLINE
  8
0
 62
2
 66
1
  0
VERTEX
  8
0
 10
382.5952778560375
 20
757.8931061811973
 30
0
  0
VERTEX
  8
0
 10
382.4449046504374
 20
757.8665700070974
 30
0
  0
VERTEX
  8
0
 10
382.3497998518375
 20
757.7943505980973
 30
0
  0
SEQEND
  8
0
  0
POLYLINE
  8
0
 62
2
 66
1
  0
VERTEX
  8
0
 10
383.6364424777374
 20
757.6187851168972
 30
0
  0
VERTEX
  8
0
 10
383.6109596294374
 20
757.7419627718973
 30
0
  0
VERTEX
  8
0
 10
383.5602602911374
 20
757.8272691257973
 30
0
  0
SEQEND
  8
0
  0
POLYLINE
  8
0
 62
2
 66
1
  0
VERTEX
  8
0
 10
383.5771898729374
 20
757.4103020392975
 30
0
  0
VERTEX
  8
0
 10
383.6268647563375
 20
757.5223326943974
 30
0
  0
VERTEX
  8
0
 10
383.6364424777374
 20
757.6187851168972
 30
0
  0
SEQEND
  8
0
  0
POLYLINE
  8
0
 62
2
 66
1
  0
VERTEX
  8
0
 10
383.3063184273374
 20
757.3115464560974
 30
0
  0
VERTEX
  8
0
 10
383.4721124721374
 20
757.3325570933973
 30
0
  0
VERTEX
  8
0
 10
383.5771898729374
 20
757.4103020392975
 30
0
  0
SEQEND
  8
0
  0
POLYLINE
  8
0
 62
2
 66
1
  0
VERTEX
  8
0
 10
382.6200547618374
 20
756.1903318651973
 30
0
  0
VERTEX
  8
0
 10
382.6591516834375
 20
756.4961502589974
 30
0
  0
VERTEX
  8
0
 10
382.7708805901374
 20
756.7098459489973
 30
0
  0
SEQEND
  8
0
  0
POLYLINE
  8
0
 62
2
 66
1
  0
VERTEX
  8
0
 10
383.0473958504374
 20
755.4399233572974
 30
0
  0
VERTEX
  8
0
 10
382.7081541520374
 20
755.8068905286973
 30
0
  0
VERTEX
  8
0
 10
382.6200547618374
 20
756.1903318651973
 30
0
  0
SEQEND
  8
0
  0
POLYLINE
  8
0
 62
2
 66
1
  0
VERTEX
  8
0
 10
383.0473958504374
 20
754.0834157057973
 30
0
  0
VERTEX
  8
0
 10
382.7081541520374
 20
754.4503828771974
 30
0
  0
VERTEX
  8
0
 10
382.6200547618374
 20
754.8338242135974
 30
0
  0
SEQEND
  8
0
  0
POLYLINE
  8
0
 62
2
 66
1
  0
VERTEX
  8
0
 10
383.0976723683374
 20
754.6029297895973
 30
0
  0
VERTEX
  8
0
 10
383.1394328725374
 20
754.4134065769974
 30
0
  0
VERTEX
  8
0
 10
383.2233618003374
 20
754.2854493744974
 30
0
  0
SEQEND
  8
0
  0
POLYLINE
  8
0
 62
2
 66
1
  0
VERTEX
  8
0
 10
383.1730852824375
 20
754.8049625270974
 30
0
  0
VERTEX
  8
0
 10
383.1119588566374
 20
754.6985244639973
 30
0
  0
VERTEX
  8
0
 10
383.0976723683374
 20
754.6029297895973
 30
0
  0
SEQEND
  8
0
  0
POLYLINE
  8
0
 62
2
 66
1
  0
VERTEX
  8
0
 10
383.4496005428374
 20
754.8543067909973
 30
0
  0
VERTEX
  8
0
 10
383.2910987538375
 20
754.8440454788974
 30
0
  0
VERTEX
  8
0
 10
383.1730852824375
 20
754.8049625270974
 30
0
  0
SEQEND
  8
0
  0
POLYLINE
  8
0
 62
2
 66
1
  0
VERTEX
  8
0
 10
383.0976723683374
 20
755.9594374410974
 30
0
  0
VERTEX
  8
0
 10
383.1428340626375
 20
755.7867143563974
 30
0
  0
VERTEX
  8
0
 10
383.2233618003374
 20
755.6708187125973
 30
0
  0
SEQEND
  8
0
  0
POLYLINE
  8
0
 62
2
 66
1
  0
VERTEX
  8
0
 10
383.1730852824375
 20
756.1903318651973
 30
0
  0
VERTEX
  8
0
 10
383.1100887609374
 20
756.0676450170975
 30
0
  0
VERTEX
  8
0
 10
383.0976723683374
 20
755.9594374410974
 30
0
  0
SEQEND
  8
0
  0
POLYLINE
  8
0
 62
2
 66
1
  0
VERTEX
  8
0
 10
383.4747388017374
 20
756.2685387469971
 30
0
  0
VERTEX
  8
0
 10
383.2987505001374
 20
756.2489809729973
 30
0
  0
VERTEX
  8
0
 10
383.1730852824375
 20
756.1903318651973
 30
0
  0
SEQEND
  8
0
  0
LINE
  8
1
 62
2
 10
465.5892027330373
 20
422.3171336654493
 30
0
 11
466.0892027330373
 21
421.4733836654493
 31
0
  0
LINE
  8
1
 62
2
 10
464.8392027330373
 20
423.1608836654493
 30
0
 11
465.5892027330373
 21
422.3171336654493
 31
0
  0
LINE
  8
1
 62
2
 10
463.8392027330373
 20
424.0046336654493
 30
0
 11
464.8392027330373
 21
423.1608836654493
 31
0
  0
LINE
  8
1
 62
2
 10
463.3392027330373
 20
425.1296336654493
 30
0
 11
462.5892027330373
 21
426.5358836654493
 31
0
  0
LINE
  8
1
 62
2
 10
464.5892027330373
 20
425.4108836654493
 30
0
 11
464.0892027330373
 21
426.8171336654493
 31
0
  0
LINE
  8
1
 62
2
 10
466.0892027330373
 20
424.8483836654493
 30
0
 11
466.8392027330373
 21
426.5358836654493
 31
0
  0
LINE
  8
1
 62
2
 10
464.5892027330373
 20
422.5983836654493
 30
0
 11
466.0892027330373
 21
424.8483836654493
 31
0
  0
LINE
  8
1
 62
2
 10
463.8392027330373
 20
421.7546336654493
 30
0
 11
464.5892027330373
 21
422.5983836654493
 31
0
  0
LINE
  8
1
 62
2
 10
462.5892027330373
 20
420.9108836654493
 30
0
 11
463.8392027330373
 21
421.7546336654493
 31
0
  0
LINE
  8
1
 62
2
 10
461.3392027330373
 20
427.9421336654493
 30
0
 11
461.3392027330373
 21
419.7858836654493
 31
0
  0
LINE
  8
1
 62
2
 10
467.8392027330373
 20
427.9421336654493
 30
0
 11
461.3392027330373
 21
427.9421336654493
 31
0
  0
LINE
  8
1
 62
2
 10
467.8392027330373
 20
419.7858836654493
 30
0
 11
467.8392027330373
 21
427.9421336654493
 31
0
  0
LINE
  8
1
 62
2
 10
461.3392027330373
 20
419.7858836654493
 30
0
 11
467.8392027330373
 21
419.7858836654493
 31
0
  0
LINE
  8
1
 62
2
 10
456.3392027330373
 20
423.7233836654493
 30
0
 11
459.3392027330373
 21
423.7233836654493
 31
0
  0
LINE
  8
1
 62
2
 10
457.5892027330373
 20
422.0358836654493
 30
0
 11
459.0892027330373
 21
419.5046336654493
 31
0
  0
LINE
  8
1
 62
2
 10
454.0892027330373
 20
419.7858836654493
 30
0
 11
458.3392027330373
 21
420.6296336654493
 31
0
  0
LINE
  8
1
 62
2
 10
456.3392027330373
 20
423.7233836654493
 30
0
 11
455.0892027330373
 21
420.0671336654493
 31
0
  0
LINE
  8
1
 62
2
 10
453.5892027330373
 20
423.7233836654493
 30
0
 11
456.3392027330373
 21
423.7233836654493
 31
0
  0
LINE
  8
1
 62
2
 10
456.5892027330373
 20
428.2233836654493
 30
0
 11
456.5892027330373
 21
423.7233836654493
 31
0
  0
LINE
  8
1
 62
2
 10
454.3392027330373
 20
425.9733836654493
 30
0
 11
459.0892027330373
 21
425.9733836654493
 31
0
  0
LINE
  8
1
 62
2
 10
452.3392027330373
 20
427.9421336654493
 30
0
 11
453.0892027330373
 21
426.8171336654493
 31
0
  0
LINE
  8
1
 62
2
 10
452.3392027330373
 20
424.5671336654493
 30
0
 11
451.5892027330373
 21
425.4108836654493
 31
0
  0
LINE
  8
1
 62
2
 10
451.8392027330373
 20
419.5046336654493
 30
0
 11
453.0892027330373
 21
423.1608836654493
 31
0
  0
LINE
  8
1
 62
2
 10
446.0892027330373
 20
422.8796336654493
 30
0
 11
445.0892027330373
 21
424.2858836654493
 31
0
  0
LINE
  8
1
 62
2
 10
448.0892027330373
 20
419.7858836654493
 30
0
 11
446.8392027330373
 21
419.7858836654493
 31
0
  0
LINE
  8
1
 62
2
 10
448.0892027330373
 20
427.9421336654493
 30
0
 11
448.0892027330373
 21
419.7858836654493
 31
0
  0
LINE
  8
1
 62
2
 10
443.3392027330373
 20
425.6921336654493
 30
0
 11
450.0892027330373
 21
425.6921336654493
 31
0
  0
LINE
  8
1
 62
2
 10
434.5892027330373
 20
421.4733836654493
 30
0
 11
434.5892027330373
 21
424.2858836654493
 31
0
  0
LINE
  8
1
 62
2
 10
436.0892027330373
 20
420.0671336654493
 30
0
 11
434.5892027330373
 21
420.0671336654493
 31
0
  0
LINE
  8
1
 62
2
 10
436.0892027330373
 20
424.2858836654493
 30
0
 11
437.3392027330373
 21
424.2858836654493
 31
0
  0
LINE
  8
1
 62
2
 10
435.8392027330373
 20
427.0983836654493
 30
0
 11
434.8392027330373
 21
427.0983836654493
 31
0
  0
LINE
  8
1
 62
2
 10
438.0892027330373
 20
425.9733836654493
 30
0
 11
438.0892027330373
 21
424.2858836654493
 31
0
  0
LINE
  8
1
 62
2
 10
440.5892027330373
 20
424.2858836654493
 30
0
 11
440.5892027330373
 21
427.6608836654493
 31
0
  0
LINE
  8
1
 62
2
 10
438.0892027330373
 20
424.2858836654493
 30
0
 11
438.0892027330373
 21
422.5983836654493
 31
0
  0
LINE
  8
1
 62
2
 10
438.8392027330373
 20
422.5983836654493
 30
0
 11
439.5892027330373
 21
422.5983836654493
 31
0
  0
LINE
  8
1
 62
2
 10
439.5892027330373
 20
422.5983836654493
 30
0
 11
440.5892027330373
 21
422.5983836654493
 31
0
  0
LINE
  8
1
 62
2
 10
441.3392027330373
 20
419.5046336654493
 30
0
 11
441.5892027330373
 21
420.0671336654493
 31
0
  0
LINE
  8
1
 62
2
 10
440.3392027330373
 20
419.5046336654493
 30
0
 11
441.3392027330373
 21
419.5046336654493
 31
0
  0
LINE
  8
1
 62
2
 10
439.5892027330373
 20
420.0671336654493
 30
0
 11
440.3392027330373
 21
419.5046336654493
 31
0
  0
LINE
  8
1
 62
2
 10
439.5892027330373
 20
422.5983836654493
 30
0
 11
439.5892027330373
 21
420.0671336654493
 31
0
  0
LINE
  8
1
 62
2
 10
438.0892027330373
 20
420.3483836654493
 30
0
 11
437.3392027330373
 21
419.5046336654493
 31
0
  0
LINE
  8
1
 62
2
 10
438.5892027330373
 20
421.7546336654493
 30
0
 11
438.0892027330373
 21
420.3483836654493
 31
0
  0
LINE
  8
1
 62
2
 10
438.8392027330373
 20
422.5983836654493
 30
0
 11
438.5892027330373
 21
421.7546336654493
 31
0
  0
LINE
  8
1
 62
2
 10
440.5892027330373
 20
424.2858836654493
 30
0
 11
438.0892027330373
 21
424.2858836654493
 31
0
  0
LINE
  8
1
 62
2
 10
438.0892027330373
 20
425.9733836654493
 30
0
 11
440.5892027330373
 21
425.9733836654493
 31
0
  0
LINE
  8
1
 62
2
 10
440.5892027330373
 20
427.6608836654493
 30
0
 11
438.0892027330373
 21
427.6608836654493
 31
0
  0
LINE
  8
1
 62
2
 10
440.5892027330373
 20
422.5983836654493
 30
0
 11
440.5892027330373
 21
424.2858836654493
 31
0
  0
LINE
  8
1
 62
2
 10
438.0892027330373
 20
422.5983836654493
 30
0
 11
438.8392027330373
 21
422.5983836654493
 31
0
  0
LINE
  8
1
 62
2
 10
438.0892027330373
 20
427.6608836654493
 30
0
 11
438.0892027330373
 21
425.9733836654493
 31
0
  0
LINE
  8
1
 62
2
 10
434.5892027330373
 20
427.0983836654493
 30
0
 11
435.0892027330373
 21
428.2233836654493
 31
0
  0
LINE
  8
1
 62
2
 10
433.8392027330373
 20
426.2546336654493
 30
0
 11
434.5892027330373
 21
427.0983836654493
 31
0
  0
LINE
  8
1
 62
2
 10
437.3392027330373
 20
427.0983836654493
 30
0
 11
435.8392027330373
 21
427.0983836654493
 31
0
  0
LINE
  8
1
 62
2
 10
434.8392027330373
 20
424.5671336654493
 30
0
 11
435.8392027330373
 21
427.0983836654493
 31
0
  0
LINE
  8
1
 62
2
 10
433.5892027330373
 20
422.8796336654493
 30
0
 11
434.8392027330373
 21
424.5671336654493
 31
0
  0
LINE
  8
1
 62
2
 10
437.5892027330373
 20
425.6921336654493
 30
0
 11
433.8392027330373
 21
425.6921336654493
 31
0
  0
LINE
  8
1
 62
2
 10
436.0892027330373
 20
424.2858836654493
 30
0
 11
436.3392027330373
 21
424.8483836654493
 31
0
  0
LINE
  8
1
 62
2
 10
436.0892027330373
 20
420.0671336654493
 30
0
 11
436.0892027330373
 21
424.2858836654493
 31
0
  0
LINE
  8
1
 62
2
 10
437.3392027330373
 20
420.0671336654493
 30
0
 11
436.0892027330373
 21
420.0671336654493
 31
0
  0
LINE
  8
1
 62
2
 10
434.5892027330373
 20
421.4733836654493
 30
0
 11
437.3392027330373
 21
421.4733836654493
 31
0
  0
LINE
  8
1
 62
2
 10
437.3392027330373
 20
422.8796336654493
 30
0
 11
434.5892027330373
 21
422.8796336654493
 31
0
  0
LINE
  8
1
 62
2
 10
434.5892027330373
 20
424.2858836654493
 30
0
 11
436.0892027330373
 21
424.2858836654493
 31
0
  0
LINE
  8
1
 62
2
 10
434.5892027330373
 20
419.5046336654493
 30
0
 11
434.5892027330373
 21
421.4733836654493
 31
0
  0
LINE
  8
1
 62
2
 10
431.3392027330373
 20
424.2858836654493
 30
0
 11
432.5892027330373
 21
422.8796336654493
 31
0
  0
LINE
  8
1
 62
2
 10
429.3392027330373
 20
426.2546336654493
 30
0
 11
431.3392027330373
 21
424.2858836654493
 31
0
  0
LINE
  8
1
 62
2
 10
429.8392027330373
 20
428.5046336654493
 30
0
 11
429.8392027330373
 21
419.5046336654493
 31
0
  0
LINE
  8
1
 62
2
 10
425.5892027330373
 20
424.8483836654493
 30
0
 11
427.3392027330373
 21
423.4421336654493
 31
0
  0
LINE
  8
1
 62
2
 10
425.5892027330373
 20
425.1296336654493
 30
0
 11
424.5892027330373
 21
423.7233836654493
 31
0
  0
LINE
  8
1
 62
2
 10
426.3392027330373
 20
426.8171336654493
 30
0
 11
425.5892027330373
 21
425.1296336654493
 31
0
  0
LINE
  8
1
 62
2
 10
426.8392027330373
 20
428.5046336654493
 30
0
 11
426.3392027330373
 21
426.8171336654493
 31
0
  0
LINE
  8
1
 62
2
 10
428.5892027330373
 20
426.5358836654493
 30
0
 11
426.3392027330373
 21
426.5358836654493
 31
0
  0
LINE
  8
1
 62
2
 10
428.0892027330373
 20
424.8483836654493
 30
0
 11
428.5892027330373
 21
426.5358836654493
 31
0
  0
LINE
  8
1
 62
2
 10
427.5892027330373
 20
423.7233836654493
 30
0
 11
428.0892027330373
 21
424.8483836654493
 31
0
  0
LINE
  8
1
 62
2
 10
426.5892027330373
 20
422.0358836654493
 30
0
 11
427.5892027330373
 21
423.7233836654493
 31
0
  0
LINE
  8
1
 62
2
 10
425.0892027330373
 20
420.0671336654493
 30
0
 11
426.5892027330373
 21
422.0358836654493
 31
0
  0
LINE
  8
1
 62
2
 10
409.7392027330373
 20
425.8046336654493
 30
0
 11
411.5392027330373
 21
425.8046336654493
 31
0
  0
LINE
  8
1
 62
2
 10
409.7392027330373
 20
425.8046336654493
 30
0
 11
409.7392027330373
 21
419.5046336654493
 31
0
  0
LINE
  8
1
 62
2
 10
412.8892027330373
 20
424.6796336654493
 30
0
 11
412.8892027330373
 21
419.5046336654493
 31
0
  0
LINE
  8
1
 62
2
 10
412.6642027330373
 20
425.1296336654493
 30
0
 11
412.8892027330373
 21
424.6796336654493
 31
0
  0
LINE
  8
1
 62
2
 10
412.2142027330373
 20
425.5796336654493
 30
0
 11
412.6642027330373
 21
425.1296336654493
 31
0
  0
LINE
  8
1
 62
2
 10
411.5392027330373
 20
425.8046336654493
 30
0
 11
412.2142027330373
 21
425.5796336654493
 31
0
  0
LINE
  8
1
 62
2
 10
406.5892027330373
 20
425.8046336654493
 30
0
 11
409.7392027330373
 21
425.8046336654493
 31
0
  0
LINE
  8
1
 62
2
 10
406.5892027330373
 20
419.5046336654493
 30
0
 11
406.5892027330373
 21
425.8046336654493
 31
0
  0
LINE
  8
1
 62
2
 10
400.7392027330373
 20
425.8046336654493
 30
0
 11
402.5392027330373
 21
425.8046336654493
 31
0
  0
LINE
  8
1
 62
2
 10
400.7392027330373
 20
425.8046336654493
 30
0
 11
400.7392027330373
 21
419.5046336654493
 31
0
  0
LINE
  8
1
 62
2
 10
403.8892027330373
 20
424.6796336654493
 30
0
 11
403.8892027330373
 21
419.5046336654493
 31
0
  0
LINE
  8
1
 62
2
 10
403.6642027330373
 20
425.1296336654493
 30
0
 11
403.8892027330373
 21
424.6796336654493
 31
0
  0
LINE
  8
1
 62
2
 10
403.2142027330373
 20
425.5796336654493
 30
0
 11
403.6642027330373
 21
425.1296336654493
 31
0
  0
LINE
  8
1
 62
2
 10
402.5392027330373
 20
425.8046336654493
 30
0
 11
403.2142027330373
 21
425.5796336654493
 31
0
  0
LINE
  8
1
 62
2
 10
397.5892027330373
 20
425.8046336654493
 30
0
 11
400.7392027330373
 21
425.8046336654493
 31
0
  0
LINE
  8
1
 62
2
 10
397.5892027330373
 20
419.5046336654493
 30
0
 11
397.5892027330373
 21
425.8046336654493
 31
0
  0
LINE
  8
1
 62
2
 10
394.8892027330373
 20
425.1296336654493
 30
0
 11
394.8892027330373
 21
422.8796336654493
 31
0
  0
LINE
  8
1
 62
2
 10
394.6642027330373
 20
426.4796336654493
 30
0
 11
394.8892027330373
 21
425.1296336654493
 31
0
  0
LINE
  8
1
 62
2
 10
394.2142027330373
 20
427.3796336654493
 30
0
 11
394.6642027330373
 21
426.4796336654493
 31
0
  0
LINE
  8
1
 62
2
 10
393.7642027330373
 20
427.8296336654493
 30
0
 11
394.2142027330373
 21
427.3796336654493
 31
0
  0
LINE
  8
1
 62
2
 10
393.0892027330373
 20
428.2796336654493
 30
0
 11
393.7642027330373
 21
427.8296336654493
 31
0
  0
LINE
  8
1
 62
2
 10
392.4142027330373
 20
428.5046336654493
 30
0
 11
393.0892027330373
 21
428.2796336654493
 31
0
  0
LINE
  8
1
 62
2
 10
391.9642027330373
 20
428.5046336654493
 30
0
 11
392.4142027330373
 21
428.5046336654493
 31
0
  0
LINE
  8
1
 62
2
 10
391.2892027330373
 20
428.2796336654493
 30
0
 11
391.9642027330373
 21
428.5046336654493
 31
0
  0
LINE
  8
1
 62
2
 10
390.6142027330373
 20
427.8296336654493
 30
0
 11
391.2892027330373
 21
428.2796336654493
 31
0
  0
LINE
  8
1
 62
2
 10
390.1642027330373
 20
427.3796336654493
 30
0
 11
390.6142027330373
 21
427.8296336654493
 31
0
  0
LINE
  8
1
 62
2
 10
389.7142027330373
 20
426.4796336654493
 30
0
 11
390.1642027330373
 21
427.3796336654493
 31
0
  0
LINE
  8
1
 62
2
 10
389.4892027330373
 20
425.1296336654493
 30
0
 11
389.7142027330373
 21
426.4796336654493
 31
0
  0
LINE
  8
1
 62
2
 10
389.4892027330373
 20
422.8796336654493
 30
0
 11
389.4892027330373
 21
425.1296336654493
 31
0
  0
LINE
  8
1
 62
2
 10
389.7142027330373
 20
421.5296336654493
 30
0
 11
389.4892027330373
 21
422.8796336654493
 31
0
  0
LINE
  8
1
 62
2
 10
390.1642027330373
 20
420.6296336654493
 30
0
 11
389.7142027330373
 21
421.5296336654493
 31
0
  0
LINE
  8
1
 62
2
 10
390.6142027330373
 20
420.1796336654493
 30
0
 11
390.1642027330373
 21
420.6296336654493
 31
0
  0
LINE
  8
1
 62
2
 10
391.2892027330373
 20
419.7296336654493
 30
0
 11
390.6142027330373
 21
420.1796336654493
 31
0
  0
LINE
  8
1
 62
2
 10
391.9642027330373
 20
419.5046336654493
 30
0
 11
391.2892027330373
 21
419.7296336654493
 31
0
  0
LINE
  8
1
 62
2
 10
392.4142027330373
 20
419.5046336654493
 30
0
 11
391.9642027330373
 21
419.5046336654493
 31
0
  0
LINE
  8
1
 62
2
 10
393.0892027330373
 20
419.7296336654493
 30
0
 11
392.4142027330373
 21
419.5046336654493
 31
0
  0
LINE
  8
1
 62
2
 10
393.7642027330373
 20
420.1796336654493
 30
0
 11
393.0892027330373
 21
419.7296336654493
 31
0
  0
LINE
  8
1
 62
2
 10
394.2142027330373
 20
420.6296336654493
 30
0
 11
393.7642027330373
 21
420.1796336654493
 31
0
  0
LINE
  8
1
 62
2
 10
394.6642027330373
 20
421.5296336654493
 30
0
 11
394.2142027330373
 21
420.6296336654493
 31
0
  0
LINE
  8
1
 62
2
 10
394.8892027330373
 20
422.8796336654493
 30
0
 11
394.6642027330373
 21
421.5296336654493
 31
0
  0
LINE
  8
1
 62
2
 10
384.7642027330373
 20
419.5046336654493
 30
0
 11
381.3892027330373
 21
419.5046336654493
 31
0
  0
LINE
  8
1
 62
2
 10
385.4392027330373
 20
419.7296336654493
 30
0
 11
384.7642027330373
 21
419.5046336654493
 31
0
  0
LINE
  8
1
 62
2
 10
386.1142027330373
 20
420.1796336654493
 30
0
 11
385.4392027330373
 21
419.7296336654493
 31
0
  0
LINE
  8
1
 62
2
 10
386.5642027330373
 20
420.8546336654493
 30
0
 11
386.1142027330373
 21
420.1796336654493
 31
0
  0
LINE
  8
1
 62
2
 10
386.7892027330373
 20
421.7546336654493
 30
0
 11
386.5642027330373
 21
420.8546336654493
 31
0
  0
LINE
  8
1
 62
2
 10
386.7892027330373
 20
423.1046336654493
 30
0
 11
386.7892027330373
 21
421.7546336654493
 31
0
  0
LINE
  8
1
 62
2
 10
386.5642027330373
 20
424.0046336654493
 30
0
 11
386.7892027330373
 21
423.1046336654493
 31
0
  0
LINE
  8
1
 62
2
 10
385.8892027330373
 20
424.6796336654493
 30
0
 11
386.5642027330373
 21
424.0046336654493
 31
0
  0
LINE
  8
1
 62
2
 10
384.7642027330373
 20
424.9046336654493
 30
0
 11
385.8892027330373
 21
424.6796336654493
 31
0
  0
LINE
  8
1
 62
2
 10
381.3892027330373
 20
424.9046336654493
 30
0
 11
384.7642027330373
 21
424.9046336654493
 31
0
  0
LINE
  8
1
 62
2
 10
381.3892027330373
 20
428.5046336654493
 30
0
 11
381.3892027330373
 21
424.9046336654493
 31
0
  0
LINE
  8
1
 62
2
 10
386.3392027330373
 20
428.5046336654493
 30
0
 11
381.3892027330373
 21
428.5046336654493
 31
0
  0
LINE
  8
1
 62
2
 10
375.3892027330373
 20
427.9421336654493
 30
0
 11
372.8892027330373
 21
427.9421336654493
 31
0
  0
LINE
  8
1
 62
2
 10
376.6392027330373
 20
419.7858836654493
 30
0
 11
380.1392027330373
 21
419.7858836654493
 31
0
  0
LINE
  8
1
 62
2
 10
376.6392027330373
 20
423.1608836654493
 30
0
 11
376.6392027330373
 21
419.7858836654493
 31
0
  0
LINE
  8
1
 62
2
 10
379.6392027330373
 20
423.1608836654493
 30
0
 11
378.8892027330373
 21
423.1608836654493
 31
0
  0
LINE
  8
1
 62
2
 10
379.6392027330373
 20
428.2233836654493
 30
0
 11
379.6392027330373
 21
423.1608836654493
 31
0
  0
LINE
  8
1
 62
2
 10
377.8892027330373
 20
424.2858836654493
 30
0
 11
377.8892027330373
 21
427.9421336654493
 31
0
  0
LINE
  8
1
 62
2
 10
375.3892027330373
 20
427.9421336654493
 30
0
 11
375.3892027330373
 21
423.1608836654493
 31
0
  0
LINE
  8
1
 62
2
 10
372.6392027330373
 20
425.9733836654493
 30
0
 11
376.8892027330373
 21
425.9733836654493
 31
0
  0
LINE
  8
1
 62
2
 10
376.6392027330373
 20
427.9421336654493
 30
0
 11
375.3892027330373
 21
427.9421336654493
 31
0
  0
LINE
  8
1
 62
2
 10
374.1392027330373
 20
425.9733836654493
 30
0
 11
374.1392027330373
 21
427.9421336654493
 31
0
  0
LINE
  8
1
 62
2
 10
373.6392027330373
 20
424.0046336654493
 30
0
 11
374.1392027330373
 21
425.9733836654493
 31
0
  0
LINE
  8
1
 62
2
 10
372.8892027330373
 20
422.8796336654493
 30
0
 11
373.6392027330373
 21
424.0046336654493
 31
0
  0
LINE
  8
1
 62
2
 10
379.1392027330373
 20
421.7546336654493
 30
0
 11
373.6392027330373
 21
421.7546336654493
 31
0
  0
LINE
  8
1
 62
2
 10
372.8892027330373
 20
419.7858836654493
 30
0
 11
376.6392027330373
 21
419.7858836654493
 31
0
  0
LINE
  8
1
 62
2
 10
363.8392027330373
 20
420.1796336654493
 30
0
 11
363.3892027330373
 21
420.6296336654493
 31
0
  0
LINE
  8
1
 62
2
 10
364.7392027330373
 20
419.7296336654493
 30
0
 11
363.8392027330373
 21
420.1796336654493
 31
0
  0
LINE
  8
1
 62
2
 10
365.8642027330373
 20
419.5046336654493
 30
0
 11
364.7392027330373
 21
419.7296336654493
 31
0
  0
LINE
  8
1
 62
2
 10
367.2142027330373
 20
419.5046336654493
 30
0
 11
365.8642027330373
 21
419.5046336654493
 31
0
  0
LINE
  8
1
 62
2
 10
368.3392027330373
 20
419.7296336654493
 30
0
 11
367.2142027330373
 21
419.5046336654493
 31
0
  0
LINE
  8
1
 62
2
 10
369.0142027330373
 20
420.1796336654493
 30
0
 11
368.3392027330373
 21
419.7296336654493
 31
0
  0
LINE
  8
1
 62
2
 10
369.4642027330373
 20
420.8546336654493
 30
0
 11
369.0142027330373
 21
420.1796336654493
 31
0
  0
LINE
  8
1
 62
2
 10
369.6892027330373
 20
421.5296336654493
 30
0
 11
369.4642027330373
 21
420.8546336654493
 31
0
  0
LINE
  8
1
 62
2
 10
369.6892027330373
 20
421.9796336654493
 30
0
 11
369.6892027330373
 21
421.5296336654493
 31
0
  0
LINE
  8
1
 62
2
 10
369.4642027330373
 20
422.6546336654493
 30
0
 11
369.6892027330373
 21
421.9796336654493
 31
0
  0
LINE
  8
1
 62
2
 10
369.0142027330373
 20
423.3296336654493
 30
0
 11
369.4642027330373
 21
422.6546336654493
 31
0
  0
LINE
  8
1
 62
2
 10
368.3392027330373
 20
423.7796336654493
 30
0
 11
369.0142027330373
 21
423.3296336654493
 31
0
  0
LINE
  8
1
 62
2
 10
364.5142027330373
 20
425.3546336654493
 30
0
 11
368.3392027330373
 21
423.7796336654493
 31
0
  0
LINE
  8
1
 62
2
 10
363.8392027330373
 20
425.8046336654493
 30
0
 11
364.5142027330373
 21
425.3546336654493
 31
0
  0
LINE
  8
1
 62
2
 10
363.6142027330373
 20
426.4796336654493
 30
0
 11
363.8392027330373
 21
425.8046336654493
 31
0
  0
LINE
  8
1
 62
2
 10
363.6142027330373
 20
426.9296336654493
 30
0
 11
363.6142027330373
 21
426.4796336654493
 31
0
  0
LINE
  8
1
 62
2
 10
363.8392027330373
 20
427.6046336654493
 30
0
 11
363.6142027330373
 21
426.9296336654493
 31
0
  0
LINE
  8
1
 62
2
 10
364.5142027330373
 20
428.0546336654493
 30
0
 11
363.8392027330373
 21
427.6046336654493
 31
0
  0
LINE
  8
1
 62
2
 10
365.1892027330373
 20
428.2796336654493
 30
0
 11
364.5142027330373
 21
428.0546336654493
 31
0
  0
LINE
  8
1
 62
2
 10
366.0892027330373
 20
428.5046336654493
 30
0
 11
365.1892027330373
 21
428.2796336654493
 31
0
  0
LINE
  8
1
 62
2
 10
366.9892027330373
 20
428.5046336654493
 30
0
 11
366.0892027330373
 21
428.5046336654493
 31
0
  0
LINE
  8
1
 62
2
 10
368.1142027330373
 20
428.2796336654493
 30
0
 11
366.9892027330373
 21
428.5046336654493
 31
0
  0
LINE
  8
1
 62
2
 10
368.7892027330373
 20
428.0546336654493
 30
0
 11
368.1142027330373
 21
428.2796336654493
 31
0
  0
LINE
  8
1
 62
2
 10
369.4642027330373
 20
427.6046336654493
 30
0
 11
368.7892027330373
 21
428.0546336654493
 31
0
  0
LINE
  8
1
 62
2
 10
360.4642027330373
 20
426.7046336654493
 30
0
 11
360.6892027330373
 21
425.8046336654493
 31
0
  0
LINE
  8
1
 62
2
 10
360.0142027330373
 20
427.3796336654493
 30
0
 11
360.4642027330373
 21
426.7046336654493
 31
0
  0
LINE
  8
1
 62
2
 10
359.5642027330373
 20
427.8296336654493
 30
0
 11
360.0142027330373
 21
427.3796336654493
 31
0
  0
LINE
  8
1
 62
2
 10
358.8892027330373
 20
428.2796336654493
 30
0
 11
359.5642027330373
 21
427.8296336654493
 31
0
  0
LINE
  8
1
 62
2
 10
357.9892027330373
 20
428.5046336654493
 30
0
 11
358.8892027330373
 21
428.2796336654493
 31
0
  0
LINE
  8
1
 62
2
 10
354.3892027330373
 20
428.5046336654493
 30
0
 11
357.9892027330373
 21
428.5046336654493
 31
0
  0
LINE
  8
1
 62
2
 10
354.3892027330373
 20
419.5046336654493
 30
0
 11
354.3892027330373
 21
428.5046336654493
 31
0
  0
LINE
  8
1
 62
2
 10
357.9892027330373
 20
419.5046336654493
 30
0
 11
354.3892027330373
 21
419.5046336654493
 31
0
  0
LINE
  8
1
 62
2
 10
358.8892027330373
 20
419.7296336654493
 30
0
 11
357.9892027330373
 21
419.5046336654493
 31
0
  0
LINE
  8
1
 62
2
 10
359.5642027330373
 20
420.1796336654493
 30
0
 11
358.8892027330373
 21
419.7296336654493
 31
0
  0
LINE
  8
1
 62
2
 10
360.0142027330373
 20
420.6296336654493
 30
0
 11
359.5642027330373
 21
420.1796336654493
 31
0
  0
LINE
  8
1
 62
2
 10
360.4642027330373
 20
421.3046336654493
 30
0
 11
360.0142027330373
 21
420.6296336654493
 31
0
  0
LINE
  8
1
 62
2
 10
360.6892027330373
 20
422.2046336654493
 30
0
 11
360.4642027330373
 21
421.3046336654493
 31
0
  0
LINE
  8
1
 62
2
 10
360.6892027330373
 20
425.8046336654493
 30
0
 11
360.6892027330373
 21
422.2046336654493
 31
0
  0
LINE
  8
1
 62
2
 10
345.3892027330373
 20
422.2046336654493
 30
0
 11
345.3892027330373
 21
428.5046336654493
 31
0
  0
LINE
  8
1
 62
2
 10
345.3892027330373
 20
419.5046336654493
 30
0
 11
345.3892027330373
 21
422.2046336654493
 31
0
  0
LINE
  8
1
 62
2
 10
347.1892027330373
 20
424.0046336654493
 30
0
 11
351.6892027330373
 21
419.5046336654493
 31
0
  0
LINE
  8
1
 62
2
 10
351.6892027330373
 20
428.5046336654493
 30
0
 11
347.1892027330373
 21
424.0046336654493
 31
0
  0
LINE
  8
1
 62
2
 10
347.1892027330373
 20
424.0046336654493
 30
0
 11
345.3892027330373
 21
422.2046336654493
 31
0
  0
LINE
  8
1
 62
2
 10
342.6892027330373
 20
424.4546336654493
 30
0
 11
340.4392027330373
 21
424.4546336654493
 31
0
  0
LINE
  8
1
 62
2
 10
342.6892027330373
 20
419.5046336654493
 30
0
 11
342.6892027330373
 21
424.4546336654493
 31
0
  0
LINE
  8
1
 62
2
 10
338.8642027330373
 20
419.5046336654493
 30
0
 11
342.6892027330373
 21
419.5046336654493
 31
0
  0
LINE
  8
1
 62
2
 10
338.1892027330373
 20
419.7296336654493
 30
0
 11
338.8642027330373
 21
419.5046336654493
 31
0
  0
LINE
  8
1
 62
2
 10
337.2892027330373
 20
420.1796336654493
 30
0
 11
338.1892027330373
 21
419.7296336654493
 31
0
  0
LINE
  8
1
 62
2
 10
336.8392027330373
 20
420.6296336654493
 30
0
 11
337.2892027330373
 21
420.1796336654493
 31
0
  0
LINE
  8
1
 62
2
 10
336.6142027330373
 20
421.3046336654493
 30
0
 11
336.8392027330373
 21
420.6296336654493
 31
0
  0
LINE
  8
1
 62
2
 10
336.3892027330373
 20
422.2046336654493
 30
0
 11
336.6142027330373
 21
421.3046336654493
 31
0
  0
LINE
  8
1
 62
2
 10
336.3892027330373
 20
425.8046336654493
 30
0
 11
336.3892027330373
 21
422.2046336654493
 31
0
  0
LINE
  8
1
 62
2
 10
336.6142027330373
 20
426.7046336654493
 30
0
 11
336.3892027330373
 21
425.8046336654493
 31
0
  0
LINE
  8
1
 62
2
 10
336.8392027330373
 20
427.3796336654493
 30
0
 11
336.6142027330373
 21
426.7046336654493
 31
0
  0
LINE
  8
1
 62
2
 10
337.2892027330373
 20
427.8296336654493
 30
0
 11
336.8392027330373
 21
427.3796336654493
 31
0
  0
LINE
  8
1
 62
2
 10
337.9642027330373
 20
428.2796336654493
 30
0
 11
337.2892027330373
 21
427.8296336654493
 31
0
  0
LINE
  8
1
 62
2
 10
338.8642027330373
 20
428.5046336654493
 30
0
 11
337.9642027330373
 21
428.2796336654493
 31
0
  0
LINE
  8
1
 62
2
 10
342.6892027330373
 20
428.5046336654493
 30
0
 11
338.8642027330373
 21
428.5046336654493
 31
0
  0
LINE
  8
1
 62
2
 10
440.6142027330373
 20
399.8483836654493
 30
0
 11
440.8642027330373
 21
400.1296336654493
 31
0
  0
LINE
  8
1
 62
2
 10
440.6142027330373
 20
401.5358836654493
 30
0
 11
439.1142027330373
 21
401.5358836654493
 31
0
  0
LINE
  8
1
 62
2
 10
444.3642027330373
 20
395.0671336654493
 30
0
 11
446.6142027330373
 21
395.0671336654493
 31
0
  0
LINE
  8
1
 62
2
 10
441.8642027330373
 20
395.0671336654493
 30
0
 11
444.3642027330373
 21
395.0671336654493
 31
0
  0
LINE
  8
1
 62
2
 10
444.3642027330373
 20
403.2233836654493
 30
0
 11
444.3642027330373
 21
395.0671336654493
 31
0
  0
LINE
  8
1
 62
2
 10
442.6142027330373
 20
399.8483836654493
 30
0
 11
446.1142027330373
 21
399.8483836654493
 31
0
  0
LINE
  8
1
 62
2
 10
441.1142027330373
 20
399.5671336654493
 30
0
 11
442.3642027330373
 21
398.1608836654493
 31
0
  0
LINE
  8
1
 62
2
 10
440.6142027330373
 20
401.5358836654493
 30
0
 11
440.6142027330373
 21
403.2233836654493
 31
0
  0
LINE
  8
1
 62
2
 10
441.8642027330373
 20
401.5358836654493
 30
0
 11
440.6142027330373
 21
401.5358836654493
 31
0
  0
LINE
  8
1
 62
2
 10
440.8642027330373
 20
400.1296336654493
 30
0
 11
441.8642027330373
 21
401.5358836654493
 31
0
  0
LINE
  8
1
 62
2
 10
439.6142027330373
 20
398.7233836654493
 30
0
 11
440.6142027330373
 21
399.8483836654493
 31
0
  0
LINE
  8
1
 62
2
 10
438.6142027330373
 20
397.8796336654493
 30
0
 11
439.6142027330373
 21
398.7233836654493
 31
0
  0
LINE
  8
1
 62
2
 10
440.6142027330373
 20
394.7858836654493
 30
0
 11
440.6142027330373
 21
399.8483836654493
 31
0
  0
LINE
  8
1
 62
2
 10
433.6142027330373
 20
397.8796336654493
 30
0
 11
431.1142027330373
 21
394.7858836654493
 31
0
  0
LINE
  8
1
 62
2
 10
435.8642027330373
 20
395.3483836654493
 30
0
 11
434.8642027330373
 21
396.4733836654493
 31
0
  0
LINE
  8
1
 62
2
 10
436.6142027330373
 20
394.5046336654493
 30
0
 11
435.8642027330373
 21
395.3483836654493
 31
0
  0
LINE
  8
1
 62
2
 10
430.3642027330373
 20
394.7858836654493
 30
0
 11
435.8642027330373
 21
395.3483836654493
 31
0
  0
LINE
  8
1
 62
2
 10
430.8642027330373
 20
398.1608836654493
 30
0
 11
436.6142027330373
 21
398.1608836654493
 31
0
  0
LINE
  8
1
 62
2
 10
431.8642027330373
 20
399.5671336654493
 30
0
 11
435.3642027330373
 21
399.5671336654493
 31
0
  0
LINE
  8
1
 62
2
 10
433.6142027330373
 20
403.2233836654493
 30
0
 11
437.6142027330373
 21
399.0046336654493
 31
0
  0
LINE
  8
1
 62
2
 10
433.6142027330373
 20
403.2233836654493
 30
0
 11
429.6142027330373
 21
399.0046336654493
 31
0
  0
LINE
  8
1
 62
2
 10
422.8642027330373
 20
399.2858836654493
 30
0
 11
421.1142027330373
 21
399.2858836654493
 31
0
  0
LINE
  8
1
 62
2
 10
422.8642027330373
 20
396.1921336654493
 30
0
 11
424.6142027330373
 21
396.7546336654493
 31
0
  0
LINE
  8
1
 62
2
 10
427.8642027330373
 20
394.7858836654493
 30
0
 11
428.6142027330373
 21
395.6296336654493
 31
0
  0
LINE
  8
1
 62
2
 10
426.8642027330373
 20
395.9108836654493
 30
0
 11
427.8642027330373
 21
394.7858836654493
 31
0
  0
LINE
  8
1
 62
2
 10
425.8642027330373
 20
397.8796336654493
 30
0
 11
426.8642027330373
 21
395.9108836654493
 31
0
  0
LINE
  8
1
 62
2
 10
425.3642027330373
 20
400.1296336654493
 30
0
 11
425.8642027330373
 21
397.8796336654493
 31
0
  0
LINE
  8
1
 62
2
 10
425.1142027330373
 20
403.5046336654493
 30
0
 11
425.3642027330373
 21
400.1296336654493
 31
0
  0
LINE
  8
1
 62
2
 10
426.6142027330373
 20
402.3796336654493
 30
0
 11
425.8642027330373
 21
403.2233836654493
 31
0
  0
LINE
  8
1
 62
2
 10
420.6142027330373
 20
401.5358836654493
 30
0
 11
427.8642027330373
 21
401.5358836654493
 31
0
  0
LINE
  8
1
 62
2
 10
422.8642027330373
 20
399.2858836654493
 30
0
 11
422.8642027330373
 21
396.1921336654493
 31
0
  0
LINE
  8
1
 62
2
 10
424.6142027330373
 20
399.2858836654493
 30
0
 11
422.8642027330373
 21
399.2858836654493
 31
0
  0
LINE
  8
1
 62
2
 10
421.1142027330373
 20
395.6296336654493
 30
0
 11
422.8642027330373
 21
396.1921336654493
 31
0
  0
LINE
  8
1
 62
2
 10
413.3642027330373
 20
400.9733836654493
 30
0
 11
413.3642027330373
 21
403.5046336654493
 31
0
  0
LINE
  8
1
 62
2
 10
413.3642027330373
 20
400.9733836654493
 30
0
 11
412.1142027330373
 21
400.9733836654493
 31
0
  0
LINE
  8
1
 62
2
 10
418.3642027330373
 20
396.7546336654493
 30
0
 11
419.3642027330373
 21
394.7858836654493
 31
0
  0
LINE
  8
1
 62
2
 10
417.1142027330373
 20
399.2858836654493
 30
0
 11
418.3642027330373
 21
396.7546336654493
 31
0
  0
LINE
  8
1
 62
2
 10
416.3642027330373
 20
397.3171336654493
 30
0
 11
417.1142027330373
 21
399.2858836654493
 31
0
  0
LINE
  8
1
 62
2
 10
415.3642027330373
 20
395.9108836654493
 30
0
 11
416.3642027330373
 21
397.3171336654493
 31
0
  0
LINE
  8
1
 62
2
 10
414.6142027330373
 20
394.7858836654493
 30
0
 11
415.3642027330373
 21
395.9108836654493
 31
0
  0
LINE
  8
1
 62
2
 10
417.1142027330373
 20
403.5046336654493
 30
0
 11
417.1142027330373
 21
394.5046336654493
 31
0
  0
LINE
  8
1
 62
2
 10
419.3642027330373
 20
399.2858836654493
 30
0
 11
415.1142027330373
 21
399.2858836654493
 31
0
  0
LINE
  8
1
 62
2
 10
415.8642027330373
 20
401.2546336654493
 30
0
 11
419.1142027330373
 21
401.2546336654493
 31
0
  0
LINE
  8
1
 62
2
 10
415.8642027330373
 20
401.2546336654493
 30
0
 11
416.1142027330373
 21
402.6608836654493
 31
0
  0
LINE
  8
1
 62
2
 10
415.1142027330373
 20
399.8483836654493
 30
0
 11
415.8642027330373
 21
401.2546336654493
 31
0
  0
LINE
  8
1
 62
2
 10
413.3642027330373
 20
400.9733836654493
 30
0
 11
414.6142027330373
 21
398.7233836654493
 31
0
  0
LINE
  8
1
 62
2
 10
411.8642027330373
 20
397.0358836654493
 30
0
 11
413.3642027330373
 21
400.9733836654493
 31
0
  0
LINE
  8
1
 62
2
 10
414.6142027330373
 20
400.9733836654493
 30
0
 11
413.3642027330373
 21
400.9733836654493
 31
0
  0
LINE
  8
1
 62
2
 10
413.3642027330373
 20
394.7858836654493
 30
0
 11
413.3642027330373
 21
400.9733836654493
 31
0
  0
LINE
  8
1
 62
2
 10
403.3642027330373
 20
400.1296336654493
 30
0
 11
403.3642027330373
 21
401.5358836654493
 31
0
  0
LINE
  8
1
 62
2
 10
405.8642027330373
 20
401.5358836654493
 30
0
 11
405.8642027330373
 21
400.1296336654493
 31
0
  0
LINE
  8
1
 62
2
 10
403.3642027330373
 20
401.5358836654493
 30
0
 11
403.3642027330373
 21
402.9421336654493
 31
0
  0
LINE
  8
1
 62
2
 10
409.8642027330373
 20
400.1296336654493
 30
0
 11
409.8642027330373
 21
401.5358836654493
 31
0
  0
LINE
  8
1
 62
2
 10
407.3642027330373
 20
401.5358836654493
 30
0
 11
407.3642027330373
 21
400.1296336654493
 31
0
  0
LINE
  8
1
 62
2
 10
409.8642027330373
 20
401.5358836654493
 30
0
 11
409.8642027330373
 21
402.9421336654493
 31
0
  0
LINE
  8
1
 62
2
 10
403.3642027330373
 20
395.0671336654493
 30
0
 11
403.3642027330373
 21
394.7858836654493
 31
0
  0
LINE
  8
1
 62
2
 10
407.3642027330373
 20
401.5358836654493
 30
0
 11
409.8642027330373
 21
401.5358836654493
 31
0
  0
LINE
  8
1
 62
2
 10
407.3642027330373
 20
400.1296336654493
 30
0
 11
409.8642027330373
 21
400.1296336654493
 31
0
  0
LINE
  8
1
 62
2
 10
407.3642027330373
 20
402.9421336654493
 30
0
 11
407.3642027330373
 21
401.5358836654493
 31
0
  0
LINE
  8
1
 62
2
 10
409.8642027330373
 20
402.9421336654493
 30
0
 11
407.3642027330373
 21
402.9421336654493
 31
0
  0
LINE
  8
1
 62
2
 10
409.8642027330373
 20
395.0671336654493
 30
0
 11
409.8642027330373
 21
400.1296336654493
 31
0
  0
LINE
  8
1
 62
2
 10
409.6142027330373
 20
394.7858836654493
 30
0
 11
409.8642027330373
 21
395.0671336654493
 31
0
  0
LINE
  8
1
 62
2
 10
408.8642027330373
 20
394.7858836654493
 30
0
 11
409.6142027330373
 21
394.7858836654493
 31
0
  0
LINE
  8
1
 62
2
 10
405.8642027330373
 20
401.5358836654493
 30
0
 11
403.3642027330373
 21
401.5358836654493
 31
0
  0
LINE
  8
1
 62
2
 10
405.8642027330373
 20
400.1296336654493
 30
0
 11
403.3642027330373
 21
400.1296336654493
 31
0
  0
LINE
  8
1
 62
2
 10
405.8642027330373
 20
402.9421336654493
 30
0
 11
405.8642027330373
 21
401.5358836654493
 31
0
  0
LINE
  8
1
 62
2
 10
403.3642027330373
 20
402.9421336654493
 30
0
 11
405.8642027330373
 21
402.9421336654493
 31
0
  0
LINE
  8
1
 62
2
 10
403.3642027330373
 20
395.0671336654493
 30
0
 11
403.3642027330373
 21
400.1296336654493
 31
0
  0
LINE
  8
1
 62
2
 10
397.6142027330373
 20
394.7858836654493
 30
0
 11
400.6142027330373
 21
394.7858836654493
 31
0
  0
LINE
  8
1
 62
2
 10
397.6142027330373
 20
400.1296336654493
 30
0
 11
399.3642027330373
 21
400.1296336654493
 31
0
  0
LINE
  8
1
 62
2
 10
400.6142027330373
 20
399.8483836654493
 30
0
 11
401.6142027330373
 21
399.0046336654493
 31
0
  0
LINE
  8
1
 62
2
 10
398.8642027330373
 20
401.8171336654493
 30
0
 11
400.6142027330373
 21
399.8483836654493
 31
0
  0
LINE
  8
1
 62
2
 10
397.6142027330373
 20
403.5046336654493
 30
0
 11
398.8642027330373
 21
401.8171336654493
 31
0
  0
LINE
  8
1
 62
2
 10
396.3642027330373
 20
401.8171336654493
 30
0
 11
397.6142027330373
 21
403.5046336654493
 31
0
  0
LINE
  8
1
 62
2
 10
394.6142027330373
 20
399.8483836654493
 30
0
 11
396.3642027330373
 21
401.8171336654493
 31
0
  0
LINE
  8
1
 62
2
 10
393.6142027330373
 20
399.0046336654493
 30
0
 11
394.6142027330373
 21
399.8483836654493
 31
0
  0
LINE
  8
1
 62
2
 10
398.8642027330373
 20
395.9108836654493
 30
0
 11
399.3642027330373
 21
397.3171336654493
 31
0
  0
LINE
  8
1
 62
2
 10
395.8642027330373
 20
397.3171336654493
 30
0
 11
396.3642027330373
 21
395.9108836654493
 31
0
  0
LINE
  8
1
 62
2
 10
400.1142027330373
 20
398.4421336654493
 30
0
 11
395.1142027330373
 21
398.4421336654493
 31
0
  0
LINE
  8
1
 62
2
 10
395.8642027330373
 20
400.1296336654493
 30
0
 11
397.6142027330373
 21
400.1296336654493
 31
0
  0
LINE
  8
1
 62
2
 10
397.6142027330373
 20
394.7858836654493
 30
0
 11
397.6142027330373
 21
400.1296336654493
 31
0
  0
LINE
  8
1
 62
2
 10
394.3642027330373
 20
394.7858836654493
 30
0
 11
397.6142027330373
 21
394.7858836654493
 31
0
  0
LINE
  8
1
 62
2
 10
390.8642027330373
 20
397.3171336654493
 30
0
 11
392.1142027330373
 21
399.0046336654493
 31
0
  0
LINE
  8
1
 62
2
 10
388.8642027330373
 20
396.1921336654493
 30
0
 11
390.8642027330373
 21
397.3171336654493
 31
0
  0
LINE
  8
1
 62
2
 10
388.8642027330373
 20
401.2546336654493
 30
0
 11
388.8642027330373
 21
396.1921336654493
 31
0
  0
LINE
  8
1
 62
2
 10
386.8642027330373
 20
399.0046336654493
 30
0
 11
387.1142027330373
 21
401.2546336654493
 31
0
  0
LINE
  8
1
 62
2
 10
386.3642027330373
 20
397.3171336654493
 30
0
 11
386.8642027330373
 21
399.0046336654493
 31
0
  0
LINE
  8
1
 62
2
 10
385.6142027330373
 20
395.9108836654493
 30
0
 11
386.3642027330373
 21
397.3171336654493
 31
0
  0
LINE
  8
1
 62
2
 10
377.1142027330373
 20
398.1608836654493
 30
0
 11
377.1142027330373
 21
396.4733836654493
 31
0
  0
LINE
  8
1
 62
2
 10
379.8642027330373
 20
395.3483836654493
 30
0
 11
381.3642027330373
 21
395.6296336654493
 31
0
  0
LINE
  8
1
 62
2
 10
377.3642027330373
 20
395.6296336654493
 30
0
 11
379.8642027330373
 21
395.3483836654493
 31
0
  0
LINE
  8
1
 62
2
 10
377.1142027330373
 20
396.4733836654493
 30
0
 11
377.3642027330373
 21
395.6296336654493
 31
0
  0
LINE
  8
1
 62
2
 10
377.1142027330373
 20
401.2546336654493
 30
0
 11
377.1142027330373
 21
398.1608836654493
 31
0
  0
LINE
  8
1
 62
2
 10
381.8642027330373
 20
401.8171336654493
 30
0
 11
382.6142027330373
 21
400.9733836654493
 31
0
  0
LINE
  8
1
 62
2
 10
382.1142027330373
 20
400.4108836654493
 30
0
 11
381.3642027330373
 21
401.2546336654493
 31
0
  0
LINE
  8
1
 62
2
 10
379.3642027330373
 20
399.0046336654493
 30
0
 11
380.8642027330373
 21
399.8483836654493
 31
0
  0
LINE
  8
1
 62
2
 10
377.1142027330373
 20
398.1608836654493
 30
0
 11
379.3642027330373
 21
399.0046336654493
 31
0
  0
LINE
  8
1
 62
2
 10
371.6142027330373
 20
397.3171336654493
 30
0
 11
373.1142027330373
 21
395.6296336654493
 31
0
  0
LINE
  8
1
 62
2
 10
370.3642027330373
 20
398.4421336654493
 30
0
 11
371.6142027330373
 21
397.3171336654493
 31
0
  0
LINE
  8
1
 62
2
 10
373.3642027330373
 20
402.3796336654493
 30
0
 11
374.1142027330373
 21
401.5358836654493
 31
0
  0
LINE
  8
1
 62
2
 10
372.8642027330373
 20
401.8171336654493
 30
0
 11
373.6142027330373
 21
400.9733836654493
 31
0
  0
LINE
  8
1
 62
2
 10
371.8642027330373
 20
401.2546336654493
 30
0
 11
368.6142027330373
 21
401.2546336654493
 31
0
  0
LINE
  8
1
 62
2
 10
371.1142027330373
 20
399.5671336654493
 30
0
 11
371.8642027330373
 21
401.2546336654493
 31
0
  0
LINE
  8
1
 62
2
 10
369.3642027330373
 20
397.0358836654493
 30
0
 11
371.1142027330373
 21
399.5671336654493
 31
0
  0
LINE
  8
1
 62
2
 10
367.6142027330373
 20
395.6296336654493
 30
0
 11
369.3642027330373
 21
397.0358836654493
 31
0
  0
LINE
  8
1
 62
2
 10
364.6142027330373
 20
400.9733836654493
 30
0
 11
362.3642027330373
 21
398.4421336654493
 31
0
  0
LINE
  8
1
 62
2
 10
358.8642027330373
 20
400.9733836654493
 30
0
 11
364.6142027330373
 21
400.9733836654493
 31
0
  0
LINE
  8
1
 62
2
 10
361.6142027330373
 20
398.4421336654493
 30
0
 11
361.8642027330373
 21
399.8483836654493
 31
0
  0
LINE
  8
1
 62
2
 10
361.1142027330373
 20
396.7546336654493
 30
0
 11
361.6142027330373
 21
398.4421336654493
 31
0
  0
LINE
  8
1
 62
2
 10
360.1142027330373
 20
395.0671336654493
 30
0
 11
361.1142027330373
 21
396.7546336654493
 31
0
  0
LINE
  8
1
 62
2
  6
DASHDOT
 10
402.1142027330388
 20
629.6599936066548
 30
0
 11
402.1142027330372
 21
467.8464149677129
 31
0
  0
LINE
  8
1
 62
7
 10
452.3642027330372
 20
584.9268499588739
 30
0
 11
351.8642027330372
 21
584.9268499588739
 31
0
  0
LINE
  8
1
 62
7
 10
350.8642027330379
 20
585.9268499588729
 30
0
 11
351.8642027330372
 21
584.9268499588739
 31
0
  0
LINE
  8
1
 62
2
 10
452.3642027330372
 20
585.9268499588729
 30
0
 11
452.3642027330372
 21
584.9268499588739
 31
0
  0
LINE
  8
1
 62
2
  6
DASHDOT
 10
253.5189829763464
 20
528.9268499588736
 30
0
 11
512.5156248008809
 21
528.9268499588736
 31
0
  0
LINE
  8
1
 62
2
  6
DASHDOT
 10
341.4204350680563
 20
567.9478280731457
 30
0
 11
341.4204350680563
 21
564.0629695775947
 31
0
  0
LINE
  8
1
 62
2
  6
DASHDOT
 10
343.3831754530613
 20
565.9268499588739
 30
0
 11
339.5349665659589
 21
565.9268499588739
 31
0
  0
LINE
  8
1
 62
7
 10
423.2918027330372
 20
530.4968499588736
 30
0
 11
422.7770027330373
 21
530.0018499588737
 31
0
  0
LINE
  8
1
 62
7
 10
423.9353027330373
 20
530.8268499588737
 30
0
 11
423.2918027330372
 21
530.4968499588736
 31
0
  0
LINE
  8
1
 62
7
 10
424.4501027330372
 20
530.8268499588737
 30
0
 11
423.9353027330373
 21
530.8268499588737
 31
0
  0
LINE
  8
1
 62
7
 10
425.3510027330373
 20
530.4968499588736
 30
0
 11
424.4501027330372
 21
530.8268499588737
 31
0
  0
LINE
  8
1
 62
7
 10
426.1232027330372
 20
529.8368499588737
 30
0
 11
425.3510027330373
 21
530.4968499588736
 31
0
  0
LINE
  8
1
 62
7
 10
426.5093027330374
 20
529.1768499588736
 30
0
 11
426.1232027330372
 21
529.8368499588737
 31
0
  0
LINE
  8
1
 62
7
 10
426.8954027330371
 20
528.1868499588736
 30
0
 11
426.5093027330374
 21
529.1768499588736
 31
0
  0
LINE
  8
1
 62
7
 10
427.0241027330373
 20
526.8668499588736
 30
0
 11
426.8954027330371
 21
528.1868499588736
 31
0
  0
LINE
  8
1
 62
7
 10
427.0241027330373
 20
520.9268499588736
 30
0
 11
427.0241027330373
 21
526.8668499588736
 31
0
  0
LINE
  8
1
 62
7
 10
425.6084027330373
 20
520.9268499588736
 30
0
 11
427.0241027330373
 21
520.9268499588736
 31
0
  0
LINE
  8
1
 62
7
 10
425.6084027330373
 20
527.0318499588736
 30
0
 11
425.6084027330373
 21
520.9268499588736
 31
0
  0
LINE
  8
1
 62
7
 10
425.4797027330375
 20
527.6918499588737
 30
0
 11
425.6084027330373
 21
527.0318499588736
 31
0
  0
LINE
  8
1
 62
7
 10
425.0936027330374
 20
528.5168499588735
 30
0
 11
425.4797027330375
 21
527.6918499588737
 31
0
  0
LINE
  8
1
 62
7
 10
424.7075027330372
 20
529.0118499588737
 30
0
 11
425.0936027330374
 21
528.5168499588735
 31
0
  0
LINE
  8
1
 62
7
 10
424.0640027330375
 20
529.1768499588736
 30
0
 11
424.7075027330372
 21
529.0118499588737
 31
0
  0
LINE
  8
1
 62
7
 10
423.5492027330371
 20
529.0118499588737
 30
0
 11
424.0640027330375
 21
529.1768499588736
 31
0
  0
LINE
  8
1
 62
7
 10
423.0344027330372
 20
528.5168499588735
 30
0
 11
423.5492027330371
 21
529.0118499588737
 31
0
  0
LINE
  8
1
 62
7
 10
422.7770027330373
 20
527.6918499588737
 30
0
 11
423.0344027330372
 21
528.5168499588735
 31
0
  0
LINE
  8
1
 62
7
 10
422.7770027330373
 20
520.9268499588736
 30
0
 11
422.7770027330373
 21
527.6918499588737
 31
0
  0
LINE
  8
1
 62
7
 10
421.3613027330372
 20
520.9268499588736
 30
0
 11
422.7770027330373
 21
520.9268499588736
 31
0
  0
LINE
  8
1
 62
7
 10
421.3613027330372
 20
527.0318499588736
 30
0
 11
421.3613027330372
 21
520.9268499588736
 31
0
  0
LINE
  8
1
 62
7
 10
421.2326027330375
 20
527.6918499588737
 30
0
 11
421.3613027330372
 21
527.0318499588736
 31
0
  0
LINE
  8
1
 62
7
 10
420.8465027330373
 20
528.5168499588735
 30
0
 11
421.2326027330375
 21
527.6918499588737
 31
0
  0
LINE
  8
1
 62
7
 10
420.4604027330371
 20
529.0118499588737
 30
0
 11
420.8465027330373
 21
528.5168499588735
 31
0
  0
LINE
  8
1
 62
7
 10
419.8169027330375
 20
529.1768499588736
 30
0
 11
420.4604027330371
 21
529.0118499588737
 31
0
  0
LINE
  8
1
 62
7
 10
419.3021027330371
 20
529.0118499588737
 30
0
 11
419.8169027330375
 21
529.1768499588736
 31
0
  0
LINE
  8
1
 62
7
 10
418.7873027330372
 20
528.5168499588735
 30
0
 11
419.3021027330371
 21
529.0118499588737
 31
0
  0
LINE
  8
1
 62
7
 10
418.5299027330372
 20
527.6918499588737
 30
0
 11
418.7873027330372
 21
528.5168499588735
 31
0
  0
LINE
  8
1
 62
7
 10
418.5299027330372
 20
520.9268499588736
 30
0
 11
418.5299027330372
 21
527.6918499588737
 31
0
  0
LINE
  8
1
 62
7
 10
417.1142027330372
 20
520.9268499588736
 30
0
 11
418.5299027330372
 21
520.9268499588736
 31
0
  0
LINE
  8
1
 62
7
 10
417.1142027330372
 20
530.6618499588735
 30
0
 11
417.1142027330372
 21
520.9268499588736
 31
0
  0
LINE
  8
1
 62
7
 10
418.5299027330372
 20
530.6618499588735
 30
0
 11
417.1142027330372
 21
530.6618499588735
 31
0
  0
LINE
  8
1
 62
7
 10
418.5299027330372
 20
529.8368499588737
 30
0
 11
418.5299027330372
 21
530.6618499588735
 31
0
  0
LINE
  8
1
 62
7
 10
418.9160027330374
 20
530.4968499588736
 30
0
 11
418.5299027330372
 21
529.8368499588737
 31
0
  0
LINE
  8
1
 62
7
 10
419.6882027330373
 20
530.8268499588737
 30
0
 11
418.9160027330374
 21
530.4968499588736
 31
0
  0
LINE
  8
1
 62
7
 10
420.2030027330372
 20
530.8268499588737
 30
0
 11
419.6882027330373
 21
530.8268499588737
 31
0
  0
LINE
  8
1
 62
7
 10
421.1039027330373
 20
530.4968499588736
 30
0
 11
420.2030027330372
 21
530.8268499588737
 31
0
  0
LINE
  8
1
 62
7
 10
421.8761027330372
 20
529.8368499588737
 30
0
 11
421.1039027330373
 21
530.4968499588736
 31
0
  0
LINE
  8
1
 62
7
 10
422.3909027330371
 20
529.1768499588736
 30
0
 11
421.8761027330372
 21
529.8368499588737
 31
0
  0
LINE
  8
1
 62
7
 10
422.7770027330373
 20
530.0018499588737
 30
0
 11
422.3909027330371
 21
529.1768499588736
 31
0
  0
LINE
  8
1
 62
7
 10
411.2918027330372
 20
530.4968499588736
 30
0
 11
410.7770027330373
 21
530.0018499588737
 31
0
  0
LINE
  8
1
 62
7
 10
411.9353027330373
 20
530.8268499588737
 30
0
 11
411.2918027330372
 21
530.4968499588736
 31
0
  0
LINE
  8
1
 62
7
 10
412.4501027330372
 20
530.8268499588737
 30
0
 11
411.9353027330373
 21
530.8268499588737
 31
0
  0
LINE
  8
1
 62
7
 10
413.3510027330373
 20
530.4968499588736
 30
0
 11
412.4501027330372
 21
530.8268499588737
 31
0
  0
LINE
  8
1
 62
7
 10
414.1232027330372
 20
529.8368499588737
 30
0
 11
413.3510027330373
 21
530.4968499588736
 31
0
  0
LINE
  8
1
 62
7
 10
414.5093027330374
 20
529.1768499588736
 30
0
 11
414.1232027330372
 21
529.8368499588737
 31
0
  0
LINE
  8
1
 62
7
 10
414.8954027330371
 20
528.1868499588736
 30
0
 11
414.5093027330374
 21
529.1768499588736
 31
0
  0
LINE
  8
1
 62
7
 10
415.0241027330373
 20
526.8668499588736
 30
0
 11
414.8954027330371
 21
528.1868499588736
 31
0
  0
LINE
  8
1
 62
7
 10
415.0241027330373
 20
520.9268499588736
 30
0
 11
415.0241027330373
 21
526.8668499588736
 31
0
  0
LINE
  8
1
 62
7
 10
413.6084027330373
 20
520.9268499588736
 30
0
 11
415.0241027330373
 21
520.9268499588736
 31
0
  0
LINE
  8
1
 62
7
 10
413.6084027330373
 20
527.0318499588736
 30
0
 11
413.6084027330373
 21
520.9268499588736
 31
0
  0
LINE
  8
1
 62
7
 10
413.4797027330375
 20
527.6918499588737
 30
0
 11
413.6084027330373
 21
527.0318499588736
 31
0
  0
LINE
  8
1
 62
7
 10
413.0936027330374
 20
528.5168499588735
 30
0
 11
413.4797027330375
 21
527.6918499588737
 31
0
  0
LINE
  8
1
 62
7
 10
412.7075027330372
 20
529.0118499588737
 30
0
 11
413.0936027330374
 21
528.5168499588735
 31
0
  0
LINE
  8
1
 62
7
 10
412.0640027330375
 20
529.1768499588736
 30
0
 11
412.7075027330372
 21
529.0118499588737
 31
0
  0
LINE
  8
1
 62
7
 10
411.5492027330371
 20
529.0118499588737
 30
0
 11
412.0640027330375
 21
529.1768499588736
 31
0
  0
LINE
  8
1
 62
7
 10
411.0344027330372
 20
528.5168499588735
 30
0
 11
411.5492027330371
 21
529.0118499588737
 31
0
  0
LINE
  8
1
 62
7
 10
410.7770027330373
 20
527.6918499588737
 30
0
 11
411.0344027330372
 21
528.5168499588735
 31
0
  0
LINE
  8
1
 62
7
 10
410.7770027330373
 20
520.9268499588736
 30
0
 11
410.7770027330373
 21
527.6918499588737
 31
0
  0
LINE
  8
1
 62
7
 10
409.3613027330372
 20
520.9268499588736
 30
0
 11
410.7770027330373
 21
520.9268499588736
 31
0
  0
LINE
  8
1
 62
7
 10
409.3613027330372
 20
527.0318499588736
 30
0
 11
409.3613027330372
 21
520.9268499588736
 31
0
  0
LINE
  8
1
 62
7
 10
409.2326027330375
 20
527.6918499588737
 30
0
 11
409.3613027330372
 21
527.0318499588736
 31
0
  0
LINE
  8
1
 62
7
 10
408.8465027330373
 20
528.5168499588735
 30
0
 11
409.2326027330375
 21
527.6918499588737
 31
0
  0
LINE
  8
1
 62
7
 10
408.4604027330371
 20
529.0118499588737
 30
0
 11
408.8465027330373
 21
528.5168499588735
 31
0
  0
LINE
  8
1
 62
7
 10
407.8169027330375
 20
529.1768499588736
 30
0
 11
408.4604027330371
 21
529.0118499588737
 31
0
  0
LINE
  8
1
 62
7
 10
407.3021027330371
 20
529.0118499588737
 30
0
 11
407.8169027330375
 21
529.1768499588736
 31
0
  0
LINE
  8
1
 62
7
 10
406.7873027330372
 20
528.5168499588735
 30
0
 11
407.3021027330371
 21
529.0118499588737
 31
0
  0
LINE
  8
1
 62
7
 10
406.5299027330372
 20
527.6918499588737
 30
0
 11
406.7873027330372
 21
528.5168499588735
 31
0
  0
LINE
  8
1
 62
7
 10
406.5299027330372
 20
520.9268499588736
 30
0
 11
406.5299027330372
 21
527.6918499588737
 31
0
  0
LINE
  8
1
 62
7
 10
405.1142027330372
 20
520.9268499588736
 30
0
 11
406.5299027330372
 21
520.9268499588736
 31
0
  0
LINE
  8
1
 62
7
 10
405.1142027330372
 20
530.6618499588735
 30
0
 11
405.1142027330372
 21
520.9268499588736
 31
0
  0
LINE
  8
1
 62
7
 10
406.5299027330372
 20
530.6618499588735
 30
0
 11
405.1142027330372
 21
530.6618499588735
 31
0
  0
LINE
  8
1
 62
7
 10
406.5299027330372
 20
529.8368499588737
 30
0
 11
406.5299027330372
 21
530.6618499588735
 31
0
  0
LINE
  8
1
 62
7
 10
406.9160027330374
 20
530.4968499588736
 30
0
 11
406.5299027330372
 21
529.8368499588737
 31
0
  0
LINE
  8
1
 62
7
 10
407.6882027330373
 20
530.8268499588737
 30
0
 11
406.9160027330374
 21
530.4968499588736
 31
0
  0
LINE
  8
1
 62
7
 10
408.2030027330372
 20
530.8268499588737
 30
0
 11
407.6882027330373
 21
530.8268499588737
 31
0
  0
LINE
  8
1
 62
7
 10
409.1039027330373
 20
530.4968499588736
 30
0
 11
408.2030027330372
 21
530.8268499588737
 31
0
  0
LINE
  8
1
 62
7
 10
409.8761027330372
 20
529.8368499588737
 30
0
 11
409.1039027330373
 21
530.4968499588736
 31
0
  0
LINE
  8
1
 62
7
 10
410.3909027330371
 20
529.1768499588736
 30
0
 11
409.8761027330372
 21
529.8368499588737
 31
0
  0
LINE
  8
1
 62
7
 10
410.7770027330373
 20
530.0018499588737
 30
0
 11
410.3909027330371
 21
529.1768499588736
 31
0
  0
LINE
  8
1
 62
7
 10
399.1017027330374
 20
521.4893499588736
 30
0
 11
399.7007652330373
 21
521.8643499588736
 31
0
  0
LINE
  8
1
 62
7
 10
398.1032652330375
 20
521.1143499588736
 30
0
 11
399.1017027330374
 21
521.4893499588736
 31
0
  0
LINE
  8
1
 62
7
 10
397.3045152330371
 20
520.9268499588736
 30
0
 11
398.1032652330375
 21
521.1143499588736
 31
0
  0
LINE
  8
1
 62
7
 10
395.9067027330372
 20
520.9268499588736
 30
0
 11
397.3045152330371
 21
520.9268499588736
 31
0
  0
LINE
  8
1
 62
7
 10
395.1079527330373
 20
521.1143499588736
 30
0
 11
395.9067027330372
 21
520.9268499588736
 31
0
  0
LINE
  8
1
 62
7
 10
394.1095152330374
 20
521.4893499588736
 30
0
 11
395.1079527330373
 21
521.1143499588736
 31
0
  0
LINE
  8
1
 62
7
 10
393.5104527330374
 20
521.8643499588736
 30
0
 11
394.1095152330374
 21
521.4893499588736
 31
0
  0
LINE
  8
1
 62
7
 10
392.9113902330375
 20
522.4268499588736
 30
0
 11
393.5104527330374
 21
521.8643499588736
 31
0
  0
LINE
  8
1
 62
7
 10
392.3123277330371
 20
523.1768499588736
 30
0
 11
392.9113902330375
 21
522.4268499588736
 31
0
  0
LINE
  8
1
 62
7
 10
391.9129527330371
 20
523.9268499588736
 30
0
 11
392.3123277330371
 21
523.1768499588736
 31
0
  0
LINE
  8
1
 62
7
 10
391.5135777330372
 20
524.8643499588736
 30
0
 11
391.9129527330371
 21
523.9268499588736
 31
0
  0
LINE
  8
1
 62
7
 10
391.3138902330372
 20
525.9893499588736
 30
0
 11
391.5135777330372
 21
524.8643499588736
 31
0
  0
LINE
  8
1
 62
7
 10
391.1142027330372
 20
527.6768499588736
 30
0
 11
391.3138902330372
 21
525.9893499588736
 31
0
  0
LINE
  8
1
 62
7
 10
391.1142027330372
 20
529.1768499588736
 30
0
 11
391.1142027330372
 21
527.6768499588736
 31
0
  0
LINE
  8
1
 62
7
 10
391.3138902330372
 20
530.8643499588736
 30
0
 11
391.1142027330372
 21
529.1768499588736
 31
0
  0
LINE
  8
1
 62
7
 10
391.5135777330372
 20
531.9893499588736
 30
0
 11
391.3138902330372
 21
530.8643499588736
 31
0
  0
LINE
  8
1
 62
7
 10
391.9129527330371
 20
532.9268499588736
 30
0
 11
391.5135777330372
 21
531.9893499588736
 31
0
  0
LINE
  8
1
 62
7
 10
392.3123277330371
 20
533.6768499588736
 30
0
 11
391.9129527330371
 21
532.9268499588736
 31
0
  0
LINE
  8
1
 62
7
 10
392.9113902330375
 20
534.4268499588736
 30
0
 11
392.3123277330371
 21
533.6768499588736
 31
0
  0
LINE
  8
1
 62
7
 10
393.5104527330374
 20
534.9893499588736
 30
0
 11
392.9113902330375
 21
534.4268499588736
 31
0
  0
LINE
  8
1
 62
7
 10
394.1095152330374
 20
535.3643499588736
 30
0
 11
393.5104527330374
 21
534.9893499588736
 31
0
  0
LINE
  8
1
 62
7
 10
395.1079527330373
 20
535.7393499588736
 30
0
 11
394.1095152330374
 21
535.3643499588736
 31
0
  0
LINE
  8
1
 62
7
 10
395.9067027330372
 20
535.9268499588736
 30
0
 11
395.1079527330373
 21
535.7393499588736
 31
0
  0
LINE
  8
1
 62
7
 10
397.3045152330371
 20
535.9268499588736
 30
0
 11
395.9067027330372
 21
535.9268499588736
 31
0
  0
LINE
  8
1
 62
7
 10
398.1032652330375
 20
535.7393499588736
 30
0
 11
397.3045152330371
 21
535.9268499588736
 31
0
  0
LINE
  8
1
 62
7
 10
399.1017027330374
 20
535.3643499588736
 30
0
 11
398.1032652330375
 21
535.7393499588736
 31
0
  0
LINE
  8
1
 62
7
 10
399.7007652330373
 20
534.9893499588736
 30
0
 11
399.1017027330374
 21
535.3643499588736
 31
0
  0
LINE
  8
1
 62
7
 10
400.2998277330373
 20
534.4268499588736
 30
0
 11
399.7007652330373
 21
534.9893499588736
 31
0
  0
LINE
  8
1
 62
7
 10
400.8988902330372
 20
533.6768499588736
 30
0
 11
400.2998277330373
 21
534.4268499588736
 31
0
  0
LINE
  8
1
 62
7
 10
401.2982652330372
 20
532.9268499588736
 30
0
 11
400.8988902330372
 21
533.6768499588736
 31
0
  0
LINE
  8
1
 62
7
 10
401.6976402330371
 20
531.9893499588736
 30
0
 11
401.2982652330372
 21
532.9268499588736
 31
0
  0
LINE
  8
1
 62
7
 10
401.8973277330371
 20
530.8643499588736
 30
0
 11
401.6976402330371
 21
531.9893499588736
 31
0
  0
LINE
  8
1
 62
7
 10
402.0970152330371
 20
529.1768499588736
 30
0
 11
401.8973277330371
 21
530.8643499588736
 31
0
  0
LINE
  8
1
 62
7
 10
402.0970152330371
 20
527.6768499588736
 30
0
 11
402.0970152330371
 21
529.1768499588736
 31
0
  0
LINE
  8
1
 62
7
 10
401.8973277330371
 20
525.9893499588736
 30
0
 11
402.0970152330371
 21
527.6768499588736
 31
0
  0
LINE
  8
1
 62
7
 10
401.6976402330371
 20
524.8643499588736
 30
0
 11
401.8973277330371
 21
525.9893499588736
 31
0
  0
LINE
  8
1
 62
7
 10
401.2982652330372
 20
523.9268499588736
 30
0
 11
401.6976402330371
 21
524.8643499588736
 31
0
  0
LINE
  8
1
 62
7
 10
400.8988902330372
 20
523.1768499588736
 30
0
 11
401.2982652330372
 21
523.9268499588736
 31
0
  0
LINE
  8
1
 62
7
 10
400.2998277330373
 20
522.4268499588736
 30
0
 11
400.8988902330372
 21
523.1768499588736
 31
0
  0
LINE
  8
1
 62
7
 10
399.7007652330373
 20
521.8643499588736
 30
0
 11
400.2998277330373
 21
522.4268499588736
 31
0
  0
LINE
  8
1
 62
7
 10
395.1079527330373
 20
523.1768499588736
 30
0
 11
395.9067027330372
 21
522.8018499588736
 31
0
  0
LINE
  8
1
 62
7
 10
394.3092027330374
 20
523.7393499588736
 30
0
 11
395.1079527330373
 21
523.1768499588736
 31
0
  0
LINE
  8
1
 62
7
 10
393.9098277330374
 20
524.3018499588736
 30
0
 11
394.3092027330374
 21
523.7393499588736
 31
0
  0
LINE
  8
1
 62
7
 10
393.5104527330374
 20
525.2393499588736
 30
0
 11
393.9098277330374
 21
524.3018499588736
 31
0
  0
LINE
  8
1
 62
7
 10
393.3107652330374
 20
527.3018499588736
 30
0
 11
393.5104527330374
 21
525.2393499588736
 31
0
  0
LINE
  8
1
 62
7
 10
393.3107652330374
 20
529.5518499588736
 30
0
 11
393.3107652330374
 21
527.3018499588736
 31
0
  0
LINE
  8
1
 62
7
 10
393.5104527330374
 20
531.6143499588736
 30
0
 11
393.3107652330374
 21
529.5518499588736
 31
0
  0
LINE
  8
1
 62
7
 10
393.9098277330374
 20
532.5518499588736
 30
0
 11
393.5104527330374
 21
531.6143499588736
 31
0
  0
LINE
  8
1
 62
7
 10
394.3092027330374
 20
533.1143499588736
 30
0
 11
393.9098277330374
 21
532.5518499588736
 31
0
  0
LINE
  8
1
 62
7
 10
395.1079527330373
 20
533.6768499588736
 30
0
 11
394.3092027330374
 21
533.1143499588736
 31
0
  0
LINE
  8
1
 62
7
 10
395.9067027330372
 20
534.0518499588736
 30
0
 11
395.1079527330373
 21
533.6768499588736
 31
0
  0
LINE
  8
1
 62
7
 10
397.3045152330371
 20
534.0518499588736
 30
0
 11
395.9067027330372
 21
534.0518499588736
 31
0
  0
LINE
  8
1
 62
7
 10
398.1032652330375
 20
533.6768499588736
 30
0
 11
397.3045152330371
 21
534.0518499588736
 31
0
  0
LINE
  8
1
 62
7
 10
398.9020152330374
 20
533.1143499588736
 30
0
 11
398.1032652330375
 21
533.6768499588736
 31
0
  0
LINE
  8
1
 62
7
 10
399.3013902330374
 20
532.5518499588736
 30
0
 11
398.9020152330374
 21
533.1143499588736
 31
0
  0
LINE
  8
1
 62
7
 10
399.7007652330373
 20
531.6143499588736
 30
0
 11
399.3013902330374
 21
532.5518499588736
 31
0
  0
LINE
  8
1
 62
7
 10
399.9004527330373
 20
529.5518499588736
 30
0
 11
399.7007652330373
 21
531.6143499588736
 31
0
  0
LINE
  8
1
 62
7
 10
399.9004527330373
 20
527.3018499588736
 30
0
 11
399.9004527330373
 21
529.5518499588736
 31
0
  0
LINE
  8
1
 62
7
 10
399.7007652330373
 20
525.2393499588736
 30
0
 11
399.9004527330373
 21
527.3018499588736
 31
0
  0
LINE
  8
1
 62
7
 10
399.3013902330374
 20
524.3018499588736
 30
0
 11
399.7007652330373
 21
525.2393499588736
 31
0
  0
LINE
  8
1
 62
7
 10
398.9020152330374
 20
523.7393499588736
 30
0
 11
399.3013902330374
 21
524.3018499588736
 31
0
  0
LINE
  8
1
 62
7
 10
398.1032652330375
 20
523.1768499588736
 30
0
 11
398.9020152330374
 21
523.7393499588736
 31
0
  0
LINE
  8
1
 62
7
 10
397.3045152330371
 20
522.8018499588736
 30
0
 11
398.1032652330375
 21
523.1768499588736
 31
0
  0
LINE
  8
1
 62
7
 10
395.9067027330372
 20
522.8018499588736
 30
0
 11
397.3045152330371
 21
522.8018499588736
 31
0
  0
LINE
  8
1
 62
7
 10
486.1142027330349
 20
565.0398499588525
 30
0
 11
486.1142027330349
 21
492.8138499588983
 31
0
  0
LINE
  8
1
 62
7
 10
285.6352027330369
 20
566.5188499588737
 30
0
 11
265.593202733037
 21
566.5188499588737
 31
0
  0
LINE
  8
1
 62
7
 10
408.1142027330372
 20
540.9268499588736
 30
0
 11
418.1142027330372
 21
543.9268499588736
 31
0
  0
LINE
  8
1
 62
7
 10
408.1142027330372
 20
542.9268499588734
 30
0
 11
408.1142027330372
 21
540.9268499588736
 31
0
  0
LINE
  8
1
 62
7
 10
386.1142027330372
 20
542.9268499588734
 30
0
 11
408.1142027330372
 21
542.9268499588734
 31
0
  0
LINE
  8
1
 62
7
 10
386.1142027330372
 20
544.9268499588736
 30
0
 11
386.1142027330372
 21
542.9268499588734
 31
0
  0
LINE
  8
1
 62
7
 10
408.1142027330372
 20
544.9268499588736
 30
0
 11
386.1142027330372
 21
544.9268499588736
 31
0
  0
LINE
  8
1
 62
7
 10
408.1142027330372
 20
546.9268499588734
 30
0
 11
408.1142027330372
 21
544.9268499588736
 31
0
  0
LINE
  8
1
 62
7
 10
418.1142027330372
 20
543.9268499588736
 30
0
 11
408.1142027330372
 21
546.9268499588734
 31
0
  0
LINE
  8
1
 62
7
 10
291.1142027330372
 20
499.9268499588739
 30
0
 11
291.9439927303958
 21
499.9268499588739
 31
0
  0
LINE
  8
1
 62
7
 10
287.1142027330372
 20
492.8138499588738
 30
0
 11
287.1142027330372
 21
565.0398499588737
 31
0
  0
LINE
  8
1
 62
7
 10
364.6142027330372
 20
473.9268499588738
 30
0
 11
360.485048950826
 21
478.080037893078
 31
0
  0
LINE
  8
1
 62
7
 10
339.9967749141967
 20
562.9268499588739
 30
0
 11
309.5856079426932
 21
562.9268499588739
 31
0
  0
LINE
  8
1
 62
7
 10
345.9769339365395
 20
568.9268499588739
 30
0
 11
342.067842726062
 21
568.9268499588739
 31
0
  0
LINE
  8
1
 62
7
 10
264.1142027330372
 20
492.8138499588738
 30
0
 11
264.1142027330372
 21
565.0398499588737
 31
0
  0
LINE
  8
1
 62
7
 10
285.6352027330369
 20
491.3348499588738
 30
0
 11
287.1142027330372
 21
492.8138499588738
 31
0
  0
LINE
  8
1
 62
7
 10
265.593202733037
 20
491.3348499588738
 30
0
 11
285.6352027330369
 21
491.3348499588738
 31
0
  0
LINE
  8
1
 62
7
 10
264.1142027330372
 20
492.8138499588738
 30
0
 11
265.593202733037
 21
491.3348499588738
 31
0
  0
LINE
  8
1
 62
2
 10
287.1142027330372
 20
492.8138499588738
 30
0
 11
264.1142027330372
 21
492.8138499588738
 31
0
  0
LINE
  8
1
 62
7
 10
287.1142027330372
 20
565.0398499588737
 30
0
 11
285.6352027330369
 21
566.5188499588737
 31
0
  0
LINE
  8
1
 62
7
 10
265.593202733037
 20
566.5188499588737
 30
0
 11
264.1142027330372
 21
565.0398499588737
 31
0
  0
LINE
  8
1
 62
2
 10
264.1142027330372
 20
565.0398499588737
 30
0
 11
287.1142027330372
 21
565.0398499588737
 31
0
  0
LINE
  8
1
 62
7
 10
353.1142027330372
 20
579.4252483160358
 30
0
 11
353.1142027330372
 21
582.4901513726716
 31
0
  0
LINE
  8
1
 62
7
 10
400.1142027330372
 20
474.9379749573479
 30
0
 11
400.1142027330372
 21
473.9268499588738
 31
0
  0
LINE
  8
1
 62
7
 10
364.6142027330372
 20
473.9268499588738
 30
0
 11
439.6142027330372
 21
473.9268499588738
 31
0
  0
LINE
  8
1
 62
7
 10
404.1142027330372
 20
473.9268499588738
 30
0
 11
404.1142027330372
 21
474.9379749573479
 31
0
  0
LINE
  8
1
 62
7
 10
439.6142027330372
 20
473.9268499588738
 30
0
 11
452.3709192355597
 21
486.7578182038913
 31
0
  0
LINE
  8
1
 62
7
 10
460.939742107085
 20
496.4268499588739
 30
0
 11
482.1329678743534
 21
496.4268499588739
 31
0
  0
LINE
  8
1
 62
7
 10
451.1142027330372
 20
582.4901513726716
 30
0
 11
451.1142027330372
 21
579.4252483160358
 31
0
  0
LINE
  8
1
 62
7
 10
509.1142027330372
 20
565.0398499588737
 30
0
 11
509.1142027330372
 21
492.8138499588738
 31
0
  0
LINE
  8
1
 62
7
 10
486.1142027330372
 20
492.8138499588738
 30
0
 11
487.593202733037
 21
491.3348499588738
 31
0
  0
LINE
  8
1
 62
7
 10
487.593202733037
 20
491.3348499588738
 30
0
 11
507.6352027330369
 21
491.3348499588738
 31
0
  0
LINE
  8
1
 62
7
 10
507.6352027330369
 20
491.3348499588738
 30
0
 11
509.1142027330372
 21
492.8138499588738
 31
0
  0
LINE
  8
1
 62
2
 10
509.1142027330372
 20
492.8138499588738
 30
0
 11
486.1142027330372
 21
492.8138499588738
 31
0
  0
LINE
  8
1
 62
7
 10
487.593202733037
 20
566.5188499588737
 30
0
 11
486.1142027330372
 21
565.0398499588737
 31
0
  0
LINE
  8
1
 62
7
 10
507.6352027330369
 20
566.5188499588737
 30
0
 11
487.593202733037
 21
566.5188499588737
 31
0
  0
LINE
  8
1
 62
7
 10
509.1142027330372
 20
565.0398499588737
 30
0
 11
507.6352027330369
 21
566.5188499588737
 31
0
  0
LINE
  8
1
 62
2
 10
486.1142027330372
 20
565.0398499588737
 30
0
 11
509.1142027330372
 21
565.0398499588737
 31
0
  0
LINE
  8
1
 62
2
 10
351.8642027330372
 20
584.9268499588739
 30
0
 11
351.8642027330372
 21
585.9268499588729
 31
0
  0
LINE
  8
1
 62
7
 10
452.3642027330372
 20
584.9268499588739
 30
0
 11
453.3642027330363
 21
585.9268499588729
 31
0
  0
LINE
  8
1
 62
7
 10
333.5825613518234
 20
562.9268499588739
 30
0
 11
337.8252020389429
 21
567.1694906459932
 31
0
  0
LINE
  8
1
 62
7
 10
386.2018792259275
 20
525.1251986490267
 30
0
 11
386.2018792259275
 21
527.1119789535621
 31
0
  0
LINE
  8
1
 62
7
 10
377.1142027330376
 20
528.303921743382
 30
0
 11
379.6402317748631
 21
528.3039217432488
 31
0
  0
LINE
  8
1
 62
7
 10
377.1142027330376
 20
524.7447035604173
 30
0
 11
379.2298125544327
 21
524.7447035604173
 31
0
  0
LINE
  8
1
 62
7
 10
387.4780938006285
 20
534.0077330390882
 30
0
 11
378.8726380186346
 21
534.0077330390882
 31
0
  0
LINE
  8
1
 62
7
 10
378.8726380186346
 20
534.0077330390882
 30
0
 11
378.8726380186346
 21
530.2377494452608
 31
0
  0
LINE
  8
1
 62
7
 10
387.4780938006285
 20
535.9268499588736
 30
0
 11
387.4780938006285
 21
534.0077330390882
 31
0
  0
LINE
  8
1
 62
7
 10
387.4780938006285
 20
535.9268499588736
 30
0
 11
377.1142027330372
 21
535.9268499588736
 31
0
  0
LINE
  8
1
 62
7
 10
377.1142027330372
 20
535.9268499588736
 30
0
 11
377.1142027330376
 21
528.303921743382
 31
0
  0
LINE
  8
1
 62
7
 10
388.1142027330372
 20
524.7447035604173
 30
0
 11
388.1142027330372
 21
527.3993894307637
 31
0
  0
LINE
  8
1
 62
7
 10
486.1142027330372
 20
565.0398499588737
 30
0
 11
486.1142027330349
 21
565.0398499588716
 31
0
  0
LINE
  8
1
 62
7
 10
461.5139339581658
 20
566.3417422266396
 30
0
 11
481.052780161712
 21
561.5423228974871
 31
0
  0
LINE
  8
1
 62
7
 10
339.1142027330375
 20
705.0662930784361
 30
0
 11
338.9888554946772
 21
704.2761740558606
 31
0
  0
LINE
  8
1
 62
7
 10
338.9888554946772
 20
704.2761740558606
 30
0
 11
342.9888554946772
 21
703.6416001003988
 31
0
  0
LINE
  8
1
 62
7
 10
342.9888554946772
 20
703.6416001003988
 30
0
 11
343.1142027330375
 21
704.4317191229741
 31
0
  0
LINE
  8
1
 62
7
 10
339.1142017198374
 20
742.7907311283973
 30
0
 11
334.582561351824
 21
742.7907311283973
 31
0
  0
LINE
  8
1
 62
2
  6
DASHDOT
 10
402.1142027330375
 20
809.7526928017091
 30
0
 11
402.1142027330375
 21
674.1909153722202
 31
0
  0
LINE
  8
1
 62
2
  6
DASHDOT
 10
516.5347905282557
 20
744.2907311283973
 30
0
 11
258.6216763030598
 21
744.2907311283973
 31
0
  0
LINE
  8
1
 62
7
 10
509.1142027330375
 20
780.4037311283971
 30
0
 11
509.1142027330375
 21
708.1777311283972
 31
0
  0
LINE
  8
1
 62
7
 10
486.1142027330375
 20
708.1777311283972
 30
0
 11
487.5932027330376
 21
706.6987311283972
 31
0
  0
LINE
  8
1
 62
7
 10
487.5932027330376
 20
706.6987311283972
 30
0
 11
507.6352027330375
 21
706.6987311283972
 31
0
  0
LINE
  8
1
 62
7
 10
507.6352027330375
 20
706.6987311283972
 30
0
 11
509.1142027330375
 21
708.1777311283972
 31
0
  0
LINE
  8
1
 62
2
 10
509.1142027330375
 20
708.1777311283972
 30
0
 11
486.1142027330375
 21
708.1777311283972
 31
0
  0
LINE
  8
1
 62
7
 10
487.5932027330376
 20
781.8827311283972
 30
0
 11
486.1142027330284
 21
780.403731128388
 31
0
  0
LINE
  8
1
 62
7
 10
507.6352027330375
 20
781.8827311283972
 30
0
 11
487.5932027330376
 21
781.8827311283972
 31
0
  0
LINE
  8
1
 62
7
 10
509.1142027330375
 20
780.4037311283971
 30
0
 11
507.6352027330375
 21
781.8827311283972
 31
0
  0
LINE
  8
1
 62
2
 10
486.1142027330375
 20
780.4037311283971
 30
0
 11
509.1142027330375
 21
780.4037311283971
 31
0
  0
LINE
  8
1
 62
7
 10
264.1142027330375
 20
708.1777311283972
 30
0
 11
264.1142027330375
 21
780.4037311283971
 31
0
  0
LINE
  8
1
 62
7
 10
285.6352027330375
 20
706.6987311283972
 30
0
 11
287.1142027330375
 21
708.1777311283972
 31
0
  0
LINE
  8
1
 62
7
 10
265.5932027330376
 20
706.6987311283972
 30
0
 11
285.6352027330375
 21
706.6987311283972
 31
0
  0
LINE
  8
1
 62
7
 10
264.1142027330375
 20
708.1777311283972
 30
0
 11
265.5932027330376
 21
706.6987311283972
 31
0
  0
LINE
  8
1
 62
2
 10
287.1142027330375
 20
708.1777311283972
 30
0
 11
264.1142027330375
 21
708.1777311283972
 31
0
  0
LINE
  8
1
 62
7
 10
287.1142027330375
 20
780.4037311283971
 30
0
 11
285.6352027330375
 21
781.8827311283972
 31
0
  0
LINE
  8
1
 62
7
 10
285.6352027330375
 20
781.8827311283972
 30
0
 11
265.5932027330376
 21
781.8827311283972
 31
0
  0
LINE
  8
1
 62
7
 10
265.5932027330376
 20
781.8827311283972
 30
0
 11
264.1142027330375
 21
780.4037311283971
 31
0
  0
LINE
  8
1
 62
2
 10
264.1142027330375
 20
780.4037311283971
 30
0
 11
287.1142027330375
 21
780.4037311283971
 31
0
  0
LINE
  8
1
 62
7
 10
448.8716235825998
 20
784.666658180565
 30
0
 11
481.495952038426
 21
777.7673822199463
 31
0
  0
LINE
  8
1
 62
7
 10
486.1142027330375
 20
780.4037311283971
 30
0
 11
486.1142027330375
 21
708.1777311283972
 31
0
  0
LINE
  8
1
 62
7
 10
481.495952038426
 20
710.8140800368478
 30
0
 11
448.8716235825998
 21
703.9148040762291
 31
0
  0
LINE
  8
1
 62
7
 10
334.582561351824
 20
745.7907311283973
 30
0
 11
339.1142017198374
 21
745.7907311283973
 31
0
  0
LINE
  8
1
 62
7
 10
287.1142027330375
 20
780.4037311283971
 30
0
 11
287.1142027330375
 21
708.1777311283972
 31
0
  0
LINE
  8
1
 62
7
 10
303.5351844520227
 20
777.8707895878499
 30
0
 11
356.6983657332926
 21
786.3047821454977
 31
0
  0
LINE
  8
1
 62
7
 10
356.6983657332926
 20
702.2766801112966
 30
0
 11
303.5351844520227
 21
710.7106726689444
 31
0
  0
LINE
  8
1
 62
7
 10
327.1142027330375
 20
706.9700149448217
 30
0
 11
326.9888554946772
 21
706.1798959222463
 31
0
  0
LINE
  8
1
 62
7
 10
326.9888554946772
 20
706.1798959222463
 30
0
 11
330.9888554946772
 21
705.5453219667845
 31
0
  0
LINE
  8
1
 62
7
 10
330.9888554946772
 20
705.5453219667845
 30
0
 11
331.1142027330375
 21
706.3354409893598
 31
0
  0
LINE
  8
1
 62
7
 10
333.1142027330375
 20
706.0181540116289
 30
0
 11
332.9888554946772
 21
705.2280349890536
 31
0
  0
LINE
  8
1
 62
7
 10
332.9888554946772
 20
705.2280349890536
 30
0
 11
336.9888554946772
 21
704.5934610335917
 31
0
  0
LINE
  8
1
 62
7
 10
336.9888554946772
 20
704.5934610335917
 30
0
 11
337.1142027330375
 21
705.3835800561672
 31
0
  0
LINE
  8
0
 62
7
 10
443.5449703586374
 20
706.5537564717972
 30
0
 11
443.1924945664374
 21
706.4218811951973
 31
0
  0
LINE
  8
0
 62
7
 10
336.6142041039375
 20
742.7907311152974
 30
0
 11
336.6142041039375
 21
745.7907311413974
 31
0
  0
LINE
  8
0
 62
7
 10
406.1142029230374
 20
680.2907280884974
 30
0
 11
398.1142025430374
 21
680.2907280884974
 31
0
  0
LINE
  8
0
 62
7
 10
397.1142028448375
 20
681.2907301150974
 30
0
 11
397.1142028448375
 21
687.6073994003973
 31
0
  0
LINE
  8
0
 62
7
 10
407.1142026213374
 20
687.6073994003973
 30
0
 11
407.1142026213374
 21
681.2907301150974
 31
0
  0
LINE
  8
0
 62
7
 10
465.1142037463376
 20
739.2907312400973
 30
0
 11
458.7975344610375
 21
739.2907312400973
 31
0
  0
LINE
  8
0
 62
7
 10
458.7975344610375
 20
749.2907310165972
 30
0
 11
465.1142037463376
 21
749.2907310165972
 31
0
  0
LINE
  8
0
 62
7
 10
466.1142057729375
 20
748.2907313182973
 30
0
 11
466.1142057729375
 21
740.2907309383973
 31
0
  0
LINE
  8
0
 62
7
 10
407.1142026213374
 20
807.2907321415974
 30
0
 11
407.1142026213374
 21
800.9740628562975
 31
0
  0
LINE
  8
0
 62
7
 10
397.1142028448375
 20
800.9740628562975
 30
0
 11
397.1142028448375
 21
807.2907321415974
 31
0
  0
LINE
  8
0
 62
7
 10
398.1142025430374
 20
808.2907341681973
 30
0
 11
406.1142029230374
 21
808.2907341681973
 31
0
  0
LINE
  8
0
 62
7
 10
348.1006785285374
 20
740.2907309383973
 30
0
 11
340.1142037463375
 21
740.2907309383973
 31
0
  0
LINE
  8
0
 62
7
 10
347.3419486535374
 20
739.2907312400973
 30
0
 11
347.3419486535374
 21
740.2907309383973
 31
0
  0
LINE
  8
0
 62
7
 10
340.1142037463375
 20
748.2907313182973
 30
0
 11
348.1006785285374
 21
748.2907313182973
 31
0
  0
LINE
  8
0
 62
7
 10
347.3419486535374
 20
748.2907313182973
 30
0
 11
347.3419486535374
 21
749.2907310165972
 31
0
  0
LINE
  8
0
 62
7
 10
339.2481780601374
 20
740.7907310202972
 30
0
 11
347.7252623987374
 21
740.7907310202972
 31
0
  0
LINE
  8
0
 62
7
 10
347.7252623987374
 20
747.7907312363973
 30
0
 11
339.2481780601374
 21
747.7907312363973
 31
0
  0
LINE
  8
0
 62
7
 10
339.1142017198374
 20
741.2907311022973
 30
0
 11
339.1142017198374
 21
747.2907311543972
 31
0
  0
LINE
  8
0
 62
7
 10
348.1008685184374
 20
748.2853869237974
 30
0
 11
348.1006785285374
 21
748.2907313182973
 31
0
  0
LINE
  8
0
 62
7
 10
347.7252623987374
 20
747.7907312363973
 30
0
 11
348.1008685184374
 21
748.2853869237974
 31
0
  0
LINE
  8
0
 62
7
 10
347.7252623987374
 20
740.7907310202972
 30
0
 11
348.1008685184374
 21
740.2960753329974
 31
0
  0
LINE
  8
0
 62
7
 10
348.1008685184374
 20
740.2960753329974
 30
0
 11
348.1006785285374
 21
740.2907309383973
 31
0
  0
LINE
  8
0
 62
7
 10
387.8642027256374
 20
767.6907304935971
 30
0
 11
387.8642027256374
 21
768.6907306574974
 31
0
  0
LINE
  8
0
 62
7
 10
377.8642020178374
 20
752.6907308287973
 30
0
 11
377.9642018479374
 21
752.6907308287973
 31
0
  0
LINE
  8
0
 62
7
 10
377.8642020178374
 20
746.6907312423973
 30
0
 11
377.9642018479374
 21
746.6907312423973
 31
0
  0
LINE
  8
0
 62
7
 10
377.3642028671375
 20
752.6907308287973
 30
0
 11
377.8642020178374
 21
752.6907308287973
 31
0
  0
LINE
  8
0
 62
7
 10
377.3642028671375
 20
746.6907312423973
 30
0
 11
377.8642020178374
 21
746.6907312423973
 31
0
  0
LINE
  8
0
 62
7
 10
377.8642020178374
 20
752.6907308287973
 30
0
 11
377.8642020178374
 21
746.6907312423973
 31
0
  0
LINE
  8
0
 62
7
 10
375.8642035526375
 20
752.6907308287973
 30
0
 11
377.3642028671375
 21
752.6907308287973
 31
0
  0
LINE
  8
0
 62
7
 10
375.8642035526375
 20
746.6907312423973
 30
0
 11
377.3642028671375
 21
746.6907312423973
 31
0
  0
LINE
  8
0
 62
7
 10
377.3642028671375
 20
752.6907308287973
 30
0
 11
377.3642028671375
 21
746.6907312423973
 31
0
  0
LINE
  8
0
 62
7
 10
375.8642035526375
 20
752.6907308287973
 30
0
 11
375.8642035526375
 21
746.6907312423973
 31
0
  0
LINE
  8
0
 62
7
 10
387.8642027256374
 20
729.6907307840972
 30
0
 11
387.8642027256374
 21
767.6907304935971
 31
0
  0
LINE
  8
0
 62
7
 10
386.8642025617374
 20
768.6907306574974
 30
0
 11
383.8018099767375
 21
768.6907306574974
 31
0
  0
LINE
  8
0
 62
7
 10
377.3642028671375
 20
728.6907315515973
 30
0
 11
386.8642025617374
 21
728.6907315515973
 31
0
  0
LINE
  8
0
 62
7
 10
380.3642033589374
 20
764.8564812056973
 30
0
 11
380.3642033589374
 21
746.6189344208974
 31
0
  0
LINE
  8
0
 62
7
 10
380.3642033589374
 20
746.6189344208974
 30
0
 11
376.3642027032374
 21
739.6907310262973
 31
0
  0
LINE
  8
0
 62
7
 10
376.3642027032374
 20
739.6907310262973
 30
0
 11
376.3642027032374
 21
729.6907307840972
 31
0
  0
LINE
  8
0
 62
2
 10
383.0185155374375
 20
757.5419752188973
 30
0
 11
382.8746150237374
 21
757.5419752188973
 31
0
  0
LINE
  8
0
 62
2
 10
383.3063184273374
 20
757.0591710768974
 30
0
 11
383.3063184273374
 21
757.3115464560974
 31
0
  0
LINE
  8
0
 62
2
 10
382.6037435782374
 20
757.3444649837973
 30
0
 11
382.6037435782374
 21
757.1030624471973
 31
0
  0
LINE
  8
0
 62
2
 10
386.0620646727374
 20
754.8543067909973
 30
0
 11
383.4496005428374
 21
754.8543067909973
 31
0
  0
LINE
  8
0
 62
2
 10
386.0620646727374
 20
755.4687850438972
 30
0
 11
386.0620646727374
 21
754.8543067909973
 31
0
  0
LINE
  8
0
 62
2
 10
383.7763923210374
 20
755.4687850438972
 30
0
 11
386.0620646727374
 21
755.4687850438972
 31
0
  0
LINE
  8
0
 62
2
 10
386.0620646727374
 20
756.2685387469971
 30
0
 11
383.4747388017374
 21
756.2685387469971
 31
0
  0
LINE
  8
0
 62
2
 10
386.0620646727374
 20
756.8830169998973
 30
0
 11
386.0620646727374
 21
756.2685387469971
 31
0
  0
LINE
  8
0
 62
2
 10
383.2484981966375
 20
756.8830169998973
 30
0
 11
386.0620646727374
 21
756.8830169998973
 31
0
  0
LINE
  8
0
 62
2
 10
382.6200547618374
 20
754.0834157057973
 30
0
 11
383.0473958504374
 21
754.0834157057973
 31
0
  0
LINE
  8
0
 62
2
 10
382.6200547618374
 20
753.4689374528973
 30
0
 11
382.6200547618374
 21
754.0834157057973
 31
0
  0
LINE
  8
0
 62
2
 10
386.0620646727374
 20
753.4689374528973
 30
0
 11
382.6200547618374
 21
753.4689374528973
 31
0
  0
LINE
  8
0
 62
2
 10
386.0620646727374
 20
754.0834157057973
 30
0
 11
386.0620646727374
 21
753.4689374528973
 31
0
  0
LINE
  8
0
 62
2
 10
383.7763923210374
 20
754.0834157057973
 30
0
 11
386.0620646727374
 21
754.0834157057973
 31
0
  0
LINE
  8
0
 62
7
 10
375.9642033827374
 20
746.1907311603973
 30
0
 11
377.4642026973374
 21
746.1907311603973
 31
0
  0
LINE
  8
0
 62
7
 10
375.4642023695375
 20
752.6907308287973
 30
0
 11
375.4642023695375
 21
746.6907312423973
 31
0
  0
LINE
  8
0
 62
7
 10
377.4642026973374
 20
753.1907309107974
 30
0
 11
375.9642033827374
 21
753.1907309107974
 31
0
  0
LINE
  8
0
 62
7
 10
377.9642018479374
 20
746.6907312423973
 30
0
 11
377.9642018479374
 21
752.6907308287973
 31
0
  0
LINE
  8
0
 62
7
 10
387.8642027256374
 20
773.7224746756972
 30
0
 11
387.8642027256374
 21
768.6907306574974
 31
0
  0
LINE
  8
0
 62
7
 10
387.8642027256374
 20
729.6907307840972
 30
0
 11
387.8642027256374
 21
714.8589875809973
 31
0
  0
LINE
  8
0
 62
7
 10
387.8642027256374
 20
768.6907306574974
 30
0
 11
386.8642025617374
 21
768.6907306574974
 31
0
  0
LINE
  8
0
 62
7
 10
383.8642030013374
 20
678.3907310925974
 30
0
 11
383.8642030013374
 21
728.6907315515973
 31
0
  0
LINE
  8
0
 62
7
 10
378.8642021817375
 20
728.6907315515973
 30
0
 11
378.8642021817375
 21
678.3907310925974
 31
0
  0
LINE
  8
0
 62
7
 10
348.3378061780375
 20
607.9268499588736
 30
0
 11
456.1142027330375
 21
607.9268499588736
 31
0
  0
LINE
  8
0
 62
7
 10
386.8642027330375
 20
616.9268499588736
 30
0
 11
386.8642027330375
 21
625.4268499588736
 31
0
  0
LINE
  8
0
 62
7
 10
377.3642027330375
 20
625.4268499588736
 30
0
 11
377.3642027330375
 21
616.9268499588736
 31
0
  0
LINE
  8
0
 62
7
 10
348.1142027330375
 20
615.4268499588736
 30
0
 11
348.1945931506374
 21
615.4268499588736
 31
0
  0
LINE
  8
0
 62
7
 10
340.1142027330375
 20
614.4268499588736
 30
0
 11
347.1960818621375
 21
614.4268499588736
 31
0
  0
LINE
  8
0
 62
7
 10
339.1142027330375
 20
588.9268499588734
 30
0
 11
339.1142027330375
 21
613.4268499588736
 31
0
  0
LINE
  8
0
 62
7
 10
345.1932048500374
 20
587.9268499588734
 30
0
 11
340.1142027330375
 21
587.9268499588734
 31
0
  0
LINE
  8
0
 62
7
 10
345.3339244667375
 20
588.9268499588734
 30
0
 11
345.3339244667375
 21
601.2567785851734
 31
0
  0
LINE
  8
0
 62
7
 10
345.3339244667375
 20
601.2567785851734
 30
0
 11
345.3339244667375
 21
605.9268499588734
 31
0
  0
LINE
  8
0
 62
7
 10
348.3378061780375
 20
607.9268499588736
 30
0
 11
347.3419469825374
 21
607.9268499588736
 31
0
  0
LINE
  8
0
 62
7
 10
465.1142027330375
 20
587.9268499588734
 30
0
 11
459.1142027330375
 21
587.9268499588734
 31
0
  0
LINE
  8
0
 62
7
 10
466.1142027330375
 20
605.9268499588734
 30
0
 11
466.1142027330375
 21
588.9268499588734
 31
0
  0
LINE
  8
0
 62
7
 10
348.1008670285374
 20
614.4268499588736
 30
0
 11
348.1006782407375
 21
614.4197978171735
 31
0
  0
LINE
  8
0
 62
7
 10
352.1142027330375
 20
616.9268499588736
 30
0
 11
452.1142027330375
 21
616.9268499588736
 31
0
  0
LINE
  8
0
 62
7
 10
348.1945931506374
 20
615.4268499588736
 30
0
 11
456.1142027330375
 21
615.4268499588736
 31
0
  0
LINE
  8
0
 62
7
 10
348.3378061780375
 20
613.4268499588736
 30
0
 11
348.3378061780375
 21
607.9268499588736
 31
0
  0
LINE
  8
0
 62
7
 10
465.1142027330375
 20
606.9268499588734
 30
0
 11
347.3419469825374
 21
606.9268499588734
 31
0
  0
LINE
  8
0
 62
7
 10
457.8030892147374
 20
588.9268499588734
 30
0
 11
457.8030892147374
 21
605.9268499588734
 31
0
  0
LINE
  8
0
 62
7
 10
346.3300696995375
 20
605.9268499588734
 30
0
 11
346.3300696995375
 21
588.9268499588734
 31
0
  0
LINE
  8
0
 62
7
 10
457.1142027330375
 20
585.9268499588734
 30
0
 11
347.1142027330375
 21
585.9268499588734
 31
0
  0
LINE
  8
0
 62
7
 10
457.9761439714374
 20
586.9268499588734
 30
0
 11
458.1142027330375
 21
586.9268499588734
 31
0
  0
LINE
  8
0
 62
7
 10
346.1918188480374
 20
586.9268499588734
 30
0
 11
457.9761439714374
 21
586.9268499588734
 31
0
  0
LINE
  8
0
 62
7
 10
346.1142027330375
 20
586.9268499588734
 30
0
 11
346.1918188480374
 21
586.9268499588734
 31
0
  0
LINE
  8
0
 62
7
 10
397.1142027330375
 20
588.9268499588734
 30
0
 11
397.1142027330375
 21
605.9268499588734
 31
0
  0
LINE
  8
0
 62
7
 10
407.1142027330375
 20
605.9268499588734
 30
0
 11
407.1142027330375
 21
588.9268499588734
 31
0
  0
LINE
  8
0
 62
7
 10
406.1142027330375
 20
587.9268499588734
 30
0
 11
398.1142027330375
 21
587.9268499588734
 31
0
  0
LINE
  8
0
 62
7
 10
376.3642027330375
 20
624.4268499588736
 30
0
 11
387.8642027330375
 21
624.4268499588736
 31
0
  0
LINE
  8
0
 62
7
 10
387.8642027330375
 20
625.4268499588736
 30
0
 11
387.8642027330375
 21
616.9268499588736
 31
0
  0
LINE
  8
0
 62
7
 10
376.3642027330375
 20
616.9268499588736
 30
0
 11
376.3642027330375
 21
625.4268499588736
 31
0
  0
LINE
  8
0
 62
7
 10
382.6037429192375
 20
625.9268499588736
 30
0
 11
382.1466462063374
 21
625.9268499588736
 31
0
  0
LINE
  8
0
 62
7
 10
382.1466462063374
 20
625.9268499588736
 30
0
 11
382.1466462063374
 21
625.4268499588736
 31
0
  0
LINE
  8
0
 62
7
 10
382.6037429192375
 20
625.9268499588736
 30
0
 11
382.6037429192375
 21
625.4268499588736
 31
0
  0
LINE
  8
0
 62
7
 10
382.2482232537375
 20
625.9268499588736
 30
0
 11
382.2482232537375
 21
625.4268499588736
 31
0
  0
LINE
  8
0
 62
7
 10
386.0620651689375
 20
625.9268499588736
 30
0
 11
382.6200549086375
 21
625.9268499588736
 31
0
  0
LINE
  8
0
 62
7
 10
386.0620651689375
 20
625.9268499588736
 30
0
 11
386.0620651689375
 21
625.4268499588736
 31
0
  0
LINE
  8
0
 62
7
 10
382.6200549086375
 20
625.9268499588736
 30
0
 11
382.6200549086375
 21
625.4268499588736
 31
0
  0
LINE
  8
0
 62
7
 10
376.3642027330375
 20
625.4268499588736
 30
0
 11
387.8642027330375
 21
625.4268499588736
 31
0
  0
LINE
  8
0
 62
7
 10
352.1142027330375
 20
616.9268499588736
 30
0
 11
352.1142027330375
 21
615.4268499588736
 31
0
  0
LINE
  8
0
 62
7
 10
452.1142027330375
 20
615.4268499588736
 30
0
 11
452.1142027330375
 21
616.9268499588736
 31
0
  0
LINE
  8
0
 62
7
 10
456.1142027330375
 20
607.9268499588736
 30
0
 11
456.1142027330375
 21
615.4268499588736
 31
0
  0
LINE
  8
0
 62
7
 10
457.1142027330375
 20
585.9268499588734
 30
0
 11
458.1142027330375
 21
586.9268499588734
 31
0
  0
LINE
  8
0
 62
7
 10
346.1142027330375
 20
586.9268499588734
 30
0
 11
347.1142027330375
 21
585.9268499588734
 31
0
  0
LINE
  8
1
 62
2
 10
393.1795911561314
 20
765.9111758235986
 30
0
 11
395.2098872602722
 21
767.9414719277395
 31
0
  0
LINE
  8
1
 62
2
 10
392.9518004800054
 20
764.2963908879749
 30
0
 11
396.7437466248734
 21
768.0883370328428
 31
0
  0
LINE
  8
1
 62
2
 10
393.5703249470823
 20
763.6778664209071
 30
0
 11
397.3622710919503
 21
767.469812565775
 31
0
  0
LINE
  8
1
 62
2
 10
395.0915709753883
 20
763.9617096729987
 30
0
 11
397.1218670795294
 21
765.9920057771399
 31
0
  0
LINE
  8
1
 62
2
 10
410.2488065117504
 20
722.7156104338686
 30
0
 11
412.2791026158913
 21
724.7459065380095
 31
0
  0
LINE
  8
1
 62
2
 10
410.0210158356244
 20
721.1008254982449
 30
0
 11
413.8129619804925
 21
724.8927716431128
 31
0
  0
LINE
  8
1
 62
2
 10
410.6395403027013
 20
720.4823010311771
 30
0
 11
414.4314864475693
 21
724.274247176045
 31
0
  0
LINE
  8
1
 62
2
 10
412.1607863310073
 20
720.7661442832688
 30
0
 11
414.1910824351484
 21
722.7964403874099
 31
0
  0
LINE
  8
1
 62
2
 10
406.9653884564564
 20
643.4284264204766
 30
0
 11
403.3653884564564
 21
643.4284264204766
 31
0
  0
LINE
  8
1
 62
2
 10
407.5653884564564
 20
646.1284264204767
 30
0
 11
403.3653884564564
 21
646.1284264204767
 31
0
  0
LINE
  8
1
 62
2
 10
403.3653884564564
 20
646.1284264204767
 30
0
 11
403.3653884564564
 21
643.4284264204766
 31
0
  0
LINE
  8
1
 62
2
 10
403.3653884564564
 20
643.1284264204767
 30
0
 11
403.3653884564564
 21
640.1284264204767
 31
0
  0
LINE
  8
1
 62
2
 10
403.3653884564564
 20
640.1284264204767
 30
0
 11
407.5653884564564
 21
640.1284264204767
 31
0
  0
LINE
  8
1
 62
2
 10
403.3653884564564
 20
643.4284264204766
 30
0
 11
403.3653884564564
 21
643.1284264204767
 31
0
  0
LINE
  8
1
 62
2
 10
396.3782778871485
 20
649.2714668674294
 30
0
 11
396.3782778871485
 21
655.2714668674294
 31
0
  0
LINE
  8
1
 62
2
 10
397.2116112204819
 20
653.5839668674294
 30
0
 11
395.3782778871485
 21
653.5839668674294
 31
0
  0
LINE
  8
1
 62
2
 10
395.2116112204819
 20
651.1464668674294
 30
0
 11
395.8782778871485
 21
652.2714668674294
 31
0
  0
LINE
  8
1
 62
2
 10
395.8782778871485
 20
652.2714668674294
 30
0
 11
396.3782778871485
 21
653.3964668674294
 31
0
  0
LINE
  8
1
 62
2
 10
396.3782778871485
 20
653.3964668674294
 30
0
 11
397.2116112204819
 21
652.0839668674294
 31
0
  0
LINE
  8
1
 62
2
 10
397.3782778871485
 20
650.3964668674294
 30
0
 11
398.3782778871485
 21
651.5214668674294
 31
0
  0
LINE
  8
1
 62
2
 10
398.3782778871485
 20
651.5214668674294
 30
0
 11
399.2116112204819
 21
653.2089668674294
 31
0
  0
LINE
  8
1
 62
2
 10
400.2116112204819
 20
653.3964668674294
 30
0
 11
397.7116112204819
 21
653.3964668674294
 31
0
  0
LINE
  8
1
 62
2
 10
399.2116112204819
 20
655.0839668674294
 30
0
 11
399.3782778871485
 21
649.6464668674294
 31
0
  0
LINE
  8
1
 62
2
 10
399.3782778871485
 20
649.6464668674294
 30
0
 11
398.8782778871485
 21
649.6464668674294
 31
0
  0
LINE
  8
1
 62
2
 10
401.2116112204819
 20
650.3964668674294
 30
0
 11
401.7116112204819
 21
651.3339668674294
 31
0
  0
LINE
  8
1
 62
2
 10
401.7116112204819
 20
651.3339668674294
 30
0
 11
402.3782778871485
 21
653.0214668674294
 31
0
  0
LINE
  8
1
 62
2
 10
403.5449445538152
 20
653.0214668674294
 30
0
 11
401.2116112204819
 21
653.0214668674294
 31
0
  0
LINE
  8
1
 62
2
 10
401.3782778871485
 20
654.5214668674294
 30
0
 11
401.8782778871485
 21
653.7714668674294
 31
0
  0
LINE
  8
1
 62
2
 10
402.8782778871485
 20
653.9589668674294
 30
0
 11
403.2116112204819
 21
654.7089668674294
 31
0
  0
LINE
  8
1
 62
2
 10
402.3782778871485
 20
655.0839668674294
 30
0
 11
402.3782778871485
 21
653.0214668674294
 31
0
  0
LINE
  8
1
 62
2
 10
402.8782778871485
 20
652.2714668674294
 30
0
 11
403.2116112204819
 21
651.5214668674294
 31
0
  0
LINE
  8
1
 62
2
 10
403.5449445538152
 20
651.3339668674294
 30
0
 11
406.3782778871485
 21
651.8964668674294
 31
0
  0
LINE
  8
1
 62
2
 10
404.5449445538152
 20
652.6464668674294
 30
0
 11
404.0449445538152
 21
653.3964668674294
 31
0
  0
LINE
  8
1
 62
2
 10
404.5449445538152
 20
654.1464668674294
 30
0
 11
404.0449445538152
 21
654.8964668674294
 31
0
  0
LINE
  8
1
 62
2
 10
405.3782778871485
 20
655.2714668674294
 30
0
 11
405.3782778871485
 21
649.2714668674294
 31
0
  0
LINE
  8
1
 62
2
 10
402.3782778871485
 20
653.0214668674294
 30
0
 11
402.3782778871485
 21
649.4589668674294
 31
0
  0
LINE
  8
1
 62
2
 10
407.3782778871485
 20
649.6464668674294
 30
0
 11
407.3782778871485
 21
651.1464668674294
 31
0
  0
LINE
  8
1
 62
2
 10
407.3782778871485
 20
651.1464668674294
 30
0
 11
408.7116112204819
 21
651.1464668674294
 31
0
  0
LINE
  8
1
 62
2
 10
408.7116112204819
 20
651.1464668674294
 30
0
 11
408.7116112204819
 21
649.6464668674294
 31
0
  0
LINE
  8
1
 62
2
 10
408.7116112204819
 20
649.6464668674294
 30
0
 11
407.3782778871485
 21
649.6464668674294
 31
0
  0
LINE
  8
1
 62
2
 10
407.3782778871485
 20
651.8964668674294
 30
0
 11
408.7116112204819
 21
651.8964668674294
 31
0
  0
LINE
  8
1
 62
2
 10
408.7116112204819
 20
652.8339668674294
 30
0
 11
407.3782778871485
 21
652.8339668674294
 31
0
  0
LINE
  8
1
 62
2
 10
407.0449445538152
 20
653.5839668674294
 30
0
 11
409.2116112204819
 21
653.5839668674294
 31
0
  0
LINE
  8
1
 62
2
 10
407.2116112204819
 20
654.5214668674294
 30
0
 11
408.7116112204819
 21
654.5214668674294
 31
0
  0
LINE
  8
1
 62
2
 10
409.7116112204819
 20
654.3339668674294
 30
0
 11
411.5449445538152
 21
654.3339668674294
 31
0
  0
LINE
  8
1
 62
2
 10
411.5449445538152
 20
654.3339668674294
 30
0
 11
411.5449445538152
 21
652.4589668674294
 31
0
  0
LINE
  8
1
 62
2
 10
411.5449445538152
 20
652.4589668674294
 30
0
 11
409.7116112204819
 21
652.4589668674294
 31
0
  0
LINE
  8
1
 62
2
 10
409.7116112204819
 20
652.4589668674294
 30
0
 11
409.7116112204819
 21
649.6464668674294
 31
0
  0
LINE
  8
1
 62
2
 10
409.7116112204819
 20
649.6464668674294
 30
0
 11
410.3782778871485
 21
649.6464668674294
 31
0
  0
LINE
  8
1
 62
2
 10
410.3782778871485
 20
649.6464668674294
 30
0
 11
412.0449445538152
 21
649.6464668674294
 31
0
  0
LINE
  8
1
 62
2
 10
412.0449445538152
 20
649.6464668674294
 30
0
 11
412.0449445538152
 21
650.2089668674294
 31
0
  0
LINE
  8
1
 62
2
 10
414.3782778871485
 20
654.8964668674294
 30
0
 11
414.3782778871485
 21
653.5839668674294
 31
0
  0
LINE
  8
1
 62
2
 10
414.3782778871485
 20
653.5839668674294
 30
0
 11
417.0449445538152
 21
653.5839668674294
 31
0
  0
LINE
  8
1
 62
2
 10
417.0449445538152
 20
653.5839668674294
 30
0
 11
417.0449445538152
 21
654.8964668674294
 31
0
  0
LINE
  8
1
 62
2
 10
417.0449445538152
 20
654.8964668674294
 30
0
 11
414.3782778871485
 21
654.8964668674294
 31
0
  0
LINE
  8
1
 62
2
 10
413.2116112204819
 20
652.6464668674294
 30
0
 11
415.0449445538152
 21
652.6464668674294
 31
0
  0
LINE
  8
1
 62
2
 10
415.0449445538152
 20
652.6464668674294
 30
0
 11
414.5449445538152
 21
650.7714668674294
 31
0
  0
LINE
  8
1
 62
2
 10
414.7116112204819
 20
651.5214668674294
 30
0
 11
417.0449445538152
 21
651.5214668674294
 31
0
  0
LINE
  8
1
 62
2
 10
417.0449445538152
 20
651.5214668674294
 30
0
 11
416.7116112204819
 21
650.3964668674294
 31
0
  0
LINE
  8
1
 62
2
 10
416.7116112204819
 20
650.3964668674294
 30
0
 11
416.2116112204819
 21
649.4589668674294
 31
0
  0
LINE
  8
1
 62
2
 10
416.2116112204819
 20
649.4589668674294
 30
0
 11
415.8782778871485
 21
649.2714668674294
 31
0
  0
LINE
  8
1
 62
2
 10
415.8782778871485
 20
649.2714668674294
 30
0
 11
415.2116112204819
 21
649.6464668674294
 31
0
  0
LINE
  8
1
 62
2
 10
415.0449445538152
 20
652.6464668674294
 30
0
 11
418.0449445538152
 21
652.6464668674294
 31
0
  0
LINE
  8
1
 62
2
 10
268.6955726149752
 20
603.6800166138759
 30
0
 11
268.6955726149752
 21
604.2800166138759
 31
0
  0
LINE
  8
1
 62
2
 10
268.6955726149752
 20
604.2800166138759
 30
0
 11
272.2955726149752
 21
604.2800166138759
 31
0
  0
LINE
  8
1
 62
2
 10
272.2955726149752
 20
604.2800166138759
 30
0
 11
269.2955726149752
 21
598.2800166138759
 31
0
  0
LINE
  8
1
 62
2
 10
277.3955726149752
 20
604.2800166138759
 30
0
 11
274.0955726149752
 21
604.2800166138759
 31
0
  0
LINE
  8
1
 62
2
 10
274.0955726149752
 20
604.2800166138759
 30
0
 11
274.0955726149752
 21
601.8800166138759
 31
0
  0
LINE
  8
1
 62
2
 10
274.0955726149752
 20
601.8800166138759
 30
0
 11
276.3455726149752
 21
601.8800166138759
 31
0
  0
LINE
  8
1
 62
2
 10
276.3455726149752
 20
601.8800166138759
 30
0
 11
277.0955726149752
 21
601.7300166138759
 31
0
  0
LINE
  8
1
 62
2
 10
277.0955726149752
 20
601.7300166138759
 30
0
 11
277.5455726149752
 21
601.2800166138759
 31
0
  0
LINE
  8
1
 62
2
 10
277.5455726149752
 20
601.2800166138759
 30
0
 11
277.6955726149752
 21
600.6800166138759
 31
0
  0
LINE
  8
1
 62
2
 10
277.6955726149752
 20
600.6800166138759
 30
0
 11
277.6955726149752
 21
599.7800166138759
 31
0
  0
LINE
  8
1
 62
2
 10
277.6955726149752
 20
599.7800166138759
 30
0
 11
277.5455726149752
 21
599.1800166138759
 31
0
  0
LINE
  8
1
 62
2
 10
277.5455726149752
 20
599.1800166138759
 30
0
 11
277.2455726149752
 21
598.7300166138759
 31
0
  0
LINE
  8
1
 62
2
 10
277.2455726149752
 20
598.7300166138759
 30
0
 11
276.7955726149752
 21
598.4300166138759
 31
0
  0
LINE
  8
1
 62
2
 10
276.7955726149752
 20
598.4300166138759
 30
0
 11
276.3455726149752
 21
598.2800166138759
 31
0
  0
LINE
  8
1
 62
2
 10
276.3455726149752
 20
598.2800166138759
 30
0
 11
274.0955726149752
 21
598.2800166138759
 31
0
  0
LINE
  8
1
 62
2
 10
279.4955726149752
 20
598.2800166138759
 30
0
 11
279.4955726149752
 21
598.4300166138759
 31
0
  0
LINE
  8
1
 62
2
 10
279.4955726149752
 20
598.4300166138759
 30
0
 11
279.6455726149752
 21
598.4300166138759
 31
0
  0
LINE
  8
1
 62
2
 10
279.6455726149752
 20
598.4300166138759
 30
0
 11
279.6455726149752
 21
598.2800166138759
 31
0
  0
LINE
  8
1
 62
2
 10
279.6455726149752
 20
598.2800166138759
 30
0
 11
279.4955726149752
 21
598.2800166138759
 31
0
  0
LINE
  8
1
 62
2
 10
281.4455726149752
 20
602.4800166138759
 30
0
 11
283.2455726149752
 21
604.2800166138759
 31
0
  0
LINE
  8
1
 62
2
 10
283.2455726149752
 20
604.2800166138759
 30
0
 11
283.2455726149752
 21
598.2800166138759
 31
0
  0
LINE
  8
1
 62
2
 10
286.5455726149752
 20
601.8800166138759
 30
0
 11
285.7955726149752
 21
601.5800166138758
 31
0
  0
LINE
  8
1
 62
2
 10
285.7955726149752
 20
601.5800166138758
 30
0
 11
285.3455726149752
 21
601.1300166138759
 31
0
  0
LINE
  8
1
 62
2
 10
285.3455726149752
 20
601.1300166138759
 30
0
 11
285.0455726149752
 21
600.5300166138759
 31
0
  0
LINE
  8
1
 62
2
 10
285.0455726149752
 20
600.5300166138759
 30
0
 11
285.0455726149752
 21
599.6300166138759
 31
0
  0
LINE
  8
1
 62
2
 10
285.0455726149752
 20
599.6300166138759
 30
0
 11
285.3455726149752
 21
599.0300166138759
 31
0
  0
LINE
  8
1
 62
2
 10
285.3455726149752
 20
599.0300166138759
 30
0
 11
285.7955726149752
 21
598.5800166138758
 31
0
  0
LINE
  8
1
 62
2
 10
285.7955726149752
 20
598.5800166138758
 30
0
 11
286.3955726149752
 21
598.2800166138759
 31
0
  0
LINE
  8
1
 62
2
 10
286.3955726149752
 20
598.2800166138759
 30
0
 11
287.2955726149752
 21
598.2800166138759
 31
0
  0
LINE
  8
1
 62
2
 10
287.2955726149752
 20
598.2800166138759
 30
0
 11
287.8955726149752
 21
598.5800166138758
 31
0
  0
LINE
  8
1
 62
2
 10
287.8955726149752
 20
598.5800166138758
 30
0
 11
288.3455726149752
 21
599.0300166138759
 31
0
  0
LINE
  8
1
 62
2
 10
288.3455726149752
 20
599.0300166138759
 30
0
 11
288.6455726149752
 21
599.6300166138759
 31
0
  0
LINE
  8
1
 62
2
 10
288.6455726149752
 20
599.6300166138759
 30
0
 11
288.6455726149752
 21
600.5300166138759
 31
0
  0
LINE
  8
1
 62
2
 10
288.6455726149752
 20
600.5300166138759
 30
0
 11
288.3455726149752
 21
601.1300166138759
 31
0
  0
LINE
  8
1
 62
2
 10
288.3455726149752
 20
601.1300166138759
 30
0
 11
287.8955726149752
 21
601.5800166138758
 31
0
  0
LINE
  8
1
 62
2
 10
287.8955726149752
 20
601.5800166138758
 30
0
 11
287.1455726149752
 21
601.8800166138759
 31
0
  0
LINE
  8
1
 62
2
 10
286.0955726149752
 20
604.1300166138759
 30
0
 11
286.5455726149752
 21
604.2800166138759
 31
0
  0
LINE
  8
1
 62
2
 10
286.5455726149752
 20
604.2800166138759
 30
0
 11
287.1455726149752
 21
604.2800166138759
 31
0
  0
LINE
  8
1
 62
2
 10
287.1455726149752
 20
604.2800166138759
 30
0
 11
287.5955726149752
 21
604.1300166138759
 31
0
  0
LINE
  8
1
 62
2
 10
287.5955726149752
 20
604.1300166138759
 30
0
 11
288.0455726149752
 21
603.8300166138758
 31
0
  0
LINE
  8
1
 62
2
 10
288.0455726149752
 20
603.8300166138758
 30
0
 11
288.3455726149752
 21
603.3800166138759
 31
0
  0
LINE
  8
1
 62
2
 10
288.3455726149752
 20
603.3800166138759
 30
0
 11
288.3455726149752
 21
602.7800166138759
 31
0
  0
LINE
  8
1
 62
2
 10
288.3455726149752
 20
602.7800166138759
 30
0
 11
288.0455726149752
 21
602.3300166138758
 31
0
  0
LINE
  8
1
 62
2
 10
288.0455726149752
 20
602.3300166138758
 30
0
 11
287.5955726149752
 21
602.0300166138759
 31
0
  0
LINE
  8
1
 62
2
 10
287.5955726149752
 20
602.0300166138759
 30
0
 11
287.1455726149752
 21
601.8800166138759
 31
0
  0
LINE
  8
1
 62
2
 10
287.1455726149752
 20
601.8800166138759
 30
0
 11
286.5455726149752
 21
601.8800166138759
 31
0
  0
LINE
  8
1
 62
2
 10
286.5455726149752
 20
601.8800166138759
 30
0
 11
286.0955726149752
 21
602.0300166138759
 31
0
  0
LINE
  8
1
 62
2
 10
286.0955726149752
 20
602.0300166138759
 30
0
 11
285.6455726149752
 21
602.3300166138758
 31
0
  0
LINE
  8
1
 62
2
 10
285.6455726149752
 20
602.3300166138758
 30
0
 11
285.3455726149752
 21
602.7800166138759
 31
0
  0
LINE
  8
1
 62
2
 10
285.3455726149752
 20
602.7800166138759
 30
0
 11
285.3455726149752
 21
603.3800166138759
 31
0
  0
LINE
  8
1
 62
2
 10
285.3455726149752
 20
603.3800166138759
 30
0
 11
285.6455726149752
 21
603.8300166138758
 31
0
  0
LINE
  8
1
 62
2
 10
285.6455726149752
 20
603.8300166138758
 30
0
 11
286.0955726149752
 21
604.1300166138759
 31
0
  0
LINE
  8
1
 62
2
 10
293.1455726149752
 20
604.2800166138759
 30
0
 11
290.4455726149752
 21
599.4800166138759
 31
0
  0
LINE
  8
1
 62
2
 10
290.4455726149752
 20
599.4800166138759
 30
0
 11
294.0455726149752
 21
599.4800166138759
 31
0
  0
LINE
  8
1
 62
2
 10
293.1455726149752
 20
600.6800166138759
 30
0
 11
293.1455726149752
 21
598.2800166138759
 31
0
  0
LINE
  8
1
 62
2
 10
301.1455726149752
 20
602.5925166138759
 30
0
 11
301.1455726149752
 21
598.6550166138759
 31
0
  0
LINE
  8
1
 62
2
 10
301.1455726149752
 20
598.6550166138759
 30
0
 11
305.4789059483085
 21
598.6550166138759
 31
0
  0
LINE
  8
1
 62
2
 10
305.4789059483085
 20
598.6550166138759
 30
0
 11
305.4789059483085
 21
602.5925166138759
 31
0
  0
LINE
  8
1
 62
2
 10
303.3122392816419
 20
603.9050166138759
 30
0
 11
303.3122392816419
 21
598.6550166138759
 31
0
  0
LINE
  8
1
 62
2
 10
311.4455726149752
 20
602.4800166138759
 30
0
 11
313.2455726149752
 21
604.2800166138759
 31
0
  0
LINE
  8
1
 62
2
 10
313.2455726149752
 20
604.2800166138759
 30
0
 11
313.2455726149752
 21
598.2800166138759
 31
0
  0
LINE
  8
1
 62
2
 10
315.0455726149752
 20
602.4800166138759
 30
0
 11
316.8455726149752
 21
604.2800166138759
 31
0
  0
LINE
  8
1
 62
2
 10
316.8455726149752
 20
604.2800166138759
 30
0
 11
316.8455726149752
 21
598.2800166138759
 31
0
  0
LINE
  8
1
 62
2
 10
400.1113902330375
 20
806.2907311283973
 30
0
 11
404.1170152330375
 21
806.2907311283973
 31
0
  0
LINE
  8
1
 62
2
 10
404.1170152330375
 20
806.2907311283973
 30
0
 11
404.1170152330375
 21
801.2907311283973
 31
0
  0
LINE
  8
1
 62
2
 10
404.1170152330375
 20
801.2907311283973
 30
0
 11
400.1804527330375
 21
801.2907311283973
 31
0
  0
LINE
  8
1
 62
2
 10
400.1804527330375
 20
801.2907311283973
 30
0
 11
400.1804527330375
 21
801.9157311283973
 31
0
  0
LINE
  8
1
 62
2
 10
400.1804527330375
 20
801.9157311283973
 30
0
 11
403.3573277330375
 21
801.9157311283973
 31
0
  0
LINE
  8
1
 62
2
 10
403.3573277330375
 20
801.9157311283973
 30
0
 11
403.3573277330375
 21
803.4157311283973
 31
0
  0
LINE
  8
1
 62
2
 10
403.3573277330375
 20
803.4157311283973
 30
0
 11
400.4567027330375
 21
803.4157311283973
 31
0
  0
LINE
  8
1
 62
2
 10
400.4567027330375
 20
803.4157311283973
 30
0
 11
400.4567027330375
 21
804.0407311283973
 31
0
  0
LINE
  8
1
 62
2
 10
400.4567027330375
 20
804.0407311283973
 30
0
 11
403.3573277330375
 21
804.0407311283973
 31
0
  0
LINE
  8
1
 62
2
 10
403.3573277330375
 20
804.0407311283973
 30
0
 11
403.3573277330375
 21
805.6657311283973
 31
0
  0
LINE
  8
1
 62
2
 10
403.3573277330375
 20
805.6657311283973
 30
0
 11
400.1113902330375
 21
805.6657311283973
 31
0
  0
LINE
  8
1
 62
2
 10
400.1113902330375
 20
805.6657311283973
 30
0
 11
400.1113902330375
 21
806.2907311283973
 31
0
  0
LINE
  8
1
 62
2
 10
404.1170152330375
 20
682.2907311283973
 30
0
 11
400.1113902330375
 21
682.2907311283973
 31
0
  0
LINE
  8
1
 62
2
 10
400.1113902330375
 20
682.2907311283973
 30
0
 11
400.1113902330375
 21
687.2907311283973
 31
0
  0
LINE
  8
1
 62
2
 10
400.1113902330375
 20
687.2907311283973
 30
0
 11
404.0479527330375
 21
687.2907311283973
 31
0
  0
LINE
  8
1
 62
2
 10
404.0479527330375
 20
687.2907311283973
 30
0
 11
404.0479527330375
 21
686.6657311283973
 31
0
  0
LINE
  8
1
 62
2
 10
404.0479527330375
 20
686.6657311283973
 30
0
 11
400.8710777330375
 21
686.6657311283973
 31
0
  0
LINE
  8
1
 62
2
 10
400.8710777330375
 20
686.6657311283973
 30
0
 11
400.8710777330375
 21
685.1657311283973
 31
0
  0
LINE
  8
1
 62
2
 10
400.8710777330375
 20
685.1657311283973
 30
0
 11
403.7717027330374
 21
685.1657311283973
 31
0
  0
LINE
  8
1
 62
2
 10
403.7717027330374
 20
685.1657311283973
 30
0
 11
403.7717027330374
 21
684.5407311283973
 31
0
  0
LINE
  8
1
 62
2
 10
403.7717027330374
 20
684.5407311283973
 30
0
 11
400.8710777330375
 21
684.5407311283973
 31
0
  0
LINE
  8
1
 62
2
 10
400.8710777330375
 20
684.5407311283973
 30
0
 11
400.8710777330375
 21
682.9157311283973
 31
0
  0
LINE
  8
1
 62
2
 10
400.8710777330375
 20
682.9157311283973
 30
0
 11
404.1170152330375
 21
682.9157311283973
 31
0
  0
LINE
  8
1
 62
2
 10
404.1170152330375
 20
682.9157311283973
 30
0
 11
404.1170152330375
 21
682.2907311283973
 31
0
  0
LINE
  8
1
 62
7
 10
343.1242366590489
 20
526.5578994788115
 30
0
 11
343.1242366590489
 21
525.6916494788114
 31
0
  0
LINE
  8
1
 62
7
 10
339.3785716590489
 20
526.5578994788115
 30
0
 11
343.1242366590489
 21
526.5578994788115
 31
0
  0
LINE
  8
1
 62
7
 10
339.3785716590489
 20
528.8101494788115
 30
0
 11
339.3785716590489
 21
526.5578994788115
 31
0
  0
LINE
  8
1
 62
7
 10
342.7257616590489
 20
528.8101494788115
 30
0
 11
339.3785716590489
 21
528.8101494788115
 31
0
  0
LINE
  8
1
 62
7
 10
342.7257616590489
 20
529.6763994788115
 30
0
 11
342.7257616590489
 21
528.8101494788115
 31
0
  0
LINE
  8
1
 62
7
 10
339.3785716590489
 20
529.6763994788115
 30
0
 11
342.7257616590489
 21
529.6763994788115
 31
0
  0
LINE
  8
1
 62
7
 10
339.3785716590489
 20
531.7553994788115
 30
0
 11
339.3785716590489
 21
529.6763994788115
 31
0
  0
LINE
  8
1
 62
7
 10
343.0445416590489
 20
531.7553994788115
 30
0
 11
339.3785716590489
 21
531.7553994788115
 31
0
  0
LINE
  8
1
 62
7
 10
343.0445416590489
 20
532.6216494788115
 30
0
 11
343.0445416590489
 21
531.7553994788115
 31
0
  0
LINE
  8
1
 62
7
 10
338.5019266590489
 20
532.6216494788115
 30
0
 11
343.0445416590489
 21
532.6216494788115
 31
0
  0
LINE
  8
1
 62
7
 10
338.5019266590489
 20
525.6916494788114
 30
0
 11
338.5019266590489
 21
532.6216494788115
 31
0
  0
LINE
  8
1
 62
7
 10
343.1242366590489
 20
525.6916494788114
 30
0
 11
338.5019266590489
 21
525.6916494788114
 31
0
  0
LINE
  8
1
 62
2
 10
327.1142027330372
 20
532.6091735757966
 30
0
 11
327.1142027330372
 21
525.6842550245551
 31
0
  0
LINE
  8
1
 62
2
 10
327.1142027330372
 20
525.6842550245551
 30
0
 11
337.2267822046923
 21
525.6842550245551
 31
0
  0
LINE
  8
1
 62
2
 10
337.2267822046923
 20
525.6842550245551
 30
0
 11
337.2267822046923
 21
532.6091735757966
 31
0
  0
LINE
  8
1
 62
2
 10
337.2267822046923
 20
532.6091735757966
 30
0
 11
327.1142027330372
 21
532.6091735757966
 31
0
  0
LINE
  8
1
 62
2
 10
288.4600161381827
 20
465.8621719199333
 30
0
 11
292.8600161381826
 21
465.8621719199333
 31
0
  0
LINE
  8
1
 62
2
 10
289.2850161381827
 20
466.9449844199332
 30
0
 11
289.2850161381827
 21
465.8621719199333
 31
0
  0
LINE
  8
1
 62
2
 10
289.2850161381827
 20
467.0996719199333
 30
0
 11
292.0350161381827
 21
467.0996719199333
 31
0
  0
LINE
  8
1
 62
2
 10
290.6600161381827
 20
468.3371719199332
 30
0
 11
290.6600161381827
 21
464.1606094199333
 31
0
  0
LINE
  8
1
 62
2
 10
289.4225161381826
 20
468.3371719199332
 30
0
 11
292.1725161381826
 21
468.3371719199332
 31
0
  0
LINE
  8
1
 62
2
 10
289.1475161381827
 20
468.0277969199333
 30
0
 11
288.7350161381826
 21
467.5637344199332
 31
0
  0
LINE
  8
1
 62
2
 10
289.5600161381827
 20
468.6465469199333
 30
0
 11
289.1475161381827
 21
468.0277969199333
 31
0
  0
LINE
  8
1
 62
2
 10
289.8350161381827
 20
469.1106094199332
 30
0
 11
289.5600161381827
 21
468.6465469199333
 31
0
  0
LINE
  8
1
 62
2
 10
283.7850161381827
 20
464.6246719199332
 30
0
 11
283.6475161381827
 21
464.4699844199332
 31
0
  0
LINE
  8
1
 62
2
 10
284.4725161381827
 20
468.3371719199332
 30
0
 11
284.0600161381827
 21
468.9559219199333
 31
0
  0
LINE
  8
1
 62
2
 10
285.2975161381826
 20
468.1824844199333
 30
0
 11
285.0225161381827
 21
467.7184219199332
 31
0
  0
LINE
  8
1
 62
2
 10
285.5725161381827
 20
468.9559219199333
 30
0
 11
285.2975161381826
 21
468.1824844199333
 31
0
  0
LINE
  8
1
 62
2
 10
287.3600161381826
 20
468.1824844199333
 30
0
 11
285.2975161381826
 21
468.1824844199333
 31
0
  0
LINE
  8
1
 62
2
 10
286.2600161381827
 20
467.0996719199333
 30
0
 11
286.2600161381827
 21
469.1106094199332
 31
0
  0
LINE
  8
1
 62
2
 10
287.6350161381827
 20
467.0996719199333
 30
0
 11
285.0225161381827
 21
467.0996719199333
 31
0
  0
LINE
  8
1
 62
2
 10
285.5725161381827
 20
465.2434219199332
 30
0
 11
287.0850161381827
 21
465.2434219199332
 31
0
  0
LINE
  8
1
 62
2
 10
285.5725161381827
 20
466.4809219199333
 30
0
 11
285.5725161381827
 21
465.2434219199332
 31
0
  0
LINE
  8
1
 62
2
 10
287.0850161381827
 20
466.4809219199333
 30
0
 11
285.5725161381827
 21
466.4809219199333
 31
0
  0
LINE
  8
1
 62
2
 10
287.0850161381827
 20
465.2434219199332
 30
0
 11
287.0850161381827
 21
466.4809219199333
 31
0
  0
LINE
  8
1
 62
2
 10
285.0225161381827
 20
464.4699844199332
 30
0
 11
287.7725161381827
 21
464.4699844199332
 31
0
  0
LINE
  8
1
 62
2
 10
284.7475161381827
 20
464.6246719199332
 30
0
 11
285.0225161381827
 21
464.4699844199332
 31
0
  0
LINE
  8
1
 62
2
 10
284.4725161381827
 20
465.2434219199332
 30
0
 11
284.7475161381827
 21
464.6246719199332
 31
0
  0
LINE
  8
1
 62
2
 10
284.4725161381827
 20
466.9449844199332
 30
0
 11
283.6475161381827
 21
466.9449844199332
 31
0
  0
LINE
  8
1
 62
2
 10
284.4725161381827
 20
465.2434219199332
 30
0
 11
284.4725161381827
 21
466.9449844199332
 31
0
  0
LINE
  8
1
 62
2
 10
283.7850161381827
 20
464.6246719199332
 30
0
 11
284.4725161381827
 21
465.2434219199332
 31
0
  0
LINE
  8
1
 62
2
 10
281.8600161381826
 20
464.7793594199333
 30
0
 11
281.5850161381827
 21
465.5527969199333
 31
0
  0
LINE
  8
1
 62
2
 10
282.4100161381827
 20
464.1606094199333
 30
0
 11
281.8600161381826
 21
464.1606094199333
 31
0
  0
LINE
  8
1
 62
2
 10
282.4100161381827
 20
466.6356094199333
 30
0
 11
282.4100161381827
 21
464.1606094199333
 31
0
  0
LINE
  8
1
 62
2
 10
282.6850161381827
 20
467.5637344199332
 30
0
 11
280.7600161381827
 21
467.5637344199332
 31
0
  0
LINE
  8
1
 62
2
 10
280.6225161381827
 20
468.3371719199332
 30
0
 11
282.6850161381827
 21
468.3371719199332
 31
0
  0
LINE
  8
1
 62
2
 10
281.4475161381827
 20
466.9449844199332
 30
0
 11
281.5850161381827
 21
468.8012344199333
 31
0
  0
LINE
  8
1
 62
2
 10
281.0350161381827
 20
465.3981094199332
 30
0
 11
281.4475161381827
 21
466.9449844199332
 31
0
  0
LINE
  8
1
 62
2
 10
280.4850161381826
 20
464.4699844199332
 30
0
 11
281.0350161381827
 21
465.3981094199332
 31
0
  0
LINE
  8
1
 62
2
 10
282.9600161381827
 20
466.0168594199332
 30
0
 11
280.6225161381827
 21
466.0168594199332
 31
0
  0
LINE
  8
1
 62
2
 10
280.4850161381826
 20
466.9449844199332
 30
0
 11
282.9600161381827
 21
466.9449844199332
 31
0
  0
LINE
  8
1
 62
2
 10
279.6600161381827
 20
464.6246719199332
 30
0
 11
279.6600161381827
 21
467.0996719199333
 31
0
  0
LINE
  8
1
 62
2
 10
278.9725161381827
 20
465.8621719199333
 30
0
 11
279.2475161381827
 21
465.0887344199333
 31
0
  0
LINE
  8
1
 62
2
 10
279.6600161381827
 20
468.8012344199333
 30
0
 11
278.5600161381827
 21
466.6356094199333
 31
0
  0
LINE
  8
1
 62
2
 10
280.4850161381826
 20
467.8731094199333
 30
0
 11
279.6600161381827
 21
468.8012344199333
 31
0
  0
LINE
  8
1
 62
2
 10
279.1100161381826
 20
467.0996719199333
 30
0
 11
280.3475161381827
 21
467.0996719199333
 31
0
  0
LINE
  8
1
 62
2
 10
280.3475161381827
 20
466.3262344199333
 30
0
 11
278.9725161381827
 21
466.3262344199333
 31
0
  0
LINE
  8
1
 62
2
 10
280.0725161381827
 20
465.0887344199333
 30
0
 11
280.2100161381827
 21
465.8621719199333
 31
0
  0
LINE
  8
1
 62
2
 10
278.8350161381827
 20
464.3152969199333
 30
0
 11
280.3475161381827
 21
464.9340469199333
 31
0
  0
LINE
  8
1
 62
2
 10
317.195538427769
 20
455.8416466778643
 30
0
 11
320.660538427769
 21
455.8416466778643
 31
0
  0
LINE
  8
1
 62
2
 10
317.195538427769
 20
460.7916466778643
 30
0
 11
317.195538427769
 21
455.8416466778643
 31
0
  0
LINE
  8
1
 62
2
 10
320.660538427769
 20
460.7916466778643
 30
0
 11
317.195538427769
 21
460.7916466778643
 31
0
  0
LINE
  8
1
 62
2
 10
320.165538427769
 20
458.5641466778643
 30
0
 11
317.195538427769
 21
458.5641466778643
 31
0
  0
LINE
  8
1
 62
2
 10
328.541958289104
 20
463.7548130218314
 30
0
 11
327.9919582891041
 21
464.0641880218313
 31
0
  0
LINE
  8
1
 62
2
 10
328.816958289104
 20
463.9095005218313
 30
0
 11
328.541958289104
 21
463.7548130218314
 31
0
  0
LINE
  8
1
 62
2
 10
329.229458289104
 20
464.6829380218313
 30
0
 11
328.816958289104
 21
463.9095005218313
 31
0
  0
LINE
  8
1
 62
2
 10
329.504458289104
 20
465.6110630218313
 30
0
 11
329.229458289104
 21
464.6829380218313
 31
0
  0
LINE
  8
1
 62
2
 10
327.579458289104
 20
465.6110630218313
 30
0
 11
329.504458289104
 21
465.6110630218313
 31
0
  0
LINE
  8
1
 62
2
 10
327.854458289104
 20
466.5391880218314
 30
0
 11
327.441958289104
 21
464.9923130218314
 31
0
  0
LINE
  8
1
 62
2
 10
326.341958289104
 20
466.5391880218314
 30
0
 11
330.329458289104
 21
466.5391880218314
 31
0
  0
LINE
  8
1
 62
2
 10
329.504458289104
 20
468.3954380218314
 30
0
 11
327.3044582891041
 21
468.3954380218314
 31
0
  0
LINE
  8
1
 62
2
 10
329.504458289104
 20
467.3126255218314
 30
0
 11
329.504458289104
 21
468.3954380218314
 31
0
  0
LINE
  8
1
 62
2
 10
327.3044582891041
 20
467.3126255218314
 30
0
 11
329.504458289104
 21
467.3126255218314
 31
0
  0
LINE
  8
1
 62
2
 10
327.3044582891041
 20
468.3954380218314
 30
0
 11
327.3044582891041
 21
467.3126255218314
 31
0
  0
LINE
  8
1
 62
2
 10
325.379458289104
 20
464.0641880218313
 30
0
 11
325.379458289104
 21
464.5282505218314
 31
0
  0
LINE
  8
1
 62
2
 10
323.454458289104
 20
464.0641880218313
 30
0
 11
325.379458289104
 21
464.0641880218313
 31
0
  0
LINE
  8
1
 62
2
 10
323.454458289104
 20
466.3845005218313
 30
0
 11
323.454458289104
 21
464.0641880218313
 31
0
  0
LINE
  8
1
 62
2
 10
324.966958289104
 20
466.3845005218313
 30
0
 11
323.454458289104
 21
466.3845005218313
 31
0
  0
LINE
  8
1
 62
2
 10
324.966958289104
 20
467.9313755218313
 30
0
 11
324.966958289104
 21
466.3845005218313
 31
0
  0
LINE
  8
1
 62
2
 10
323.454458289104
 20
467.9313755218313
 30
0
 11
324.966958289104
 21
467.9313755218313
 31
0
  0
LINE
  8
1
 62
2
 10
321.391958289104
 20
468.0860630218314
 30
0
 11
322.629458289104
 21
468.0860630218314
 31
0
  0
LINE
  8
1
 62
2
 10
321.254458289104
 20
467.3126255218314
 30
0
 11
323.041958289104
 21
467.3126255218314
 31
0
  0
LINE
  8
1
 62
2
 10
322.629458289104
 20
466.6938755218314
 30
0
 11
321.529458289104
 21
466.6938755218314
 31
0
  0
LINE
  8
1
 62
2
 10
321.529458289104
 20
465.9204380218314
 30
0
 11
322.629458289104
 21
465.9204380218314
 31
0
  0
LINE
  8
1
 62
2
 10
322.629458289104
 20
464.0641880218313
 30
0
 11
321.529458289104
 21
464.0641880218313
 31
0
  0
LINE
  8
1
 62
2
 10
322.629458289104
 20
465.3016880218314
 30
0
 11
322.629458289104
 21
464.0641880218313
 31
0
  0
LINE
  8
1
 62
2
 10
321.529458289104
 20
465.3016880218314
 30
0
 11
322.629458289104
 21
465.3016880218314
 31
0
  0
LINE
  8
1
 62
2
 10
321.529458289104
 20
464.0641880218313
 30
0
 11
321.529458289104
 21
465.3016880218314
 31
0
  0
LINE
  8
1
 62
2
 10
319.879458289104
 20
468.7048130218313
 30
0
 11
319.879458289104
 21
463.7548130218314
 31
0
  0
LINE
  8
1
 62
2
 10
319.191958289104
 20
467.7766880218313
 30
0
 11
318.779458289104
 21
468.3954380218314
 31
0
  0
LINE
  8
1
 62
2
 10
319.191958289104
 20
466.5391880218314
 30
0
 11
318.779458289104
 21
467.1579380218313
 31
0
  0
LINE
  8
1
 62
2
 10
318.3669582891041
 20
465.4563755218313
 30
0
 11
320.704458289104
 21
465.9204380218314
 31
0
  0
LINE
  8
1
 62
2
 10
317.816958289104
 20
466.2298130218313
 30
0
 11
318.091958289104
 21
465.6110630218313
 31
0
  0
LINE
  8
1
 62
2
 10
317.404458289104
 20
468.5501255218313
 30
0
 11
317.404458289104
 21
463.9095005218313
 31
0
  0
LINE
  8
1
 62
2
 10
317.816958289104
 20
467.6220005218314
 30
0
 11
318.091958289104
 21
468.2407505218314
 31
0
  0
LINE
  8
1
 62
2
 10
316.579458289104
 20
468.0860630218314
 30
0
 11
316.9919582891041
 21
467.4673130218314
 31
0
  0
LINE
  8
1
 62
2
 10
318.3669582891041
 20
466.8485630218314
 30
0
 11
316.441958289104
 21
466.8485630218314
 31
0
  0
LINE
  8
1
 62
2
 10
316.854458289104
 20
465.4563755218313
 30
0
 11
317.404458289104
 21
466.8485630218314
 31
0
  0
LINE
  8
1
 62
2
 10
316.441958289104
 20
464.6829380218313
 30
0
 11
316.854458289104
 21
465.4563755218313
 31
0
  0
LINE
  8
1
 62
2
 10
314.9294582891041
 20
464.0641880218313
 30
0
 11
314.516958289104
 21
464.0641880218313
 31
0
  0
LINE
  8
1
 62
2
 10
314.791958289104
 20
468.5501255218313
 30
0
 11
314.9294582891041
 21
464.0641880218313
 31
0
  0
LINE
  8
1
 62
2
 10
315.6169582891041
 20
467.1579380218313
 30
0
 11
313.5544582891041
 21
467.1579380218313
 31
0
  0
LINE
  8
1
 62
2
 10
314.104458289104
 20
465.6110630218313
 30
0
 11
314.791958289104
 21
467.0032505218313
 31
0
  0
LINE
  8
1
 62
2
 10
313.279458289104
 20
464.6829380218313
 30
0
 11
314.104458289104
 21
465.6110630218313
 31
0
  0
LINE
  8
1
 62
2
 10
312.454458289104
 20
467.1579380218313
 30
0
 11
313.141958289104
 21
466.0751255218314
 31
0
  0
LINE
  8
1
 62
2
 10
312.041958289104
 20
466.2298130218313
 30
0
 11
312.454458289104
 21
467.1579380218313
 31
0
  0
LINE
  8
1
 62
2
 10
311.4919582891041
 20
465.3016880218314
 30
0
 11
312.041958289104
 21
466.2298130218313
 31
0
  0
LINE
  8
1
 62
2
 10
313.141958289104
 20
467.3126255218314
 30
0
 11
311.629458289104
 21
467.3126255218314
 31
0
  0
LINE
  8
1
 62
2
 10
312.454458289104
 20
463.7548130218314
 30
0
 11
312.454458289104
 21
468.7048130218313
 31
0
  0
LINE
  8
1
 62
2
 10
299.4693245206121
 20
456.4889148565923
 30
0
 11
298.9743245206121
 21
455.4989148565923
 31
0
  0
LINE
  8
1
 62
2
 10
299.7168245206122
 20
457.4789148565923
 30
0
 11
299.4693245206121
 21
456.4889148565923
 31
0
  0
LINE
  8
1
 62
2
 10
299.7168245206122
 20
458.4689148565923
 30
0
 11
299.7168245206122
 21
457.4789148565923
 31
0
  0
LINE
  8
1
 62
2
 10
299.4693245206121
 20
459.4589148565923
 30
0
 11
299.7168245206122
 21
458.4689148565923
 31
0
  0
LINE
  8
1
 62
2
 10
298.9743245206121
 20
460.4489148565923
 30
0
 11
299.4693245206121
 21
459.4589148565923
 31
0
  0
LINE
  8
1
 62
2
 10
297.5993245206121
 20
455.6536023565923
 30
0
 11
297.1868245206122
 21
455.6536023565923
 31
0
  0
LINE
  8
1
 62
2
 10
297.7368245206122
 20
455.9629773565923
 30
0
 11
297.5993245206121
 21
455.6536023565923
 31
0
  0
LINE
  8
1
 62
2
 10
297.7368245206122
 20
458.5926648565923
 30
0
 11
297.7368245206122
 21
455.9629773565923
 31
0
  0
LINE
  8
1
 62
2
 10
296.7743245206122
 20
458.5926648565923
 30
0
 11
298.4243245206122
 21
458.5926648565923
 31
0
  0
LINE
  8
1
 62
2
 10
296.9118245206121
 20
459.8301648565922
 30
0
 11
298.1493245206122
 21
459.8301648565922
 31
0
  0
LINE
  8
1
 62
2
 10
296.2243245206121
 20
458.1286023565923
 30
0
 11
296.2243245206121
 21
455.6536023565923
 31
0
  0
LINE
  8
1
 62
2
 10
295.9493245206122
 20
457.6645398565923
 30
0
 11
295.5368245206121
 21
457.2004773565923
 31
0
  0
LINE
  8
1
 62
2
 10
296.7743245206122
 20
459.2114148565923
 30
0
 11
295.9493245206122
 21
457.6645398565923
 31
0
  0
LINE
  8
1
 62
2
 10
296.4993245206122
 20
460.1395398565923
 30
0
 11
295.8118245206122
 21
459.0567273565922
 31
0
  0
LINE
  8
1
 62
2
 10
294.9868245206122
 20
459.0567273565922
 30
0
 11
295.5368245206121
 21
457.8192273565923
 31
0
  0
LINE
  8
1
 62
2
 10
294.2993245206122
 20
457.3551648565923
 30
0
 11
294.1618245206121
 21
457.0457898565923
 31
0
  0
LINE
  8
1
 62
2
 10
294.5743245206122
 20
457.8192273565923
 30
0
 11
294.2993245206122
 21
457.3551648565923
 31
0
  0
LINE
  8
1
 62
2
 10
294.9868245206122
 20
459.0567273565922
 30
0
 11
294.5743245206122
 21
457.8192273565923
 31
0
  0
LINE
  8
1
 62
2
 10
294.9868245206122
 20
460.2942273565923
 30
0
 11
294.9868245206122
 21
455.6536023565923
 31
0
  0
LINE
  8
1
 62
2
 10
294.2993245206122
 20
459.0567273565922
 30
0
 11
295.6743245206122
 21
459.0567273565922
 31
0
  0
LINE
  8
1
 62
2
 10
289.4868245206122
 20
455.4989148565923
 30
0
 11
293.0618245206122
 21
455.4989148565923
 31
0
  0
LINE
  8
1
 62
2
 10
289.6243245206122
 20
456.4270398565923
 30
0
 11
289.4868245206122
 21
455.4989148565923
 31
0
  0
LINE
  8
1
 62
2
 10
289.7618245206122
 20
456.7364148565923
 30
0
 11
289.6243245206122
 21
456.4270398565923
 31
0
  0
LINE
  8
1
 62
2
 10
290.1743245206122
 20
457.0457898565923
 30
0
 11
289.7618245206122
 21
456.7364148565923
 31
0
  0
LINE
  8
1
 62
2
 10
292.3743245206122
 20
457.3551648565923
 30
0
 11
290.1743245206122
 21
457.0457898565923
 31
0
  0
LINE
  8
1
 62
2
 10
292.9243245206122
 20
457.6645398565923
 30
0
 11
292.3743245206122
 21
457.3551648565923
 31
0
  0
LINE
  8
1
 62
2
 10
293.0618245206122
 20
457.9739148565923
 30
0
 11
292.9243245206122
 21
457.6645398565923
 31
0
  0
LINE
  8
1
 62
2
 10
293.0618245206122
 20
458.7473523565923
 30
0
 11
293.0618245206122
 21
457.9739148565923
 31
0
  0
LINE
  8
1
 62
2
 10
292.9243245206122
 20
459.0567273565922
 30
0
 11
293.0618245206122
 21
458.7473523565923
 31
0
  0
LINE
  8
1
 62
2
 10
292.3743245206122
 20
459.3661023565923
 30
0
 11
292.9243245206122
 21
459.0567273565922
 31
0
  0
LINE
  8
1
 62
2
 10
291.8243245206122
 20
459.5207898565923
 30
0
 11
292.3743245206122
 21
459.3661023565923
 31
0
  0
LINE
  8
1
 62
2
 10
290.8618245206122
 20
459.5207898565923
 30
0
 11
291.8243245206122
 21
459.5207898565923
 31
0
  0
LINE
  8
1
 62
2
 10
290.3118245206122
 20
459.3661023565923
 30
0
 11
290.8618245206122
 21
459.5207898565923
 31
0
  0
LINE
  8
1
 62
2
 10
289.7618245206122
 20
459.0567273565922
 30
0
 11
290.3118245206122
 21
459.3661023565923
 31
0
  0
LINE
  8
1
 62
2
 10
289.6243245206122
 20
458.7473523565923
 30
0
 11
289.7618245206122
 21
459.0567273565922
 31
0
  0
LINE
  8
1
 62
2
 10
287.0118245206122
 20
458.7473523565923
 30
0
 11
287.8368245206122
 21
457.8192273565923
 31
0
  0
LINE
  8
1
 62
2
 10
288.3868245206122
 20
459.8301648565922
 30
0
 11
284.2618245206122
 21
459.8301648565922
 31
0
  0
LINE
  8
1
 62
2
 10
286.3243245206122
 20
455.4989148565923
 30
0
 11
286.3243245206122
 21
459.8301648565922
 31
0
  0
LINE
  8
1
 62
2
 10
280.5493245206122
 20
456.4270398565923
 30
0
 11
282.7493245206122
 21
456.4270398565923
 31
0
  0
LINE
  8
1
 62
2
 10
282.7493245206122
 20
455.6536023565923
 30
0
 11
282.7493245206122
 21
457.2004773565923
 31
0
  0
LINE
  8
1
 62
2
 10
280.5493245206122
 20
455.6536023565923
 30
0
 11
282.7493245206122
 21
455.6536023565923
 31
0
  0
LINE
  8
1
 62
2
 10
280.5493245206122
 20
457.2004773565923
 30
0
 11
280.5493245206122
 21
455.6536023565923
 31
0
  0
LINE
  8
1
 62
2
 10
282.7493245206122
 20
457.2004773565923
 30
0
 11
280.5493245206122
 21
457.2004773565923
 31
0
  0
LINE
  8
1
 62
2
 10
282.8868245206122
 20
458.5926648565923
 30
0
 11
283.5743245206122
 21
457.8192273565923
 31
0
  0
LINE
  8
1
 62
2
 10
282.4743245206121
 20
459.2114148565923
 30
0
 11
282.8868245206122
 21
458.5926648565923
 31
0
  0
LINE
  8
1
 62
2
 10
282.4743245206121
 20
459.9848523565923
 30
0
 11
282.4743245206121
 21
457.6645398565923
 31
0
  0
LINE
  8
1
 62
2
 10
281.7868245206121
 20
458.1286023565923
 30
0
 11
282.4743245206121
 21
459.2114148565923
 31
0
  0
LINE
  8
1
 62
2
 10
281.3743245206122
 20
457.8192273565923
 30
0
 11
281.7868245206121
 21
458.1286023565923
 31
0
  0
LINE
  8
1
 62
2
 10
280.9618245206122
 20
458.7473523565923
 30
0
 11
281.3743245206122
 21
458.2832898565922
 31
0
  0
LINE
  8
1
 62
2
 10
280.2743245206122
 20
458.4379773565923
 30
0
 11
280.6868245206122
 21
459.2114148565923
 31
0
  0
LINE
  8
1
 62
2
 10
279.8618245206122
 20
457.9739148565923
 30
0
 11
280.2743245206122
 21
458.4379773565923
 31
0
  0
LINE
  8
1
 62
2
 10
280.6868245206122
 20
459.9848523565923
 30
0
 11
280.6868245206122
 21
457.6645398565923
 31
0
  0
LINE
  8
1
 62
2
 10
281.3743245206122
 20
459.2114148565923
 30
0
 11
279.9993245206122
 21
459.2114148565923
 31
0
  0
LINE
  8
1
 62
2
 10
283.2993245206122
 20
459.2114148565923
 30
0
 11
281.6493245206122
 21
459.2114148565923
 31
0
  0
LINE
  8
1
 62
2
 10
279.4493245206122
 20
460.2942273565923
 30
0
 11
283.2993245206122
 21
460.2942273565923
 31
0
  0
LINE
  8
1
 62
2
 10
279.4493245206122
 20
457.6645398565923
 30
0
 11
279.4493245206122
 21
460.2942273565923
 31
0
  0
LINE
  8
1
 62
2
 10
279.3118245206122
 20
456.2723523565923
 30
0
 11
279.4493245206122
 21
457.6645398565923
 31
0
  0
LINE
  8
1
 62
2
 10
279.1743245206122
 20
455.8082898565923
 30
0
 11
279.3118245206122
 21
456.2723523565923
 31
0
  0
LINE
  8
1
 62
2
 10
277.6618245206121
 20
457.2004773565923
 30
0
 11
277.7993245206122
 21
457.5098523565922
 31
0
  0
LINE
  8
1
 62
2
 10
276.9743245206121
 20
457.2004773565923
 30
0
 11
277.6618245206121
 21
457.2004773565923
 31
0
  0
LINE
  8
1
 62
2
 10
276.8368245206122
 20
457.5098523565922
 30
0
 11
276.9743245206121
 21
457.2004773565923
 31
0
  0
LINE
  8
1
 62
2
 10
276.8368245206122
 20
459.9848523565923
 30
0
 11
276.8368245206122
 21
457.5098523565922
 31
0
  0
LINE
  8
1
 62
2
 10
274.3618245206122
 20
459.9848523565923
 30
0
 11
278.4868245206122
 21
459.9848523565923
 31
0
  0
LINE
  8
1
 62
2
 10
275.8743245206122
 20
458.2832898565922
 30
0
 11
275.8743245206122
 21
459.9848523565923
 31
0
  0
LINE
  8
1
 62
2
 10
275.4618245206122
 20
457.3551648565923
 30
0
 11
275.8743245206122
 21
458.2832898565922
 31
0
  0
LINE
  8
1
 62
2
 10
275.0493245206122
 20
456.8911023565923
 30
0
 11
275.4618245206122
 21
457.3551648565923
 31
0
  0
LINE
  8
1
 62
2
 10
278.0743245206122
 20
455.8082898565923
 30
0
 11
274.7743245206122
 21
455.8082898565923
 31
0
  0
LINE
  8
1
 62
2
 10
278.0743245206122
 20
458.7473523565923
 30
0
 11
278.0743245206122
 21
455.8082898565923
 31
0
  0
LINE
  8
1
 62
2
 10
274.7743245206122
 20
458.7473523565923
 30
0
 11
278.0743245206122
 21
458.7473523565923
 31
0
  0
LINE
  8
1
 62
2
 10
274.7743245206122
 20
455.8082898565923
 30
0
 11
274.7743245206122
 21
458.7473523565923
 31
0
  0
LINE
  8
1
 62
2
 10
272.2443245206122
 20
456.4889148565923
 30
0
 11
272.7393245206122
 21
455.4989148565923
 31
0
  0
LINE
  8
1
 62
2
 10
271.9968245206122
 20
457.4789148565923
 30
0
 11
272.2443245206122
 21
456.4889148565923
 31
0
  0
LINE
  8
1
 62
2
 10
271.9968245206122
 20
458.4689148565923
 30
0
 11
271.9968245206122
 21
457.4789148565923
 31
0
  0
LINE
  8
1
 62
2
 10
272.2443245206122
 20
459.4589148565923
 30
0
 11
271.9968245206122
 21
458.4689148565923
 31
0
  0
LINE
  8
1
 62
2
 10
272.7393245206122
 20
460.4489148565923
 30
0
 11
272.2443245206122
 21
459.4589148565923
 31
0
  0
ARC
  8
1
 62
7
 10
428.6142027330372
 20
510.3770565705019
 30
0
 40
33.50000000000018
 50
274.1071331215383
 51
315.1662635586992
  0
ARC
  8
1
 62
7
 10
375.6142027330372
 20
553.3101186016347
 30
0
 40
33.49999999999991
 50
134.3172027612087
 51
152.2139609620409
  0
ARC
  8
1
 62
7
 10
371.2782516168638
 20
631.3358502858487
 30
0
 40
153.4999999999999
 50
238.8797743342072
 51
262.9148773759708
  0
ARC
  8
1
 62
7
 10
309.5856079426932
 20
528.9268499588739
 30
0
 40
34
 50
90
 51
119.7243291471075
  0
ARC
  8
1
 62
7
 10
339.9967749141967
 20
567.9268499588739
 30
0
 40
5
 50
270
 51
337.6876635037723
  0
ARC
  8
1
 62
7
 10
291.1142027330372
 20
495.9268499588739
 30
0
 40
4
 50
90
 51
180
  0
ARC
  8
1
 62
7
 10
290.7441642612764
 20
561.9268499588739
 30
0
 40
3.99999999999993
 50
204.8391874375066
 51
299.7243291471036
  0
ARC
  8
1
 62
7
 10
375.6142027330372
 20
553.3101186016347
 30
0
 40
33.50000000000045
 50
152.2139609620409
 51
157.6876635037726
  0
ARC
  8
1
 62
7
 10
350.1142027330372
 20
579.4252483160358
 30
0
 40
3
 50
314.3172027612093
 51
0
  0
ARC
  8
1
 62
7
 10
350.1142027330372
 20
582.4901513726716
 30
0
 40
3
 50
0
 51
54.31466528734842
  0
ARC
  8
1
 62
7
 10
402.1142027330372
 20
879.4268499588739
 30
0
 40
403.5000000000002
 50
269.5750583081153
 51
270.4249416918846
  0
ARC
  8
1
 62
7
 10
399.1142027330372
 20
474.9379749573479
 30
0
 40
1
 50
0
 51
89.57505830811698
  0
ARC
  8
1
 62
7
 10
405.1142027330372
 20
474.9379749573479
 30
0
 40
0.9999999999998807
 50
90.42494169190907
 51
180
  0
ARC
  8
1
 62
7
 10
428.6142027330372
 20
510.3770565705019
 30
0
 40
33.49999999999994
 50
315.1662635586992
 51
332.3292992775333
  0
ARC
  8
1
 62
7
 10
460.939742107085
 20
493.4268499588739
 30
0
 40
3
 50
90
 51
152.3292992775395
  0
ARC
  8
1
 62
7
 10
402.1142027330372
 20
879.4268499588739
 30
0
 40
403.5000000000002
 50
270.4249416918846
 51
274.1071331215387
  0
ARC
  8
1
 62
7
 10
482.1329678743534
 20
492.4268499588739
 30
0
 40
3.99999999999983
 50
5.552051472141872
 51
90
  0
ARC
  8
1
 62
7
 10
454.1142027330372
 20
582.4901513726716
 30
0
 40
3.000000000000034
 50
125.6853347126516
 51
180
  0
ARC
  8
1
 62
7
 10
454.1142027330372
 20
579.4252483160358
 30
0
 40
3
 50
180
 51
225.6827972387915
  0
ARC
  8
1
 62
7
 10
402.1142027330372
 20
879.4268499588739
 30
0
 40
403.5000000000001
 50
262.9148773759707
 51
269.5750583081153
  0
ARC
  8
1
 62
7
 10
382.5862591603579
 20
525.8648958257561
 30
0
 40
3.824647014589453
 50
19.03010382039405
 51
140.3785291182765
  0
ARC
  8
1
 62
7
 10
382.5862591603579
 20
525.8648958257561
 30
0
 40
5.736970521672183
 50
15.51404292753799
 51
130.3393912275972
  0
ARC
  8
1
 62
7
 10
382.6142027330372
 20
526.797426832391
 30
0
 40
5.87057687380875
 50
200.4667014813446
 51
339.5332985186567
  0
ARC
  8
1
 62
7
 10
382.6142027330372
 20
526.797426832391
 30
0
 40
3.958253366364619
 50
211.2379332298812
 51
335.00961399899
  0
ARC
  8
1
 62
7
 10
482.1329678743511
 20
565.4268499588739
 30
0
 40
4
 50
270
 51
354.4479485278573
  0
ARC
  8
1
 62
7
 10
428.6142027330372
 20
553.3101186016347
 30
0
 40
33.49999999999993
 50
37.62851151545047
 51
45.6827972387912
  0
ARC
  8
1
 62
7
 10
462.706652432226
 20
571.1974010533729
 30
0
 40
5.000000000000037
 50
207.6846444375842
 51
256.1993960144924
  0
ARC
  8
1
 62
7
 10
428.6142027330372
 20
553.3101186016347
 30
0
 40
33.49999999999972
 50
27.68464443758719
 51
37.62851151545047
  0
ARC
  8
1
 62
7
 10
402.1142027330375
 20
744.2907311283973
 30
0
 40
59.99999999999997
 50
94.78019184719916
 51
176.1774460889802
  0
ARC
  8
1
 62
7
 10
402.1142027330375
 20
744.2907311283973
 30
0
 40
60.00000000000016
 50
4.780191740065283
 51
85.21980815280085
  0
ARC
  8
1
 62
7
 10
402.1142027330375
 20
744.2907311283973
 30
0
 40
60.00000000000016
 50
252.2919646586286
 51
265.2198081528009
  0
ARC
  8
1
 62
7
 10
482.3235539782659
 20
781.6808301918982
 30
0
 40
4.000000000000132
 50
258.0592256975355
 51
341.3809285230826
  0
ARC
  8
1
 62
7
 10
482.3235539782659
 20
706.9006320648962
 30
0
 40
4.000000000000084
 50
18.61907147691744
 51
101.9407743024652
  0
ARC
  8
1
 62
7
 10
308.8624420823364
 20
744.2907311283973
 30
0
 40
33.99999999999988
 50
99.01447858917766
 51
121.4669762932619
  0
ARC
  8
1
 62
7
 10
291.1142027330375
 20
777.2907311283989
 30
0
 40
4
 50
180
 51
270.0000000000431
  0
ARC
  8
1
 62
7
 10
402.1142027330375
 20
744.2907311283973
 30
0
 40
60.00000000000019
 50
274.7801918471992
 51
355.2198082598389
  0
ARC
  8
1
 62
7
 10
291.1142027330375
 20
711.2907311283952
 30
0
 40
4
 50
89.99999999995684
 51
180
  0
ARC
  8
1
 62
7
 10
308.8624420823364
 20
744.2907311283973
 30
0
 40
34.0000000000002
 50
238.5330237067385
 51
260.9855214108224
  0
ARC
  8
1
 62
7
 10
308.8624420823364
 20
744.2907311283973
 30
0
 40
34.0000000000002
 50
238.5330237067385
 51
260.9855214108224
  0
ARC
  8
1
 62
7
 10
402.1142027330375
 20
744.2907311283973
 30
0
 40
60.00000000000001
 50
183.8225539111155
 51
247.2009681570407
  0
ARC
  8
1
 62
7
 10
382.6142027964374
 20
679.4354894737526
 30
0
 40
1.629116505116792
 50
219.8890991476301
 51
320.1109008523699
  0
ARC
  8
1
 62
7
 10
382.6142027964374
 20
677.3459727114421
 30
0
 40
1.629116505116938
 50
39.88909914763623
 51
140.1109008523638
  0
ARC
  8
1
 62
7
 10
380.1142023866374
 20
679.4354894737526
 30
0
 40
1.629116505116705
 50
219.8890991476326
 51
320.1109008523699
  0
ARC
  8
0
 62
7
 10
440.0559375840375
 20
712.0893503593973
 30
0
 40
6.54340503031807
 50
302.2228453866986
 51
341.9010933631009
  0
ARC
  8
0
 62
7
 10
442.0239708843374
 20
779.3444006230973
 30
0
 40
3.084406910947068
 50
15.57731664379855
 51
60.45378535479851
  0
ARC
  8
0
 62
7
 10
402.1142027330375
 20
744.2907311283973
 30
0
 40
54.99999999999994
 50
185.2159085705
 51
244.9931082522999
  0
ARC
  8
0
 62
7
 10
402.1142027330375
 20
744.2907311283973
 30
0
 40
55.00000000000006
 50
250.6208310664999
 51
265.8293520880999
  0
ARC
  8
0
 62
7
 10
347.3419469825374
 20
739.2907311283973
 30
0
 40
1.000000000000016
 50
5.215908570501609
 51
90
  0
ARC
  8
0
 62
7
 10
406.1142027330375
 20
681.2907311283973
 30
0
 40
1
 50
270
 51
0
  0
ARC
  8
0
 62
7
 10
398.1142027330375
 20
681.2907311283973
 30
0
 40
1
 50
180
 51
270
  0
ARC
  8
0
 62
7
 10
465.1142027330375
 20
740.2907311283973
 30
0
 40
1
 50
270
 51
0
  0
ARC
  8
0
 62
7
 10
465.1142027330375
 20
748.2907311283973
 30
0
 40
1
 50
0
 51
90
  0
ARC
  8
0
 62
7
 10
406.1142027330375
 20
807.2907311283973
 30
0
 40
1
 50
0
 51
90
  0
ARC
  8
0
 62
7
 10
398.1142027330375
 20
807.2907311283973
 30
0
 40
1
 50
90
 51
180
  0
ARC
  8
0
 62
7
 10
396.1142027330375
 20
687.6074002452974
 30
0
 40
1
 50
0
 51
83.95767158089933
  0
ARC
  8
0
 62
7
 10
408.1142027330375
 20
687.6074002452974
 30
0
 40
0.9999999999999185
 50
96.0423284191039
 51
180
  0
ARC
  8
0
 62
7
 10
402.1142027330375
 20
744.2907311283973
 30
0
 40
55.99999999999999
 50
185.0324134954999
 51
245.4694375213
  0
ARC
  8
0
 62
7
 10
402.1142027330375
 20
744.2907311283973
 30
0
 40
56.00000000000001
 50
250.9803227621
 51
263.9576715808998
  0
ARC
  8
0
 62
7
 10
402.1142027330375
 20
744.2907311283973
 30
0
 40
56.00000000000007
 50
276.0423284191001
 51
353.9576715809001
  0
ARC
  8
0
 62
7
 10
458.7975336161375
 20
738.2907311283973
 30
0
 40
1
 50
90
 51
173.9576715809036
  0
ARC
  8
0
 62
7
 10
458.7975336161375
 20
750.2907311283973
 30
0
 40
1.000000000000076
 50
186.0423284190964
 51
270
  0
ARC
  8
0
 62
7
 10
402.1142027330375
 20
744.2907311283973
 30
0
 40
56.00000000000007
 50
96.04232841910012
 51
174.9675865044999
  0
ARC
  8
0
 62
7
 10
396.1142027330375
 20
800.9740620113973
 30
0
 40
1.000000000000139
 50
276.0423284190993
 51
0
  0
ARC
  8
0
 62
7
 10
408.1142027330375
 20
800.9740620113973
 30
0
 40
1
 50
180
 51
263.9576715808975
  0
ARC
  8
0
 62
7
 10
402.1142027330375
 20
744.2907311283973
 30
0
 40
55.99999999999996
 50
6.042328419100132
 51
83.95767158089994
  0
ARC
  8
0
 62
7
 10
402.1142027330375
 20
744.2907311283973
 30
0
 40
54.99999999999987
 50
265.8293520880999
 51
274.1706479118999
  0
ARC
  8
0
 62
7
 10
402.1142027330375
 20
744.2907311283973
 30
0
 40
54.99999999999987
 50
274.1706479118999
 51
174.7840914295
  0
ARC
  8
0
 62
7
 10
345.3339244667375
 20
739.2907311283973
 30
0
 40
0.9999999999998164
 50
5.032413495507803
 51
90
  0
ARC
  8
0
 62
7
 10
345.3339244667375
 20
749.2907311283973
 30
0
 40
1
 50
270
 51
354.9675865045052
  0
ARC
  8
0
 62
7
 10
340.1142018789375
 20
741.2907281112973
 30
0
 40
0.9999971729006794
 50
209.9999010578003
 51
270.0001069937956
  0
ARC
  8
0
 62
7
 10
340.1142027330375
 20
741.2907311283973
 30
0
 40
1
 50
180
 51
209.9999999999957
  0
ARC
  8
0
 62
7
 10
340.1142018789375
 20
747.2907341453974
 30
0
 40
0.9999971729004455
 50
89.99989300620443
 51
150.0000989421997
  0
ARC
  8
0
 62
7
 10
340.1142027330375
 20
747.2907311283973
 30
0
 40
1.000000000000132
 50
150.0000000000044
 51
180
  0
ARC
  8
0
 62
7
 10
402.1142027330375
 20
744.2907311283973
 30
0
 40
53.9999999999999
 50
250.2471847302
 51
244.4971777419999
  0
ARC
  8
0
 62
7
 10
347.3419469825374
 20
749.2907311283973
 30
0
 40
1
 50
270
 51
354.7840914294984
  0
ARC
  8
0
 62
7
 10
402.1142027330375
 20
744.2907311283973
 30
0
 40
39.99999999999998
 50
242.8546096909998
 51
234.4614909118001
  0
ARC
  8
0
 62
7
 10
402.1142027330375
 20
744.2907311283973
 30
0
 40
41.99999999999995
 50
244.2450029883999
 51
236.3876254014999
  0
ARC
  8
0
 62
7
 10
402.1142027330375
 20
744.2907311283973
 30
0
 40
49.99999999999994
 50
248.5924172960999
 51
242.2897779506999
  0
ARC
  8
0
 62
7
 10
386.8642027330375
 20
767.6907311283974
 30
0
 40
1
 50
0
 51
90
  0
ARC
  8
0
 62
7
 10
383.8018108649375
 20
767.6907311283974
 30
0
 40
1
 50
90
 51
135.099127844003
  0
ARC
  8
0
 62
7
 10
401.8642027330375
 20
749.6907311283974
 30
0
 40
26.4999999999999
 50
135.0991278440006
 51
143.5062334002
  0
ARC
  8
0
 62
7
 10
386.8642027330375
 20
729.6907311283974
 30
0
 40
1
 50
270
 51
0
  0
ARC
  8
0
 62
7
 10
381.3642027330375
 20
764.8564820164972
 30
0
 40
1.000000000000035
 50
143.5062334002061
 51
180
  0
ARC
  8
0
 62
7
 10
377.3642027330375
 20
729.6907311283974
 30
0
 40
1
 50
180
 51
270
  0
ARC
  8
0
 62
2
 10
382.6131012036374
 20
757.6553831851973
 30
0
 40
0.2383902149384179
 50
38.97416006618092
 51
94.28774476861184
  0
ARC
  8
0
 62
2
 10
383.3071249255374
 20
757.6477682072973
 30
0
 40
0.2782576704396624
 50
90.16606551890448
 51
145.5129029911275
  0
ARC
  8
0
 62
2
 10
383.3392688365375
 20
757.5059797278973
 30
0
 40
0.4480219861067779
 50
265.7822928863922
 51
320.9561083240888
  0
ARC
  8
0
 62
2
 10
383.3371091967374
 20
757.6293275360974
 30
0
 40
0.2982906029921322
 50
41.57396961319479
 51
95.92485712740884
  0
ARC
  8
0
 62
2
 10
383.1939647675374
 20
756.2881873843974
 30
0
 40
0.5973241718892655
 50
84.76181889909884
 51
135.0966939596038
  0
ARC
  8
0
 62
2
 10
383.2096570913375
 20
754.8718163273973
 30
0
 40
0.5908251075593386
 50
105.9402624717001
 51
183.6868621334032
  0
ARC
  8
0
 62
2
 10
383.7149727750374
 20
754.7732180412972
 30
0
 40
0.6925313153800558
 50
224.7752180181041
 51
275.0881604888022
  0
ARC
  8
0
 62
2
 10
383.7149727750374
 20
756.1585873793974
 30
0
 40
0.692531315380216
 50
224.7752180181174
 51
275.0881604888006
  0
ARC
  8
0
 62
7
 10
375.9642027330374
 20
746.6907311283974
 30
0
 40
0.5
 50
180
 51
270
  0
ARC
  8
0
 62
7
 10
375.9642027330374
 20
752.6907311283974
 30
0
 40
0.5
 50
90
 51
180
  0
ARC
  8
0
 62
7
 10
377.4642027330374
 20
752.6907311283974
 30
0
 40
0.5
 50
0
 51
90
  0
ARC
  8
0
 62
7
 10
377.4642027330374
 20
746.6907311283974
 30
0
 40
0.5
 50
270
 51
0
  0
ARC
  8
0
 62
7
 10
402.1142027330375
 20
744.2907311283973
 30
0
 40
32.70000000000007
 50
244.1650748022999
 51
115.8349251977001
  0
ARC
  8
0
 62
7
 10
347.3683609635374
 20
739.2942837377973
 30
0
 40
0.9733633841984499
 50
5.276615130303608
 51
28.2359831438963
  0
ARC
  8
0
 62
7
 10
340.1142027330375
 20
613.4268499588736
 30
0
 40
1
 50
90
 51
180
  0
ARC
  8
0
 62
7
 10
340.1142027330375
 20
588.9268499588734
 30
0
 40
1
 50
180
 51
270
  0
ARC
  8
0
 62
7
 10
310.6142027330375
 20
615.4268499588736
 30
0
 40
37.50000000000006
 50
321.8750883778997
 51
337.7982806810999
  0
ARC
  8
0
 62
7
 10
310.6142027331374
 20
615.4268499587736
 30
0
 40
37.49999999992583
 50
319.7801757790998
 51
321.8750883779
  0
ARC
  8
0
 62
7
 10
465.1142027330375
 20
605.9268499588734
 30
0
 40
1
 50
0
 51
90
  0
ARC
  8
0
 62
7
 10
465.1142027330375
 20
588.9268499588734
 30
0
 40
1
 50
270
 51
0
  0
ARC
  8
0
 62
7
 10
343.2971545181374
 20
588.7035624400735
 30
0
 40
2.048972703471482
 50
337.7236579969033
 51
6.256252402601736
  0
ARC
  8
0
 62
7
 10
345.1925113681374
 20
586.9275424796736
 30
0
 40
0.9993077198495476
 50
359.9602939914885
 51
89.9602388824913
  0
ARC
  8
0
 62
7
 10
347.3378471948374
 20
605.9229275858734
 30
0
 40
2.003926566784434
 50
89.88277978760065
 51
179.8878523979965
  0
ARC
  8
0
 62
7
 10
339.6615397089374
 20
613.8107002580734
 30
0
 40
8.684753358277229
 50
357.4668055637998
 51
10.72471491390035
  0
ARC
  8
0
 62
7
 10
347.3398722759374
 20
607.9247838431736
 30
0
 40
0.9979360409551422
 50
270.1191178751973
 51
0.1186246306923146
  0
ARC
  8
0
 62
7
 10
456.8755287594032
 20
606.0001199954161
 30
0
 40
0.9304498355703939
 50
355.4834590716781
 51
84.87492825686904
  0
ARC
  8
0
 62
7
 10
347.3358852365375
 20
605.9210358839735
 30
0
 40
1.00583234087004
 50
89.65469934340749
 51
179.6688078197014
  0
ARC
  8
0
 62
7
 10
464.8883677194374
 20
588.5324335456735
 30
0
 40
7.096248008429745
 50
176.8138025396005
 51
193.0768699559009
  0
ARC
  8
0
 62
7
 10
338.2429587156374
 20
588.4810966242735
 30
0
 40
8.099386402759789
 50
348.9364975865001
 51
3.154892731399069
  0
ARC
  8
0
 62
7
 10
406.1142027330375
 20
588.9268499588734
 30
0
 40
1
 50
270
 51
0
  0
ARC
  8
0
 62
7
 10
406.1142027330375
 20
605.9268499588734
 30
0
 40
1
 50
0
 51
90
  0
ARC
  8
0
 62
7
 10
398.1142027330375
 20
605.9268499588734
 30
0
 40
1
 50
90
 51
180
  0
ARC
  8
0
 62
7
 10
398.1142027330375
 20
588.9268499588734
 30
0
 40
1
 50
180
 51
270
  0
ARC
  8
0
 62
7
 10
347.1142027330375
 20
615.4268499588736
 30
0
 40
1
 50
270
 51
0
  0
ARC
  8
0
 62
7
 10
345.1142027330375
 20
586.9268499588734
 30
0
 40
1
 50
0
 51
90
  0
ARC
  8
0
 62
7
 10
459.1142027330375
 20
586.9268499588734
 30
0
 40
1
 50
90
 51
180
  0
ARC
  8
0
 62
7
 10
457.0364243534624
 20
607.8490715792987
 30
0
 40
0.9254956474821879
 50
175.1791936665419
 51
265.1791936665437
  0
CIRCLE
  8
1
 62
7
 10
341.4204350680563
 20
565.9268499588739
 30
0
 40
1
  0
CIRCLE
  8
0
 62
7
 10
343.1142027330375
 20
610.9268499588736
 30
0
 40
1.299999999999955
  0
CIRCLE
  8
0
 62
7
 10
381.3642027330375
 20
620.4268499588736
 30
0
 40
3.099999999999909
  0
CIRCLE
  8
0
 62
7
 10
381.3642027330375
 20
620.4268499588736
 30
0
 40
2.5
  0
ARC
  8
1
 62
7
 10
342.067842726062
 20
562.9268499588739
 30
0
 40
6
 50
90
 51
134.9999999999985
  0
ARC
  8
1
 62
7
 10
482.0699614076559
 20
565.9474843358295
 30
0
 40
4.521073432820853
 50
256.9979058244985
 51
270.7985098100124
  0
ARC
  8
1
 62
7
 10
334.582561351824
 20
746.7907311283973
 30
0
 40
1
 50
180
 51
270
  0
ARC
  8
1
 62
7
 10
334.582561351824
 20
741.7907311283973
 30
0
 40
1
 50
90
 51
180
  0
ARC
  8
1
 62
7
 10
355.1315252537886
 20
796.1812699276895
 30
0
 40
9.999999999999824
 50
279.0144785891775
 51
312.158288767001
  0
ARC
  8
1
 62
7
 10
355.1315252537886
 20
692.4001923291046
 30
0
 40
10.00000000000013
 50
47.84171123299985
 51
80.98552141082266
  0
ARC
  8
1
 62
7
 10
450.9406284321997
 20
794.4502781104443
 30
0
 40
9.999999999999877
 50
225.771600292698
 51
258.0592256975342
  0
ARC
  8
1
 62
7
 10
450.9406284321997
 20
694.1311841463498
 30
0
 40
9.999999999999915
 50
101.9407743024658
 51
134.2283997073012
  0
LINE
  8
1
 62
2
 10
419.5554556492892
 20
647.7649989670499
 30
0
 11
388.8798042612979
 21
647.7649989670499
 31
0
  0
LINE
  8
1
 62
2
 10
388.8798042612979
 20
647.7649989670499
 30
0
 11
400.7890458857437
 21
682.2083425931103
 31
0
  0
LINE
  8
1
 62
2
 10
400.5684197237524
 20
679.1103601812549
 30
0
 11
400.7890458857437
 21
682.2083425931103
 31
0
  0
LINE
  8
1
 62
2
 10
399.0489868187921
 20
679.6357242049618
 30
0
 11
400.7890458857437
 21
682.2083425931103
 31
0
  0
LINE
  8
1
 62
2
 10
321.8691054538892
 20
595.9643360163489
 30
0
 11
264.9252144022782
 21
595.9643360163489
 31
0
  0
LINE
  8
1
 62
2
 10
264.9252144022782
 20
595.9643360163489
 30
0
 11
274.4326457486943
 21
566.8646618383036
 31
0
  0
LINE
  8
1
 62
2
 10
272.7368543487262
 20
569.4666730710454
 30
0
 11
274.4326457486943
 21
566.8646618383036
 31
0
  0
LINE
  8
1
 62
2
 10
274.2650529331737
 20
569.9659653667745
 30
0
 11
274.4326457486943
 21
566.8646618383036
 31
0
  0
LINE
  8
1
 62
2
 10
309.883748049839
 20
462.3783519230793
 30
0
 11
331.332132565837
 21
462.3783519230793
 31
0
  0
LINE
  8
1
 62
2
 10
331.332132565837
 20
462.3783519230793
 30
0
 11
341.0598291138834
 21
524.788763270173
 31
0
  0
LINE
  8
1
 62
2
 10
341.3920654697444
 20
521.7007558331087
 30
0
 11
341.0598291138834
 21
524.788763270173
 31
0
  0
LINE
  8
1
 62
2
 10
339.8035505195876
 20
521.9483522046695
 30
0
 11
341.0598291138834
 21
524.788763270173
 31
0
  0
LINE
  8
1
 62
2
 10
271.4320154498543
 20
462.3783519230793
 30
0
 11
294.6975597426534
 21
462.3783519230793
 31
0
  0
LINE
  8
1
 62
2
 10
294.6975597426534
 20
462.3783519230793
 30
0
 11
331.9794931673908
 21
525.2653883354955
 31
0
  0
LINE
  8
1
 62
2
 10
331.1410823288446
 20
522.2748636000471
 30
0
 11
331.9794931673908
 21
525.2653883354955
 31
0
  0
LINE
  8
1
 62
2
 10
329.7581457146774
 20
523.0947233632245
 30
0
 11
331.9794931673908
 21
525.2653883354955
 31
0
  0
DIMENSION
  8
1
  6
CONTINUOUS
 62
2
  2
*D0
  3
DMST_1
 10
551.3309083418909
 20
625.9268499588736
 30
0
 11
549.030908341891
 21
549.9268499588737
 31
0
 12
0
 22
0
 32
0
 70
0
 13
439.6142027330372
 23
473.9268499588738
 33
0
 14
386.0620651689375
 24
625.9268499588736
 34
0
 50
90
 53
0
  0
DIMENSION
  8
1
  6
CONTINUOUS
 62
2
  2
*D1
  3
DMST_1
 10
527.2414365082417
 20
473.9268499588738
 30
0
 11
524.9414365082417
 21
501.4268499588736
 31
0
 12
0
 22
0
 32
0
 70
0
 13
512.5156248008809
 23
528.9268499588736
 33
0
 14
439.6142027330372
 24
473.9268499588738
 34
0
 50
90
 53
0
  0
DIMENSION
  8
1
  6
CONTINUOUS
 62
2
  2
*D2
  3
DMST_1
 10
509.1142027330373
 20
453.7195210168619
 30
0
 11
401.7078712908498
 21
456.0195210168619
 31
0
 12
0
 22
0
 32
0
 70
0
 13
264.1142027330372
 23
492.8138499588738
 33
0
 14
509.1142027330372
 24
492.8138499588738
 34
0
 53
0
  0
DIMENSION
  8
1
  6
CONTINUOUS
 62
2
  2
*D3
  3
DMST_1
 10
551.3309083418909
 20
680.2907311283973
 30
0
 11
549.030908341891
 21
744.2907311283973
 31
0
 12
0
 22
0
 32
0
 70
0
 13
406.1142027330375
 23
808.2907311283973
 33
0
 14
406.1142027330375
 24
680.2907311283973
 34
0
 50
90
 53
0
  0
DIMENSION
  8
1
  6
CONTINUOUS
 62
2
  2
*D4
  3
DMST_2
 10
287.1142027330372
 20
474.9268499588738
 30
0
 11
277.019433438175
 21
477.5268499588738
 31
0
 12
0
 22
0
 32
0
 70
1
 13
264.1142027330372
 23
492.8138499588738
 33
0
 14
287.1142027330372
 24
492.8138499588738
 34
0
 53
0
  0
ENDSEC
  0
EOF
