  0
SECTION
  2
HEADER
  9
$ACADVER
  1
AC1009
  9
$INSBASE
 10
0
 20
0
  9
$EXTMIN
 10
-306.2075742301878
 20
-195.8538588362571
  9
$EXTMAX
 10
-41.53145798773107
 20
163.8415051348096
  9
$LIMMIN
 10
-306.2075742301878
 20
-195.8538588362571
  9
$LIMMAX
 10
-41.53145798773107
 20
163.8415051348096
  9
$VIEWCTR
 10
10
 20
10
  9
$VIEWSIZE
 40
10
  9
$SNAPMODE
 70
0
  9
$SNAPUNIT
 10
1
 20
1
  9
$SNAPBASE
 10
0
 20
0
  9
$SNAPANG
 50
0
  9
$SNAPSTYLE
 70
0
  9
$SNAPISOPAIR
 70
0
  9
$GRIDMODE
 70
0
  9
$GRIDUNIT
 10
0
 20
0
  9
$ORTHOMODE
 70
0
  9
$REGENMODE
 70
1
  9
$FILLMODE
 70
1
  9
$QTEXTMODE
 70
0
  9
$DRAGMODE
 70
2
  9
$LTSCALE
 40
1
  9
$OSMODE
 70
0
  9
$ATTMODE
 70
1
  9
$TEXTSIZE
 40
3.5
  9
$TRACEWID
 40
0.5
  9
$TEXTSTYLE
  7
STANDARD
  9
$CLAYER
  8
0
  9
$CELTYPE
  6
BYLAYER
  9
$CECOLOR
 62
256
  9
$DIMSCALE
 40
1
  9
$DIMASZ
 40
0.18
  9
$DIMEXO
 40
0.0625
  9
$DIMDLI
 40
0.38
  9
$DIMRND
 40
0
  9
$DIMDLE
 40
0
  9
$DIMEXE
 40
0.18
  9
$DIMTP
 40
0
  9
$DIMTM
 40
0
  9
$DIMTXT
 40
0.18
  9
$DIMCEN
 40
0.09
  9
$DIMTSZ
 40
0
  9
$DIMTOL
 70
0
  9
$DIMLIM
 70
0
  9
$DIMTIH
 70
1
  9
$DIMTOH
 70
1
  9
$DIMSE1
 70
0
  9
$DIMSE2
 70
0
  9
$DIMTAD
 70
0
  9
$DIMZIN
 70
0
  9
$DIMBLK
  1

  9
$DIMASO
 70
1
  9
$DIMSHO
 70
1
  9
$DIMPOST
  1

  9
$DIMAPOST
  1

  9
$DIMALT
 70
0
  9
$DIMALTD
 70
2
  9
$DIMALTF
 40
25.4
  9
$DIMLFAC
 40
1
  9
$DIMTOFL
 70
0
  9
$DIMTVP
 40
0
  9
$DIMTIX
 70
0
  9
$DIMSOXD
 70
0
  9
$DIMSAH
 70
0
  9
$DIMBLK1
  1

  9
$DIMBLK2
  1

  9
$DIMSTYLE
  2
*UNNAMED
  9
$DIMCLRD
 70
0
  9
$DIMCLRE
 70
0
  9
$DIMCLRT
 70
0
  9
$DIMTFAC
 40
1
  9
$DIMGAP
 40
0.09
  9
$LUNITS
 70
2
  9
$LUPREC
 70
4
  9
$AXISMODE
 70
0
  9
$AXISUNIT
 10
0
 20
0
  9
$SKETCHINC
 40
0.1
  9
$FILLETRAD
 40
2
  9
$AUNITS
 70
0
  9
$AUPREC
 70
0
  9
$MENU
  1
ACAD
  9
$ELEVATION
 40
0
  9
$THICKNESS
 40
0
  9
$VIEWDIR
 10
0
 20
0
 30
1
  9
$LIMCHECK
 70
0
  9
$BLIPMODE
 70
1
  9
$CHAMFERA
 40
0
  9
$CHAMFERB
 40
0
  9
$FASTZOOM
 70
1
  9
$SKPOLY
 70
0
  9
$ANGBASE
 50
0
  9
$ANGDIR
 70
0
  9
$PDMODE
 70
0
  9
$PDSIZE
 40
0
  9
$PLINEWID
 40
0
  9
$COORDS
 70
2
  0
ENDSEC
  0
SECTION
  2
TABLES
  0
TABLE
  2
DIMSTYLE
 70
2
  0
DIMSTYLE
  2
DMST_1
 70
0
  3

  4

  5

  6

  7

 40
1
 41
3
 42
0.4999999999999998
 43
7
 44
1.000000000000001
 45
0
 46
0
 47
0
 48
0
140
3
141
0
142
0
143
25.4
144
1
145
0
146
1
147
0.09
 71
0
 72
0
 73
0
 74
0
 75
0
 76
0
 77
1
 78
9
170
0
171
2
172
0
173
0
174
0
175
0
176
2
177
2
178
2
  0
DIMSTYLE
  2
DMST_2
 70
0
  3

  4

  5

  6

  7

 40
1
 41
3.200000000000001
 42
0.4999999999999999
 43
7
 44
1.5
 45
0
 46
0
 47
0
 48
0
140
3.200000000000001
141
0
142
0
143
25.4
144
1
145
0
146
1
147
0.09
 71
0
 72
0
 73
0
 74
0
 75
0
 76
0
 77
1
 78
9
170
0
171
2
172
0
173
0
174
0
175
0
176
2
177
2
178
2
  0
ENDTAB
  0
TABLE
  2
LTYPE
 70
9
  0
LTYPE
  2
CONTINUOUS
 70
64
  3
Solid line
 72
65
 73
0
 40
0
  0
LTYPE
  2
BORDER
 70
64
  3
__ __ . __ __ .
 72
65
 73
6
 40
16.56491807761492
 49
4.732833736461404
 49
-2.366416868230702
 49
4.732833736461404
 49
-2.366416868230702
 49
0
 49
-2.366416868230702
  0
LTYPE
  2
CENTER
 70
64
  3
____ _ ____ _
 72
65
 73
4
 40
18.93133494584562
 49
11.83208434115351
 49
-2.366416868230702
 49
2.366416868230702
 49
-2.366416868230702
  0
LTYPE
  2
DASHDOT
 70
64
  3
__ . __ . __ .
 72
65
 73
4
 40
9.465667472922808
 49
4.732833736461404
 49
-2.366416868230702
 49
0
 49
-2.366416868230702
  0
LTYPE
  2
DASHED
 70
64
  3
__ __ __ __ __
 72
65
 73
2
 40
7.099250604692106
 49
4.732833736461404
 49
-2.366416868230702
  0
LTYPE
  2
DIVIDE
 70
64
  3
__ . . __ . . 
 72
65
 73
6
 40
11.83208434115351
 49
4.732833736461404
 49
-2.366416868230702
 49
0
 49
-2.366416868230702
 49
0
 49
-2.366416868230702
  0
LTYPE
  2
DOT
 70
64
  3
..............
 72
65
 73
4
 40
4.732833736461404
 49
0
 49
-2.366416868230702
 49
0
 49
-2.366416868230702
  0
LTYPE
  2
HIDDEN
 70
64
  3
_ _ _ _ _ _ _
 72
65
 73
2
 40
3.549625302346053
 49
2.366416868230702
 49
-1.183208434115351
  0
LTYPE
  2
PHANTOM
 70
64
  3
_____ _ _ _____ _ _ 
 72
65
 73
6
 40
23.66416868230702
 49
11.83208434115351
 49
-2.366416868230702
 49
2.366416868230702
 49
-2.366416868230702
 49
2.366416868230702
 49
-2.366416868230702
  0
ENDTAB
  0
TABLE
  2
LAYER
 70
3
  0
LAYER
  2
1
 70
0
 62
7
  6
CONTINUOUS
  0
LAYER
  2
0
 70
0
 62
7
  6
CONTINUOUS
  0
ENDTAB
  0
TABLE
  2
STYLE
 70
4
  0
STYLE
  2
STANDARD
 70
0
 40
0
 41
1
 50
0
 71
0
 42
3.5
  3
txt
  4

  0
STYLE
  2
SIMPLEX
 70
0
 40
0
 41
1
 50
0
 71
0
 42
3.5
  3
simplex
  4

  0
STYLE
  2
COMPLEX
 70
0
 40
0
 41
1
 50
0
 71
0
 42
3.5
  3
complex
  4

  0
STYLE
  2
ITALIC
 70
0
 40
0
 41
1
 50
0
 71
0
 42
3.5
  3
italic
  4

  0
ENDTAB
  0
TABLE
  2
VIEW
 70
0
  0
ENDTAB
  0
ENDSEC
  0
SECTION
  2
BLOCKS
  0
BLOCK
  8
1
  2
*X0
 70
1
 10
0
 20
0
 30
0
  0
ENDBLK
  8
0
  0
BLOCK
  8
1
  2
*X1
 70
1
 10
0
 20
0
 30
0
  0
ENDBLK
  8
0
  0
BLOCK
  8
1
  2
*D0
 70
1
 10
0
 20
0
 30
0
  0
LINE
  8
1
 62
2
 10
-107.005028963789
 20
-116.4316425428328
 30
0
 11
-107.005028963789
 21
-76.43164254283282
 31
0
  0
LINE
  8
1
 62
2
 10
-136.9131847604382
 20
-116.4316425428328
 30
0
 11
-106.005028963789
 21
-116.4316425428328
 31
0
  0
LINE
  8
1
 62
2
 10
-106.523638432966
 20
-76.43164254283282
 30
0
 11
-108.005028963789
 21
-76.43164254283282
 31
0
  0
LINE
  8
1
 62
2
 10
-107.005028963789
 20
-116.4316425428328
 30
0
 11
-107.815028963789
 21
-113.4316425428328
 31
0
  0
LINE
  8
1
 62
2
 10
-107.005028963789
 20
-116.4316425428328
 30
0
 11
-106.195028963789
 21
-113.4316425428328
 31
0
  0
LINE
  8
1
 62
2
 10
-107.005028963789
 20
-76.43164254283282
 30
0
 11
-106.195028963789
 21
-79.43164254283282
 31
0
  0
LINE
  8
1
 62
2
 10
-107.005028963789
 20
-76.43164254283282
 30
0
 11
-107.815028963789
 21
-79.43164254283282
 31
0
  0
TEXT
  8
1
 62
2
 10
-108.386848475781
 20
-102.7757631152627
 30
0
 40
3
  1
40
 50
90
 41
0.9
 51
15
  0
ENDBLK
  8
0
  0
BLOCK
  8
1
  2
*D1
 70
1
 10
0
 20
0
 30
0
  0
LINE
  8
1
 62
2
 10
-44.4091847604381
 20
-116.4316425428328
 30
0
 11
-44.4091847604381
 21
-2.881642542832772
 31
0
  0
LINE
  8
1
 62
2
 10
-136.9131847604382
 20
-116.4316425428328
 30
0
 11
-43.4091847604381
 21
-116.4316425428328
 31
0
  0
LINE
  8
1
 62
2
 10
-122.9131847604382
 20
-2.881642542832772
 30
0
 11
-43.4091847604381
 21
-2.881642542832772
 31
0
  0
LINE
  8
1
 62
2
 10
-44.4091847604381
 20
-116.4316425428328
 30
0
 11
-45.2191847604381
 21
-113.4316425428328
 31
0
  0
LINE
  8
1
 62
2
 10
-44.4091847604381
 20
-116.4316425428328
 30
0
 11
-43.5991847604381
 21
-113.4316425428328
 31
0
  0
LINE
  8
1
 62
2
 10
-44.4091847604381
 20
-2.881642542832772
 30
0
 11
-43.5991847604381
 21
-5.881642542832772
 31
0
  0
LINE
  8
1
 62
2
 10
-44.4091847604381
 20
-2.881642542832772
 30
0
 11
-45.2191847604381
 21
-5.881642542832772
 31
0
  0
TEXT
  8
1
 62
2
 10
-45.2091847604381
 20
-62.75856633147948
 30
0
 40
3
  1
113
 50
90
 41
0.9
 51
15
  0
ENDBLK
  8
0
  0
BLOCK
  8
1
  2
*D2
 70
1
 10
0
 20
0
 30
0
  0
LINE
  8
1
 62
2
 10
-42.53145798773107
 20
50.33745677315443
 30
0
 11
-42.53145798773107
 21
158.3374567731544
 31
0
  0
LINE
  8
1
 62
2
 10
-169.4131847604383
 20
50.33745677315443
 30
0
 11
-41.53145798773107
 21
50.33745677315443
 31
0
  0
LINE
  8
1
 62
2
 10
-169.4131847604383
 20
158.3374567731544
 30
0
 11
-41.53145798773107
 21
158.3374567731544
 31
0
  0
LINE
  8
1
 62
2
 10
-42.53145798773107
 20
158.3374567731544
 30
0
 11
-41.72145798773106
 21
155.3374567731544
 31
0
  0
LINE
  8
1
 62
2
 10
-42.53145798773107
 20
158.3374567731544
 30
0
 11
-43.34145798773107
 21
155.3374567731544
 31
0
  0
LINE
  8
1
 62
2
 10
-42.53145798773107
 20
50.33745677315443
 30
0
 11
-43.34145798773107
 21
53.33745677315443
 31
0
  0
LINE
  8
1
 62
2
 10
-42.53145798773107
 20
50.33745677315443
 30
0
 11
-41.72145798773107
 21
53.33745677315443
 31
0
  0
TEXT
  8
1
 62
2
 10
-43.33145798773106
 20
99.34149851221213
 30
0
 40
2.999999999999998
  1
108
 50
90
 41
0.9
 51
15
  0
ENDBLK
  8
0
  0
BLOCK
  8
1
  2
*D3
 70
1
 10
0
 20
0
 30
0
  0
LINE
  8
1
 62
2
 10
-297.4131847604382
 20
-135.803196133769
 30
0
 11
-67.41318476043819
 21
-135.803196133769
 31
0
  0
LINE
  8
1
 62
2
 10
-297.4131847604382
 20
-100.1316425428328
 30
0
 11
-297.4131847604382
 21
-136.803196133769
 31
0
  0
LINE
  8
1
 62
2
 10
-67.41318476043819
 20
-100.1316425428328
 30
0
 11
-67.41318476043819
 21
-136.803196133769
 31
0
  0
LINE
  8
1
 62
2
 10
-297.4131847604382
 20
-135.803196133769
 30
0
 11
-294.4131847604382
 21
-134.993196133769
 31
0
  0
LINE
  8
1
 62
2
 10
-297.4131847604382
 20
-135.803196133769
 30
0
 11
-294.4131847604382
 21
-136.613196133769
 31
0
  0
LINE
  8
1
 62
2
 10
-67.41318476043819
 20
-135.803196133769
 30
0
 11
-70.41318476043819
 21
-136.613196133769
 31
0
  0
LINE
  8
1
 62
2
 10
-67.41318476043819
 20
-135.803196133769
 30
0
 11
-70.41318476043819
 21
-134.993196133769
 31
0
  0
TEXT
  8
1
 62
2
 10
-176.6884048198088
 20
-135.003196133769
 30
0
 40
3
  1
230
 41
0.9
 51
15
  0
ENDBLK
  8
0
  0
BLOCK
  8
1
  2
*D4
 70
1
 10
0
 20
0
 30
0
  0
LINE
  8
1
 62
2
 10
-84.41318476043824
 20
-41.13164254283282
 30
0
 11
-67.41318476043824
 21
-41.13164254283282
 31
0
  0
LINE
  8
1
 62
2
 10
-84.41318476043824
 20
-51.2316425428328
 30
0
 11
-84.41318476043824
 21
-39.63164254283282
 31
0
  0
LINE
  8
1
 62
2
 10
-67.41318476043824
 20
-52.7316425428328
 30
0
 11
-67.41318476043824
 21
-39.63164254283282
 31
0
  0
LINE
  8
1
 62
2
 10
-84.41318476043824
 20
-41.13164254283282
 30
0
 11
-81.21318476043824
 21
-40.26764254283282
 31
0
  0
LINE
  8
1
 62
2
 10
-84.41318476043824
 20
-41.13164254283282
 30
0
 11
-81.21318476043824
 21
-41.99564254283282
 31
0
  0
LINE
  8
1
 62
2
 10
-67.41318476043824
 20
-41.13164254283282
 30
0
 11
-70.61318476043824
 21
-41.99564254283282
 31
0
  0
LINE
  8
1
 62
2
 10
-67.41318476043824
 20
-41.13164254283282
 30
0
 11
-70.61318476043824
 21
-40.26764254283282
 31
0
  0
TEXT
  8
1
 62
2
 10
-78.26190346832804
 20
-40.13164254283282
 30
0
 40
3.200000000000001
  1
17
 41
0.9
 51
15
  0
ENDBLK
  8
0
  0
ENDSEC
  0
SECTION
  2
ENTITIES
  0
INSERT
  8
1
  2
*X0
 10
0
 20
0
 30
0
  0
INSERT
  8
1
  2
*X1
 10
0
 20
0
 30
0
  0
LINE
  8
1
 62
2
 10
-132.6631847604382
 20
-195.2913588362571
 30
0
 11
-127.9131847604382
 21
-195.2913588362571
 31
0
  0
LINE
  8
1
 62
2
 10
-130.1631847604382
 20
-187.1351088362571
 30
0
 11
-130.1631847604382
 21
-195.2913588362571
 31
0
  0
LINE
  8
1
 62
2
 10
-131.9131847604382
 20
-190.5101088362571
 30
0
 11
-128.4131847604382
 21
-190.5101088362571
 31
0
  0
LINE
  8
1
 62
2
 10
-133.4131847604382
 20
-190.7913588362571
 30
0
 11
-132.1631847604382
 21
-192.1976088362571
 31
0
  0
LINE
  8
1
 62
2
 10
-133.9131847604382
 20
-188.8226088362571
 30
0
 11
-133.9131847604382
 21
-187.1351088362571
 31
0
  0
LINE
  8
1
 62
2
 10
-132.6631847604382
 20
-188.8226088362571
 30
0
 11
-135.4131847604382
 21
-188.8226088362571
 31
0
  0
LINE
  8
1
 62
2
 10
-133.6631847604382
 20
-190.2288588362571
 30
0
 11
-132.6631847604382
 21
-188.8226088362571
 31
0
  0
LINE
  8
1
 62
2
 10
-134.9131847604382
 20
-191.6351088362571
 30
0
 11
-133.6631847604382
 21
-190.2288588362571
 31
0
  0
LINE
  8
1
 62
2
 10
-135.9131847604382
 20
-192.4788588362571
 30
0
 11
-134.9131847604382
 21
-191.6351088362571
 31
0
  0
LINE
  8
1
 62
2
 10
-133.9131847604382
 20
-195.5726088362571
 30
0
 11
-133.9131847604382
 21
-190.5101088362571
 31
0
  0
LINE
  8
1
 62
2
 10
-140.9131847604382
 20
-192.4788588362571
 30
0
 11
-143.4131847604382
 21
-195.5726088362571
 31
0
  0
LINE
  8
1
 62
2
 10
-137.9131847604382
 20
-195.8538588362571
 30
0
 11
-139.6631847604382
 21
-193.8851088362571
 31
0
  0
LINE
  8
1
 62
2
 10
-144.1631847604382
 20
-195.5726088362571
 30
0
 11
-138.6631847604382
 21
-195.0101088362571
 31
0
  0
LINE
  8
1
 62
2
 10
-143.6631847604382
 20
-192.1976088362571
 30
0
 11
-137.9131847604382
 21
-192.1976088362571
 31
0
  0
LINE
  8
1
 62
2
 10
-142.6631847604382
 20
-190.7913588362571
 30
0
 11
-139.1631847604382
 21
-190.7913588362571
 31
0
  0
LINE
  8
1
 62
2
 10
-140.9131847604382
 20
-187.1351088362571
 30
0
 11
-136.9131847604382
 21
-191.3538588362571
 31
0
  0
LINE
  8
1
 62
2
 10
-140.9131847604382
 20
-187.1351088362571
 30
0
 11
-144.9131847604382
 21
-191.3538588362571
 31
0
  0
LINE
  8
1
 62
2
 10
-146.6631847604382
 20
-195.5726088362571
 30
0
 11
-145.9131847604382
 21
-194.7288588362571
 31
0
  0
LINE
  8
1
 62
2
 10
-147.6631847604382
 20
-194.4476088362571
 30
0
 11
-146.6631847604382
 21
-195.5726088362571
 31
0
  0
LINE
  8
1
 62
2
 10
-148.6631847604382
 20
-192.4788588362571
 30
0
 11
-147.6631847604382
 21
-194.4476088362571
 31
0
  0
LINE
  8
1
 62
2
 10
-149.1631847604382
 20
-190.2288588362571
 30
0
 11
-148.6631847604382
 21
-192.4788588362571
 31
0
  0
LINE
  8
1
 62
2
 10
-149.4131847604382
 20
-186.8538588362571
 30
0
 11
-149.1631847604382
 21
-190.2288588362571
 31
0
  0
LINE
  8
1
 62
2
 10
-147.9131847604382
 20
-187.9788588362571
 30
0
 11
-148.6631847604382
 21
-187.1351088362571
 31
0
  0
LINE
  8
1
 62
2
 10
-153.9131847604382
 20
-188.8226088362571
 30
0
 11
-146.6631847604382
 21
-188.8226088362571
 31
0
  0
LINE
  8
1
 62
2
 10
-151.6631847604382
 20
-191.0726088362571
 30
0
 11
-151.6631847604382
 21
-194.1663588362571
 31
0
  0
LINE
  8
1
 62
2
 10
-149.9131847604382
 20
-191.0726088362571
 30
0
 11
-153.4131847604382
 21
-191.0726088362571
 31
0
  0
LINE
  8
1
 62
2
 10
-153.4131847604382
 20
-194.7288588362571
 30
0
 11
-149.9131847604382
 21
-193.6038588362571
 31
0
  0
LINE
  8
1
 62
2
 10
-156.1631847604382
 20
-193.6038588362571
 30
0
 11
-155.1631847604382
 21
-195.5726088362571
 31
0
  0
LINE
  8
1
 62
2
 10
-157.4131847604382
 20
-191.0726088362571
 30
0
 11
-156.1631847604382
 21
-193.6038588362571
 31
0
  0
LINE
  8
1
 62
2
 10
-158.1631847604382
 20
-193.0413588362571
 30
0
 11
-157.4131847604382
 21
-191.0726088362571
 31
0
  0
LINE
  8
1
 62
2
 10
-159.1631847604382
 20
-194.4476088362571
 30
0
 11
-158.1631847604382
 21
-193.0413588362571
 31
0
  0
LINE
  8
1
 62
2
 10
-159.9131847604382
 20
-195.5726088362571
 30
0
 11
-159.1631847604382
 21
-194.4476088362571
 31
0
  0
LINE
  8
1
 62
2
 10
-157.4131847604382
 20
-186.8538588362571
 30
0
 11
-157.4131847604382
 21
-195.8538588362571
 31
0
  0
LINE
  8
1
 62
2
 10
-155.1631847604382
 20
-191.0726088362571
 30
0
 11
-159.4131847604382
 21
-191.0726088362571
 31
0
  0
LINE
  8
1
 62
2
 10
-158.6631847604382
 20
-189.1038588362571
 30
0
 11
-155.4131847604382
 21
-189.1038588362571
 31
0
  0
LINE
  8
1
 62
2
 10
-158.6631847604382
 20
-189.1038588362571
 30
0
 11
-158.4131847604382
 21
-187.6976088362571
 31
0
  0
LINE
  8
1
 62
2
 10
-159.4131847604382
 20
-190.5101088362571
 30
0
 11
-158.6631847604382
 21
-189.1038588362571
 31
0
  0
LINE
  8
1
 62
2
 10
-161.1631847604382
 20
-189.3851088362571
 30
0
 11
-159.9131847604382
 21
-191.6351088362571
 31
0
  0
LINE
  8
1
 62
2
 10
-162.6631847604382
 20
-193.3226088362571
 30
0
 11
-161.1631847604382
 21
-189.3851088362571
 31
0
  0
LINE
  8
1
 62
2
 10
-159.9131847604382
 20
-189.3851088362571
 30
0
 11
-162.4131847604382
 21
-189.3851088362571
 31
0
  0
LINE
  8
1
 62
2
 10
-161.1631847604382
 20
-195.5726088362571
 30
0
 11
-161.1631847604382
 21
-186.8538588362571
 31
0
  0
LINE
  8
1
 62
2
 10
-167.1631847604382
 20
-188.8226088362571
 30
0
 11
-164.6631847604382
 21
-188.8226088362571
 31
0
  0
LINE
  8
1
 62
2
 10
-167.1631847604382
 20
-190.2288588362571
 30
0
 11
-164.6631847604382
 21
-190.2288588362571
 31
0
  0
LINE
  8
1
 62
2
 10
-167.1631847604382
 20
-187.4163588362571
 30
0
 11
-167.1631847604382
 21
-190.2288588362571
 31
0
  0
LINE
  8
1
 62
2
 10
-164.6631847604382
 20
-187.4163588362571
 30
0
 11
-167.1631847604382
 21
-187.4163588362571
 31
0
  0
LINE
  8
1
 62
2
 10
-164.6631847604382
 20
-195.2913588362571
 30
0
 11
-164.6631847604382
 21
-187.4163588362571
 31
0
  0
LINE
  8
1
 62
2
 10
-164.9131847604382
 20
-195.5726088362571
 30
0
 11
-164.6631847604382
 21
-195.2913588362571
 31
0
  0
LINE
  8
1
 62
2
 10
-165.6631847604382
 20
-195.5726088362571
 30
0
 11
-164.9131847604382
 21
-195.5726088362571
 31
0
  0
LINE
  8
1
 62
2
 10
-168.6631847604382
 20
-188.8226088362571
 30
0
 11
-171.1631847604382
 21
-188.8226088362571
 31
0
  0
LINE
  8
1
 62
2
 10
-168.6631847604382
 20
-190.2288588362571
 30
0
 11
-171.1631847604382
 21
-190.2288588362571
 31
0
  0
LINE
  8
1
 62
2
 10
-168.6631847604382
 20
-187.4163588362571
 30
0
 11
-168.6631847604382
 21
-190.2288588362571
 31
0
  0
LINE
  8
1
 62
2
 10
-171.1631847604382
 20
-187.4163588362571
 30
0
 11
-168.6631847604382
 21
-187.4163588362571
 31
0
  0
LINE
  8
1
 62
2
 10
-171.1631847604382
 20
-195.5726088362571
 30
0
 11
-171.1631847604382
 21
-187.4163588362571
 31
0
  0
LINE
  8
1
 62
2
 10
-173.9131847604382
 20
-190.5101088362571
 30
0
 11
-172.9131847604382
 21
-191.3538588362571
 31
0
  0
LINE
  8
1
 62
2
 10
-175.6631847604382
 20
-188.5413588362571
 30
0
 11
-173.9131847604382
 21
-190.5101088362571
 31
0
  0
LINE
  8
1
 62
2
 10
-176.9131847604382
 20
-186.8538588362571
 30
0
 11
-175.6631847604382
 21
-188.5413588362571
 31
0
  0
LINE
  8
1
 62
2
 10
-178.1631847604382
 20
-188.5413588362571
 30
0
 11
-176.9131847604382
 21
-186.8538588362571
 31
0
  0
LINE
  8
1
 62
2
 10
-179.9131847604382
 20
-190.5101088362571
 30
0
 11
-178.1631847604382
 21
-188.5413588362571
 31
0
  0
LINE
  8
1
 62
2
 10
-180.9131847604382
 20
-191.3538588362571
 30
0
 11
-179.9131847604382
 21
-190.5101088362571
 31
0
  0
LINE
  8
1
 62
2
 10
-175.6631847604382
 20
-194.4476088362571
 30
0
 11
-175.1631847604382
 21
-193.0413588362571
 31
0
  0
LINE
  8
1
 62
2
 10
-178.6631847604382
 20
-193.0413588362571
 30
0
 11
-178.1631847604382
 21
-194.4476088362571
 31
0
  0
LINE
  8
1
 62
2
 10
-174.4131847604382
 20
-191.9163588362571
 30
0
 11
-179.4131847604382
 21
-191.9163588362571
 31
0
  0
LINE
  8
1
 62
2
 10
-178.6631847604382
 20
-190.2288588362571
 30
0
 11
-175.1631847604382
 21
-190.2288588362571
 31
0
  0
LINE
  8
1
 62
2
 10
-176.9131847604382
 20
-195.5726088362571
 30
0
 11
-176.9131847604382
 21
-190.2288588362571
 31
0
  0
LINE
  8
1
 62
2
 10
-180.1631847604382
 20
-195.5726088362571
 30
0
 11
-173.9131847604382
 21
-195.5726088362571
 31
0
  0
LINE
  8
1
 62
2
 10
-183.6631847604382
 20
-193.0413588362571
 30
0
 11
-182.4131847604382
 21
-191.3538588362571
 31
0
  0
LINE
  8
1
 62
2
 10
-185.6631847604382
 20
-194.1663588362571
 30
0
 11
-183.6631847604382
 21
-193.0413588362571
 31
0
  0
LINE
  8
1
 62
2
 10
-185.6631847604382
 20
-189.1038588362571
 30
0
 11
-185.6631847604382
 21
-194.1663588362571
 31
0
  0
LINE
  8
1
 62
2
 10
-187.6631847604382
 20
-191.3538588362571
 30
0
 11
-187.4131847604382
 21
-189.1038588362571
 31
0
  0
LINE
  8
1
 62
2
 10
-188.1631847604382
 20
-193.0413588362571
 30
0
 11
-187.6631847604382
 21
-191.3538588362571
 31
0
  0
LINE
  8
1
 62
2
 10
-188.9131847604382
 20
-194.4476088362571
 30
0
 11
-188.1631847604382
 21
-193.0413588362571
 31
0
  0
LINE
  8
1
 62
2
 10
-194.6631847604382
 20
-195.0101088362571
 30
0
 11
-193.1631847604382
 21
-194.7288588362571
 31
0
  0
LINE
  8
1
 62
2
 10
-197.1631847604382
 20
-194.7288588362571
 30
0
 11
-194.6631847604382
 21
-195.0101088362571
 31
0
  0
LINE
  8
1
 62
2
 10
-197.4131847604382
 20
-193.8851088362571
 30
0
 11
-197.1631847604382
 21
-194.7288588362571
 31
0
  0
LINE
  8
1
 62
2
 10
-197.4131847604382
 20
-189.1038588362571
 30
0
 11
-197.4131847604382
 21
-193.8851088362571
 31
0
  0
LINE
  8
1
 62
2
 10
-192.6631847604382
 20
-188.5413588362571
 30
0
 11
-191.9131847604382
 21
-189.3851088362571
 31
0
  0
LINE
  8
1
 62
2
 10
-192.4131847604382
 20
-189.9476088362571
 30
0
 11
-193.1631847604382
 21
-189.1038588362571
 31
0
  0
LINE
  8
1
 62
2
 10
-195.1631847604382
 20
-191.3538588362571
 30
0
 11
-193.6631847604382
 21
-190.5101088362571
 31
0
  0
LINE
  8
1
 62
2
 10
-197.4131847604382
 20
-192.1976088362571
 30
0
 11
-195.1631847604382
 21
-191.3538588362571
 31
0
  0
LINE
  8
1
 62
2
 10
-202.9131847604382
 20
-193.0413588362571
 30
0
 11
-201.4131847604382
 21
-194.7288588362571
 31
0
  0
LINE
  8
1
 62
2
 10
-204.1631847604382
 20
-191.9163588362571
 30
0
 11
-202.9131847604382
 21
-193.0413588362571
 31
0
  0
LINE
  8
1
 62
2
 10
-201.1631847604382
 20
-187.9788588362571
 30
0
 11
-200.4131847604382
 21
-188.8226088362571
 31
0
  0
LINE
  8
1
 62
2
 10
-201.6631847604382
 20
-188.5413588362571
 30
0
 11
-200.9131847604382
 21
-189.3851088362571
 31
0
  0
LINE
  8
1
 62
2
 10
-202.6631847604382
 20
-189.1038588362571
 30
0
 11
-205.9131847604382
 21
-189.1038588362571
 31
0
  0
LINE
  8
1
 62
2
 10
-203.4131847604382
 20
-190.7913588362571
 30
0
 11
-202.6631847604382
 21
-189.1038588362571
 31
0
  0
LINE
  8
1
 62
2
 10
-205.1631847604382
 20
-193.3226088362571
 30
0
 11
-203.4131847604382
 21
-190.7913588362571
 31
0
  0
LINE
  8
1
 62
2
 10
-206.9131847604382
 20
-194.7288588362571
 30
0
 11
-205.1631847604382
 21
-193.3226088362571
 31
0
  0
LINE
  8
1
 62
2
 10
-209.9131847604382
 20
-189.3851088362571
 30
0
 11
-212.1631847604382
 21
-191.9163588362571
 31
0
  0
LINE
  8
1
 62
2
 10
-215.6631847604382
 20
-189.3851088362571
 30
0
 11
-209.9131847604382
 21
-189.3851088362571
 31
0
  0
LINE
  8
1
 62
2
 10
-212.9131847604382
 20
-191.9163588362571
 30
0
 11
-212.6631847604382
 21
-190.5101088362571
 31
0
  0
LINE
  8
1
 62
2
 10
-213.4131847604382
 20
-193.6038588362571
 30
0
 11
-212.9131847604382
 21
-191.9163588362571
 31
0
  0
LINE
  8
1
 62
2
 10
-214.4131847604382
 20
-195.2913588362571
 30
0
 11
-213.4131847604382
 21
-193.6038588362571
 31
0
  0
LINE
  8
1
 62
2
 10
-108.4881847604382
 20
-168.0413588362571
 30
0
 11
-107.9881847604382
 21
-168.8851088362571
 31
0
  0
LINE
  8
1
 62
2
 10
-109.2381847604382
 20
-167.1976088362571
 30
0
 11
-108.4881847604382
 21
-168.0413588362571
 31
0
  0
LINE
  8
1
 62
2
 10
-110.2381847604382
 20
-166.3538588362571
 30
0
 11
-109.2381847604382
 21
-167.1976088362571
 31
0
  0
LINE
  8
1
 62
2
 10
-110.7381847604382
 20
-165.2288588362571
 30
0
 11
-111.4881847604382
 21
-163.8226088362571
 31
0
  0
LINE
  8
1
 62
2
 10
-109.4881847604382
 20
-164.9476088362571
 30
0
 11
-109.9881847604382
 21
-163.5413588362571
 31
0
  0
LINE
  8
1
 62
2
 10
-107.9881847604382
 20
-165.5101088362571
 30
0
 11
-107.2381847604382
 21
-163.8226088362571
 31
0
  0
LINE
  8
1
 62
2
 10
-109.4881847604382
 20
-167.7601088362571
 30
0
 11
-107.9881847604382
 21
-165.5101088362571
 31
0
  0
LINE
  8
1
 62
2
 10
-110.2381847604382
 20
-168.6038588362571
 30
0
 11
-109.4881847604382
 21
-167.7601088362571
 31
0
  0
LINE
  8
1
 62
2
 10
-111.4881847604382
 20
-169.4476088362571
 30
0
 11
-110.2381847604382
 21
-168.6038588362571
 31
0
  0
LINE
  8
1
 62
2
 10
-112.7381847604382
 20
-162.4163588362571
 30
0
 11
-112.7381847604382
 21
-170.5726088362571
 31
0
  0
LINE
  8
1
 62
2
 10
-106.2381847604382
 20
-162.4163588362571
 30
0
 11
-112.7381847604382
 21
-162.4163588362571
 31
0
  0
LINE
  8
1
 62
2
 10
-106.2381847604382
 20
-170.5726088362571
 30
0
 11
-106.2381847604382
 21
-162.4163588362571
 31
0
  0
LINE
  8
1
 62
2
 10
-112.7381847604382
 20
-170.5726088362571
 30
0
 11
-106.2381847604382
 21
-170.5726088362571
 31
0
  0
LINE
  8
1
 62
2
 10
-116.4881847604382
 20
-168.3226088362571
 30
0
 11
-114.9881847604382
 21
-170.8538588362571
 31
0
  0
LINE
  8
1
 62
2
 10
-119.9881847604382
 20
-170.5726088362571
 30
0
 11
-115.7381847604382
 21
-169.7288588362571
 31
0
  0
LINE
  8
1
 62
2
 10
-117.7381847604382
 20
-166.6351088362571
 30
0
 11
-118.9881847604382
 21
-170.2913588362571
 31
0
  0
LINE
  8
1
 62
2
 10
-120.4881847604382
 20
-166.6351088362571
 30
0
 11
-114.7381847604382
 21
-166.6351088362571
 31
0
  0
LINE
  8
1
 62
2
 10
-117.4881847604382
 20
-162.1351088362571
 30
0
 11
-117.4881847604382
 21
-166.6351088362571
 31
0
  0
LINE
  8
1
 62
2
 10
-119.7381847604382
 20
-164.3851088362571
 30
0
 11
-114.9881847604382
 21
-164.3851088362571
 31
0
  0
LINE
  8
1
 62
2
 10
-121.7381847604382
 20
-162.4163588362571
 30
0
 11
-120.9881847604382
 21
-163.5413588362571
 31
0
  0
LINE
  8
1
 62
2
 10
-121.7381847604382
 20
-165.7913588362571
 30
0
 11
-122.4881847604382
 21
-164.9476088362571
 31
0
  0
LINE
  8
1
 62
2
 10
-122.2381847604382
 20
-170.8538588362571
 30
0
 11
-120.9881847604382
 21
-167.1976088362571
 31
0
  0
LINE
  8
1
 62
2
 10
-127.9881847604382
 20
-167.4788588362571
 30
0
 11
-128.9881847604382
 21
-166.0726088362571
 31
0
  0
LINE
  8
1
 62
2
 10
-125.9881847604382
 20
-170.5726088362571
 30
0
 11
-127.2381847604382
 21
-170.5726088362571
 31
0
  0
LINE
  8
1
 62
2
 10
-125.9881847604382
 20
-162.4163588362571
 30
0
 11
-125.9881847604382
 21
-170.5726088362571
 31
0
  0
LINE
  8
1
 62
2
 10
-130.7381847604382
 20
-164.6663588362571
 30
0
 11
-123.9881847604382
 21
-164.6663588362571
 31
0
  0
LINE
  8
1
 62
2
 10
-132.7381847604382
 20
-170.8538588362571
 30
0
 11
-132.4881847604382
 21
-170.2913588362571
 31
0
  0
LINE
  8
1
 62
2
 10
-133.7381847604382
 20
-170.8538588362571
 30
0
 11
-132.7381847604382
 21
-170.8538588362571
 31
0
  0
LINE
  8
1
 62
2
 10
-134.4881847604382
 20
-170.2913588362571
 30
0
 11
-133.7381847604382
 21
-170.8538588362571
 31
0
  0
LINE
  8
1
 62
2
 10
-134.4881847604382
 20
-167.7601088362571
 30
0
 11
-134.4881847604382
 21
-170.2913588362571
 31
0
  0
LINE
  8
1
 62
2
 10
-135.9881847604382
 20
-170.0101088362571
 30
0
 11
-136.7381847604382
 21
-170.8538588362571
 31
0
  0
LINE
  8
1
 62
2
 10
-135.4881847604382
 20
-168.6038588362571
 30
0
 11
-135.9881847604382
 21
-170.0101088362571
 31
0
  0
LINE
  8
1
 62
2
 10
-135.2381847604382
 20
-167.7601088362571
 30
0
 11
-135.4881847604382
 21
-168.6038588362571
 31
0
  0
LINE
  8
1
 62
2
 10
-133.4881847604382
 20
-166.0726088362571
 30
0
 11
-135.9881847604382
 21
-166.0726088362571
 31
0
  0
LINE
  8
1
 62
2
 10
-135.9881847604382
 20
-164.3851088362571
 30
0
 11
-133.4881847604382
 21
-164.3851088362571
 31
0
  0
LINE
  8
1
 62
2
 10
-133.4881847604382
 20
-162.6976088362571
 30
0
 11
-135.9881847604382
 21
-162.6976088362571
 31
0
  0
LINE
  8
1
 62
2
 10
-133.4881847604382
 20
-167.7601088362571
 30
0
 11
-133.4881847604382
 21
-162.6976088362571
 31
0
  0
LINE
  8
1
 62
2
 10
-135.9881847604382
 20
-167.7601088362571
 30
0
 11
-133.4881847604382
 21
-167.7601088362571
 31
0
  0
LINE
  8
1
 62
2
 10
-135.9881847604382
 20
-162.6976088362571
 30
0
 11
-135.9881847604382
 21
-167.7601088362571
 31
0
  0
LINE
  8
1
 62
2
 10
-139.4881847604382
 20
-163.2601088362571
 30
0
 11
-138.9881847604382
 21
-162.1351088362571
 31
0
  0
LINE
  8
1
 62
2
 10
-140.2381847604382
 20
-164.1038588362571
 30
0
 11
-139.4881847604382
 21
-163.2601088362571
 31
0
  0
LINE
  8
1
 62
2
 10
-136.7381847604382
 20
-163.2601088362571
 30
0
 11
-139.2381847604382
 21
-163.2601088362571
 31
0
  0
LINE
  8
1
 62
2
 10
-139.2381847604382
 20
-165.7913588362571
 30
0
 11
-138.2381847604382
 21
-163.2601088362571
 31
0
  0
LINE
  8
1
 62
2
 10
-140.4881847604382
 20
-167.4788588362571
 30
0
 11
-139.2381847604382
 21
-165.7913588362571
 31
0
  0
LINE
  8
1
 62
2
 10
-136.4881847604382
 20
-164.6663588362571
 30
0
 11
-140.2381847604382
 21
-164.6663588362571
 31
0
  0
LINE
  8
1
 62
2
 10
-137.9881847604382
 20
-166.0726088362571
 30
0
 11
-137.7381847604382
 21
-165.5101088362571
 31
0
  0
LINE
  8
1
 62
2
 10
-137.9881847604382
 20
-170.2913588362571
 30
0
 11
-137.9881847604382
 21
-166.0726088362571
 31
0
  0
LINE
  8
1
 62
2
 10
-136.7381847604382
 20
-170.2913588362571
 30
0
 11
-139.4881847604382
 21
-170.2913588362571
 31
0
  0
LINE
  8
1
 62
2
 10
-139.4881847604382
 20
-168.8851088362571
 30
0
 11
-136.7381847604382
 21
-168.8851088362571
 31
0
  0
LINE
  8
1
 62
2
 10
-136.7381847604382
 20
-167.4788588362571
 30
0
 11
-139.4881847604382
 21
-167.4788588362571
 31
0
  0
LINE
  8
1
 62
2
 10
-139.4881847604382
 20
-166.0726088362571
 30
0
 11
-136.7381847604382
 21
-166.0726088362571
 31
0
  0
LINE
  8
1
 62
2
 10
-139.4881847604382
 20
-170.8538588362571
 30
0
 11
-139.4881847604382
 21
-166.0726088362571
 31
0
  0
LINE
  8
1
 62
2
 10
-142.7381847604382
 20
-166.0726088362571
 30
0
 11
-141.4881847604382
 21
-167.4788588362571
 31
0
  0
LINE
  8
1
 62
2
 10
-144.7381847604382
 20
-164.1038588362571
 30
0
 11
-142.7381847604382
 21
-166.0726088362571
 31
0
  0
LINE
  8
1
 62
2
 10
-144.2381847604382
 20
-161.8538588362571
 30
0
 11
-144.2381847604382
 21
-170.8538588362571
 31
0
  0
LINE
  8
1
 62
2
 10
-148.4881847604382
 20
-165.5101088362571
 30
0
 11
-146.7381847604382
 21
-166.9163588362571
 31
0
  0
LINE
  8
1
 62
2
 10
-148.4881847604382
 20
-165.2288588362571
 30
0
 11
-149.4881847604382
 21
-166.6351088362571
 31
0
  0
LINE
  8
1
 62
2
 10
-147.7381847604382
 20
-163.5413588362571
 30
0
 11
-148.4881847604382
 21
-165.2288588362571
 31
0
  0
LINE
  8
1
 62
2
 10
-147.2381847604382
 20
-161.8538588362571
 30
0
 11
-147.7381847604382
 21
-163.5413588362571
 31
0
  0
LINE
  8
1
 62
2
 10
-145.4881847604382
 20
-163.8226088362571
 30
0
 11
-147.7381847604382
 21
-163.8226088362571
 31
0
  0
LINE
  8
1
 62
2
 10
-145.9881847604382
 20
-165.5101088362571
 30
0
 11
-145.4881847604382
 21
-163.8226088362571
 31
0
  0
LINE
  8
1
 62
2
 10
-146.4881847604382
 20
-166.6351088362571
 30
0
 11
-145.9881847604382
 21
-165.5101088362571
 31
0
  0
LINE
  8
1
 62
2
 10
-147.4881847604382
 20
-168.3226088362571
 30
0
 11
-146.4881847604382
 21
-166.6351088362571
 31
0
  0
LINE
  8
1
 62
2
 10
-148.9881847604382
 20
-170.2913588362571
 30
0
 11
-147.4881847604382
 21
-168.3226088362571
 31
0
  0
LINE
  8
1
 62
2
 10
-164.3381847604382
 20
-164.5538588362571
 30
0
 11
-164.3381847604382
 21
-170.8538588362571
 31
0
  0
LINE
  8
1
 62
2
 10
-161.1881847604382
 20
-165.6788588362571
 30
0
 11
-161.1881847604382
 21
-170.8538588362571
 31
0
  0
LINE
  8
1
 62
2
 10
-161.4131847604382
 20
-165.2288588362571
 30
0
 11
-161.1881847604382
 21
-165.6788588362571
 31
0
  0
LINE
  8
1
 62
2
 10
-161.8631847604382
 20
-164.7788588362571
 30
0
 11
-161.4131847604382
 21
-165.2288588362571
 31
0
  0
LINE
  8
1
 62
2
 10
-162.5381847604382
 20
-164.5538588362571
 30
0
 11
-161.8631847604382
 21
-164.7788588362571
 31
0
  0
LINE
  8
1
 62
2
 10
-167.4881847604382
 20
-164.5538588362571
 30
0
 11
-162.5381847604382
 21
-164.5538588362571
 31
0
  0
LINE
  8
1
 62
2
 10
-167.4881847604382
 20
-170.8538588362571
 30
0
 11
-167.4881847604382
 21
-164.5538588362571
 31
0
  0
LINE
  8
1
 62
2
 10
-173.3381847604382
 20
-164.5538588362571
 30
0
 11
-173.3381847604382
 21
-170.8538588362571
 31
0
  0
LINE
  8
1
 62
2
 10
-170.1881847604382
 20
-165.6788588362571
 30
0
 11
-170.1881847604382
 21
-170.8538588362571
 31
0
  0
LINE
  8
1
 62
2
 10
-170.4131847604382
 20
-165.2288588362571
 30
0
 11
-170.1881847604382
 21
-165.6788588362571
 31
0
  0
LINE
  8
1
 62
2
 10
-170.8631847604382
 20
-164.7788588362571
 30
0
 11
-170.4131847604382
 21
-165.2288588362571
 31
0
  0
LINE
  8
1
 62
2
 10
-171.5381847604382
 20
-164.5538588362571
 30
0
 11
-170.8631847604382
 21
-164.7788588362571
 31
0
  0
LINE
  8
1
 62
2
 10
-176.4881847604382
 20
-164.5538588362571
 30
0
 11
-171.5381847604382
 21
-164.5538588362571
 31
0
  0
LINE
  8
1
 62
2
 10
-176.4881847604382
 20
-170.8538588362571
 30
0
 11
-176.4881847604382
 21
-164.5538588362571
 31
0
  0
LINE
  8
1
 62
2
 10
-179.1881847604382
 20
-165.2288588362571
 30
0
 11
-179.1881847604382
 21
-167.4788588362571
 31
0
  0
LINE
  8
1
 62
2
 10
-179.4131847604382
 20
-163.8788588362571
 30
0
 11
-179.1881847604382
 21
-165.2288588362571
 31
0
  0
LINE
  8
1
 62
2
 10
-179.8631847604382
 20
-162.9788588362571
 30
0
 11
-179.4131847604382
 21
-163.8788588362571
 31
0
  0
LINE
  8
1
 62
2
 10
-180.3131847604382
 20
-162.5288588362571
 30
0
 11
-179.8631847604382
 21
-162.9788588362571
 31
0
  0
LINE
  8
1
 62
2
 10
-180.9881847604382
 20
-162.0788588362571
 30
0
 11
-180.3131847604382
 21
-162.5288588362571
 31
0
  0
LINE
  8
1
 62
2
 10
-181.6631847604382
 20
-161.8538588362571
 30
0
 11
-180.9881847604382
 21
-162.0788588362571
 31
0
  0
LINE
  8
1
 62
2
 10
-182.1131847604382
 20
-161.8538588362571
 30
0
 11
-181.6631847604382
 21
-161.8538588362571
 31
0
  0
LINE
  8
1
 62
2
 10
-182.7881847604382
 20
-162.0788588362571
 30
0
 11
-182.1131847604382
 21
-161.8538588362571
 31
0
  0
LINE
  8
1
 62
2
 10
-183.4631847604382
 20
-162.5288588362571
 30
0
 11
-182.7881847604382
 21
-162.0788588362571
 31
0
  0
LINE
  8
1
 62
2
 10
-183.9131847604382
 20
-162.9788588362571
 30
0
 11
-183.4631847604382
 21
-162.5288588362571
 31
0
  0
LINE
  8
1
 62
2
 10
-184.3631847604382
 20
-163.8788588362571
 30
0
 11
-183.9131847604382
 21
-162.9788588362571
 31
0
  0
LINE
  8
1
 62
2
 10
-184.5881847604382
 20
-165.2288588362571
 30
0
 11
-184.3631847604382
 21
-163.8788588362571
 31
0
  0
LINE
  8
1
 62
2
 10
-184.5881847604382
 20
-167.4788588362571
 30
0
 11
-184.5881847604382
 21
-165.2288588362571
 31
0
  0
LINE
  8
1
 62
2
 10
-184.3631847604382
 20
-168.8288588362571
 30
0
 11
-184.5881847604382
 21
-167.4788588362571
 31
0
  0
LINE
  8
1
 62
2
 10
-183.9131847604382
 20
-169.7288588362571
 30
0
 11
-184.3631847604382
 21
-168.8288588362571
 31
0
  0
LINE
  8
1
 62
2
 10
-183.4631847604382
 20
-170.1788588362571
 30
0
 11
-183.9131847604382
 21
-169.7288588362571
 31
0
  0
LINE
  8
1
 62
2
 10
-182.7881847604382
 20
-170.6288588362571
 30
0
 11
-183.4631847604382
 21
-170.1788588362571
 31
0
  0
LINE
  8
1
 62
2
 10
-182.1131847604382
 20
-170.8538588362571
 30
0
 11
-182.7881847604382
 21
-170.6288588362571
 31
0
  0
LINE
  8
1
 62
2
 10
-181.6631847604382
 20
-170.8538588362571
 30
0
 11
-182.1131847604382
 21
-170.8538588362571
 31
0
  0
LINE
  8
1
 62
2
 10
-180.9881847604382
 20
-170.6288588362571
 30
0
 11
-181.6631847604382
 21
-170.8538588362571
 31
0
  0
LINE
  8
1
 62
2
 10
-180.3131847604382
 20
-170.1788588362571
 30
0
 11
-180.9881847604382
 21
-170.6288588362571
 31
0
  0
LINE
  8
1
 62
2
 10
-179.8631847604382
 20
-169.7288588362571
 30
0
 11
-180.3131847604382
 21
-170.1788588362571
 31
0
  0
LINE
  8
1
 62
2
 10
-179.4131847604382
 20
-168.8288588362571
 30
0
 11
-179.8631847604382
 21
-169.7288588362571
 31
0
  0
LINE
  8
1
 62
2
 10
-179.1881847604382
 20
-167.4788588362571
 30
0
 11
-179.4131847604382
 21
-168.8288588362571
 31
0
  0
LINE
  8
1
 62
2
 10
-189.3131847604382
 20
-170.8538588362571
 30
0
 11
-192.6881847604382
 21
-170.8538588362571
 31
0
  0
LINE
  8
1
 62
2
 10
-188.6381847604382
 20
-170.6288588362571
 30
0
 11
-189.3131847604382
 21
-170.8538588362571
 31
0
  0
LINE
  8
1
 62
2
 10
-187.9631847604382
 20
-170.1788588362571
 30
0
 11
-188.6381847604382
 21
-170.6288588362571
 31
0
  0
LINE
  8
1
 62
2
 10
-187.5131847604382
 20
-169.5038588362571
 30
0
 11
-187.9631847604382
 21
-170.1788588362571
 31
0
  0
LINE
  8
1
 62
2
 10
-187.2881847604382
 20
-168.6038588362571
 30
0
 11
-187.5131847604382
 21
-169.5038588362571
 31
0
  0
LINE
  8
1
 62
2
 10
-187.2881847604382
 20
-167.4788588362571
 30
0
 11
-187.2881847604382
 21
-168.6038588362571
 31
0
  0
LINE
  8
1
 62
2
 10
-187.5131847604382
 20
-166.5788588362571
 30
0
 11
-187.2881847604382
 21
-167.4788588362571
 31
0
  0
LINE
  8
1
 62
2
 10
-187.7381847604382
 20
-166.1288588362571
 30
0
 11
-187.5131847604382
 21
-166.5788588362571
 31
0
  0
LINE
  8
1
 62
2
 10
-188.1881847604382
 20
-165.6788588362571
 30
0
 11
-187.7381847604382
 21
-166.1288588362571
 31
0
  0
LINE
  8
1
 62
2
 10
-189.0881847604382
 20
-165.4538588362571
 30
0
 11
-188.1881847604382
 21
-165.6788588362571
 31
0
  0
LINE
  8
1
 62
2
 10
-188.4131847604382
 20
-165.2288588362571
 30
0
 11
-189.0881847604382
 21
-165.4538588362571
 31
0
  0
LINE
  8
1
 62
2
 10
-187.9631847604382
 20
-165.0038588362571
 30
0
 11
-188.4131847604382
 21
-165.2288588362571
 31
0
  0
LINE
  8
1
 62
2
 10
-187.5131847604382
 20
-164.5538588362571
 30
0
 11
-187.9631847604382
 21
-165.0038588362571
 31
0
  0
LINE
  8
1
 62
2
 10
-187.2881847604382
 20
-163.8788588362571
 30
0
 11
-187.5131847604382
 21
-164.5538588362571
 31
0
  0
LINE
  8
1
 62
2
 10
-187.2881847604382
 20
-163.2038588362571
 30
0
 11
-187.2881847604382
 21
-163.8788588362571
 31
0
  0
LINE
  8
1
 62
2
 10
-187.5131847604382
 20
-162.5288588362571
 30
0
 11
-187.2881847604382
 21
-163.2038588362571
 31
0
  0
LINE
  8
1
 62
2
 10
-188.1881847604382
 20
-162.0788588362571
 30
0
 11
-187.5131847604382
 21
-162.5288588362571
 31
0
  0
LINE
  8
1
 62
2
 10
-189.3131847604382
 20
-161.8538588362571
 30
0
 11
-188.1881847604382
 21
-162.0788588362571
 31
0
  0
LINE
  8
1
 62
2
 10
-192.6881847604382
 20
-161.8538588362571
 30
0
 11
-189.3131847604382
 21
-161.8538588362571
 31
0
  0
LINE
  8
1
 62
2
 10
-191.3381847604382
 20
-165.4538588362571
 30
0
 11
-189.0881847604382
 21
-165.4538588362571
 31
0
  0
LINE
  8
1
 62
2
 10
-197.4381847604382
 20
-167.1976088362571
 30
0
 11
-197.4381847604382
 21
-170.5726088362571
 31
0
  0
LINE
  8
1
 62
2
 10
-194.4381847604382
 20
-167.1976088362571
 30
0
 11
-195.1881847604382
 21
-167.1976088362571
 31
0
  0
LINE
  8
1
 62
2
 10
-194.4381847604382
 20
-162.1351088362571
 30
0
 11
-194.4381847604382
 21
-167.1976088362571
 31
0
  0
LINE
  8
1
 62
2
 10
-196.1881847604382
 20
-166.0726088362571
 30
0
 11
-196.1881847604382
 21
-162.4163588362571
 31
0
  0
LINE
  8
1
 62
2
 10
-198.6881847604382
 20
-162.4163588362571
 30
0
 11
-198.6881847604382
 21
-167.1976088362571
 31
0
  0
LINE
  8
1
 62
2
 10
-201.4381847604382
 20
-164.3851088362571
 30
0
 11
-197.1881847604382
 21
-164.3851088362571
 31
0
  0
LINE
  8
1
 62
2
 10
-197.4381847604382
 20
-162.4163588362571
 30
0
 11
-201.1881847604382
 21
-162.4163588362571
 31
0
  0
LINE
  8
1
 62
2
 10
-199.9381847604382
 20
-164.3851088362571
 30
0
 11
-199.9381847604382
 21
-162.4163588362571
 31
0
  0
LINE
  8
1
 62
2
 10
-200.4381847604382
 20
-166.3538588362571
 30
0
 11
-199.9381847604382
 21
-164.3851088362571
 31
0
  0
LINE
  8
1
 62
2
 10
-201.1881847604382
 20
-167.4788588362571
 30
0
 11
-200.4381847604382
 21
-166.3538588362571
 31
0
  0
LINE
  8
1
 62
2
 10
-194.9381847604382
 20
-168.6038588362571
 30
0
 11
-200.4381847604382
 21
-168.6038588362571
 31
0
  0
LINE
  8
1
 62
2
 10
-201.1881847604382
 20
-170.5726088362571
 30
0
 11
-193.9381847604382
 21
-170.5726088362571
 31
0
  0
LINE
  8
1
 62
2
 10
-207.9881847604382
 20
-161.8538588362571
 30
0
 11
-204.3881847604382
 21
-170.8538588362571
 31
0
  0
LINE
  8
1
 62
2
 10
-211.5881847604382
 20
-170.8538588362571
 30
0
 11
-207.9881847604382
 21
-161.8538588362571
 31
0
  0
LINE
  8
1
 62
2
 10
-210.4631847604382
 20
-168.1538588362571
 30
0
 11
-205.5131847604382
 21
-168.1538588362571
 31
0
  0
LINE
  8
1
 62
2
 10
-214.5131847604382
 20
-163.6538588362571
 30
0
 11
-214.2881847604382
 21
-164.5538588362571
 31
0
  0
LINE
  8
1
 62
2
 10
-214.9631847604382
 20
-162.9788588362571
 30
0
 11
-214.5131847604382
 21
-163.6538588362571
 31
0
  0
LINE
  8
1
 62
2
 10
-215.4131847604382
 20
-162.5288588362571
 30
0
 11
-214.9631847604382
 21
-162.9788588362571
 31
0
  0
LINE
  8
1
 62
2
 10
-216.0881847604382
 20
-162.0788588362571
 30
0
 11
-215.4131847604382
 21
-162.5288588362571
 31
0
  0
LINE
  8
1
 62
2
 10
-216.9881847604382
 20
-161.8538588362571
 30
0
 11
-216.0881847604382
 21
-162.0788588362571
 31
0
  0
LINE
  8
1
 62
2
 10
-220.5881847604382
 20
-161.8538588362571
 30
0
 11
-216.9881847604382
 21
-161.8538588362571
 31
0
  0
LINE
  8
1
 62
2
 10
-220.5881847604382
 20
-170.8538588362571
 30
0
 11
-220.5881847604382
 21
-161.8538588362571
 31
0
  0
LINE
  8
1
 62
2
 10
-216.9881847604382
 20
-170.8538588362571
 30
0
 11
-220.5881847604382
 21
-170.8538588362571
 31
0
  0
LINE
  8
1
 62
2
 10
-216.0881847604382
 20
-170.6288588362571
 30
0
 11
-216.9881847604382
 21
-170.8538588362571
 31
0
  0
LINE
  8
1
 62
2
 10
-215.4131847604382
 20
-170.1788588362571
 30
0
 11
-216.0881847604382
 21
-170.6288588362571
 31
0
  0
LINE
  8
1
 62
2
 10
-214.9631847604382
 20
-169.7288588362571
 30
0
 11
-215.4131847604382
 21
-170.1788588362571
 31
0
  0
LINE
  8
1
 62
2
 10
-214.5131847604382
 20
-169.0538588362571
 30
0
 11
-214.9631847604382
 21
-169.7288588362571
 31
0
  0
LINE
  8
1
 62
2
 10
-214.2881847604382
 20
-168.1538588362571
 30
0
 11
-214.5131847604382
 21
-169.0538588362571
 31
0
  0
LINE
  8
1
 62
2
 10
-214.2881847604382
 20
-164.5538588362571
 30
0
 11
-214.2881847604382
 21
-168.1538588362571
 31
0
  0
LINE
  8
1
 62
2
 10
-229.5881847604382
 20
-170.8538588362571
 30
0
 11
-229.5881847604382
 21
-161.8538588362571
 31
0
  0
LINE
  8
1
 62
2
 10
-227.7881847604382
 20
-166.3538588362571
 30
0
 11
-223.2881847604382
 21
-170.8538588362571
 31
0
  0
LINE
  8
1
 62
2
 10
-223.2881847604382
 20
-161.8538588362571
 30
0
 11
-229.5881847604382
 21
-168.1538588362571
 31
0
  0
LINE
  8
1
 62
2
 10
-232.2881847604382
 20
-170.8538588362571
 30
0
 11
-232.2881847604382
 21
-161.8538588362571
 31
0
  0
LINE
  8
1
 62
2
 10
-238.5881847604382
 20
-161.8538588362571
 30
0
 11
-232.2881847604382
 21
-170.8538588362571
 31
0
  0
LINE
  8
1
 62
2
 10
-238.5881847604382
 20
-170.8538588362571
 30
0
 11
-238.5881847604382
 21
-161.8538588362571
 31
0
  0
LINE
  8
1
 62
2
  6
DASHDOT
 10
-216.638811840568
 20
-76.43164254283282
 30
0
 11
-195.814654990863
 21
-76.43164254283282
 31
0
  0
LINE
  8
1
 62
2
  6
DASHDOT
 10
-147.149505831229
 20
-76.43164254283282
 30
0
 11
-106.023638432966
 21
-76.43164254283282
 31
0
  0
LINE
  8
1
 62
2
  6
DASHDOT
 10
-106.023638432966
 20
-76.43164254283282
 30
0
 11
-60.78568191617637
 21
-76.43164254283281
 31
0
  0
LINE
  8
1
 62
2
  6
DASHDOT
 10
-172.4131847604382
 20
2.18248257820726
 30
0
 11
-172.4131847604382
 21
-122.973023640872
 31
0
  0
LINE
  8
1
 62
2
  6
DASHDOT
 10
-306.2075742301876
 20
-76.43164254283281
 30
0
 11
-241.763609778798
 21
-76.43164254283282
 31
0
  0
LINE
  8
1
 62
2
  6
DASHDOT
 10
-172.4131847604384
 20
46.53924985876279
 30
0
 11
-172.4131847604384
 21
163.8415051348096
 31
0
  0
LINE
  8
1
 62
2
  6
DASHDOT
 10
-60.7856819161766
 20
104.3374567731544
 30
0
 11
-306.2075742301878
 21
104.3374567731544
 31
0
  0
LINE
  8
1
 62
2
 10
-214.9131847604382
 20
-35.93164254283276
 30
0
 11
-129.9131847604382
 21
-35.93164254283276
 31
0
  0
LINE
  8
1
 62
7
 10
-169.9131847604382
 20
50.33745677315443
 30
0
 11
-174.9131847604382
 21
50.33745677315443
 31
0
  0
LINE
  8
1
 62
7
 10
-176.4131847604382
 20
56.65360206320048
 30
0
 11
-176.4131847604382
 21
51.83745677315443
 31
0
  0
LINE
  8
1
 62
7
 10
-168.4131847604382
 20
56.65360206320048
 30
0
 11
-168.4131847604382
 21
51.83745677315443
 31
0
  0
LINE
  8
1
 62
7
 10
-119.9131847604384
 20
100.3374567731544
 30
0
 11
-124.7293300504845
 21
100.3374567731544
 31
0
  0
LINE
  8
1
 62
7
 10
-118.4131847604384
 20
106.8374567731544
 30
0
 11
-118.4131847604384
 21
101.8374567731544
 31
0
  0
LINE
  8
1
 62
7
 10
-174.9131847604382
 20
158.3374567731544
 30
0
 11
-169.9131847604382
 21
158.3374567731544
 31
0
  0
LINE
  8
1
 62
7
 10
-176.4131847604382
 20
156.8374567731544
 30
0
 11
-176.4131847604382
 21
152.0213114831084
 31
0
  0
LINE
  8
1
 62
7
 10
-168.4131847604382
 20
156.8374567731544
 30
0
 11
-168.4131847604382
 21
152.0213114831084
 31
0
  0
LINE
  8
1
 62
7
 10
-124.7293300504845
 20
108.3374567731544
 30
0
 11
-119.9131847604384
 21
108.3374567731544
 31
0
  0
LINE
  8
1
 62
7
 10
-143.3002676783003
 20
88.87550140238901
 30
0
 11
-142.4831450138962
 21
87.5592549640637
 31
0
  0
LINE
  8
1
 62
7
 10
-150.4131847604383
 20
94.8374567731544
 30
0
 11
-148.9945966803626
 21
94.8374567731544
 31
0
  0
LINE
  8
1
 62
7
 10
-146.8955172127839
 20
91.9258750313991
 30
0
 11
-148.9945966803626
 21
94.8374567731544
 31
0
  0
LINE
  8
1
 62
7
 10
-140.4131847604383
 20
90.5874567731544
 30
0
 11
-140.4131847604383
 21
91.5874567731544
 31
0
  0
LINE
  8
1
 62
2
 10
-140.4131847604383
 20
90.5874567731544
 30
0
 11
-140.4131847604383
 21
90.3770904089014
 31
0
  0
LINE
  8
1
 62
7
 10
-141.9131847604383
 20
91.5874567731544
 30
0
 11
-141.9131847604383
 21
90.5874567731544
 31
0
  0
LINE
  8
1
 62
7
 10
-145.4131847604383
 20
89.4817255722609
 30
0
 11
-145.4131847604383
 21
91.5874567731544
 31
0
  0
LINE
  8
1
 62
7
 10
-150.4131847604383
 20
87.3374567731544
 30
0
 11
-150.4131847604383
 21
94.8374567731544
 31
0
  0
LINE
  8
1
 62
7
 10
-148.9131847604383
 20
87.3374567731544
 30
0
 11
-148.9131847604383
 21
92.9494143695719
 31
0
  0
LINE
  8
1
 62
7
 10
-148.9131847604383
 20
87.3374567731544
 30
0
 11
-150.4131847604383
 21
87.3374567731544
 31
0
  0
LINE
  8
1
 62
7
 10
-148.9131847604383
 20
92.9494143695719
 30
0
 11
-146.4131847604383
 21
89.4817255722609
 31
0
  0
LINE
  8
1
 62
7
 10
-146.4131847604383
 20
89.4817255722609
 30
0
 11
-145.4131847604383
 21
89.4817255722609
 31
0
  0
LINE
  8
1
 62
7
 10
-127.0893499712239
 20
108.3374567731544
 30
0
 11
-124.4131847604383
 21
108.3374567731544
 31
0
  0
LINE
  8
1
 62
7
 10
-127.0893499712239
 20
100.3374567731544
 30
0
 11
-124.4131847604383
 21
100.3374567731544
 31
0
  0
LINE
  8
1
 62
7
 10
-122.4131847604383
 20
106.3374567731544
 30
0
 11
-122.4131847604383
 21
102.3374567731544
 31
0
  0
LINE
  8
1
 62
7
 10
-226.9131847604383
 20
112.0874567731544
 30
0
 11
-226.9131847604383
 21
96.5874567731545
 31
0
  0
LINE
  8
1
 62
7
 10
-225.9131847604383
 20
113.0874567731544
 30
0
 11
-217.063912638044
 21
113.0874567731544
 31
0
  0
LINE
  8
1
 62
7
 10
-225.9131847604383
 20
95.5874567731545
 30
0
 11
-217.063912638044
 21
95.5874567731545
 31
0
  0
LINE
  8
1
 62
7
 10
-166.4131847604383
 20
131.8374567731544
 30
0
 11
-156.4131847604383
 21
131.8374567731544
 31
0
  0
LINE
  8
1
 62
7
 10
-156.4131847604383
 20
131.8374567731544
 30
0
 11
-156.4131847604383
 21
76.8374567731544
 31
0
  0
LINE
  8
1
 62
7
 10
-156.4131847604383
 20
76.8374567731544
 30
0
 11
-166.4131847604383
 21
76.8374567731544
 31
0
  0
LINE
  8
1
 62
7
 10
-166.4131847604383
 20
76.8374567731544
 30
0
 11
-166.4131847604383
 21
131.8374567731544
 31
0
  0
LINE
  8
1
 62
7
 10
-198.9802651912589
 20
120.7075512049456
 30
0
 11
-200.4079067224266
 21
121.2717980197524
 31
0
  0
LINE
  8
1
 62
7
 10
-201.9199349130699
 20
113.2658216236955
 30
0
 11
-203.2794687684454
 21
113.8045610950736
 31
0
  0
LINE
  8
1
 62
7
 10
-199.3147149220484
 20
119.2913461747612
 30
0
 11
-200.7847528130929
 21
119.8723493044395
 31
0
  0
LINE
  8
1
 62
7
 10
-202.6480000549209
 20
115.1033753018009
 30
0
 11
-200.9592757588161
 21
114.4359407362172
 31
0
  0
LINE
  8
1
 62
7
 10
-202.1151947105326
 20
85.0616936928031
 30
0
 11
-194.4696356328331
 21
90.87307284141811
 31
0
  0
LINE
  8
1
 62
7
 10
-195.3410272253452
 20
92.019491915099
 30
0
 11
-202.9865863030449
 21
86.20811276648391
 31
0
  0
LINE
  8
1
 62
7
 10
-198.1663183571893
 20
101.2132334842188
 30
0
 11
-207.5153961307229
 21
98.57006805871437
 31
0
  0
LINE
  8
1
 62
7
 10
-205.3668342095605
 20
90.86393275733624
 30
0
 11
-196.0300398973077
 21
93.50362541034357
 31
0
  0
LINE
  8
1
 62
7
 10
-197.8590978779672
 20
110.1862196372218
 30
0
 11
-207.5619993734674
 21
110.6751250297535
 31
0
  0
LINE
  8
1
 62
7
 10
-207.9921122366297
 20
102.686648180123
 30
0
 11
-198.3013355539357
 21
102.1983537271506
 31
0
  0
LINE
  8
1
 62
7
 10
-196.0160674573151
 20
77.242533566672
 30
0
 11
-188.6234254069506
 21
83.54768011782458
 31
0
  0
LINE
  8
1
 62
7
 10
-191.6228012427134
 20
125.3829894367033
 30
0
 11
-196.9954526646263
 21
130.3434320462058
 31
0
  0
LINE
  8
1
 62
7
 10
-200.4557537630428
 20
126.5697038509449
 30
0
 11
-191.6228012427134
 21
125.3829894367033
 31
0
  0
LINE
  8
1
 62
7
 10
-194.1818051608593
 20
118.8172121163747
 30
0
 11
-201.3198657767398
 21
125.4076154847766
 31
0
  0
LINE
  8
1
 62
7
 10
-199.0398103559007
 20
125.262396628149
 30
0
 11
-193.1565745569569
 21
119.8305434802224
 31
0
  0
LINE
  8
1
 62
7
 10
-189.9122980333321
 20
123.8037220811293
 30
0
 11
-199.0398103559007
 21
125.262396628149
 31
0
  0
LINE
  8
1
 62
7
 10
-195.9132395265188
 20
131.3041527773375
 30
0
 11
-188.784098680545
 21
124.7219848225587
 31
0
  0
LINE
  8
1
 62
7
 10
-207.7876951734778
 20
109.2446704345786
 30
0
 11
-204.0318981125799
 21
106.5217936842544
 31
0
  0
LINE
  8
1
 62
7
 10
-204.0318981125799
 20
106.5217936842544
 30
0
 11
-208.0628933058631
 21
104.1323399969269
 31
0
  0
LINE
  8
1
 62
7
 10
-198.1529700477597
 20
108.759200281995
 30
0
 11
-205.1511154940294
 21
109.1118196554874
 31
0
  0
LINE
  8
1
 62
7
 10
-205.1511154940294
 20
109.1118196554874
 30
0
 11
-201.4118276332864
 21
106.4009117406833
 31
0
  0
LINE
  8
1
 62
7
 10
-201.4118276332864
 20
106.4009117406833
 30
0
 11
-205.4606030025308
 21
104.0009184955109
 31
0
  0
LINE
  8
1
 62
7
 10
-205.4606030025308
 20
104.0009184955109
 30
0
 11
-198.4346186944654
 21
103.6468963900975
 31
0
  0
LINE
  8
1
 62
7
 10
-207.2719279537903
 20
97.144668020539
 30
0
 11
-202.8424359221867
 21
95.7663829621908
 31
0
  0
LINE
  8
1
 62
7
 10
-202.8424359221867
 20
95.7663829621908
 30
0
 11
-205.8971984209327
 21
92.2129568340137
 31
0
  0
LINE
  8
1
 62
7
 10
-197.9882100226697
 20
99.7669172254365
 30
0
 11
-204.7314027465287
 21
97.86225662611601
 31
0
  0
LINE
  8
1
 62
7
 10
-204.7314027465287
 20
97.86225662611601
 30
0
 11
-200.3213812479035
 21
96.4900300377889
 31
0
  0
LINE
  8
1
 62
7
 10
-200.3213812479035
 20
96.4900300377889
 30
0
 11
-203.3896178919022
 21
92.92093022636651
 31
0
  0
LINE
  8
1
 62
7
 10
-203.3896178919022
 20
92.92093022636651
 30
0
 11
-196.6196005168921
 21
94.83316763065611
 31
0
  0
LINE
  8
1
 62
7
 10
-191.6033453583918
 20
82.968288736643
 30
0
 11
-193.1347231975086
 21
83.02238199497231
 31
0
  0
LINE
  8
1
 62
7
 10
-197.0753149497278
 20
78.23015484361308
 30
0
 11
-192.935711390981
 21
81.8146038428292
 31
0
  0
LINE
  8
1
 62
7
 10
-192.935711390981
 20
81.8146038428292
 30
0
 11
-200.3746919118255
 21
82.07737288959321
 31
0
  0
LINE
  8
1
 62
7
 10
-191.6033453583918
 20
82.968288736643
 30
0
 11
-189.7791082000825
 21
84.5478808313058
 31
0
  0
LINE
  8
1
 62
7
 10
-193.8875072513929
 20
89.66794235201
 30
0
 11
-194.3346010019843
 21
83.06476559122331
 31
0
  0
LINE
  8
1
 62
7
 10
-194.3346010019843
 20
83.06476559122331
 30
0
 11
-201.2320018845555
 21
83.3084042793452
 31
0
  0
LINE
  8
1
 62
7
 10
-193.1347231975086
 20
83.02238199497231
 30
0
 11
-192.7987801941037
 21
87.9839611494519
 31
0
  0
LINE
  8
1
 62
7
 10
-181.6671179201107
 20
100.6774567731544
 30
0
 11
-183.1471179201107
 21
100.6774567731545
 31
0
  0
LINE
  8
1
 62
7
 10
-183.1471179201107
 20
100.6774567731545
 30
0
 11
-183.1471179201107
 21
103.5974567731544
 31
0
  0
LINE
  8
1
 62
7
 10
-183.1471179201107
 20
103.5974567731544
 30
0
 11
-186.0671179201107
 21
103.5974567731544
 31
0
  0
LINE
  8
1
 62
7
 10
-186.0671179201107
 20
103.5974567731544
 30
0
 11
-186.0671179201107
 21
105.0774567731544
 31
0
  0
LINE
  8
1
 62
7
 10
-186.0671179201107
 20
105.0774567731544
 30
0
 11
-183.1471179201107
 21
105.0774567731544
 31
0
  0
LINE
  8
1
 62
7
 10
-183.1471179201107
 20
105.0774567731544
 30
0
 11
-183.1471179201107
 21
107.9974567731544
 31
0
  0
LINE
  8
1
 62
7
 10
-183.1471179201107
 20
107.9974567731544
 30
0
 11
-181.6671179201107
 21
107.9974567731544
 31
0
  0
LINE
  8
1
 62
7
 10
-181.6671179201107
 20
107.9974567731544
 30
0
 11
-181.6671179201107
 21
105.0774567731544
 31
0
  0
LINE
  8
1
 62
7
 10
-181.6671179201107
 20
105.0774567731544
 30
0
 11
-178.7471179201107
 21
105.0774567731544
 31
0
  0
LINE
  8
1
 62
7
 10
-178.7471179201107
 20
105.0774567731544
 30
0
 11
-178.7471179201107
 21
103.5974567731544
 31
0
  0
LINE
  8
1
 62
7
 10
-178.7471179201107
 20
103.5974567731544
 30
0
 11
-181.6671179201107
 21
103.5974567731544
 31
0
  0
LINE
  8
1
 62
7
 10
-181.6671179201107
 20
103.5974567731544
 30
0
 11
-181.6671179201107
 21
100.6774567731544
 31
0
  0
LINE
  8
1
 62
7
 10
-182.4071179201107
 20
98.5674567731545
 30
0
 11
-177.4101513402745
 21
95.6824567731545
 31
0
  0
LINE
  8
1
 62
7
 10
-177.4101513402745
 20
95.6824567731545
 30
0
 11
-177.4101513402745
 21
101.4524567731544
 31
0
  0
LINE
  8
1
 62
7
 10
-177.4101513402745
 20
101.4524567731544
 30
0
 11
-172.4131847604382
 21
104.3374567731544
 31
0
  0
LINE
  8
1
 62
7
 10
-172.4131847604382
 20
104.3374567731544
 30
0
 11
-177.4101513402745
 21
107.2224567731544
 31
0
  0
LINE
  8
1
 62
7
 10
-177.4101513402745
 20
107.2224567731544
 30
0
 11
-177.4101513402745
 21
112.9924567731544
 31
0
  0
LINE
  8
1
 62
7
 10
-177.4101513402745
 20
112.9924567731544
 30
0
 11
-182.4071179201107
 21
110.1074567731544
 31
0
  0
LINE
  8
1
 62
7
 10
-182.4071179201107
 20
110.1074567731544
 30
0
 11
-187.4040844999469
 21
112.9924567731544
 31
0
  0
LINE
  8
1
 62
7
 10
-187.4040844999469
 20
112.9924567731544
 30
0
 11
-187.4040844999469
 21
107.2224567731544
 31
0
  0
LINE
  8
1
 62
7
 10
-187.4040844999469
 20
107.2224567731544
 30
0
 11
-192.4010510797831
 21
104.3374567731544
 31
0
  0
LINE
  8
1
 62
7
 10
-192.4010510797831
 20
104.3374567731544
 30
0
 11
-187.4040844999469
 21
101.4524567731544
 31
0
  0
LINE
  8
1
 62
7
 10
-187.4040844999469
 20
101.4524567731544
 30
0
 11
-187.4040844999469
 21
95.6824567731545
 31
0
  0
LINE
  8
1
 62
7
 10
-187.4040844999469
 20
95.6824567731545
 30
0
 11
-182.4071179201107
 21
98.5674567731545
 31
0
  0
LINE
  8
1
 62
7
 10
-182.4071179201107
 20
100.1074567731544
 30
0
 11
-178.7438304621025
 21
97.9924567731544
 31
0
  0
LINE
  8
1
 62
7
 10
-178.7438304621025
 20
97.9924567731544
 30
0
 11
-178.7438304621025
 21
102.2224567731544
 31
0
  0
LINE
  8
1
 62
7
 10
-178.7438304621025
 20
102.2224567731544
 30
0
 11
-175.0805430040944
 21
104.3374567731544
 31
0
  0
LINE
  8
1
 62
7
 10
-175.0805430040944
 20
104.3374567731544
 30
0
 11
-178.7438304621025
 21
106.4524567731544
 31
0
  0
LINE
  8
1
 62
7
 10
-178.7438304621025
 20
106.4524567731544
 30
0
 11
-178.7438304621025
 21
110.6824567731545
 31
0
  0
LINE
  8
1
 62
7
 10
-178.7438304621025
 20
110.6824567731545
 30
0
 11
-182.4071179201107
 21
108.5674567731545
 31
0
  0
LINE
  8
1
 62
7
 10
-182.4071179201107
 20
108.5674567731545
 30
0
 11
-186.0704053781189
 21
110.6824567731545
 31
0
  0
LINE
  8
1
 62
7
 10
-186.0704053781189
 20
110.6824567731545
 30
0
 11
-186.0704053781189
 21
106.4524567731544
 31
0
  0
LINE
  8
1
 62
7
 10
-186.0704053781189
 20
106.4524567731544
 30
0
 11
-189.7336928361271
 21
104.3374567731544
 31
0
  0
LINE
  8
1
 62
7
 10
-189.7336928361271
 20
104.3374567731544
 30
0
 11
-186.0704053781189
 21
102.2224567731544
 31
0
  0
LINE
  8
1
 62
7
 10
-186.0704053781189
 20
102.2224567731544
 30
0
 11
-186.0704053781189
 21
97.9924567731544
 31
0
  0
LINE
  8
1
 62
7
 10
-186.0704053781189
 20
97.9924567731544
 30
0
 11
-182.4071179201107
 21
100.1074567731544
 31
0
  0
LINE
  8
1
 62
7
 10
-144.6694347604383
 20
121.3374567731544
 30
0
 11
-140.4131847604383
 21
121.3374567731544
 31
0
  0
LINE
  8
1
 62
7
 10
-146.4131847604383
 20
116.3124567731543
 30
0
 11
-146.4131847604383
 21
115.3374567731544
 31
0
  0
LINE
  8
1
 62
7
 10
-140.4131847604383
 20
118.8249567731544
 30
0
 11
-140.4131847604383
 21
117.8499567731544
 31
0
  0
LINE
  8
1
 62
7
 10
-140.4131847604383
 20
116.3124567731543
 30
0
 11
-140.4131847604383
 21
115.3374567731544
 31
0
  0
LINE
  8
1
 62
7
 10
-140.4131847604383
 20
121.3374567731544
 30
0
 11
-140.4131847604383
 21
120.3624567731544
 31
0
  0
LINE
  8
1
 62
7
 10
-146.4131847604383
 20
116.3124567731543
 30
0
 11
-146.2345825170414
 21
116.3124567731543
 31
0
  0
LINE
  8
1
 62
7
 10
-146.4131847604383
 20
115.3374567731544
 30
0
 11
-140.4131847604383
 21
115.3374567731544
 31
0
  0
LINE
  8
1
 62
7
 10
-144.6694347604383
 20
116.3124567731543
 30
0
 11
-140.4131847604383
 21
116.3124567731543
 31
0
  0
LINE
  8
1
 62
7
 10
-144.6694347604383
 20
117.8499567731544
 30
0
 11
-140.4131847604383
 21
117.8499567731544
 31
0
  0
LINE
  8
1
 62
7
 10
-144.6694347604383
 20
118.8249567731544
 30
0
 11
-140.4131847604383
 21
118.8249567731544
 31
0
  0
LINE
  8
1
 62
7
 10
-144.6694347604383
 20
120.3624567731544
 30
0
 11
-140.4131847604383
 21
120.3624567731544
 31
0
  0
LINE
  8
1
 62
7
 10
-140.4131847604383
 20
110.8249567731544
 30
0
 11
-140.4131847604383
 21
109.8499567731544
 31
0
  0
LINE
  8
1
 62
7
 10
-140.4131847604383
 20
108.3124567731543
 30
0
 11
-140.4131847604383
 21
107.3374567731544
 31
0
  0
LINE
  8
1
 62
7
 10
-146.4131847604383
 20
108.3124567731543
 30
0
 11
-146.4131847604383
 21
107.3374567731544
 31
0
  0
LINE
  8
1
 62
7
 10
-144.6694347604383
 20
113.3374567731544
 30
0
 11
-140.4131847604383
 21
113.3374567731544
 31
0
  0
LINE
  8
1
 62
7
 10
-140.4131847604383
 20
113.3374567731544
 30
0
 11
-140.4131847604383
 21
112.3624567731544
 31
0
  0
LINE
  8
1
 62
7
 10
-146.4131847604383
 20
108.3124567731543
 30
0
 11
-146.2345825170415
 21
108.3124567731543
 31
0
  0
LINE
  8
1
 62
7
 10
-146.4131847604383
 20
107.3374567731544
 30
0
 11
-140.4131847604383
 21
107.3374567731544
 31
0
  0
LINE
  8
1
 62
7
 10
-144.6694347604383
 20
108.3124567731543
 30
0
 11
-140.4131847604383
 21
108.3124567731543
 31
0
  0
LINE
  8
1
 62
7
 10
-144.6694347604383
 20
109.8499567731544
 30
0
 11
-140.4131847604383
 21
109.8499567731544
 31
0
  0
LINE
  8
1
 62
7
 10
-144.6694347604383
 20
110.8249567731544
 30
0
 11
-140.4131847604383
 21
110.8249567731544
 31
0
  0
LINE
  8
1
 62
7
 10
-144.6694347604383
 20
112.3624567731544
 30
0
 11
-140.4131847604383
 21
112.3624567731544
 31
0
  0
LINE
  8
1
 62
7
 10
-146.6631847604383
 20
96.8374567731544
 30
0
 11
-144.1631847604383
 21
96.8374567731544
 31
0
  0
LINE
  8
1
 62
7
 10
-146.6631847604383
 20
98.1874567731543
 30
0
 11
-144.1631847604383
 21
98.1874567731543
 31
0
  0
LINE
  8
1
 62
7
 10
-146.6631847604383
 20
102.9874567731544
 30
0
 11
-144.1631847604383
 21
102.9874567731544
 31
0
  0
LINE
  8
1
 62
7
 10
-144.1631847604383
 20
104.3374567731544
 30
0
 11
-146.6631847604383
 21
104.3374567731544
 31
0
  0
LINE
  8
1
 62
7
 10
-146.6631847604383
 20
96.8374567731544
 30
0
 11
-144.1631847604383
 21
96.8374567731544
 31
0
  0
LINE
  8
1
 62
7
 10
-226.4131847604382
 20
-14.38164254283277
 30
0
 11
-226.4131847604382
 21
-32.38164254283278
 31
0
  0
LINE
  8
1
 62
7
 10
-218.9131847604382
 20
-33.38164254283278
 30
0
 11
-225.4131847604382
 21
-33.38164254283278
 31
0
  0
LINE
  8
1
 62
7
 10
-217.4131847604382
 20
-10.88164254283278
 30
0
 11
-219.4131847604382
 21
-10.88164254283278
 31
0
  0
LINE
  8
1
 62
7
 10
-218.9131847604382
 20
-17.38164254283278
 30
0
 11
-218.9131847604382
 21
-34.38164254283278
 31
0
  0
LINE
  8
1
 62
7
 10
-217.4131847604382
 20
-9.881642542832781
 30
0
 11
-217.4131847604382
 21
-15.88164254283278
 31
0
  0
LINE
  8
1
 62
7
 10
-118.4131847604382
 20
-18.38164254283278
 30
0
 11
-118.4131847604382
 21
-32.38164254283278
 31
0
  0
LINE
  8
1
 62
7
 10
-125.9131847604382
 20
-34.38164254283278
 30
0
 11
-125.9131847604382
 21
-17.38164254283279
 31
0
  0
LINE
  8
1
 62
7
 10
-125.9131847604382
 20
-33.38164254283278
 30
0
 11
-119.4131847604382
 21
-33.38164254283278
 31
0
  0
LINE
  8
1
 62
7
 10
-127.4131847604382
 20
-9.881642542832781
 30
0
 11
-127.4131847604382
 21
-16.38164254283278
 31
0
  0
LINE
  8
1
 62
7
 10
-119.4131847604382
 20
-17.38164254283278
 30
0
 11
-218.9131847604382
 21
-17.38164254283278
 31
0
  0
LINE
  8
1
 62
7
 10
-217.4131847604382
 20
-9.881642542832781
 30
0
 11
-127.4131847604382
 21
-9.881642542832781
 31
0
  0
LINE
  8
1
 62
7
 10
-125.9131847604382
 20
-34.38164254283278
 30
0
 11
-218.9131847604382
 21
-34.38164254283278
 31
0
  0
LINE
  8
1
 62
7
 10
-176.4131847604382
 20
-18.38164254283278
 30
0
 11
-176.4131847604382
 21
-32.38164254283278
 31
0
  0
LINE
  8
1
 62
7
 10
-168.4131847604382
 20
-32.38164254283278
 30
0
 11
-168.4131847604382
 21
-18.38164254283278
 31
0
  0
LINE
  8
1
 62
7
 10
-175.4131847604382
 20
-33.38164254283278
 30
0
 11
-169.4131847604382
 21
-33.38164254283278
 31
0
  0
LINE
  8
1
 62
7
 10
-280.4131847604382
 20
-51.7316425428328
 30
0
 11
-280.4131847604382
 21
-101.1316425428328
 31
0
  0
LINE
  8
1
 62
7
 10
-172.4131847604383
 20
-78.12695874380383
 30
0
 11
-172.4131847604383
 21
-75.12695874380383
 31
0
  0
LINE
  8
1
 62
7
 10
-174.0331847604383
 20
-75.12695874380383
 30
0
 11
-174.0331847604383
 21
-78.12695874380383
 31
0
  0
LINE
  8
1
 62
7
 10
-172.4144172055698
 20
-75.02164736140925
 30
0
 11
-172.4144172055698
 21
-78.12695874380383
 31
0
  0
LINE
  8
1
 62
7
 10
-179.7931847604384
 20
-75.12695874380383
 30
0
 11
-179.7931847604384
 21
-78.12695874380383
 31
0
  0
LINE
  8
1
 62
7
 10
-181.4131847604383
 20
-75.12695874380383
 30
0
 11
-181.4131847604383
 21
-78.12695874380383
 31
0
  0
LINE
  8
1
 62
7
 10
-189.758483627984
 20
-75.42695874380355
 30
0
 11
-189.758483627984
 21
-76.62695874380383
 31
0
  0
LINE
  8
1
 62
7
 10
-185.5972570712109
 20
-72.42695874380355
 30
0
 11
-189.758483627984
 21
-75.42695874380355
 31
0
  0
LINE
  8
1
 62
7
 10
-192.3316061869118
 20
-72.42695874380355
 30
0
 11
-192.3316061869117
 21
-70.62695874380383
 31
0
  0
LINE
  8
1
 62
7
 10
-192.3316061869118
 20
-72.42695874380355
 30
0
 11
-185.5972570712109
 21
-72.42695874380355
 31
0
  0
LINE
  8
1
 62
7
 10
-192.3316061869117
 20
-70.62695874380383
 30
0
 11
-183.3316061869118
 21
-70.62695874380383
 31
0
  0
LINE
  8
1
 62
7
 10
-189.758483627984
 20
-76.62695874380383
 30
0
 11
-187.2316061869118
 21
-76.62695874380383
 31
0
  0
LINE
  8
1
 62
7
 10
-187.2316061869118
 20
-80.82695874380364
 30
0
 11
-188.4316061869117
 21
-80.82695874380364
 31
0
  0
LINE
  8
1
 62
7
 10
-188.4316061869117
 20
-82.6269587438036
 30
0
 11
-187.2316061869118
 21
-82.6269587438036
 31
0
  0
LINE
  8
1
 62
7
 10
-186.8255042770179
 20
-74.84815980098905
 30
0
 11
-183.3316061869118
 21
-72.32926443989449
 31
0
  0
LINE
  8
1
 62
7
 10
-183.3316061869118
 20
-70.62695874380383
 30
0
 11
-183.3316061869118
 21
-72.32926443989449
 31
0
  0
LINE
  8
1
 62
7
 10
-190.4859526318301
 20
-79.16245924236922
 30
0
 11
-192.0654483578208
 21
-80.1430064396542
 31
0
  0
LINE
  8
1
 62
7
 10
-162.4131847604378
 20
-56.63164254283276
 30
0
 11
-152.4131847604382
 21
-60.63164254283276
 31
0
  0
LINE
  8
1
 62
7
 10
-162.4131847604382
 20
-59.13164254283276
 30
0
 11
-162.4131847604378
 21
-56.63164254283276
 31
0
  0
LINE
  8
1
 62
7
 10
-172.4131847604382
 20
-56.63164254283276
 30
0
 11
-170.4131847604382
 21
-59.13164254283276
 31
0
  0
LINE
  8
1
 62
7
 10
-192.4131847604382
 20
-56.63164254283276
 30
0
 11
-172.4131847604382
 21
-56.63164254283276
 31
0
  0
LINE
  8
1
 62
7
 10
-190.413184760438
 20
-59.13164254283276
 30
0
 11
-192.4131847604382
 21
-56.63164254283276
 31
0
  0
LINE
  8
1
 62
7
 10
-162.4131847604382
 20
-64.63164254283275
 30
0
 11
-152.4131847604382
 21
-60.63164254283276
 31
0
  0
LINE
  8
1
 62
7
 10
-162.4131847604382
 20
-64.63164254283275
 30
0
 11
-162.413184760438
 21
-62.13164254283276
 31
0
  0
LINE
  8
1
 62
7
 10
-172.4131847604382
 20
-64.63164254283275
 30
0
 11
-170.4131847604382
 21
-62.13164254283276
 31
0
  0
LINE
  8
1
 62
7
 10
-192.4131847604382
 20
-64.63164254283275
 30
0
 11
-172.4131847604382
 21
-64.63164254283275
 31
0
  0
LINE
  8
1
 62
7
 10
-190.413184760438
 20
-62.13164254283276
 30
0
 11
-192.4131847604382
 21
-64.63164254283275
 31
0
  0
LINE
  8
1
 62
7
 10
-192.4131847604384
 20
-59.13164254283276
 30
0
 11
-162.4131847604382
 21
-59.13164254283276
 31
0
  0
LINE
  8
1
 62
7
 10
-192.4131847604382
 20
-62.13164254283276
 30
0
 11
-192.4131847604384
 21
-59.13164254283276
 31
0
  0
LINE
  8
1
 62
7
 10
-162.413184760438
 20
-62.13164254283276
 30
0
 11
-192.4131847604382
 21
-62.13164254283276
 31
0
  0
LINE
  8
1
 62
2
 10
-68.2792101642226
 20
-101.1316425428328
 30
0
 11
-68.2792101642226
 21
-51.73164254283283
 31
0
  0
LINE
  8
1
 62
7
 10
-68.2792101642226
 20
-101.1316425428328
 30
0
 11
-67.41318476043824
 21
-99.63164254283278
 31
0
  0
LINE
  8
1
 62
7
 10
-67.41318476043824
 20
-99.63164254283278
 30
0
 11
-67.41318476043824
 21
-53.2316425428328
 31
0
  0
LINE
  8
1
 62
7
 10
-84.41318476043824
 20
-101.1316425428328
 30
0
 11
-68.2792101642226
 21
-101.1316425428328
 31
0
  0
LINE
  8
1
 62
7
 10
-84.41318476043824
 20
-51.7316425428328
 30
0
 11
-68.2792101642226
 21
-51.73164254283283
 31
0
  0
LINE
  8
1
 62
7
 10
-67.41318476043824
 20
-53.2316425428328
 30
0
 11
-68.2792101642226
 21
-51.73164254283283
 31
0
  0
LINE
  8
1
 62
2
 10
-84.41318476043824
 20
-99.63164254283278
 30
0
 11
-67.41318476043824
 21
-99.63164254283278
 31
0
  0
LINE
  8
1
 62
2
 10
-84.41318476043824
 20
-53.2316425428328
 30
0
 11
-67.41318476043824
 21
-53.2316425428328
 31
0
  0
LINE
  8
1
 62
7
 10
-84.41318476043824
 20
-101.1316425428328
 30
0
 11
-84.41318476043824
 21
-51.7316425428328
 31
0
  0
LINE
  8
1
 62
2
 10
-296.5471593566538
 20
-51.73164254283283
 30
0
 11
-296.5471593566538
 21
-101.1316425428328
 31
0
  0
LINE
  8
1
 62
7
 10
-297.4131847604382
 20
-99.63164254283278
 30
0
 11
-296.5471593566538
 21
-101.1316425428328
 31
0
  0
LINE
  8
1
 62
7
 10
-297.4131847604382
 20
-53.2316425428328
 30
0
 11
-297.4131847604382
 21
-99.63164254283278
 31
0
  0
LINE
  8
1
 62
7
 10
-264.1844282051152
 20
-53.4316425428328
 30
0
 11
-221.3964179630783
 21
-53.43164254283279
 31
0
  0
LINE
  8
1
 62
7
 10
-296.5471593566538
 20
-101.1316425428328
 30
0
 11
-280.4131847604382
 21
-101.1316425428328
 31
0
  0
LINE
  8
1
 62
7
 10
-296.5471593566538
 20
-51.73164254283283
 30
0
 11
-280.4131847604382
 21
-51.7316425428328
 31
0
  0
LINE
  8
1
 62
7
 10
-296.5471593566538
 20
-51.73164254283283
 30
0
 11
-297.4131847604382
 21
-53.2316425428328
 31
0
  0
LINE
  8
1
 62
2
 10
-297.4131847604382
 20
-99.63164254283278
 30
0
 11
-280.4131847604382
 21
-99.63164254283278
 31
0
  0
LINE
  8
1
 62
2
 10
-297.4131847604382
 20
-53.2316425428328
 30
0
 11
-280.4131847604382
 21
-53.2316425428328
 31
0
  0
LINE
  8
1
 62
7
 10
-127.4131847604382
 20
-90.32222802232077
 30
0
 11
-127.4131847604382
 21
-101.1316425428328
 31
0
  0
LINE
  8
1
 62
7
 10
-89.30959655412224
 20
-57.92835688593068
 30
0
 11
-125.4501073895306
 21
-49.61778645354547
 31
0
  0
LINE
  8
1
 62
7
 10
-129.9131847604382
 20
-34.38164254283278
 30
0
 11
-129.9131847604382
 21
-35.93164254283276
 31
0
  0
LINE
  8
1
 62
7
 10
-214.9131847604382
 20
-34.38164254283278
 30
0
 11
-214.9131847604382
 21
-35.93164254283276
 31
0
  0
LINE
  8
1
 62
7
 10
-214.9131847604382
 20
-43.66101541941374
 30
0
 11
-233.1478463166077
 21
-53.4316425428328
 31
0
  0
LINE
  8
1
 62
2
  6
CENTER
 10
-220.6923931867542
 20
-48.51501305547528
 30
0
 11
-220.6923931867542
 21
-51.2456320202975
 31
0
  0
LINE
  8
1
 62
2
  6
CENTER
 10
-222.1714784593671
 20
-49.82343464278588
 30
0
 11
-219.3270837043432
 21
-49.82343464278588
 31
0
  0
LINE
  8
1
 62
7
 10
-87.77160048293263
 20
-94.41275127562032
 30
0
 11
-125.0923926216854
 21
-88.34812255307288
 31
0
  0
LINE
  8
1
 62
7
 10
-207.4131847604382
 20
-116.4316425428328
 30
0
 11
-173.9131847604382
 21
-116.4316425428328
 31
0
  0
LINE
  8
1
 62
7
 10
-137.4131847604382
 20
-116.4316425428328
 30
0
 11
-133.7329434957607
 21
-112.2839686071882
 31
0
  0
LINE
  8
1
 62
7
 10
-207.4131847604382
 20
-116.4316425428328
 30
0
 11
-211.9462099713911
 21
-112.3238991609005
 31
0
  0
LINE
  8
1
 62
7
 10
-170.9131847604382
 20
-115.973324478692
 30
0
 11
-170.9131847604382
 21
-116.4316425428328
 31
0
  0
LINE
  8
1
 62
7
 10
-170.9131847604382
 20
-116.4316425428328
 30
0
 11
-137.4131847604382
 21
-116.4316425428328
 31
0
  0
LINE
  8
1
 62
7
 10
-173.9131847604382
 20
-115.973324478692
 30
0
 11
-173.9131847604382
 21
-116.4316425428328
 31
0
  0
LINE
  8
1
 62
7
 10
-173.9131847604382
 20
-116.4316425428328
 30
0
 11
-170.9131847604382
 21
-116.4316425428328
 31
0
  0
LINE
  8
1
 62
2
 10
-130.9131847604382
 20
-34.38164254283278
 30
0
 11
-130.9131847604382
 21
-37.14097881011266
 31
0
  0
LINE
  8
1
 62
2
 10
-213.9131847604382
 20
-34.38164254283278
 30
0
 11
-213.9131847604382
 21
-37.14153553621118
 31
0
  0
LINE
  8
1
 62
2
 10
-136.4948684358893
 20
-40.63689992213769
 30
0
 11
-208.3315010849871
 21
-40.63689992213769
 31
0
  0
LINE
  8
1
 62
2
 10
-237.412657878354
 20
-73.0007391377905
 30
0
 11
-237.412657878354
 21
-80.1047583561969
 31
0
  0
LINE
  8
1
 62
2
 10
-237.412657878354
 20
-80.1047583561969
 30
0
 11
-227.310612200803
 21
-80.1047583561969
 31
0
  0
LINE
  8
1
 62
2
 10
-227.310612200803
 20
-80.1047583561969
 30
0
 11
-227.310612200803
 21
-73.0007391377905
 31
0
  0
LINE
  8
1
 62
2
 10
-227.310612200803
 20
-73.0007391377905
 30
0
 11
-237.412657878354
 21
-73.0007391377905
 31
0
  0
LINE
  8
1
 62
7
 10
-221.6053926936331
 20
74.39775551577799
 30
0
 11
-221.7290222812392
 21
73.6073659124377
 31
0
  0
LINE
  8
1
 62
7
 10
-225.6809702979405
 20
74.22551385046739
 30
0
 11
-221.7290222812392
 21
73.6073659124377
 31
0
  0
LINE
  8
1
 62
7
 10
-225.5573407103344
 20
75.0159034538078
 30
0
 11
-225.6809702979405
 21
74.22551385046739
 31
0
  0
LINE
  8
1
 62
2
 10
-68.27921016422278
 20
79.63745677315441
 30
0
 11
-68.27921016422278
 21
129.0374567731544
 31
0
  0
LINE
  8
1
 62
7
 10
-67.41318476043841
 20
127.5374567731544
 30
0
 11
-68.27921016422278
 21
129.0374567731544
 31
0
  0
LINE
  8
1
 62
7
 10
-67.41318476043841
 20
81.1374567731544
 30
0
 11
-67.41318476043841
 21
127.5374567731544
 31
0
  0
LINE
  8
1
 62
7
 10
-84.41318476043841
 20
79.63745677315441
 30
0
 11
-84.41318476043841
 21
129.0374567731544
 31
0
  0
LINE
  8
1
 62
7
 10
-68.27921016422278
 20
129.0374567731544
 30
0
 11
-84.41318476043841
 21
129.0374567731544
 31
0
  0
LINE
  8
1
 62
7
 10
-68.27921016422278
 20
79.63745677315441
 30
0
 11
-84.41318476043841
 21
79.63745677315441
 31
0
  0
LINE
  8
1
 62
7
 10
-68.27921016422278
 20
79.63745677315441
 30
0
 11
-67.41318476043841
 21
81.1374567731544
 31
0
  0
LINE
  8
1
 62
2
 10
-67.41318476043841
 20
127.5374567731544
 30
0
 11
-84.41318476043841
 21
127.5374567731544
 31
0
  0
LINE
  8
1
 62
2
 10
-67.41318476043841
 20
81.1374567731544
 30
0
 11
-84.41318476043841
 21
81.1374567731544
 31
0
  0
LINE
  8
1
 62
2
 10
-296.547159356654
 20
129.0374567731544
 30
0
 11
-296.547159356654
 21
79.63745677315441
 31
0
  0
LINE
  8
1
 62
7
 10
-296.547159356654
 20
129.0374567731544
 30
0
 11
-297.4131847604384
 21
127.5374567731544
 31
0
  0
LINE
  8
1
 62
7
 10
-297.4131847604384
 20
127.5374567731544
 30
0
 11
-297.4131847604384
 21
81.1374567731544
 31
0
  0
LINE
  8
1
 62
7
 10
-280.4131847604384
 20
129.0374567731544
 30
0
 11
-280.4131847604384
 21
79.63745677315441
 31
0
  0
LINE
  8
1
 62
7
 10
-280.4131847604384
 20
129.0374567731544
 30
0
 11
-296.547159356654
 21
129.0374567731544
 31
0
  0
LINE
  8
1
 62
7
 10
-280.4131847604384
 20
79.63745677315441
 30
0
 11
-296.547159356654
 21
79.63745677315441
 31
0
  0
LINE
  8
1
 62
7
 10
-297.4131847604384
 20
81.1374567731544
 30
0
 11
-296.547159356654
 21
79.63745677315441
 31
0
  0
LINE
  8
1
 62
2
 10
-280.4131847604384
 20
127.5374567731544
 30
0
 11
-297.4131847604384
 21
127.5374567731544
 31
0
  0
LINE
  8
1
 62
2
 10
-280.4131847604384
 20
81.1374567731544
 30
0
 11
-297.4131847604384
 21
81.1374567731544
 31
0
  0
LINE
  8
1
 62
7
 10
-267.7387788487868
 20
127.0611578691869
 30
0
 11
-206.0836575692624
 21
136.7050058972609
 31
0
  0
LINE
  8
1
 62
7
 10
-237.4131847604384
 20
76.87034726789679
 30
0
 11
-237.5368143480445
 21
76.07995766455679
 31
0
  0
LINE
  8
1
 62
7
 10
-233.4612367437371
 20
76.25219932986701
 30
0
 11
-233.5848663313431
 21
75.46180972652661
 31
0
  0
LINE
  8
1
 62
7
 10
-231.4852627353864
 20
75.94312536085229
 30
0
 11
-231.6088923229925
 21
75.15273575751189
 31
0
  0
LINE
  8
1
 62
7
 10
-227.5333147186851
 20
75.32497742282251
 30
0
 11
-227.6569443062912
 21
74.5345878194822
 31
0
  0
LINE
  8
1
 62
7
 10
-231.6088923229925
 20
75.15273575751189
 30
0
 11
-227.6569443062912
 21
74.5345878194822
 31
0
  0
LINE
  8
1
 62
7
 10
-237.5368143480445
 20
76.07995766455679
 30
0
 11
-233.5848663313431
 21
75.46180972652661
 31
0
  0
LINE
  8
1
 62
7
 10
-138.5931666516163
 20
72.42419346275401
 30
0
 11
-89.45496432835878
 21
85.67944295570901
 31
0
  0
LINE
  8
1
 62
7
 10
-206.0836575692624
 20
71.9699076490478
 30
0
 11
-267.7387788487868
 21
81.6137556771218
 31
0
  0
LINE
  8
1
 62
7
 10
-139.1888035922384
 20
72.26351773833039
 30
0
 11
-138.5931666516163
 21
72.42419346275401
 31
0
  0
LINE
  8
1
 62
7
 10
-89.45496432835878
 20
122.9954705905998
 30
0
 11
-138.5931666516163
 21
136.2507200835547
 31
0
  0
LINE
  8
1
 62
7
 10
-217.4131847604382
 20
-9.881642542832781
 30
0
 11
-217.4131847604382
 21
-3.881642542832773
 31
0
  0
LINE
  8
1
 62
7
 10
-219.4131847604382
 20
-9.881642542832772
 30
0
 11
-217.4131847604382
 21
-9.881642542832781
 31
0
  0
LINE
  8
1
 62
7
 10
-219.4131847604382
 20
-14.38164254283277
 30
0
 11
-219.4131847604382
 21
-9.881642542832772
 31
0
  0
LINE
  8
1
 62
7
 10
-226.4131847604382
 20
-14.38164254283277
 30
0
 11
-226.4131847604382
 21
-3.881642542832773
 31
0
  0
LINE
  8
1
 62
7
 10
-122.4131847604382
 20
-5.381642542832773
 30
0
 11
-122.4131847604382
 21
-3.881642542832773
 31
0
  0
LINE
  8
1
 62
7
 10
-127.4131847604382
 20
-3.881642542832773
 30
0
 11
-127.4131847604382
 21
-9.881642542832781
 31
0
  0
LINE
  8
1
 62
7
 10
-127.4131847604382
 20
-5.381642542832773
 30
0
 11
-122.4131847604382
 21
-5.381642542832773
 31
0
  0
LINE
  8
1
 62
7
 10
-225.4131847604382
 20
-2.881642542832772
 30
0
 11
-123.4131847604382
 21
-2.881642542832772
 31
0
  0
LINE
  8
1
 62
7
 10
-127.4131847604382
 20
-9.881642542832781
 30
0
 11
-219.4131847604382
 21
-9.881642542832772
 31
0
  0
LINE
  8
1
 62
2
  6
DIVIDE
 10
-221.428184760438
 20
-14.38164254283277
 30
0
 11
-224.3981847604383
 21
-14.38164254283277
 31
0
  0
LINE
  8
1
 62
2
  6
DIVIDE
 10
-222.9131847604382
 20
-12.89664254283261
 30
0
 11
-222.9131847604382
 21
-15.86664254283293
 31
0
  0
LINE
  8
1
 62
2
 10
-170.3943497604384
 20
52.33563860981349
 30
0
 11
-174.4320197604384
 21
52.33563860981349
 31
0
  0
LINE
  8
1
 62
2
 10
-174.4320197604384
 20
52.33563860981349
 30
0
 11
-174.4320197604384
 21
57.37563860981349
 31
0
  0
LINE
  8
1
 62
2
 10
-174.4320197604384
 20
57.37563860981349
 30
0
 11
-170.4639647604384
 21
57.37563860981349
 31
0
  0
LINE
  8
1
 62
2
 10
-170.4639647604384
 20
57.37563860981349
 30
0
 11
-170.4639647604384
 21
56.7456386098135
 31
0
  0
LINE
  8
1
 62
2
 10
-170.4639647604384
 20
56.7456386098135
 30
0
 11
-173.6662547604384
 21
56.7456386098135
 31
0
  0
LINE
  8
1
 62
2
 10
-173.6662547604384
 20
56.7456386098135
 30
0
 11
-173.6662547604384
 21
55.2336386098135
 31
0
  0
LINE
  8
1
 62
2
 10
-173.6662547604384
 20
55.2336386098135
 30
0
 11
-170.7424247604384
 21
55.2336386098135
 31
0
  0
LINE
  8
1
 62
2
 10
-170.7424247604384
 20
55.2336386098135
 30
0
 11
-170.7424247604384
 21
54.60363860981349
 31
0
  0
LINE
  8
1
 62
2
 10
-170.7424247604384
 20
54.60363860981349
 30
0
 11
-173.6662547604384
 21
54.60363860981349
 31
0
  0
LINE
  8
1
 62
2
 10
-173.6662547604384
 20
54.60363860981349
 30
0
 11
-173.6662547604384
 21
52.9656386098135
 31
0
  0
LINE
  8
1
 62
2
 10
-173.6662547604384
 20
52.9656386098135
 30
0
 11
-170.3943497604384
 21
52.9656386098135
 31
0
  0
LINE
  8
1
 62
2
 10
-170.3943497604384
 20
52.9656386098135
 30
0
 11
-170.3943497604384
 21
52.33563860981349
 31
0
  0
LINE
  8
1
 62
2
 10
-174.4320197604384
 20
156.3574567731544
 30
0
 11
-170.3943497604384
 21
156.3574567731544
 31
0
  0
LINE
  8
1
 62
2
 10
-170.3943497604384
 20
156.3574567731544
 30
0
 11
-170.3943497604384
 21
151.3174567731544
 31
0
  0
LINE
  8
1
 62
2
 10
-170.3943497604384
 20
151.3174567731544
 30
0
 11
-174.3624047604384
 21
151.3174567731544
 31
0
  0
LINE
  8
1
 62
2
 10
-174.3624047604384
 20
151.3174567731544
 30
0
 11
-174.3624047604384
 21
151.9474567731544
 31
0
  0
LINE
  8
1
 62
2
 10
-174.3624047604384
 20
151.9474567731544
 30
0
 11
-171.1601147604384
 21
151.9474567731544
 31
0
  0
LINE
  8
1
 62
2
 10
-171.1601147604384
 20
151.9474567731544
 30
0
 11
-171.1601147604384
 21
153.4594567731544
 31
0
  0
LINE
  8
1
 62
2
 10
-171.1601147604384
 20
153.4594567731544
 30
0
 11
-174.0839447604384
 21
153.4594567731544
 31
0
  0
LINE
  8
1
 62
2
 10
-174.0839447604384
 20
153.4594567731544
 30
0
 11
-174.0839447604384
 21
154.0894567731544
 31
0
  0
LINE
  8
1
 62
2
 10
-174.0839447604384
 20
154.0894567731544
 30
0
 11
-171.1601147604384
 21
154.0894567731544
 31
0
  0
LINE
  8
1
 62
2
 10
-171.1601147604384
 20
154.0894567731544
 30
0
 11
-171.1601147604384
 21
155.7274567731544
 31
0
  0
LINE
  8
1
 62
2
 10
-171.1601147604384
 20
155.7274567731544
 30
0
 11
-174.4320197604384
 21
155.7274567731544
 31
0
  0
LINE
  8
1
 62
2
 10
-174.4320197604384
 20
155.7274567731544
 30
0
 11
-174.4320197604384
 21
156.3574567731544
 31
0
  0
LINE
  8
1
 62
2
 10
-167.8619990370196
 20
13.43333390189289
 30
0
 11
-170.7419990370196
 21
13.43333390189289
 31
0
  0
LINE
  8
1
 62
2
 10
-167.3819990370196
 20
15.59333390189289
 30
0
 11
-170.7419990370196
 21
15.59333390189289
 31
0
  0
LINE
  8
1
 62
2
 10
-170.7419990370196
 20
10.79333390189289
 30
0
 11
-167.3819990370196
 21
10.79333390189289
 31
0
  0
LINE
  8
1
 62
2
 10
-170.7419990370196
 20
15.59333390189289
 30
0
 11
-170.7419990370196
 21
10.79333390189289
 31
0
  0
LINE
  8
1
 62
2
 10
-176.1157762729941
 20
19.93637434884557
 30
0
 11
-176.1157762729941
 21
24.73637434884557
 31
0
  0
LINE
  8
1
 62
2
 10
-175.4491096063275
 20
23.38637434884557
 30
0
 11
-176.9157762729941
 21
23.38637434884557
 31
0
  0
LINE
  8
1
 62
2
 10
-177.0491096063275
 20
21.43637434884557
 30
0
 11
-176.5157762729942
 21
22.33637434884557
 31
0
  0
LINE
  8
1
 62
2
 10
-176.5157762729942
 20
22.33637434884557
 30
0
 11
-176.1157762729941
 21
23.23637434884557
 31
0
  0
LINE
  8
1
 62
2
 10
-176.1157762729941
 20
23.23637434884557
 30
0
 11
-175.4491096063275
 21
22.18637434884557
 31
0
  0
LINE
  8
1
 62
2
 10
-175.3157762729941
 20
20.83637434884557
 30
0
 11
-174.5157762729942
 21
21.73637434884557
 31
0
  0
LINE
  8
1
 62
2
 10
-174.5157762729942
 20
21.73637434884557
 30
0
 11
-173.8491096063275
 21
23.08637434884557
 31
0
  0
LINE
  8
1
 62
2
 10
-173.0491096063275
 20
23.23637434884557
 30
0
 11
-175.0491096063275
 21
23.23637434884557
 31
0
  0
LINE
  8
1
 62
2
 10
-173.8491096063275
 20
24.58637434884557
 30
0
 11
-173.7157762729941
 21
20.23637434884557
 31
0
  0
LINE
  8
1
 62
2
 10
-173.7157762729941
 20
20.23637434884557
 30
0
 11
-174.1157762729941
 21
20.23637434884557
 31
0
  0
LINE
  8
1
 62
2
 10
-172.2491096063275
 20
20.83637434884557
 30
0
 11
-171.8491096063275
 21
21.58637434884557
 31
0
  0
LINE
  8
1
 62
2
 10
-171.8491096063275
 20
21.58637434884557
 30
0
 11
-171.3157762729942
 21
22.93637434884557
 31
0
  0
LINE
  8
1
 62
2
 10
-170.3824429396608
 20
22.93637434884557
 30
0
 11
-172.2491096063275
 21
22.93637434884557
 31
0
  0
LINE
  8
1
 62
2
 10
-172.1157762729941
 20
24.13637434884557
 30
0
 11
-171.7157762729942
 21
23.53637434884557
 31
0
  0
LINE
  8
1
 62
2
 10
-170.9157762729942
 20
23.68637434884557
 30
0
 11
-170.6491096063275
 21
24.28637434884557
 31
0
  0
LINE
  8
1
 62
2
 10
-170.9157762729942
 20
22.33637434884557
 30
0
 11
-170.6491096063275
 21
21.73637434884557
 31
0
  0
LINE
  8
1
 62
2
 10
-170.3824429396608
 20
21.58637434884557
 30
0
 11
-168.1157762729941
 21
22.03637434884557
 31
0
  0
LINE
  8
1
 62
2
 10
-169.5824429396608
 20
22.63637434884557
 30
0
 11
-169.9824429396608
 21
23.23637434884557
 31
0
  0
LINE
  8
1
 62
2
 10
-169.5824429396608
 20
23.83637434884557
 30
0
 11
-169.9824429396608
 21
24.43637434884557
 31
0
  0
LINE
  8
1
 62
2
 10
-168.9157762729942
 20
24.73637434884557
 30
0
 11
-168.9157762729942
 21
19.93637434884557
 31
0
  0
LINE
  8
1
 62
2
 10
-171.3157762729942
 20
24.58637434884557
 30
0
 11
-171.3157762729942
 21
20.08637434884557
 31
0
  0
LINE
  8
1
 62
2
 10
-167.3157762729941
 20
20.23637434884557
 30
0
 11
-167.3157762729941
 21
21.43637434884557
 31
0
  0
LINE
  8
1
 62
2
 10
-167.3157762729941
 20
21.43637434884557
 30
0
 11
-166.2491096063275
 21
21.43637434884557
 31
0
  0
LINE
  8
1
 62
2
 10
-166.2491096063275
 20
21.43637434884557
 30
0
 11
-166.2491096063275
 21
20.23637434884557
 31
0
  0
LINE
  8
1
 62
2
 10
-166.2491096063275
 20
20.23637434884557
 30
0
 11
-167.3157762729941
 21
20.23637434884557
 31
0
  0
LINE
  8
1
 62
2
 10
-167.3157762729941
 20
22.03637434884557
 30
0
 11
-166.2491096063275
 21
22.03637434884557
 31
0
  0
LINE
  8
1
 62
2
 10
-166.2491096063275
 20
22.78637434884557
 30
0
 11
-167.3157762729941
 21
22.78637434884557
 31
0
  0
LINE
  8
1
 62
2
 10
-167.5824429396608
 20
23.38637434884557
 30
0
 11
-165.8491096063275
 21
23.38637434884557
 31
0
  0
LINE
  8
1
 62
2
 10
-167.4491096063275
 20
24.13637434884557
 30
0
 11
-166.2491096063275
 21
24.13637434884557
 31
0
  0
LINE
  8
1
 62
2
 10
-165.4491096063275
 20
23.98637434884557
 30
0
 11
-163.9824429396608
 21
23.98637434884557
 31
0
  0
LINE
  8
1
 62
2
 10
-163.9824429396608
 20
23.98637434884557
 30
0
 11
-163.9824429396608
 21
22.48637434884557
 31
0
  0
LINE
  8
1
 62
2
 10
-163.9824429396608
 20
22.48637434884557
 30
0
 11
-165.4491096063275
 21
22.48637434884557
 31
0
  0
LINE
  8
1
 62
2
 10
-165.4491096063275
 20
22.48637434884557
 30
0
 11
-165.4491096063275
 21
20.23637434884557
 31
0
  0
LINE
  8
1
 62
2
 10
-165.4491096063275
 20
20.23637434884557
 30
0
 11
-163.5824429396608
 21
20.23637434884557
 31
0
  0
LINE
  8
1
 62
2
 10
-163.5824429396608
 20
20.23637434884557
 30
0
 11
-163.5824429396608
 21
20.68637434884557
 31
0
  0
LINE
  8
1
 62
2
 10
-161.7157762729942
 20
24.43637434884557
 30
0
 11
-161.7157762729942
 21
23.38637434884557
 31
0
  0
LINE
  8
1
 62
2
 10
-161.7157762729942
 20
23.38637434884557
 30
0
 11
-159.5824429396608
 21
23.38637434884557
 31
0
  0
LINE
  8
1
 62
2
 10
-159.5824429396608
 20
23.38637434884557
 30
0
 11
-159.5824429396608
 21
24.43637434884557
 31
0
  0
LINE
  8
1
 62
2
 10
-159.5824429396608
 20
24.43637434884557
 30
0
 11
-161.7157762729942
 21
24.43637434884557
 31
0
  0
LINE
  8
1
 62
2
 10
-161.1824429396608
 20
22.63637434884557
 30
0
 11
-161.5824429396608
 21
21.13637434884557
 31
0
  0
LINE
  8
1
 62
2
 10
-161.4491096063275
 20
21.73637434884557
 30
0
 11
-159.5824429396608
 21
21.73637434884557
 31
0
  0
LINE
  8
1
 62
2
 10
-159.5824429396608
 20
21.73637434884557
 30
0
 11
-159.8491096063275
 21
20.83637434884557
 31
0
  0
LINE
  8
1
 62
2
 10
-159.8491096063275
 20
20.83637434884557
 30
0
 11
-160.2491096063275
 21
20.08637434884557
 31
0
  0
LINE
  8
1
 62
2
 10
-160.2491096063275
 20
20.08637434884557
 30
0
 11
-160.5157762729942
 21
19.93637434884557
 31
0
  0
LINE
  8
1
 62
2
 10
-160.5157762729942
 20
19.93637434884557
 30
0
 11
-161.0491096063275
 21
20.23637434884557
 31
0
  0
LINE
  8
1
 62
2
 10
-162.6491096063275
 20
22.63637434884557
 30
0
 11
-158.7824429396608
 21
22.63637434884557
 31
0
  0
LINE
  8
1
 62
2
 10
-284.4410881931202
 20
60.16756428089106
 30
0
 11
-284.3871020011057
 21
59.71756428089106
 31
0
  0
LINE
  8
1
 62
2
 10
-284.3871020011057
 20
59.71756428089106
 30
0
 11
-284.3066667619849
 21
59.41756428089106
 31
0
  0
LINE
  8
1
 62
2
 10
-284.3066667619849
 20
59.41756428089106
 30
0
 11
-283.8273196206661
 21
59.86756428089107
 31
0
  0
LINE
  8
1
 62
2
 10
-283.3997824757578
 20
59.26756428089107
 30
0
 11
-282.8664491424245
 21
59.26756428089107
 31
0
  0
LINE
  8
1
 62
2
 10
-282.8664491424245
 20
59.26756428089107
 30
0
 11
-282.5468843815453
 21
59.56756428089106
 31
0
  0
LINE
  8
1
 62
2
 10
-282.5468843815453
 20
59.56756428089106
 30
0
 11
-282.5744215264535
 21
60.16756428089106
 31
0
  0
LINE
  8
1
 62
2
 10
-282.5744215264535
 20
60.16756428089106
 30
0
 11
-282.9755096242556
 21
60.91756428089106
 31
0
  0
LINE
  8
1
 62
2
 10
-282.9755096242556
 20
60.91756428089106
 30
0
 11
-282.7628291496034
 21
61.36756428089107
 31
0
  0
LINE
  8
1
 62
2
 10
-282.7628291496034
 20
61.36756428089107
 30
0
 11
-282.1765977220575
 21
61.66756428089106
 31
0
  0
LINE
  8
1
 62
2
 10
-282.1765977220575
 20
61.66756428089106
 30
0
 11
-282.230583914072
 21
62.11756428089107
 31
0
  0
LINE
  8
1
 62
2
 10
-282.230583914072
 20
62.11756428089107
 30
0
 11
-282.5512367727532
 21
62.56756428089106
 31
0
  0
LINE
  8
1
 62
2
 10
-281.6146391460139
 20
60.31756428089106
 30
0
 11
-281.2939862873328
 21
59.86756428089107
 31
0
  0
LINE
  8
1
 62
2
 10
-281.2939862873328
 20
59.86756428089107
 30
0
 11
-281.1066667619849
 21
59.41756428089106
 31
0
  0
LINE
  8
1
 62
2
 10
-279.4262315228641
 20
59.11756428089107
 30
0
 11
-278.7352920046951
 21
60.76756428089107
 31
0
  0
LINE
  8
1
 62
2
 10
-278.7352920046951
 20
60.76756428089107
 30
0
 11
-278.124787725647
 21
62.71756428089107
 31
0
  0
LINE
  8
1
 62
2
 10
-277.2708015336324
 20
62.26756428089107
 30
0
 11
-278.2570329611783
 21
61.96756428089107
 31
0
  0
LINE
  8
1
 62
2
 10
-278.2570329611783
 20
61.96756428089107
 30
0
 11
-279.2168153416179
 21
61.81756428089106
 31
0
  0
LINE
  8
1
 62
2
 10
-277.2432643887242
 20
61.66756428089106
 30
0
 11
-276.8432643887242
 21
61.66756428089106
 31
0
  0
LINE
  8
1
 62
2
 10
-276.8432643887242
 20
61.66756428089106
 30
0
 11
-276.3363801024971
 21
61.51756428089107
 31
0
  0
LINE
  8
1
 62
2
 10
-277.9871020011057
 20
59.71756428089106
 30
0
 11
-277.7733334286515
 21
59.41756428089106
 31
0
  0
LINE
  8
1
 62
2
 10
-277.7733334286515
 20
59.41756428089106
 30
0
 11
-277.1331158090912
 21
59.26756428089107
 31
0
  0
LINE
  8
1
 62
2
 10
-277.1331158090912
 20
59.26756428089107
 30
0
 11
-276.4400000953182
 21
59.41756428089106
 31
0
  0
LINE
  8
1
 62
2
 10
-272.7110191531928
 20
62.41756428089106
 30
0
 11
-273.3755096242555
 21
60.91756428089106
 31
0
  0
LINE
  8
1
 62
2
 10
-273.3755096242555
 20
60.91756428089106
 30
0
 11
-274.3066667619849
 21
59.41756428089106
 31
0
  0
LINE
  8
1
 62
2
 10
-274.3066667619849
 20
59.41756428089106
 30
0
 11
-274.7871020011057
 21
59.71756428089106
 31
0
  0
LINE
  8
1
 62
2
 10
-274.7871020011057
 20
59.71756428089106
 30
0
 11
-274.7881900989077
 21
60.46756428089106
 31
0
  0
LINE
  8
1
 62
2
 10
-274.7881900989077
 20
60.46756428089106
 30
0
 11
-274.4961624829367
 21
61.36756428089107
 31
0
  0
LINE
  8
1
 62
2
 10
-274.4961624829367
 20
61.36756428089107
 30
0
 11
-273.830583914072
 21
62.11756428089107
 31
0
  0
LINE
  8
1
 62
2
 10
-273.830583914072
 20
62.11756428089107
 30
0
 11
-272.9776858198595
 21
62.41756428089106
 31
0
  0
LINE
  8
1
 62
2
 10
-272.1776858198595
 20
62.41756428089106
 30
0
 11
-271.6972505807387
 21
62.11756428089107
 31
0
  0
LINE
  8
1
 62
2
 10
-271.6972505807387
 20
62.11756428089107
 30
0
 11
-271.4030467691638
 21
61.51756428089107
 31
0
  0
LINE
  8
1
 62
2
 10
-271.4030467691638
 20
61.51756428089107
 30
0
 11
-271.5881900989077
 21
60.46756428089106
 31
0
  0
LINE
  8
1
 62
2
 10
-271.5881900989077
 20
60.46756428089106
 30
0
 11
-272.120435334439
 21
59.71756428089106
 31
0
  0
LINE
  8
1
 62
2
 10
-272.120435334439
 20
59.71756428089106
 30
0
 11
-272.8928981895307
 21
59.11756428089107
 31
0
  0
LINE
  8
1
 62
2
 10
-272.9776858198595
 20
62.41756428089106
 30
0
 11
-272.1776858198595
 21
62.41756428089106
 31
0
  0
LINE
  8
1
 62
2
 10
-270.41246295041
 20
58.81756428089106
 30
0
 11
-269.7776858198595
 21
62.41756428089106
 31
0
  0
LINE
  8
1
 62
2
 10
-266.3110191531928
 20
62.41756428089106
 30
0
 11
-266.9457962837433
 21
58.81756428089106
 31
0
  0
LINE
  8
1
 62
2
 10
-266.9457962837433
 20
58.81756428089106
 30
0
 11
-267.61246295041
 21
58.81756428089106
 31
0
  0
LINE
  8
1
 62
2
 10
-268.9744215264535
 20
60.16756428089106
 30
0
 11
-268.7628291496034
 21
61.36756428089107
 31
0
  0
LINE
  8
1
 62
2
 10
-268.7628291496034
 20
61.36756428089107
 30
0
 11
-267.6961624829367
 21
61.36756428089107
 31
0
  0
LINE
  8
1
 62
2
 10
-267.6961624829367
 20
61.36756428089107
 30
0
 11
-267.9077548597869
 21
60.16756428089106
 31
0
  0
LINE
  8
1
 62
2
 10
-267.9077548597869
 20
60.16756428089106
 30
0
 11
-268.9744215264535
 21
60.16756428089106
 31
0
  0
LINE
  8
1
 62
2
 10
-269.1110191531928
 20
62.41756428089106
 30
0
 11
-268.2856582038885
 21
63.31756428089106
 31
0
  0
LINE
  8
1
 62
2
 10
-269.7776858198595
 20
62.41756428089106
 30
0
 11
-266.3110191531928
 21
62.41756428089106
 31
0
  0
LINE
  8
1
 62
2
 10
-264.3892781967097
 20
61.21756428089106
 30
0
 11
-263.1363801024971
 21
61.51756428089107
 31
0
  0
LINE
  8
1
 62
2
 10
-263.1363801024971
 20
61.51756428089107
 30
0
 11
-262.123699627845
 21
61.96756428089107
 31
0
  0
LINE
  8
1
 62
2
 10
-262.6581210589803
 20
62.71756428089107
 30
0
 11
-263.2443524865262
 21
62.41756428089106
 31
0
  0
LINE
  8
1
 62
2
 10
-263.2443524865262
 20
62.41756428089106
 30
0
 11
-264.230583914072
 21
62.11756428089107
 31
0
  0
LINE
  8
1
 62
2
 10
-263.6454405843282
 20
63.16756428089106
 30
0
 11
-263.1639172474054
 21
62.11756428089107
 31
0
  0
LINE
  8
1
 62
2
 10
-263.1639172474054
 20
62.11756428089107
 30
0
 11
-262.5479724793473
 21
60.31756428089106
 31
0
  0
LINE
  8
1
 62
2
 10
-262.5479724793473
 20
60.31756428089106
 30
0
 11
-263.0548567655744
 21
60.46756428089106
 31
0
  0
LINE
  8
1
 62
2
 10
-263.0548567655744
 20
60.46756428089106
 30
0
 11
-263.5881900989077
 21
60.46756428089106
 31
0
  0
LINE
  8
1
 62
2
 10
-263.5881900989077
 20
60.46756428089106
 30
0
 11
-264.1744215264536
 21
60.16756428089106
 31
0
  0
LINE
  8
1
 62
2
 10
-264.1744215264536
 20
60.16756428089106
 30
0
 11
-264.5468843815453
 21
59.56756428089106
 31
0
  0
LINE
  8
1
 62
2
 10
-264.5468843815453
 20
59.56756428089106
 30
0
 11
-264.0928981895308
 21
59.11756428089107
 31
0
  0
LINE
  8
1
 62
2
 10
-264.0928981895308
 20
59.11756428089107
 30
0
 11
-263.1860139033037
 21
58.96756428089106
 31
0
  0
LINE
  8
1
 62
2
 10
-260.2262315228641
 20
59.11756428089107
 30
0
 11
-260.1744215264536
 21
60.16756428089106
 31
0
  0
LINE
  8
1
 62
2
 10
-260.1744215264536
 20
60.16756428089106
 30
0
 11
-259.9363801024971
 21
61.51756428089107
 31
0
  0
LINE
  8
1
 62
2
 10
-259.9363801024971
 20
61.51756428089107
 30
0
 11
-259.431672011874
 21
62.86756428089107
 31
0
  0
LINE
  8
1
 62
2
 10
-258.8168153416179
 20
61.81756428089106
 30
0
 11
-257.5903662945117
 21
61.96756428089107
 31
0
  0
LINE
  8
1
 62
2
 10
-257.5903662945117
 20
61.96756428089107
 30
0
 11
-256.8972505807387
 21
62.11756428089107
 31
0
  0
LINE
  8
1
 62
2
 10
-257.5650053452074
 20
62.86756428089107
 30
0
 11
-257.9077548597869
 21
60.16756428089106
 31
0
  0
LINE
  8
1
 62
2
 10
-257.9077548597869
 20
60.16756428089106
 30
0
 11
-258.1468843815453
 21
59.56756428089106
 31
0
  0
LINE
  8
1
 62
2
 10
-258.1468843815453
 20
59.56756428089106
 30
0
 11
-258.4664491424245
 21
59.26756428089107
 31
0
  0
LINE
  8
1
 62
2
 10
-258.4664491424245
 20
59.26756428089107
 30
0
 11
-259.0262315228641
 21
59.11756428089107
 31
0
  0
LINE
  8
1
 62
2
 10
-259.0262315228641
 20
59.11756428089107
 30
0
 11
-259.3733334286516
 21
59.41756428089106
 31
0
  0
LINE
  8
1
 62
2
 10
-259.3733334286516
 20
59.41756428089106
 30
0
 11
-259.320435334439
 21
59.71756428089106
 31
0
  0
LINE
  8
1
 62
2
 10
-259.320435334439
 20
59.71756428089106
 30
0
 11
-258.6273196206661
 21
59.86756428089107
 31
0
  0
LINE
  8
1
 62
2
 10
-258.6273196206661
 20
59.86756428089107
 30
0
 11
-257.9871020011057
 21
59.71756428089106
 31
0
  0
LINE
  8
1
 62
2
 10
-257.9871020011057
 20
59.71756428089106
 30
0
 11
-257.3997824757578
 21
59.26756428089107
 31
0
  0
LINE
  8
1
 62
2
 10
-255.8294958162701
 20
61.36756428089107
 30
0
 11
-251.8294958162701
 21
61.36756428089107
 31
0
  0
LINE
  8
1
 62
2
 10
-251.3457962837433
 20
58.81756428089106
 30
0
 11
-251.0262315228641
 21
59.11756428089107
 31
0
  0
LINE
  8
1
 62
2
 10
-251.0262315228641
 20
59.11756428089107
 30
0
 11
-250.520435334439
 21
59.71756428089106
 31
0
  0
LINE
  8
1
 62
2
 10
-250.520435334439
 20
59.71756428089106
 30
0
 11
-249.8284077184681
 21
60.61756428089107
 31
0
  0
LINE
  8
1
 62
2
 10
-250.3606529539994
 20
59.86756428089107
 30
0
 11
-250.1733334286516
 21
59.41756428089106
 31
0
  0
LINE
  8
1
 62
2
 10
-250.1733334286516
 20
59.41756428089106
 30
0
 11
-249.8262315228641
 21
59.11756428089107
 31
0
  0
LINE
  8
1
 62
2
 10
-249.8262315228641
 20
59.11756428089107
 30
0
 11
-249.21246295041
 21
58.81756428089106
 31
0
  0
LINE
  8
1
 62
2
 10
-249.21246295041
 20
58.81756428089106
 30
0
 11
-247.4791296170766
 21
58.81756428089106
 31
0
  0
LINE
  8
1
 62
2
 10
-247.8548567655743
 20
60.46756428089106
 30
0
 11
-249.1881900989077
 21
60.46756428089106
 31
0
  0
LINE
  8
1
 62
2
 10
-250.630583914072
 20
62.11756428089107
 30
0
 11
-250.4983386785407
 21
62.86756428089107
 31
0
  0
LINE
  8
1
 62
2
 10
-247.031672011874
 20
62.86756428089107
 30
0
 11
-247.1639172474054
 21
62.11756428089107
 31
0
  0
LINE
  8
1
 62
2
 10
-248.7650053452074
 20
62.86756428089107
 30
0
 11
-248.6856582038885
 21
63.31756428089106
 31
0
  0
LINE
  8
1
 62
2
 10
-250.4983386785407
 20
62.86756428089107
 30
0
 11
-247.031672011874
 21
62.86756428089107
 31
0
  0
LINE
  8
1
 62
2
 10
-247.7765977220575
 20
61.66756428089106
 30
0
 11
-250.1765977220575
 21
61.66756428089106
 31
0
  0
LINE
  8
1
 62
2
 10
-249.4526805699704
 20
58.96756428089106
 30
0
 11
-248.9765977220575
 21
61.66756428089106
 31
0
  0
LINE
  8
1
 62
2
 10
-246.2030467691638
 20
61.51756428089107
 30
0
 11
-244.7639172474054
 21
62.11756428089107
 31
0
  0
LINE
  8
1
 62
2
 10
-244.7639172474054
 20
62.11756428089107
 30
0
 11
-242.9776858198595
 21
62.41756428089106
 31
0
  0
LINE
  8
1
 62
2
 10
-242.3110191531928
 20
62.41756428089106
 30
0
 11
-242.631672011874
 21
62.86756428089107
 31
0
  0
LINE
  8
1
 62
2
 10
-242.3121072509948
 20
63.16756428089106
 30
0
 11
-241.9914543923136
 21
62.71756428089107
 31
0
  0
LINE
  8
1
 62
2
 10
-243.6708015336324
 20
62.26756428089107
 30
0
 11
-244.2570329611783
 21
61.96756428089107
 31
0
  0
LINE
  8
1
 62
2
 10
-244.2570329611783
 20
61.96756428089107
 30
0
 11
-244.7628291496034
 21
61.36756428089107
 31
0
  0
LINE
  8
1
 62
2
 10
-244.7628291496034
 20
61.36756428089107
 30
0
 11
-245.1617410518014
 21
60.61756428089107
 31
0
  0
LINE
  8
1
 62
2
 10
-245.1617410518014
 20
60.61756428089107
 30
0
 11
-245.2410881931202
 21
60.16756428089106
 31
0
  0
LINE
  8
1
 62
2
 10
-245.2410881931202
 20
60.16756428089106
 30
0
 11
-245.213551048212
 21
59.56756428089106
 31
0
  0
LINE
  8
1
 62
2
 10
-245.213551048212
 20
59.56756428089106
 30
0
 11
-244.8928981895308
 21
59.11756428089107
 31
0
  0
LINE
  8
1
 62
2
 10
-244.8928981895308
 20
59.11756428089107
 30
0
 11
-244.2791296170767
 21
58.81756428089106
 31
0
  0
LINE
  8
1
 62
2
 10
-241.0262315228641
 20
59.11756428089107
 30
0
 11
-240.9744215264535
 21
60.16756428089106
 31
0
  0
LINE
  8
1
 62
2
 10
-240.9744215264535
 20
60.16756428089106
 30
0
 11
-240.7363801024971
 21
61.51756428089107
 31
0
  0
LINE
  8
1
 62
2
 10
-240.7363801024971
 20
61.51756428089107
 30
0
 11
-240.231672011874
 21
62.86756428089107
 31
0
  0
LINE
  8
1
 62
2
 10
-239.6168153416179
 20
61.81756428089106
 30
0
 11
-238.3903662945116
 21
61.96756428089107
 31
0
  0
LINE
  8
1
 62
2
 10
-238.3903662945116
 20
61.96756428089107
 30
0
 11
-237.6972505807387
 21
62.11756428089107
 31
0
  0
LINE
  8
1
 62
2
 10
-238.3650053452074
 20
62.86756428089107
 30
0
 11
-238.7077548597869
 21
60.16756428089106
 31
0
  0
LINE
  8
1
 62
2
 10
-238.7077548597869
 20
60.16756428089106
 30
0
 11
-238.9468843815453
 21
59.56756428089106
 31
0
  0
LINE
  8
1
 62
2
 10
-238.9468843815453
 20
59.56756428089106
 30
0
 11
-239.2664491424245
 21
59.26756428089107
 31
0
  0
LINE
  8
1
 62
2
 10
-239.2664491424245
 20
59.26756428089107
 30
0
 11
-239.8262315228641
 21
59.11756428089107
 31
0
  0
LINE
  8
1
 62
2
 10
-239.8262315228641
 20
59.11756428089107
 30
0
 11
-240.1733334286516
 21
59.41756428089106
 31
0
  0
LINE
  8
1
 62
2
 10
-240.1733334286516
 20
59.41756428089106
 30
0
 11
-240.120435334439
 21
59.71756428089106
 31
0
  0
LINE
  8
1
 62
2
 10
-240.120435334439
 20
59.71756428089106
 30
0
 11
-239.4273196206661
 21
59.86756428089107
 31
0
  0
LINE
  8
1
 62
2
 10
-239.4273196206661
 20
59.86756428089107
 30
0
 11
-238.7871020011057
 21
59.71756428089106
 31
0
  0
LINE
  8
1
 62
2
 10
-238.7871020011057
 20
59.71756428089106
 30
0
 11
-238.1997824757578
 21
59.26756428089107
 31
0
  0
LINE
  8
1
 62
2
 10
-235.0537686677724
 20
59.71756428089106
 30
0
 11
-235.0284077184681
 21
60.61756428089107
 31
0
  0
LINE
  8
1
 62
2
 10
-235.0284077184681
 20
60.61756428089107
 30
0
 11
-234.3385562981011
 21
63.01756428089107
 31
0
  0
LINE
  8
1
 62
2
 10
-235.5374682002991
 20
62.26756428089107
 30
0
 11
-234.3374682002991
 21
62.26756428089107
 31
0
  0
LINE
  8
1
 62
2
 10
-234.3374682002991
 20
62.26756428089107
 30
0
 11
-233.5110191531929
 21
62.41756428089106
 31
0
  0
LINE
  8
1
 62
2
 10
-233.8570329611783
 20
61.96756428089107
 30
0
 11
-234.7881900989077
 21
60.46756428089106
 31
0
  0
LINE
  8
1
 62
2
 10
-234.7881900989077
 20
60.46756428089106
 30
0
 11
-236.1468843815453
 21
59.56756428089106
 31
0
  0
LINE
  8
1
 62
2
 10
-236.1468843815453
 20
59.56756428089106
 30
0
 11
-236.3606529539994
 21
59.86756428089107
 31
0
  0
LINE
  8
1
 62
2
 10
-236.3606529539994
 20
59.86756428089107
 30
0
 11
-235.9881900989077
 21
60.46756428089106
 31
0
  0
LINE
  8
1
 62
2
 10
-235.9881900989077
 20
60.46756428089106
 30
0
 11
-235.2157272438159
 21
61.06756428089106
 31
0
  0
LINE
  8
1
 62
2
 10
-235.2157272438159
 20
61.06756428089106
 30
0
 11
-234.0961624829367
 21
61.36756428089107
 31
0
  0
LINE
  8
1
 62
2
 10
-234.0961624829367
 20
61.36756428089107
 30
0
 11
-233.4823939104826
 21
61.06756428089106
 31
0
  0
LINE
  8
1
 62
2
 10
-233.4823939104826
 20
61.06756428089106
 30
0
 11
-233.2950743851347
 21
60.61756428089107
 31
0
  0
LINE
  8
1
 62
2
 10
-233.2950743851347
 20
60.61756428089107
 30
0
 11
-233.4273196206661
 21
59.86756428089107
 31
0
  0
LINE
  8
1
 62
2
 10
-233.4273196206661
 20
59.86756428089107
 30
0
 11
-234.0664491424245
 21
59.26756428089107
 31
0
  0
LINE
  8
1
 62
2
 10
-234.0664491424245
 20
59.26756428089107
 30
0
 11
-234.7860139033037
 21
58.96756428089106
 31
0
  0
LINE
  8
1
 62
2
 10
-230.5479724793473
 20
60.31756428089106
 30
0
 11
-230.5755096242555
 21
60.91756428089106
 31
0
  0
LINE
  8
1
 62
2
 10
-230.3639172474054
 20
62.11756428089107
 30
0
 11
-230.0718896314344
 21
63.01756428089107
 31
0
  0
LINE
  8
1
 62
2
 10
-230.4168153416179
 20
61.81756428089106
 30
0
 11
-230.0443524865262
 21
62.41756428089106
 31
0
  0
LINE
  8
1
 62
2
 10
-230.0443524865262
 20
62.41756428089106
 30
0
 11
-229.431672011874
 21
62.86756428089107
 31
0
  0
LINE
  8
1
 62
2
 10
-229.431672011874
 20
62.86756428089107
 30
0
 11
-229.031672011874
 21
62.86756428089107
 31
0
  0
LINE
  8
1
 62
2
 10
-229.031672011874
 20
62.86756428089107
 30
0
 11
-228.8443524865262
 21
62.41756428089106
 31
0
  0
LINE
  8
1
 62
2
 10
-228.8443524865262
 20
62.41756428089106
 30
0
 11
-228.8697134358305
 21
61.51756428089107
 31
0
  0
LINE
  8
1
 62
2
 10
-228.8697134358305
 20
61.51756428089107
 30
0
 11
-229.0019586713618
 21
60.76756428089107
 31
0
  0
LINE
  8
1
 62
2
 10
-229.0019586713618
 20
60.76756428089107
 30
0
 11
-229.4537686677724
 21
59.71756428089106
 31
0
  0
LINE
  8
1
 62
2
 10
-229.4537686677724
 20
59.71756428089106
 30
0
 11
-230.2526805699704
 21
58.96756428089106
 31
0
  0
LINE
  8
1
 62
2
 10
-230.5755096242555
 20
60.91756428089106
 30
0
 11
-230.3639172474054
 21
62.11756428089107
 31
0
  0
LINE
  8
1
 62
2
 10
-226.2559448633763
 20
61.21756428089106
 30
0
 11
-225.0559448633763
 21
61.21756428089106
 31
0
  0
LINE
  8
1
 62
2
 10
-225.0559448633763
 20
61.21756428089106
 30
0
 11
-223.9363801024971
 21
61.51756428089107
 31
0
  0
LINE
  8
1
 62
2
 10
-223.9110191531929
 20
62.41756428089106
 30
0
 11
-224.8708015336325
 21
62.26756428089107
 31
0
  0
LINE
  8
1
 62
2
 10
-224.8708015336325
 20
62.26756428089107
 30
0
 11
-225.6708015336324
 21
62.26756428089107
 31
0
  0
LINE
  8
1
 62
2
 10
-224.5787739176615
 20
63.16756428089106
 30
0
 11
-224.7903662945117
 21
61.96756428089107
 31
0
  0
LINE
  8
1
 62
2
 10
-224.7903662945117
 20
61.96756428089107
 30
0
 11
-225.0273196206661
 21
59.86756428089107
 31
0
  0
LINE
  8
1
 62
2
 10
-225.0273196206661
 20
59.86756428089107
 30
0
 11
-225.3997824757579
 21
59.26756428089107
 31
0
  0
LINE
  8
1
 62
2
 10
-225.3997824757579
 20
59.26756428089107
 30
0
 11
-225.9860139033037
 21
58.96756428089106
 31
0
  0
LINE
  8
1
 62
2
 10
-225.9860139033037
 20
58.96756428089106
 30
0
 11
-226.4928981895308
 21
59.11756428089107
 31
0
  0
LINE
  8
1
 62
2
 10
-226.4928981895308
 20
59.11756428089107
 30
0
 11
-226.5733334286516
 21
59.41756428089106
 31
0
  0
LINE
  8
1
 62
2
 10
-226.5733334286516
 20
59.41756428089106
 30
0
 11
-226.2537686677724
 21
59.71756428089106
 31
0
  0
LINE
  8
1
 62
2
 10
-226.2537686677724
 20
59.71756428089106
 30
0
 11
-225.5606529539994
 21
59.86756428089107
 31
0
  0
LINE
  8
1
 62
2
 10
-225.5606529539994
 20
59.86756428089107
 30
0
 11
-224.9468843815453
 21
59.56756428089106
 31
0
  0
LINE
  8
1
 62
2
 10
-224.9468843815453
 20
59.56756428089106
 30
0
 11
-224.4928981895308
 21
59.11756428089107
 31
0
  0
LINE
  8
1
 62
2
 10
-222.1490605771493
 20
61.06756428089106
 30
0
 11
-220.4697134358305
 21
61.51756428089107
 31
0
  0
LINE
  8
1
 62
2
 10
-220.4697134358305
 20
61.51756428089107
 30
0
 11
-219.1099310553909
 21
61.66756428089106
 31
0
  0
LINE
  8
1
 62
2
 10
-219.1099310553909
 20
61.66756428089106
 30
0
 11
-218.3099310553909
 21
61.66756428089106
 31
0
  0
LINE
  8
1
 62
2
 10
-219.8813058126806
 20
60.31756428089106
 30
0
 11
-219.5628291496034
 21
61.36756428089107
 31
0
  0
LINE
  8
1
 62
2
 10
-219.5628291496034
 20
61.36756428089107
 30
0
 11
-219.2983386785407
 21
62.86756428089107
 31
0
  0
LINE
  8
1
 62
2
 10
-220.8443524865262
 20
62.41756428089106
 30
0
 11
-221.1617410518014
 21
60.61756428089107
 31
0
  0
LINE
  8
1
 62
2
 10
-221.1617410518014
 20
60.61756428089107
 30
0
 11
-221.1066667619849
 21
59.41756428089106
 31
0
  0
LINE
  8
1
 62
2
 10
-221.1066667619849
 20
59.41756428089106
 30
0
 11
-220.4664491424245
 21
59.26756428089107
 31
0
  0
LINE
  8
1
 62
2
 10
-220.4664491424245
 20
59.26756428089107
 30
0
 11
-219.3997824757578
 21
59.26756428089107
 31
0
  0
LINE
  8
1
 62
2
 10
-217.5595648561975
 20
59.11756428089107
 30
0
 11
-216.7881900989077
 21
60.46756428089106
 31
0
  0
LINE
  8
1
 62
2
 10
-216.7881900989077
 20
60.46756428089106
 30
0
 11
-215.723699627845
 21
61.96756428089107
 31
0
  0
LINE
  8
1
 62
2
 10
-215.723699627845
 20
61.96756428089107
 30
0
 11
-215.031672011874
 21
62.86756428089107
 31
0
  0
LINE
  8
1
 62
2
 10
-216.9744215264536
 20
60.16756428089106
 30
0
 11
-216.4686253380285
 21
60.76756428089107
 31
0
  0
LINE
  8
1
 62
2
 10
-216.4686253380285
 20
60.76756428089107
 30
0
 11
-215.8559448633764
 21
61.21756428089106
 31
0
  0
LINE
  8
1
 62
2
 10
-215.8559448633764
 20
61.21756428089106
 30
0
 11
-215.322611530043
 21
61.21756428089106
 31
0
  0
LINE
  8
1
 62
2
 10
-215.322611530043
 20
61.21756428089106
 30
0
 11
-215.1617410518014
 21
60.61756428089107
 31
0
  0
LINE
  8
1
 62
2
 10
-215.1617410518014
 20
60.61756428089107
 30
0
 11
-215.3468843815453
 21
59.56756428089106
 31
0
  0
LINE
  8
1
 62
2
 10
-215.3468843815453
 20
59.56756428089106
 30
0
 11
-215.2928981895308
 21
59.11756428089107
 31
0
  0
LINE
  8
1
 62
2
 10
-215.2928981895308
 20
59.11756428089107
 30
0
 11
-214.7595648561974
 21
59.11756428089107
 31
0
  0
LINE
  8
1
 62
2
 10
-214.7595648561974
 20
59.11756428089107
 30
0
 11
-214.0939862873328
 21
59.86756428089107
 31
0
  0
LINE
  8
1
 62
2
 10
-293.9741574610651
 20
-19.75270710593778
 30
0
 11
-295.5741574610651
 21
-19.75270710593778
 31
0
  0
LINE
  8
1
 62
2
 10
-297.5741574610651
 20
-22.60270710593778
 30
0
 11
-293.3074907943985
 21
-22.60270710593778
 31
0
  0
LINE
  8
1
 62
2
 10
-295.5741574610651
 20
-17.95270710593778
 30
0
 11
-295.5741574610651
 21
-22.60270710593778
 31
0
  0
LINE
  8
1
 62
2
 10
-292.5074907943985
 20
-22.00270710593778
 30
0
 11
-291.9741574610651
 21
-21.40270710593778
 31
0
  0
LINE
  8
1
 62
2
 10
-291.9741574610651
 20
-21.40270710593778
 30
0
 11
-291.4408241277318
 21
-20.50270710593778
 31
0
  0
LINE
  8
1
 62
2
 10
-291.4408241277318
 20
-20.50270710593778
 30
0
 11
-291.1741574610651
 21
-19.60270710593778
 31
0
  0
LINE
  8
1
 62
2
 10
-291.1741574610651
 20
-19.60270710593778
 30
0
 11
-292.5074907943985
 21
-19.60270710593778
 31
0
  0
LINE
  8
1
 62
2
 10
-290.5074907943985
 20
-18.10270710593778
 30
0
 11
-290.5074907943985
 21
-22.75270710593778
 31
0
  0
LINE
  8
1
 62
2
 10
-290.5074907943985
 20
-22.75270710593778
 30
0
 11
-290.9074907943984
 21
-22.60270710593778
 31
0
  0
LINE
  8
1
 62
2
 10
-288.9074907943984
 20
-19.15270710593778
 30
0
 11
-289.8408241277318
 21
-19.90270710593778
 31
0
  0
LINE
  8
1
 62
2
 10
-290.1074907943984
 20
-19.30270710593778
 30
0
 11
-289.7074907943984
 21
-20.35270710593778
 31
0
  0
LINE
  8
1
 62
2
 10
-289.7074907943984
 20
-20.35270710593778
 30
0
 11
-289.1741574610651
 21
-21.25270710593778
 31
0
  0
LINE
  8
1
 62
2
 10
-289.1741574610651
 20
-21.25270710593778
 30
0
 11
-288.5074907943985
 21
-22.00270710593778
 31
0
  0
LINE
  8
1
 62
2
 10
-285.8141574610651
 20
-17.95270710593778
 30
0
 11
-287.9741574610651
 21
-21.79270710593778
 31
0
  0
LINE
  8
1
 62
2
 10
-287.9741574610651
 20
-21.79270710593778
 30
0
 11
-285.0941574610651
 21
-21.79270710593778
 31
0
  0
LINE
  8
1
 62
2
 10
-285.8141574610651
 20
-20.83270710593778
 30
0
 11
-285.8141574610651
 21
-22.75270710593778
 31
0
  0
LINE
  8
1
 62
2
 10
-283.6541574610651
 20
-18.43270710593778
 30
0
 11
-283.6541574610651
 21
-17.95270710593778
 31
0
  0
LINE
  8
1
 62
2
 10
-283.6541574610651
 20
-17.95270710593778
 30
0
 11
-280.7741574610651
 21
-17.95270710593778
 31
0
  0
LINE
  8
1
 62
2
 10
-280.7741574610651
 20
-17.95270710593778
 30
0
 11
-283.1741574610651
 21
-22.75270710593778
 31
0
  0
LINE
  8
1
 62
2
 10
-279.3341574610651
 20
-22.75270710593778
 30
0
 11
-279.3341574610651
 21
-22.63270710593778
 31
0
  0
LINE
  8
1
 62
2
 10
-279.3341574610651
 20
-22.63270710593778
 30
0
 11
-279.2141574610651
 21
-22.63270710593778
 31
0
  0
LINE
  8
1
 62
2
 10
-279.2141574610651
 20
-22.63270710593778
 30
0
 11
-279.2141574610651
 21
-22.75270710593778
 31
0
  0
LINE
  8
1
 62
2
 10
-279.2141574610651
 20
-22.75270710593778
 30
0
 11
-279.3341574610651
 21
-22.75270710593778
 31
0
  0
LINE
  8
1
 62
2
 10
-276.4541574610651
 20
-17.95270710593778
 30
0
 11
-275.9741574610651
 21
-17.95270710593778
 31
0
  0
LINE
  8
1
 62
2
 10
-275.9741574610651
 20
-17.95270710593778
 30
0
 11
-275.6141574610651
 21
-18.07270710593778
 31
0
  0
LINE
  8
1
 62
2
 10
-275.6141574610651
 20
-18.07270710593778
 30
0
 11
-275.3741574610651
 21
-18.31270710593778
 31
0
  0
LINE
  8
1
 62
2
 10
-275.3741574610651
 20
-18.31270710593778
 30
0
 11
-275.1341574610651
 21
-18.67270710593778
 31
0
  0
LINE
  8
1
 62
2
 10
-275.1341574610651
 20
-18.67270710593778
 30
0
 11
-275.1341574610651
 21
-19.15270710593778
 31
0
  0
LINE
  8
1
 62
2
 10
-275.1341574610651
 20
-19.15270710593778
 30
0
 11
-275.2541574610651
 21
-19.39270710593778
 31
0
  0
LINE
  8
1
 62
2
 10
-275.2541574610651
 20
-19.39270710593778
 30
0
 11
-275.6141574610651
 21
-19.75270710593778
 31
0
  0
LINE
  8
1
 62
2
 10
-275.6141574610651
 20
-19.75270710593778
 30
0
 11
-275.9741574610651
 21
-19.87270710593778
 31
0
  0
LINE
  8
1
 62
2
 10
-275.9741574610651
 20
-19.87270710593778
 30
0
 11
-276.4541574610651
 21
-19.87270710593778
 31
0
  0
LINE
  8
1
 62
2
 10
-276.4541574610651
 20
-19.87270710593778
 30
0
 11
-276.8141574610651
 21
-19.75270710593778
 31
0
  0
LINE
  8
1
 62
2
 10
-276.8141574610651
 20
-19.75270710593778
 30
0
 11
-277.1741574610651
 21
-19.39270710593778
 31
0
  0
LINE
  8
1
 62
2
 10
-277.1741574610651
 20
-19.39270710593778
 30
0
 11
-277.2941574610651
 21
-19.15270710593778
 31
0
  0
LINE
  8
1
 62
2
 10
-277.2941574610651
 20
-19.15270710593778
 30
0
 11
-277.2941574610651
 21
-18.67270710593778
 31
0
  0
LINE
  8
1
 62
2
 10
-277.2941574610651
 20
-18.67270710593778
 30
0
 11
-277.0541574610651
 21
-18.31270710593778
 31
0
  0
LINE
  8
1
 62
2
 10
-277.0541574610651
 20
-18.31270710593778
 30
0
 11
-276.8141574610651
 21
-18.07270710593778
 31
0
  0
LINE
  8
1
 62
2
 10
-276.8141574610651
 20
-18.07270710593778
 30
0
 11
-276.4541574610651
 21
-17.95270710593778
 31
0
  0
LINE
  8
1
 62
2
 10
-276.4541574610651
 20
-19.87270710593778
 30
0
 11
-277.0541574610651
 21
-20.11270710593778
 31
0
  0
LINE
  8
1
 62
2
 10
-277.0541574610651
 20
-20.11270710593778
 30
0
 11
-277.4141574610651
 21
-20.47270710593778
 31
0
  0
LINE
  8
1
 62
2
 10
-277.4141574610651
 20
-20.47270710593778
 30
0
 11
-277.6541574610651
 21
-20.95270710593778
 31
0
  0
LINE
  8
1
 62
2
 10
-277.6541574610651
 20
-20.95270710593778
 30
0
 11
-277.6541574610651
 21
-21.67270710593778
 31
0
  0
LINE
  8
1
 62
2
 10
-277.6541574610651
 20
-21.67270710593778
 30
0
 11
-277.4141574610651
 21
-22.15270710593778
 31
0
  0
LINE
  8
1
 62
2
 10
-277.4141574610651
 20
-22.15270710593778
 30
0
 11
-277.0541574610651
 21
-22.51270710593778
 31
0
  0
LINE
  8
1
 62
2
 10
-277.0541574610651
 20
-22.51270710593778
 30
0
 11
-276.5741574610651
 21
-22.75270710593778
 31
0
  0
LINE
  8
1
 62
2
 10
-276.5741574610651
 20
-22.75270710593778
 30
0
 11
-275.8541574610651
 21
-22.75270710593778
 31
0
  0
LINE
  8
1
 62
2
 10
-275.8541574610651
 20
-22.75270710593778
 30
0
 11
-275.3741574610651
 21
-22.51270710593778
 31
0
  0
LINE
  8
1
 62
2
 10
-275.3741574610651
 20
-22.51270710593778
 30
0
 11
-275.0141574610651
 21
-22.15270710593778
 31
0
  0
LINE
  8
1
 62
2
 10
-275.0141574610651
 20
-22.15270710593778
 30
0
 11
-274.7741574610651
 21
-21.67270710593778
 31
0
  0
LINE
  8
1
 62
2
 10
-274.7741574610651
 20
-21.67270710593778
 30
0
 11
-274.7741574610651
 21
-20.95270710593778
 31
0
  0
LINE
  8
1
 62
2
 10
-274.7741574610651
 20
-20.95270710593778
 30
0
 11
-275.0141574610651
 21
-20.47270710593778
 31
0
  0
LINE
  8
1
 62
2
 10
-275.0141574610651
 20
-20.47270710593778
 30
0
 11
-275.3741574610651
 21
-20.11270710593778
 31
0
  0
LINE
  8
1
 62
2
 10
-275.3741574610651
 20
-20.11270710593778
 30
0
 11
-275.9741574610651
 21
-19.87270710593778
 31
0
  0
LINE
  8
1
 62
2
 10
-272.8541574610651
 20
-19.15270710593778
 30
0
 11
-272.7341574610651
 21
-18.67270710593778
 31
0
  0
LINE
  8
1
 62
2
 10
-272.7341574610651
 20
-18.67270710593778
 30
0
 11
-272.4941574610651
 21
-18.31270710593778
 31
0
  0
LINE
  8
1
 62
2
 10
-272.4941574610651
 20
-18.31270710593778
 30
0
 11
-272.1341574610651
 21
-18.07270710593778
 31
0
  0
LINE
  8
1
 62
2
 10
-272.1341574610651
 20
-18.07270710593778
 30
0
 11
-271.7741574610652
 21
-17.95270710593778
 31
0
  0
LINE
  8
1
 62
2
 10
-271.7741574610652
 20
-17.95270710593778
 30
0
 11
-271.0541574610651
 21
-17.95270710593778
 31
0
  0
LINE
  8
1
 62
2
 10
-271.0541574610651
 20
-17.95270710593778
 30
0
 11
-270.6941574610651
 21
-18.07270710593778
 31
0
  0
LINE
  8
1
 62
2
 10
-270.6941574610651
 20
-18.07270710593778
 30
0
 11
-270.3341574610652
 21
-18.31270710593778
 31
0
  0
LINE
  8
1
 62
2
 10
-270.3341574610652
 20
-18.31270710593778
 30
0
 11
-270.0941574610652
 21
-18.67270710593778
 31
0
  0
LINE
  8
1
 62
2
 10
-270.0941574610652
 20
-18.67270710593778
 30
0
 11
-269.9741574610652
 21
-19.15270710593778
 31
0
  0
LINE
  8
1
 62
2
 10
-269.9741574610652
 20
-19.15270710593778
 30
0
 11
-269.9741574610652
 21
-21.55270710593778
 31
0
  0
LINE
  8
1
 62
2
 10
-269.9741574610652
 20
-21.55270710593778
 30
0
 11
-270.0941574610652
 21
-22.03270710593778
 31
0
  0
LINE
  8
1
 62
2
 10
-270.0941574610652
 20
-22.03270710593778
 30
0
 11
-270.3341574610652
 21
-22.39270710593778
 31
0
  0
LINE
  8
1
 62
2
 10
-270.3341574610652
 20
-22.39270710593778
 30
0
 11
-270.6941574610651
 21
-22.63270710593778
 31
0
  0
LINE
  8
1
 62
2
 10
-270.6941574610651
 20
-22.63270710593778
 30
0
 11
-271.0541574610651
 21
-22.75270710593778
 31
0
  0
LINE
  8
1
 62
2
 10
-271.0541574610651
 20
-22.75270710593778
 30
0
 11
-271.7741574610652
 21
-22.75270710593778
 31
0
  0
LINE
  8
1
 62
2
 10
-271.7741574610652
 20
-22.75270710593778
 30
0
 11
-272.1341574610651
 21
-22.63270710593778
 31
0
  0
LINE
  8
1
 62
2
 10
-272.1341574610651
 20
-22.63270710593778
 30
0
 11
-272.4941574610651
 21
-22.39270710593778
 31
0
  0
LINE
  8
1
 62
2
 10
-272.4941574610651
 20
-22.39270710593778
 30
0
 11
-272.7341574610651
 21
-22.03270710593778
 31
0
  0
LINE
  8
1
 62
2
 10
-272.7341574610651
 20
-22.03270710593778
 30
0
 11
-272.8541574610651
 21
-21.55270710593778
 31
0
  0
LINE
  8
1
 62
2
 10
-272.8541574610651
 20
-21.55270710593778
 30
0
 11
-272.8541574610651
 21
-19.15270710593778
 31
0
  0
LINE
  8
1
 62
2
 10
-268.5341574610651
 20
-18.67270710593778
 30
0
 11
-268.2941574610651
 21
-18.31270710593778
 31
0
  0
LINE
  8
1
 62
2
 10
-268.2941574610651
 20
-18.31270710593778
 30
0
 11
-267.9341574610651
 21
-18.07270710593778
 31
0
  0
LINE
  8
1
 62
2
 10
-267.9341574610651
 20
-18.07270710593778
 30
0
 11
-267.4541574610651
 21
-17.95270710593778
 31
0
  0
LINE
  8
1
 62
2
 10
-267.4541574610651
 20
-17.95270710593778
 30
0
 11
-266.7341574610651
 21
-17.95270710593778
 31
0
  0
LINE
  8
1
 62
2
 10
-266.7341574610651
 20
-17.95270710593778
 30
0
 11
-266.3741574610651
 21
-18.07270710593778
 31
0
  0
LINE
  8
1
 62
2
 10
-266.3741574610651
 20
-18.07270710593778
 30
0
 11
-266.0141574610651
 21
-18.31270710593778
 31
0
  0
LINE
  8
1
 62
2
 10
-266.0141574610651
 20
-18.31270710593778
 30
0
 11
-265.7741574610651
 21
-18.67270710593778
 31
0
  0
LINE
  8
1
 62
2
 10
-265.7741574610651
 20
-18.67270710593778
 30
0
 11
-265.6541574610651
 21
-19.15270710593778
 31
0
  0
LINE
  8
1
 62
2
 10
-265.6541574610651
 20
-19.15270710593778
 30
0
 11
-265.6541574610651
 21
-19.51270710593778
 31
0
  0
LINE
  8
1
 62
2
 10
-265.6541574610651
 20
-19.51270710593778
 30
0
 11
-265.7741574610651
 21
-19.87270710593778
 31
0
  0
LINE
  8
1
 62
2
 10
-265.7741574610651
 20
-19.87270710593778
 30
0
 11
-266.0141574610651
 21
-20.11270710593778
 31
0
  0
LINE
  8
1
 62
2
 10
-266.0141574610651
 20
-20.11270710593778
 30
0
 11
-266.6141574610651
 21
-20.35270710593778
 31
0
  0
LINE
  8
1
 62
2
 10
-267.4541574610651
 20
-20.35270710593778
 30
0
 11
-266.6141574610651
 21
-20.35270710593778
 31
0
  0
LINE
  8
1
 62
2
 10
-266.6141574610651
 20
-20.35270710593778
 30
0
 11
-266.0141574610651
 21
-20.59270710593778
 31
0
  0
LINE
  8
1
 62
2
 10
-266.0141574610651
 20
-20.59270710593778
 30
0
 11
-265.7741574610651
 21
-20.83270710593778
 31
0
  0
LINE
  8
1
 62
2
 10
-265.7741574610651
 20
-20.83270710593778
 30
0
 11
-265.6541574610651
 21
-21.19270710593778
 31
0
  0
LINE
  8
1
 62
2
 10
-265.6541574610651
 20
-21.19270710593778
 30
0
 11
-265.6541574610651
 21
-21.55270710593778
 31
0
  0
LINE
  8
1
 62
2
 10
-265.6541574610651
 20
-21.55270710593778
 30
0
 11
-265.7741574610651
 21
-22.03270710593778
 31
0
  0
LINE
  8
1
 62
2
 10
-265.7741574610651
 20
-22.03270710593778
 30
0
 11
-266.0141574610651
 21
-22.39270710593778
 31
0
  0
LINE
  8
1
 62
2
 10
-266.0141574610651
 20
-22.39270710593778
 30
0
 11
-266.3741574610651
 21
-22.63270710593778
 31
0
  0
LINE
  8
1
 62
2
 10
-266.3741574610651
 20
-22.63270710593778
 30
0
 11
-266.7341574610651
 21
-22.75270710593778
 31
0
  0
LINE
  8
1
 62
2
 10
-266.7341574610651
 20
-22.75270710593778
 30
0
 11
-267.4541574610651
 21
-22.75270710593778
 31
0
  0
LINE
  8
1
 62
2
 10
-267.4541574610651
 20
-22.75270710593778
 30
0
 11
-267.9341574610651
 21
-22.63270710593778
 31
0
  0
LINE
  8
1
 62
2
 10
-267.9341574610651
 20
-22.63270710593778
 30
0
 11
-268.2941574610651
 21
-22.39270710593778
 31
0
  0
LINE
  8
1
 62
2
 10
-268.2941574610651
 20
-22.39270710593778
 30
0
 11
-268.5341574610651
 21
-22.03270710593778
 31
0
  0
LINE
  8
1
 62
2
 10
-259.9741574610652
 20
-19.30270710593778
 30
0
 11
-259.9741574610652
 21
-22.45270710593778
 31
0
  0
LINE
  8
1
 62
2
 10
-256.5074907943985
 20
-22.45270710593778
 30
0
 11
-256.5074907943985
 21
-19.30270710593778
 31
0
  0
LINE
  8
1
 62
2
 10
-258.2408241277318
 20
-18.25270710593778
 30
0
 11
-258.2408241277318
 21
-22.45270710593778
 31
0
  0
LINE
  8
1
 62
2
 10
-259.9741574610652
 20
-22.45270710593778
 30
0
 11
-256.5074907943985
 21
-22.45270710593778
 31
0
  0
LINE
  8
1
 62
2
 10
-255.5741574610651
 20
-19.39270710593778
 30
0
 11
-254.1341574610651
 21
-17.95270710593778
 31
0
  0
LINE
  8
1
 62
2
 10
-254.1341574610651
 20
-17.95270710593778
 30
0
 11
-254.1341574610651
 21
-22.75270710593778
 31
0
  0
LINE
  8
1
 62
2
 10
-252.6941574610651
 20
-19.39270710593778
 30
0
 11
-251.2541574610651
 21
-17.95270710593778
 31
0
  0
LINE
  8
1
 62
2
 10
-251.2541574610651
 20
-17.95270710593778
 30
0
 11
-251.2541574610651
 21
-22.75270710593778
 31
0
  0
LINE
  8
1
 62
2
 10
-295.4190409705063
 20
-31.30359833050707
 30
0
 11
-295.4190409705063
 21
-28.45359833050707
 31
0
  0
LINE
  8
1
 62
2
 10
-294.085707637173
 20
-29.35359833050707
 30
0
 11
-296.7523743038396
 21
-29.35359833050707
 31
0
  0
LINE
  8
1
 62
2
 10
-296.3523743038396
 20
-29.95359833050707
 30
0
 11
-296.085707637173
 21
-30.70359833050707
 31
0
  0
LINE
  8
1
 62
2
 10
-294.7523743038396
 20
-30.70359833050707
 30
0
 11
-294.4857076371729
 21
-29.95359833050707
 31
0
  0
LINE
  8
1
 62
2
 10
-297.5523743038396
 20
-29.05359833050707
 30
0
 11
-297.0190409705062
 21
-28.60359833050707
 31
0
  0
LINE
  8
1
 62
2
 10
-297.0190409705062
 20
-28.60359833050707
 30
0
 11
-296.085707637173
 21
-27.55359833050707
 31
0
  0
LINE
  8
1
 62
2
 10
-296.085707637173
 20
-27.55359833050707
 30
0
 11
-295.4190409705063
 21
-26.65359833050707
 31
0
  0
LINE
  8
1
 62
2
 10
-295.4190409705063
 20
-26.65359833050707
 30
0
 11
-294.7523743038396
 21
-27.55359833050707
 31
0
  0
LINE
  8
1
 62
2
 10
-294.7523743038396
 20
-27.55359833050707
 30
0
 11
-293.8190409705063
 21
-28.60359833050707
 31
0
  0
LINE
  8
1
 62
2
 10
-293.8190409705063
 20
-28.60359833050707
 30
0
 11
-293.285707637173
 21
-29.05359833050707
 31
0
  0
LINE
  8
1
 62
2
 10
-296.3523743038396
 20
-28.45359833050707
 30
0
 11
-294.4857076371729
 21
-28.45359833050707
 31
0
  0
LINE
  8
1
 62
2
 10
-297.1523743038396
 20
-31.30359833050707
 30
0
 11
-293.8190409705063
 21
-31.30359833050707
 31
0
  0
LINE
  8
1
 62
2
 10
-292.3523743038396
 20
-26.95359833050707
 30
0
 11
-291.0190409705062
 21
-26.95359833050707
 31
0
  0
LINE
  8
1
 62
2
 10
-291.0190409705062
 20
-28.45359833050707
 30
0
 11
-292.3523743038396
 21
-28.45359833050707
 31
0
  0
LINE
  8
1
 62
2
 10
-291.0190409705062
 20
-27.70359833050707
 30
0
 11
-292.3523743038396
 21
-27.70359833050707
 31
0
  0
LINE
  8
1
 62
2
 10
-289.4190409705063
 20
-31.30359833050707
 30
0
 11
-289.0190409705062
 21
-31.30359833050707
 31
0
  0
LINE
  8
1
 62
2
 10
-289.0190409705062
 20
-31.30359833050707
 30
0
 11
-288.8857076371729
 21
-31.15359833050707
 31
0
  0
LINE
  8
1
 62
2
 10
-288.8857076371729
 20
-26.95359833050707
 30
0
 11
-290.2190409705062
 21
-26.95359833050707
 31
0
  0
LINE
  8
1
 62
2
 10
-290.2190409705062
 20
-28.45359833050707
 30
0
 11
-288.8857076371729
 21
-28.45359833050707
 31
0
  0
LINE
  8
1
 62
2
 10
-290.2190409705062
 20
-27.70359833050707
 30
0
 11
-288.8857076371729
 21
-27.70359833050707
 31
0
  0
LINE
  8
1
 62
2
 10
-290.2190409705062
 20
-26.95359833050707
 30
0
 11
-290.2190409705062
 21
-28.45359833050707
 31
0
  0
LINE
  8
1
 62
2
 10
-288.8857076371729
 20
-31.15359833050707
 30
0
 11
-288.8857076371729
 21
-26.95359833050707
 31
0
  0
LINE
  8
1
 62
2
 10
-291.0190409705062
 20
-26.95359833050707
 30
0
 11
-291.0190409705062
 21
-28.45359833050707
 31
0
  0
LINE
  8
1
 62
2
 10
-292.3523743038396
 20
-31.30359833050707
 30
0
 11
-292.3523743038396
 21
-26.95359833050707
 31
0
  0
LINE
  8
1
 62
2
 10
-285.7923743038396
 20
-26.65359833050707
 30
0
 11
-287.9523743038396
 21
-30.49359833050707
 31
0
  0
LINE
  8
1
 62
2
 10
-287.9523743038396
 20
-30.49359833050707
 30
0
 11
-285.0723743038396
 21
-30.49359833050707
 31
0
  0
LINE
  8
1
 62
2
 10
-285.7923743038396
 20
-29.53359833050707
 30
0
 11
-285.7923743038396
 21
-31.45359833050707
 31
0
  0
LINE
  8
1
 62
2
 10
-280.7523743038396
 20
-28.57359833050707
 30
0
 11
-280.8723743038396
 21
-29.05359833050707
 31
0
  0
LINE
  8
1
 62
2
 10
-280.8723743038396
 20
-29.05359833050707
 30
0
 11
-281.1123743038396
 21
-29.41359833050707
 31
0
  0
LINE
  8
1
 62
2
 10
-281.1123743038396
 20
-29.41359833050707
 30
0
 11
-281.4723743038396
 21
-29.65359833050707
 31
0
  0
LINE
  8
1
 62
2
 10
-281.4723743038396
 20
-29.65359833050707
 30
0
 11
-281.8323743038396
 21
-29.77359833050707
 31
0
  0
LINE
  8
1
 62
2
 10
-281.8323743038396
 20
-29.77359833050707
 30
0
 11
-282.5523743038396
 21
-29.77359833050707
 31
0
  0
LINE
  8
1
 62
2
 10
-282.5523743038396
 20
-29.77359833050707
 30
0
 11
-282.9123743038396
 21
-29.65359833050707
 31
0
  0
LINE
  8
1
 62
2
 10
-282.9123743038396
 20
-29.65359833050707
 30
0
 11
-283.2723743038396
 21
-29.41359833050707
 31
0
  0
LINE
  8
1
 62
2
 10
-283.2723743038396
 20
-29.41359833050707
 30
0
 11
-283.5123743038396
 21
-29.05359833050707
 31
0
  0
LINE
  8
1
 62
2
 10
-283.5123743038396
 20
-29.05359833050707
 30
0
 11
-283.6323743038396
 21
-28.57359833050707
 31
0
  0
LINE
  8
1
 62
2
 10
-283.6323743038396
 20
-28.57359833050707
 30
0
 11
-283.6323743038396
 21
-27.85359833050707
 31
0
  0
LINE
  8
1
 62
2
 10
-283.6323743038396
 20
-27.85359833050707
 30
0
 11
-283.5123743038396
 21
-27.37359833050707
 31
0
  0
LINE
  8
1
 62
2
 10
-283.5123743038396
 20
-27.37359833050707
 30
0
 11
-283.2723743038396
 21
-27.01359833050707
 31
0
  0
LINE
  8
1
 62
2
 10
-283.2723743038396
 20
-27.01359833050707
 30
0
 11
-282.9123743038396
 21
-26.77359833050707
 31
0
  0
LINE
  8
1
 62
2
 10
-282.9123743038396
 20
-26.77359833050707
 30
0
 11
-282.5523743038396
 21
-26.65359833050707
 31
0
  0
LINE
  8
1
 62
2
 10
-282.5523743038396
 20
-26.65359833050707
 30
0
 11
-281.8323743038396
 21
-26.65359833050707
 31
0
  0
LINE
  8
1
 62
2
 10
-281.8323743038396
 20
-26.65359833050707
 30
0
 11
-281.4723743038396
 21
-26.77359833050707
 31
0
  0
LINE
  8
1
 62
2
 10
-281.4723743038396
 20
-26.77359833050707
 30
0
 11
-281.1123743038396
 21
-27.01359833050707
 31
0
  0
LINE
  8
1
 62
2
 10
-281.1123743038396
 20
-27.01359833050707
 30
0
 11
-280.8723743038396
 21
-27.37359833050707
 31
0
  0
LINE
  8
1
 62
2
 10
-280.8723743038396
 20
-27.37359833050707
 30
0
 11
-280.7523743038396
 21
-27.85359833050707
 31
0
  0
LINE
  8
1
 62
2
 10
-280.7523743038396
 20
-30.25359833050707
 30
0
 11
-280.8723743038396
 21
-30.73359833050707
 31
0
  0
LINE
  8
1
 62
2
 10
-280.8723743038396
 20
-30.73359833050707
 30
0
 11
-281.1123743038396
 21
-31.09359833050707
 31
0
  0
LINE
  8
1
 62
2
 10
-281.1123743038396
 20
-31.09359833050707
 30
0
 11
-281.4723743038396
 21
-31.33359833050707
 31
0
  0
LINE
  8
1
 62
2
 10
-281.4723743038396
 20
-31.33359833050707
 30
0
 11
-281.8323743038396
 21
-31.45359833050707
 31
0
  0
LINE
  8
1
 62
2
 10
-281.8323743038396
 20
-31.45359833050707
 30
0
 11
-282.5523743038396
 21
-31.45359833050707
 31
0
  0
LINE
  8
1
 62
2
 10
-282.5523743038396
 20
-31.45359833050707
 30
0
 11
-282.9123743038396
 21
-31.33359833050707
 31
0
  0
LINE
  8
1
 62
2
 10
-282.9123743038396
 20
-31.33359833050707
 30
0
 11
-283.2723743038396
 21
-31.09359833050707
 31
0
  0
LINE
  8
1
 62
2
 10
-283.2723743038396
 20
-31.09359833050707
 30
0
 11
-283.5123743038396
 21
-30.73359833050707
 31
0
  0
LINE
  8
1
 62
2
 10
-280.7523743038396
 20
-27.85359833050707
 30
0
 11
-280.7523743038396
 21
-30.25359833050707
 31
0
  0
LINE
  8
1
 62
2
 10
-279.3123743038396
 20
-31.45359833050707
 30
0
 11
-279.3123743038396
 21
-31.33359833050707
 31
0
  0
LINE
  8
1
 62
2
 10
-279.3123743038396
 20
-31.33359833050707
 30
0
 11
-279.1923743038396
 21
-31.33359833050707
 31
0
  0
LINE
  8
1
 62
2
 10
-279.1923743038396
 20
-31.33359833050707
 30
0
 11
-279.1923743038396
 21
-31.45359833050707
 31
0
  0
LINE
  8
1
 62
2
 10
-279.1923743038396
 20
-31.45359833050707
 30
0
 11
-279.3123743038396
 21
-31.45359833050707
 31
0
  0
LINE
  8
1
 62
2
 10
-277.6323743038396
 20
-27.85359833050707
 30
0
 11
-277.5123743038396
 21
-27.37359833050707
 31
0
  0
LINE
  8
1
 62
2
 10
-277.5123743038396
 20
-27.37359833050707
 30
0
 11
-277.2723743038396
 21
-27.01359833050707
 31
0
  0
LINE
  8
1
 62
2
 10
-277.2723743038396
 20
-27.01359833050707
 30
0
 11
-276.9123743038396
 21
-26.77359833050707
 31
0
  0
LINE
  8
1
 62
2
 10
-276.9123743038396
 20
-26.77359833050707
 30
0
 11
-276.5523743038396
 21
-26.65359833050707
 31
0
  0
LINE
  8
1
 62
2
 10
-276.5523743038396
 20
-26.65359833050707
 30
0
 11
-275.8323743038396
 21
-26.65359833050707
 31
0
  0
LINE
  8
1
 62
2
 10
-275.8323743038396
 20
-26.65359833050707
 30
0
 11
-275.4723743038396
 21
-26.77359833050707
 31
0
  0
LINE
  8
1
 62
2
 10
-275.4723743038396
 20
-26.77359833050707
 30
0
 11
-275.1123743038396
 21
-27.01359833050707
 31
0
  0
LINE
  8
1
 62
2
 10
-275.1123743038396
 20
-27.01359833050707
 30
0
 11
-274.8723743038396
 21
-27.37359833050707
 31
0
  0
LINE
  8
1
 62
2
 10
-274.8723743038396
 20
-27.37359833050707
 30
0
 11
-274.7523743038396
 21
-27.85359833050707
 31
0
  0
LINE
  8
1
 62
2
 10
-274.7523743038396
 20
-27.85359833050707
 30
0
 11
-274.7523743038396
 21
-30.25359833050707
 31
0
  0
LINE
  8
1
 62
2
 10
-274.7523743038396
 20
-30.25359833050707
 30
0
 11
-274.8723743038396
 21
-30.73359833050707
 31
0
  0
LINE
  8
1
 62
2
 10
-274.8723743038396
 20
-30.73359833050707
 30
0
 11
-275.1123743038396
 21
-31.09359833050707
 31
0
  0
LINE
  8
1
 62
2
 10
-275.1123743038396
 20
-31.09359833050707
 30
0
 11
-275.4723743038396
 21
-31.33359833050707
 31
0
  0
LINE
  8
1
 62
2
 10
-275.4723743038396
 20
-31.33359833050707
 30
0
 11
-275.8323743038396
 21
-31.45359833050707
 31
0
  0
LINE
  8
1
 62
2
 10
-275.8323743038396
 20
-31.45359833050707
 30
0
 11
-276.5523743038396
 21
-31.45359833050707
 31
0
  0
LINE
  8
1
 62
2
 10
-276.5523743038396
 20
-31.45359833050707
 30
0
 11
-276.9123743038396
 21
-31.33359833050707
 31
0
  0
LINE
  8
1
 62
2
 10
-276.9123743038396
 20
-31.33359833050707
 30
0
 11
-277.2723743038396
 21
-31.09359833050707
 31
0
  0
LINE
  8
1
 62
2
 10
-277.2723743038396
 20
-31.09359833050707
 30
0
 11
-277.5123743038396
 21
-30.73359833050707
 31
0
  0
LINE
  8
1
 62
2
 10
-277.5123743038396
 20
-30.73359833050707
 30
0
 11
-277.6323743038396
 21
-30.25359833050707
 31
0
  0
LINE
  8
1
 62
2
 10
-277.6323743038396
 20
-30.25359833050707
 30
0
 11
-277.6323743038396
 21
-27.85359833050707
 31
0
  0
LINE
  8
1
 62
2
 10
-269.0723743038396
 20
-28.00359833050707
 30
0
 11
-269.0723743038396
 21
-31.15359833050707
 31
0
  0
LINE
  8
1
 62
2
 10
-265.6057076371729
 20
-31.15359833050707
 30
0
 11
-265.6057076371729
 21
-28.00359833050707
 31
0
  0
LINE
  8
1
 62
2
 10
-267.3390409705063
 20
-26.95359833050707
 30
0
 11
-267.3390409705063
 21
-31.15359833050707
 31
0
  0
LINE
  8
1
 62
2
 10
-269.0723743038396
 20
-31.15359833050707
 30
0
 11
-265.6057076371729
 21
-31.15359833050707
 31
0
  0
LINE
  8
1
 62
2
 10
-264.6723743038396
 20
-28.09359833050707
 30
0
 11
-263.2323743038396
 21
-26.65359833050707
 31
0
  0
LINE
  8
1
 62
2
 10
-263.2323743038396
 20
-26.65359833050707
 30
0
 11
-263.2323743038396
 21
-31.45359833050707
 31
0
  0
LINE
  8
1
 62
2
 10
-261.7923743038396
 20
-28.09359833050707
 30
0
 11
-260.3523743038396
 21
-26.65359833050707
 31
0
  0
LINE
  8
1
 62
2
 10
-260.3523743038396
 20
-26.65359833050707
 30
0
 11
-260.3523743038396
 21
-31.45359833050707
 31
0
  0
LINE
  8
1
 62
2
 10
-284.1489245875493
 20
-115.6470201272
 30
0
 11
-282.6822579208826
 21
-115.0470201272
 31
0
  0
LINE
  8
1
 62
2
 10
-282.9489245875493
 20
-114.8970201272
 30
0
 11
-282.8155912542159
 21
-114.1470201272
 31
0
  0
LINE
  8
1
 62
2
 10
-282.6822579208826
 20
-113.6970201272
 30
0
 11
-284.015591254216
 21
-113.6970201272
 31
0
  0
LINE
  8
1
 62
2
 10
-282.5489245875493
 20
-112.1970201272
 30
0
 11
-283.3489245875493
 21
-111.2970201272
 31
0
  0
LINE
  8
1
 62
2
 10
-283.3489245875493
 20
-111.2970201272
 30
0
 11
-284.4155912542159
 21
-113.3970201272
 31
0
  0
LINE
  8
1
 62
2
 10
-284.015591254216
 20
-114.1470201272
 30
0
 11
-283.7489245875493
 21
-114.8970201272
 31
0
  0
LINE
  8
1
 62
2
 10
-283.3489245875493
 20
-115.3470201272
 30
0
 11
-283.3489245875493
 21
-112.9470201272
 31
0
  0
LINE
  8
1
 62
2
 10
-282.5489245875493
 20
-113.0970201272
 30
0
 11
-280.1489245875493
 21
-113.0970201272
 31
0
  0
LINE
  8
1
 62
2
 10
-280.1489245875493
 20
-113.9970201272
 30
0
 11
-282.4155912542159
 21
-113.9970201272
 31
0
  0
LINE
  8
1
 62
2
 10
-282.5489245875493
 20
-115.4970201272
 30
0
 11
-282.015591254216
 21
-114.5970201272
 31
0
  0
LINE
  8
1
 62
2
 10
-282.015591254216
 20
-114.5970201272
 30
0
 11
-281.6155912542159
 21
-113.0970201272
 31
0
  0
LINE
  8
1
 62
2
 10
-281.6155912542159
 20
-113.0970201272
 30
0
 11
-281.4822579208826
 21
-111.2970201272
 31
0
  0
LINE
  8
1
 62
2
 10
-282.4155912542159
 20
-111.7470201272
 30
0
 11
-280.4155912542159
 21
-111.7470201272
 31
0
  0
LINE
  8
1
 62
2
 10
-280.4155912542159
 20
-112.4970201272
 30
0
 11
-282.2822579208826
 21
-112.4970201272
 31
0
  0
LINE
  8
1
 62
2
 10
-280.6822579208826
 20
-113.3970201272
 30
0
 11
-280.6822579208826
 21
-115.7970201272
 31
0
  0
LINE
  8
1
 62
2
 10
-280.6822579208826
 20
-115.7970201272
 30
0
 11
-281.215591254216
 21
-115.7970201272
 31
0
  0
LINE
  8
1
 62
2
 10
-281.215591254216
 20
-115.1970201272
 30
0
 11
-281.4822579208826
 21
-114.4470201272
 31
0
  0
LINE
  8
1
 62
2
 10
-283.8822579208826
 20
-112.9470201272
 30
0
 11
-282.6822579208826
 21
-112.9470201272
 31
0
  0
LINE
  8
1
 62
2
 10
-279.3489245875493
 20
-115.3470201272
 30
0
 11
-278.6822579208826
 21
-114.7470201272
 31
0
  0
LINE
  8
1
 62
2
 10
-278.6822579208826
 20
-114.7470201272
 30
0
 11
-278.6822579208826
 21
-113.0970201272
 31
0
  0
LINE
  8
1
 62
2
 10
-278.6822579208826
 20
-114.7470201272
 30
0
 11
-278.4155912542159
 21
-115.3470201272
 31
0
  0
LINE
  8
1
 62
2
 10
-278.4155912542159
 20
-115.3470201272
 30
0
 11
-278.1489245875493
 21
-115.4970201272
 31
0
  0
LINE
  8
1
 62
2
 10
-278.1489245875493
 20
-115.4970201272
 30
0
 11
-275.4822579208826
 21
-115.4970201272
 31
0
  0
LINE
  8
1
 62
2
 10
-276.1489245875493
 20
-114.7470201272
 30
0
 11
-276.1489245875493
 21
-113.5470201272
 31
0
  0
LINE
  8
1
 62
2
 10
-276.1489245875493
 20
-113.5470201272
 30
0
 11
-277.6155912542159
 21
-113.5470201272
 31
0
  0
LINE
  8
1
 62
2
 10
-277.6155912542159
 20
-113.5470201272
 30
0
 11
-277.6155912542159
 21
-114.7470201272
 31
0
  0
LINE
  8
1
 62
2
 10
-277.6155912542159
 20
-114.7470201272
 30
0
 11
-276.1489245875493
 21
-114.7470201272
 31
0
  0
LINE
  8
1
 62
2
 10
-276.9489245875492
 20
-112.9470201272
 30
0
 11
-276.9489245875492
 21
-110.9970201272
 31
0
  0
LINE
  8
1
 62
2
 10
-275.8822579208826
 20
-111.8970201272
 30
0
 11
-277.8822579208826
 21
-111.8970201272
 31
0
  0
LINE
  8
1
 62
2
 10
-277.6155912542159
 20
-111.1470201272
 30
0
 11
-277.8822579208826
 21
-111.8970201272
 31
0
  0
LINE
  8
1
 62
2
 10
-277.8822579208826
 20
-111.8970201272
 30
0
 11
-278.1489245875493
 21
-112.3470201272
 31
0
  0
LINE
  8
1
 62
2
 10
-278.6822579208826
 20
-111.7470201272
 30
0
 11
-279.0822579208826
 21
-111.1470201272
 31
0
  0
LINE
  8
1
 62
2
 10
-279.3489245875493
 20
-115.3470201272
 30
0
 11
-279.4822579208826
 21
-115.4970201272
 31
0
  0
LINE
  8
1
 62
2
 10
-278.6822579208826
 20
-113.0970201272
 30
0
 11
-279.4822579208826
 21
-113.0970201272
 31
0
  0
LINE
  8
1
 62
2
 10
-275.6155912542159
 20
-112.9470201272
 30
0
 11
-278.1489245875493
 21
-112.9470201272
 31
0
  0
LINE
  8
1
 62
2
 10
-273.4822579208826
 20
-110.9970201272
 30
0
 11
-273.7489245875493
 21
-111.4470201272
 31
0
  0
LINE
  8
1
 62
2
 10
-273.7489245875493
 20
-111.4470201272
 30
0
 11
-274.1489245875492
 21
-112.0470201272
 31
0
  0
LINE
  8
1
 62
2
 10
-274.1489245875492
 20
-112.0470201272
 30
0
 11
-274.5489245875493
 21
-112.4970201272
 31
0
  0
LINE
  8
1
 62
2
 10
-272.6822579208826
 20
-111.7470201272
 30
0
 11
-272.6822579208826
 21
-115.7970201272
 31
0
  0
LINE
  8
1
 62
2
 10
-274.0155912542159
 20
-112.9470201272
 30
0
 11
-271.3489245875493
 21
-112.9470201272
 31
0
  0
LINE
  8
1
 62
2
 10
-274.0155912542159
 20
-113.0970201272
 30
0
 11
-274.0155912542159
 21
-114.1470201272
 31
0
  0
LINE
  8
1
 62
2
 10
-274.8155912542159
 20
-114.1470201272
 30
0
 11
-270.5489245875493
 21
-114.1470201272
 31
0
  0
LINE
  8
1
 62
2
 10
-273.8822579208826
 20
-111.7470201272
 30
0
 11
-271.2155912542159
 21
-111.7470201272
 31
0
  0
LINE
  8
1
 62
2
 10
-241.3379009216273
 20
-127.86664534378
 30
0
 11
-244.2179009216273
 21
-127.86664534378
 31
0
  0
LINE
  8
1
 62
2
 10
-240.8579009216273
 20
-125.70664534378
 30
0
 11
-244.2179009216273
 21
-125.70664534378
 31
0
  0
LINE
  8
1
 62
2
 10
-244.2179009216273
 20
-130.50664534378
 30
0
 11
-240.8579009216273
 21
-130.50664534378
 31
0
  0
LINE
  8
1
 62
2
 10
-244.2179009216273
 20
-125.70664534378
 30
0
 11
-244.2179009216273
 21
-130.50664534378
 31
0
  0
LINE
  8
1
 62
2
 10
-248.7573143936256
 20
-122.5934789998129
 30
0
 11
-248.7573143936256
 21
-117.7934789998129
 31
0
  0
LINE
  8
1
 62
2
 10
-248.090647726959
 20
-119.1434789998129
 30
0
 11
-249.5573143936256
 21
-119.1434789998129
 31
0
  0
LINE
  8
1
 62
2
 10
-249.690647726959
 20
-121.0934789998129
 30
0
 11
-249.1573143936256
 21
-120.1934789998129
 31
0
  0
LINE
  8
1
 62
2
 10
-249.1573143936256
 20
-120.1934789998129
 30
0
 11
-248.7573143936256
 21
-119.2934789998129
 31
0
  0
LINE
  8
1
 62
2
 10
-248.7573143936256
 20
-119.2934789998129
 30
0
 11
-248.090647726959
 21
-120.3434789998129
 31
0
  0
LINE
  8
1
 62
2
 10
-247.9573143936256
 20
-121.6934789998129
 30
0
 11
-247.1573143936256
 21
-120.7934789998129
 31
0
  0
LINE
  8
1
 62
2
 10
-247.1573143936256
 20
-120.7934789998129
 30
0
 11
-246.4906477269589
 21
-119.4434789998129
 31
0
  0
LINE
  8
1
 62
2
 10
-245.690647726959
 20
-119.2934789998129
 30
0
 11
-247.690647726959
 21
-119.2934789998129
 31
0
  0
LINE
  8
1
 62
2
 10
-246.4906477269589
 20
-117.9434789998129
 30
0
 11
-246.3573143936256
 21
-122.2934789998129
 31
0
  0
LINE
  8
1
 62
2
 10
-246.3573143936256
 20
-122.2934789998129
 30
0
 11
-246.7573143936256
 21
-122.2934789998129
 31
0
  0
LINE
  8
1
 62
2
 10
-244.890647726959
 20
-121.6934789998129
 30
0
 11
-244.490647726959
 21
-120.9434789998129
 31
0
  0
LINE
  8
1
 62
2
 10
-244.490647726959
 20
-120.9434789998129
 30
0
 11
-243.9573143936256
 21
-119.5934789998129
 31
0
  0
LINE
  8
1
 62
2
 10
-243.0239810602923
 20
-119.5934789998129
 30
0
 11
-244.890647726959
 21
-119.5934789998129
 31
0
  0
LINE
  8
1
 62
2
 10
-244.7573143936256
 20
-118.3934789998129
 30
0
 11
-244.3573143936256
 21
-118.9934789998129
 31
0
  0
LINE
  8
1
 62
2
 10
-243.5573143936256
 20
-118.8434789998129
 30
0
 11
-243.290647726959
 21
-118.2434789998129
 31
0
  0
LINE
  8
1
 62
2
 10
-243.5573143936256
 20
-120.1934789998129
 30
0
 11
-243.290647726959
 21
-120.7934789998129
 31
0
  0
LINE
  8
1
 62
2
 10
-243.0239810602923
 20
-120.9434789998129
 30
0
 11
-240.7573143936256
 21
-120.4934789998129
 31
0
  0
LINE
  8
1
 62
2
 10
-242.2239810602923
 20
-119.8934789998129
 30
0
 11
-242.6239810602923
 21
-119.2934789998129
 31
0
  0
LINE
  8
1
 62
2
 10
-242.2239810602923
 20
-118.6934789998129
 30
0
 11
-242.6239810602923
 21
-118.0934789998129
 31
0
  0
LINE
  8
1
 62
2
 10
-241.5573143936256
 20
-117.7934789998129
 30
0
 11
-241.5573143936256
 21
-122.5934789998129
 31
0
  0
LINE
  8
1
 62
2
 10
-243.9573143936256
 20
-117.9434789998129
 30
0
 11
-243.9573143936256
 21
-122.4434789998129
 31
0
  0
LINE
  8
1
 62
2
 10
-239.9573143936256
 20
-122.2934789998129
 30
0
 11
-239.9573143936256
 21
-121.0934789998129
 31
0
  0
LINE
  8
1
 62
2
 10
-239.9573143936256
 20
-121.0934789998129
 30
0
 11
-238.890647726959
 21
-121.0934789998129
 31
0
  0
LINE
  8
1
 62
2
 10
-238.890647726959
 20
-121.0934789998129
 30
0
 11
-238.890647726959
 21
-122.2934789998129
 31
0
  0
LINE
  8
1
 62
2
 10
-238.890647726959
 20
-122.2934789998129
 30
0
 11
-239.9573143936256
 21
-122.2934789998129
 31
0
  0
LINE
  8
1
 62
2
 10
-239.9573143936256
 20
-120.4934789998129
 30
0
 11
-238.890647726959
 21
-120.4934789998129
 31
0
  0
LINE
  8
1
 62
2
 10
-238.890647726959
 20
-119.7434789998129
 30
0
 11
-239.9573143936256
 21
-119.7434789998129
 31
0
  0
LINE
  8
1
 62
2
 10
-240.2239810602923
 20
-119.1434789998129
 30
0
 11
-238.490647726959
 21
-119.1434789998129
 31
0
  0
LINE
  8
1
 62
2
 10
-240.090647726959
 20
-118.3934789998129
 30
0
 11
-238.890647726959
 21
-118.3934789998129
 31
0
  0
LINE
  8
1
 62
2
 10
-238.090647726959
 20
-118.5434789998129
 30
0
 11
-236.6239810602923
 21
-118.5434789998129
 31
0
  0
LINE
  8
1
 62
2
 10
-236.6239810602923
 20
-118.5434789998129
 30
0
 11
-236.6239810602923
 21
-120.0434789998129
 31
0
  0
LINE
  8
1
 62
2
 10
-236.6239810602923
 20
-120.0434789998129
 30
0
 11
-238.090647726959
 21
-120.0434789998129
 31
0
  0
LINE
  8
1
 62
2
 10
-238.090647726959
 20
-120.0434789998129
 30
0
 11
-238.090647726959
 21
-122.2934789998129
 31
0
  0
LINE
  8
1
 62
2
 10
-238.090647726959
 20
-122.2934789998129
 30
0
 11
-236.2239810602923
 21
-122.2934789998129
 31
0
  0
LINE
  8
1
 62
2
 10
-236.2239810602923
 20
-122.2934789998129
 30
0
 11
-236.2239810602923
 21
-121.8434789998129
 31
0
  0
LINE
  8
1
 62
2
 10
-234.3573143936256
 20
-118.0934789998129
 30
0
 11
-234.3573143936256
 21
-119.1434789998129
 31
0
  0
LINE
  8
1
 62
2
 10
-234.3573143936256
 20
-119.1434789998129
 30
0
 11
-232.2239810602923
 21
-119.1434789998129
 31
0
  0
LINE
  8
1
 62
2
 10
-232.2239810602923
 20
-119.1434789998129
 30
0
 11
-232.2239810602923
 21
-118.0934789998129
 31
0
  0
LINE
  8
1
 62
2
 10
-232.2239810602923
 20
-118.0934789998129
 30
0
 11
-234.3573143936256
 21
-118.0934789998129
 31
0
  0
LINE
  8
1
 62
2
 10
-233.8239810602923
 20
-119.8934789998129
 30
0
 11
-234.2239810602923
 21
-121.3934789998129
 31
0
  0
LINE
  8
1
 62
2
 10
-234.090647726959
 20
-120.7934789998129
 30
0
 11
-232.2239810602923
 21
-120.7934789998129
 31
0
  0
LINE
  8
1
 62
2
 10
-232.2239810602923
 20
-120.7934789998129
 30
0
 11
-232.490647726959
 21
-121.6934789998129
 31
0
  0
LINE
  8
1
 62
2
 10
-232.490647726959
 20
-121.6934789998129
 30
0
 11
-232.890647726959
 21
-122.4434789998129
 31
0
  0
LINE
  8
1
 62
2
 10
-232.890647726959
 20
-122.4434789998129
 30
0
 11
-233.1573143936256
 21
-122.5934789998129
 31
0
  0
LINE
  8
1
 62
2
 10
-233.1573143936256
 20
-122.5934789998129
 30
0
 11
-233.690647726959
 21
-122.2934789998129
 31
0
  0
LINE
  8
1
 62
2
 10
-235.290647726959
 20
-119.8934789998129
 30
0
 11
-231.4239810602923
 21
-119.8934789998129
 31
0
  0
LINE
  8
1
 62
7
 10
-221.4281838062844
 20
-80.13164254283277
 30
0
 11
-226.0728238062844
 21
-80.13164254283277
 31
0
  0
LINE
  8
1
 62
7
 10
-226.0728238062844
 20
-80.13164254283277
 30
0
 11
-226.0728238062844
 21
-73.09164254283276
 31
0
  0
LINE
  8
1
 62
7
 10
-226.0728238062844
 20
-73.09164254283276
 30
0
 11
-221.5082638062844
 21
-73.09164254283276
 31
0
  0
LINE
  8
1
 62
7
 10
-221.5082638062844
 20
-73.09164254283276
 30
0
 11
-221.5082638062844
 21
-73.97164254283277
 31
0
  0
LINE
  8
1
 62
7
 10
-221.5082638062844
 20
-73.97164254283277
 30
0
 11
-225.1919438062844
 21
-73.97164254283277
 31
0
  0
LINE
  8
1
 62
7
 10
-225.1919438062844
 20
-73.97164254283277
 30
0
 11
-225.1919438062844
 21
-76.08364254283276
 31
0
  0
LINE
  8
1
 62
7
 10
-225.1919438062844
 20
-76.08364254283276
 30
0
 11
-221.8285838062844
 21
-76.08364254283276
 31
0
  0
LINE
  8
1
 62
7
 10
-221.8285838062844
 20
-76.08364254283276
 30
0
 11
-221.8285838062844
 21
-76.96364254283276
 31
0
  0
LINE
  8
1
 62
7
 10
-221.8285838062844
 20
-76.96364254283276
 30
0
 11
-225.1919438062844
 21
-76.96364254283276
 31
0
  0
LINE
  8
1
 62
7
 10
-225.1919438062844
 20
-76.96364254283276
 30
0
 11
-225.1919438062844
 21
-79.25164254283277
 31
0
  0
LINE
  8
1
 62
7
 10
-225.1919438062844
 20
-79.25164254283277
 30
0
 11
-221.4281838062844
 21
-79.25164254283277
 31
0
  0
LINE
  8
1
 62
7
 10
-221.4281838062844
 20
-79.25164254283277
 30
0
 11
-221.4281838062844
 21
-80.13164254283277
 31
0
  0
LINE
  8
1
 62
7
 10
-164.1011847604383
 20
-74.93164254283278
 30
0
 11
-164.3951847604383
 21
-75.63164254283278
 31
0
  0
LINE
  8
1
 62
7
 10
-164.3951847604383
 20
-75.63164254283278
 30
0
 11
-164.7871847604383
 21
-75.07164254283278
 31
0
  0
LINE
  8
1
 62
7
 10
-164.7871847604383
 20
-75.07164254283278
 30
0
 11
-165.3751847604383
 21
-74.51164254283277
 31
0
  0
LINE
  8
1
 62
7
 10
-165.3751847604383
 20
-74.51164254283277
 30
0
 11
-166.0611847604383
 21
-74.23164254283279
 31
0
  0
LINE
  8
1
 62
7
 10
-166.0611847604383
 20
-74.23164254283279
 30
0
 11
-166.4531847604383
 21
-74.23164254283279
 31
0
  0
LINE
  8
1
 62
7
 10
-166.4531847604383
 20
-74.23164254283279
 30
0
 11
-167.0411847604383
 21
-74.51164254283277
 31
0
  0
LINE
  8
1
 62
7
 10
-167.0411847604383
 20
-74.51164254283277
 30
0
 11
-167.3351847604383
 21
-75.07164254283278
 31
0
  0
LINE
  8
1
 62
7
 10
-167.3351847604383
 20
-75.07164254283278
 30
0
 11
-167.3351847604383
 21
-74.37164254283277
 31
0
  0
LINE
  8
1
 62
7
 10
-167.3351847604383
 20
-74.37164254283277
 30
0
 11
-168.4131847604383
 21
-74.37164254283277
 31
0
  0
LINE
  8
1
 62
7
 10
-168.4131847604383
 20
-74.37164254283277
 30
0
 11
-168.4131847604383
 21
-82.63164254283278
 31
0
  0
LINE
  8
1
 62
7
 10
-168.4131847604383
 20
-82.63164254283278
 30
0
 11
-167.3351847604383
 21
-82.63164254283278
 31
0
  0
LINE
  8
1
 62
7
 10
-167.3351847604383
 20
-82.63164254283278
 30
0
 11
-167.3351847604383
 21
-76.89164254283278
 31
0
  0
LINE
  8
1
 62
7
 10
-167.3351847604383
 20
-76.89164254283278
 30
0
 11
-167.1391847604383
 21
-76.19164254283278
 31
0
  0
LINE
  8
1
 62
7
 10
-167.1391847604383
 20
-76.19164254283278
 30
0
 11
-166.7471847604383
 21
-75.77164254283278
 31
0
  0
LINE
  8
1
 62
7
 10
-166.7471847604383
 20
-75.77164254283278
 30
0
 11
-166.3551847604383
 21
-75.63164254283278
 31
0
  0
LINE
  8
1
 62
7
 10
-166.3551847604383
 20
-75.63164254283278
 30
0
 11
-165.8651847604383
 21
-75.77164254283278
 31
0
  0
LINE
  8
1
 62
7
 10
-165.8651847604383
 20
-75.77164254283278
 30
0
 11
-165.5711847604383
 21
-76.19164254283278
 31
0
  0
LINE
  8
1
 62
7
 10
-165.5711847604383
 20
-76.19164254283278
 30
0
 11
-165.2771847604383
 21
-76.89164254283278
 31
0
  0
LINE
  8
1
 62
7
 10
-165.2771847604383
 20
-76.89164254283278
 30
0
 11
-165.1791847604383
 21
-77.45164254283279
 31
0
  0
LINE
  8
1
 62
7
 10
-165.1791847604383
 20
-77.45164254283279
 30
0
 11
-165.1791847604383
 21
-82.63164254283278
 31
0
  0
LINE
  8
1
 62
7
 10
-165.1791847604383
 20
-82.63164254283278
 30
0
 11
-164.1011847604383
 21
-82.63164254283278
 31
0
  0
LINE
  8
1
 62
7
 10
-164.1011847604383
 20
-82.63164254283278
 30
0
 11
-164.1011847604383
 21
-76.89164254283278
 31
0
  0
LINE
  8
1
 62
7
 10
-164.1011847604383
 20
-76.89164254283278
 30
0
 11
-163.9051847604383
 21
-76.19164254283278
 31
0
  0
LINE
  8
1
 62
7
 10
-163.9051847604383
 20
-76.19164254283278
 30
0
 11
-163.5131847604383
 21
-75.77164254283278
 31
0
  0
LINE
  8
1
 62
7
 10
-163.5131847604383
 20
-75.77164254283278
 30
0
 11
-163.1211847604383
 21
-75.63164254283278
 31
0
  0
LINE
  8
1
 62
7
 10
-163.1211847604383
 20
-75.63164254283278
 30
0
 11
-162.6311847604383
 21
-75.77164254283278
 31
0
  0
LINE
  8
1
 62
7
 10
-162.6311847604383
 20
-75.77164254283278
 30
0
 11
-162.3371847604383
 21
-76.19164254283278
 31
0
  0
LINE
  8
1
 62
7
 10
-162.3371847604383
 20
-76.19164254283278
 30
0
 11
-162.0431847604383
 21
-76.89164254283278
 31
0
  0
LINE
  8
1
 62
7
 10
-162.0431847604383
 20
-76.89164254283278
 30
0
 11
-161.9451847604383
 21
-77.45164254283279
 31
0
  0
LINE
  8
1
 62
7
 10
-161.9451847604383
 20
-77.45164254283279
 30
0
 11
-161.9451847604383
 21
-82.63164254283278
 31
0
  0
LINE
  8
1
 62
7
 10
-161.9451847604383
 20
-82.63164254283278
 30
0
 11
-160.8671847604383
 21
-82.63164254283278
 31
0
  0
LINE
  8
1
 62
7
 10
-160.8671847604383
 20
-82.63164254283278
 30
0
 11
-160.8671847604383
 21
-77.59164254283277
 31
0
  0
LINE
  8
1
 62
7
 10
-160.8671847604383
 20
-77.59164254283277
 30
0
 11
-160.9651847604383
 21
-76.47164254283278
 31
0
  0
LINE
  8
1
 62
7
 10
-160.9651847604383
 20
-76.47164254283278
 30
0
 11
-161.2591847604383
 21
-75.63164254283278
 31
0
  0
LINE
  8
1
 62
7
 10
-161.2591847604383
 20
-75.63164254283278
 30
0
 11
-161.5531847604383
 21
-75.07164254283278
 31
0
  0
LINE
  8
1
 62
7
 10
-161.5531847604383
 20
-75.07164254283278
 30
0
 11
-162.1411847604383
 21
-74.51164254283277
 31
0
  0
LINE
  8
1
 62
7
 10
-162.1411847604383
 20
-74.51164254283277
 30
0
 11
-162.8271847604383
 21
-74.23164254283279
 31
0
  0
LINE
  8
1
 62
7
 10
-162.8271847604383
 20
-74.23164254283279
 30
0
 11
-163.2191847604383
 21
-74.23164254283279
 31
0
  0
LINE
  8
1
 62
7
 10
-163.2191847604383
 20
-74.23164254283279
 30
0
 11
-163.7091847604383
 21
-74.51164254283277
 31
0
  0
LINE
  8
1
 62
7
 10
-163.7091847604383
 20
-74.51164254283277
 30
0
 11
-164.1011847604383
 21
-74.93164254283278
 31
0
  0
LINE
  8
1
 62
7
 10
-155.1011847604383
 20
-74.93164254283278
 30
0
 11
-155.3951847604383
 21
-75.63164254283278
 31
0
  0
LINE
  8
1
 62
7
 10
-155.3951847604383
 20
-75.63164254283278
 30
0
 11
-155.7871847604383
 21
-75.07164254283278
 31
0
  0
LINE
  8
1
 62
7
 10
-155.7871847604383
 20
-75.07164254283278
 30
0
 11
-156.3751847604383
 21
-74.51164254283277
 31
0
  0
LINE
  8
1
 62
7
 10
-156.3751847604383
 20
-74.51164254283277
 30
0
 11
-157.0611847604383
 21
-74.23164254283279
 31
0
  0
LINE
  8
1
 62
7
 10
-157.0611847604383
 20
-74.23164254283279
 30
0
 11
-157.4531847604383
 21
-74.23164254283279
 31
0
  0
LINE
  8
1
 62
7
 10
-157.4531847604383
 20
-74.23164254283279
 30
0
 11
-158.0411847604383
 21
-74.51164254283277
 31
0
  0
LINE
  8
1
 62
7
 10
-158.0411847604383
 20
-74.51164254283277
 30
0
 11
-158.3351847604383
 21
-75.07164254283278
 31
0
  0
LINE
  8
1
 62
7
 10
-158.3351847604383
 20
-75.07164254283278
 30
0
 11
-158.3351847604383
 21
-74.37164254283277
 31
0
  0
LINE
  8
1
 62
7
 10
-158.3351847604383
 20
-74.37164254283277
 30
0
 11
-159.4131847604383
 21
-74.37164254283277
 31
0
  0
LINE
  8
1
 62
7
 10
-159.4131847604383
 20
-74.37164254283277
 30
0
 11
-159.4131847604383
 21
-82.63164254283278
 31
0
  0
LINE
  8
1
 62
7
 10
-159.4131847604383
 20
-82.63164254283278
 30
0
 11
-158.3351847604383
 21
-82.63164254283278
 31
0
  0
LINE
  8
1
 62
7
 10
-158.3351847604383
 20
-82.63164254283278
 30
0
 11
-158.3351847604383
 21
-76.89164254283278
 31
0
  0
LINE
  8
1
 62
7
 10
-158.3351847604383
 20
-76.89164254283278
 30
0
 11
-158.1391847604383
 21
-76.19164254283278
 31
0
  0
LINE
  8
1
 62
7
 10
-158.1391847604383
 20
-76.19164254283278
 30
0
 11
-157.7471847604383
 21
-75.77164254283278
 31
0
  0
LINE
  8
1
 62
7
 10
-157.7471847604383
 20
-75.77164254283278
 30
0
 11
-157.3551847604383
 21
-75.63164254283278
 31
0
  0
LINE
  8
1
 62
7
 10
-157.3551847604383
 20
-75.63164254283278
 30
0
 11
-156.8651847604383
 21
-75.77164254283278
 31
0
  0
LINE
  8
1
 62
7
 10
-156.8651847604383
 20
-75.77164254283278
 30
0
 11
-156.5711847604383
 21
-76.19164254283278
 31
0
  0
LINE
  8
1
 62
7
 10
-156.5711847604383
 20
-76.19164254283278
 30
0
 11
-156.2771847604383
 21
-76.89164254283278
 31
0
  0
LINE
  8
1
 62
7
 10
-156.2771847604383
 20
-76.89164254283278
 30
0
 11
-156.1791847604383
 21
-77.45164254283279
 31
0
  0
LINE
  8
1
 62
7
 10
-156.1791847604383
 20
-77.45164254283279
 30
0
 11
-156.1791847604383
 21
-82.63164254283278
 31
0
  0
LINE
  8
1
 62
7
 10
-156.1791847604383
 20
-82.63164254283278
 30
0
 11
-155.1011847604383
 21
-82.63164254283278
 31
0
  0
LINE
  8
1
 62
7
 10
-155.1011847604383
 20
-82.63164254283278
 30
0
 11
-155.1011847604383
 21
-76.89164254283278
 31
0
  0
LINE
  8
1
 62
7
 10
-155.1011847604383
 20
-76.89164254283278
 30
0
 11
-154.9051847604383
 21
-76.19164254283278
 31
0
  0
LINE
  8
1
 62
7
 10
-154.9051847604383
 20
-76.19164254283278
 30
0
 11
-154.5131847604383
 21
-75.77164254283278
 31
0
  0
LINE
  8
1
 62
7
 10
-154.5131847604383
 20
-75.77164254283278
 30
0
 11
-154.1211847604383
 21
-75.63164254283278
 31
0
  0
LINE
  8
1
 62
7
 10
-154.1211847604383
 20
-75.63164254283278
 30
0
 11
-153.6311847604383
 21
-75.77164254283278
 31
0
  0
LINE
  8
1
 62
7
 10
-153.6311847604383
 20
-75.77164254283278
 30
0
 11
-153.3371847604383
 21
-76.19164254283278
 31
0
  0
LINE
  8
1
 62
7
 10
-153.3371847604383
 20
-76.19164254283278
 30
0
 11
-153.0431847604383
 21
-76.89164254283278
 31
0
  0
LINE
  8
1
 62
7
 10
-153.0431847604383
 20
-76.89164254283278
 30
0
 11
-152.9451847604383
 21
-77.45164254283279
 31
0
  0
LINE
  8
1
 62
7
 10
-152.9451847604383
 20
-77.45164254283279
 30
0
 11
-152.9451847604383
 21
-82.63164254283278
 31
0
  0
LINE
  8
1
 62
7
 10
-152.9451847604383
 20
-82.63164254283278
 30
0
 11
-151.8671847604383
 21
-82.63164254283278
 31
0
  0
LINE
  8
1
 62
7
 10
-151.8671847604383
 20
-82.63164254283278
 30
0
 11
-151.8671847604383
 21
-77.59164254283277
 31
0
  0
LINE
  8
1
 62
7
 10
-151.8671847604383
 20
-77.59164254283277
 30
0
 11
-151.9651847604383
 21
-76.47164254283278
 31
0
  0
LINE
  8
1
 62
7
 10
-151.9651847604383
 20
-76.47164254283278
 30
0
 11
-152.2591847604383
 21
-75.63164254283278
 31
0
  0
LINE
  8
1
 62
7
 10
-152.2591847604383
 20
-75.63164254283278
 30
0
 11
-152.5531847604383
 21
-75.07164254283278
 31
0
  0
LINE
  8
1
 62
7
 10
-152.5531847604383
 20
-75.07164254283278
 30
0
 11
-153.1411847604383
 21
-74.51164254283277
 31
0
  0
LINE
  8
1
 62
7
 10
-153.1411847604383
 20
-74.51164254283277
 30
0
 11
-153.8271847604383
 21
-74.23164254283279
 31
0
  0
LINE
  8
1
 62
7
 10
-153.8271847604383
 20
-74.23164254283279
 30
0
 11
-154.2191847604383
 21
-74.23164254283279
 31
0
  0
LINE
  8
1
 62
7
 10
-154.2191847604383
 20
-74.23164254283279
 30
0
 11
-154.7091847604383
 21
-74.51164254283277
 31
0
  0
LINE
  8
1
 62
7
 10
-154.7091847604383
 20
-74.51164254283277
 30
0
 11
-155.1011847604383
 21
-74.93164254283278
 31
0
  0
LINE
  8
1
 62
2
 10
-290.2022579208826
 20
-119.42131502323
 30
0
 11
-290.6822579208826
 21
-120.38131502323
 31
0
  0
LINE
  8
1
 62
2
 10
-290.6822579208826
 20
-120.38131502323
 30
0
 11
-290.9222579208826
 21
-121.34131502323
 31
0
  0
LINE
  8
1
 62
2
 10
-290.9222579208826
 20
-121.34131502323
 30
0
 11
-290.9222579208826
 21
-122.30131502323
 31
0
  0
LINE
  8
1
 62
2
 10
-290.9222579208826
 20
-122.30131502323
 30
0
 11
-290.6822579208826
 21
-123.26131502323
 31
0
  0
LINE
  8
1
 62
2
 10
-290.6822579208826
 20
-123.26131502323
 30
0
 11
-290.2022579208826
 21
-124.22131502323
 31
0
  0
LINE
  8
1
 62
2
 10
-288.2289245875492
 20
-123.92131502323
 30
0
 11
-288.2289245875492
 21
-121.07131502323
 31
0
  0
LINE
  8
1
 62
2
 10
-288.2289245875492
 20
-121.07131502323
 30
0
 11
-285.0289245875492
 21
-121.07131502323
 31
0
  0
LINE
  8
1
 62
2
 10
-285.0289245875492
 20
-121.07131502323
 30
0
 11
-285.0289245875492
 21
-123.92131502323
 31
0
  0
LINE
  8
1
 62
2
 10
-285.0289245875492
 20
-123.92131502323
 30
0
 11
-288.2289245875492
 21
-123.92131502323
 31
0
  0
LINE
  8
1
 62
2
 10
-287.9622579208826
 20
-122.87131502323
 30
0
 11
-287.5622579208826
 21
-122.42131502323
 31
0
  0
LINE
  8
1
 62
2
 10
-287.5622579208826
 20
-122.42131502323
 30
0
 11
-287.1622579208826
 21
-121.52131502323
 31
0
  0
LINE
  8
1
 62
2
 10
-287.1622579208826
 20
-121.52131502323
 30
0
 11
-287.1622579208826
 21
-119.87131502323
 31
0
  0
LINE
  8
1
 62
2
 10
-286.2289245875492
 20
-119.87131502323
 30
0
 11
-286.2289245875492
 21
-122.27131502323
 31
0
  0
LINE
  8
1
 62
2
 10
-286.2289245875492
 20
-122.27131502323
 30
0
 11
-286.0955912542159
 21
-122.57131502323
 31
0
  0
LINE
  8
1
 62
2
 10
-286.0955912542159
 20
-122.57131502323
 30
0
 11
-285.4289245875493
 21
-122.57131502323
 31
0
  0
LINE
  8
1
 62
2
 10
-285.4289245875493
 20
-122.57131502323
 30
0
 11
-285.2955912542159
 21
-122.27131502323
 31
0
  0
LINE
  8
1
 62
2
 10
-288.6289245875493
 20
-119.87131502323
 30
0
 11
-284.6289245875493
 21
-119.87131502323
 31
0
  0
LINE
  8
1
 62
2
 10
-283.9622579208826
 20
-123.92131502323
 30
0
 11
-283.8289245875493
 21
-123.47131502323
 31
0
  0
LINE
  8
1
 62
2
 10
-283.8289245875493
 20
-123.47131502323
 30
0
 11
-283.695591254216
 21
-122.12131502323
 31
0
  0
LINE
  8
1
 62
2
 10
-283.695591254216
 20
-122.12131502323
 30
0
 11
-283.695591254216
 21
-119.57131502323
 31
0
  0
LINE
  8
1
 62
2
 10
-283.695591254216
 20
-119.57131502323
 30
0
 11
-279.9622579208826
 21
-119.57131502323
 31
0
  0
LINE
  8
1
 62
2
 10
-281.8289245875493
 20
-120.62131502323
 30
0
 11
-283.1622579208826
 21
-120.62131502323
 31
0
  0
LINE
  8
1
 62
2
 10
-283.2955912542159
 20
-121.82131502323
 30
0
 11
-282.895591254216
 21
-121.37131502323
 31
0
  0
LINE
  8
1
 62
2
 10
-282.895591254216
 20
-121.37131502323
 30
0
 11
-282.495591254216
 21
-120.62131502323
 31
0
  0
LINE
  8
1
 62
2
 10
-282.2289245875493
 20
-121.07131502323
 30
0
 11
-281.8289245875493
 21
-121.52131502323
 31
0
  0
LINE
  8
1
 62
2
 10
-281.8289245875493
 20
-121.97131502323
 30
0
 11
-281.4289245875493
 21
-121.67131502323
 31
0
  0
LINE
  8
1
 62
2
 10
-281.4289245875493
 20
-121.67131502323
 30
0
 11
-280.7622579208826
 21
-120.62131502323
 31
0
  0
LINE
  8
1
 62
2
 10
-280.7622579208826
 20
-120.62131502323
 30
0
 11
-280.3622579208826
 21
-121.22131502323
 31
0
  0
LINE
  8
1
 62
2
 10
-280.3622579208826
 20
-121.22131502323
 30
0
 11
-279.695591254216
 21
-121.97131502323
 31
0
  0
LINE
  8
1
 62
2
 10
-280.495591254216
 20
-122.57131502323
 30
0
 11
-282.6289245875493
 21
-122.57131502323
 31
0
  0
LINE
  8
1
 62
2
 10
-282.6289245875493
 20
-124.07131502323
 30
0
 11
-280.495591254216
 21
-124.07131502323
 31
0
  0
LINE
  8
1
 62
2
 10
-282.6289245875493
 20
-123.32131502323
 30
0
 11
-280.495591254216
 21
-123.32131502323
 31
0
  0
LINE
  8
1
 62
2
 10
-280.495591254216
 20
-124.07131502323
 30
0
 11
-280.495591254216
 21
-122.57131502323
 31
0
  0
LINE
  8
1
 62
2
 10
-282.6289245875493
 20
-122.57131502323
 30
0
 11
-282.6289245875493
 21
-124.07131502323
 31
0
  0
LINE
  8
1
 62
2
 10
-280.7622579208826
 20
-119.87131502323
 30
0
 11
-280.7622579208826
 21
-122.12131502323
 31
0
  0
LINE
  8
1
 62
2
 10
-279.9622579208826
 20
-120.62131502323
 30
0
 11
-281.5622579208826
 21
-120.62131502323
 31
0
  0
LINE
  8
1
 62
2
 10
-282.495591254216
 20
-119.87131502323
 30
0
 11
-282.495591254216
 21
-122.12131502323
 31
0
  0
LINE
  8
1
 62
2
 10
-277.0289245875493
 20
-124.22131502323
 30
0
 11
-277.0289245875493
 21
-120.02131502323
 31
0
  0
LINE
  8
1
 62
2
 10
-276.3622579208826
 20
-121.07131502323
 30
0
 11
-275.5622579208826
 21
-121.97131502323
 31
0
  0
LINE
  8
1
 62
2
 10
-275.0289245875493
 20
-120.02131502323
 30
0
 11
-279.0289245875493
 21
-120.02131502323
 31
0
  0
LINE
  8
1
 62
2
 10
-273.8289245875492
 20
-121.07131502323
 30
0
 11
-273.6955912542159
 21
-120.77131502323
 31
0
  0
LINE
  8
1
 62
2
 10
-273.6955912542159
 20
-120.77131502323
 30
0
 11
-273.1622579208826
 21
-120.47131502323
 31
0
  0
LINE
  8
1
 62
2
 10
-273.1622579208826
 20
-120.47131502323
 30
0
 11
-272.6289245875493
 21
-120.32131502323
 31
0
  0
LINE
  8
1
 62
2
 10
-272.6289245875493
 20
-120.32131502323
 30
0
 11
-271.6955912542159
 21
-120.32131502323
 31
0
  0
LINE
  8
1
 62
2
 10
-271.6955912542159
 20
-120.32131502323
 30
0
 11
-271.1622579208826
 21
-120.47131502323
 31
0
  0
LINE
  8
1
 62
2
 10
-271.1622579208826
 20
-120.47131502323
 30
0
 11
-270.6289245875493
 21
-120.77131502323
 31
0
  0
LINE
  8
1
 62
2
 10
-270.6289245875493
 20
-120.77131502323
 30
0
 11
-270.4955912542159
 21
-121.07131502323
 31
0
  0
LINE
  8
1
 62
2
 10
-270.4955912542159
 20
-121.07131502323
 30
0
 11
-270.4955912542159
 21
-121.82131502323
 31
0
  0
LINE
  8
1
 62
2
 10
-270.4955912542159
 20
-121.82131502323
 30
0
 11
-270.6289245875493
 21
-122.12131502323
 31
0
  0
LINE
  8
1
 62
2
 10
-270.6289245875493
 20
-122.12131502323
 30
0
 11
-271.1622579208826
 21
-122.42131502323
 31
0
  0
LINE
  8
1
 62
2
 10
-271.1622579208826
 20
-122.42131502323
 30
0
 11
-273.2955912542159
 21
-122.72131502323
 31
0
  0
LINE
  8
1
 62
2
 10
-273.2955912542159
 20
-122.72131502323
 30
0
 11
-273.6955912542159
 21
-123.02131502323
 31
0
  0
LINE
  8
1
 62
2
 10
-273.6955912542159
 20
-123.02131502323
 30
0
 11
-273.8289245875492
 21
-123.32131502323
 31
0
  0
LINE
  8
1
 62
2
 10
-273.8289245875492
 20
-123.32131502323
 30
0
 11
-273.9622579208826
 21
-124.22131502323
 31
0
  0
LINE
  8
1
 62
2
 10
-273.9622579208826
 20
-124.22131502323
 30
0
 11
-270.4955912542159
 21
-124.22131502323
 31
0
  0
LINE
  8
1
 62
2
 10
-268.6289245875493
 20
-120.77131502323
 30
0
 11
-269.0289245875492
 21
-121.97131502323
 31
0
  0
LINE
  8
1
 62
2
 10
-269.0289245875492
 20
-121.97131502323
 30
0
 11
-269.2955912542159
 21
-122.42131502323
 31
0
  0
LINE
  8
1
 62
2
 10
-269.2955912542159
 20
-122.42131502323
 30
0
 11
-269.4289245875493
 21
-122.72131502323
 31
0
  0
LINE
  8
1
 62
2
 10
-268.6289245875493
 20
-120.77131502323
 30
0
 11
-268.095591254216
 21
-121.97131502323
 31
0
  0
LINE
  8
1
 62
2
 10
-267.1622579208826
 20
-119.72131502323
 30
0
 11
-267.8289245875492
 21
-120.77131502323
 31
0
  0
LINE
  8
1
 62
2
 10
-266.8955912542159
 20
-120.62131502323
 30
0
 11
-267.6955912542159
 21
-122.12131502323
 31
0
  0
LINE
  8
1
 62
2
 10
-267.6955912542159
 20
-122.12131502323
 30
0
 11
-268.095591254216
 21
-122.57131502323
 31
0
  0
LINE
  8
1
 62
2
 10
-267.4289245875493
 20
-121.67131502323
 30
0
 11
-267.4289245875493
 21
-124.07131502323
 31
0
  0
LINE
  8
1
 62
2
 10
-266.7622579208826
 20
-120.02131502323
 30
0
 11
-265.5622579208826
 21
-120.02131502323
 31
0
  0
LINE
  8
1
 62
2
 10
-265.9622579208826
 20
-121.22131502323
 30
0
 11
-265.9622579208826
 21
-123.77131502323
 31
0
  0
LINE
  8
1
 62
2
 10
-265.9622579208826
 20
-123.77131502323
 30
0
 11
-266.095591254216
 21
-124.07131502323
 31
0
  0
LINE
  8
1
 62
2
 10
-266.095591254216
 20
-124.07131502323
 30
0
 11
-266.4955912542159
 21
-124.07131502323
 31
0
  0
LINE
  8
1
 62
2
 10
-266.8955912542159
 20
-121.22131502323
 30
0
 11
-265.2955912542159
 21
-121.22131502323
 31
0
  0
LINE
  8
1
 62
2
 10
-268.6289245875493
 20
-119.57131502323
 30
0
 11
-268.6289245875493
 21
-124.07131502323
 31
0
  0
LINE
  8
1
 62
2
 10
-269.2955912542159
 20
-120.77131502323
 30
0
 11
-267.9622579208826
 21
-120.77131502323
 31
0
  0
LINE
  8
1
 62
2
 10
-264.7622579208826
 20
-119.42131502323
 30
0
 11
-264.2822579208826
 21
-120.38131502323
 31
0
  0
LINE
  8
1
 62
2
 10
-264.2822579208826
 20
-120.38131502323
 30
0
 11
-264.0422579208826
 21
-121.34131502323
 31
0
  0
LINE
  8
1
 62
2
 10
-264.0422579208826
 20
-121.34131502323
 30
0
 11
-264.0422579208826
 21
-122.30131502323
 31
0
  0
LINE
  8
1
 62
2
 10
-264.0422579208826
 20
-122.30131502323
 30
0
 11
-264.2822579208826
 21
-123.26131502323
 31
0
  0
LINE
  8
1
 62
2
 10
-264.2822579208826
 20
-123.26131502323
 30
0
 11
-264.7622579208826
 21
-124.22131502323
 31
0
  0
ARC
  8
1
 62
7
 10
-172.4131847604382
 20
104.3374567731544
 30
0
 40
46.5
 50
96.57959294497763
 51
169.1538740980021
  0
ARC
  8
1
 62
7
 10
-172.4131847604382
 20
104.3374567731544
 30
0
 40
46.49999999999994
 50
276.5795929449776
 51
353.4204070550223
  0
ARC
  8
1
 62
7
 10
-172.4131847604382
 20
104.3374567731544
 30
0
 40
46.4999999999998
 50
6.579592944977659
 51
83.42040705502237
  0
ARC
  8
1
 62
7
 10
-172.4131847604382
 20
104.3374567731544
 30
0
 40
46.50000000000012
 50
190.8461259019979
 51
263.4204070550224
  0
ARC
  8
1
 62
7
 10
-143.6631847604383
 20
91.5874567731544
 30
0
 40
3.25
 50
0
 51
174.0230307249308
  0
ARC
  8
1
 62
7
 10
-143.6631847604383
 20
90.5874567731544
 30
0
 40
3.249999999999897
 50
291.2900331220184
 51
0
  0
ARC
  8
1
 62
7
 10
-143.6631847604383
 20
90.5874567731544
 30
0
 40
1.750000000000014
 50
281.9689272668031
 51
0
  0
ARC
  8
1
 62
7
 10
-143.6631847604383
 20
91.5874567731544
 30
0
 40
1.75
 50
0
 51
180
  0
ARC
  8
1
 62
7
 10
-172.4131847604382
 20
104.3374567731544
 30
0
 40
45.50000000000001
 50
191.0874892109705
 51
354.9564976310526
  0
ARC
  8
1
 62
7
 10
-126.2656120223843
 20
97.8074363352667
 30
0
 40
2.660741931207897
 50
108.0344977871279
 51
130.7465182829021
  0
ARC
  8
1
 62
7
 10
-126.2656120223843
 20
110.8674772110421
 30
0
 40
2.660741931207895
 50
229.2534817170979
 51
251.9655022128721
  0
ARC
  8
1
 62
7
 10
-172.4131847604382
 20
104.3374567731544
 30
0
 40
45.49999999999994
 50
5.04350236894745
 51
168.9125107890294
  0
ARC
  8
1
 62
7
 10
-217.3359400237044
 20
91.70196776799091
 30
0
 40
3.894999834120159
 50
64.83572944225401
 51
85.99519379077692
  0
ARC
  8
1
 62
7
 10
-217.3359400237044
 20
116.972945778318
 30
0
 40
3.894999834120216
 50
274.0048062092231
 51
295.1642705577453
  0
ARC
  8
1
 62
7
 10
-200.126890376567
 20
116.8602208313562
 30
0
 40
2.563201007386881
 50
251.0499047959105
 51
71.52687294645597
  0
ARC
  8
1
 62
7
 10
-201.6095500592313
 20
117.4461250346753
 30
0
 40
2.562587501809508
 50
71.22448594483244
 51
246.0941493969768
  0
ARC
  8
1
 62
7
 10
-200.138008375901
 20
116.863402379188
 30
0
 40
4.014704157986836
 50
243.6502129130145
 51
73.23926254985325
  0
ARC
  8
1
 62
7
 10
-201.6033786170823
 20
117.4457675207718
 30
0
 40
4.008448880806825
 50
72.64819422693334
 51
245.2828284196945
  0
ARC
  8
1
 62
7
 10
-177.0813605153089
 20
104.9942586428051
 30
0
 40
32.00000000000004
 50
215.9491528491645
 51
218.5276805217406
  0
ARC
  8
1
 62
7
 10
-177.0813605153089
 20
104.9942586428051
 30
0
 40
22.39999999999994
 50
215.3964493612829
 51
219.080384009622
  0
ARC
  8
1
 62
7
 10
-176.0739622441909
 20
104.9739393859334
 30
0
 40
22.39999999999999
 50
183.3963620427606
 51
187.1178182981213
  0
ARC
  8
1
 62
7
 10
-176.0739622441909
 20
104.9739393859334
 30
0
 40
31.99999999999988
 50
181.5070516764517
 51
184.0988744581226
  0
ARC
  8
1
 62
7
 10
-174.729021545819
 20
101.1352453500142
 30
0
 40
32.00000000000009
 50
225.7074941258738
 51
228.3007804181173
  0
ARC
  8
1
 62
7
 10
-174.5510016820692
 20
100.9754421803327
 30
0
 40
22.40000000000005
 50
227.1699380713344
 51
231.0801086589046
  0
ARC
  8
1
 62
7
 10
-175.2155367896644
 20
106.899130724145
 30
0
 40
32.00000000000002
 50
130.3010090182872
 51
132.8922964791132
  0
ARC
  8
1
 62
7
 10
-175.2155367896644
 20
106.899130724145
 30
0
 40
32.00000000000001
 50
142.069482010542
 51
144.662606239913
  0
ARC
  8
1
 62
7
 10
-177.9308742347792
 20
103.4007519508318
 30
0
 40
22.39999999999995
 50
132.8216702078644
 51
136.5094578103609
  0
ARC
  8
1
 62
7
 10
-175.2155367896644
 20
106.899130724145
 30
0
 40
22.39999999999997
 50
127.2820651782886
 51
131.0035214336492
  0
ARC
  8
1
 62
7
 10
-176.0739622441909
 20
104.9739393859334
 30
0
 40
31.99999999999991
 50
169.7372772364967
 51
172.3304014658679
  0
ARC
  8
1
 62
7
 10
-175.7432424811912
 20
104.8880385503566
 30
0
 40
22.7416310488127
 50
166.5278446305792
 51
170.1991815879602
  0
ARC
  8
1
 62
7
 10
-175.8585425939061
 20
103.2437843689469
 30
0
 40
22.39999999999993
 50
202.0536095775501
 51
205.7743831572288
  0
ARC
  8
1
 62
7
 10
-175.8585425939061
 20
103.2437843689469
 30
0
 40
32.00000000000001
 50
200.1642992112417
 51
202.7599038591772
  0
ARC
  8
1
 62
7
 10
-175.8585425939061
 20
103.2437843689469
 30
0
 40
32.00000000000007
 50
188.3982975963149
 51
190.9876490006577
  0
ARC
  8
1
 62
7
 10
-175.5177222006963
 20
103.268196963313
 30
0
 40
22.74163104881267
 50
185.1843930863214
 51
188.8564291227503
  0
ARC
  8
1
 62
7
 10
-174.5510016820692
 20
100.9754421803327
 30
0
 40
32.00000000000006
 50
213.5108532650706
 51
216.1970888107791
  0
ARC
  8
1
 62
7
 10
-174.5510016820692
 20
100.9754421803327
 30
0
 40
22.40000000000009
 50
210.3180170481953
 51
215.448913123492
  0
ARC
  8
1
 62
7
 10
-144.6694347604383
 20
117.0812067731544
 30
0
 40
1.743750000000021
 50
133.9099976644761
 51
206.1587791261903
  0
ARC
  8
1
 62
7
 10
-144.6694347604383
 20
119.5937067731543
 30
0
 40
1.743750000000105
 50
90
 51
226.0900023355216
  0
ARC
  8
1
 62
7
 10
-144.6694347604383
 20
117.0812067731544
 30
0
 40
0.7687499999999972
 50
90
 51
270
  0
ARC
  8
1
 62
7
 10
-144.6694347604383
 20
119.5937067731543
 30
0
 40
0.7687500000001108
 50
90
 51
270
  0
ARC
  8
1
 62
7
 10
-144.6694347604383
 20
109.0812067731544
 30
0
 40
1.743750000000021
 50
133.9099976644761
 51
206.1587791261887
  0
ARC
  8
1
 62
7
 10
-144.6694347604383
 20
111.5937067731543
 30
0
 40
1.743750000000105
 50
90
 51
226.0900023355216
  0
ARC
  8
1
 62
7
 10
-144.6694347604383
 20
109.0812067731544
 30
0
 40
0.7687499999999972
 50
90
 51
270
  0
ARC
  8
1
 62
7
 10
-144.6694347604383
 20
111.5937067731543
 30
0
 40
0.7687500000001108
 50
90
 51
270
  0
ARC
  8
1
 62
7
 10
-144.1631847604383
 20
100.5874567731544
 30
0
 40
2.400000000000105
 50
270
 51
90
  0
ARC
  8
1
 62
7
 10
-144.1631847604383
 20
100.5874567731544
 30
0
 40
3.75
 50
270
 51
90
  0
ARC
  8
1
 62
7
 10
-146.6631847604383
 20
100.5874567731544
 30
0
 40
3.75
 50
90
 51
270
  0
ARC
  8
1
 62
7
 10
-146.6631847604383
 20
100.5874567731544
 30
0
 40
2.400000000000006
 50
90
 51
270
  0
ARC
  8
1
 62
7
 10
-204.4131847604382
 20
-101.1316425428328
 30
0
 40
12.99999999999998
 50
262.2586415205493
 51
263.381836636353
  0
ARC
  8
1
 62
7
 10
-204.4131847604382
 20
-101.1316425428328
 30
0
 40
12.99999999999998
 50
262.2586415205493
 51
264.3278025658195
  0
ARC
  8
1
 62
7
 10
-204.4131847604382
 20
-101.1316425428328
 30
0
 40
13.00000000000001
 50
261.7086091535173
 51
262.2586415205493
  0
ARC
  8
1
 62
7
 10
-237.3780951401115
 20
-9.697432455215868
 30
0
 40
19.99999999999996
 50
303.2467313087444
 51
356.6055025700737
  0
ARC
  8
1
 62
7
 10
-166.1295808227444
 20
137.4903218504078
 30
0
 40
252.9999999999999
 50
268.5757393657277
 51
276.2231415786391
  0
ARC
  8
1
 62
7
 10
-176.9131847604383
 20
-75.12695874380383
 30
0
 40
2.879999999999996
 50
0
 51
180
  0
ARC
  8
1
 62
7
 10
-176.9131847604383
 20
-75.12695874380383
 30
0
 40
4.499999999999922
 50
1.340988589831791
 51
180
  0
ARC
  8
1
 62
7
 10
-176.9131847604383
 20
-78.12695874380383
 30
0
 40
4.5
 50
180
 51
0
  0
ARC
  8
1
 62
7
 10
-176.9131847604383
 20
-78.12695874380383
 30
0
 40
2.880000000000109
 50
180
 51
0
  0
ARC
  8
1
 62
7
 10
-187.2316061869118
 20
-78.72695874380374
 30
0
 40
2.099999999999909
 50
270
 51
90
  0
ARC
  8
1
 62
7
 10
-188.4316061869117
 20
-78.72695874380374
 30
0
 40
2.099999999999913
 50
191.9689272668002
 51
270
  0
ARC
  8
1
 62
7
 10
-188.4316061869117
 20
-78.72695874380374
 30
0
 40
3.900000000000104
 50
201.2900331220163
 51
270
  0
ARC
  8
1
 62
7
 10
-187.2316061869118
 20
-78.72695874380374
 30
0
 40
3.899999999999864
 50
270
 51
84.02303072492708
  0
ARC
  8
1
 62
7
 10
-255.5300858041087
 20
-55.36870378261858
 30
0
 40
45.73187746299948
 50
245.1708579711555
 51
251.170332626092
  0
ARC
  8
1
 62
7
 10
-140.4131847604382
 20
-101.1316425428328
 30
0
 40
13.00000000000001
 50
277.554176731642
 51
0
  0
ARC
  8
1
 62
7
 10
-178.7265983346956
 20
137.4898201569228
 30
0
 40
253
 50
263.8080731904543
 51
271.4288244001414
  0
ARC
  8
1
 62
7
 10
-156.3575107385631
 20
235.4551251624697
 30
0
 40
353
 50
261.1729015505662
 51
261.9100469730729
  0
ARC
  8
1
 62
7
 10
-156.3575107385631
 20
235.4551251624697
 30
0
 40
353.0000000000001
 50
251.170332626092
 51
261.1729015505662
  0
ARC
  8
1
 62
7
 10
-264.1844282051152
 20
-76.43164254283281
 30
0
 40
23.00000000000001
 50
90
 51
120.9796934188507
  0
ARC
  8
1
 62
7
 10
-276.4131847604382
 20
-100.5035662945949
 30
0
 40
4.000000000000608
 50
65.17085797115459
 51
180
  0
ARC
  8
1
 62
7
 10
-172.4131847604382
 20
-58.43164254283279
 30
0
 40
44.9935709365136
 50
15.88866034837856
 51
23.29686377449362
  0
ARC
  8
1
 62
7
 10
-172.4131847604382
 20
-58.43164254283279
 30
0
 40
44.99357093651361
 50
156.7031362255064
 51
168.461536953697
  0
ARC
  8
1
 62
7
 10
-217.4122133962194
 20
-39.05491900794836
 30
0
 40
4.000000000000095
 50
336.7031362255042
 51
51.33563421492431
  0
ARC
  8
1
 62
7
 10
-127.414156124657
 20
-39.05491900794836
 30
0
 40
3.999999999999936
 50
128.6643657850759
 51
203.2968637744959
  0
ARC
  8
1
 62
2
 10
-95.27480866425944
 20
-67.3199880366427
 30
0
 40
37.89373851055664
 50
154.0126827103338
 51
209.658866770758
  0
ARC
  8
1
 62
2
 10
-259.2428959553706
 20
-91.07235374980333
 30
0
 40
55.99999999999993
 50
2.06605614432196
 51
39.47845321976945
  0
ARC
  8
1
 62
7
 10
-276.8032694121314
 20
80.8790847532273
 30
0
 40
3.637011304445986
 50
61.72308794602466
 51
173.0017808099917
  0
ARC
  8
1
 62
7
 10
-264.1844282051154
 20
104.3374567731544
 30
0
 40
22.99999999999999
 50
241.7230879460254
 51
261.1100561315369
  0
ARC
  8
1
 62
7
 10
-264.1844282051154
 20
104.3374567731544
 30
0
 40
22.99999999999991
 50
98.88994386846316
 51
118.2769120539746
  0
ARC
  8
1
 62
7
 10
-276.8032694121314
 20
127.795828793081
 30
0
 40
3.637011304445744
 50
186.9982191900021
 51
298.2769120539791
  0
ARC
  8
1
 62
7
 10
-222.9131847604382
 20
-14.38164254283277
 30
0
 40
3.5
 50
180
 51
0
  0
CIRCLE
  8
1
 62
7
 10
-172.4131847604382
 20
104.3374567731544
 30
0
 40
41.99999999999992
  0
CIRCLE
  8
1
 62
2
 10
-220.6923931867542
 20
-49.82343464278588
 30
0
 40
1
  0
CIRCLE
  8
1
 62
7
 10
-222.9131847604382
 20
-14.38164254283277
 30
0
 40
1.350000000000222
  0
ARC
  8
1
 62
7
 10
-174.9131847604382
 20
51.83745677315443
 30
0
 40
1.5
 50
180
 51
270
  0
ARC
  8
1
 62
7
 10
-169.9131847604382
 20
51.83745677315443
 30
0
 40
1.5
 50
270
 51
0
  0
ARC
  8
1
 62
7
 10
-166.9131847604382
 20
56.65360206320048
 30
0
 40
1.500000000000006
 50
96.57959294497759
 51
180
  0
ARC
  8
1
 62
7
 10
-177.9131847604382
 20
56.65360206320048
 30
0
 40
1.5
 50
0
 51
83.4204070550224
  0
ARC
  8
1
 62
7
 10
-124.7293300504845
 20
98.8374567731544
 30
0
 40
1.5
 50
90
 51
173.4204070550221
  0
ARC
  8
1
 62
7
 10
-119.9131847604384
 20
101.8374567731544
 30
0
 40
1.5
 50
270
 51
0
  0
ARC
  8
1
 62
7
 10
-174.9131847604382
 20
156.8374567731544
 30
0
 40
1.5
 50
90
 51
180
  0
ARC
  8
1
 62
7
 10
-169.9131847604384
 20
156.8374567731544
 30
0
 40
1.500000000000199
 50
0
 51
90
  0
ARC
  8
1
 62
7
 10
-166.9131847604384
 20
152.0213114831083
 30
0
 40
1.499999999999801
 50
180
 51
263.4204070550296
  0
ARC
  8
1
 62
7
 10
-177.9131847604384
 20
152.0213114831083
 30
0
 40
1.499999999999945
 50
276.5795929449855
 51
0
  0
ARC
  8
1
 62
7
 10
-124.7293300504845
 20
109.8374567731544
 30
0
 40
1.499999999999936
 50
186.5795929449779
 51
270
  0
ARC
  8
1
 62
7
 10
-119.9131847604384
 20
106.8374567731544
 30
0
 40
1.5
 50
0
 51
90
  0
ARC
  8
1
 62
7
 10
-124.4131847604383
 20
106.3374567731544
 30
0
 40
2
 50
0
 51
90
  0
ARC
  8
1
 62
7
 10
-124.4131847604383
 20
102.3374567731544
 30
0
 40
2
 50
270
 51
0
  0
ARC
  8
1
 62
7
 10
-225.9131847604383
 20
112.0874567731544
 30
0
 40
1
 50
90
 51
180
  0
ARC
  8
1
 62
7
 10
-225.9131847604383
 20
96.5874567731545
 30
0
 40
1
 50
180
 51
270
  0
ARC
  8
1
 62
7
 10
-126.4131847604382
 20
-16.38164254283278
 30
0
 40
1
 50
180
 51
270
  0
ARC
  8
1
 62
7
 10
-119.4131847604382
 20
-32.38164254283278
 30
0
 40
1
 50
270
 51
0
  0
ARC
  8
1
 62
7
 10
-119.4131847604382
 20
-18.38164254283277
 30
0
 40
1
 50
0
 51
90
  0
ARC
  8
1
 62
7
 10
-225.4131847604382
 20
-32.38164254283278
 30
0
 40
1
 50
180
 51
270
  0
ARC
  8
1
 62
7
 10
-218.9131847604382
 20
-15.88164254283278
 30
0
 40
1.499999999999998
 50
270
 51
0
  0
ARC
  8
1
 62
7
 10
-175.4131847604382
 20
-32.38164254283278
 30
0
 40
1
 50
180
 51
270
  0
ARC
  8
1
 62
7
 10
-175.4131847604382
 20
-18.38164254283278
 30
0
 40
1
 50
90
 51
180
  0
ARC
  8
1
 62
7
 10
-169.4131847604382
 20
-18.38164254283278
 30
0
 40
1
 50
0
 51
90
  0
ARC
  8
1
 62
7
 10
-169.4131847604382
 20
-32.38164254283278
 30
0
 40
1
 50
270
 51
0
  0
ARC
  8
1
 62
7
 10
-276.4131847604382
 20
-52.7316425428328
 30
0
 40
4
 50
180
 51
275.5933398251892
  0
ARC
  8
1
 62
7
 10
-221.3964179630783
 20
-48.4316425428328
 30
0
 40
4.999999999999993
 50
270
 51
284.4479789035329
  0
ARC
  8
1
 62
7
 10
-124.3295926474257
 20
-44.74495906970289
 30
0
 40
4.999999999999889
 50
195.8886603483812
 51
257.0498660790551
  0
ARC
  8
1
 62
7
 10
-88.41318476043824
 20
-54.03009497885678
 30
0
 40
3.999999999999901
 50
257.0498660790535
 51
0
  0
ARC
  8
1
 62
7
 10
-221.3964179630783
 20
-48.4316425428328
 30
0
 40
5.000000000000048
 50
284.4479789035329
 51
348.4615369536961
  0
ARC
  8
1
 62
7
 10
-125.4131847604382
 20
-90.32222802232077
 30
0
 40
2.000000000000004
 50
80.77011375627197
 51
180
  0
ARC
  8
1
 62
7
 10
-88.41318476043824
 20
-98.36096221411616
 30
0
 40
4
 50
0
 51
80.7701137562717
  0
ARC
  8
1
 62
7
 10
-170.4131847604382
 20
-115.973324478692
 30
0
 40
0.5000000000000687
 50
90.45204239782385
 51
180
  0
ARC
  8
1
 62
7
 10
-174.4131847604382
 20
-115.973324478692
 30
0
 40
0.5
 50
0
 51
89.5479576021729
  0
ARC
  8
1
 62
7
 10
-88.41318476043841
 20
126.8574254494588
 30
0
 40
4.000000000000132
 50
254.9035379094048
 51
0
  0
ARC
  8
1
 62
7
 10
-88.41318476043841
 20
81.8174880968499
 30
0
 40
4
 50
0
 51
105.0964620905948
  0
ARC
  8
1
 62
7
 10
-207.629027414337
 20
146.5848759390142
 30
0
 40
10.00000000000003
 50
278.8899438684635
 51
280.8851865848156
  0
ARC
  8
1
 62
7
 10
-207.629027414337
 20
62.09003760729451
 30
0
 40
9.999999999999931
 50
79.11481341518311
 51
81.11005613153648
  0
ARC
  8
1
 62
7
 10
-123.4131847604382
 20
-3.881642542832773
 30
0
 40
1
 50
0
 51
90
  0
ARC
  8
1
 62
7
 10
-128.4131847604382
 20
-3.881642542832773
 30
0
 40
1.000000000000014
 50
0
 51
90
  0
ARC
  8
1
 62
7
 10
-216.4131847604382
 20
-3.881642542832773
 30
0
 40
1.000000000000001
 50
90
 51
180
  0
ARC
  8
1
 62
7
 10
-225.4131847604382
 20
-3.881642542832773
 30
0
 40
1.000000000000001
 50
90
 51
180
  0
LINE
  8
1
 62
2
 10
-154.9719318441866
 20
17.82990644846601
 30
0
 11
-185.6475832321781
 21
17.82990644846601
 31
0
  0
LINE
  8
1
 62
2
 10
-185.6475832321781
 20
17.82990644846601
 30
0
 11
-173.7383416077321
 21
52.27325007452649
 31
0
  0
LINE
  8
1
 62
2
 10
-173.9589677697234
 20
49.17526766267109
 30
0
 11
-173.7383416077321
 21
52.27325007452649
 31
0
  0
LINE
  8
1
 62
2
 10
-175.4784006746837
 20
49.70063168637798
 30
0
 11
-173.7383416077321
 21
52.27325007452649
 31
0
  0
LINE
  8
1
 62
2
 10
-247.0493106442529
 20
-24.7158175942646
 30
0
 11
-304.485060280811
 21
-24.7158175942646
 31
0
  0
LINE
  8
1
 62
2
 10
-304.485060280811
 20
-24.7158175942646
 30
0
 11
-289.870123032043
 21
-51.73164254283281
 31
0
  0
LINE
  8
1
 62
2
 10
-292.0045859529094
 20
-49.47548674879576
 30
0
 11
-289.870123032043
 21
-51.73164254283281
 31
0
  0
LINE
  8
1
 62
2
 10
-290.5905442479307
 20
-48.71052284986808
 30
0
 11
-289.870123032043
 21
-51.73164254283281
 31
0
  0
LINE
  8
1
 62
2
 10
-251.5821912995573
 20
-124.044940098565
 30
0
 11
-230.1338067835593
 21
-124.044940098565
 31
0
  0
LINE
  8
1
 62
2
 10
-230.1338067835593
 20
-124.044940098565
 30
0
 11
-223.5061102355128
 21
-81.03452875147127
 31
0
  0
LINE
  8
1
 62
2
 10
-223.1685325918052
 20
-84.12195684974162
 30
0
 11
-223.5061102355128
 21
-81.03452875147127
 31
0
  0
LINE
  8
1
 62
2
 10
-224.7574734694475
 20
-83.87710873878507
 30
0
 11
-223.5061102355128
 21
-81.03452875147127
 31
0
  0
LINE
  8
1
 62
2
 10
-285.7602586092111
 20
-117.654277624054
 30
0
 11
-268.494714316412
 21
-117.654277624054
 31
0
  0
LINE
  8
1
 62
2
 10
-268.494714316412
 20
-117.654277624054
 30
0
 11
-232.5864461820054
 21
-80.55790368614879
 31
0
  0
LINE
  8
1
 62
2
 10
-234.0953869912487
 20
-83.2725433605293
 30
0
 11
-232.5864461820054
 21
-80.55790368614879
 31
0
  0
LINE
  8
1
 62
2
 10
-235.2505470928074
 20
-82.1543802016618
 30
0
 11
-232.5864461820054
 21
-80.55790368614879
 31
0
  0
DIMENSION
  8
1
  6
CONTINUOUS
 62
2
  2
*D0
  3
DMST_1
 10
-107.005028963789
 20
-116.4316425428328
 30
0
 11
-109.886848475781
 21
-100.123839326616
 31
0
 12
0
 22
0
 32
0
 70
128
 13
-106.023638432966
 23
-76.43164254283282
 33
0
 14
-137.4131847604382
 24
-116.4316425428328
 34
0
 50
90
 53
0
  0
DIMENSION
  8
1
  6
CONTINUOUS
 62
2
  2
*D1
  3
DMST_1
 10
-44.4091847604381
 20
-116.4316425428328
 30
0
 11
-46.7091847604381
 21
-59.65664254283279
 31
0
 12
0
 22
0
 32
0
 70
128
  1
113
 13
-123.4131847604382
 23
-2.881642542832772
 33
0
 14
-137.4131847604382
 24
-116.4316425428328
 34
0
 50
90
 53
0
  0
DIMENSION
  8
1
  6
CONTINUOUS
 62
2
  2
*D2
  3
DMST_1
 10
-42.53145798773107
 20
50.33745677315443
 30
0
 11
-44.83145798773106
 21
102.8934223008588
 31
0
 12
0
 22
0
 32
0
 70
128
 13
-169.9131847604382
 23
158.3374567731544
 33
0
 14
-169.9131847604382
 24
50.33745677315443
 34
0
 50
90
 53
0
  0
DIMENSION
  8
1
  6
CONTINUOUS
 62
2
  2
*D3
  3
DMST_1
 10
-67.41318476043819
 20
-135.803196133769
 30
0
 11
-172.6864810311621
 21
-133.503196133769
 31
0
 12
0
 22
0
 32
0
 70
128
 13
-297.4131847604382
 23
-99.63164254283278
 33
0
 14
-67.41318476043824
 24
-99.63164254283278
 34
0
 53
0
  0
DIMENSION
  8
1
  6
CONTINUOUS
 62
2
  2
*D4
  3
DMST_2
 10
-84.41318476043824
 20
-41.13164254283282
 30
0
 11
-75.91318476043824
 21
-38.53164254283282
 31
0
 12
0
 22
0
 32
0
 70
128
 13
-67.41318476043824
 23
-53.2316425428328
 33
0
 14
-84.41318476043824
 24
-51.7316425428328
 34
0
 53
0
  0
ENDSEC
  0
EOF
