  0
SECTION
  2
HEADER
  9
$ACADVER
  1
AC1015
  9
$ACADMAINTVER
 70
     6
  9
$DWGCODEPAGE
  3
ANSI_1252
  9
$INSBASE
 10
0.0
 20
0.0
 30
0.0
  9
$EXTMIN
 10
26.65281612541799
 20
-3.29150688296175
 30
0.0
  9
$EXTMAX
 10
197.756840910896
 20
272.7901505632149
 30
0.0
  9
$LIMMIN
 10
0.0
 20
0.0
  9
$LIMMAX
 10
12.0
 20
9.0
  9
$ORTHOMODE
 70
     0
  9
$REGENMODE
 70
     1
  9
$FILLMODE
 70
     1
  9
$QTEXTMODE
 70
     0
  9
$MIRRTEXT
 70
     1
  9
$LTSCALE
 40
1.0
  9
$ATTMODE
 70
     1
  9
$TEXTSIZE
 40
0.2
  9
$TRACEWID
 40
0.05
  9
$TEXTSTYLE
  7
Standard
  9
$CLAYER
  8
0
  9
$CELTYPE
  6
ByLayer
  9
$CECOLOR
 62
   256
  9
$CELTSCALE
 40
1.0
  9
$DISPSILH
 70
     0
  9
$DIMSCALE
 40
1.0
  9
$DIMASZ
 40
0.18
  9
$DIMEXO
 40
0.0625
  9
$DIMDLI
 40
0.38
  9
$DIMRND
 40
0.0
  9
$DIMDLE
 40
0.0
  9
$DIMEXE
 40
0.18
  9
$DIMTP
 40
0.0
  9
$DIMTM
 40
0.0
  9
$DIMTXT
 40
0.18
  9
$DIMCEN
 40
0.09
  9
$DIMTSZ
 40
0.0
  9
$DIMTOL
 70
     0
  9
$DIMLIM
 70
     0
  9
$DIMTIH
 70
     1
  9
$DIMTOH
 70
     1
  9
$DIMSE1
 70
     0
  9
$DIMSE2
 70
     0
  9
$DIMTAD
 70
     0
  9
$DIMZIN
 70
     0
  9
$DIMBLK
  1

  9
$DIMASO
 70
     1
  9
$DIMSHO
 70
     1
  9
$DIMPOST
  1

  9
$DIMAPOST
  1

  9
$DIMALT
 70
     0
  9
$DIMALTD
 70
     2
  9
$DIMALTF
 40
25.4
  9
$DIMLFAC
 40
1.0
  9
$DIMTOFL
 70
     0
  9
$DIMTVP
 40
0.0
  9
$DIMTIX
 70
     0
  9
$DIMSOXD
 70
     0
  9
$DIMSAH
 70
     0
  9
$DIMBLK1
  1

  9
$DIMBLK2
  1

  9
$DIMSTYLE
  2
Standard
  9
$DIMCLRD
 70
     0
  9
$DIMCLRE
 70
     0
  9
$DIMCLRT
 70
     0
  9
$DIMTFAC
 40
1.0
  9
$DIMGAP
 40
0.09
  9
$DIMJUST
 70
     0
  9
$DIMSD1
 70
     0
  9
$DIMSD2
 70
     0
  9
$DIMTOLJ
 70
     1
  9
$DIMTZIN
 70
     0
  9
$DIMALTZ
 70
     0
  9
$DIMALTTZ
 70
     0
  9
$DIMUPT
 70
     0
  9
$DIMDEC
 70
     4
  9
$DIMTDEC
 70
     4
  9
$DIMALTU
 70
     2
  9
$DIMALTTD
 70
     2
  9
$DIMTXSTY
  7
Standard
  9
$DIMAUNIT
 70
     0
  9
$DIMADEC
 70
     0
  9
$DIMALTRND
 40
0.0
  9
$DIMAZIN
 70
     0
  9
$DIMDSEP
 70
    46
  9
$DIMATFIT
 70
     3
  9
$DIMFRAC
 70
     0
  9
$DIMLDRBLK
  1

  9
$DIMLUNIT
 70
     2
  9
$DIMLWD
 70
    -2
  9
$DIMLWE
 70
    -2
  9
$DIMTMOVE
 70
     0
  9
$LUNITS
 70
     2
  9
$LUPREC
 70
     4
  9
$SKETCHINC
 40
0.1
  9
$FILLETRAD
 40
0.5
  9
$AUNITS
 70
     0
  9
$AUPREC
 70
     0
  9
$MENU
  1
.
  9
$ELEVATION
 40
0.0
  9
$PELEVATION
 40
0.0
  9
$THICKNESS
 40
0.0
  9
$LIMCHECK
 70
     0
  9
$CHAMFERA
 40
0.5
  9
$CHAMFERB
 40
0.5
  9
$CHAMFERC
 40
1.0
  9
$CHAMFERD
 40
0.0
  9
$SKPOLY
 70
     0
  9
$TDCREATE
 40
2456911.478391076
  9
$TDUCREATE
 40
2456911.103391076
  9
$TDUPDATE
 40
2456911.478391088
  9
$TDUUPDATE
 40
2456911.103391088
  9
$TDINDWG
 40
0.0000000116
  9
$TDUSRTIMER
 40
0.0000000116
  9
$USRTIMER
 70
     1
  9
$ANGBASE
 50
0.0
  9
$ANGDIR
 70
     0
  9
$PDMODE
 70
     0
  9
$PDSIZE
 40
0.0
  9
$PLINEWID
 40
0.0
  9
$SPLFRAME
 70
     0
  9
$SPLINETYPE
 70
     6
  9
$SPLINESEGS
 70
     8
  9
$HANDSEED
  5
568
  9
$SURFTAB1
 70
     6
  9
$SURFTAB2
 70
     6
  9
$SURFTYPE
 70
     6
  9
$SURFU
 70
     6
  9
$SURFV
 70
     6
  9
$UCSBASE
  2

  9
$UCSNAME
  2

  9
$UCSORG
 10
0.0
 20
0.0
 30
0.0
  9
$UCSXDIR
 10
1.0
 20
0.0
 30
0.0
  9
$UCSYDIR
 10
0.0
 20
1.0
 30
0.0
  9
$UCSORTHOREF
  2

  9
$UCSORTHOVIEW
 70
     0
  9
$UCSORGTOP
 10
0.0
 20
0.0
 30
0.0
  9
$UCSORGBOTTOM
 10
0.0
 20
0.0
 30
0.0
  9
$UCSORGLEFT
 10
0.0
 20
0.0
 30
0.0
  9
$UCSORGRIGHT
 10
0.0
 20
0.0
 30
0.0
  9
$UCSORGFRONT
 10
0.0
 20
0.0
 30
0.0
  9
$UCSORGBACK
 10
0.0
 20
0.0
 30
0.0
  9
$PUCSBASE
  2

  9
$PUCSNAME
  2

  9
$PUCSORG
 10
0.0
 20
0.0
 30
0.0
  9
$PUCSXDIR
 10
1.0
 20
0.0
 30
0.0
  9
$PUCSYDIR
 10
0.0
 20
1.0
 30
0.0
  9
$PUCSORTHOREF
  2

  9
$PUCSORTHOVIEW
 70
     0
  9
$PUCSORGTOP
 10
0.0
 20
0.0
 30
0.0
  9
$PUCSORGBOTTOM
 10
0.0
 20
0.0
 30
0.0
  9
$PUCSORGLEFT
 10
0.0
 20
0.0
 30
0.0
  9
$PUCSORGRIGHT
 10
0.0
 20
0.0
 30
0.0
  9
$PUCSORGFRONT
 10
0.0
 20
0.0
 30
0.0
  9
$PUCSORGBACK
 10
0.0
 20
0.0
 30
0.0
  9
$USERI1
 70
     0
  9
$USERI2
 70
     0
  9
$USERI3
 70
     0
  9
$USERI4
 70
     0
  9
$USERI5
 70
     0
  9
$USERR1
 40
16.0
  9
$USERR2
 40
0.0
  9
$USERR3
 40
0.0
  9
$USERR4
 40
0.0
  9
$USERR5
 40
0.0
  9
$WORLDVIEW
 70
     1
  9
$SHADEDGE
 70
     3
  9
$SHADEDIF
 70
    70
  9
$TILEMODE
 70
     1
  9
$MAXACTVP
 70
    64
  9
$PINSBASE
 10
0.0
 20
0.0
 30
0.0
  9
$PLIMCHECK
 70
     0
  9
$PEXTMIN
 10
1.00000000000000E+20
 20
1.00000000000000E+20
 30
1.00000000000000E+20
  9
$PEXTMAX
 10
-1.00000000000000E+20
 20
-1.00000000000000E+20
 30
-1.00000000000000E+20
  9
$PLIMMIN
 10
0.0
 20
0.0
  9
$PLIMMAX
 10
12.0
 20
9.0
  9
$UNITMODE
 70
     0
  9
$VISRETAIN
 70
     1
  9
$PLINEGEN
 70
     0
  9
$PSLTSCALE
 70
     1
  9
$TREEDEPTH
 70
  3020
  9
$CMLSTYLE
  2
Standard
  9
$CMLJUST
 70
     0
  9
$CMLSCALE
 40
1.0
  9
$PROXYGRAPHICS
 70
     1
  9
$MEASUREMENT
 70
     1
  9
$CELWEIGHT
370
    -1
  9
$ENDCAPS
280
     0
  9
$JOINSTYLE
280
     0
  9
$LWDISPLAY
290
     0
  9
$INSUNITS
 70
     1
  9
$HYPERLINKBASE
  1

  9
$STYLESHEET
  1

  9
$XEDIT
290
     1
  9
$CEPSNTYPE
380
     0
  9
$PSTYLEMODE
290
     1
  9
$FINGERPRINTGUID
  2
{CAE96850-42E0-4DB9-901B-9121AC2C202A}
  9
$VERSIONGUID
  2
{FAEB1C32-E019-11D5-929B-00C0DF256EC4}
  9
$EXTNAMES
290
     1
  9
$PSVPSCALE
 40
0.0
  9
$OLESTARTUP
290
     0
  0
ENDSEC
  0
SECTION
  2
CLASSES
  0
CLASS
  1
ACDBDICTIONARYWDFLT
  2
AcDbDictionaryWithDefault
  3
ObjectDBX Classes
 90
        0
280
     0
281
     0
  0
CLASS
  1
VISUALSTYLE
  2
AcDbVisualStyle
  3
ObjectDBX Classes
 90
     4095
280
     0
281
     0
  0
CLASS
  1

  2
exOdDbCircle
  3

 90
        0
280
     0
281
     1
  0
CLASS
  1

  2
exOdDbSpline
  3

 90
        0
280
     0
281
     1
  0
CLASS
  1

  2
exOdDbPolyline
  3

 90
        0
280
     0
281
     1
  0
CLASS
  1
ACDBPLACEHOLDER
  2
AcDbPlaceHolder
  3
ObjectDBX Classes
 90
        0
280
     0
281
     0
  0
CLASS
  1
LAYOUT
  2
AcDbLayout
  3
ObjectDBX Classes
 90
        0
280
     0
281
     0
  0
ENDSEC
  0
SECTION
  2
TABLES
  0
TABLE
  2
VPORT
  5
8
330
0
100
AcDbSymbolTable
 70
     1
  0
VPORT
  5
29
330
8
100
AcDbSymbolTableRecord
100
AcDbViewportTableRecord
  2
*Active
 70
     0
 10
0.0
 20
0.0
 11
1.0
 21
1.0
 12
112.204828518157
 22
134.7493218401266
 13
0.0
 23
0.0
 14
0.5
 24
0.5
 15
0.5
 25
0.5
 16
0.0
 26
0.0
 36
1.0
 17
0.0
 27
0.0
 37
0.0
 40
303.6898231907944
 41
1.60267857142857
 42
50.0
 43
0.0
 44
0.0
 50
0.0
 51
0.0
 71
     0
 72
   100
 73
     1
 74
     3
 75
     0
 76
     0
 77
     0
 78
     0
281
     0
 65
     1
110
0.0
120
0.0
130
0.0
111
1.0
121
0.0
131
0.0
112
0.0
122
1.0
132
0.0
 79
     0
146
0.0
  0
ENDTAB
  0
TABLE
  2
LTYPE
  5
5
330
0
100
AcDbSymbolTable
 70
     8
  0
LTYPE
  5
14
330
5
100
AcDbSymbolTableRecord
100
AcDbLinetypeTableRecord
  2
ByBlock
 70
     0
  3

 72
    65
 73
     0
 40
0.0
  0
LTYPE
  5
15
330
5
100
AcDbSymbolTableRecord
100
AcDbLinetypeTableRecord
  2
ByLayer
 70
     0
  3

 72
    65
 73
     0
 40
0.0
  0
LTYPE
  5
16
330
5
100
AcDbSymbolTableRecord
100
AcDbLinetypeTableRecord
  2
Continuous
 70
     0
  3
Solid line
 72
    65
 73
     0
 40
0.0
  0
LTYPE
  5
3B
330
5
100
AcDbSymbolTableRecord
100
AcDbLinetypeTableRecord
  2
DASHED
 70
     0
  3
Dashed
 72
    65
 73
     2
 40
15.0
 49
7.0
 74
     0
 49
-8.0
 74
     0
  0
LTYPE
  5
3C
330
5
100
AcDbSymbolTableRecord
100
AcDbLinetypeTableRecord
  2
DOTTED
 70
     0
  3
Dotted
 72
    65
 73
     2
 40
1.0
 49
0.0
 74
     0
 49
-1.0
 74
     0
  0
LTYPE
  5
3D
330
5
100
AcDbSymbolTableRecord
100
AcDbLinetypeTableRecord
  2
DOT_CENTER
 70
     0
  3
Dot_Center
 72
    65
 73
     4
 40
14.0
 49
12.0
 74
     0
 49
-1.0
 74
     0
 49
0.0
 74
     0
 49
-1.0
 74
     0
  0
LTYPE
  5
3E
330
5
100
AcDbSymbolTableRecord
100
AcDbLinetypeTableRecord
  2
LONG_DASHED
 70
     0
  3
Long_Dashed
 72
    65
 73
     2
 40
15.0
 49
10.0
 74
     0
 49
-5.0
 74
     0
  0
LTYPE
  5
3F
330
5
100
AcDbSymbolTableRecord
100
AcDbLinetypeTableRecord
  2
DASH_CENTER
 70
     0
  3
Dash_Center
 72
    65
 73
     4
 40
14.0
 49
11.0
 74
     0
 49
-1.0
 74
     0
 49
1.0
 74
     0
 49
-1.0
 74
     0
  0
LTYPE
  5
40
330
5
100
AcDbSymbolTableRecord
100
AcDbLinetypeTableRecord
  2
PHANTOM
 70
     0
  3
Phantom
 72
    65
 73
     6
 40
13.0
 49
10.0
 74
     0
 49
-1.0
 74
     0
 49
0.0
 74
     0
 49
-1.0
 74
     0
 49
0.0
 74
     0
 49
-1.0
 74
     0
  0
LTYPE
  5
41
330
5
100
AcDbSymbolTableRecord
100
AcDbLinetypeTableRecord
  2
CENTER_DASH_DASH
 70
     0
  3
Center_Dash_Dash
 72
    65
 73
     6
 40
14.0
 49
9.0
 74
     0
 49
-1.0
 74
     0
 49
1.0
 74
     0
 49
-1.0
 74
     0
 49
1.0
 74
     0
 49
-1.0
 74
     0
  0
ENDTAB
  0
TABLE
  2
LAYER
  5
2
330
0
100
AcDbSymbolTable
 70
     2
  0
LAYER
  5
10
330
2
100
AcDbSymbolTableRecord
100
AcDbLayerTableRecord
  2
0
 70
     0
 62
     7
  6
Continuous
370
    -3
390
F
  0
LAYER
  5
42
330
2
100
AcDbSymbolTableRecord
100
AcDbLayerTableRecord
  2
1
 70
     0
 62
     7
  6
Continuous
370
    -3
390
F
  0
ENDTAB
  0
TABLE
  2
STYLE
  5
3
330
0
100
AcDbSymbolTable
 70
     2
  0
STYLE
  5
11
330
3
100
AcDbSymbolTableRecord
100
AcDbTextStyleTableRecord
  2
Standard
 70
     0
 40
0.0
 41
1.0
 50
0.0
 71
     0
 42
0.2
  3
txt
  4

  0
STYLE
  5
526
330
3
100
AcDbSymbolTableRecord
100
AcDbTextStyleTableRecord
  2
CONVERTER_11
 70
     0
 40
0.0
 41
0.9
 50
15.0
 71
     0
 42
0.2
  3
txt.shx
  4

  0
ENDTAB
  0
TABLE
  2
VIEW
  5
6
330
0
100
AcDbSymbolTable
 70
     0
  0
ENDTAB
  0
TABLE
  2
UCS
  5
7
330
0
100
AcDbSymbolTable
 70
     0
  0
ENDTAB
  0
TABLE
  2
APPID
  5
9
330
0
100
AcDbSymbolTable
 70
     1
  0
APPID
  5
12
330
9
100
AcDbSymbolTableRecord
100
AcDbRegAppTableRecord
  2
ACAD
 70
     0
  0
ENDTAB
  0
TABLE
  2
DIMSTYLE
  5
A
330
0
100
AcDbSymbolTable
 70
     6
100
AcDbDimStyleTable
  0
DIMSTYLE
105
27
330
A
100
AcDbSymbolTableRecord
100
AcDbDimStyleTableRecord
  2
Standard
 70
     0
340
11
  0
DIMSTYLE
105
530
102
{ACAD_REACTORS
330
531
102
}
330
A
100
AcDbSymbolTableRecord
100
AcDbDimStyleTableRecord
  2
ME10_DIM_10
 70
     0
  3
(<>)
 41
3.0
 42
0.5
 44
1.0
 73
     0
 74
     0
 77
     1
 78
     8
140
3.0
147
0.8
172
     1
173
     1
176
     2
177
     2
178
     2
271
     0
340
526
343
52A
344
52A
  0
DIMSTYLE
105
53D
102
{ACAD_REACTORS
330
53E
102
}
330
A
100
AcDbSymbolTableRecord
100
AcDbDimStyleTableRecord
  2
ME10_DIM_11
 70
     0
 41
3.0
 42
0.5
 44
1.0
 73
     0
 74
     0
 77
     1
 78
     8
140
3.0
147
0.8
172
     1
173
     1
176
     2
177
     2
178
     2
271
     2
340
526
343
52A
344
52A
  0
DIMSTYLE
105
54A
102
{ACAD_REACTORS
330
54B
102
}
330
A
100
AcDbSymbolTableRecord
100
AcDbDimStyleTableRecord
  2
ME10_DIM_12
 70
     0
 41
3.0
 42
0.5
 44
1.0
 73
     0
 74
     0
 77
     1
 78
     8
140
3.0
147
0.8
172
     1
173
     1
176
     2
177
     2
178
     2
271
     2
340
526
343
52A
344
52A
  0
DIMSTYLE
105
557
102
{ACAD_REACTORS
330
558
102
}
330
A
100
AcDbSymbolTableRecord
100
AcDbDimStyleTableRecord
  2
ME10_DIM_13
 70
     0
 41
3.0
 42
0.5
 44
1.0
 73
     0
 74
     0
 77
     1
 78
     8
140
3.0
147
0.8
172
     1
173
     1
176
     2
177
     2
178
     2
271
     2
340
526
343
52A
344
52A
  0
DIMSTYLE
105
564
102
{ACAD_REACTORS
330
565
102
}
330
A
100
AcDbSymbolTableRecord
100
AcDbDimStyleTableRecord
  2
ME10_DIM_14
 70
     0
 41
3.2
 42
0.5
 44
1.5
 73
     0
 74
     0
 77
     1
 78
     8
140
3.2
147
1.0
172
     1
173
     1
176
     2
177
     2
178
     2
271
     2
340
526
343
52A
344
52A
  0
ENDTAB
  0
TABLE
  2
BLOCK_RECORD
  5
1
330
0
100
AcDbSymbolTable
 70
     7
  0
BLOCK_RECORD
  5
1F
330
1
100
AcDbSymbolTableRecord
100
AcDbBlockTableRecord
  2
*Model_Space
340
22
  0
BLOCK_RECORD
  5
1B
330
1
100
AcDbSymbolTableRecord
100
AcDbBlockTableRecord
  2
*Paper_Space
340
1E
  0
BLOCK_RECORD
  5
23
330
1
100
AcDbSymbolTableRecord
100
AcDbBlockTableRecord
  2
*Paper_Space0
340
26
  0
BLOCK_RECORD
  5
51E
330
1
100
AcDbSymbolTableRecord
100
AcDbBlockTableRecord
  2
*D1
340
0
  0
BLOCK_RECORD
  5
52A
330
1
100
AcDbSymbolTableRecord
100
AcDbBlockTableRecord
  2
_OPEN30
340
0
  0
BLOCK_RECORD
  5
532
330
1
100
AcDbSymbolTableRecord
100
AcDbBlockTableRecord
  2
*D3
340
0
  0
BLOCK_RECORD
  5
53F
330
1
100
AcDbSymbolTableRecord
100
AcDbBlockTableRecord
  2
*D4
340
0
  0
BLOCK_RECORD
  5
54C
330
1
100
AcDbSymbolTableRecord
100
AcDbBlockTableRecord
  2
*D5
340
0
  0
BLOCK_RECORD
  5
559
330
1
100
AcDbSymbolTableRecord
100
AcDbBlockTableRecord
  2
*D6
340
0
  0
ENDTAB
  0
ENDSEC
  0
SECTION
  2
BLOCKS
  0
BLOCK
  5
20
330
1F
100
AcDbEntity
  8
0
100
AcDbBlockBegin
  2
*Model_Space
 70
     0
 10
0.0
 20
0.0
 30
0.0
  3
*Model_Space
  1

  0
ENDBLK
  5
21
330
1F
100
AcDbEntity
  8
0
100
AcDbBlockEnd
  0
BLOCK
  5
1C
330
1B
100
AcDbEntity
 67
     1
  8
0
100
AcDbBlockBegin
  2
*Paper_Space
 70
     0
 10
0.0
 20
0.0
 30
0.0
  3
*Paper_Space
  1

  0
ENDBLK
  5
1D
330
1B
100
AcDbEntity
 67
     1
  8
0
100
AcDbBlockEnd
  0
BLOCK
  5
24
330
23
100
AcDbEntity
  8
0
100
AcDbBlockBegin
  2
*Paper_Space0
 70
     0
 10
0.0
 20
0.0
 30
0.0
  3
*Paper_Space0
  1

  0
ENDBLK
  5
25
330
23
100
AcDbEntity
  8
0
100
AcDbBlockEnd
  0
BLOCK
  5
528
330
51E
100
AcDbEntity
  8
0
100
AcDbBlockBegin
  2
*D1
 70
     1
 10
0.0
 20
0.0
 30
0.0
  3
*D1
  1

  0
LINE
  5
51F
330
51E
100
AcDbEntity
  8
1
  6
Continuous
 62
     2
100
AcDbLine
 10
173.1736867216931
 20
71.70849311703822
 30
0.0
 11
173.1736867216931
 21
163.2084931170382
 31
0.0
  0
LINE
  5
520
330
51E
100
AcDbEntity
  8
1
  6
Continuous
 62
     2
100
AcDbLine
 10
77.15011041009512
 20
163.2084931170382
 30
0.0
 11
174.1736867216931
 21
163.2084931170382
 31
0.0
  0
LINE
  5
521
330
51E
100
AcDbEntity
  8
1
  6
Continuous
 62
     2
100
AcDbLine
 10
137.1501104100951
 20
71.70849311703822
 30
0.0
 11
174.1736867216931
 21
71.70849311703822
 31
0.0
  0
LINE
  5
522
330
51E
100
AcDbEntity
  8
1
 62
     2
100
AcDbLine
 10
173.1736867216931
 20
71.70849311703822
 30
0.0
 11
172.3698391443997
 21
74.70849311703822
 31
0.0
  0
LINE
  5
523
330
51E
100
AcDbEntity
  8
1
 62
     2
100
AcDbLine
 10
173.1736867216931
 20
71.70849311703822
 30
0.0
 11
173.9775342989864
 21
74.70849311703822
 31
0.0
  0
LINE
  5
524
330
51E
100
AcDbEntity
  8
1
 62
     2
100
AcDbLine
 10
173.1736867216931
 20
163.2084931170382
 30
0.0
 11
173.9775342989864
 21
160.2084931170382
 31
0.0
  0
LINE
  5
525
330
51E
100
AcDbEntity
  8
1
 62
     2
100
AcDbLine
 10
173.1736867216931
 20
163.2084931170382
 30
0.0
 11
172.3698391443997
 21
160.2084931170382
 31
0.0
  0
MTEXT
  5
527
330
51E
100
AcDbEntity
  8
1
 62
     2
100
AcDbMText
 10
172.3736867216931
 20
120.8616210833386
 30
0.0
 40
3.0
 41
0.0
 71
     7
 72
     1
  1
\C2;(\C2;92\C2;)
  7
CONVERTER_11
 11
0.0
 21
1.0
 31
0.0
 73
     1
 44
0.45454545454545
  0
ENDBLK
  5
529
330
51E
100
AcDbEntity
  8
0
100
AcDbBlockEnd
  0
BLOCK
  5
52B
330
52A
100
AcDbEntity
  8
0
100
AcDbBlockBegin
  2
_OPEN30
 70
     0
 10
0.0
 20
0.0
 30
0.0
  3
_OPEN30
  1

  0
LINE
  5
52D
330
52A
100
AcDbEntity
  8
0
  6
ByBlock
 62
     0
370
    -2
100
AcDbLine
 10
-1.0
 20
0.267949
 30
0.0
 11
0.0
 21
0.0
 31
0.0
  0
LINE
  5
52E
330
52A
100
AcDbEntity
  8
0
  6
ByBlock
 62
     0
370
    -2
100
AcDbLine
 10
0.0
 20
0.0
 30
0.0
 11
-1.0
 21
-0.267949
 31
0.0
  0
LINE
  5
52F
330
52A
100
AcDbEntity
  8
0
  6
ByBlock
 62
     0
370
    -2
100
AcDbLine
 10
0.0
 20
0.0
 30
0.0
 11
-1.0
 21
0.0
 31
0.0
  0
ENDBLK
  5
52C
330
52A
100
AcDbEntity
  8
0
100
AcDbBlockEnd
  0
BLOCK
  5
53B
330
532
100
AcDbEntity
  8
0
100
AcDbBlockBegin
  2
*D3
 70
     1
 10
0.0
 20
0.0
 30
0.0
  3
*D3
  1

  0
LINE
  5
533
330
532
100
AcDbEntity
  8
1
  6
Continuous
 62
     2
100
AcDbLine
 10
173.1736867216931
 20
179.9677285060452
 30
0.0
 11
173.1736867216931
 21
268.9677285060451
 31
0.0
  0
LINE
  5
534
330
532
100
AcDbEntity
  8
1
  6
Continuous
 62
     2
100
AcDbLine
 10
114.1501104100955
 20
268.9677285060451
 30
0.0
 11
174.1736867216931
 21
268.9677285060451
 31
0.0
  0
LINE
  5
535
330
532
100
AcDbEntity
  8
1
  6
Continuous
 62
     2
100
AcDbLine
 10
114.1501104100955
 20
179.9677285060452
 30
0.0
 11
174.1736867216931
 21
179.9677285060452
 31
0.0
  0
LINE
  5
536
330
532
100
AcDbEntity
  8
1
 62
     2
100
AcDbLine
 10
173.1736867216931
 20
179.9677285060452
 30
0.0
 11
172.3698391443997
 21
182.9677285060452
 31
0.0
  0
LINE
  5
537
330
532
100
AcDbEntity
  8
1
 62
     2
100
AcDbLine
 10
173.1736867216931
 20
179.9677285060452
 30
0.0
 11
173.9775342989864
 21
182.9677285060452
 31
0.0
  0
LINE
  5
538
330
532
100
AcDbEntity
  8
1
 62
     2
100
AcDbLine
 10
173.1736867216931
 20
268.9677285060451
 30
0.0
 11
173.9775342989864
 21
265.9677285060451
 31
0.0
  0
LINE
  5
539
330
532
100
AcDbEntity
  8
1
 62
     2
100
AcDbLine
 10
173.1736867216931
 20
268.9677285060451
 30
0.0
 11
172.3698391443997
 21
265.9677285060451
 31
0.0
  0
MTEXT
  5
53A
330
532
100
AcDbEntity
  8
1
 62
     2
100
AcDbMText
 10
172.3736867216931
 20
247.3622450626954
 30
0.0
 40
3.0
 41
0.0
 71
     7
 72
     1
  1
89
  7
CONVERTER_11
 11
0.0
 21
1.0
 31
0.0
 73
     1
 44
0.45454545454545
  0
ENDBLK
  5
53C
330
532
100
AcDbEntity
  8
0
100
AcDbBlockEnd
  0
BLOCK
  5
548
330
53F
100
AcDbEntity
  8
0
100
AcDbBlockBegin
  2
*D4
 70
     1
 10
0.0
 20
0.0
 30
0.0
  3
*D4
  1

  0
LINE
  5
540
330
53F
100
AcDbEntity
  8
1
  6
Continuous
 62
     2
100
AcDbLine
 10
29.15011041009507
 20
57.81124484269574
 30
0.0
 11
194.1501104100951
 21
57.81124484269574
 31
0.0
  0
LINE
  5
541
330
53F
100
AcDbEntity
  8
1
  6
Continuous
 62
     2
100
AcDbLine
 10
194.1501104100951
 20
82.80849311703838
 30
0.0
 11
194.1501104100951
 21
56.81124484269574
 31
0.0
  0
LINE
  5
542
330
53F
100
AcDbEntity
  8
1
  6
Continuous
 62
     2
100
AcDbLine
 10
29.15011041009507
 20
82.80849311703838
 30
0.0
 11
29.15011041009507
 21
56.81124484269574
 31
0.0
  0
LINE
  5
543
330
53F
100
AcDbEntity
  8
1
 62
     2
100
AcDbLine
 10
29.15011041009507
 20
57.81124484269574
 30
0.0
 11
32.15011041009507
 21
58.6150924199891
 31
0.0
  0
LINE
  5
544
330
53F
100
AcDbEntity
  8
1
 62
     2
100
AcDbLine
 10
29.15011041009507
 20
57.81124484269574
 30
0.0
 11
32.15011041009507
 21
57.00739726540237
 31
0.0
  0
LINE
  5
545
330
53F
100
AcDbEntity
  8
1
 62
     2
100
AcDbLine
 10
194.1501104100951
 20
57.81124484269574
 30
0.0
 11
191.1501104100951
 21
57.00739726540237
 31
0.0
  0
LINE
  5
546
330
53F
100
AcDbEntity
  8
1
 62
     2
100
AcDbLine
 10
194.1501104100951
 20
57.81124484269574
 30
0.0
 11
191.1501104100951
 21
58.6150924199891
 31
0.0
  0
MTEXT
  5
547
330
53F
100
AcDbEntity
  8
1
 62
     2
100
AcDbMText
 10
108.0981866214484
 20
58.61124484269573
 30
0.0
 40
3.0
 41
0.0
 71
     7
 72
     1
  1
165
  7
CONVERTER_11
 11
0.9999999999970619
 21
2.424068405545306E-6
 31
0.0
 73
     1
 44
0.45454545454545
  0
ENDBLK
  5
549
330
53F
100
AcDbEntity
  8
0
100
AcDbBlockEnd
  0
BLOCK
  5
555
330
54C
100
AcDbEntity
  8
0
100
AcDbBlockBegin
  2
*D5
 70
     1
 10
0.0
 20
0.0
 30
0.0
  3
*D5
  1

  0
LINE
  5
54D
330
54C
100
AcDbEntity
  8
1
  6
Continuous
 62
     2
100
AcDbLine
 10
162.6215775070779
 20
71.70849311703824
 30
0.0
 11
162.6215775070779
 21
94.70849311703824
 31
0.0
  0
LINE
  5
54E
330
54C
100
AcDbEntity
  8
1
  6
Continuous
 62
     2
100
AcDbLine
 10
166.926739508508
 20
94.70849311703824
 30
0.0
 11
161.6215775070779
 21
94.70849311703824
 31
0.0
  0
LINE
  5
54F
330
54C
100
AcDbEntity
  8
1
  6
Continuous
 62
     2
100
AcDbLine
 10
137.1501104100948
 20
71.70849311703824
 30
0.0
 11
163.6215775070779
 21
71.70849311703824
 31
0.0
  0
LINE
  5
550
330
54C
100
AcDbEntity
  8
1
 62
     2
100
AcDbLine
 10
162.6215775070779
 20
94.70849311703824
 30
0.0
 11
163.4254250843713
 21
91.70849311703824
 31
0.0
  0
LINE
  5
551
330
54C
100
AcDbEntity
  8
1
 62
     2
100
AcDbLine
 10
162.6215775070779
 20
94.70849311703824
 30
0.0
 11
161.8177299297846
 21
91.70849311703824
 31
0.0
  0
LINE
  5
552
330
54C
100
AcDbEntity
  8
1
 62
     2
100
AcDbLine
 10
162.6215775070779
 20
71.70849311703824
 30
0.0
 11
161.8177299297846
 21
74.70849311703824
 31
0.0
  0
LINE
  5
553
330
54C
100
AcDbEntity
  8
1
 62
     2
100
AcDbLine
 10
162.6215775070779
 20
71.70849311703824
 30
0.0
 11
163.4254250843713
 21
74.70849311703824
 31
0.0
  0
MTEXT
  5
554
330
54C
100
AcDbEntity
  8
1
 62
     2
100
AcDbMText
 10
161.821577507078
 20
75.47192059980432
 30
0.0
 40
3.0
 41
0.0
 71
     7
 72
     1
  1
23
  7
CONVERTER_11
 11
0.0
 21
1.0
 31
0.0
 73
     1
 44
0.45454545454545
  0
ENDBLK
  5
556
330
54C
100
AcDbEntity
  8
0
100
AcDbBlockEnd
  0
BLOCK
  5
562
330
559
100
AcDbEntity
  8
0
100
AcDbBlockBegin
  2
*D6
 70
     1
 10
0.0
 20
0.0
 30
0.0
  3
*D6
  1

  0
LINE
  5
55A
330
559
100
AcDbEntity
  8
1
  6
Continuous
 62
     2
100
AcDbLine
 10
29.15011041009507
 20
71.70849311703819
 30
0.0
 11
40.15011041009507
 21
71.70849311703819
 31
0.0
  0
LINE
  5
55B
330
559
100
AcDbEntity
  8
1
  6
Continuous
 62
     2
100
AcDbLine
 10
29.15011041009507
 20
82.80849311703838
 30
0.0
 11
29.15011041009507
 21
70.20849311703819
 31
0.0
  0
LINE
  5
55C
330
559
100
AcDbEntity
  8
1
  6
Continuous
 62
     2
100
AcDbLine
 10
40.15011041009507
 20
80.98799311703817
 30
0.0
 11
40.15011041009507
 21
70.20849311703819
 31
0.0
  0
LINE
  5
55D
330
559
100
AcDbEntity
  8
1
 62
     2
100
AcDbLine
 10
29.15011041009507
 20
71.70849311703819
 30
0.0
 11
32.35011041009507
 21
72.56593053281777
 31
0.0
  0
LINE
  5
55E
330
559
100
AcDbEntity
  8
1
 62
     2
100
AcDbLine
 10
29.15011041009507
 20
71.70849311703819
 30
0.0
 11
32.35011041009507
 21
70.8510557012586
 31
0.0
  0
LINE
  5
55F
330
559
100
AcDbEntity
  8
1
 62
     2
100
AcDbLine
 10
40.15011041009507
 20
71.70849311703819
 30
0.0
 11
36.95011041009506
 21
70.8510557012586
 31
0.0
  0
LINE
  5
560
330
559
100
AcDbEntity
  8
1
 62
     2
100
AcDbLine
 10
40.15011041009507
 20
71.70849311703819
 30
0.0
 11
36.95011041009506
 21
72.56593053281779
 31
0.0
  0
MTEXT
  5
561
330
559
100
AcDbEntity
  8
1
 62
     2
100
AcDbMText
 10
32.78139170220527
 20
72.70849311703822
 30
0.0
 40
3.2
 41
0.0
 71
     7
 72
     1
  1
11
  7
CONVERTER_11
 11
0.9999999999970619
 21
2.424068405545306E-6
 31
0.0
 73
     1
 44
0.45454545454545
  0
ENDBLK
  5
563
330
559
100
AcDbEntity
  8
0
100
AcDbBlockEnd
  0
ENDSEC
  0
SECTION
  2
ENTITIES
  0
LINE
  5
43
330
1F
100
AcDbEntity
  8
1
  6
Continuous
 62
     2
100
AcDbLine
 10
155.8376104100951
 20
-2.66650688296175
 30
0.0
 11
161.0876104100951
 21
-2.66650688296175
 31
0.0
  0
LINE
  5
44
330
1F
100
AcDbEntity
  8
1
  6
Continuous
 62
     2
100
AcDbLine
 10
158.5876104100951
 20
6.45849311703824
 30
0.0
 11
158.5876104100951
 21
-2.66650688296175
 31
0.0
  0
LINE
  5
45
330
1F
100
AcDbEntity
  8
1
  6
Continuous
 62
     2
100
AcDbLine
 10
156.7126104100951
 20
2.70849311703825
 30
0.0
 11
160.5876104100951
 21
2.70849311703825
 31
0.0
  0
LINE
  5
46
330
1F
100
AcDbEntity
  8
1
  6
Continuous
 62
     2
100
AcDbLine
 10
154.9626104100951
 20
2.33349311703825
 30
0.0
 11
156.3376104100951
 21
0.83349311703824
 31
0.0
  0
LINE
  5
47
330
1F
100
AcDbEntity
  8
1
  6
Continuous
 62
     2
100
AcDbLine
 10
154.4626104100951
 20
4.58349311703824
 30
0.0
 11
154.4626104100951
 21
6.45849311703824
 31
0.0
  0
LINE
  5
48
330
1F
100
AcDbEntity
  8
1
  6
Continuous
 62
     2
100
AcDbLine
 10
155.8376104100951
 20
4.58349311703824
 30
0.0
 11
152.7126104100951
 21
4.58349311703824
 31
0.0
  0
LINE
  5
49
330
1F
100
AcDbEntity
  8
1
  6
Continuous
 62
     2
100
AcDbLine
 10
154.7126104100951
 20
2.95849311703825
 30
0.0
 11
155.8376104100951
 21
4.58349311703824
 31
0.0
  0
LINE
  5
4A
330
1F
100
AcDbEntity
  8
1
  6
Continuous
 62
     2
100
AcDbLine
 10
153.3376104100951
 20
1.45849311703824
 30
0.0
 11
154.7126104100951
 21
2.95849311703825
 31
0.0
  0
LINE
  5
4B
330
1F
100
AcDbEntity
  8
1
  6
Continuous
 62
     2
100
AcDbLine
 10
152.2126104100951
 20
0.45849311703824
 30
0.0
 11
153.3376104100951
 21
1.45849311703824
 31
0.0
  0
LINE
  5
4C
330
1F
100
AcDbEntity
  8
1
  6
Continuous
 62
     2
100
AcDbLine
 10
154.4626104100951
 20
-2.91650688296175
 30
0.0
 11
154.4626104100951
 21
2.70849311703825
 31
0.0
  0
LINE
  5
4D
330
1F
100
AcDbEntity
  8
1
  6
Continuous
 62
     2
100
AcDbLine
 10
146.7126104100951
 20
0.45849311703824
 30
0.0
 11
143.8376104100951
 21
-2.91650688296175
 31
0.0
  0
LINE
  5
4E
330
1F
100
AcDbEntity
  8
1
  6
Continuous
 62
     2
100
AcDbLine
 10
149.2126104100951
 20
-2.29150688296175
 30
0.0
 11
148.0876104100951
 21
-1.04150688296176
 31
0.0
  0
LINE
  5
4F
330
1F
100
AcDbEntity
  8
1
  6
Continuous
 62
     2
100
AcDbLine
 10
149.9626104100951
 20
-3.29150688296175
 30
0.0
 11
149.2126104100951
 21
-2.29150688296175
 31
0.0
  0
LINE
  5
50
330
1F
100
AcDbEntity
  8
1
  6
Continuous
 62
     2
100
AcDbLine
 10
143.0876104100951
 20
-2.91650688296175
 30
0.0
 11
149.2126104100951
 21
-2.29150688296175
 31
0.0
  0
LINE
  5
51
330
1F
100
AcDbEntity
  8
1
  6
Continuous
 62
     2
100
AcDbLine
 10
143.5876104100951
 20
0.83349311703824
 30
0.0
 11
149.9626104100951
 21
0.83349311703824
 31
0.0
  0
LINE
  5
52
330
1F
100
AcDbEntity
  8
1
  6
Continuous
 62
     2
100
AcDbLine
 10
144.7126104100951
 20
2.33349311703825
 30
0.0
 11
148.5876104100951
 21
2.33349311703825
 31
0.0
  0
LINE
  5
53
330
1F
100
AcDbEntity
  8
1
  6
Continuous
 62
     2
100
AcDbLine
 10
146.7126104100951
 20
6.45849311703824
 30
0.0
 11
151.0876104100951
 21
1.70849311703824
 31
0.0
  0
LINE
  5
54
330
1F
100
AcDbEntity
  8
1
  6
Continuous
 62
     2
100
AcDbLine
 10
146.7126104100951
 20
6.45849311703824
 30
0.0
 11
142.2126104100951
 21
1.70849311703824
 31
0.0
  0
LINE
  5
55
330
1F
100
AcDbEntity
  8
1
  6
Continuous
 62
     2
100
AcDbLine
 10
140.2126104100951
 20
-2.91650688296175
 30
0.0
 11
141.0876104100951
 21
-2.04150688296175
 31
0.0
  0
LINE
  5
56
330
1F
100
AcDbEntity
  8
1
  6
Continuous
 62
     2
100
AcDbLine
 10
139.2126104100951
 20
-1.66650688296176
 30
0.0
 11
140.2126104100951
 21
-2.91650688296175
 31
0.0
  0
LINE
  5
57
330
1F
100
AcDbEntity
  8
1
  6
Continuous
 62
     2
100
AcDbLine
 10
138.0876104100951
 20
0.45849311703824
 30
0.0
 11
139.2126104100951
 21
-1.66650688296176
 31
0.0
  0
LINE
  5
58
330
1F
100
AcDbEntity
  8
1
  6
Continuous
 62
     2
100
AcDbLine
 10
137.4626104100951
 20
2.95849311703825
 30
0.0
 11
138.0876104100951
 21
0.45849311703824
 31
0.0
  0
LINE
  5
59
330
1F
100
AcDbEntity
  8
1
  6
Continuous
 62
     2
100
AcDbLine
 10
137.2126104100951
 20
6.70849311703824
 30
0.0
 11
137.4626104100951
 21
2.95849311703825
 31
0.0
  0
LINE
  5
5A
330
1F
100
AcDbEntity
  8
1
  6
Continuous
 62
     2
100
AcDbLine
 10
138.8376104100951
 20
5.45849311703824
 30
0.0
 11
138.0876104100951
 21
6.45849311703824
 31
0.0
  0
LINE
  5
5B
330
1F
100
AcDbEntity
  8
1
  6
Continuous
 62
     2
100
AcDbLine
 10
132.2126104100951
 20
4.58349311703824
 30
0.0
 11
140.2126104100951
 21
4.58349311703824
 31
0.0
  0
LINE
  5
5C
330
1F
100
AcDbEntity
  8
1
  6
Continuous
 62
     2
100
AcDbLine
 10
134.7126104100951
 20
2.08349311703825
 30
0.0
 11
134.7126104100951
 21
-1.41650688296176
 31
0.0
  0
LINE
  5
5D
330
1F
100
AcDbEntity
  8
1
  6
Continuous
 62
     2
100
AcDbLine
 10
136.7126104100951
 20
2.08349311703825
 30
0.0
 11
132.7126104100951
 21
2.08349311703825
 31
0.0
  0
LINE
  5
5E
330
1F
100
AcDbEntity
  8
1
  6
Continuous
 62
     2
100
AcDbLine
 10
132.7126104100951
 20
-2.04150688296175
 30
0.0
 11
136.7126104100951
 21
-0.79150688296176
 31
0.0
  0
LINE
  5
5F
330
1F
100
AcDbEntity
  8
1
  6
Continuous
 62
     2
100
AcDbLine
 10
129.7126104100951
 20
-0.79150688296176
 30
0.0
 11
130.8376104100951
 21
-2.91650688296175
 31
0.0
  0
LINE
  5
60
330
1F
100
AcDbEntity
  8
1
  6
Continuous
 62
     2
100
AcDbLine
 10
128.3376104100951
 20
2.08349311703825
 30
0.0
 11
129.7126104100951
 21
-0.79150688296176
 31
0.0
  0
LINE
  5
61
330
1F
100
AcDbEntity
  8
1
  6
Continuous
 62
     2
100
AcDbLine
 10
127.4626104100951
 20
-0.16650688296176
 30
0.0
 11
128.3376104100951
 21
2.08349311703825
 31
0.0
  0
LINE
  5
62
330
1F
100
AcDbEntity
  8
1
  6
Continuous
 62
     2
100
AcDbLine
 10
126.3376104100951
 20
-1.66650688296176
 30
0.0
 11
127.4626104100951
 21
-0.16650688296176
 31
0.0
  0
LINE
  5
63
330
1F
100
AcDbEntity
  8
1
  6
Continuous
 62
     2
100
AcDbLine
 10
125.5876104100951
 20
-2.91650688296175
 30
0.0
 11
126.3376104100951
 21
-1.66650688296176
 31
0.0
  0
LINE
  5
64
330
1F
100
AcDbEntity
  8
1
  6
Continuous
 62
     2
100
AcDbLine
 10
128.3376104100951
 20
6.70849311703824
 30
0.0
 11
128.3376104100951
 21
-3.29150688296175
 31
0.0
  0
LINE
  5
65
330
1F
100
AcDbEntity
  8
1
  6
Continuous
 62
     2
100
AcDbLine
 10
130.8376104100951
 20
2.08349311703825
 30
0.0
 11
126.0876104100951
 21
2.08349311703825
 31
0.0
  0
LINE
  5
66
330
1F
100
AcDbEntity
  8
1
  6
Continuous
 62
     2
100
AcDbLine
 10
126.9626104100951
 20
4.20849311703824
 30
0.0
 11
130.5876104100951
 21
4.20849311703824
 31
0.0
  0
LINE
  5
67
330
1F
100
AcDbEntity
  8
1
  6
Continuous
 62
     2
100
AcDbLine
 10
126.9626104100951
 20
4.20849311703824
 30
0.0
 11
127.2126104100951
 21
5.83349311703824
 31
0.0
  0
LINE
  5
68
330
1F
100
AcDbEntity
  8
1
  6
Continuous
 62
     2
100
AcDbLine
 10
126.0876104100951
 20
2.70849311703825
 30
0.0
 11
126.9626104100951
 21
4.20849311703824
 31
0.0
  0
LINE
  5
69
330
1F
100
AcDbEntity
  8
1
  6
Continuous
 62
     2
100
AcDbLine
 10
124.2126104100951
 20
3.95849311703825
 30
0.0
 11
125.5876104100951
 21
1.45849311703824
 31
0.0
  0
LINE
  5
6A
330
1F
100
AcDbEntity
  8
1
  6
Continuous
 62
     2
100
AcDbLine
 10
122.4626104100951
 20
-0.41650688296176
 30
0.0
 11
124.2126104100951
 21
3.95849311703825
 31
0.0
  0
LINE
  5
6B
330
1F
100
AcDbEntity
  8
1
  6
Continuous
 62
     2
100
AcDbLine
 10
125.5876104100951
 20
3.95849311703825
 30
0.0
 11
122.7126104100951
 21
3.95849311703825
 31
0.0
  0
LINE
  5
6C
330
1F
100
AcDbEntity
  8
1
  6
Continuous
 62
     2
100
AcDbLine
 10
124.2126104100951
 20
-2.91650688296175
 30
0.0
 11
124.2126104100951
 21
6.70849311703824
 31
0.0
  0
LINE
  5
6D
330
1F
100
AcDbEntity
  8
1
  6
Continuous
 62
     2
100
AcDbLine
 10
117.4626104100951
 20
4.58349311703824
 30
0.0
 11
120.2126104100951
 21
4.58349311703824
 31
0.0
  0
LINE
  5
6E
330
1F
100
AcDbEntity
  8
1
  6
Continuous
 62
     2
100
AcDbLine
 10
117.4626104100951
 20
2.95849311703825
 30
0.0
 11
120.2126104100951
 21
2.95849311703825
 31
0.0
  0
LINE
  5
6F
330
1F
100
AcDbEntity
  8
1
  6
Continuous
 62
     2
100
AcDbLine
 10
117.4626104100951
 20
6.08349311703824
 30
0.0
 11
117.4626104100951
 21
2.95849311703825
 31
0.0
  0
LINE
  5
70
330
1F
100
AcDbEntity
  8
1
  6
Continuous
 62
     2
100
AcDbLine
 10
120.2126104100951
 20
6.08349311703824
 30
0.0
 11
117.4626104100951
 21
6.08349311703824
 31
0.0
  0
LINE
  5
71
330
1F
100
AcDbEntity
  8
1
  6
Continuous
 62
     2
100
AcDbLine
 10
120.2126104100951
 20
-2.66650688296175
 30
0.0
 11
120.2126104100951
 21
6.08349311703824
 31
0.0
  0
LINE
  5
72
330
1F
100
AcDbEntity
  8
1
  6
Continuous
 62
     2
100
AcDbLine
 10
119.9626104100951
 20
-2.91650688296175
 30
0.0
 11
120.2126104100951
 21
-2.66650688296175
 31
0.0
  0
LINE
  5
73
330
1F
100
AcDbEntity
  8
1
  6
Continuous
 62
     2
100
AcDbLine
 10
119.2126104100951
 20
-2.91650688296175
 30
0.0
 11
119.9626104100951
 21
-2.91650688296175
 31
0.0
  0
LINE
  5
74
330
1F
100
AcDbEntity
  8
1
  6
Continuous
 62
     2
100
AcDbLine
 10
115.8376104100951
 20
4.58349311703824
 30
0.0
 11
113.0876104100951
 21
4.58349311703824
 31
0.0
  0
LINE
  5
75
330
1F
100
AcDbEntity
  8
1
  6
Continuous
 62
     2
100
AcDbLine
 10
115.8376104100951
 20
2.95849311703825
 30
0.0
 11
113.0876104100951
 21
2.95849311703825
 31
0.0
  0
LINE
  5
76
330
1F
100
AcDbEntity
  8
1
  6
Continuous
 62
     2
100
AcDbLine
 10
115.8376104100951
 20
6.08349311703824
 30
0.0
 11
115.8376104100951
 21
2.95849311703825
 31
0.0
  0
LINE
  5
77
330
1F
100
AcDbEntity
  8
1
  6
Continuous
 62
     2
100
AcDbLine
 10
113.0876104100951
 20
6.08349311703824
 30
0.0
 11
115.8376104100951
 21
6.08349311703824
 31
0.0
  0
LINE
  5
78
330
1F
100
AcDbEntity
  8
1
  6
Continuous
 62
     2
100
AcDbLine
 10
113.0876104100951
 20
-2.91650688296175
 30
0.0
 11
113.0876104100951
 21
6.08349311703824
 31
0.0
  0
LINE
  5
79
330
1F
100
AcDbEntity
  8
1
  6
Continuous
 62
     2
100
AcDbLine
 10
109.9626104100951
 20
2.70849311703825
 30
0.0
 11
111.0876104100951
 21
1.70849311703824
 31
0.0
  0
LINE
  5
7A
330
1F
100
AcDbEntity
  8
1
  6
Continuous
 62
     2
100
AcDbLine
 10
108.0876104100951
 20
4.83349311703824
 30
0.0
 11
109.9626104100951
 21
2.70849311703825
 31
0.0
  0
LINE
  5
7B
330
1F
100
AcDbEntity
  8
1
  6
Continuous
 62
     2
100
AcDbLine
 10
106.7126104100951
 20
6.70849311703824
 30
0.0
 11
108.0876104100951
 21
4.83349311703824
 31
0.0
  0
LINE
  5
7C
330
1F
100
AcDbEntity
  8
1
  6
Continuous
 62
     2
100
AcDbLine
 10
105.2126104100951
 20
4.83349311703824
 30
0.0
 11
106.7126104100951
 21
6.70849311703824
 31
0.0
  0
LINE
  5
7D
330
1F
100
AcDbEntity
  8
1
  6
Continuous
 62
     2
100
AcDbLine
 10
103.3376104100951
 20
2.70849311703825
 30
0.0
 11
105.2126104100951
 21
4.83349311703824
 31
0.0
  0
LINE
  5
7E
330
1F
100
AcDbEntity
  8
1
  6
Continuous
 62
     2
100
AcDbLine
 10
102.2126104100951
 20
1.70849311703824
 30
0.0
 11
103.3376104100951
 21
2.70849311703825
 31
0.0
  0
LINE
  5
7F
330
1F
100
AcDbEntity
  8
1
  6
Continuous
 62
     2
100
AcDbLine
 10
108.0876104100951
 20
-1.66650688296176
 30
0.0
 11
108.5876104100951
 21
-0.16650688296176
 31
0.0
  0
LINE
  5
80
330
1F
100
AcDbEntity
  8
1
  6
Continuous
 62
     2
100
AcDbLine
 10
104.7126104100951
 20
-0.16650688296176
 30
0.0
 11
105.2126104100951
 21
-1.66650688296176
 31
0.0
  0
LINE
  5
81
330
1F
100
AcDbEntity
  8
1
  6
Continuous
 62
     2
100
AcDbLine
 10
109.4626104100951
 20
1.08349311703824
 30
0.0
 11
103.8376104100951
 21
1.08349311703824
 31
0.0
  0
LINE
  5
82
330
1F
100
AcDbEntity
  8
1
  6
Continuous
 62
     2
100
AcDbLine
 10
104.7126104100951
 20
2.95849311703825
 30
0.0
 11
108.5876104100951
 21
2.95849311703825
 31
0.0
  0
LINE
  5
83
330
1F
100
AcDbEntity
  8
1
  6
Continuous
 62
     2
100
AcDbLine
 10
106.7126104100951
 20
-2.91650688296175
 30
0.0
 11
106.7126104100951
 21
2.95849311703825
 31
0.0
  0
LINE
  5
84
330
1F
100
AcDbEntity
  8
1
  6
Continuous
 62
     2
100
AcDbLine
 10
103.0876104100951
 20
-2.91650688296175
 30
0.0
 11
109.9626104100951
 21
-2.91650688296175
 31
0.0
  0
LINE
  5
85
330
1F
100
AcDbEntity
  8
1
  6
Continuous
 62
     2
100
AcDbLine
 10
99.2126104100951
 20
-0.16650688296176
 30
0.0
 11
100.5876104100951
 21
1.70849311703824
 31
0.0
  0
LINE
  5
86
330
1F
100
AcDbEntity
  8
1
  6
Continuous
 62
     2
100
AcDbLine
 10
96.9626104100951
 20
-1.41650688296176
 30
0.0
 11
99.2126104100951
 21
-0.16650688296176
 31
0.0
  0
LINE
  5
87
330
1F
100
AcDbEntity
  8
1
  6
Continuous
 62
     2
100
AcDbLine
 10
96.9626104100951
 20
4.20849311703824
 30
0.0
 11
96.9626104100951
 21
-1.41650688296176
 31
0.0
  0
LINE
  5
88
330
1F
100
AcDbEntity
  8
1
  6
Continuous
 62
     2
100
AcDbLine
 10
94.7126104100951
 20
1.70849311703824
 30
0.0
 11
94.9626104100951
 21
4.20849311703824
 31
0.0
  0
LINE
  5
89
330
1F
100
AcDbEntity
  8
1
  6
Continuous
 62
     2
100
AcDbLine
 10
94.2126104100951
 20
-0.16650688296176
 30
0.0
 11
94.7126104100951
 21
1.70849311703824
 31
0.0
  0
LINE
  5
8A
330
1F
100
AcDbEntity
  8
1
  6
Continuous
 62
     2
100
AcDbLine
 10
93.3376104100951
 20
-1.66650688296176
 30
0.0
 11
94.2126104100951
 21
-0.16650688296176
 31
0.0
  0
LINE
  5
8B
330
1F
100
AcDbEntity
  8
1
  6
Continuous
 62
     2
100
AcDbLine
 10
86.9626104100951
 20
-2.29150688296175
 30
0.0
 11
88.5876104100951
 21
-2.04150688296175
 31
0.0
  0
LINE
  5
8C
330
1F
100
AcDbEntity
  8
1
  6
Continuous
 62
     2
100
AcDbLine
 10
84.2126104100951
 20
-2.04150688296175
 30
0.0
 11
86.9626104100951
 21
-2.29150688296175
 31
0.0
  0
LINE
  5
8D
330
1F
100
AcDbEntity
  8
1
  6
Continuous
 62
     2
100
AcDbLine
 10
83.8376104100951
 20
-1.04150688296176
 30
0.0
 11
84.2126104100951
 21
-2.04150688296175
 31
0.0
  0
LINE
  5
8E
330
1F
100
AcDbEntity
  8
1
  6
Continuous
 62
     2
100
AcDbLine
 10
83.8376104100951
 20
4.20849311703824
 30
0.0
 11
83.8376104100951
 21
-1.04150688296176
 31
0.0
  0
LINE
  5
8F
330
1F
100
AcDbEntity
  8
1
  6
Continuous
 62
     2
100
AcDbLine
 10
89.2126104100951
 20
4.83349311703824
 30
0.0
 11
89.9626104100951
 21
3.95849311703825
 31
0.0
  0
LINE
  5
90
330
1F
100
AcDbEntity
  8
1
  6
Continuous
 62
     2
100
AcDbLine
 10
89.4626104100951
 20
3.33349311703825
 30
0.0
 11
88.5876104100951
 21
4.20849311703824
 31
0.0
  0
LINE
  5
91
330
1F
100
AcDbEntity
  8
1
  6
Continuous
 62
     2
100
AcDbLine
 10
86.3376104100951
 20
1.70849311703824
 30
0.0
 11
88.0876104100951
 21
2.70849311703825
 31
0.0
  0
LINE
  5
92
330
1F
100
AcDbEntity
  8
1
  6
Continuous
 62
     2
100
AcDbLine
 10
83.8376104100951
 20
0.83349311703824
 30
0.0
 11
86.3376104100951
 21
1.70849311703824
 31
0.0
  0
LINE
  5
93
330
1F
100
AcDbEntity
  8
1
  6
Continuous
 62
     2
100
AcDbLine
 10
77.7126104100951
 20
-0.16650688296176
 30
0.0
 11
79.4626104100951
 21
-2.04150688296175
 31
0.0
  0
LINE
  5
94
330
1F
100
AcDbEntity
  8
1
  6
Continuous
 62
     2
100
AcDbLine
 10
76.3376104100951
 20
1.08349311703824
 30
0.0
 11
77.7126104100951
 21
-0.16650688296176
 31
0.0
  0
LINE
  5
95
330
1F
100
AcDbEntity
  8
1
  6
Continuous
 62
     2
100
AcDbLine
 10
79.7126104100951
 20
5.45849311703824
 30
0.0
 11
80.5876104100951
 21
4.58349311703824
 31
0.0
  0
LINE
  5
96
330
1F
100
AcDbEntity
  8
1
  6
Continuous
 62
     2
100
AcDbLine
 10
79.2126104100951
 20
4.83349311703824
 30
0.0
 11
79.9626104100951
 21
3.95849311703825
 31
0.0
  0
LINE
  5
97
330
1F
100
AcDbEntity
  8
1
  6
Continuous
 62
     2
100
AcDbLine
 10
78.0876104100951
 20
4.20849311703824
 30
0.0
 11
74.4626104100951
 21
4.20849311703824
 31
0.0
  0
LINE
  5
98
330
1F
100
AcDbEntity
  8
1
  6
Continuous
 62
     2
100
AcDbLine
 10
77.2126104100951
 20
2.33349311703825
 30
0.0
 11
78.0876104100951
 21
4.20849311703824
 31
0.0
  0
LINE
  5
99
330
1F
100
AcDbEntity
  8
1
  6
Continuous
 62
     2
100
AcDbLine
 10
75.2126104100951
 20
-0.41650688296176
 30
0.0
 11
77.2126104100951
 21
2.33349311703825
 31
0.0
  0
LINE
  5
9A
330
1F
100
AcDbEntity
  8
1
  6
Continuous
 62
     2
100
AcDbLine
 10
73.3376104100951
 20
-2.04150688296175
 30
0.0
 11
75.2126104100951
 21
-0.41650688296176
 31
0.0
  0
LINE
  5
9B
330
1F
100
AcDbEntity
  8
1
  6
Continuous
 62
     2
100
AcDbLine
 10
69.9626104100951
 20
3.95849311703825
 30
0.0
 11
67.4626104100951
 21
1.08349311703824
 31
0.0
  0
LINE
  5
9C
330
1F
100
AcDbEntity
  8
1
  6
Continuous
 62
     2
100
AcDbLine
 10
63.5876104100951
 20
3.95849311703825
 30
0.0
 11
69.9626104100951
 21
3.95849311703825
 31
0.0
  0
LINE
  5
9D
330
1F
100
AcDbEntity
  8
1
  6
Continuous
 62
     2
100
AcDbLine
 10
66.7126104100951
 20
1.08349311703824
 30
0.0
 11
66.9626104100951
 21
2.70849311703825
 31
0.0
  0
LINE
  5
9E
330
1F
100
AcDbEntity
  8
1
  6
Continuous
 62
     2
100
AcDbLine
 10
66.0876104100951
 20
-0.79150688296176
 30
0.0
 11
66.7126104100951
 21
1.08349311703824
 31
0.0
  0
LINE
  5
9F
330
1F
100
AcDbEntity
  8
1
  6
Continuous
 62
     2
100
AcDbLine
 10
64.9626104100951
 20
-2.66650688296175
 30
0.0
 11
66.0876104100951
 21
-0.79150688296176
 31
0.0
  0
LINE
  5
A0
330
1F
100
AcDbEntity
  8
1
  6
CENTER_DASH_DASH
 62
     2
100
AcDbLine
 10
88.55848812568502
 20
74.3972671662749
 30
0.0
 11
88.55848812568502
 21
81.3972671662749
 31
0.0
  0
LINE
  5
A1
330
1F
100
AcDbEntity
  8
1
  6
CENTER_DASH_DASH
 62
     2
100
AcDbLine
 10
98.55848812568502
 20
74.3972671662749
 30
0.0
 11
88.55848812568502
 21
74.3972671662749
 31
0.0
  0
LINE
  5
A2
330
1F
100
AcDbEntity
  8
1
  6
CENTER_DASH_DASH
 62
     2
100
AcDbLine
 10
98.55848812568502
 20
81.3972671662749
 30
0.0
 11
98.55848812568502
 21
74.3972671662749
 31
0.0
  0
LINE
  5
A3
330
1F
100
AcDbEntity
  8
1
  6
CENTER_DASH_DASH
 62
     2
100
AcDbLine
 10
88.55848812568502
 20
81.3972671662749
 30
0.0
 11
98.55848812568502
 21
81.3972671662749
 31
0.0
  0
LINE
  5
A4
330
1F
100
AcDbEntity
  8
1
  6
Continuous
 62
     7
100
AcDbLine
 10
75.65011041009507
 20
130.7084931170382
 30
0.0
 11
75.65011041009507
 21
126.7084931170382
 31
0.0
  0
LINE
  5
A5
330
1F
100
AcDbEntity
  8
1
  6
Continuous
 62
     2
100
AcDbLine
 10
146.6501104100951
 20
130.7084931170382
 30
0.0
 11
146.6501104100951
 21
126.7084931170382
 31
0.0
  0
LINE
  5
A6
330
1F
100
AcDbEntity
  8
1
  6
Continuous
 62
     7
100
AcDbLine
 10
147.6501104100951
 20
130.7084931170382
 30
0.0
 11
147.6501104100951
 21
126.7084931170382
 31
0.0
  0
LINE
  5
A7
330
1F
100
AcDbEntity
  8
1
  6
DOT_CENTER
 62
     2
100
AcDbLine
 10
111.6501104100951
 20
272.7901505632149
 30
0.0
 11
111.6501104100951
 21
174.7693959466919
 31
0.0
  0
LINE
  5
A8
330
1F
100
AcDbEntity
  8
1
  6
DOT_CENTER
 62
     2
100
AcDbLine
 10
26.65281612541799
 20
94.70849311703824
 30
0.0
 11
167.426739508508
 21
94.70849311703824
 31
0.0
  0
LINE
  5
A9
330
1F
100
AcDbEntity
  8
1
  6
Continuous
 62
     7
100
AcDbLine
 10
144.8992022656371
 20
113.8107083458672
 30
0.0
 11
158.865478916568
 21
103.77244700301
 31
0.0
  0
LINE
  5
AA
330
1F
100
AcDbEntity
  8
1
  6
Continuous
 62
     7
100
AcDbLine
 10
78.40101855455191
 20
113.8107083458672
 30
0.0
 11
64.43474190362099
 21
103.77244700301
 31
0.0
  0
LINE
  5
AB
330
1F
100
AcDbEntity
  8
1
  6
Continuous
 62
     7
100
AcDbLine
 10
86.65011041009507
 20
71.70849311703824
 30
0.0
 11
136.6501104100951
 21
71.70849311703824
 31
0.0
  0
LINE
  5
AC
330
1F
100
AcDbEntity
  8
1
  6
Continuous
 62
     7
100
AcDbLine
 10
118.840818281446
 20
75.1916238646981
 30
0.0
 11
113.0789598557169
 21
72.07061721742792
 31
0.0
  0
LINE
  5
AD
330
1F
100
AcDbEntity
  8
1
  6
Continuous
 62
     7
100
AcDbLine
 10
103.1501104100951
 20
79.20849311703824
 30
0.0
 11
103.1501104100951
 21
77.38985378104002
 31
0.0
  0
LINE
  5
AE
330
1F
100
AcDbEntity
  8
1
  6
Continuous
 62
     7
100
AcDbLine
 10
120.1501104100951
 20
79.20849311703824
 30
0.0
 11
120.1501104100951
 21
77.38985378104002
 31
0.0
  0
LINE
  5
AF
330
1F
100
AcDbEntity
  8
1
  6
Continuous
 62
     7
100
AcDbLine
 10
79.81731032436892
 20
84.58557849671541
 30
0.0
 11
86.65011041009507
 21
71.70849311703824
 31
0.0
  0
LINE
  5
B0
330
1F
100
AcDbEntity
  8
1
  6
Continuous
 62
     7
100
AcDbLine
 10
136.6501104100951
 20
71.70849311703824
 30
0.0
 11
143.4829104958201
 21
84.58557849671541
 31
0.0
  0
LINE
  5
B1
330
1F
100
AcDbEntity
  8
1
  6
Continuous
 62
     7
100
AcDbLine
 10
30.97061041009511
 20
107.9289931170382
 30
0.0
 11
40.15011041009507
 21
107.9289931170382
 31
0.0
  0
LINE
  5
B2
330
1F
100
AcDbEntity
  8
1
  6
Continuous
 62
     7
100
AcDbLine
 10
192.3296104100941
 20
107.9289931170382
 30
0.0
 11
183.1501104100951
 21
107.9289931170382
 31
0.0
  0
LINE
  5
B3
330
1F
100
AcDbEntity
  8
1
  6
Continuous
 62
     7
100
AcDbLine
 10
181.1501104100951
 20
103.2084931170382
 30
0.0
 11
145.6501104100951
 21
103.2084931170382
 31
0.0
  0
LINE
  5
B4
330
1F
100
AcDbEntity
  8
1
  6
Continuous
 62
     7
100
AcDbLine
 10
192.3296104100941
 20
81.48799311703823
 30
0.0
 11
183.1501104100951
 21
81.48799311703823
 31
0.0
  0
LINE
  5
B5
330
1F
100
AcDbEntity
  8
1
  6
Continuous
 62
     7
100
AcDbLine
 10
181.1501104100951
 20
86.20849311703824
 30
0.0
 11
145.1501104100951
 21
86.20849311703824
 31
0.0
  0
LINE
  5
B6
330
1F
100
AcDbEntity
  8
1
  6
Continuous
 62
     2
100
AcDbLine
 10
193.3296104100941
 20
106.9289931170382
 30
0.0
 11
183.1501104100951
 21
106.9289931170382
 31
0.0
  0
LINE
  5
B7
330
1F
100
AcDbEntity
  8
1
  6
Continuous
 62
     2
100
AcDbLine
 10
193.3296104100941
 20
82.48799311703823
 30
0.0
 11
183.1501104100951
 21
82.48799311703823
 31
0.0
  0
LINE
  5
B8
330
1F
100
AcDbEntity
  8
1
  6
Continuous
 62
     7
100
AcDbLine
 10
40.15011041009507
 20
81.48799311703823
 30
0.0
 11
30.97061041009511
 21
81.48799311703823
 31
0.0
  0
LINE
  5
B9
330
1F
100
AcDbEntity
  8
1
  6
Continuous
 62
     2
100
AcDbLine
 10
40.15011041009507
 20
106.9289931170382
 30
0.0
 11
29.97061041009511
 21
106.9289931170382
 31
0.0
  0
LINE
  5
BA
330
1F
100
AcDbEntity
  8
1
  6
Continuous
 62
     2
100
AcDbLine
 10
40.15011041009507
 20
82.48799311703823
 30
0.0
 11
29.97061041009511
 21
82.48799311703823
 31
0.0
  0
LINE
  5
BB
330
1F
100
AcDbEntity
  8
1
  6
Continuous
 62
     7
100
AcDbLine
 10
29.15011041009507
 20
83.30849311703844
 30
0.0
 11
29.15011041009507
 21
106.1084931170382
 31
0.0
  0
LINE
  5
BC
330
1F
100
AcDbEntity
  8
1
  6
Continuous
 62
     7
100
AcDbLine
 10
143.6501104100951
 20
124.7084931170382
 30
0.0
 11
143.6501104100951
 21
105.2084931170382
 31
0.0
  0
LINE
  5
BD
330
1F
100
AcDbEntity
  8
1
  6
Continuous
 62
     7
100
AcDbLine
 10
79.65011041009507
 20
105.2084931170382
 30
0.0
 11
79.65011041009507
 21
124.7084931170382
 31
0.0
  0
LINE
  5
BE
330
1F
100
AcDbEntity
  8
1
  6
Continuous
 62
     7
100
AcDbLine
 10
42.15011041009507
 20
103.2084931170382
 30
0.0
 11
77.65011041009507
 21
103.2084931170382
 31
0.0
  0
LINE
  5
BF
330
1F
100
AcDbEntity
  8
1
  6
Continuous
 62
     7
100
AcDbLine
 10
42.15011041009507
 20
86.20849311703824
 30
0.0
 11
78.15011041009507
 21
86.20849311703824
 31
0.0
  0
LINE
  5
C0
330
1F
100
AcDbEntity
  8
1
  6
DOT_CENTER
 62
     2
100
AcDbLine
 10
74.65011041009507
 20
108.6859139292664
 30
0.0
 11
74.65011041009507
 21
103.8937675251823
 31
0.0
  0
LINE
  5
C1
330
1F
100
AcDbEntity
  8
1
  6
DOT_CENTER
 62
     2
100
AcDbLine
 10
72.03317293435111
 20
106.7084931170382
 30
0.0
 11
77.31265626088407
 21
106.7084931170382
 31
0.0
  0
LINE
  5
C2
330
1F
100
AcDbEntity
  8
1
  6
Continuous
 62
     7
100
AcDbLine
 10
194.1501104100951
 20
106.1084931170382
 30
0.0
 11
194.1501104100951
 21
83.30849311703844
 31
0.0
  0
LINE
  5
C3
330
1F
100
AcDbEntity
  8
1
  6
Continuous
 62
     7
100
AcDbLine
 10
192.3296104100941
 20
107.9289931170382
 30
0.0
 11
194.1501104100951
 21
106.1084931170382
 31
0.0
  0
LINE
  5
C4
330
1F
100
AcDbEntity
  8
1
  6
Continuous
 62
     7
100
AcDbLine
 10
192.3296104100941
 20
81.48799311703823
 30
0.0
 11
194.1501104100951
 21
83.30849311703844
 31
0.0
  0
LINE
  5
C5
330
1F
100
AcDbEntity
  8
1
  6
Continuous
 62
     7
100
AcDbLine
 10
30.97061041009511
 20
81.48799311703823
 30
0.0
 11
29.15011041009507
 21
83.30849311703844
 31
0.0
  0
LINE
  5
C6
330
1F
100
AcDbEntity
  8
1
  6
Continuous
 62
     7
100
AcDbLine
 10
30.97061041009511
 20
107.9289931170382
 30
0.0
 11
29.15011041009507
 21
106.1084931170382
 31
0.0
  0
LINE
  5
C7
330
1F
100
AcDbEntity
  8
1
  6
Continuous
 62
     7
100
AcDbLine
 10
183.1501104100951
 20
107.9289931170382
 30
0.0
 11
183.1501104100951
 21
81.48799311703823
 31
0.0
  0
LINE
  5
C8
330
1F
100
AcDbEntity
  8
1
  6
Continuous
 62
     7
100
AcDbLine
 10
40.15011041009507
 20
107.9289931170382
 30
0.0
 11
40.15011041009507
 21
81.48799311703823
 31
0.0
  0
LINE
  5
C9
330
1F
100
AcDbEntity
  8
1
  6
Continuous
 62
     7
100
AcDbLine
 10
110.1501104100951
 20
72.10915710104922
 30
0.0
 11
110.1501104100951
 21
83.20849311703824
 31
0.0
  0
LINE
  5
CA
330
1F
100
AcDbEntity
  8
1
  6
Continuous
 62
     7
100
AcDbLine
 10
110.2212609644721
 20
72.07061721742792
 30
0.0
 11
104.459402538743
 21
75.1916238646981
 31
0.0
  0
LINE
  5
CB
330
1F
100
AcDbEntity
  8
1
  6
Continuous
 62
     7
100
AcDbLine
 10
113.1501104100951
 20
83.20849311703824
 30
0.0
 11
113.1501104100951
 21
72.10915710104943
 31
0.0
  0
LINE
  5
CC
330
1F
100
AcDbEntity
  8
1
  6
Continuous
 62
     7
100
AcDbLine
 10
80.59960015287811
 20
84.20849311703824
 30
0.0
 11
142.7006206673111
 21
84.20849311703824
 31
0.0
  0
LINE
  5
CD
330
1F
100
AcDbEntity
  8
1
  6
DOT_CENTER
 62
     2
100
AcDbLine
 10
111.6501104100951
 20
164.6943012559303
 30
0.0
 11
111.6501104100951
 21
66.95087970583535
 31
0.0
  0
LINE
  5
CE
330
1F
100
AcDbEntity
  8
1
  6
Continuous
 62
     7
100
AcDbLine
 10
192.3296104100941
 20
107.9289931170382
 30
0.0
 11
192.3296104100941
 21
81.48799311703823
 31
0.0
  0
LINE
  5
CF
330
1F
100
AcDbEntity
  8
1
  6
Continuous
 62
     7
100
AcDbLine
 10
30.97061041009511
 20
107.9289931170382
 30
0.0
 11
30.97061041009511
 21
81.48799311703823
 31
0.0
  0
LINE
  5
D0
330
1F
100
AcDbEntity
  8
1
  6
DOT_CENTER
 62
     2
100
AcDbLine
 10
167.426739508508
 20
94.70849311703824
 30
0.0
 11
197.756840910896
 21
94.70849311703824
 31
0.0
  0
LINE
  5
D1
330
1F
100
AcDbEntity
  8
1
  6
Continuous
 62
     7
100
AcDbLine
 10
75.65011041009507
 20
126.7084931170382
 30
0.0
 11
147.6501104100951
 21
126.7084931170382
 31
0.0
  0
LINE
  5
D2
330
1F
100
AcDbEntity
  8
1
  6
DOT_CENTER
 62
     2
100
AcDbLine
 10
26.65281612541799
 20
224.467728506045
 30
0.0
 11
197.5978218265959
 21
224.467728506045
 31
0.0
  0
LINE
  5
D3
330
1F
100
AcDbEntity
  8
1
  6
Continuous
 62
     2
100
AcDbLine
 10
76.65011041009507
 20
126.7084931170382
 30
0.0
 11
76.65011041009507
 21
130.7084931170382
 31
0.0
  0
LINE
  5
D4
330
1F
100
AcDbEntity
  8
1
  6
Continuous
 62
     7
100
AcDbLine
 10
149.1501104100951
 20
159.2084931170382
 30
0.0
 11
149.1501104100951
 21
154.2084931170382
 31
0.0
  0
LINE
  5
D5
330
1F
100
AcDbEntity
  8
1
  6
Continuous
 62
     7
100
AcDbLine
 10
154.1501104100951
 20
158.2084931170382
 30
0.0
 11
149.1501104100951
 21
158.2084931170382
 31
0.0
  0
LINE
  5
D6
330
1F
100
AcDbEntity
  8
1
  6
Continuous
 62
     7
100
AcDbLine
 10
154.1501104100951
 20
159.2084931170382
 30
0.0
 11
154.1501104100951
 21
158.2084931170382
 31
0.0
  0
LINE
  5
D7
330
1F
100
AcDbEntity
  8
1
  6
Continuous
 62
     7
100
AcDbLine
 10
68.65011041009507
 20
160.2084931170382
 30
0.0
 11
153.1501104100951
 21
160.2084931170382
 31
0.0
  0
LINE
  5
D8
330
1F
100
AcDbEntity
  8
1
  6
Continuous
 62
     7
100
AcDbLine
 10
68.15011041009507
 20
163.2084931170382
 30
0.0
 11
76.65011041009507
 21
163.2084931170382
 31
0.0
  0
LINE
  5
D9
330
1F
100
AcDbEntity
  8
1
  6
Continuous
 62
     2
100
AcDbLine
 10
74.15011041009507
 20
154.2084931170382
 30
0.0
 11
74.15011041009507
 21
150.7084931170382
 31
0.0
  0
LINE
  5
DA
330
1F
100
AcDbEntity
  8
1
  6
Continuous
 62
     7
100
AcDbLine
 10
74.15011041009507
 20
160.2084931170382
 30
0.0
 11
74.15011041009507
 21
154.2084931170382
 31
0.0
  0
LINE
  5
DB
330
1F
100
AcDbEntity
  8
1
  6
Continuous
 62
     7
100
AcDbLine
 10
156.1501104100951
 20
150.7084931170382
 30
0.0
 11
156.1501104100951
 21
133.7084931170382
 31
0.0
  0
LINE
  5
DC
330
1F
100
AcDbEntity
  8
1
  6
Continuous
 62
     7
100
AcDbLine
 10
148.6501104100951
 20
154.2084931170382
 30
0.0
 11
148.6501104100951
 21
146.7084931170382
 31
0.0
  0
LINE
  5
DD
330
1F
100
AcDbEntity
  8
1
  6
Continuous
 62
     7
100
AcDbLine
 10
151.1501104100951
 20
132.7084931170382
 30
0.0
 11
155.1501104100951
 21
132.7084931170382
 31
0.0
  0
LINE
  5
DE
330
1F
100
AcDbEntity
  8
1
  6
Continuous
 62
     7
100
AcDbLine
 10
150.1501104100951
 20
131.7084931170382
 30
0.0
 11
150.1501104100951
 21
145.7084931170382
 31
0.0
  0
LINE
  5
DF
330
1F
100
AcDbEntity
  8
1
  6
Continuous
 62
     7
100
AcDbLine
 10
74.65011041009507
 20
146.7084931170382
 30
0.0
 11
74.65011041009507
 21
154.2084931170382
 31
0.0
  0
LINE
  5
E0
330
1F
100
AcDbEntity
  8
1
  6
Continuous
 62
     7
100
AcDbLine
 10
68.15011041009507
 20
132.7084931170382
 30
0.0
 11
72.15011041009507
 21
132.7084931170382
 31
0.0
  0
LINE
  5
E1
330
1F
100
AcDbEntity
  8
1
  6
Continuous
 62
     7
100
AcDbLine
 10
73.15011041009507
 20
145.7084931170382
 30
0.0
 11
73.15011041009507
 21
131.7084931170382
 31
0.0
  0
LINE
  5
E2
330
1F
100
AcDbEntity
  8
1
  6
DASH_CENTER
 62
     2
100
AcDbLine
 10
68.86779049444613
 20
150.7084931170382
 30
0.0
 11
72.33171087654796
 21
150.7084931170382
 31
0.0
  0
LINE
  5
E3
330
1F
100
AcDbEntity
  8
1
  6
DASH_CENTER
 62
     2
100
AcDbLine
 10
70.65011041009507
 20
152.3363160862062
 30
0.0
 11
70.65011041009507
 21
148.9021289262687
 31
0.0
  0
LINE
  5
E4
330
1F
100
AcDbEntity
  8
1
  6
Continuous
 62
     7
100
AcDbLine
 10
67.15011041009507
 20
162.2084931170382
 30
0.0
 11
67.15011041009507
 21
133.7084931170382
 31
0.0
  0
LINE
  5
E5
330
1F
100
AcDbEntity
  8
1
  6
Continuous
 62
     7
100
AcDbLine
 10
149.1501104100951
 20
130.7084931170382
 30
0.0
 11
74.15011041009507
 21
130.7084931170382
 31
0.0
  0
LINE
  5
E6
330
1F
100
AcDbEntity
  8
1
  6
Continuous
 62
     7
100
AcDbLine
 10
74.15011041009507
 20
146.7084931170382
 30
0.0
 11
149.1501104100951
 21
146.7084931170382
 31
0.0
  0
LINE
  5
E7
330
1F
100
AcDbEntity
  8
1
  6
Continuous
 62
     7
100
AcDbLine
 10
109.6501104100951
 20
144.7084931170382
 30
0.0
 11
113.6501104100951
 21
144.7084931170382
 31
0.0
  0
LINE
  5
E8
330
1F
100
AcDbEntity
  8
1
  6
Continuous
 62
     7
100
AcDbLine
 10
114.6501104100951
 20
143.7084931170382
 30
0.0
 11
114.6501104100951
 21
133.7084931170382
 31
0.0
  0
LINE
  5
E9
330
1F
100
AcDbEntity
  8
1
  6
Continuous
 62
     7
100
AcDbLine
 10
113.6501104100951
 20
132.7084931170382
 30
0.0
 11
109.6501104100951
 21
132.7084931170382
 31
0.0
  0
LINE
  5
EA
330
1F
100
AcDbEntity
  8
1
  6
Continuous
 62
     7
100
AcDbLine
 10
108.6501104100951
 20
133.7084931170382
 30
0.0
 11
108.6501104100951
 21
143.7084931170382
 31
0.0
  0
LINE
  5
EB
330
1F
100
AcDbEntity
  8
1
  6
Continuous
 62
     7
100
AcDbLine
 10
95.65011041009507
 20
114.4286779441158
 30
0.0
 11
95.65011041009507
 21
106.7084931170382
 31
0.0
  0
LINE
  5
EC
330
1F
100
AcDbEntity
  8
1
  6
Continuous
 62
     7
100
AcDbLine
 10
96.65011041009507
 20
116.7084931170382
 30
0.0
 11
95.65011041009507
 21
116.7084931170382
 31
0.0
  0
LINE
  5
ED
330
1F
100
AcDbEntity
  8
1
  6
Continuous
 62
     7
100
AcDbLine
 10
96.65011041009507
 20
106.7084931170382
 30
0.0
 11
96.65011041009507
 21
116.7084931170382
 31
0.0
  0
LINE
  5
EE
330
1F
100
AcDbEntity
  8
1
  6
Continuous
 62
     7
100
AcDbLine
 10
95.65011041009507
 20
106.7084931170382
 30
0.0
 11
96.65011041009507
 21
106.7084931170382
 31
0.0
  0
LINE
  5
EF
330
1F
100
AcDbEntity
  8
1
  6
Continuous
 62
     7
100
AcDbLine
 10
95.65011041009507
 20
116.7084931170382
 30
0.0
 11
96.65011041009507
 21
116.7084931170382
 31
0.0
  0
LINE
  5
F0
330
1F
100
AcDbEntity
  8
1
  6
Continuous
 62
     7
100
AcDbLine
 10
95.65011041009507
 20
106.7084931170382
 30
0.0
 11
95.65011041009507
 21
114.4286779441158
 31
0.0
  0
LINE
  5
F1
330
1F
100
AcDbEntity
  8
1
  6
DOT_CENTER
 62
     7
100
AcDbLine
 10
95.65011041009507
 20
106.7084931170382
 30
0.0
 11
96.65011041009507
 21
106.7084931170382
 31
0.0
  0
LINE
  5
F2
330
1F
100
AcDbEntity
  8
1
  6
Continuous
 62
     7
100
AcDbLine
 10
95.65011041009507
 20
116.7084931170382
 30
0.0
 11
94.65011041009507
 21
114.4286779441158
 31
0.0
  0
LINE
  5
F3
330
1F
100
AcDbEntity
  8
1
  6
Continuous
 62
     7
100
AcDbLine
 10
94.65011041009507
 20
114.4286779441158
 30
0.0
 11
95.65011041009507
 21
114.4286779441158
 31
0.0
  0
LINE
  5
F4
330
1F
100
AcDbEntity
  8
1
  6
Continuous
 62
     7
100
AcDbLine
 10
128.6501104100951
 20
106.7084931170382
 30
0.0
 11
127.6501104100951
 21
106.7084931170382
 31
0.0
  0
LINE
  5
F5
330
1F
100
AcDbEntity
  8
1
  6
Continuous
 62
     7
100
AcDbLine
 10
127.6501104100951
 20
106.7084931170382
 30
0.0
 11
127.6501104100951
 21
111.8334931170382
 31
0.0
  0
LINE
  5
F6
330
1F
100
AcDbEntity
  8
1
  6
Continuous
 62
     7
100
AcDbLine
 10
125.9001104100951
 20
111.8334931170382
 30
0.0
 11
125.9001104100951
 21
106.7084931170382
 31
0.0
  0
LINE
  5
F7
330
1F
100
AcDbEntity
  8
1
  6
Continuous
 62
     7
100
AcDbLine
 10
125.9001104100951
 20
106.7084931170382
 30
0.0
 11
124.9001104100951
 21
106.7084931170382
 31
0.0
  0
LINE
  5
F8
330
1F
100
AcDbEntity
  8
1
  6
Continuous
 62
     7
100
AcDbLine
 10
124.9001104100951
 20
106.7084931170382
 30
0.0
 11
124.9001104100951
 21
111.8334931170382
 31
0.0
  0
LINE
  5
F9
330
1F
100
AcDbEntity
  8
1
  6
Continuous
 62
     7
100
AcDbLine
 10
123.1501104100951
 20
111.8334931170382
 30
0.0
 11
123.1501104100951
 21
106.7084931170382
 31
0.0
  0
LINE
  5
FA
330
1F
100
AcDbEntity
  8
1
  6
Continuous
 62
     7
100
AcDbLine
 10
123.1501104100951
 20
106.7084931170382
 30
0.0
 11
122.1501104100951
 21
106.7084931170382
 31
0.0
  0
LINE
  5
FB
330
1F
100
AcDbEntity
  8
1
  6
Continuous
 62
     7
100
AcDbLine
 10
122.1501104100951
 20
106.7084931170382
 30
0.0
 11
122.1501104100951
 21
111.8334931170382
 31
0.0
  0
LINE
  5
FC
330
1F
100
AcDbEntity
  8
1
  6
Continuous
 62
     7
100
AcDbLine
 10
121.6501104100951
 20
112.6240625320803
 30
0.0
 11
121.6501104100951
 21
113.6706104241256
 31
0.0
  0
LINE
  5
FD
330
1F
100
AcDbEntity
  8
1
  6
Continuous
 62
     7
100
AcDbLine
 10
128.6501104100951
 20
111.8334931170382
 30
0.0
 11
128.6501104100951
 21
106.7084931170382
 31
0.0
  0
LINE
  5
FE
330
1F
100
AcDbEntity
  8
1
  6
Continuous
 62
     7
100
AcDbLine
 10
119.6501104100951
 20
106.7084931170382
 30
0.0
 11
118.6501104100951
 21
106.7084931170382
 31
0.0
  0
LINE
  5
FF
330
1F
100
AcDbEntity
  8
1
  6
Continuous
 62
     7
100
AcDbLine
 10
118.6501104100951
 20
106.7084931170382
 30
0.0
 11
118.6501104100951
 21
111.8334931170382
 31
0.0
  0
LINE
  5
100
330
1F
100
AcDbEntity
  8
1
  6
Continuous
 62
     7
100
AcDbLine
 10
116.9001104100951
 20
111.8334931170382
 30
0.0
 11
116.9001104100951
 21
106.7084931170382
 31
0.0
  0
LINE
  5
101
330
1F
100
AcDbEntity
  8
1
  6
Continuous
 62
     7
100
AcDbLine
 10
116.9001104100951
 20
106.7084931170382
 30
0.0
 11
115.9001104100951
 21
106.7084931170382
 31
0.0
  0
LINE
  5
102
330
1F
100
AcDbEntity
  8
1
  6
Continuous
 62
     7
100
AcDbLine
 10
115.9001104100951
 20
106.7084931170382
 30
0.0
 11
115.9001104100951
 21
111.8334931170382
 31
0.0
  0
LINE
  5
103
330
1F
100
AcDbEntity
  8
1
  6
Continuous
 62
     7
100
AcDbLine
 10
114.1501104100951
 20
111.8334931170382
 30
0.0
 11
114.1501104100951
 21
106.7084931170382
 31
0.0
  0
LINE
  5
104
330
1F
100
AcDbEntity
  8
1
  6
Continuous
 62
     7
100
AcDbLine
 10
114.1501104100951
 20
106.7084931170382
 30
0.0
 11
113.1501104100951
 21
106.7084931170382
 31
0.0
  0
LINE
  5
105
330
1F
100
AcDbEntity
  8
1
  6
Continuous
 62
     7
100
AcDbLine
 10
113.1501104100951
 20
106.7084931170382
 30
0.0
 11
113.1501104100951
 21
111.8334931170382
 31
0.0
  0
LINE
  5
106
330
1F
100
AcDbEntity
  8
1
  6
Continuous
 62
     7
100
AcDbLine
 10
112.6501104100951
 20
112.6240625320803
 30
0.0
 11
112.6501104100951
 21
113.6706104241256
 31
0.0
  0
LINE
  5
107
330
1F
100
AcDbEntity
  8
1
  6
Continuous
 62
     7
100
AcDbLine
 10
119.6501104100951
 20
111.8334931170382
 30
0.0
 11
119.6501104100951
 21
106.7084931170382
 31
0.0
  0
LINE
  5
108
330
1F
100
AcDbEntity
  8
1
  6
Continuous
 62
     7
100
AcDbLine
 10
103.4001104100951
 20
116.7084931170382
 30
0.0
 11
105.9001104100951
 21
116.7084931170382
 31
0.0
  0
LINE
  5
109
330
1F
100
AcDbEntity
  8
1
  6
Continuous
 62
     7
100
AcDbLine
 10
105.9001104100951
 20
106.7084931170382
 30
0.0
 11
103.4001104100951
 21
106.7084931170382
 31
0.0
  0
LINE
  5
10A
330
1F
100
AcDbEntity
  8
1
  6
Continuous
 62
     7
100
AcDbLine
 10
103.4001104100951
 20
107.7084931170382
 30
0.0
 11
105.9001104100951
 21
107.7084931170382
 31
0.0
  0
LINE
  5
10B
330
1F
100
AcDbEntity
  8
1
  6
Continuous
 62
     7
100
AcDbLine
 10
105.9001104100951
 20
111.2084931170382
 30
0.0
 11
104.6501104100951
 21
111.2084931170382
 31
0.0
  0
LINE
  5
10C
330
1F
100
AcDbEntity
  8
1
  6
Continuous
 62
     7
100
AcDbLine
 10
104.6501104100951
 20
111.2084931170382
 30
0.0
 11
104.6501104100951
 21
112.2084931170382
 31
0.0
  0
LINE
  5
10D
330
1F
100
AcDbEntity
  8
1
  6
Continuous
 62
     7
100
AcDbLine
 10
104.6501104100951
 20
112.2084931170382
 30
0.0
 11
105.9001104100951
 21
112.2084931170382
 31
0.0
  0
LINE
  5
10E
330
1F
100
AcDbEntity
  8
1
  6
Continuous
 62
     7
100
AcDbLine
 10
105.9001104100951
 20
115.7084931170382
 30
0.0
 11
103.4001104100951
 21
115.7084931170382
 31
0.0
  0
LINE
  5
10F
330
1F
100
AcDbEntity
  8
1
  6
Continuous
 62
     7
100
AcDbLine
 10
100.6501104100951
 20
113.9584931170382
 30
0.0
 11
101.6501104100951
 21
113.9584931170382
 31
0.0
  0
LINE
  5
110
330
1F
100
AcDbEntity
  8
1
  6
Continuous
 62
     7
100
AcDbLine
 10
100.6501104100951
 20
109.4584931170382
 30
0.0
 11
101.6501104100951
 21
109.4584931170382
 31
0.0
  0
LINE
  5
111
330
1F
100
AcDbEntity
  8
1
  6
Continuous
 62
     7
100
AcDbLine
 10
94.65011041009507
 20
95.70849311703824
 30
0.0
 11
94.65011041009507
 21
93.70849311703824
 31
0.0
  0
LINE
  5
112
330
1F
100
AcDbEntity
  8
1
  6
Continuous
 62
     7
100
AcDbLine
 10
94.65011041009507
 20
95.70849311703824
 30
0.0
 11
121.6501104100951
 21
95.70849311703824
 31
0.0
  0
LINE
  5
113
330
1F
100
AcDbEntity
  8
1
  6
Continuous
 62
     7
100
AcDbLine
 10
94.65011041009507
 20
93.70849311703824
 30
0.0
 11
121.6501104100951
 21
93.70849311703824
 31
0.0
  0
LINE
  5
114
330
1F
100
AcDbEntity
  8
1
  6
Continuous
 62
     7
100
AcDbLine
 10
128.6501104100951
 20
94.70849311703824
 30
0.0
 11
121.6501104100951
 21
98.20849311703824
 31
0.0
  0
LINE
  5
115
330
1F
100
AcDbEntity
  8
1
  6
Continuous
 62
     7
100
AcDbLine
 10
128.6501104100951
 20
94.70849311703824
 30
0.0
 11
121.6501104100951
 21
91.20849311703824
 31
0.0
  0
LINE
  5
116
330
1F
100
AcDbEntity
  8
1
  6
Continuous
 62
     7
100
AcDbLine
 10
121.6501104100951
 20
98.20849311703824
 30
0.0
 11
121.6501104100951
 21
95.70849311703824
 31
0.0
  0
LINE
  5
117
330
1F
100
AcDbEntity
  8
1
  6
Continuous
 62
     7
100
AcDbLine
 10
121.6501104100951
 20
91.20849311703824
 30
0.0
 11
121.6501104100951
 21
93.70849311703824
 31
0.0
  0
LINE
  5
118
330
1F
100
AcDbEntity
  8
1
  6
Continuous
 62
     7
100
AcDbLine
 10
94.65011041009507
 20
98.20849311703824
 30
0.0
 11
112.6501104100951
 21
98.20849311703824
 31
0.0
  0
LINE
  5
119
330
1F
100
AcDbEntity
  8
1
  6
Continuous
 62
     7
100
AcDbLine
 10
94.65011041009507
 20
91.20849311703824
 30
0.0
 11
112.6501104100951
 21
91.20849311703824
 31
0.0
  0
LINE
  5
11A
330
1F
100
AcDbEntity
  8
1
  6
Continuous
 62
     7
100
AcDbLine
 10
96.07868183866594
 20
93.70849311703824
 30
0.0
 11
94.65011041009507
 21
91.20849311703824
 31
0.0
  0
LINE
  5
11B
330
1F
100
AcDbEntity
  8
1
  6
Continuous
 62
     7
100
AcDbLine
 10
96.07868183866594
 20
95.70849311703824
 30
0.0
 11
94.65011041009507
 21
98.20849311703824
 31
0.0
  0
LINE
  5
11C
330
1F
100
AcDbEntity
  8
1
  6
Continuous
 62
     7
100
AcDbLine
 10
114.0786818386659
 20
93.70849311703824
 30
0.0
 11
112.6501104100951
 21
91.20849311703824
 31
0.0
  0
LINE
  5
11D
330
1F
100
AcDbEntity
  8
1
  6
Continuous
 62
     7
100
AcDbLine
 10
114.0786818386659
 20
95.70849311703824
 30
0.0
 11
112.6501104100951
 21
98.20849311703824
 31
0.0
  0
LINE
  5
11E
330
1F
100
AcDbEntity
  8
1
  6
Continuous
 62
     7
100
AcDbLine
 10
30.97061041009511
 20
241.0082285060451
 30
0.0
 11
30.97061041009511
 21
214.567228506045
 31
0.0
  0
LINE
  5
11F
330
1F
100
AcDbEntity
  8
1
  6
Continuous
 62
     7
100
AcDbLine
 10
192.3296104100941
 20
241.0082285060451
 30
0.0
 11
192.3296104100941
 21
214.567228506045
 31
0.0
  0
LINE
  5
120
330
1F
100
AcDbEntity
  8
1
  6
Continuous
 62
     7
100
AcDbLine
 10
67.15011041009507
 20
227.290518236101
 30
0.0
 11
41.59883569846011
 21
234.6172283599177
 31
0.0
  0
LINE
  5
121
330
1F
100
AcDbEntity
  8
1
  6
Continuous
 62
     7
100
AcDbLine
 10
145.605576907561
 20
206.3217566406578
 30
0.0
 11
180.7391558076001
 21
216.396148275437
 31
0.0
  0
LINE
  5
122
330
1F
100
AcDbEntity
  8
1
  6
Continuous
 62
     7
100
AcDbLine
 10
181.7013851217291
 20
234.3571535009525
 30
0.0
 11
143.9137263233831
 21
245.4750864598628
 31
0.0
  0
LINE
  5
123
330
1F
100
AcDbEntity
  8
1
  6
Continuous
 62
     7
100
AcDbLine
 10
40.15011041009507
 20
214.567228506045
 30
0.0
 11
40.15011041009507
 21
241.0082285060451
 31
0.0
  0
LINE
  5
124
330
1F
100
AcDbEntity
  8
1
  6
Continuous
 62
     2
100
AcDbLine
 10
29.97061041009511
 20
240.0082285060451
 30
0.0
 11
40.15011041009507
 21
240.0082285060451
 31
0.0
  0
LINE
  5
125
330
1F
100
AcDbEntity
  8
1
  6
Continuous
 62
     2
100
AcDbLine
 10
193.3296104100941
 20
215.567228506045
 30
0.0
 11
183.1501104100951
 21
215.567228506045
 31
0.0
  0
LINE
  5
126
330
1F
100
AcDbEntity
  8
1
  6
Continuous
 62
     7
100
AcDbLine
 10
194.1501104100951
 20
239.1877285060451
 30
0.0
 11
194.1501104100951
 21
216.3877285060452
 31
0.0
  0
LINE
  5
127
330
1F
100
AcDbEntity
  8
1
  6
Continuous
 62
     7
100
AcDbLine
 10
183.1501104100951
 20
214.567228506045
 30
0.0
 11
183.1501104100951
 21
241.0082285060451
 31
0.0
  0
LINE
  5
128
330
1F
100
AcDbEntity
  8
1
  6
Continuous
 62
     2
100
AcDbLine
 10
183.1501104100951
 20
240.0082285060451
 30
0.0
 11
193.3296104100941
 21
240.0082285060451
 31
0.0
  0
LINE
  5
129
330
1F
100
AcDbEntity
  8
1
  6
Continuous
 62
     7
100
AcDbLine
 10
29.15011041009507
 20
239.1877285060451
 30
0.0
 11
29.15011041009507
 21
216.3877285060452
 31
0.0
  0
LINE
  5
12A
330
1F
100
AcDbEntity
  8
1
  6
Continuous
 62
     7
100
AcDbLine
 10
42.31869391498299
 20
216.2055722103513
 30
0.0
 11
77.86090908715596
 21
206.0140060100839
 31
0.0
  0
LINE
  5
12B
330
1F
100
AcDbEntity
  8
1
  6
Continuous
 62
     7
100
AcDbLine
 10
30.97061041009511
 20
214.567228506045
 30
0.0
 11
40.15011041009507
 21
214.567228506045
 31
0.0
  0
LINE
  5
12C
330
1F
100
AcDbEntity
  8
1
  6
Continuous
 62
     7
100
AcDbLine
 10
40.15011041009507
 20
241.0082285060451
 30
0.0
 11
30.97061041009511
 21
241.0082285060451
 31
0.0
  0
LINE
  5
12D
330
1F
100
AcDbEntity
  8
1
  6
Continuous
 62
     7
100
AcDbLine
 10
192.3296104100941
 20
214.567228506045
 30
0.0
 11
183.1501104100951
 21
214.567228506045
 31
0.0
  0
LINE
  5
12E
330
1F
100
AcDbEntity
  8
1
  6
Continuous
 62
     7
100
AcDbLine
 10
183.1501104100951
 20
241.0082285060451
 30
0.0
 11
192.3296104100941
 21
241.0082285060451
 31
0.0
  0
LINE
  5
12F
330
1F
100
AcDbEntity
  8
1
  6
DOT_CENTER
 62
     2
100
AcDbLine
 10
26.65281612541799
 20
227.787728506045
 30
0.0
 11
41.93732175121795
 21
227.787728506045
 31
0.0
  0
LINE
  5
130
330
1F
100
AcDbEntity
  8
1
  6
DOT_CENTER
 62
     2
100
AcDbLine
 10
180.6579957572519
 20
227.787728506045
 30
0.0
 11
197.5978218265959
 21
227.787728506045
 31
0.0
  0
LINE
  5
131
330
1F
100
AcDbEntity
  8
1
  6
Continuous
 62
     7
100
AcDbLine
 10
41.59883569846011
 20
234.6172283599177
 30
0.0
 11
79.48327847970108
 21
245.6229860927966
 31
0.0
  0
LINE
  5
132
330
1F
100
AcDbEntity
  8
1
  6
Continuous
 62
     2
100
AcDbLine
 10
159.6501104100951
 20
220.0964788747835
 30
0.0
 11
159.6501104100951
 21
218.3879514843306
 31
0.0
  0
LINE
  5
133
330
1F
100
AcDbEntity
  8
1
  6
Continuous
 62
     7
100
AcDbLine
 10
159.1501104100951
 20
227.890679534412
 30
0.0
 11
159.1501104100951
 21
229.4511286882045
 31
0.0
  0
LINE
  5
134
330
1F
100
AcDbEntity
  8
1
  6
Continuous
 62
     7
100
AcDbLine
 10
159.1501104100951
 20
229.4511286882045
 30
0.0
 11
168.1501104100951
 21
232.0318371600337
 31
0.0
  0
LINE
  5
135
330
1F
100
AcDbEntity
  8
1
  6
Continuous
 62
     7
100
AcDbLine
 10
168.1501104100951
 20
232.0318371600337
 30
0.0
 11
168.1501104100951
 21
234.0318371600337
 31
0.0
  0
LINE
  5
136
330
1F
100
AcDbEntity
  8
1
  6
Continuous
 62
     7
100
AcDbLine
 10
168.1501104100951
 20
234.0318371600337
 30
0.0
 11
174.1501104100951
 21
232.1918603207942
 31
0.0
  0
LINE
  5
137
330
1F
100
AcDbEntity
  8
1
  6
Continuous
 62
     7
100
AcDbLine
 10
181.7013851217291
 20
234.3571535009525
 30
0.0
 11
156.146298626795
 21
227.029350365863
 31
0.0
  0
LINE
  5
138
330
1F
100
AcDbEntity
  8
1
  6
Continuous
 62
     2
100
AcDbLine
 10
29.97061041009511
 20
215.567228506045
 30
0.0
 11
40.15011041009507
 21
215.567228506045
 31
0.0
  0
LINE
  5
139
330
1F
100
AcDbEntity
  8
1
  6
Continuous
 62
     7
100
AcDbLine
 10
30.97061041009511
 20
241.0082285060451
 30
0.0
 11
29.15011041009507
 21
239.1877285060451
 31
0.0
  0
LINE
  5
13A
330
1F
100
AcDbEntity
  8
1
  6
Continuous
 62
     7
100
AcDbLine
 10
30.97061041009511
 20
214.567228506045
 30
0.0
 11
29.15011041009507
 21
216.3877285060452
 31
0.0
  0
LINE
  5
13B
330
1F
100
AcDbEntity
  8
1
  6
Continuous
 62
     7
100
AcDbLine
 10
192.3296104100941
 20
241.0082285060451
 30
0.0
 11
194.1501104100951
 21
239.1877285060451
 31
0.0
  0
LINE
  5
13C
330
1F
100
AcDbEntity
  8
1
  6
Continuous
 62
     7
100
AcDbLine
 10
192.3296104100941
 20
214.567228506045
 30
0.0
 11
194.1501104100951
 21
216.3877285060452
 31
0.0
  0
LINE
  5
13D
330
1F
100
AcDbEntity
  8
1
  6
Continuous
 62
     2
100
AcDbLine
 10
63.65011041009507
 20
218.3879514843306
 30
0.0
 11
63.65011041009507
 21
220.0964788747835
 31
0.0
  0
LINE
  5
13E
330
1F
100
AcDbEntity
  8
1
  6
Continuous
 62
     7
100
AcDbLine
 10
67.15011041009507
 20
219.7483473261044
 30
0.0
 11
63.11491556076294
 21
220.9054208297878
 31
0.0
  0
LINE
  5
13F
330
1F
100
AcDbEntity
  8
1
  6
Continuous
 62
     7
100
AcDbLine
 10
62.88368909426708
 20
217.8508256445362
 30
0.0
 11
68.85569776080206
 21
216.1383797156956
 31
0.0
  0
LINE
  5
140
330
1F
100
AcDbEntity
  8
1
  6
DOT_CENTER
 62
     2
100
AcDbLine
 10
67.15011041009507
 20
218.187898172312
 30
0.0
 11
37.15011041009507
 21
226.7902597450762
 31
0.0
  0
LINE
  5
141
330
1F
100
AcDbEntity
  8
1
  6
Continuous
 62
     7
100
AcDbLine
 10
71.38856383500706
 20
215.4120920561725
 30
0.0
 11
74.45396542078493
 21
214.5331022959528
 31
0.0
  0
LINE
  5
142
330
1F
100
AcDbEntity
  8
1
  6
Continuous
 62
     7
100
AcDbLine
 10
154.048040519401
 20
219.1455884844058
 30
0.0
 11
160.1853052594261
 21
220.9054208297878
 31
0.0
  0
LINE
  5
143
330
1F
100
AcDbEntity
  8
1
  6
Continuous
 62
     7
100
AcDbLine
 10
153.744107809747
 20
215.9375388747465
 30
0.0
 11
160.4165317259219
 21
217.8508256445362
 31
0.0
  0
LINE
  5
144
330
1F
100
AcDbEntity
  8
1
  6
DOT_CENTER
 62
     2
100
AcDbLine
 10
153.1812191955351
 20
217.3365823157172
 30
0.0
 11
186.1501104100951
 21
226.7902597450762
 31
0.0
  0
LINE
  5
145
330
1F
100
AcDbEntity
  8
1
  6
Continuous
 62
     7
100
AcDbLine
 10
68.85569776080206
 20
216.1383797156956
 30
0.0
 11
71.38856383500706
 21
215.4120920561725
 31
0.0
  0
LINE
  5
146
330
1F
100
AcDbEntity
  8
1
  6
Continuous
 62
     7
100
AcDbLine
 10
91.36322472337292
 20
239.8023105901698
 30
0.0
 11
90.00713158739791
 21
240.5819290159123
 31
0.0
  0
LINE
  5
147
330
1F
100
AcDbEntity
  8
1
  6
Continuous
 62
     7
100
AcDbLine
 10
109.6501104100951
 20
268.967728506045
 30
0.0
 11
113.6501104100951
 21
268.967728506045
 31
0.0
  0
LINE
  5
148
330
1F
100
AcDbEntity
  8
1
  6
Continuous
 62
     7
100
AcDbLine
 10
109.6501104100951
 20
179.967728506045
 30
0.0
 11
113.6501104100951
 21
179.967728506045
 31
0.0
  0
LINE
  5
149
330
1F
100
AcDbEntity
  8
1
  6
Continuous
 62
     7
100
AcDbLine
 10
114.6501104100951
 20
186.0847895878226
 30
0.0
 11
114.6501104100951
 21
180.967728506045
 31
0.0
  0
LINE
  5
14A
330
1F
100
AcDbEntity
  8
1
  6
Continuous
 62
     7
100
AcDbLine
 10
108.6501104100951
 20
186.0847895878226
 30
0.0
 11
108.6501104100951
 21
180.967728506045
 31
0.0
  0
LINE
  5
14B
330
1F
100
AcDbEntity
  8
1
  6
Continuous
 62
     7
100
AcDbLine
 10
114.6501104100951
 20
267.967728506045
 30
0.0
 11
114.6501104100951
 21
262.8506674242677
 31
0.0
  0
LINE
  5
14C
330
1F
100
AcDbEntity
  8
1
  6
Continuous
 62
     7
100
AcDbLine
 10
108.6501104100951
 20
267.967728506045
 30
0.0
 11
108.6501104100951
 21
262.8506674242677
 31
0.0
  0
LINE
  5
14D
330
1F
100
AcDbEntity
  8
1
  6
Continuous
 62
     7
100
AcDbLine
 10
156.1501104100951
 20
226.467728506045
 30
0.0
 11
156.1501104100951
 21
222.467728506045
 31
0.0
  0
LINE
  5
14E
330
1F
100
AcDbEntity
  8
1
  6
Continuous
 62
     7
100
AcDbLine
 10
154.044095832558
 20
221.467728506045
 30
0.0
 11
155.1501104100951
 21
221.467728506045
 31
0.0
  0
LINE
  5
14F
330
1F
100
AcDbEntity
  8
1
  6
Continuous
 62
     7
100
AcDbLine
 10
154.044095832558
 20
227.467728506045
 30
0.0
 11
155.1501104100951
 21
227.467728506045
 31
0.0
  0
LINE
  5
150
330
1F
100
AcDbEntity
  8
1
  6
Continuous
 62
     7
100
AcDbLine
 10
68.15011041009507
 20
232.217728506045
 30
0.0
 11
77.551906645087
 21
232.217728506045
 31
0.0
  0
LINE
  5
151
330
1F
100
AcDbEntity
  8
1
  6
Continuous
 62
     7
100
AcDbLine
 10
77.551906645087
 20
216.7177285060452
 30
0.0
 11
68.15011041009507
 21
216.7177285060452
 31
0.0
  0
LINE
  5
152
330
1F
100
AcDbEntity
  8
1
  6
Continuous
 62
     7
100
AcDbLine
 10
74.95968250307806
 20
216.7177285060452
 30
0.0
 11
74.1576111602451
 21
216.7177285060452
 31
0.0
  0
LINE
  5
153
330
1F
100
AcDbEntity
  8
1
  6
DOT_CENTER
 62
     2
100
AcDbLine
 10
70.65011041009507
 20
234.4288712867221
 30
0.0
 11
70.65011041009507
 21
213.6816898359832
 31
0.0
  0
LINE
  5
154
330
1F
100
AcDbEntity
  8
1
  6
Continuous
 62
     7
100
AcDbLine
 10
67.15011041009507
 20
231.217728506045
 30
0.0
 11
67.15011041009507
 21
217.7177285060452
 31
0.0
  0
LINE
  5
155
330
1F
100
AcDbEntity
  8
1
  6
Continuous
 62
     7
100
AcDbLine
 10
67.15011041009507
 20
221.717728506045
 30
0.0
 11
77.551906645087
 21
221.717728506045
 31
0.0
  0
LINE
  5
156
330
1F
100
AcDbEntity
  8
1
  6
Continuous
 62
     7
100
AcDbLine
 10
77.551906645087
 20
227.217728506045
 30
0.0
 11
67.15011041009507
 21
227.217728506045
 31
0.0
  0
LINE
  5
157
330
1F
100
AcDbEntity
  8
1
  6
Continuous
 62
     7
100
AcDbLine
 10
98.54033282433306
 20
203.6821135453145
 30
0.0
 11
97.88704113216
 21
208.559695714483
 31
0.0
  0
LINE
  5
158
330
1F
100
AcDbEntity
  8
1
  6
Continuous
 62
     7
100
AcDbLine
 10
97.36843626562495
 20
203.4864437500067
 30
0.0
 11
90.63188331984202
 21
202.3616516971709
 31
0.0
  0
LINE
  5
159
330
1F
100
AcDbEntity
  8
1
  6
Continuous
 62
     7
100
AcDbLine
 10
96.49899522972396
 20
209.9778321216306
 30
0.0
 11
97.36843626562495
 21
203.4864437500067
 31
0.0
  0
LINE
  5
15A
330
1F
100
AcDbEntity
  8
1
  6
Continuous
 62
     7
100
AcDbLine
 10
100.0359988105281
 20
203.9318426320606
 30
0.0
 11
101.4932813183859
 21
205.8235615356257
 31
0.0
  0
LINE
  5
15B
330
1F
100
AcDbEntity
  8
1
  6
Continuous
 62
     7
100
AcDbLine
 10
98.97164503146291
 20
202.5501900334187
 30
0.0
 11
91.70614212761711
 21
201.3370800063956
 31
0.0
  0
LINE
  5
15C
330
1F
100
AcDbEntity
  8
1
  6
Continuous
 62
     7
100
AcDbLine
 10
95.67129925166796
 20
198.2659647948156
 30
0.0
 11
98.97164503146291
 21
202.5501900334187
 31
0.0
  0
LINE
  5
15D
330
1F
100
AcDbEntity
  8
1
  6
Continuous
 62
     7
100
AcDbLine
 10
100.0359988105281
 20
203.9318426320606
 30
0.0
 11
98.54033282433306
 21
203.6821135453145
 31
0.0
  0
LINE
  5
15E
330
1F
100
AcDbEntity
  8
1
  6
Continuous
 62
     7
100
AcDbLine
 10
86.050481183398
 20
212.9740754164693
 30
0.0
 11
92.65987476814098
 21
215.1604048389463
 31
0.0
  0
LINE
  5
15F
330
1F
100
AcDbEntity
  8
1
  6
Continuous
 62
     7
100
AcDbLine
 10
88.92782128750196
 20
216.6366367809962
 30
0.0
 11
86.050481183398
 21
212.9740754164693
 31
0.0
  0
LINE
  5
160
330
1F
100
AcDbEntity
  8
1
  6
Continuous
 62
     7
100
AcDbLine
 10
84.508027194845
 20
217.8005217461702
 30
0.0
 11
88.92782128750196
 21
216.6366367809962
 31
0.0
  0
LINE
  5
161
330
1F
100
AcDbEntity
  8
1
  6
Continuous
 62
     7
100
AcDbLine
 10
91.09123256360408
 20
219.9781883365141
 30
0.0
 11
84.508027194845
 21
217.8005217461702
 31
0.0
  0
LINE
  5
162
330
1F
100
AcDbEntity
  8
1
  6
Continuous
 62
     7
100
AcDbLine
 10
86.46708564475898
 20
215.8110534329173
 30
0.0
 11
83.60238136474595
 21
212.1645761875598
 31
0.0
  0
LINE
  5
163
330
1F
100
AcDbEntity
  8
1
  6
Continuous
 62
     7
100
AcDbLine
 10
82.02777787248192
 20
216.9800770262373
 30
0.0
 11
86.46708564475898
 21
215.8110534329173
 31
0.0
  0
LINE
  5
164
330
1F
100
AcDbEntity
  8
1
  6
Continuous
 62
     7
100
AcDbLine
 10
83.73890198163303
 20
225.296887230903
 30
0.0
 11
90.65096503911695
 21
224.467728506045
 31
0.0
  0
LINE
  5
165
330
1F
100
AcDbEntity
  8
1
  6
Continuous
 62
     7
100
AcDbLine
 10
87.89980271799891
 20
227.3898150571138
 30
0.0
 11
83.73890198163303
 21
225.296887230903
 31
0.0
  0
LINE
  5
166
330
1F
100
AcDbEntity
  8
1
  6
Continuous
 62
     7
100
AcDbLine
 10
84.39335362634392
 20
230.3213714357765
 30
0.0
 11
87.89980271799891
 21
227.3898150571138
 31
0.0
  0
LINE
  5
167
330
1F
100
AcDbEntity
  8
1
  6
Continuous
 62
     7
100
AcDbLine
 10
91.27802920902695
 20
229.4954980634239
 30
0.0
 11
84.39335362634392
 21
230.3213714357765
 31
0.0
  0
LINE
  5
168
330
1F
100
AcDbEntity
  8
1
  6
Continuous
 62
     7
100
AcDbLine
 10
85.32145447163998
 20
227.6880231867638
 30
0.0
 11
81.17882630920212
 21
225.6042864422086
 31
0.0
  0
LINE
  5
169
330
1F
100
AcDbEntity
  8
1
  6
Continuous
 62
     7
100
AcDbLine
 10
81.79952417820391
 20
230.6325225783271
 30
0.0
 11
85.32145447163998
 21
227.6880231867638
 31
0.0
  0
LINE
  5
16A
330
1F
100
AcDbEntity
  8
1
  6
Continuous
 62
     7
100
AcDbLine
 10
97.70499573160396
 20
251.8794713804057
 30
0.0
 11
103.340560266397
 21
244.1052342619499
 31
0.0
  0
LINE
  5
16B
330
1F
100
AcDbEntity
  8
1
  6
Continuous
 62
     7
100
AcDbLine
 10
102.0671607478071
 20
243.4339375009441
 30
0.0
 11
93.4952271267939
 21
246.626186517093
 31
0.0
  0
LINE
  5
16C
330
1F
100
AcDbEntity
  8
1
  6
Continuous
 62
     7
100
AcDbLine
 10
93.4952271267939
 20
246.626186517093
 30
0.0
 11
97.97955957375598
 21
240.4400691289544
 31
0.0
  0
LINE
  5
16D
330
1F
100
AcDbEntity
  8
1
  6
Continuous
 62
     7
100
AcDbLine
 10
96.95390441474092
 20
239.4270100858908
 30
0.0
 11
91.31128882849112
 21
247.210974099606
 31
0.0
  0
LINE
  5
16E
330
1F
100
AcDbEntity
  8
1
  6
Continuous
 62
     7
100
AcDbLine
 10
92.37592809469993
 20
248.170254733904
 30
0.0
 11
100.715013072273
 21
245.2992194232559
 31
0.0
  0
LINE
  5
16F
330
1F
100
AcDbEntity
  8
1
  6
Continuous
 62
     7
100
AcDbLine
 10
100.715013072273
 20
245.2992194232559
 30
0.0
 11
96.467948178298
 21
251.1580272391164
 31
0.0
  0
LINE
  5
170
330
1F
100
AcDbEntity
  8
1
  6
Continuous
 62
     7
100
AcDbLine
 10
96.8867918570379
 20
197.508768635005
 30
0.0
 11
102.746572183305
 21
205.1154318277388
 31
0.0
  0
LINE
  5
171
330
1F
100
AcDbEntity
  8
1
  6
Continuous
 62
     7
100
AcDbLine
 10
81.15000682919299
 20
224.1722302302433
 30
0.0
 11
90.683654581562
 21
223.0285908930644
 31
0.0
  0
LINE
  5
172
330
1F
100
AcDbEntity
  8
1
  6
Continuous
 62
     7
100
AcDbLine
 10
91.66556896269594
 20
230.8842257214581
 30
0.0
 11
82.11999299258491
 21
232.0292959463084
 31
0.0
  0
LINE
  5
173
330
1F
100
AcDbEntity
  8
1
  6
Continuous
 62
     7
100
AcDbLine
 10
84.18566277409695
 20
210.8540843180646
 30
0.0
 11
93.30082742858713
 21
213.8717600303624
 31
0.0
  0
LINE
  5
174
330
1F
100
AcDbEntity
  8
1
  6
Continuous
 62
     7
100
AcDbLine
 10
90.85194584946294
 20
221.4002589726725
 30
0.0
 11
81.72478930906891
 21
218.3786132143899
 31
0.0
  0
LINE
  5
175
330
1F
100
AcDbEntity
  8
1
  6
Continuous
 62
     7
100
AcDbLine
 10
94.58998907224395
 20
212.2640931194076
 30
0.0
 11
86.85965537117204
 21
206.7362309902984
 31
0.0
  0
LINE
  5
176
330
1F
100
AcDbEntity
  8
1
  6
Continuous
 62
     7
100
AcDbLine
 10
87.688534792165
 20
205.5771003223171
 30
0.0
 11
95.418868493236
 21
211.1049624514261
 31
0.0
  0
LINE
  5
177
330
1F
100
AcDbEntity
  8
1
  6
Continuous
 62
     7
100
AcDbLine
 10
87.499102863203
 20
236.1795094546972
 30
0.0
 11
89.05693170588506
 21
235.2839130994847
 31
0.0
  0
LINE
  5
178
330
1F
100
AcDbEntity
  8
1
  6
Continuous
 62
     7
100
AcDbLine
 10
87.948568624176
 20
234.2759082394942
 30
0.0
 11
86.69461644493504
 21
234.9983034982502
 31
0.0
  0
LINE
  5
179
330
1F
100
AcDbEntity
  8
1
  6
Continuous
 62
     7
100
AcDbLine
 10
91.89371452822502
 20
241.1410372970309
 30
0.0
 11
90.57673154918393
 21
241.898171279655
 31
0.0
  0
LINE
  5
17A
330
1F
100
AcDbEntity
  8
1
  6
Continuous
 62
     7
100
AcDbLine
 10
107.313397868103
 20
230.812728506045
 30
0.0
 11
103.6501104100951
 21
228.697728506045
 31
0.0
  0
LINE
  5
17B
330
1F
100
AcDbEntity
  8
1
  6
Continuous
 62
     7
100
AcDbLine
 10
107.313397868103
 20
226.582728506045
 30
0.0
 11
107.313397868103
 21
230.812728506045
 31
0.0
  0
LINE
  5
17C
330
1F
100
AcDbEntity
  8
1
  6
Continuous
 62
     7
100
AcDbLine
 10
110.976685326111
 20
224.467728506045
 30
0.0
 11
107.313397868103
 21
226.582728506045
 31
0.0
  0
LINE
  5
17D
330
1F
100
AcDbEntity
  8
1
  6
Continuous
 62
     7
100
AcDbLine
 10
107.313397868103
 20
222.3527285060451
 30
0.0
 11
110.976685326111
 21
224.467728506045
 31
0.0
  0
LINE
  5
17E
330
1F
100
AcDbEntity
  8
1
  6
Continuous
 62
     7
100
AcDbLine
 10
107.313397868103
 20
218.122728506045
 30
0.0
 11
107.313397868103
 21
222.3527285060451
 31
0.0
  0
LINE
  5
17F
330
1F
100
AcDbEntity
  8
1
  6
Continuous
 62
     7
100
AcDbLine
 10
103.6501104100951
 20
220.237728506045
 30
0.0
 11
107.313397868103
 21
218.122728506045
 31
0.0
  0
LINE
  5
180
330
1F
100
AcDbEntity
  8
1
  6
Continuous
 62
     7
100
AcDbLine
 10
99.9868229520871
 20
218.122728506045
 30
0.0
 11
103.6501104100951
 21
220.237728506045
 31
0.0
  0
LINE
  5
181
330
1F
100
AcDbEntity
  8
1
  6
Continuous
 62
     7
100
AcDbLine
 10
99.9868229520871
 20
222.3527285060451
 30
0.0
 11
99.9868229520871
 21
218.122728506045
 31
0.0
  0
LINE
  5
182
330
1F
100
AcDbEntity
  8
1
  6
Continuous
 62
     7
100
AcDbLine
 10
96.32353549407799
 20
224.467728506045
 30
0.0
 11
99.9868229520871
 21
222.3527285060451
 31
0.0
  0
LINE
  5
183
330
1F
100
AcDbEntity
  8
1
  6
Continuous
 62
     7
100
AcDbLine
 10
99.9868229520871
 20
226.582728506045
 30
0.0
 11
96.32353549407799
 21
224.467728506045
 31
0.0
  0
LINE
  5
184
330
1F
100
AcDbEntity
  8
1
  6
Continuous
 62
     7
100
AcDbLine
 10
99.9868229520871
 20
230.812728506045
 30
0.0
 11
99.9868229520871
 21
226.582728506045
 31
0.0
  0
LINE
  5
185
330
1F
100
AcDbEntity
  8
1
  6
Continuous
 62
     7
100
AcDbLine
 10
103.6501104100951
 20
228.697728506045
 30
0.0
 11
99.9868229520871
 21
230.812728506045
 31
0.0
  0
LINE
  5
186
330
1F
100
AcDbEntity
  8
1
  6
Continuous
 62
     7
100
AcDbLine
 10
108.6470769899311
 20
233.122728506045
 30
0.0
 11
103.6501104100951
 21
230.237728506045
 31
0.0
  0
LINE
  5
187
330
1F
100
AcDbEntity
  8
1
  6
Continuous
 62
     7
100
AcDbLine
 10
108.6470769899311
 20
227.3527285060451
 30
0.0
 11
108.6470769899311
 21
233.122728506045
 31
0.0
  0
LINE
  5
188
330
1F
100
AcDbEntity
  8
1
  6
Continuous
 62
     7
100
AcDbLine
 10
113.6440435697671
 20
224.467728506045
 30
0.0
 11
108.6470769899311
 21
227.3527285060451
 31
0.0
  0
LINE
  5
189
330
1F
100
AcDbEntity
  8
1
  6
Continuous
 62
     7
100
AcDbLine
 10
108.6470769899311
 20
221.582728506045
 30
0.0
 11
113.6440435697671
 21
224.467728506045
 31
0.0
  0
LINE
  5
18A
330
1F
100
AcDbEntity
  8
1
  6
Continuous
 62
     7
100
AcDbLine
 10
108.6470769899311
 20
215.812728506045
 30
0.0
 11
108.6470769899311
 21
221.582728506045
 31
0.0
  0
LINE
  5
18B
330
1F
100
AcDbEntity
  8
1
  6
Continuous
 62
     7
100
AcDbLine
 10
103.6501104100951
 20
218.697728506045
 30
0.0
 11
108.6470769899311
 21
215.812728506045
 31
0.0
  0
LINE
  5
18C
330
1F
100
AcDbEntity
  8
1
  6
Continuous
 62
     7
100
AcDbLine
 10
98.65314383025907
 20
215.812728506045
 30
0.0
 11
103.6501104100951
 21
218.697728506045
 31
0.0
  0
LINE
  5
18D
330
1F
100
AcDbEntity
  8
1
  6
Continuous
 62
     7
100
AcDbLine
 10
98.65314383025907
 20
221.582728506045
 30
0.0
 11
98.65314383025907
 21
215.812728506045
 31
0.0
  0
LINE
  5
18E
330
1F
100
AcDbEntity
  8
1
  6
Continuous
 62
     7
100
AcDbLine
 10
93.65617725042193
 20
224.467728506045
 30
0.0
 11
98.65314383025907
 21
221.582728506045
 31
0.0
  0
LINE
  5
18F
330
1F
100
AcDbEntity
  8
1
  6
Continuous
 62
     7
100
AcDbLine
 10
98.65314383025907
 20
227.3527285060451
 30
0.0
 11
93.65617725042193
 21
224.467728506045
 31
0.0
  0
LINE
  5
190
330
1F
100
AcDbEntity
  8
1
  6
Continuous
 62
     7
100
AcDbLine
 10
98.65314383025907
 20
233.122728506045
 30
0.0
 11
98.65314383025907
 21
227.3527285060451
 31
0.0
  0
LINE
  5
191
330
1F
100
AcDbEntity
  8
1
  6
Continuous
 62
     7
100
AcDbLine
 10
103.6501104100951
 20
230.237728506045
 30
0.0
 11
98.65314383025907
 21
233.122728506045
 31
0.0
  0
LINE
  5
192
330
1F
100
AcDbEntity
  8
1
  6
Continuous
 62
     7
100
AcDbLine
 10
102.9101104100951
 20
225.207728506045
 30
0.0
 11
102.9101104100951
 21
228.1277285060451
 31
0.0
  0
LINE
  5
193
330
1F
100
AcDbEntity
  8
1
  6
Continuous
 62
     7
100
AcDbLine
 10
99.99011041009499
 20
225.207728506045
 30
0.0
 11
102.9101104100951
 21
225.207728506045
 31
0.0
  0
LINE
  5
194
330
1F
100
AcDbEntity
  8
1
  6
Continuous
 62
     7
100
AcDbLine
 10
99.99011041009499
 20
223.7277285060451
 30
0.0
 11
99.99011041009499
 21
225.207728506045
 31
0.0
  0
LINE
  5
195
330
1F
100
AcDbEntity
  8
1
  6
Continuous
 62
     7
100
AcDbLine
 10
102.9101104100951
 20
223.7277285060451
 30
0.0
 11
99.99011041009499
 21
223.7277285060451
 31
0.0
  0
LINE
  5
196
330
1F
100
AcDbEntity
  8
1
  6
Continuous
 62
     7
100
AcDbLine
 10
102.9101104100951
 20
220.807728506045
 30
0.0
 11
102.9101104100951
 21
223.7277285060451
 31
0.0
  0
LINE
  5
197
330
1F
100
AcDbEntity
  8
1
  6
Continuous
 62
     7
100
AcDbLine
 10
104.3901104100951
 20
220.807728506045
 30
0.0
 11
102.9101104100951
 21
220.807728506045
 31
0.0
  0
LINE
  5
198
330
1F
100
AcDbEntity
  8
1
  6
Continuous
 62
     7
100
AcDbLine
 10
104.3901104100951
 20
223.7277285060451
 30
0.0
 11
104.3901104100951
 21
220.807728506045
 31
0.0
  0
LINE
  5
199
330
1F
100
AcDbEntity
  8
1
  6
Continuous
 62
     7
100
AcDbLine
 10
107.3101104100949
 20
223.7277285060451
 30
0.0
 11
104.3901104100951
 21
223.7277285060451
 31
0.0
  0
LINE
  5
19A
330
1F
100
AcDbEntity
  8
1
  6
Continuous
 62
     7
100
AcDbLine
 10
107.3101104100949
 20
225.207728506045
 30
0.0
 11
107.3101104100949
 21
223.7277285060451
 31
0.0
  0
LINE
  5
19B
330
1F
100
AcDbEntity
  8
1
  6
Continuous
 62
     7
100
AcDbLine
 10
104.3901104100951
 20
225.207728506045
 30
0.0
 11
107.3101104100949
 21
225.207728506045
 31
0.0
  0
LINE
  5
19C
330
1F
100
AcDbEntity
  8
1
  6
Continuous
 62
     7
100
AcDbLine
 10
104.3901104100951
 20
228.1277285060451
 30
0.0
 11
104.3901104100951
 21
225.207728506045
 31
0.0
  0
LINE
  5
19D
330
1F
100
AcDbEntity
  8
1
  6
Continuous
 62
     7
100
AcDbLine
 10
102.9101104100951
 20
228.1277285060451
 30
0.0
 11
104.3901104100951
 21
228.1277285060451
 31
0.0
  0
LINE
  5
19E
330
1F
100
AcDbEntity
  8
1
  6
Continuous
 62
     7
100
AcDbLine
 10
148.9160465985231
 20
234.467728506045
 30
0.0
 11
152.162454208004
 21
234.467728506045
 31
0.0
  0
LINE
  5
19F
330
1F
100
AcDbEntity
  8
1
  6
Continuous
 62
     7
100
AcDbLine
 10
148.9160465985231
 20
214.4677285060452
 30
0.0
 11
152.162454208004
 21
214.4677285060452
 31
0.0
  0
LINE
  5
1A0
330
1F
100
AcDbEntity
  8
1
  6
Continuous
 62
     7
100
AcDbLine
 10
132.0050529755361
 20
210.9677285060452
 30
0.0
 11
139.6501104100951
 21
210.9677285060452
 31
0.0
  0
LINE
  5
1A1
330
1F
100
AcDbEntity
  8
1
  6
Continuous
 62
     7
100
AcDbLine
 10
129.6501104100951
 20
211.9677285060452
 30
0.0
 11
129.6501104100951
 21
210.9677285060452
 31
0.0
  0
LINE
  5
1A2
330
1F
100
AcDbEntity
  8
1
  6
Continuous
 62
     7
100
AcDbLine
 10
139.6501104100951
 20
211.9677285060452
 30
0.0
 11
129.6501104100951
 21
211.9677285060452
 31
0.0
  0
LINE
  5
1A3
330
1F
100
AcDbEntity
  8
1
  6
Continuous
 62
     7
100
AcDbLine
 10
139.6501104100951
 20
210.9677285060452
 30
0.0
 11
139.6501104100951
 21
211.9677285060452
 31
0.0
  0
LINE
  5
1A4
330
1F
100
AcDbEntity
  8
1
  6
Continuous
 62
     7
100
AcDbLine
 10
129.6501104100951
 20
210.9677285060452
 30
0.0
 11
129.6501104100951
 21
211.9677285060452
 31
0.0
  0
LINE
  5
1A5
330
1F
100
AcDbEntity
  8
1
  6
Continuous
 62
     7
100
AcDbLine
 10
139.6501104100951
 20
210.9677285060452
 30
0.0
 11
132.0050529755361
 21
210.9677285060452
 31
0.0
  0
LINE
  5
1A6
330
1F
100
AcDbEntity
  8
1
  6
DASH_CENTER
 62
     7
100
AcDbLine
 10
139.6501104100951
 20
210.9677285060452
 30
0.0
 11
139.6501104100951
 21
211.9677285060452
 31
0.0
  0
LINE
  5
1A7
330
1F
100
AcDbEntity
  8
1
  6
Continuous
 62
     7
100
AcDbLine
 10
129.6501104100951
 20
210.9677285060452
 30
0.0
 11
132.0050529755361
 21
209.9677285060452
 31
0.0
  0
LINE
  5
1A8
330
1F
100
AcDbEntity
  8
1
  6
Continuous
 62
     7
100
AcDbLine
 10
132.0050529755361
 20
209.9677285060452
 30
0.0
 11
132.0050529755361
 21
210.9677285060452
 31
0.0
  0
LINE
  5
1A9
330
1F
100
AcDbEntity
  8
1
  6
Continuous
 62
     7
100
AcDbLine
 10
129.6501104100951
 20
214.2812350887483
 30
0.0
 11
129.6501104100951
 21
221.2812350887483
 31
0.0
  0
LINE
  5
1AA
330
1F
100
AcDbEntity
  8
1
  6
Continuous
 62
     7
100
AcDbLine
 10
129.6501104100951
 20
221.2812350887483
 30
0.0
 11
131.1501104100951
 21
221.2812350887483
 31
0.0
  0
LINE
  5
1AB
330
1F
100
AcDbEntity
  8
1
  6
Continuous
 62
     7
100
AcDbLine
 10
131.1501104100951
 20
221.2812350887483
 30
0.0
 11
133.3771730532001
 21
218.7785196552983
 31
0.0
  0
LINE
  5
1AC
330
1F
100
AcDbEntity
  8
1
  6
Continuous
 62
     7
100
AcDbLine
 10
129.6501104100951
 20
214.2812350887483
 30
0.0
 11
130.6501104100951
 21
214.2812350887483
 31
0.0
  0
LINE
  5
1AD
330
1F
100
AcDbEntity
  8
1
  6
Continuous
 62
     7
100
AcDbLine
 10
130.6501104100951
 20
214.2812350887483
 30
0.0
 11
130.6501104100951
 21
220.1702704019882
 31
0.0
  0
LINE
  5
1AE
330
1F
100
AcDbEntity
  8
1
  6
Continuous
 62
     7
100
AcDbLine
 10
130.6501104100951
 20
220.1702704019882
 30
0.0
 11
133.708062491085
 21
216.9069502827731
 31
0.0
  0
LINE
  5
1AF
330
1F
100
AcDbEntity
  8
1
  6
Continuous
 62
     7
100
AcDbLine
 10
133.708062491085
 20
216.9069502827731
 30
0.0
 11
134.3771730532001
 21
216.9069502827731
 31
0.0
  0
LINE
  5
1B0
330
1F
100
AcDbEntity
  8
1
  6
Continuous
 62
     7
100
AcDbLine
 10
134.3771730532001
 20
216.9069502827731
 30
0.0
 11
134.3771730532001
 21
218.7785196517444
 31
0.0
  0
LINE
  5
1B1
330
1F
100
AcDbEntity
  8
1
  6
Continuous
 62
     7
100
AcDbLine
 10
139.2564748058389
 20
216.6029784091852
 30
0.0
 11
139.2564748058389
 21
218.9688854365717
 31
0.0
  0
LINE
  5
1B2
330
1F
100
AcDbEntity
  8
1
  6
Continuous
 62
     7
100
AcDbLine
 10
137.321080299615
 20
214.3395265690327
 30
0.0
 11
136.7599232218061
 21
215.2758042218486
 31
0.0
  0
LINE
  5
1B3
330
1F
100
AcDbEntity
  8
1
  6
Continuous
 62
     7
100
AcDbLine
 10
138.2626386552561
 20
216.7785196552983
 30
0.0
 11
138.2626386552561
 21
218.7785196552983
 31
0.0
  0
LINE
  5
1B4
330
1F
100
AcDbEntity
  8
1
  6
Continuous
 62
     7
100
AcDbLine
 10
116.1501104100951
 20
251.967728506045
 30
0.0
 11
126.6501104100951
 21
251.967728506045
 31
0.0
  0
LINE
  5
1B5
330
1F
100
AcDbEntity
  8
1
  6
Continuous
 62
     7
100
AcDbLine
 10
126.6501104100951
 20
251.967728506045
 30
0.0
 11
126.6501104100951
 21
196.9677285060452
 31
0.0
  0
LINE
  5
1B6
330
1F
100
AcDbEntity
  8
1
  6
Continuous
 62
     7
100
AcDbLine
 10
126.6501104100951
 20
196.9677285060452
 30
0.0
 11
116.1501104100951
 21
196.9677285060452
 31
0.0
  0
LINE
  5
1B7
330
1F
100
AcDbEntity
  8
1
  6
Continuous
 62
     7
100
AcDbLine
 10
116.1501104100951
 20
196.9677285060452
 30
0.0
 11
116.1501104100951
 21
251.967728506045
 31
0.0
  0
LINE
  5
1B8
330
1F
100
AcDbEntity
  8
1
  6
Continuous
 62
     2
100
AcDbLine
 10
34.68749999999991
 20
197.875
 30
0.0
 11
34.76249999999991
 21
197.6125
 31
0.0
  0
LINE
  5
1B9
330
1F
100
AcDbEntity
  8
1
  6
Continuous
 62
     2
100
AcDbLine
 10
34.76249999999991
 20
197.6125
 30
0.0
 11
34.83749999999991
 21
197.425
 31
0.0
  0
LINE
  5
1BA
330
1F
100
AcDbEntity
  8
1
  6
Continuous
 62
     2
100
AcDbLine
 10
34.83749999999991
 20
197.425
 30
0.0
 11
35.09999999999991
 21
197.6875
 31
0.0
  0
LINE
  5
1BB
330
1F
100
AcDbEntity
  8
1
  6
Continuous
 62
     2
100
AcDbLine
 10
35.43749999999991
 20
197.3125
 30
0.0
 11
35.77499999999991
 21
197.3125
 31
0.0
  0
LINE
  5
1BC
330
1F
100
AcDbEntity
  8
1
  6
Continuous
 62
     2
100
AcDbLine
 10
35.77499999999991
 20
197.3125
 30
0.0
 11
35.92499999999991
 21
197.5
 31
0.0
  0
LINE
  5
1BD
330
1F
100
AcDbEntity
  8
1
  6
Continuous
 62
     2
100
AcDbLine
 10
35.92499999999991
 20
197.5
 30
0.0
 11
35.84999999999991
 21
197.875
 31
0.0
  0
LINE
  5
1BE
330
1F
100
AcDbEntity
  8
1
  6
Continuous
 62
     2
100
AcDbLine
 10
35.84999999999991
 20
197.875
 30
0.0
 11
35.51249999999991
 21
198.3625
 31
0.0
  0
LINE
  5
1BF
330
1F
100
AcDbEntity
  8
1
  6
Continuous
 62
     2
100
AcDbLine
 10
35.51249999999991
 20
198.3625
 30
0.0
 11
35.58749999999991
 21
198.625
 31
0.0
  0
LINE
  5
1C0
330
1F
100
AcDbEntity
  8
1
  6
Continuous
 62
     2
100
AcDbLine
 10
35.58749999999991
 20
198.625
 30
0.0
 11
35.92499999999991
 21
198.8125
 31
0.0
  0
LINE
  5
1C1
330
1F
100
AcDbEntity
  8
1
  6
Continuous
 62
     2
100
AcDbLine
 10
35.92499999999991
 20
198.8125
 30
0.0
 11
35.84999999999991
 21
199.1125
 31
0.0
  0
LINE
  5
1C2
330
1F
100
AcDbEntity
  8
1
  6
Continuous
 62
     2
100
AcDbLine
 10
35.84999999999991
 20
199.1125
 30
0.0
 11
35.58749999999991
 21
199.375
 31
0.0
  0
LINE
  5
1C3
330
1F
100
AcDbEntity
  8
1
  6
Continuous
 62
     2
100
AcDbLine
 10
36.44999999999991
 20
197.9875
 30
0.0
 11
36.67499999999991
 21
197.6875
 31
0.0
  0
LINE
  5
1C4
330
1F
100
AcDbEntity
  8
1
  6
Continuous
 62
     2
100
AcDbLine
 10
36.67499999999991
 20
197.6875
 30
0.0
 11
36.86249999999991
 21
197.425
 31
0.0
  0
LINE
  5
1C5
330
1F
100
AcDbEntity
  8
1
  6
Continuous
 62
     2
100
AcDbLine
 10
37.94999999999991
 20
197.2375
 30
0.0
 11
38.17499999999991
 21
198.25
 31
0.0
  0
LINE
  5
1C6
330
1F
100
AcDbEntity
  8
1
  6
Continuous
 62
     2
100
AcDbLine
 10
38.17499999999991
 20
198.25
 30
0.0
 11
38.36249999999991
 21
199.4875
 31
0.0
  0
LINE
  5
1C7
330
1F
100
AcDbEntity
  8
1
  6
Continuous
 62
     2
100
AcDbLine
 10
38.92499999999991
 20
199.1875
 30
0.0
 11
38.36249999999991
 21
199.0
 31
0.0
  0
LINE
  5
1C8
330
1F
100
AcDbEntity
  8
1
  6
Continuous
 62
     2
100
AcDbLine
 10
38.36249999999991
 20
199.0
 30
0.0
 11
37.76249999999991
 21
198.925
 31
0.0
  0
LINE
  5
1C9
330
1F
100
AcDbEntity
  8
1
  6
Continuous
 62
     2
100
AcDbLine
 10
38.99999999999991
 20
198.8125
 30
0.0
 11
39.26249999999991
 21
198.8125
 31
0.0
  0
LINE
  5
1CA
330
1F
100
AcDbEntity
  8
1
  6
Continuous
 62
     2
100
AcDbLine
 10
39.26249999999991
 20
198.8125
 30
0.0
 11
39.59999999999991
 21
198.7375
 31
0.0
  0
LINE
  5
1CB
330
1F
100
AcDbEntity
  8
1
  6
Continuous
 62
     2
100
AcDbLine
 10
38.77499999999991
 20
197.6125
 30
0.0
 11
38.92499999999991
 21
197.425
 31
0.0
  0
LINE
  5
1CC
330
1F
100
AcDbEntity
  8
1
  6
Continuous
 62
     2
100
AcDbLine
 10
38.92499999999991
 20
197.425
 30
0.0
 11
39.33749999999991
 21
197.3125
 31
0.0
  0
LINE
  5
1CD
330
1F
100
AcDbEntity
  8
1
  6
Continuous
 62
     2
100
AcDbLine
 10
39.33749999999991
 20
197.3125
 30
0.0
 11
39.74999999999991
 21
197.425
 31
0.0
  0
LINE
  5
1CE
330
1F
100
AcDbEntity
  8
1
  6
Continuous
 62
     2
100
AcDbLine
 10
41.77499999999991
 20
199.3
 30
0.0
 11
41.51249999999991
 21
198.3625
 31
0.0
  0
LINE
  5
1CF
330
1F
100
AcDbEntity
  8
1
  6
Continuous
 62
     2
100
AcDbLine
 10
41.51249999999991
 20
198.3625
 30
0.0
 11
41.09999999999991
 21
197.425
 31
0.0
  0
LINE
  5
1D0
330
1F
100
AcDbEntity
  8
1
  6
Continuous
 62
     2
100
AcDbLine
 10
41.09999999999991
 20
197.425
 30
0.0
 11
40.76249999999991
 21
197.6125
 31
0.0
  0
LINE
  5
1D1
330
1F
100
AcDbEntity
  8
1
  6
Continuous
 62
     2
100
AcDbLine
 10
40.76249999999991
 20
197.6125
 30
0.0
 11
40.68749999999991
 21
198.0625
 31
0.0
  0
LINE
  5
1D2
330
1F
100
AcDbEntity
  8
1
  6
Continuous
 62
     2
100
AcDbLine
 10
40.68749999999991
 20
198.0625
 30
0.0
 11
40.76249999999991
 21
198.625
 31
0.0
  0
LINE
  5
1D3
330
1F
100
AcDbEntity
  8
1
  6
Continuous
 62
     2
100
AcDbLine
 10
40.76249999999991
 20
198.625
 30
0.0
 11
41.09999999999991
 21
199.1125
 31
0.0
  0
LINE
  5
1D4
330
1F
100
AcDbEntity
  8
1
  6
Continuous
 62
     2
100
AcDbLine
 10
41.09999999999991
 20
199.1125
 30
0.0
 11
41.58749999999991
 21
199.3
 31
0.0
  0
LINE
  5
1D5
330
1F
100
AcDbEntity
  8
1
  6
Continuous
 62
     2
100
AcDbLine
 10
41.58749999999991
 20
199.3
 30
0.0
 11
42.11249999999991
 21
199.3
 31
0.0
  0
LINE
  5
1D6
330
1F
100
AcDbEntity
  8
1
  6
Continuous
 62
     2
100
AcDbLine
 10
42.11249999999991
 20
199.3
 30
0.0
 11
42.44999999999991
 21
199.1125
 31
0.0
  0
LINE
  5
1D7
330
1F
100
AcDbEntity
  8
1
  6
Continuous
 62
     2
100
AcDbLine
 10
42.44999999999991
 20
199.1125
 30
0.0
 11
42.67499999999991
 21
198.7375
 31
0.0
  0
LINE
  5
1D8
330
1F
100
AcDbEntity
  8
1
  6
Continuous
 62
     2
100
AcDbLine
 10
42.67499999999991
 20
198.7375
 30
0.0
 11
42.67499999999991
 21
198.0625
 31
0.0
  0
LINE
  5
1D9
330
1F
100
AcDbEntity
  8
1
  6
Continuous
 62
     2
100
AcDbLine
 10
42.67499999999991
 20
198.0625
 30
0.0
 11
42.44999999999991
 21
197.6125
 31
0.0
  0
LINE
  5
1DA
330
1F
100
AcDbEntity
  8
1
  6
Continuous
 62
     2
100
AcDbLine
 10
42.44999999999991
 20
197.6125
 30
0.0
 11
41.99999999999991
 21
197.2375
 31
0.0
  0
LINE
  5
1DB
330
1F
100
AcDbEntity
  8
1
  6
Continuous
 62
     2
100
AcDbLine
 10
43.61249999999991
 20
197.05
 30
0.0
 11
43.61249999999991
 21
199.3
 31
0.0
  0
LINE
  5
1DC
330
1F
100
AcDbEntity
  8
1
  6
Continuous
 62
     2
100
AcDbLine
 10
43.61249999999991
 20
199.3
 30
0.0
 11
45.74999999999991
 21
199.3
 31
0.0
  0
LINE
  5
1DD
330
1F
100
AcDbEntity
  8
1
  6
Continuous
 62
     2
100
AcDbLine
 10
45.74999999999991
 20
199.3
 30
0.0
 11
45.74999999999991
 21
197.05
 31
0.0
  0
LINE
  5
1DE
330
1F
100
AcDbEntity
  8
1
  6
Continuous
 62
     2
100
AcDbLine
 10
45.74999999999991
 20
197.05
 30
0.0
 11
45.33749999999991
 21
197.05
 31
0.0
  0
LINE
  5
1DF
330
1F
100
AcDbEntity
  8
1
  6
Continuous
 62
     2
100
AcDbLine
 10
44.36249999999991
 20
197.875
 30
0.0
 11
44.36249999999991
 21
198.625
 31
0.0
  0
LINE
  5
1E0
330
1F
100
AcDbEntity
  8
1
  6
Continuous
 62
     2
100
AcDbLine
 10
44.36249999999991
 20
198.625
 30
0.0
 11
44.99999999999991
 21
198.625
 31
0.0
  0
LINE
  5
1E1
330
1F
100
AcDbEntity
  8
1
  6
Continuous
 62
     2
100
AcDbLine
 10
44.99999999999991
 20
198.625
 30
0.0
 11
44.99999999999991
 21
197.875
 31
0.0
  0
LINE
  5
1E2
330
1F
100
AcDbEntity
  8
1
  6
Continuous
 62
     2
100
AcDbLine
 10
44.99999999999991
 20
197.875
 30
0.0
 11
44.36249999999991
 21
197.875
 31
0.0
  0
LINE
  5
1E3
330
1F
100
AcDbEntity
  8
1
  6
Continuous
 62
     2
100
AcDbLine
 10
44.02499999999991
 20
199.3
 30
0.0
 11
44.43749999999991
 21
199.8625
 31
0.0
  0
LINE
  5
1E4
330
1F
100
AcDbEntity
  8
1
  6
Continuous
 62
     2
100
AcDbLine
 10
47.09999999999991
 20
198.55
 30
0.0
 11
47.84999999999991
 21
198.7375
 31
0.0
  0
LINE
  5
1E5
330
1F
100
AcDbEntity
  8
1
  6
Continuous
 62
     2
100
AcDbLine
 10
47.84999999999991
 20
198.7375
 30
0.0
 11
48.44999999999991
 21
199.0
 31
0.0
  0
LINE
  5
1E6
330
1F
100
AcDbEntity
  8
1
  6
Continuous
 62
     2
100
AcDbLine
 10
47.99999999999991
 20
199.4875
 30
0.0
 11
47.69999999999991
 21
199.3
 31
0.0
  0
LINE
  5
1E7
330
1F
100
AcDbEntity
  8
1
  6
Continuous
 62
     2
100
AcDbLine
 10
47.69999999999991
 20
199.3
 30
0.0
 11
47.09999999999991
 21
199.1125
 31
0.0
  0
LINE
  5
1E8
330
1F
100
AcDbEntity
  8
1
  6
Continuous
 62
     2
100
AcDbLine
 10
47.36249999999991
 20
199.75
 30
0.0
 11
47.77499999999991
 21
199.1125
 31
0.0
  0
LINE
  5
1E9
330
1F
100
AcDbEntity
  8
1
  6
Continuous
 62
     2
100
AcDbLine
 10
47.77499999999991
 20
199.1125
 30
0.0
 11
48.33749999999991
 21
197.9875
 31
0.0
  0
LINE
  5
1EA
330
1F
100
AcDbEntity
  8
1
  6
Continuous
 62
     2
100
AcDbLine
 10
48.33749999999991
 20
197.9875
 30
0.0
 11
47.99999999999991
 21
198.0625
 31
0.0
  0
LINE
  5
1EB
330
1F
100
AcDbEntity
  8
1
  6
Continuous
 62
     2
100
AcDbLine
 10
47.99999999999991
 20
198.0625
 30
0.0
 11
47.69999999999991
 21
198.0625
 31
0.0
  0
LINE
  5
1EC
330
1F
100
AcDbEntity
  8
1
  6
Continuous
 62
     2
100
AcDbLine
 10
47.69999999999991
 20
198.0625
 30
0.0
 11
47.36249999999991
 21
197.875
 31
0.0
  0
LINE
  5
1ED
330
1F
100
AcDbEntity
  8
1
  6
Continuous
 62
     2
100
AcDbLine
 10
47.36249999999991
 20
197.875
 30
0.0
 11
47.17499999999991
 21
197.5
 31
0.0
  0
LINE
  5
1EE
330
1F
100
AcDbEntity
  8
1
  6
Continuous
 62
     2
100
AcDbLine
 10
47.17499999999991
 20
197.5
 30
0.0
 11
47.51249999999991
 21
197.2375
 31
0.0
  0
LINE
  5
1EF
330
1F
100
AcDbEntity
  8
1
  6
Continuous
 62
     2
100
AcDbLine
 10
47.51249999999991
 20
197.2375
 30
0.0
 11
48.11249999999991
 21
197.125
 31
0.0
  0
LINE
  5
1F0
330
1F
100
AcDbEntity
  8
1
  6
Continuous
 62
     2
100
AcDbLine
 10
49.94999999999991
 20
197.2375
 30
0.0
 11
49.83749999999991
 21
197.875
 31
0.0
  0
LINE
  5
1F1
330
1F
100
AcDbEntity
  8
1
  6
Continuous
 62
     2
100
AcDbLine
 10
49.83749999999991
 20
197.875
 30
0.0
 11
49.83749999999991
 21
198.7375
 31
0.0
  0
LINE
  5
1F2
330
1F
100
AcDbEntity
  8
1
  6
Continuous
 62
     2
100
AcDbLine
 10
49.83749999999991
 20
198.7375
 30
0.0
 11
50.02499999999991
 21
199.5625
 31
0.0
  0
LINE
  5
1F3
330
1F
100
AcDbEntity
  8
1
  6
Continuous
 62
     2
100
AcDbLine
 10
50.51249999999991
 20
198.925
 30
0.0
 11
51.26249999999991
 21
199.0
 31
0.0
  0
LINE
  5
1F4
330
1F
100
AcDbEntity
  8
1
  6
Continuous
 62
     2
100
AcDbLine
 10
51.26249999999991
 20
199.0
 30
0.0
 11
51.67499999999991
 21
199.1125
 31
0.0
  0
LINE
  5
1F5
330
1F
100
AcDbEntity
  8
1
  6
Continuous
 62
     2
100
AcDbLine
 10
51.18749999999991
 20
199.5625
 30
0.0
 11
51.26249999999991
 21
197.875
 31
0.0
  0
LINE
  5
1F6
330
1F
100
AcDbEntity
  8
1
  6
Continuous
 62
     2
100
AcDbLine
 10
51.26249999999991
 20
197.875
 30
0.0
 11
51.18749999999991
 21
197.5
 31
0.0
  0
LINE
  5
1F7
330
1F
100
AcDbEntity
  8
1
  6
Continuous
 62
     2
100
AcDbLine
 10
51.18749999999991
 20
197.5
 30
0.0
 11
50.99999999999991
 21
197.3125
 31
0.0
  0
LINE
  5
1F8
330
1F
100
AcDbEntity
  8
1
  6
Continuous
 62
     2
100
AcDbLine
 10
50.99999999999991
 20
197.3125
 30
0.0
 11
50.69999999999991
 21
197.2375
 31
0.0
  0
LINE
  5
1F9
330
1F
100
AcDbEntity
  8
1
  6
Continuous
 62
     2
100
AcDbLine
 10
50.69999999999991
 20
197.2375
 30
0.0
 11
50.43749999999991
 21
197.425
 31
0.0
  0
LINE
  5
1FA
330
1F
100
AcDbEntity
  8
1
  6
Continuous
 62
     2
100
AcDbLine
 10
50.43749999999991
 20
197.425
 30
0.0
 11
50.43749999999991
 21
197.6125
 31
0.0
  0
LINE
  5
1FB
330
1F
100
AcDbEntity
  8
1
  6
Continuous
 62
     2
100
AcDbLine
 10
50.43749999999991
 20
197.6125
 30
0.0
 11
50.84999999999991
 21
197.6875
 31
0.0
  0
LINE
  5
1FC
330
1F
100
AcDbEntity
  8
1
  6
Continuous
 62
     2
100
AcDbLine
 10
50.84999999999991
 20
197.6875
 30
0.0
 11
51.26249999999991
 21
197.6125
 31
0.0
  0
LINE
  5
1FD
330
1F
100
AcDbEntity
  8
1
  6
Continuous
 62
     2
100
AcDbLine
 10
51.26249999999991
 20
197.6125
 30
0.0
 11
51.67499999999991
 21
197.3125
 31
0.0
  0
LINE
  5
1FE
330
1F
100
AcDbEntity
  8
1
  6
Continuous
 62
     2
100
AcDbLine
 10
52.42499999999991
 20
198.625
 30
0.0
 11
54.93749999999991
 21
198.625
 31
0.0
  0
LINE
  5
1FF
330
1F
100
AcDbEntity
  8
1
  6
Continuous
 62
     2
100
AcDbLine
 10
55.49999999999991
 20
197.05
 30
0.0
 11
55.68749999999991
 21
197.2375
 31
0.0
  0
LINE
  5
200
330
1F
100
AcDbEntity
  8
1
  6
Continuous
 62
     2
100
AcDbLine
 10
55.68749999999991
 20
197.2375
 30
0.0
 11
55.94999999999991
 21
197.6125
 31
0.0
  0
LINE
  5
201
330
1F
100
AcDbEntity
  8
1
  6
Continuous
 62
     2
100
AcDbLine
 10
55.94999999999991
 20
197.6125
 30
0.0
 11
56.24999999999991
 21
198.175
 31
0.0
  0
LINE
  5
202
330
1F
100
AcDbEntity
  8
1
  6
Continuous
 62
     2
100
AcDbLine
 10
56.02499999999991
 20
197.6875
 30
0.0
 11
56.17499999999991
 21
197.425
 31
0.0
  0
LINE
  5
203
330
1F
100
AcDbEntity
  8
1
  6
Continuous
 62
     2
100
AcDbLine
 10
56.17499999999991
 20
197.425
 30
0.0
 11
56.43749999999991
 21
197.2375
 31
0.0
  0
LINE
  5
204
330
1F
100
AcDbEntity
  8
1
  6
Continuous
 62
     2
100
AcDbLine
 10
56.43749999999991
 20
197.2375
 30
0.0
 11
56.84999999999991
 21
197.05
 31
0.0
  0
LINE
  5
205
330
1F
100
AcDbEntity
  8
1
  6
Continuous
 62
     2
100
AcDbLine
 10
56.84999999999991
 20
197.05
 30
0.0
 11
57.93749999999991
 21
197.05
 31
0.0
  0
LINE
  5
206
330
1F
100
AcDbEntity
  8
1
  6
Continuous
 62
     2
100
AcDbLine
 10
57.52499999999991
 20
198.0625
 30
0.0
 11
56.69999999999991
 21
198.0625
 31
0.0
  0
LINE
  5
207
330
1F
100
AcDbEntity
  8
1
  6
Continuous
 62
     2
100
AcDbLine
 10
56.69999999999991
 20
197.125
 30
0.0
 11
56.69999999999991
 21
198.8125
 31
0.0
  0
LINE
  5
208
330
1F
100
AcDbEntity
  8
1
  6
Continuous
 62
     2
100
AcDbLine
 10
57.44999999999991
 20
198.8125
 30
0.0
 11
55.94999999999991
 21
198.8125
 31
0.0
  0
LINE
  5
209
330
1F
100
AcDbEntity
  8
1
  6
Continuous
 62
     2
100
AcDbLine
 10
55.61249999999991
 20
199.1125
 30
0.0
 11
55.61249999999991
 21
199.5625
 31
0.0
  0
LINE
  5
20A
330
1F
100
AcDbEntity
  8
1
  6
Continuous
 62
     2
100
AcDbLine
 10
55.61249999999991
 20
199.5625
 30
0.0
 11
57.74999999999991
 21
199.5625
 31
0.0
  0
LINE
  5
20B
330
1F
100
AcDbEntity
  8
1
  6
Continuous
 62
     2
100
AcDbLine
 10
57.74999999999991
 20
199.5625
 30
0.0
 11
57.74999999999991
 21
199.1125
 31
0.0
  0
LINE
  5
20C
330
1F
100
AcDbEntity
  8
1
  6
Continuous
 62
     2
100
AcDbLine
 10
56.69999999999991
 20
199.5625
 30
0.0
 11
56.69999999999991
 21
199.8625
 31
0.0
  0
LINE
  5
20D
330
1F
100
AcDbEntity
  8
1
  6
Continuous
 62
     2
100
AcDbLine
 10
58.42499999999991
 20
198.7375
 30
0.0
 11
59.24999999999991
 21
199.1125
 31
0.0
  0
LINE
  5
20E
330
1F
100
AcDbEntity
  8
1
  6
Continuous
 62
     2
100
AcDbLine
 10
59.24999999999991
 20
199.1125
 30
0.0
 11
60.33749999999991
 21
199.3
 31
0.0
  0
LINE
  5
20F
330
1F
100
AcDbEntity
  8
1
  6
Continuous
 62
     2
100
AcDbLine
 10
60.74999999999991
 20
199.3
 30
0.0
 11
60.52499999999991
 21
199.5625
 31
0.0
  0
LINE
  5
210
330
1F
100
AcDbEntity
  8
1
  6
Continuous
 62
     2
100
AcDbLine
 10
60.67499999999991
 20
199.75
 30
0.0
 11
60.93749999999991
 21
199.4875
 31
0.0
  0
LINE
  5
211
330
1F
100
AcDbEntity
  8
1
  6
Continuous
 62
     2
100
AcDbLine
 10
59.92499999999991
 20
199.1875
 30
0.0
 11
59.58749999999991
 21
199.0
 31
0.0
  0
LINE
  5
212
330
1F
100
AcDbEntity
  8
1
  6
Continuous
 62
     2
100
AcDbLine
 10
59.58749999999991
 20
199.0
 30
0.0
 11
59.36249999999991
 21
198.625
 31
0.0
  0
LINE
  5
213
330
1F
100
AcDbEntity
  8
1
  6
Continuous
 62
     2
100
AcDbLine
 10
59.36249999999991
 20
198.625
 30
0.0
 11
59.17499999999991
 21
198.175
 31
0.0
  0
LINE
  5
214
330
1F
100
AcDbEntity
  8
1
  6
Continuous
 62
     2
100
AcDbLine
 10
59.17499999999991
 20
198.175
 30
0.0
 11
59.17499999999991
 21
197.875
 31
0.0
  0
LINE
  5
215
330
1F
100
AcDbEntity
  8
1
  6
Continuous
 62
     2
100
AcDbLine
 10
59.17499999999991
 20
197.875
 30
0.0
 11
59.24999999999991
 21
197.5
 31
0.0
  0
LINE
  5
216
330
1F
100
AcDbEntity
  8
1
  6
Continuous
 62
     2
100
AcDbLine
 10
59.24999999999991
 20
197.5
 30
0.0
 11
59.51249999999991
 21
197.2375
 31
0.0
  0
LINE
  5
217
330
1F
100
AcDbEntity
  8
1
  6
Continuous
 62
     2
100
AcDbLine
 10
59.51249999999991
 20
197.2375
 30
0.0
 11
59.92499999999991
 21
197.05
 31
0.0
  0
LINE
  5
218
330
1F
100
AcDbEntity
  8
1
  6
Continuous
 62
     2
100
AcDbLine
 10
61.94999999999991
 20
197.2375
 30
0.0
 11
61.83749999999991
 21
197.875
 31
0.0
  0
LINE
  5
219
330
1F
100
AcDbEntity
  8
1
  6
Continuous
 62
     2
100
AcDbLine
 10
61.83749999999991
 20
197.875
 30
0.0
 11
61.83749999999991
 21
198.7375
 31
0.0
  0
LINE
  5
21A
330
1F
100
AcDbEntity
  8
1
  6
Continuous
 62
     2
100
AcDbLine
 10
61.83749999999991
 20
198.7375
 30
0.0
 11
62.02499999999991
 21
199.5625
 31
0.0
  0
LINE
  5
21B
330
1F
100
AcDbEntity
  8
1
  6
Continuous
 62
     2
100
AcDbLine
 10
62.51249999999991
 20
198.925
 30
0.0
 11
63.26249999999991
 21
199.0
 31
0.0
  0
LINE
  5
21C
330
1F
100
AcDbEntity
  8
1
  6
Continuous
 62
     2
100
AcDbLine
 10
63.26249999999991
 20
199.0
 30
0.0
 11
63.67499999999991
 21
199.1125
 31
0.0
  0
LINE
  5
21D
330
1F
100
AcDbEntity
  8
1
  6
Continuous
 62
     2
100
AcDbLine
 10
63.18749999999991
 20
199.5625
 30
0.0
 11
63.26249999999991
 21
197.875
 31
0.0
  0
LINE
  5
21E
330
1F
100
AcDbEntity
  8
1
  6
Continuous
 62
     2
100
AcDbLine
 10
63.26249999999991
 20
197.875
 30
0.0
 11
63.18749999999991
 21
197.5
 31
0.0
  0
LINE
  5
21F
330
1F
100
AcDbEntity
  8
1
  6
Continuous
 62
     2
100
AcDbLine
 10
63.18749999999991
 20
197.5
 30
0.0
 11
62.99999999999991
 21
197.3125
 31
0.0
  0
LINE
  5
220
330
1F
100
AcDbEntity
  8
1
  6
Continuous
 62
     2
100
AcDbLine
 10
62.99999999999991
 20
197.3125
 30
0.0
 11
62.69999999999991
 21
197.2375
 31
0.0
  0
LINE
  5
221
330
1F
100
AcDbEntity
  8
1
  6
Continuous
 62
     2
100
AcDbLine
 10
62.69999999999991
 20
197.2375
 30
0.0
 11
62.43749999999991
 21
197.425
 31
0.0
  0
LINE
  5
222
330
1F
100
AcDbEntity
  8
1
  6
Continuous
 62
     2
100
AcDbLine
 10
62.43749999999991
 20
197.425
 30
0.0
 11
62.43749999999991
 21
197.6125
 31
0.0
  0
LINE
  5
223
330
1F
100
AcDbEntity
  8
1
  6
Continuous
 62
     2
100
AcDbLine
 10
62.43749999999991
 20
197.6125
 30
0.0
 11
62.84999999999991
 21
197.6875
 31
0.0
  0
LINE
  5
224
330
1F
100
AcDbEntity
  8
1
  6
Continuous
 62
     2
100
AcDbLine
 10
62.84999999999991
 20
197.6875
 30
0.0
 11
63.26249999999991
 21
197.6125
 31
0.0
  0
LINE
  5
225
330
1F
100
AcDbEntity
  8
1
  6
Continuous
 62
     2
100
AcDbLine
 10
63.26249999999991
 20
197.6125
 30
0.0
 11
63.67499999999991
 21
197.3125
 31
0.0
  0
LINE
  5
226
330
1F
100
AcDbEntity
  8
1
  6
Continuous
 62
     2
100
AcDbLine
 10
65.5874999999999
 20
197.6125
 30
0.0
 11
65.5124999999999
 21
198.175
 31
0.0
  0
LINE
  5
227
330
1F
100
AcDbEntity
  8
1
  6
Continuous
 62
     2
100
AcDbLine
 10
65.5124999999999
 20
198.175
 30
0.0
 11
65.6999999999999
 21
199.675
 31
0.0
  0
LINE
  5
228
330
1F
100
AcDbEntity
  8
1
  6
Continuous
 62
     2
100
AcDbLine
 10
65.0249999999999
 20
199.1875
 30
0.0
 11
65.7749999999999
 21
199.1875
 31
0.0
  0
LINE
  5
229
330
1F
100
AcDbEntity
  8
1
  6
Continuous
 62
     2
100
AcDbLine
 10
65.7749999999999
 20
199.1875
 30
0.0
 11
66.2624999999999
 21
199.3
 31
0.0
  0
LINE
  5
22A
330
1F
100
AcDbEntity
  8
1
  6
Continuous
 62
     2
100
AcDbLine
 10
66.11249999999991
 20
199.0
 30
0.0
 11
65.6999999999999
 21
198.0625
 31
0.0
  0
LINE
  5
22B
330
1F
100
AcDbEntity
  8
1
  6
Continuous
 62
     2
100
AcDbLine
 10
65.6999999999999
 20
198.0625
 30
0.0
 11
64.9499999999999
 21
197.5
 31
0.0
  0
LINE
  5
22C
330
1F
100
AcDbEntity
  8
1
  6
Continuous
 62
     2
100
AcDbLine
 10
64.9499999999999
 20
197.5
 30
0.0
 11
64.7624999999999
 21
197.6875
 31
0.0
  0
LINE
  5
22D
330
1F
100
AcDbEntity
  8
1
  6
Continuous
 62
     2
100
AcDbLine
 10
64.7624999999999
 20
197.6875
 30
0.0
 11
64.9499999999999
 21
198.0625
 31
0.0
  0
LINE
  5
22E
330
1F
100
AcDbEntity
  8
1
  6
Continuous
 62
     2
100
AcDbLine
 10
64.9499999999999
 20
198.0625
 30
0.0
 11
65.36249999999991
 21
198.4375
 31
0.0
  0
LINE
  5
22F
330
1F
100
AcDbEntity
  8
1
  6
Continuous
 62
     2
100
AcDbLine
 10
65.36249999999991
 20
198.4375
 30
0.0
 11
65.99999999999991
 21
198.625
 31
0.0
  0
LINE
  5
230
330
1F
100
AcDbEntity
  8
1
  6
Continuous
 62
     2
100
AcDbLine
 10
65.99999999999991
 20
198.625
 30
0.0
 11
66.4499999999999
 21
198.4375
 31
0.0
  0
LINE
  5
231
330
1F
100
AcDbEntity
  8
1
  6
Continuous
 62
     2
100
AcDbLine
 10
66.4499999999999
 20
198.4375
 30
0.0
 11
66.59999999999991
 21
198.175
 31
0.0
  0
LINE
  5
232
330
1F
100
AcDbEntity
  8
1
  6
Continuous
 62
     2
100
AcDbLine
 10
66.59999999999991
 20
198.175
 30
0.0
 11
66.59999999999991
 21
197.6875
 31
0.0
  0
LINE
  5
233
330
1F
100
AcDbEntity
  8
1
  6
Continuous
 62
     2
100
AcDbLine
 10
66.59999999999991
 20
197.6875
 30
0.0
 11
66.2624999999999
 21
197.3125
 31
0.0
  0
LINE
  5
234
330
1F
100
AcDbEntity
  8
1
  6
Continuous
 62
     2
100
AcDbLine
 10
66.2624999999999
 20
197.3125
 30
0.0
 11
65.84999999999991
 21
197.125
 31
0.0
  0
LINE
  5
235
330
1F
100
AcDbEntity
  8
1
  6
Continuous
 62
     2
100
AcDbLine
 10
68.36249999999991
 20
197.9875
 30
0.0
 11
68.24999999999991
 21
198.3625
 31
0.0
  0
LINE
  5
236
330
1F
100
AcDbEntity
  8
1
  6
Continuous
 62
     2
100
AcDbLine
 10
68.24999999999991
 20
198.3625
 30
0.0
 11
68.24999999999991
 21
199.1125
 31
0.0
  0
LINE
  5
237
330
1F
100
AcDbEntity
  8
1
  6
Continuous
 62
     2
100
AcDbLine
 10
68.24999999999991
 20
199.1125
 30
0.0
 11
68.36249999999991
 21
199.675
 31
0.0
  0
LINE
  5
238
330
1F
100
AcDbEntity
  8
1
  6
Continuous
 62
     2
100
AcDbLine
 10
68.24999999999991
 20
198.925
 30
0.0
 11
68.43749999999991
 21
199.3
 31
0.0
  0
LINE
  5
239
330
1F
100
AcDbEntity
  8
1
  6
Continuous
 62
     2
100
AcDbLine
 10
68.43749999999991
 20
199.3
 30
0.0
 11
68.7749999999999
 21
199.5625
 31
0.0
  0
LINE
  5
23A
330
1F
100
AcDbEntity
  8
1
  6
Continuous
 62
     2
100
AcDbLine
 10
68.7749999999999
 20
199.5625
 30
0.0
 11
68.99999999999991
 21
199.5625
 31
0.0
  0
LINE
  5
23B
330
1F
100
AcDbEntity
  8
1
  6
Continuous
 62
     2
100
AcDbLine
 10
68.99999999999991
 20
199.5625
 30
0.0
 11
69.18749999999991
 21
199.3
 31
0.0
  0
LINE
  5
23C
330
1F
100
AcDbEntity
  8
1
  6
Continuous
 62
     2
100
AcDbLine
 10
69.18749999999991
 20
199.3
 30
0.0
 11
69.2624999999999
 21
198.7375
 31
0.0
  0
LINE
  5
23D
330
1F
100
AcDbEntity
  8
1
  6
Continuous
 62
     2
100
AcDbLine
 10
69.2624999999999
 20
198.7375
 30
0.0
 11
69.2624999999999
 21
198.25
 31
0.0
  0
LINE
  5
23E
330
1F
100
AcDbEntity
  8
1
  6
Continuous
 62
     2
100
AcDbLine
 10
69.2624999999999
 20
198.25
 30
0.0
 11
69.11249999999991
 21
197.6125
 31
0.0
  0
LINE
  5
23F
330
1F
100
AcDbEntity
  8
1
  6
Continuous
 62
     2
100
AcDbLine
 10
69.11249999999991
 20
197.6125
 30
0.0
 11
68.6999999999999
 21
197.125
 31
0.0
  0
LINE
  5
240
330
1F
100
AcDbEntity
  8
1
  6
Continuous
 62
     2
100
AcDbLine
 10
70.9499999999999
 20
198.55
 30
0.0
 11
71.6999999999999
 21
198.55
 31
0.0
  0
LINE
  5
241
330
1F
100
AcDbEntity
  8
1
  6
Continuous
 62
     2
100
AcDbLine
 10
71.6999999999999
 20
198.55
 30
0.0
 11
72.3374999999999
 21
198.7375
 31
0.0
  0
LINE
  5
242
330
1F
100
AcDbEntity
  8
1
  6
Continuous
 62
     2
100
AcDbLine
 10
72.2624999999999
 20
199.3
 30
0.0
 11
71.6999999999999
 21
199.1875
 31
0.0
  0
LINE
  5
243
330
1F
100
AcDbEntity
  8
1
  6
Continuous
 62
     2
100
AcDbLine
 10
71.6999999999999
 20
199.1875
 30
0.0
 11
71.17499999999991
 21
199.1875
 31
0.0
  0
LINE
  5
244
330
1F
100
AcDbEntity
  8
1
  6
Continuous
 62
     2
100
AcDbLine
 10
71.7749999999999
 20
199.75
 30
0.0
 11
71.7749999999999
 21
199.0
 31
0.0
  0
LINE
  5
245
330
1F
100
AcDbEntity
  8
1
  6
Continuous
 62
     2
100
AcDbLine
 10
71.7749999999999
 20
199.0
 30
0.0
 11
71.84999999999991
 21
197.6875
 31
0.0
  0
LINE
  5
246
330
1F
100
AcDbEntity
  8
1
  6
Continuous
 62
     2
100
AcDbLine
 10
71.84999999999991
 20
197.6875
 30
0.0
 11
71.6999999999999
 21
197.3125
 31
0.0
  0
LINE
  5
247
330
1F
100
AcDbEntity
  8
1
  6
Continuous
 62
     2
100
AcDbLine
 10
71.6999999999999
 20
197.3125
 30
0.0
 11
71.36249999999991
 21
197.125
 31
0.0
  0
LINE
  5
248
330
1F
100
AcDbEntity
  8
1
  6
Continuous
 62
     2
100
AcDbLine
 10
71.36249999999991
 20
197.125
 30
0.0
 11
71.0249999999999
 21
197.2375
 31
0.0
  0
LINE
  5
249
330
1F
100
AcDbEntity
  8
1
  6
Continuous
 62
     2
100
AcDbLine
 10
71.0249999999999
 20
197.2375
 30
0.0
 11
70.9499999999999
 21
197.425
 31
0.0
  0
LINE
  5
24A
330
1F
100
AcDbEntity
  8
1
  6
Continuous
 62
     2
100
AcDbLine
 10
70.9499999999999
 20
197.425
 30
0.0
 11
71.09999999999991
 21
197.6125
 31
0.0
  0
LINE
  5
24B
330
1F
100
AcDbEntity
  8
1
  6
Continuous
 62
     2
100
AcDbLine
 10
71.09999999999991
 20
197.6125
 30
0.0
 11
71.5124999999999
 21
197.6875
 31
0.0
  0
LINE
  5
24C
330
1F
100
AcDbEntity
  8
1
  6
Continuous
 62
     2
100
AcDbLine
 10
71.5124999999999
 20
197.6875
 30
0.0
 11
71.92499999999991
 21
197.5
 31
0.0
  0
LINE
  5
24D
330
1F
100
AcDbEntity
  8
1
  6
Continuous
 62
     2
100
AcDbLine
 10
71.92499999999991
 20
197.5
 30
0.0
 11
72.2624999999999
 21
197.2375
 31
0.0
  0
LINE
  5
24E
330
1F
100
AcDbEntity
  8
1
  6
Continuous
 62
     2
100
AcDbLine
 10
73.49999999999991
 20
198.4375
 30
0.0
 11
74.5124999999999
 21
198.7375
 31
0.0
  0
LINE
  5
24F
330
1F
100
AcDbEntity
  8
1
  6
Continuous
 62
     2
100
AcDbLine
 10
74.5124999999999
 20
198.7375
 30
0.0
 11
75.3374999999999
 21
198.8125
 31
0.0
  0
LINE
  5
250
330
1F
100
AcDbEntity
  8
1
  6
Continuous
 62
     2
100
AcDbLine
 10
75.3374999999999
 20
198.8125
 30
0.0
 11
75.86249999999991
 21
198.8125
 31
0.0
  0
LINE
  5
251
330
1F
100
AcDbEntity
  8
1
  6
Continuous
 62
     2
100
AcDbLine
 10
74.99999999999991
 20
197.9875
 30
0.0
 11
75.11249999999991
 21
198.625
 31
0.0
  0
LINE
  5
252
330
1F
100
AcDbEntity
  8
1
  6
Continuous
 62
     2
100
AcDbLine
 10
75.11249999999991
 20
198.625
 30
0.0
 11
75.11249999999991
 21
199.5625
 31
0.0
  0
LINE
  5
253
330
1F
100
AcDbEntity
  8
1
  6
Continuous
 62
     2
100
AcDbLine
 10
74.17499999999991
 20
199.3
 30
0.0
 11
74.17499999999991
 21
198.175
 31
0.0
  0
LINE
  5
254
330
1F
100
AcDbEntity
  8
1
  6
Continuous
 62
     2
100
AcDbLine
 10
74.17499999999991
 20
198.175
 30
0.0
 11
74.36249999999991
 21
197.425
 31
0.0
  0
LINE
  5
255
330
1F
100
AcDbEntity
  8
1
  6
Continuous
 62
     2
100
AcDbLine
 10
74.36249999999991
 20
197.425
 30
0.0
 11
74.7749999999999
 21
197.3125
 31
0.0
  0
LINE
  5
256
330
1F
100
AcDbEntity
  8
1
  6
Continuous
 62
     2
100
AcDbLine
 10
74.7749999999999
 20
197.3125
 30
0.0
 11
75.4499999999999
 21
197.3125
 31
0.0
  0
LINE
  5
257
330
1F
100
AcDbEntity
  8
1
  6
Continuous
 62
     2
100
AcDbLine
 10
76.61249999999991
 20
197.2375
 30
0.0
 11
76.9499999999999
 21
198.0625
 31
0.0
  0
LINE
  5
258
330
1F
100
AcDbEntity
  8
1
  6
Continuous
 62
     2
100
AcDbLine
 10
76.9499999999999
 20
198.0625
 30
0.0
 11
77.43749999999991
 21
199.0
 31
0.0
  0
LINE
  5
259
330
1F
100
AcDbEntity
  8
1
  6
Continuous
 62
     2
100
AcDbLine
 10
77.43749999999991
 20
199.0
 30
0.0
 11
77.7749999999999
 21
199.5625
 31
0.0
  0
LINE
  5
25A
330
1F
100
AcDbEntity
  8
1
  6
Continuous
 62
     2
100
AcDbLine
 10
76.8374999999999
 20
197.875
 30
0.0
 11
77.09999999999991
 21
198.25
 31
0.0
  0
LINE
  5
25B
330
1F
100
AcDbEntity
  8
1
  6
Continuous
 62
     2
100
AcDbLine
 10
77.09999999999991
 20
198.25
 30
0.0
 11
77.43749999999991
 21
198.55
 31
0.0
  0
LINE
  5
25C
330
1F
100
AcDbEntity
  8
1
  6
Continuous
 62
     2
100
AcDbLine
 10
77.43749999999991
 20
198.55
 30
0.0
 11
77.7749999999999
 21
198.55
 31
0.0
  0
LINE
  5
25D
330
1F
100
AcDbEntity
  8
1
  6
Continuous
 62
     2
100
AcDbLine
 10
77.7749999999999
 20
198.55
 30
0.0
 11
77.92499999999991
 21
198.175
 31
0.0
  0
LINE
  5
25E
330
1F
100
AcDbEntity
  8
1
  6
Continuous
 62
     2
100
AcDbLine
 10
77.92499999999991
 20
198.175
 30
0.0
 11
77.92499999999991
 21
197.5
 31
0.0
  0
LINE
  5
25F
330
1F
100
AcDbEntity
  8
1
  6
Continuous
 62
     2
100
AcDbLine
 10
77.92499999999991
 20
197.5
 30
0.0
 11
77.99999999999991
 21
197.2375
 31
0.0
  0
LINE
  5
260
330
1F
100
AcDbEntity
  8
1
  6
Continuous
 62
     2
100
AcDbLine
 10
77.99999999999991
 20
197.2375
 30
0.0
 11
78.3374999999999
 21
197.2375
 31
0.0
  0
LINE
  5
261
330
1F
100
AcDbEntity
  8
1
  6
Continuous
 62
     2
100
AcDbLine
 10
78.3374999999999
 20
197.2375
 30
0.0
 11
78.67499999999991
 21
197.6875
 31
0.0
  0
LINE
  5
262
330
1F
100
AcDbEntity
  8
1
  6
Continuous
 62
     2
100
AcDbLine
 10
69.9162647687649
 20
62.50232607502284
 30
0.0
 11
69.7662647687649
 21
62.23982607502284
 31
0.0
  0
LINE
  5
263
330
1F
100
AcDbEntity
  8
1
  6
Continuous
 62
     2
100
AcDbLine
 10
69.7662647687649
 20
62.23982607502284
 30
0.0
 11
69.5787647687649
 21
61.75232607502284
 31
0.0
  0
LINE
  5
264
330
1F
100
AcDbEntity
  8
1
  6
Continuous
 62
     2
100
AcDbLine
 10
69.5787647687649
 20
61.75232607502284
 30
0.0
 11
69.5787647687649
 21
60.25232607502284
 31
0.0
  0
LINE
  5
265
330
1F
100
AcDbEntity
  8
1
  6
Continuous
 62
     2
100
AcDbLine
 10
69.5787647687649
 20
60.25232607502284
 30
0.0
 11
69.7662647687649
 21
59.80232607502284
 31
0.0
  0
LINE
  5
266
330
1F
100
AcDbEntity
  8
1
  6
Continuous
 62
     2
100
AcDbLine
 10
69.7662647687649
 20
59.80232607502284
 30
0.0
 11
69.9162647687649
 21
59.50232607502284
 31
0.0
  0
LINE
  5
267
330
1F
100
AcDbEntity
  8
1
  6
Continuous
 62
     2
100
AcDbLine
 10
71.75376476876491
 20
59.68982607502284
 30
0.0
 11
71.75376476876491
 21
61.48982607502284
 31
0.0
  0
LINE
  5
268
330
1F
100
AcDbEntity
  8
1
  6
Continuous
 62
     2
100
AcDbLine
 10
71.75376476876491
 20
61.48982607502284
 30
0.0
 11
73.7412647687649
 21
61.48982607502284
 31
0.0
  0
LINE
  5
269
330
1F
100
AcDbEntity
  8
1
  6
Continuous
 62
     2
100
AcDbLine
 10
73.7412647687649
 20
61.48982607502284
 30
0.0
 11
73.7412647687649
 21
59.68982607502284
 31
0.0
  0
LINE
  5
26A
330
1F
100
AcDbEntity
  8
1
  6
Continuous
 62
     2
100
AcDbLine
 10
73.7412647687649
 20
59.68982607502284
 30
0.0
 11
71.75376476876491
 21
59.68982607502284
 31
0.0
  0
LINE
  5
26B
330
1F
100
AcDbEntity
  8
1
  6
Continuous
 62
     2
100
AcDbLine
 10
71.9037647687649
 20
60.36482607502284
 30
0.0
 11
72.1662647687649
 21
60.62732607502284
 31
0.0
  0
LINE
  5
26C
330
1F
100
AcDbEntity
  8
1
  6
Continuous
 62
     2
100
AcDbLine
 10
72.1662647687649
 20
60.62732607502284
 30
0.0
 11
72.4287647687649
 21
61.18982607502284
 31
0.0
  0
LINE
  5
26D
330
1F
100
AcDbEntity
  8
1
  6
Continuous
 62
     2
100
AcDbLine
 10
72.4287647687649
 20
61.18982607502284
 30
0.0
 11
72.4287647687649
 21
62.23982607502284
 31
0.0
  0
LINE
  5
26E
330
1F
100
AcDbEntity
  8
1
  6
Continuous
 62
     2
100
AcDbLine
 10
71.4912647687649
 20
62.23982607502284
 30
0.0
 11
74.00376476876491
 21
62.23982607502284
 31
0.0
  0
LINE
  5
26F
330
1F
100
AcDbEntity
  8
1
  6
Continuous
 62
     2
100
AcDbLine
 10
72.9912647687649
 20
62.23982607502284
 30
0.0
 11
72.9912647687649
 21
60.73982607502284
 31
0.0
  0
LINE
  5
270
330
1F
100
AcDbEntity
  8
1
  6
Continuous
 62
     2
100
AcDbLine
 10
72.9912647687649
 20
60.73982607502284
 30
0.0
 11
73.06626476876491
 21
60.55232607502284
 31
0.0
  0
LINE
  5
271
330
1F
100
AcDbEntity
  8
1
  6
Continuous
 62
     2
100
AcDbLine
 10
73.06626476876491
 20
60.55232607502284
 30
0.0
 11
73.5162647687649
 21
60.55232607502284
 31
0.0
  0
LINE
  5
272
330
1F
100
AcDbEntity
  8
1
  6
Continuous
 62
     2
100
AcDbLine
 10
73.5162647687649
 20
60.55232607502284
 30
0.0
 11
73.5912647687649
 21
60.73982607502284
 31
0.0
  0
LINE
  5
273
330
1F
100
AcDbEntity
  8
1
  6
Continuous
 62
     2
100
AcDbLine
 10
74.4162647687649
 20
59.68982607502284
 30
0.0
 11
74.4912647687649
 21
59.98982607502284
 31
0.0
  0
LINE
  5
274
330
1F
100
AcDbEntity
  8
1
  6
Continuous
 62
     2
100
AcDbLine
 10
74.4912647687649
 20
59.98982607502284
 30
0.0
 11
74.56626476876491
 21
60.81482607502284
 31
0.0
  0
LINE
  5
275
330
1F
100
AcDbEntity
  8
1
  6
Continuous
 62
     2
100
AcDbLine
 10
74.56626476876491
 20
60.81482607502284
 30
0.0
 11
74.56626476876491
 21
62.42732607502284
 31
0.0
  0
LINE
  5
276
330
1F
100
AcDbEntity
  8
1
  6
Continuous
 62
     2
100
AcDbLine
 10
74.56626476876491
 20
62.42732607502284
 30
0.0
 11
76.9287647687649
 21
62.42732607502284
 31
0.0
  0
LINE
  5
277
330
1F
100
AcDbEntity
  8
1
  6
Continuous
 62
     2
100
AcDbLine
 10
76.9287647687649
 20
61.75232607502284
 30
0.0
 11
75.9162647687649
 21
61.75232607502284
 31
0.0
  0
LINE
  5
278
330
1F
100
AcDbEntity
  8
1
  6
Continuous
 62
     2
100
AcDbLine
 10
75.7662647687649
 20
61.75232607502284
 30
0.0
 11
74.9037647687649
 21
61.75232607502284
 31
0.0
  0
LINE
  5
279
330
1F
100
AcDbEntity
  8
1
  6
Continuous
 62
     2
100
AcDbLine
 10
75.31626476876491
 20
62.23982607502284
 30
0.0
 11
75.31626476876491
 21
60.81482607502284
 31
0.0
  0
LINE
  5
27A
330
1F
100
AcDbEntity
  8
1
  6
Continuous
 62
     2
100
AcDbLine
 10
74.8287647687649
 20
61.00232607502284
 30
0.0
 11
75.0912647687649
 21
61.30232607502284
 31
0.0
  0
LINE
  5
27B
330
1F
100
AcDbEntity
  8
1
  6
Continuous
 62
     2
100
AcDbLine
 10
75.0912647687649
 20
61.30232607502284
 30
0.0
 11
75.31626476876491
 21
61.75232607502284
 31
0.0
  0
LINE
  5
27C
330
1F
100
AcDbEntity
  8
1
  6
Continuous
 62
     2
100
AcDbLine
 10
75.50376476876491
 20
61.48982607502284
 30
0.0
 11
75.7662647687649
 21
61.18982607502284
 31
0.0
  0
LINE
  5
27D
330
1F
100
AcDbEntity
  8
1
  6
Continuous
 62
     2
100
AcDbLine
 10
75.7662647687649
 20
60.92732607502284
 30
0.0
 11
75.9912647687649
 21
61.11482607502284
 31
0.0
  0
LINE
  5
27E
330
1F
100
AcDbEntity
  8
1
  6
Continuous
 62
     2
100
AcDbLine
 10
75.9912647687649
 20
61.11482607502284
 30
0.0
 11
76.4037647687649
 21
61.75232607502284
 31
0.0
  0
LINE
  5
27F
330
1F
100
AcDbEntity
  8
1
  6
Continuous
 62
     2
100
AcDbLine
 10
76.4037647687649
 20
62.23982607502284
 30
0.0
 11
76.4037647687649
 21
60.81482607502284
 31
0.0
  0
LINE
  5
280
330
1F
100
AcDbEntity
  8
1
  6
Continuous
 62
     2
100
AcDbLine
 10
76.4037647687649
 20
61.75232607502284
 30
0.0
 11
76.6662647687649
 21
61.37732607502284
 31
0.0
  0
LINE
  5
281
330
1F
100
AcDbEntity
  8
1
  6
Continuous
 62
     2
100
AcDbLine
 10
76.6662647687649
 20
61.37732607502284
 30
0.0
 11
77.0787647687649
 21
60.92732607502284
 31
0.0
  0
LINE
  5
282
330
1F
100
AcDbEntity
  8
1
  6
Continuous
 62
     2
100
AcDbLine
 10
76.5912647687649
 20
60.55232607502284
 30
0.0
 11
75.2412647687649
 21
60.55232607502284
 31
0.0
  0
LINE
  5
283
330
1F
100
AcDbEntity
  8
1
  6
Continuous
 62
     2
100
AcDbLine
 10
75.2412647687649
 20
60.55232607502284
 30
0.0
 11
75.2412647687649
 21
59.61482607502284
 31
0.0
  0
LINE
  5
284
330
1F
100
AcDbEntity
  8
1
  6
Continuous
 62
     2
100
AcDbLine
 10
75.2412647687649
 20
59.61482607502284
 30
0.0
 11
76.5912647687649
 21
59.61482607502284
 31
0.0
  0
LINE
  5
285
330
1F
100
AcDbEntity
  8
1
  6
Continuous
 62
     2
100
AcDbLine
 10
76.5912647687649
 20
59.61482607502284
 30
0.0
 11
76.5912647687649
 21
60.55232607502284
 31
0.0
  0
LINE
  5
286
330
1F
100
AcDbEntity
  8
1
  6
Continuous
 62
     2
100
AcDbLine
 10
75.2412647687649
 20
60.06482607502284
 30
0.0
 11
76.5912647687649
 21
60.06482607502284
 31
0.0
  0
LINE
  5
287
330
1F
100
AcDbEntity
  8
1
  6
Continuous
 62
     2
100
AcDbLine
 10
78.7662647687649
 20
59.50232607502284
 30
0.0
 11
78.7662647687649
 21
62.12732607502284
 31
0.0
  0
LINE
  5
288
330
1F
100
AcDbEntity
  8
1
  6
Continuous
 62
     2
100
AcDbLine
 10
80.00376476876491
 20
62.12732607502284
 30
0.0
 11
77.4912647687649
 21
62.12732607502284
 31
0.0
  0
LINE
  5
289
330
1F
100
AcDbEntity
  8
1
  6
Continuous
 62
     2
100
AcDbLine
 10
79.1787647687649
 20
61.48982607502284
 30
0.0
 11
79.6662647687649
 21
60.92732607502284
 31
0.0
  0
LINE
  5
28A
330
1F
100
AcDbEntity
  8
1
  6
Continuous
 62
     2
100
AcDbLine
 10
80.75376476876491
 20
61.48982607502284
 30
0.0
 11
80.8287647687649
 21
61.67732607502284
 31
0.0
  0
LINE
  5
28B
330
1F
100
AcDbEntity
  8
1
  6
Continuous
 62
     2
100
AcDbLine
 10
80.8287647687649
 20
61.67732607502284
 30
0.0
 11
81.1662647687649
 21
61.86482607502284
 31
0.0
  0
LINE
  5
28C
330
1F
100
AcDbEntity
  8
1
  6
Continuous
 62
     2
100
AcDbLine
 10
81.1662647687649
 20
61.86482607502284
 30
0.0
 11
81.50376476876491
 21
61.93982607502284
 31
0.0
  0
LINE
  5
28D
330
1F
100
AcDbEntity
  8
1
  6
Continuous
 62
     2
100
AcDbLine
 10
81.50376476876491
 20
61.93982607502284
 30
0.0
 11
82.06626476876491
 21
61.93982607502284
 31
0.0
  0
LINE
  5
28E
330
1F
100
AcDbEntity
  8
1
  6
Continuous
 62
     2
100
AcDbLine
 10
82.06626476876491
 20
61.93982607502284
 30
0.0
 11
82.4037647687649
 21
61.86482607502284
 31
0.0
  0
LINE
  5
28F
330
1F
100
AcDbEntity
  8
1
  6
Continuous
 62
     2
100
AcDbLine
 10
82.4037647687649
 20
61.86482607502284
 30
0.0
 11
82.7412647687649
 21
61.67732607502284
 31
0.0
  0
LINE
  5
290
330
1F
100
AcDbEntity
  8
1
  6
Continuous
 62
     2
100
AcDbLine
 10
82.7412647687649
 20
61.67732607502284
 30
0.0
 11
82.81626476876491
 21
61.48982607502284
 31
0.0
  0
LINE
  5
291
330
1F
100
AcDbEntity
  8
1
  6
Continuous
 62
     2
100
AcDbLine
 10
82.81626476876491
 20
61.48982607502284
 30
0.0
 11
82.81626476876491
 21
61.00232607502284
 31
0.0
  0
LINE
  5
292
330
1F
100
AcDbEntity
  8
1
  6
Continuous
 62
     2
100
AcDbLine
 10
82.81626476876491
 20
61.00232607502284
 30
0.0
 11
82.7412647687649
 21
60.81482607502284
 31
0.0
  0
LINE
  5
293
330
1F
100
AcDbEntity
  8
1
  6
Continuous
 62
     2
100
AcDbLine
 10
82.7412647687649
 20
60.81482607502284
 30
0.0
 11
82.4037647687649
 21
60.62732607502284
 31
0.0
  0
LINE
  5
294
330
1F
100
AcDbEntity
  8
1
  6
Continuous
 62
     2
100
AcDbLine
 10
82.4037647687649
 20
60.62732607502284
 30
0.0
 11
81.0912647687649
 21
60.43982607502284
 31
0.0
  0
LINE
  5
295
330
1F
100
AcDbEntity
  8
1
  6
Continuous
 62
     2
100
AcDbLine
 10
81.0912647687649
 20
60.43982607502284
 30
0.0
 11
80.8287647687649
 21
60.25232607502284
 31
0.0
  0
LINE
  5
296
330
1F
100
AcDbEntity
  8
1
  6
Continuous
 62
     2
100
AcDbLine
 10
80.8287647687649
 20
60.25232607502284
 30
0.0
 11
80.75376476876491
 21
60.06482607502284
 31
0.0
  0
LINE
  5
297
330
1F
100
AcDbEntity
  8
1
  6
Continuous
 62
     2
100
AcDbLine
 10
80.75376476876491
 20
60.06482607502284
 30
0.0
 11
80.6787647687649
 21
59.50232607502284
 31
0.0
  0
LINE
  5
298
330
1F
100
AcDbEntity
  8
1
  6
Continuous
 62
     2
100
AcDbLine
 10
80.6787647687649
 20
59.50232607502284
 30
0.0
 11
82.81626476876491
 21
59.50232607502284
 31
0.0
  0
LINE
  5
299
330
1F
100
AcDbEntity
  8
1
  6
Continuous
 62
     2
100
AcDbLine
 10
83.56626476876491
 20
61.67732607502284
 30
0.0
 11
84.4287647687649
 21
61.67732607502284
 31
0.0
  0
LINE
  5
29A
330
1F
100
AcDbEntity
  8
1
  6
Continuous
 62
     2
100
AcDbLine
 10
84.0162647687649
 20
62.42732607502284
 30
0.0
 11
84.0162647687649
 21
59.61482607502284
 31
0.0
  0
LINE
  5
29B
330
1F
100
AcDbEntity
  8
1
  6
Continuous
 62
     2
100
AcDbLine
 10
84.0162647687649
 20
61.67732607502284
 30
0.0
 11
83.75376476876491
 21
60.92732607502284
 31
0.0
  0
LINE
  5
29C
330
1F
100
AcDbEntity
  8
1
  6
Continuous
 62
     2
100
AcDbLine
 10
83.75376476876491
 20
60.92732607502284
 30
0.0
 11
83.56626476876491
 21
60.62732607502284
 31
0.0
  0
LINE
  5
29D
330
1F
100
AcDbEntity
  8
1
  6
Continuous
 62
     2
100
AcDbLine
 10
83.56626476876491
 20
60.62732607502284
 30
0.0
 11
83.4912647687649
 21
60.43982607502284
 31
0.0
  0
LINE
  5
29E
330
1F
100
AcDbEntity
  8
1
  6
Continuous
 62
     2
100
AcDbLine
 10
84.0162647687649
 20
61.67732607502284
 30
0.0
 11
84.31626476876491
 21
60.92732607502284
 31
0.0
  0
LINE
  5
29F
330
1F
100
AcDbEntity
  8
1
  6
Continuous
 62
     2
100
AcDbLine
 10
84.9162647687649
 20
62.31482607502284
 30
0.0
 11
84.50376476876491
 21
61.67732607502284
 31
0.0
  0
LINE
  5
2A0
330
1F
100
AcDbEntity
  8
1
  6
Continuous
 62
     2
100
AcDbLine
 10
85.06626476876491
 20
61.75232607502284
 30
0.0
 11
84.8412647687649
 21
61.30232607502284
 31
0.0
  0
LINE
  5
2A1
330
1F
100
AcDbEntity
  8
1
  6
Continuous
 62
     2
100
AcDbLine
 10
84.8412647687649
 20
61.30232607502284
 30
0.0
 11
84.5787647687649
 21
60.81482607502284
 31
0.0
  0
LINE
  5
2A2
330
1F
100
AcDbEntity
  8
1
  6
Continuous
 62
     2
100
AcDbLine
 10
84.5787647687649
 20
60.81482607502284
 30
0.0
 11
84.31626476876491
 21
60.55232607502284
 31
0.0
  0
LINE
  5
2A3
330
1F
100
AcDbEntity
  8
1
  6
Continuous
 62
     2
100
AcDbLine
 10
84.7662647687649
 20
61.11482607502284
 30
0.0
 11
84.7662647687649
 21
59.61482607502284
 31
0.0
  0
LINE
  5
2A4
330
1F
100
AcDbEntity
  8
1
  6
Continuous
 62
     2
100
AcDbLine
 10
85.1787647687649
 20
62.12732607502284
 30
0.0
 11
85.9287647687649
 21
62.12732607502284
 31
0.0
  0
LINE
  5
2A5
330
1F
100
AcDbEntity
  8
1
  6
Continuous
 62
     2
100
AcDbLine
 10
85.06626476876491
 20
61.37732607502284
 30
0.0
 11
86.0787647687649
 21
61.37732607502284
 31
0.0
  0
LINE
  5
2A6
330
1F
100
AcDbEntity
  8
1
  6
Continuous
 62
     2
100
AcDbLine
 10
85.6662647687649
 20
61.37732607502284
 30
0.0
 11
85.6662647687649
 21
59.80232607502284
 31
0.0
  0
LINE
  5
2A7
330
1F
100
AcDbEntity
  8
1
  6
Continuous
 62
     2
100
AcDbLine
 10
85.6662647687649
 20
59.80232607502284
 30
0.0
 11
85.5912647687649
 21
59.61482607502284
 31
0.0
  0
LINE
  5
2A8
330
1F
100
AcDbEntity
  8
1
  6
Continuous
 62
     2
100
AcDbLine
 10
85.5912647687649
 20
59.61482607502284
 30
0.0
 11
85.3287647687649
 21
59.61482607502284
 31
0.0
  0
LINE
  5
2A9
330
1F
100
AcDbEntity
  8
1
  6
Continuous
 62
     2
100
AcDbLine
 10
87.5787647687649
 20
62.50232607502284
 30
0.0
 11
87.7662647687649
 21
62.23982607502284
 31
0.0
  0
LINE
  5
2AA
330
1F
100
AcDbEntity
  8
1
  6
Continuous
 62
     2
100
AcDbLine
 10
87.7662647687649
 20
62.23982607502284
 30
0.0
 11
87.9162647687649
 21
61.75232607502284
 31
0.0
  0
LINE
  5
2AB
330
1F
100
AcDbEntity
  8
1
  6
Continuous
 62
     2
100
AcDbLine
 10
87.9162647687649
 20
61.75232607502284
 30
0.0
 11
87.9162647687649
 21
60.25232607502284
 31
0.0
  0
LINE
  5
2AC
330
1F
100
AcDbEntity
  8
1
  6
Continuous
 62
     2
100
AcDbLine
 10
87.9162647687649
 20
60.25232607502284
 30
0.0
 11
87.7662647687649
 21
59.80232607502284
 31
0.0
  0
LINE
  5
2AD
330
1F
100
AcDbEntity
  8
1
  6
Continuous
 62
     2
100
AcDbLine
 10
87.7662647687649
 20
59.80232607502284
 30
0.0
 11
87.5787647687649
 21
59.50232607502284
 31
0.0
  0
LINE
  5
2AE
330
1F
100
AcDbEntity
  8
1
  6
Continuous
 62
     2
100
AcDbLine
 10
34.09773882264013
 20
125.1987768236139
 30
0.0
 11
36.76023882264013
 21
125.1987768236139
 31
0.0
  0
LINE
  5
2AF
330
1F
100
AcDbEntity
  8
1
  6
Continuous
 62
     2
100
AcDbLine
 10
36.34773882264013
 20
126.9612768236139
 30
0.0
 11
35.33523882264012
 21
126.9612768236139
 31
0.0
  0
LINE
  5
2B0
330
1F
100
AcDbEntity
  8
1
  6
Continuous
 62
     2
100
AcDbLine
 10
35.33523882264012
 20
128.0862768236139
 30
0.0
 11
35.33523882264012
 21
125.1987768236139
 31
0.0
  0
LINE
  5
2B1
330
1F
100
AcDbEntity
  8
1
  6
Continuous
 62
     2
100
AcDbLine
 10
37.24773882264012
 20
125.5737768236139
 30
0.0
 11
37.58523882264012
 21
125.9487768236139
 31
0.0
  0
LINE
  5
2B2
330
1F
100
AcDbEntity
  8
1
  6
Continuous
 62
     2
100
AcDbLine
 10
37.58523882264012
 20
125.9487768236139
 30
0.0
 11
37.92273882264013
 21
126.5112768236139
 31
0.0
  0
LINE
  5
2B3
330
1F
100
AcDbEntity
  8
1
  6
Continuous
 62
     2
100
AcDbLine
 10
37.92273882264013
 20
126.5112768236139
 30
0.0
 11
38.11023882264013
 21
127.0737768236139
 31
0.0
  0
LINE
  5
2B4
330
1F
100
AcDbEntity
  8
1
  6
Continuous
 62
     2
100
AcDbLine
 10
38.11023882264013
 20
127.0737768236139
 30
0.0
 11
37.24773882264012
 21
127.0737768236139
 31
0.0
  0
LINE
  5
2B5
330
1F
100
AcDbEntity
  8
1
  6
Continuous
 62
     2
100
AcDbLine
 10
38.52273882264012
 20
128.0112768236139
 30
0.0
 11
38.52273882264012
 21
125.0862768236139
 31
0.0
  0
LINE
  5
2B6
330
1F
100
AcDbEntity
  8
1
  6
Continuous
 62
     2
100
AcDbLine
 10
38.52273882264012
 20
125.0862768236139
 30
0.0
 11
38.26023882264013
 21
125.1987768236139
 31
0.0
  0
LINE
  5
2B7
330
1F
100
AcDbEntity
  8
1
  6
Continuous
 62
     2
100
AcDbLine
 10
39.49773882264012
 20
127.3362768236139
 30
0.0
 11
38.93523882264012
 21
126.8862768236139
 31
0.0
  0
LINE
  5
2B8
330
1F
100
AcDbEntity
  8
1
  6
Continuous
 62
     2
100
AcDbLine
 10
38.74773882264012
 20
127.2612768236139
 30
0.0
 11
39.01023882264013
 21
126.5862768236139
 31
0.0
  0
LINE
  5
2B9
330
1F
100
AcDbEntity
  8
1
  6
Continuous
 62
     2
100
AcDbLine
 10
39.01023882264013
 20
126.5862768236139
 30
0.0
 11
39.34773882264013
 21
126.0237768236139
 31
0.0
  0
LINE
  5
2BA
330
1F
100
AcDbEntity
  8
1
  6
Continuous
 62
     2
100
AcDbLine
 10
39.34773882264013
 20
126.0237768236139
 30
0.0
 11
39.76023882264013
 21
125.5737768236139
 31
0.0
  0
LINE
  5
2BB
330
1F
100
AcDbEntity
  8
1
  6
Continuous
 62
     2
100
AcDbLine
 10
42.49773882264012
 20
127.6362768236139
 30
0.0
 11
42.64773882264012
 21
127.8612768236139
 31
0.0
  0
LINE
  5
2BC
330
1F
100
AcDbEntity
  8
1
  6
Continuous
 62
     2
100
AcDbLine
 10
42.64773882264012
 20
127.8612768236139
 30
0.0
 11
42.87273882264012
 21
128.0112768236139
 31
0.0
  0
LINE
  5
2BD
330
1F
100
AcDbEntity
  8
1
  6
Continuous
 62
     2
100
AcDbLine
 10
42.87273882264012
 20
128.0112768236139
 30
0.0
 11
43.17273882264012
 21
128.0862768236139
 31
0.0
  0
LINE
  5
2BE
330
1F
100
AcDbEntity
  8
1
  6
Continuous
 62
     2
100
AcDbLine
 10
43.17273882264012
 20
128.0862768236139
 30
0.0
 11
43.62273882264012
 21
128.0862768236139
 31
0.0
  0
LINE
  5
2BF
330
1F
100
AcDbEntity
  8
1
  6
Continuous
 62
     2
100
AcDbLine
 10
43.62273882264012
 20
128.0862768236139
 30
0.0
 11
43.92273882264012
 21
128.0112768236139
 31
0.0
  0
LINE
  5
2C0
330
1F
100
AcDbEntity
  8
1
  6
Continuous
 62
     2
100
AcDbLine
 10
43.92273882264012
 20
128.0112768236139
 30
0.0
 11
44.14773882264012
 21
127.8612768236139
 31
0.0
  0
LINE
  5
2C1
330
1F
100
AcDbEntity
  8
1
  6
Continuous
 62
     2
100
AcDbLine
 10
44.14773882264012
 20
127.8612768236139
 30
0.0
 11
44.29773882264012
 21
127.6362768236139
 31
0.0
  0
LINE
  5
2C2
330
1F
100
AcDbEntity
  8
1
  6
Continuous
 62
     2
100
AcDbLine
 10
44.29773882264012
 20
127.6362768236139
 30
0.0
 11
44.29773882264012
 21
127.3362768236139
 31
0.0
  0
LINE
  5
2C3
330
1F
100
AcDbEntity
  8
1
  6
Continuous
 62
     2
100
AcDbLine
 10
44.29773882264012
 20
127.3362768236139
 30
0.0
 11
44.14773882264012
 21
127.0362768236139
 31
0.0
  0
LINE
  5
2C4
330
1F
100
AcDbEntity
  8
1
  6
Continuous
 62
     2
100
AcDbLine
 10
44.14773882264012
 20
127.0362768236139
 30
0.0
 11
42.49773882264012
 21
125.0862768236139
 31
0.0
  0
LINE
  5
2C5
330
1F
100
AcDbEntity
  8
1
  6
Continuous
 62
     2
100
AcDbLine
 10
42.49773882264012
 20
125.0862768236139
 30
0.0
 11
44.29773882264012
 21
125.0862768236139
 31
0.0
  0
LINE
  5
2C6
330
1F
100
AcDbEntity
  8
1
  6
Continuous
 62
     2
100
AcDbLine
 10
45.19773882264013
 20
126.1362768236139
 30
0.0
 11
45.27273882264013
 21
126.4362768236139
 31
0.0
  0
LINE
  5
2C7
330
1F
100
AcDbEntity
  8
1
  6
Continuous
 62
     2
100
AcDbLine
 10
45.27273882264013
 20
126.4362768236139
 30
0.0
 11
45.42273882264013
 21
126.6612768236139
 31
0.0
  0
LINE
  5
2C8
330
1F
100
AcDbEntity
  8
1
  6
Continuous
 62
     2
100
AcDbLine
 10
45.42273882264013
 20
126.6612768236139
 30
0.0
 11
45.64773882264013
 21
126.8112768236139
 31
0.0
  0
LINE
  5
2C9
330
1F
100
AcDbEntity
  8
1
  6
Continuous
 62
     2
100
AcDbLine
 10
45.64773882264013
 20
126.8112768236139
 30
0.0
 11
45.87273882264012
 21
126.8862768236139
 31
0.0
  0
LINE
  5
2CA
330
1F
100
AcDbEntity
  8
1
  6
Continuous
 62
     2
100
AcDbLine
 10
45.87273882264012
 20
126.8862768236139
 30
0.0
 11
46.32273882264013
 21
126.8862768236139
 31
0.0
  0
LINE
  5
2CB
330
1F
100
AcDbEntity
  8
1
  6
Continuous
 62
     2
100
AcDbLine
 10
46.32273882264013
 20
126.8862768236139
 30
0.0
 11
46.54773882264013
 21
126.8112768236139
 31
0.0
  0
LINE
  5
2CC
330
1F
100
AcDbEntity
  8
1
  6
Continuous
 62
     2
100
AcDbLine
 10
46.54773882264013
 20
126.8112768236139
 30
0.0
 11
46.77273882264013
 21
126.6612768236139
 31
0.0
  0
LINE
  5
2CD
330
1F
100
AcDbEntity
  8
1
  6
Continuous
 62
     2
100
AcDbLine
 10
46.77273882264013
 20
126.6612768236139
 30
0.0
 11
46.92273882264013
 21
126.4362768236139
 31
0.0
  0
LINE
  5
2CE
330
1F
100
AcDbEntity
  8
1
  6
Continuous
 62
     2
100
AcDbLine
 10
46.92273882264013
 20
126.4362768236139
 30
0.0
 11
46.99773882264012
 21
126.1362768236139
 31
0.0
  0
LINE
  5
2CF
330
1F
100
AcDbEntity
  8
1
  6
Continuous
 62
     2
100
AcDbLine
 10
46.99773882264012
 20
126.1362768236139
 30
0.0
 11
46.99773882264012
 21
125.8362768236139
 31
0.0
  0
LINE
  5
2D0
330
1F
100
AcDbEntity
  8
1
  6
Continuous
 62
     2
100
AcDbLine
 10
46.99773882264012
 20
125.8362768236139
 30
0.0
 11
46.92273882264013
 21
125.5362768236139
 31
0.0
  0
LINE
  5
2D1
330
1F
100
AcDbEntity
  8
1
  6
Continuous
 62
     2
100
AcDbLine
 10
46.92273882264013
 20
125.5362768236139
 30
0.0
 11
46.77273882264013
 21
125.3112768236139
 31
0.0
  0
LINE
  5
2D2
330
1F
100
AcDbEntity
  8
1
  6
Continuous
 62
     2
100
AcDbLine
 10
46.77273882264013
 20
125.3112768236139
 30
0.0
 11
46.54773882264013
 21
125.1612768236139
 31
0.0
  0
LINE
  5
2D3
330
1F
100
AcDbEntity
  8
1
  6
Continuous
 62
     2
100
AcDbLine
 10
46.54773882264013
 20
125.1612768236139
 30
0.0
 11
46.32273882264013
 21
125.0862768236139
 31
0.0
  0
LINE
  5
2D4
330
1F
100
AcDbEntity
  8
1
  6
Continuous
 62
     2
100
AcDbLine
 10
46.32273882264013
 20
125.0862768236139
 30
0.0
 11
45.87273882264012
 21
125.0862768236139
 31
0.0
  0
LINE
  5
2D5
330
1F
100
AcDbEntity
  8
1
  6
Continuous
 62
     2
100
AcDbLine
 10
45.87273882264012
 20
125.0862768236139
 30
0.0
 11
45.64773882264013
 21
125.1612768236139
 31
0.0
  0
LINE
  5
2D6
330
1F
100
AcDbEntity
  8
1
  6
Continuous
 62
     2
100
AcDbLine
 10
45.64773882264013
 20
125.1612768236139
 30
0.0
 11
45.42273882264013
 21
125.3112768236139
 31
0.0
  0
LINE
  5
2D7
330
1F
100
AcDbEntity
  8
1
  6
Continuous
 62
     2
100
AcDbLine
 10
45.42273882264013
 20
125.3112768236139
 30
0.0
 11
45.27273882264013
 21
125.5362768236139
 31
0.0
  0
LINE
  5
2D8
330
1F
100
AcDbEntity
  8
1
  6
Continuous
 62
     2
100
AcDbLine
 10
45.27273882264013
 20
125.5362768236139
 30
0.0
 11
45.19773882264013
 21
125.8362768236139
 31
0.0
  0
LINE
  5
2D9
330
1F
100
AcDbEntity
  8
1
  6
Continuous
 62
     2
100
AcDbLine
 10
45.19773882264013
 20
125.8362768236139
 30
0.0
 11
45.19773882264013
 21
126.1362768236139
 31
0.0
  0
LINE
  5
2DA
330
1F
100
AcDbEntity
  8
1
  6
Continuous
 62
     2
100
AcDbLine
 10
45.19773882264013
 20
126.1362768236139
 30
0.0
 11
45.27273882264013
 21
126.7362768236139
 31
0.0
  0
LINE
  5
2DB
330
1F
100
AcDbEntity
  8
1
  6
Continuous
 62
     2
100
AcDbLine
 10
45.27273882264013
 20
126.7362768236139
 30
0.0
 11
45.42273882264013
 21
127.0362768236139
 31
0.0
  0
LINE
  5
2DC
330
1F
100
AcDbEntity
  8
1
  6
Continuous
 62
     2
100
AcDbLine
 10
45.42273882264013
 20
127.0362768236139
 30
0.0
 11
45.72273882264013
 21
127.4112768236139
 31
0.0
  0
LINE
  5
2DD
330
1F
100
AcDbEntity
  8
1
  6
Continuous
 62
     2
100
AcDbLine
 10
45.72273882264013
 20
127.4112768236139
 30
0.0
 11
46.54773882264013
 21
128.0862768236139
 31
0.0
  0
LINE
  5
2DE
330
1F
100
AcDbEntity
  8
1
  6
Continuous
 62
     2
100
AcDbLine
 10
48.12273882264012
 20
125.0862768236139
 30
0.0
 11
47.89773882264012
 21
125.0862768236139
 31
0.0
  0
LINE
  5
2DF
330
1F
100
AcDbEntity
  8
1
  6
Continuous
 62
     2
100
AcDbLine
 10
47.89773882264012
 20
125.0862768236139
 30
0.0
 11
47.89773882264012
 21
125.3112768236139
 31
0.0
  0
LINE
  5
2E0
330
1F
100
AcDbEntity
  8
1
  6
Continuous
 62
     2
100
AcDbLine
 10
47.89773882264012
 20
125.3112768236139
 30
0.0
 11
48.12273882264012
 21
125.3112768236139
 31
0.0
  0
LINE
  5
2E1
330
1F
100
AcDbEntity
  8
1
  6
Continuous
 62
     2
100
AcDbLine
 10
48.12273882264012
 20
125.3112768236139
 30
0.0
 11
48.12273882264012
 21
125.0862768236139
 31
0.0
  0
LINE
  5
2E2
330
1F
100
AcDbEntity
  8
1
  6
Continuous
 62
     2
100
AcDbLine
 10
48.04773882264012
 20
125.1612768236139
 30
0.0
 11
47.97273882264013
 21
125.1612768236139
 31
0.0
  0
LINE
  5
2E3
330
1F
100
AcDbEntity
  8
1
  6
Continuous
 62
     2
100
AcDbLine
 10
47.97273882264013
 20
125.1612768236139
 30
0.0
 11
47.97273882264013
 21
125.2362768236139
 31
0.0
  0
LINE
  5
2E4
330
1F
100
AcDbEntity
  8
1
  6
Continuous
 62
     2
100
AcDbLine
 10
47.97273882264013
 20
125.2362768236139
 30
0.0
 11
48.04773882264012
 21
125.2362768236139
 31
0.0
  0
LINE
  5
2E5
330
1F
100
AcDbEntity
  8
1
  6
Continuous
 62
     2
100
AcDbLine
 10
48.04773882264012
 20
125.2362768236139
 30
0.0
 11
48.04773882264012
 21
125.1612768236139
 31
0.0
  0
LINE
  5
2E6
330
1F
100
AcDbEntity
  8
1
  6
Continuous
 62
     2
100
AcDbLine
 10
50.22273882264013
 20
128.0862768236139
 30
0.0
 11
48.87273882264012
 21
125.6862768236139
 31
0.0
  0
LINE
  5
2E7
330
1F
100
AcDbEntity
  8
1
  6
Continuous
 62
     2
100
AcDbLine
 10
48.87273882264012
 20
125.6862768236139
 30
0.0
 11
50.67273882264012
 21
125.6862768236139
 31
0.0
  0
LINE
  5
2E8
330
1F
100
AcDbEntity
  8
1
  6
Continuous
 62
     2
100
AcDbLine
 10
50.22273882264013
 20
126.2862768236139
 30
0.0
 11
50.22273882264013
 21
125.0862768236139
 31
0.0
  0
LINE
  5
2E9
330
1F
100
AcDbEntity
  8
1
  6
Continuous
 62
     2
100
AcDbLine
 10
52.92273882264013
 20
128.0862768236139
 30
0.0
 11
51.57273882264013
 21
125.6862768236139
 31
0.0
  0
LINE
  5
2EA
330
1F
100
AcDbEntity
  8
1
  6
Continuous
 62
     2
100
AcDbLine
 10
51.57273882264013
 20
125.6862768236139
 30
0.0
 11
53.37273882264012
 21
125.6862768236139
 31
0.0
  0
LINE
  5
2EB
330
1F
100
AcDbEntity
  8
1
  6
Continuous
 62
     2
100
AcDbLine
 10
52.92273882264013
 20
126.2862768236139
 30
0.0
 11
52.92273882264013
 21
125.0862768236139
 31
0.0
  0
LINE
  5
2EC
330
1F
100
AcDbEntity
  8
1
  6
Continuous
 62
     2
100
AcDbLine
 10
54.27273882264012
 20
127.1862768236139
 30
0.0
 11
55.17273882264012
 21
128.0862768236139
 31
0.0
  0
LINE
  5
2ED
330
1F
100
AcDbEntity
  8
1
  6
Continuous
 62
     2
100
AcDbLine
 10
55.17273882264012
 20
128.0862768236139
 30
0.0
 11
55.17273882264012
 21
125.0862768236139
 31
0.0
  0
LINE
  5
2EE
330
1F
100
AcDbEntity
  8
1
  6
Continuous
 62
     2
100
AcDbLine
 10
58.73523882264013
 20
127.2612768236139
 30
0.0
 11
58.73523882264013
 21
125.2737768236139
 31
0.0
  0
LINE
  5
2EF
330
1F
100
AcDbEntity
  8
1
  6
Continuous
 62
     2
100
AcDbLine
 10
58.73523882264013
 20
125.2737768236139
 30
0.0
 11
60.87273882264012
 21
125.2737768236139
 31
0.0
  0
LINE
  5
2F0
330
1F
100
AcDbEntity
  8
1
  6
Continuous
 62
     2
100
AcDbLine
 10
60.87273882264012
 20
125.2737768236139
 30
0.0
 11
60.87273882264012
 21
127.2612768236139
 31
0.0
  0
LINE
  5
2F1
330
1F
100
AcDbEntity
  8
1
  6
Continuous
 62
     2
100
AcDbLine
 10
59.82273882264013
 20
127.8987768236139
 30
0.0
 11
59.82273882264013
 21
125.2737768236139
 31
0.0
  0
LINE
  5
2F2
330
1F
100
AcDbEntity
  8
1
  6
Continuous
 62
     2
100
AcDbLine
 10
61.47273882264013
 20
127.1862768236139
 30
0.0
 11
62.37273882264012
 21
128.0862768236139
 31
0.0
  0
LINE
  5
2F3
330
1F
100
AcDbEntity
  8
1
  6
Continuous
 62
     2
100
AcDbLine
 10
62.37273882264012
 20
128.0862768236139
 30
0.0
 11
62.37273882264012
 21
125.0862768236139
 31
0.0
  0
LINE
  5
2F4
330
1F
100
AcDbEntity
  8
1
  6
Continuous
 62
     2
100
AcDbLine
 10
64.62273882264012
 20
128.0862768236139
 30
0.0
 11
63.27273882264012
 21
125.6862768236139
 31
0.0
  0
LINE
  5
2F5
330
1F
100
AcDbEntity
  8
1
  6
Continuous
 62
     2
100
AcDbLine
 10
63.27273882264012
 20
125.6862768236139
 30
0.0
 11
65.07273882264012
 21
125.6862768236139
 31
0.0
  0
LINE
  5
2F6
330
1F
100
AcDbEntity
  8
1
  6
Continuous
 62
     2
100
AcDbLine
 10
64.62273882264012
 20
126.2862768236139
 30
0.0
 11
64.62273882264012
 21
125.0862768236139
 31
0.0
  0
LINE
  5
2F7
330
1F
100
AcDbEntity
  8
1
  6
Continuous
 62
     2
100
AcDbLine
 10
34.21023882264012
 20
120.1987768236139
 30
0.0
 11
36.27273882264012
 21
120.1987768236139
 31
0.0
  0
LINE
  5
2F8
330
1F
100
AcDbEntity
  8
1
  6
Continuous
 62
     2
100
AcDbLine
 10
35.29773882264012
 20
120.1987768236139
 30
0.0
 11
35.29773882264012
 21
121.9612768236139
 31
0.0
  0
LINE
  5
2F9
330
1F
100
AcDbEntity
  8
1
  6
Continuous
 62
     2
100
AcDbLine
 10
34.69773882264012
 20
121.9612768236139
 30
0.0
 11
35.86023882264012
 21
121.9612768236139
 31
0.0
  0
LINE
  5
2FA
330
1F
100
AcDbEntity
  8
1
  6
Continuous
 62
     2
100
AcDbLine
 10
36.12273882264012
 20
121.3987768236139
 30
0.0
 11
34.43523882264012
 21
121.3987768236139
 31
0.0
  0
LINE
  5
2FB
330
1F
100
AcDbEntity
  8
1
  6
Continuous
 62
     2
100
AcDbLine
 10
34.69773882264012
 20
121.0237768236139
 30
0.0
 11
34.84773882264012
 21
120.5737768236139
 31
0.0
  0
LINE
  5
2FC
330
1F
100
AcDbEntity
  8
1
  6
Continuous
 62
     2
100
AcDbLine
 10
35.71023882264012
 20
120.5737768236139
 30
0.0
 11
35.86023882264012
 21
121.0237768236139
 31
0.0
  0
LINE
  5
2FD
330
1F
100
AcDbEntity
  8
1
  6
Continuous
 62
     2
100
AcDbLine
 10
33.94773882264012
 20
121.5862768236139
 30
0.0
 11
34.28523882264012
 21
121.8862768236139
 31
0.0
  0
LINE
  5
2FE
330
1F
100
AcDbEntity
  8
1
  6
Continuous
 62
     2
100
AcDbLine
 10
34.28523882264012
 20
121.8862768236139
 30
0.0
 11
34.84773882264012
 21
122.5237768236139
 31
0.0
  0
LINE
  5
2FF
330
1F
100
AcDbEntity
  8
1
  6
Continuous
 62
     2
100
AcDbLine
 10
34.84773882264012
 20
122.5237768236139
 30
0.0
 11
35.29773882264012
 21
123.0862768236139
 31
0.0
  0
LINE
  5
300
330
1F
100
AcDbEntity
  8
1
  6
Continuous
 62
     2
100
AcDbLine
 10
35.29773882264012
 20
123.0862768236139
 30
0.0
 11
35.71023882264012
 21
122.5237768236139
 31
0.0
  0
LINE
  5
301
330
1F
100
AcDbEntity
  8
1
  6
Continuous
 62
     2
100
AcDbLine
 10
35.71023882264012
 20
122.5237768236139
 30
0.0
 11
36.27273882264012
 21
121.8862768236139
 31
0.0
  0
LINE
  5
302
330
1F
100
AcDbEntity
  8
1
  6
Continuous
 62
     2
100
AcDbLine
 10
36.27273882264012
 20
121.8862768236139
 30
0.0
 11
36.61023882264012
 21
121.5862768236139
 31
0.0
  0
LINE
  5
303
330
1F
100
AcDbEntity
  8
1
  6
Continuous
 62
     2
100
AcDbLine
 10
37.21023882264012
 20
120.1987768236139
 30
0.0
 11
37.21023882264012
 21
122.8987768236139
 31
0.0
  0
LINE
  5
304
330
1F
100
AcDbEntity
  8
1
  6
Continuous
 62
     2
100
AcDbLine
 10
37.21023882264012
 20
122.8987768236139
 30
0.0
 11
38.03523882264012
 21
122.8987768236139
 31
0.0
  0
LINE
  5
305
330
1F
100
AcDbEntity
  8
1
  6
Continuous
 62
     2
100
AcDbLine
 10
38.03523882264012
 20
122.8987768236139
 30
0.0
 11
38.03523882264012
 21
121.9612768236139
 31
0.0
  0
LINE
  5
306
330
1F
100
AcDbEntity
  8
1
  6
Continuous
 62
     2
100
AcDbLine
 10
38.03523882264012
 20
121.9612768236139
 30
0.0
 11
37.21023882264012
 21
121.9612768236139
 31
0.0
  0
LINE
  5
307
330
1F
100
AcDbEntity
  8
1
  6
Continuous
 62
     2
100
AcDbLine
 10
38.03523882264012
 20
122.4487768236139
 30
0.0
 11
37.21023882264012
 21
122.4487768236139
 31
0.0
  0
LINE
  5
308
330
1F
100
AcDbEntity
  8
1
  6
Continuous
 62
     2
100
AcDbLine
 10
39.04773882264012
 20
120.1987768236139
 30
0.0
 11
39.27273882264012
 21
120.1987768236139
 31
0.0
  0
LINE
  5
309
330
1F
100
AcDbEntity
  8
1
  6
Continuous
 62
     2
100
AcDbLine
 10
39.27273882264012
 20
120.1987768236139
 30
0.0
 11
39.34773882264012
 21
120.2737768236139
 31
0.0
  0
LINE
  5
30A
330
1F
100
AcDbEntity
  8
1
  6
Continuous
 62
     2
100
AcDbLine
 10
39.34773882264012
 20
120.2737768236139
 30
0.0
 11
39.34773882264012
 21
122.8987768236139
 31
0.0
  0
LINE
  5
30B
330
1F
100
AcDbEntity
  8
1
  6
Continuous
 62
     2
100
AcDbLine
 10
39.34773882264012
 20
122.8987768236139
 30
0.0
 11
38.52273882264012
 21
122.8987768236139
 31
0.0
  0
LINE
  5
30C
330
1F
100
AcDbEntity
  8
1
  6
Continuous
 62
     2
100
AcDbLine
 10
38.52273882264012
 20
122.8987768236139
 30
0.0
 11
38.52273882264012
 21
121.9612768236139
 31
0.0
  0
LINE
  5
30D
330
1F
100
AcDbEntity
  8
1
  6
Continuous
 62
     2
100
AcDbLine
 10
38.52273882264012
 20
121.9612768236139
 30
0.0
 11
39.34773882264012
 21
121.9612768236139
 31
0.0
  0
LINE
  5
30E
330
1F
100
AcDbEntity
  8
1
  6
Continuous
 62
     2
100
AcDbLine
 10
38.52273882264012
 20
122.4487768236139
 30
0.0
 11
39.34773882264012
 21
122.4487768236139
 31
0.0
  0
LINE
  5
30F
330
1F
100
AcDbEntity
  8
1
  6
Continuous
 62
     2
100
AcDbLine
 10
42.34773882264013
 20
122.6362768236139
 30
0.0
 11
42.49773882264012
 21
122.8612768236139
 31
0.0
  0
LINE
  5
310
330
1F
100
AcDbEntity
  8
1
  6
Continuous
 62
     2
100
AcDbLine
 10
42.49773882264012
 20
122.8612768236139
 30
0.0
 11
42.72273882264013
 21
123.0112768236139
 31
0.0
  0
LINE
  5
311
330
1F
100
AcDbEntity
  8
1
  6
Continuous
 62
     2
100
AcDbLine
 10
42.72273882264013
 20
123.0112768236139
 30
0.0
 11
43.02273882264012
 21
123.0862768236139
 31
0.0
  0
LINE
  5
312
330
1F
100
AcDbEntity
  8
1
  6
Continuous
 62
     2
100
AcDbLine
 10
43.02273882264012
 20
123.0862768236139
 30
0.0
 11
43.47273882264013
 21
123.0862768236139
 31
0.0
  0
LINE
  5
313
330
1F
100
AcDbEntity
  8
1
  6
Continuous
 62
     2
100
AcDbLine
 10
43.47273882264013
 20
123.0862768236139
 30
0.0
 11
43.77273882264012
 21
123.0112768236139
 31
0.0
  0
LINE
  5
314
330
1F
100
AcDbEntity
  8
1
  6
Continuous
 62
     2
100
AcDbLine
 10
43.77273882264012
 20
123.0112768236139
 30
0.0
 11
43.99773882264012
 21
122.8612768236139
 31
0.0
  0
LINE
  5
315
330
1F
100
AcDbEntity
  8
1
  6
Continuous
 62
     2
100
AcDbLine
 10
43.99773882264012
 20
122.8612768236139
 30
0.0
 11
44.14773882264012
 21
122.6362768236139
 31
0.0
  0
LINE
  5
316
330
1F
100
AcDbEntity
  8
1
  6
Continuous
 62
     2
100
AcDbLine
 10
44.14773882264012
 20
122.6362768236139
 30
0.0
 11
44.14773882264012
 21
122.3362768236139
 31
0.0
  0
LINE
  5
317
330
1F
100
AcDbEntity
  8
1
  6
Continuous
 62
     2
100
AcDbLine
 10
44.14773882264012
 20
122.3362768236139
 30
0.0
 11
43.99773882264012
 21
122.0362768236139
 31
0.0
  0
LINE
  5
318
330
1F
100
AcDbEntity
  8
1
  6
Continuous
 62
     2
100
AcDbLine
 10
43.99773882264012
 20
122.0362768236139
 30
0.0
 11
42.34773882264013
 21
120.0862768236139
 31
0.0
  0
LINE
  5
319
330
1F
100
AcDbEntity
  8
1
  6
Continuous
 62
     2
100
AcDbLine
 10
42.34773882264013
 20
120.0862768236139
 30
0.0
 11
44.14773882264012
 21
120.0862768236139
 31
0.0
  0
LINE
  5
31A
330
1F
100
AcDbEntity
  8
1
  6
Continuous
 62
     2
100
AcDbLine
 10
46.69773882264013
 20
123.0862768236139
 30
0.0
 11
45.04773882264013
 21
123.0862768236139
 31
0.0
  0
LINE
  5
31B
330
1F
100
AcDbEntity
  8
1
  6
Continuous
 62
     2
100
AcDbLine
 10
45.04773882264013
 20
123.0862768236139
 30
0.0
 11
45.04773882264013
 21
121.8862768236139
 31
0.0
  0
LINE
  5
31C
330
1F
100
AcDbEntity
  8
1
  6
Continuous
 62
     2
100
AcDbLine
 10
45.04773882264013
 20
121.8862768236139
 30
0.0
 11
46.17273882264013
 21
121.8862768236139
 31
0.0
  0
LINE
  5
31D
330
1F
100
AcDbEntity
  8
1
  6
Continuous
 62
     2
100
AcDbLine
 10
46.17273882264013
 20
121.8862768236139
 30
0.0
 11
46.54773882264013
 21
121.8112768236139
 31
0.0
  0
LINE
  5
31E
330
1F
100
AcDbEntity
  8
1
  6
Continuous
 62
     2
100
AcDbLine
 10
46.54773882264013
 20
121.8112768236139
 30
0.0
 11
46.77273882264013
 21
121.5862768236139
 31
0.0
  0
LINE
  5
31F
330
1F
100
AcDbEntity
  8
1
  6
Continuous
 62
     2
100
AcDbLine
 10
46.77273882264013
 20
121.5862768236139
 30
0.0
 11
46.84773882264013
 21
121.2862768236139
 31
0.0
  0
LINE
  5
320
330
1F
100
AcDbEntity
  8
1
  6
Continuous
 62
     2
100
AcDbLine
 10
46.84773882264013
 20
121.2862768236139
 30
0.0
 11
46.84773882264013
 21
120.8362768236139
 31
0.0
  0
LINE
  5
321
330
1F
100
AcDbEntity
  8
1
  6
Continuous
 62
     2
100
AcDbLine
 10
46.84773882264013
 20
120.8362768236139
 30
0.0
 11
46.77273882264013
 21
120.5362768236139
 31
0.0
  0
LINE
  5
322
330
1F
100
AcDbEntity
  8
1
  6
Continuous
 62
     2
100
AcDbLine
 10
46.77273882264013
 20
120.5362768236139
 30
0.0
 11
46.62273882264013
 21
120.3112768236139
 31
0.0
  0
LINE
  5
323
330
1F
100
AcDbEntity
  8
1
  6
Continuous
 62
     2
100
AcDbLine
 10
46.62273882264013
 20
120.3112768236139
 30
0.0
 11
46.39773882264013
 21
120.1612768236139
 31
0.0
  0
LINE
  5
324
330
1F
100
AcDbEntity
  8
1
  6
Continuous
 62
     2
100
AcDbLine
 10
46.39773882264013
 20
120.1612768236139
 30
0.0
 11
46.17273882264013
 21
120.0862768236139
 31
0.0
  0
LINE
  5
325
330
1F
100
AcDbEntity
  8
1
  6
Continuous
 62
     2
100
AcDbLine
 10
46.17273882264013
 20
120.0862768236139
 30
0.0
 11
45.04773882264013
 21
120.0862768236139
 31
0.0
  0
LINE
  5
326
330
1F
100
AcDbEntity
  8
1
  6
Continuous
 62
     2
100
AcDbLine
 10
47.97273882264013
 20
120.0862768236139
 30
0.0
 11
47.74773882264012
 21
120.0862768236139
 31
0.0
  0
LINE
  5
327
330
1F
100
AcDbEntity
  8
1
  6
Continuous
 62
     2
100
AcDbLine
 10
47.74773882264012
 20
120.0862768236139
 30
0.0
 11
47.74773882264012
 21
120.3112768236139
 31
0.0
  0
LINE
  5
328
330
1F
100
AcDbEntity
  8
1
  6
Continuous
 62
     2
100
AcDbLine
 10
47.74773882264012
 20
120.3112768236139
 30
0.0
 11
47.97273882264013
 21
120.3112768236139
 31
0.0
  0
LINE
  5
329
330
1F
100
AcDbEntity
  8
1
  6
Continuous
 62
     2
100
AcDbLine
 10
47.97273882264013
 20
120.3112768236139
 30
0.0
 11
47.97273882264013
 21
120.0862768236139
 31
0.0
  0
LINE
  5
32A
330
1F
100
AcDbEntity
  8
1
  6
Continuous
 62
     2
100
AcDbLine
 10
47.89773882264012
 20
120.1612768236139
 30
0.0
 11
47.82273882264013
 21
120.1612768236139
 31
0.0
  0
LINE
  5
32B
330
1F
100
AcDbEntity
  8
1
  6
Continuous
 62
     2
100
AcDbLine
 10
47.82273882264013
 20
120.1612768236139
 30
0.0
 11
47.82273882264013
 21
120.2362768236139
 31
0.0
  0
LINE
  5
32C
330
1F
100
AcDbEntity
  8
1
  6
Continuous
 62
     2
100
AcDbLine
 10
47.82273882264013
 20
120.2362768236139
 30
0.0
 11
47.89773882264012
 21
120.2362768236139
 31
0.0
  0
LINE
  5
32D
330
1F
100
AcDbEntity
  8
1
  6
Continuous
 62
     2
100
AcDbLine
 10
47.89773882264012
 20
120.2362768236139
 30
0.0
 11
47.89773882264012
 21
120.1612768236139
 31
0.0
  0
LINE
  5
32E
330
1F
100
AcDbEntity
  8
1
  6
Continuous
 62
     2
100
AcDbLine
 10
49.47273882264013
 20
121.8862768236139
 30
0.0
 11
49.09773882264013
 21
121.7362768236139
 31
0.0
  0
LINE
  5
32F
330
1F
100
AcDbEntity
  8
1
  6
Continuous
 62
     2
100
AcDbLine
 10
49.09773882264013
 20
121.7362768236139
 30
0.0
 11
48.87273882264012
 21
121.5112768236139
 31
0.0
  0
LINE
  5
330
330
1F
100
AcDbEntity
  8
1
  6
Continuous
 62
     2
100
AcDbLine
 10
48.87273882264012
 20
121.5112768236139
 30
0.0
 11
48.72273882264013
 21
121.2112768236139
 31
0.0
  0
LINE
  5
331
330
1F
100
AcDbEntity
  8
1
  6
Continuous
 62
     2
100
AcDbLine
 10
48.72273882264013
 20
121.2112768236139
 30
0.0
 11
48.72273882264013
 21
120.7612768236139
 31
0.0
  0
LINE
  5
332
330
1F
100
AcDbEntity
  8
1
  6
Continuous
 62
     2
100
AcDbLine
 10
48.72273882264013
 20
120.7612768236139
 30
0.0
 11
48.87273882264012
 21
120.4612768236139
 31
0.0
  0
LINE
  5
333
330
1F
100
AcDbEntity
  8
1
  6
Continuous
 62
     2
100
AcDbLine
 10
48.87273882264012
 20
120.4612768236139
 30
0.0
 11
49.09773882264013
 21
120.2362768236139
 31
0.0
  0
LINE
  5
334
330
1F
100
AcDbEntity
  8
1
  6
Continuous
 62
     2
100
AcDbLine
 10
49.09773882264013
 20
120.2362768236139
 30
0.0
 11
49.39773882264012
 21
120.0862768236139
 31
0.0
  0
LINE
  5
335
330
1F
100
AcDbEntity
  8
1
  6
Continuous
 62
     2
100
AcDbLine
 10
49.39773882264012
 20
120.0862768236139
 30
0.0
 11
49.84773882264013
 21
120.0862768236139
 31
0.0
  0
LINE
  5
336
330
1F
100
AcDbEntity
  8
1
  6
Continuous
 62
     2
100
AcDbLine
 10
49.84773882264013
 20
120.0862768236139
 30
0.0
 11
50.14773882264012
 21
120.2362768236139
 31
0.0
  0
LINE
  5
337
330
1F
100
AcDbEntity
  8
1
  6
Continuous
 62
     2
100
AcDbLine
 10
50.14773882264012
 20
120.2362768236139
 30
0.0
 11
50.37273882264012
 21
120.4612768236139
 31
0.0
  0
LINE
  5
338
330
1F
100
AcDbEntity
  8
1
  6
Continuous
 62
     2
100
AcDbLine
 10
50.37273882264012
 20
120.4612768236139
 30
0.0
 11
50.52273882264012
 21
120.7612768236139
 31
0.0
  0
LINE
  5
339
330
1F
100
AcDbEntity
  8
1
  6
Continuous
 62
     2
100
AcDbLine
 10
50.52273882264012
 20
120.7612768236139
 30
0.0
 11
50.52273882264012
 21
121.2112768236139
 31
0.0
  0
LINE
  5
33A
330
1F
100
AcDbEntity
  8
1
  6
Continuous
 62
     2
100
AcDbLine
 10
50.52273882264012
 20
121.2112768236139
 30
0.0
 11
50.37273882264012
 21
121.5112768236139
 31
0.0
  0
LINE
  5
33B
330
1F
100
AcDbEntity
  8
1
  6
Continuous
 62
     2
100
AcDbLine
 10
50.37273882264012
 20
121.5112768236139
 30
0.0
 11
50.14773882264012
 21
121.7362768236139
 31
0.0
  0
LINE
  5
33C
330
1F
100
AcDbEntity
  8
1
  6
Continuous
 62
     2
100
AcDbLine
 10
50.14773882264012
 20
121.7362768236139
 30
0.0
 11
49.77273882264012
 21
121.8862768236139
 31
0.0
  0
LINE
  5
33D
330
1F
100
AcDbEntity
  8
1
  6
Continuous
 62
     2
100
AcDbLine
 10
49.24773882264012
 20
123.0112768236139
 30
0.0
 11
49.47273882264013
 21
123.0862768236139
 31
0.0
  0
LINE
  5
33E
330
1F
100
AcDbEntity
  8
1
  6
Continuous
 62
     2
100
AcDbLine
 10
49.47273882264013
 20
123.0862768236139
 30
0.0
 11
49.77273882264012
 21
123.0862768236139
 31
0.0
  0
LINE
  5
33F
330
1F
100
AcDbEntity
  8
1
  6
Continuous
 62
     2
100
AcDbLine
 10
49.77273882264012
 20
123.0862768236139
 30
0.0
 11
49.99773882264012
 21
123.0112768236139
 31
0.0
  0
LINE
  5
340
330
1F
100
AcDbEntity
  8
1
  6
Continuous
 62
     2
100
AcDbLine
 10
49.99773882264012
 20
123.0112768236139
 30
0.0
 11
50.22273882264013
 21
122.8612768236139
 31
0.0
  0
LINE
  5
341
330
1F
100
AcDbEntity
  8
1
  6
Continuous
 62
     2
100
AcDbLine
 10
50.22273882264013
 20
122.8612768236139
 30
0.0
 11
50.37273882264012
 21
122.6362768236139
 31
0.0
  0
LINE
  5
342
330
1F
100
AcDbEntity
  8
1
  6
Continuous
 62
     2
100
AcDbLine
 10
50.37273882264012
 20
122.6362768236139
 30
0.0
 11
50.37273882264012
 21
122.3362768236139
 31
0.0
  0
LINE
  5
343
330
1F
100
AcDbEntity
  8
1
  6
Continuous
 62
     2
100
AcDbLine
 10
50.37273882264012
 20
122.3362768236139
 30
0.0
 11
50.22273882264013
 21
122.1112768236139
 31
0.0
  0
LINE
  5
344
330
1F
100
AcDbEntity
  8
1
  6
Continuous
 62
     2
100
AcDbLine
 10
50.22273882264013
 20
122.1112768236139
 30
0.0
 11
49.99773882264012
 21
121.9612768236139
 31
0.0
  0
LINE
  5
345
330
1F
100
AcDbEntity
  8
1
  6
Continuous
 62
     2
100
AcDbLine
 10
49.99773882264012
 20
121.9612768236139
 30
0.0
 11
49.77273882264012
 21
121.8862768236139
 31
0.0
  0
LINE
  5
346
330
1F
100
AcDbEntity
  8
1
  6
Continuous
 62
     2
100
AcDbLine
 10
49.77273882264012
 20
121.8862768236139
 30
0.0
 11
49.47273882264013
 21
121.8862768236139
 31
0.0
  0
LINE
  5
347
330
1F
100
AcDbEntity
  8
1
  6
Continuous
 62
     2
100
AcDbLine
 10
49.47273882264013
 20
121.8862768236139
 30
0.0
 11
49.24773882264012
 21
121.9612768236139
 31
0.0
  0
LINE
  5
348
330
1F
100
AcDbEntity
  8
1
  6
Continuous
 62
     2
100
AcDbLine
 10
49.24773882264012
 20
121.9612768236139
 30
0.0
 11
49.02273882264012
 21
122.1112768236139
 31
0.0
  0
LINE
  5
349
330
1F
100
AcDbEntity
  8
1
  6
Continuous
 62
     2
100
AcDbLine
 10
49.02273882264012
 20
122.1112768236139
 30
0.0
 11
48.87273882264012
 21
122.3362768236139
 31
0.0
  0
LINE
  5
34A
330
1F
100
AcDbEntity
  8
1
  6
Continuous
 62
     2
100
AcDbLine
 10
48.87273882264012
 20
122.3362768236139
 30
0.0
 11
48.87273882264012
 21
122.6362768236139
 31
0.0
  0
LINE
  5
34B
330
1F
100
AcDbEntity
  8
1
  6
Continuous
 62
     2
100
AcDbLine
 10
48.87273882264012
 20
122.6362768236139
 30
0.0
 11
49.02273882264012
 21
122.8612768236139
 31
0.0
  0
LINE
  5
34C
330
1F
100
AcDbEntity
  8
1
  6
Continuous
 62
     2
100
AcDbLine
 10
49.02273882264012
 20
122.8612768236139
 30
0.0
 11
49.24773882264012
 21
123.0112768236139
 31
0.0
  0
LINE
  5
34D
330
1F
100
AcDbEntity
  8
1
  6
Continuous
 62
     2
100
AcDbLine
 10
58.88523882264012
 20
122.2612768236139
 30
0.0
 11
58.88523882264012
 21
120.2737768236139
 31
0.0
  0
LINE
  5
34E
330
1F
100
AcDbEntity
  8
1
  6
Continuous
 62
     2
100
AcDbLine
 10
58.88523882264012
 20
120.2737768236139
 30
0.0
 11
61.02273882264012
 21
120.2737768236139
 31
0.0
  0
LINE
  5
34F
330
1F
100
AcDbEntity
  8
1
  6
Continuous
 62
     2
100
AcDbLine
 10
61.02273882264012
 20
120.2737768236139
 30
0.0
 11
61.02273882264012
 21
122.2612768236139
 31
0.0
  0
LINE
  5
350
330
1F
100
AcDbEntity
  8
1
  6
Continuous
 62
     2
100
AcDbLine
 10
59.97273882264012
 20
122.8987768236139
 30
0.0
 11
59.97273882264012
 21
120.2737768236139
 31
0.0
  0
LINE
  5
351
330
1F
100
AcDbEntity
  8
1
  6
Continuous
 62
     2
100
AcDbLine
 10
61.62273882264012
 20
122.1862768236139
 30
0.0
 11
62.52273882264012
 21
123.0862768236139
 31
0.0
  0
LINE
  5
352
330
1F
100
AcDbEntity
  8
1
  6
Continuous
 62
     2
100
AcDbLine
 10
62.52273882264012
 20
123.0862768236139
 30
0.0
 11
62.52273882264012
 21
120.0862768236139
 31
0.0
  0
LINE
  5
353
330
1F
100
AcDbEntity
  8
1
  6
Continuous
 62
     2
100
AcDbLine
 10
64.77273882264012
 20
123.0862768236139
 30
0.0
 11
63.42273882264012
 21
120.6862768236139
 31
0.0
  0
LINE
  5
354
330
1F
100
AcDbEntity
  8
1
  6
Continuous
 62
     2
100
AcDbLine
 10
63.42273882264012
 20
120.6862768236139
 30
0.0
 11
65.22273882264012
 21
120.6862768236139
 31
0.0
  0
LINE
  5
355
330
1F
100
AcDbEntity
  8
1
  6
Continuous
 62
     2
100
AcDbLine
 10
64.77273882264012
 20
121.2862768236139
 30
0.0
 11
64.77273882264012
 21
120.0862768236139
 31
0.0
  0
LINE
  5
356
330
1F
100
AcDbEntity
  8
1
  6
Continuous
 62
     7
100
AcDbLine
 10
129.7101104100951
 20
74.3972671662749
 30
0.0
 11
125.6501104100951
 21
74.3972671662749
 31
0.0
  0
LINE
  5
357
330
1F
100
AcDbEntity
  8
1
  6
Continuous
 62
     7
100
AcDbLine
 10
125.6501104100951
 20
74.3972671662749
 30
0.0
 11
125.6501104100951
 21
81.3972671662749
 31
0.0
  0
LINE
  5
358
330
1F
100
AcDbEntity
  8
1
  6
Continuous
 62
     7
100
AcDbLine
 10
125.6501104100951
 20
81.3972671662749
 30
0.0
 11
129.6401104100951
 21
81.3972671662749
 31
0.0
  0
LINE
  5
359
330
1F
100
AcDbEntity
  8
1
  6
Continuous
 62
     7
100
AcDbLine
 10
129.6401104100951
 20
81.3972671662749
 30
0.0
 11
129.6401104100951
 21
80.5222671662749
 31
0.0
  0
LINE
  5
35A
330
1F
100
AcDbEntity
  8
1
  6
Continuous
 62
     7
100
AcDbLine
 10
129.6401104100951
 20
80.5222671662749
 30
0.0
 11
126.4201104100951
 21
80.5222671662749
 31
0.0
  0
LINE
  5
35B
330
1F
100
AcDbEntity
  8
1
  6
Continuous
 62
     7
100
AcDbLine
 10
126.4201104100951
 20
80.5222671662749
 30
0.0
 11
126.4201104100951
 21
78.4222671662749
 31
0.0
  0
LINE
  5
35C
330
1F
100
AcDbEntity
  8
1
  6
Continuous
 62
     7
100
AcDbLine
 10
126.4201104100951
 20
78.4222671662749
 30
0.0
 11
129.3601104100951
 21
78.4222671662749
 31
0.0
  0
LINE
  5
35D
330
1F
100
AcDbEntity
  8
1
  6
Continuous
 62
     7
100
AcDbLine
 10
129.3601104100951
 20
78.4222671662749
 30
0.0
 11
129.3601104100951
 21
77.5472671662749
 31
0.0
  0
LINE
  5
35E
330
1F
100
AcDbEntity
  8
1
  6
Continuous
 62
     7
100
AcDbLine
 10
129.3601104100951
 20
77.5472671662749
 30
0.0
 11
126.4201104100951
 21
77.5472671662749
 31
0.0
  0
LINE
  5
35F
330
1F
100
AcDbEntity
  8
1
  6
Continuous
 62
     7
100
AcDbLine
 10
126.4201104100951
 20
77.5472671662749
 30
0.0
 11
126.4201104100951
 21
75.2722671662749
 31
0.0
  0
LINE
  5
360
330
1F
100
AcDbEntity
  8
1
  6
Continuous
 62
     7
100
AcDbLine
 10
126.4201104100951
 20
75.2722671662749
 30
0.0
 11
129.7101104100951
 21
75.2722671662749
 31
0.0
  0
LINE
  5
361
330
1F
100
AcDbEntity
  8
1
  6
Continuous
 62
     7
100
AcDbLine
 10
129.7101104100951
 20
75.2722671662749
 30
0.0
 11
129.7101104100951
 21
74.3972671662749
 31
0.0
  0
LINE
  5
362
330
1F
100
AcDbEntity
  8
1
  6
Continuous
 62
     2
100
AcDbLine
 10
73.98501476876491
 20
65.25792850880491
 30
0.0
 11
74.92251476876491
 21
65.63292850880491
 31
0.0
  0
LINE
  5
363
330
1F
100
AcDbEntity
  8
1
  6
Continuous
 62
     2
100
AcDbLine
 10
74.73501476876491
 20
65.70792850880491
 30
0.0
 11
74.84751476876491
 21
66.19542850880491
 31
0.0
  0
LINE
  5
364
330
1F
100
AcDbEntity
  8
1
  6
Continuous
 62
     2
100
AcDbLine
 10
74.92251476876491
 20
66.45792850880491
 30
0.0
 11
74.09751476876491
 21
66.45792850880491
 31
0.0
  0
LINE
  5
365
330
1F
100
AcDbEntity
  8
1
  6
Continuous
 62
     2
100
AcDbLine
 10
74.17251476876491
 20
66.94542850880491
 30
0.0
 11
74.92251476876491
 21
66.94542850880491
 31
0.0
  0
LINE
  5
366
330
1F
100
AcDbEntity
  8
1
  6
Continuous
 62
     2
100
AcDbLine
 10
74.9975147687649
 20
67.39542850880491
 30
0.0
 11
74.5100147687649
 21
67.95792850880491
 31
0.0
  0
LINE
  5
367
330
1F
100
AcDbEntity
  8
1
  6
Continuous
 62
     2
100
AcDbLine
 10
74.5100147687649
 20
67.95792850880491
 30
0.0
 11
74.17251476876491
 21
67.32042850880491
 31
0.0
  0
LINE
  5
368
330
1F
100
AcDbEntity
  8
1
  6
Continuous
 62
     2
100
AcDbLine
 10
74.17251476876491
 20
67.32042850880491
 30
0.0
 11
73.8350147687649
 21
66.64542850880491
 31
0.0
  0
LINE
  5
369
330
1F
100
AcDbEntity
  8
1
  6
Continuous
 62
     2
100
AcDbLine
 10
74.09751476876491
 20
66.19542850880491
 30
0.0
 11
74.2475147687649
 21
65.70792850880491
 31
0.0
  0
LINE
  5
36A
330
1F
100
AcDbEntity
  8
1
  6
Continuous
 62
     2
100
AcDbLine
 10
74.5100147687649
 20
65.44542850880491
 30
0.0
 11
74.5100147687649
 21
66.94542850880491
 31
0.0
  0
LINE
  5
36B
330
1F
100
AcDbEntity
  8
1
  6
Continuous
 62
     2
100
AcDbLine
 10
74.9975147687649
 20
66.83292850880491
 30
0.0
 11
76.4975147687649
 21
66.83292850880491
 31
0.0
  0
LINE
  5
36C
330
1F
100
AcDbEntity
  8
1
  6
Continuous
 62
     2
100
AcDbLine
 10
76.4975147687649
 20
66.27042850880491
 30
0.0
 11
75.0725147687649
 21
66.27042850880491
 31
0.0
  0
LINE
  5
36D
330
1F
100
AcDbEntity
  8
1
  6
Continuous
 62
     2
100
AcDbLine
 10
74.9975147687649
 20
65.33292850880491
 30
0.0
 11
75.3350147687649
 21
65.89542850880491
 31
0.0
  0
LINE
  5
36E
330
1F
100
AcDbEntity
  8
1
  6
Continuous
 62
     2
100
AcDbLine
 10
75.3350147687649
 20
65.89542850880491
 30
0.0
 11
75.59751476876491
 21
66.83292850880491
 31
0.0
  0
LINE
  5
36F
330
1F
100
AcDbEntity
  8
1
  6
Continuous
 62
     2
100
AcDbLine
 10
75.59751476876491
 20
66.83292850880491
 30
0.0
 11
75.67251476876491
 21
67.95792850880491
 31
0.0
  0
LINE
  5
370
330
1F
100
AcDbEntity
  8
1
  6
Continuous
 62
     2
100
AcDbLine
 10
75.0725147687649
 20
67.69542850880491
 30
0.0
 11
76.34751476876491
 21
67.69542850880491
 31
0.0
  0
LINE
  5
371
330
1F
100
AcDbEntity
  8
1
  6
Continuous
 62
     2
100
AcDbLine
 10
76.34751476876491
 20
67.20792850880491
 30
0.0
 11
75.1850147687649
 21
67.20792850880491
 31
0.0
  0
LINE
  5
372
330
1F
100
AcDbEntity
  8
1
  6
Continuous
 62
     2
100
AcDbLine
 10
76.16001476876491
 20
66.64542850880491
 30
0.0
 11
76.16001476876491
 21
65.14542850880491
 31
0.0
  0
LINE
  5
373
330
1F
100
AcDbEntity
  8
1
  6
Continuous
 62
     2
100
AcDbLine
 10
76.16001476876491
 20
65.14542850880491
 30
0.0
 11
75.8225147687649
 21
65.14542850880491
 31
0.0
  0
LINE
  5
374
330
1F
100
AcDbEntity
  8
1
  6
Continuous
 62
     2
100
AcDbLine
 10
75.8225147687649
 20
65.52042850880491
 30
0.0
 11
75.67251476876491
 21
66.00792850880491
 31
0.0
  0
LINE
  5
375
330
1F
100
AcDbEntity
  8
1
  6
Continuous
 62
     2
100
AcDbLine
 10
76.98501476876491
 20
65.44542850880491
 30
0.0
 11
77.4350147687649
 21
65.82042850880491
 31
0.0
  0
LINE
  5
376
330
1F
100
AcDbEntity
  8
1
  6
Continuous
 62
     2
100
AcDbLine
 10
77.4350147687649
 20
65.82042850880491
 30
0.0
 11
77.4350147687649
 21
66.83292850880491
 31
0.0
  0
LINE
  5
377
330
1F
100
AcDbEntity
  8
1
  6
Continuous
 62
     2
100
AcDbLine
 10
77.4350147687649
 20
66.83292850880491
 30
0.0
 11
76.91001476876491
 21
66.83292850880491
 31
0.0
  0
LINE
  5
378
330
1F
100
AcDbEntity
  8
1
  6
Continuous
 62
     2
100
AcDbLine
 10
77.4350147687649
 20
65.82042850880491
 30
0.0
 11
77.5850147687649
 21
65.44542850880491
 31
0.0
  0
LINE
  5
379
330
1F
100
AcDbEntity
  8
1
  6
Continuous
 62
     2
100
AcDbLine
 10
77.5850147687649
 20
65.44542850880491
 30
0.0
 11
77.73501476876491
 21
65.33292850880491
 31
0.0
  0
LINE
  5
37A
330
1F
100
AcDbEntity
  8
1
  6
Continuous
 62
     2
100
AcDbLine
 10
77.73501476876491
 20
65.33292850880491
 30
0.0
 11
79.42251476876491
 21
65.33292850880491
 31
0.0
  0
LINE
  5
37B
330
1F
100
AcDbEntity
  8
1
  6
Continuous
 62
     2
100
AcDbLine
 10
79.0100147687649
 20
65.82042850880491
 30
0.0
 11
79.0100147687649
 21
66.57042850880491
 31
0.0
  0
LINE
  5
37C
330
1F
100
AcDbEntity
  8
1
  6
Continuous
 62
     2
100
AcDbLine
 10
79.0100147687649
 20
66.57042850880491
 30
0.0
 11
78.0725147687649
 21
66.57042850880491
 31
0.0
  0
LINE
  5
37D
330
1F
100
AcDbEntity
  8
1
  6
Continuous
 62
     2
100
AcDbLine
 10
78.0725147687649
 20
66.57042850880491
 30
0.0
 11
78.0725147687649
 21
65.82042850880491
 31
0.0
  0
LINE
  5
37E
330
1F
100
AcDbEntity
  8
1
  6
Continuous
 62
     2
100
AcDbLine
 10
78.0725147687649
 20
65.82042850880491
 30
0.0
 11
79.0100147687649
 21
65.82042850880491
 31
0.0
  0
LINE
  5
37F
330
1F
100
AcDbEntity
  8
1
  6
Continuous
 62
     2
100
AcDbLine
 10
79.34751476876491
 20
66.94542850880491
 30
0.0
 11
77.73501476876491
 21
66.94542850880491
 31
0.0
  0
LINE
  5
380
330
1F
100
AcDbEntity
  8
1
  6
Continuous
 62
     2
100
AcDbLine
 10
78.48501476876491
 20
66.94542850880491
 30
0.0
 11
78.48501476876491
 21
68.14542850880491
 31
0.0
  0
LINE
  5
381
330
1F
100
AcDbEntity
  8
1
  6
Continuous
 62
     2
100
AcDbLine
 10
79.16001476876491
 20
67.58292850880491
 30
0.0
 11
77.92251476876491
 21
67.58292850880491
 31
0.0
  0
LINE
  5
382
330
1F
100
AcDbEntity
  8
1
  6
Continuous
 62
     2
100
AcDbLine
 10
78.0725147687649
 20
68.07042850880491
 30
0.0
 11
77.92251476876491
 21
67.58292850880491
 31
0.0
  0
LINE
  5
383
330
1F
100
AcDbEntity
  8
1
  6
Continuous
 62
     2
100
AcDbLine
 10
77.92251476876491
 20
67.58292850880491
 30
0.0
 11
77.73501476876491
 21
67.32042850880491
 31
0.0
  0
LINE
  5
384
330
1F
100
AcDbEntity
  8
1
  6
Continuous
 62
     2
100
AcDbLine
 10
77.4350147687649
 20
67.69542850880491
 30
0.0
 11
77.17251476876491
 21
68.07042850880491
 31
0.0
  0
LINE
  5
385
330
1F
100
AcDbEntity
  8
1
  6
Continuous
 62
     2
100
AcDbLine
 10
76.98501476876491
 20
65.44542850880491
 30
0.0
 11
76.91001476876491
 21
65.33292850880491
 31
0.0
  0
LINE
  5
386
330
1F
100
AcDbEntity
  8
1
  6
Continuous
 62
     2
100
AcDbLine
 10
80.66001476876491
 20
68.14542850880491
 30
0.0
 11
80.5100147687649
 21
67.88292850880491
 31
0.0
  0
LINE
  5
387
330
1F
100
AcDbEntity
  8
1
  6
Continuous
 62
     2
100
AcDbLine
 10
80.5100147687649
 20
67.88292850880491
 30
0.0
 11
80.2475147687649
 21
67.50792850880491
 31
0.0
  0
LINE
  5
388
330
1F
100
AcDbEntity
  8
1
  6
Continuous
 62
     2
100
AcDbLine
 10
80.2475147687649
 20
67.50792850880491
 30
0.0
 11
79.98501476876491
 21
67.20792850880491
 31
0.0
  0
LINE
  5
389
330
1F
100
AcDbEntity
  8
1
  6
Continuous
 62
     2
100
AcDbLine
 10
80.4350147687649
 20
67.69542850880491
 30
0.0
 11
82.0850147687649
 21
67.69542850880491
 31
0.0
  0
LINE
  5
38A
330
1F
100
AcDbEntity
  8
1
  6
Continuous
 62
     2
100
AcDbLine
 10
81.1850147687649
 20
67.69542850880491
 30
0.0
 11
81.1850147687649
 21
65.14542850880491
 31
0.0
  0
LINE
  5
38B
330
1F
100
AcDbEntity
  8
1
  6
Continuous
 62
     2
100
AcDbLine
 10
80.3225147687649
 20
66.94542850880491
 30
0.0
 11
82.0100147687649
 21
66.94542850880491
 31
0.0
  0
LINE
  5
38C
330
1F
100
AcDbEntity
  8
1
  6
Continuous
 62
     2
100
AcDbLine
 10
80.3225147687649
 20
66.83292850880491
 30
0.0
 11
80.3225147687649
 21
66.19542850880491
 31
0.0
  0
LINE
  5
38D
330
1F
100
AcDbEntity
  8
1
  6
Continuous
 62
     2
100
AcDbLine
 10
79.8350147687649
 20
66.19542850880491
 30
0.0
 11
82.4975147687649
 21
66.19542850880491
 31
0.0
  0
LINE
  5
38E
330
1F
100
AcDbEntity
  8
1
  6
Continuous
 62
     2
100
AcDbLine
 10
135.6430853619349
 20
64.01343472404221
 30
0.0
 11
135.6430853619349
 21
67.01343472404221
 31
0.0
  0
LINE
  5
38F
330
1F
100
AcDbEntity
  8
1
  6
Continuous
 62
     2
100
AcDbLine
 10
136.0555853619349
 20
66.18843472404221
 30
0.0
 11
135.1180853619349
 21
66.18843472404221
 31
0.0
  0
LINE
  5
390
330
1F
100
AcDbEntity
  8
1
  6
Continuous
 62
     2
100
AcDbLine
 10
135.0430853619349
 20
64.95093472404221
 30
0.0
 11
135.3805853619349
 21
65.51343472404221
 31
0.0
  0
LINE
  5
391
330
1F
100
AcDbEntity
  8
1
  6
Continuous
 62
     2
100
AcDbLine
 10
135.3805853619349
 20
65.51343472404221
 30
0.0
 11
135.6430853619349
 21
66.07593472404221
 31
0.0
  0
LINE
  5
392
330
1F
100
AcDbEntity
  8
1
  6
Continuous
 62
     2
100
AcDbLine
 10
135.6430853619349
 20
66.07593472404221
 30
0.0
 11
136.0555853619349
 21
65.43843472404221
 31
0.0
  0
LINE
  5
393
330
1F
100
AcDbEntity
  8
1
  6
Continuous
 62
     2
100
AcDbLine
 10
136.1305853619349
 20
64.57593472404221
 30
0.0
 11
136.6180853619349
 21
65.13843472404221
 31
0.0
  0
LINE
  5
394
330
1F
100
AcDbEntity
  8
1
  6
Continuous
 62
     2
100
AcDbLine
 10
136.6180853619349
 20
65.13843472404221
 30
0.0
 11
137.0680853619349
 21
66.00093472404221
 31
0.0
  0
LINE
  5
395
330
1F
100
AcDbEntity
  8
1
  6
Continuous
 62
     2
100
AcDbLine
 10
137.5555853619349
 20
66.07593472404221
 30
0.0
 11
136.3180853619349
 21
66.07593472404221
 31
0.0
  0
LINE
  5
396
330
1F
100
AcDbEntity
  8
1
  6
Continuous
 62
     2
100
AcDbLine
 10
137.0680853619349
 20
66.93843472404221
 30
0.0
 11
137.1430853619349
 21
64.20093472404221
 31
0.0
  0
LINE
  5
397
330
1F
100
AcDbEntity
  8
1
  6
Continuous
 62
     2
100
AcDbLine
 10
137.1430853619349
 20
64.20093472404221
 30
0.0
 11
136.8805853619349
 21
64.20093472404221
 31
0.0
  0
LINE
  5
398
330
1F
100
AcDbEntity
  8
1
  6
Continuous
 62
     2
100
AcDbLine
 10
138.0430853619349
 20
64.57593472404221
 30
0.0
 11
138.3055853619349
 21
65.06343472404221
 31
0.0
  0
LINE
  5
399
330
1F
100
AcDbEntity
  8
1
  6
Continuous
 62
     2
100
AcDbLine
 10
138.3055853619349
 20
65.06343472404221
 30
0.0
 11
138.6430853619349
 21
65.88843472404221
 31
0.0
  0
LINE
  5
39A
330
1F
100
AcDbEntity
  8
1
  6
Continuous
 62
     2
100
AcDbLine
 10
139.2055853619349
 20
65.88843472404221
 30
0.0
 11
138.0430853619349
 21
65.88843472404221
 31
0.0
  0
LINE
  5
39B
330
1F
100
AcDbEntity
  8
1
  6
Continuous
 62
     2
100
AcDbLine
 10
138.1180853619349
 20
66.63843472404221
 30
0.0
 11
138.3805853619349
 21
66.26343472404221
 31
0.0
  0
LINE
  5
39C
330
1F
100
AcDbEntity
  8
1
  6
Continuous
 62
     2
100
AcDbLine
 10
138.8680853619349
 20
66.37593472404221
 30
0.0
 11
139.0555853619349
 21
66.75093472404221
 31
0.0
  0
LINE
  5
39D
330
1F
100
AcDbEntity
  8
1
  6
Continuous
 62
     2
100
AcDbLine
 10
138.6430853619349
 20
66.93843472404221
 30
0.0
 11
138.6430853619349
 21
64.12593472404221
 31
0.0
  0
LINE
  5
39E
330
1F
100
AcDbEntity
  8
1
  6
Continuous
 62
     2
100
AcDbLine
 10
138.8680853619349
 20
65.51343472404221
 30
0.0
 11
139.0555853619349
 21
65.13843472404221
 31
0.0
  0
LINE
  5
39F
330
1F
100
AcDbEntity
  8
1
  6
Continuous
 62
     2
100
AcDbLine
 10
139.2055853619349
 20
65.06343472404221
 30
0.0
 11
140.6305853619349
 21
65.32593472404221
 31
0.0
  0
LINE
  5
3A0
330
1F
100
AcDbEntity
  8
1
  6
Continuous
 62
     2
100
AcDbLine
 10
139.7305853619349
 20
65.70093472404221
 30
0.0
 11
139.4680853619349
 21
66.07593472404221
 31
0.0
  0
LINE
  5
3A1
330
1F
100
AcDbEntity
  8
1
  6
Continuous
 62
     2
100
AcDbLine
 10
139.7305853619349
 20
66.45093472404221
 30
0.0
 11
139.4680853619349
 21
66.82593472404221
 31
0.0
  0
LINE
  5
3A2
330
1F
100
AcDbEntity
  8
1
  6
Continuous
 62
     2
100
AcDbLine
 10
140.1430853619349
 20
67.01343472404221
 30
0.0
 11
140.1430853619349
 21
64.01343472404221
 31
0.0
  0
LINE
  5
3A3
330
1F
100
AcDbEntity
  8
1
  6
Continuous
 62
     2
100
AcDbLine
 10
141.1180853619349
 20
64.20093472404221
 30
0.0
 11
141.1180853619349
 21
64.95093472404221
 31
0.0
  0
LINE
  5
3A4
330
1F
100
AcDbEntity
  8
1
  6
Continuous
 62
     2
100
AcDbLine
 10
141.1180853619349
 20
64.95093472404221
 30
0.0
 11
141.7930853619349
 21
64.95093472404221
 31
0.0
  0
LINE
  5
3A5
330
1F
100
AcDbEntity
  8
1
  6
Continuous
 62
     2
100
AcDbLine
 10
141.7930853619349
 20
64.95093472404221
 30
0.0
 11
141.7930853619349
 21
64.20093472404221
 31
0.0
  0
LINE
  5
3A6
330
1F
100
AcDbEntity
  8
1
  6
Continuous
 62
     2
100
AcDbLine
 10
141.7930853619349
 20
64.20093472404221
 30
0.0
 11
141.1180853619349
 21
64.20093472404221
 31
0.0
  0
LINE
  5
3A7
330
1F
100
AcDbEntity
  8
1
  6
Continuous
 62
     2
100
AcDbLine
 10
141.1180853619349
 20
65.32593472404221
 30
0.0
 11
141.7930853619349
 21
65.32593472404221
 31
0.0
  0
LINE
  5
3A8
330
1F
100
AcDbEntity
  8
1
  6
Continuous
 62
     2
100
AcDbLine
 10
141.7930853619349
 20
65.81343472404221
 30
0.0
 11
141.1180853619349
 21
65.81343472404221
 31
0.0
  0
LINE
  5
3A9
330
1F
100
AcDbEntity
  8
1
  6
Continuous
 62
     2
100
AcDbLine
 10
140.9680853619349
 20
66.18843472404221
 30
0.0
 11
142.0555853619349
 21
66.18843472404221
 31
0.0
  0
LINE
  5
3AA
330
1F
100
AcDbEntity
  8
1
  6
Continuous
 62
     2
100
AcDbLine
 10
141.0430853619349
 20
66.63843472404221
 30
0.0
 11
141.7930853619349
 21
66.63843472404221
 31
0.0
  0
LINE
  5
3AB
330
1F
100
AcDbEntity
  8
1
  6
Continuous
 62
     2
100
AcDbLine
 10
142.3180853619349
 20
66.56343472404221
 30
0.0
 11
143.2180853619349
 21
66.56343472404221
 31
0.0
  0
LINE
  5
3AC
330
1F
100
AcDbEntity
  8
1
  6
Continuous
 62
     2
100
AcDbLine
 10
143.2180853619349
 20
66.56343472404221
 30
0.0
 11
143.2180853619349
 21
65.62593472404221
 31
0.0
  0
LINE
  5
3AD
330
1F
100
AcDbEntity
  8
1
  6
Continuous
 62
     2
100
AcDbLine
 10
143.2180853619349
 20
65.62593472404221
 30
0.0
 11
142.3180853619349
 21
65.62593472404221
 31
0.0
  0
LINE
  5
3AE
330
1F
100
AcDbEntity
  8
1
  6
Continuous
 62
     2
100
AcDbLine
 10
142.3180853619349
 20
65.62593472404221
 30
0.0
 11
142.3180853619349
 21
64.20093472404221
 31
0.0
  0
LINE
  5
3AF
330
1F
100
AcDbEntity
  8
1
  6
Continuous
 62
     2
100
AcDbLine
 10
142.3180853619349
 20
64.20093472404221
 30
0.0
 11
143.4805853619349
 21
64.20093472404221
 31
0.0
  0
LINE
  5
3B0
330
1F
100
AcDbEntity
  8
1
  6
Continuous
 62
     2
100
AcDbLine
 10
143.4805853619349
 20
64.20093472404221
 30
0.0
 11
143.4805853619349
 21
64.50093472404221
 31
0.0
  0
LINE
  5
3B1
330
1F
100
AcDbEntity
  8
1
  6
Continuous
 62
     2
100
AcDbLine
 10
144.6430853619349
 20
66.82593472404221
 30
0.0
 11
144.6430853619349
 21
66.18843472404221
 31
0.0
  0
LINE
  5
3B2
330
1F
100
AcDbEntity
  8
1
  6
Continuous
 62
     2
100
AcDbLine
 10
144.6430853619349
 20
66.18843472404221
 30
0.0
 11
145.9555853619349
 21
66.18843472404221
 31
0.0
  0
LINE
  5
3B3
330
1F
100
AcDbEntity
  8
1
  6
Continuous
 62
     2
100
AcDbLine
 10
145.9555853619349
 20
66.18843472404221
 30
0.0
 11
145.9555853619349
 21
66.82593472404221
 31
0.0
  0
LINE
  5
3B4
330
1F
100
AcDbEntity
  8
1
  6
Continuous
 62
     2
100
AcDbLine
 10
145.9555853619349
 20
66.82593472404221
 30
0.0
 11
144.6430853619349
 21
66.82593472404221
 31
0.0
  0
LINE
  5
3B5
330
1F
100
AcDbEntity
  8
1
  6
Continuous
 62
     2
100
AcDbLine
 10
144.0430853619349
 20
65.70093472404221
 30
0.0
 11
146.4805853619349
 21
65.70093472404221
 31
0.0
  0
LINE
  5
3B6
330
1F
100
AcDbEntity
  8
1
  6
Continuous
 62
     2
100
AcDbLine
 10
144.9805853619349
 20
65.70093472404221
 30
0.0
 11
144.7180853619349
 21
64.76343472404221
 31
0.0
  0
LINE
  5
3B7
330
1F
100
AcDbEntity
  8
1
  6
Continuous
 62
     2
100
AcDbLine
 10
144.7930853619349
 20
65.13843472404221
 30
0.0
 11
145.9555853619349
 21
65.13843472404221
 31
0.0
  0
LINE
  5
3B8
330
1F
100
AcDbEntity
  8
1
  6
Continuous
 62
     2
100
AcDbLine
 10
145.9555853619349
 20
65.13843472404221
 30
0.0
 11
145.8055853619349
 21
64.57593472404221
 31
0.0
  0
LINE
  5
3B9
330
1F
100
AcDbEntity
  8
1
  6
Continuous
 62
     2
100
AcDbLine
 10
145.8055853619349
 20
64.57593472404221
 30
0.0
 11
145.5430853619349
 21
64.12593472404221
 31
0.0
  0
LINE
  5
3BA
330
1F
100
AcDbEntity
  8
1
  6
Continuous
 62
     2
100
AcDbLine
 10
145.5430853619349
 20
64.12593472404221
 30
0.0
 11
145.3930853619349
 21
64.01343472404221
 31
0.0
  0
LINE
  5
3BB
330
1F
100
AcDbEntity
  8
1
  6
Continuous
 62
     2
100
AcDbLine
 10
145.3930853619349
 20
64.01343472404221
 30
0.0
 11
145.0555853619349
 21
64.20093472404221
 31
0.0
  0
LINE
  5
3BC
330
1F
100
AcDbEntity
  8
1
  6
Continuous
 62
     2
100
AcDbLine
 10
151.7680853619349
 20
65.66343472404222
 30
0.0
 11
149.9680853619349
 21
65.66343472404222
 31
0.0
  0
LINE
  5
3BD
330
1F
100
AcDbEntity
  8
1
  6
Continuous
 62
     2
100
AcDbLine
 10
152.0680853619349
 20
67.01343472404221
 30
0.0
 11
149.9680853619349
 21
67.01343472404221
 31
0.0
  0
LINE
  5
3BE
330
1F
100
AcDbEntity
  8
1
  6
Continuous
 62
     2
100
AcDbLine
 10
149.9680853619349
 20
67.01343472404221
 30
0.0
 11
149.9680853619349
 21
64.01343472404221
 31
0.0
  0
LINE
  5
3BF
330
1F
100
AcDbEntity
  8
1
  6
Continuous
 62
     2
100
AcDbLine
 10
149.9680853619349
 20
64.01343472404221
 30
0.0
 11
152.0680853619349
 21
64.01343472404221
 31
0.0
  0
LINE
  5
3C0
330
1F
100
AcDbEntity
  8
1
  6
Continuous
 62
     7
100
AcDbLine
 10
134.1944880382789
 20
235.9434176635921
 30
0.0
 11
134.6944880382789
 21
235.7109176635921
 31
0.0
  0
LINE
  5
3C1
330
1F
100
AcDbEntity
  8
1
  6
Continuous
 62
     7
100
AcDbLine
 10
134.6944880382789
 20
235.7109176635921
 30
0.0
 11
134.2944880382789
 21
235.4009176635921
 31
0.0
  0
LINE
  5
3C2
330
1F
100
AcDbEntity
  8
1
  6
Continuous
 62
     7
100
AcDbLine
 10
134.2944880382789
 20
235.4009176635921
 30
0.0
 11
133.8944880382789
 21
234.9359176635921
 31
0.0
  0
LINE
  5
3C3
330
1F
100
AcDbEntity
  8
1
  6
Continuous
 62
     7
100
AcDbLine
 10
133.8944880382789
 20
234.9359176635921
 30
0.0
 11
133.6944880382789
 21
234.3934176635921
 31
0.0
  0
LINE
  5
3C4
330
1F
100
AcDbEntity
  8
1
  6
Continuous
 62
     7
100
AcDbLine
 10
133.6944880382789
 20
234.3934176635921
 30
0.0
 11
133.6944880382789
 21
234.0834176635921
 31
0.0
  0
LINE
  5
3C5
330
1F
100
AcDbEntity
  8
1
  6
Continuous
 62
     7
100
AcDbLine
 10
133.6944880382789
 20
234.0834176635921
 30
0.0
 11
133.8944880382789
 21
233.6184176635921
 31
0.0
  0
LINE
  5
3C6
330
1F
100
AcDbEntity
  8
1
  6
Continuous
 62
     7
100
AcDbLine
 10
133.8944880382789
 20
233.6184176635921
 30
0.0
 11
134.2944880382789
 21
233.3859176635921
 31
0.0
  0
LINE
  5
3C7
330
1F
100
AcDbEntity
  8
1
  6
Continuous
 62
     7
100
AcDbLine
 10
134.2944880382789
 20
233.3859176635921
 30
0.0
 11
133.7944880382789
 21
233.3859176635921
 31
0.0
  0
LINE
  5
3C8
330
1F
100
AcDbEntity
  8
1
  6
Continuous
 62
     7
100
AcDbLine
 10
133.7944880382789
 20
233.3859176635921
 30
0.0
 11
133.7944880382789
 21
232.5334176635921
 31
0.0
  0
LINE
  5
3C9
330
1F
100
AcDbEntity
  8
1
  6
Continuous
 62
     7
100
AcDbLine
 10
133.7944880382789
 20
232.5334176635921
 30
0.0
 11
139.6944880382789
 21
232.5334176635921
 31
0.0
  0
LINE
  5
3CA
330
1F
100
AcDbEntity
  8
1
  6
Continuous
 62
     7
100
AcDbLine
 10
139.6944880382789
 20
232.5334176635921
 30
0.0
 11
139.6944880382789
 21
233.3859176635921
 31
0.0
  0
LINE
  5
3CB
330
1F
100
AcDbEntity
  8
1
  6
Continuous
 62
     7
100
AcDbLine
 10
139.6944880382789
 20
233.3859176635921
 30
0.0
 11
135.5944880382789
 21
233.3859176635921
 31
0.0
  0
LINE
  5
3CC
330
1F
100
AcDbEntity
  8
1
  6
Continuous
 62
     7
100
AcDbLine
 10
135.5944880382789
 20
233.3859176635921
 30
0.0
 11
135.0944880382789
 21
233.5409176635921
 31
0.0
  0
LINE
  5
3CD
330
1F
100
AcDbEntity
  8
1
  6
Continuous
 62
     7
100
AcDbLine
 10
135.0944880382789
 20
233.5409176635921
 30
0.0
 11
134.7944880382789
 21
233.8509176635921
 31
0.0
  0
LINE
  5
3CE
330
1F
100
AcDbEntity
  8
1
  6
Continuous
 62
     7
100
AcDbLine
 10
134.7944880382789
 20
233.8509176635921
 30
0.0
 11
134.6944880382789
 21
234.1609176635921
 31
0.0
  0
LINE
  5
3CF
330
1F
100
AcDbEntity
  8
1
  6
Continuous
 62
     7
100
AcDbLine
 10
134.6944880382789
 20
234.1609176635921
 30
0.0
 11
134.7944880382789
 21
234.5484176635921
 31
0.0
  0
LINE
  5
3D0
330
1F
100
AcDbEntity
  8
1
  6
Continuous
 62
     7
100
AcDbLine
 10
134.7944880382789
 20
234.5484176635921
 30
0.0
 11
135.0944880382789
 21
234.7809176635921
 31
0.0
  0
LINE
  5
3D1
330
1F
100
AcDbEntity
  8
1
  6
Continuous
 62
     7
100
AcDbLine
 10
135.0944880382789
 20
234.7809176635921
 30
0.0
 11
135.5944880382789
 21
235.0134176635921
 31
0.0
  0
LINE
  5
3D2
330
1F
100
AcDbEntity
  8
1
  6
Continuous
 62
     7
100
AcDbLine
 10
135.5944880382789
 20
235.0134176635921
 30
0.0
 11
135.9944880382789
 21
235.0909176635921
 31
0.0
  0
LINE
  5
3D3
330
1F
100
AcDbEntity
  8
1
  6
Continuous
 62
     7
100
AcDbLine
 10
135.9944880382789
 20
235.0909176635921
 30
0.0
 11
139.6944880382789
 21
235.0909176635921
 31
0.0
  0
LINE
  5
3D4
330
1F
100
AcDbEntity
  8
1
  6
Continuous
 62
     7
100
AcDbLine
 10
139.6944880382789
 20
235.0909176635921
 30
0.0
 11
139.6944880382789
 21
235.9434176635921
 31
0.0
  0
LINE
  5
3D5
330
1F
100
AcDbEntity
  8
1
  6
Continuous
 62
     7
100
AcDbLine
 10
139.6944880382789
 20
235.9434176635921
 30
0.0
 11
135.5944880382789
 21
235.9434176635921
 31
0.0
  0
LINE
  5
3D6
330
1F
100
AcDbEntity
  8
1
  6
Continuous
 62
     7
100
AcDbLine
 10
135.5944880382789
 20
235.9434176635921
 30
0.0
 11
135.0944880382789
 21
236.0984176635921
 31
0.0
  0
LINE
  5
3D7
330
1F
100
AcDbEntity
  8
1
  6
Continuous
 62
     7
100
AcDbLine
 10
135.0944880382789
 20
236.0984176635921
 30
0.0
 11
134.7944880382789
 21
236.4084176635921
 31
0.0
  0
LINE
  5
3D8
330
1F
100
AcDbEntity
  8
1
  6
Continuous
 62
     7
100
AcDbLine
 10
134.7944880382789
 20
236.4084176635921
 30
0.0
 11
134.6944880382789
 21
236.7184176635921
 31
0.0
  0
LINE
  5
3D9
330
1F
100
AcDbEntity
  8
1
  6
Continuous
 62
     7
100
AcDbLine
 10
134.6944880382789
 20
236.7184176635921
 30
0.0
 11
134.7944880382789
 21
237.1059176635921
 31
0.0
  0
LINE
  5
3DA
330
1F
100
AcDbEntity
  8
1
  6
Continuous
 62
     7
100
AcDbLine
 10
134.7944880382789
 20
237.1059176635921
 30
0.0
 11
135.0944880382789
 21
237.3384176635921
 31
0.0
  0
LINE
  5
3DB
330
1F
100
AcDbEntity
  8
1
  6
Continuous
 62
     7
100
AcDbLine
 10
135.0944880382789
 20
237.3384176635921
 30
0.0
 11
135.5944880382789
 21
237.5709176635921
 31
0.0
  0
LINE
  5
3DC
330
1F
100
AcDbEntity
  8
1
  6
Continuous
 62
     7
100
AcDbLine
 10
135.5944880382789
 20
237.5709176635921
 30
0.0
 11
135.9944880382789
 21
237.6484176635921
 31
0.0
  0
LINE
  5
3DD
330
1F
100
AcDbEntity
  8
1
  6
Continuous
 62
     7
100
AcDbLine
 10
135.9944880382789
 20
237.6484176635921
 30
0.0
 11
139.6944880382789
 21
237.6484176635921
 31
0.0
  0
LINE
  5
3DE
330
1F
100
AcDbEntity
  8
1
  6
Continuous
 62
     7
100
AcDbLine
 10
139.6944880382789
 20
237.6484176635921
 30
0.0
 11
139.6944880382789
 21
238.5009176635921
 31
0.0
  0
LINE
  5
3DF
330
1F
100
AcDbEntity
  8
1
  6
Continuous
 62
     7
100
AcDbLine
 10
139.6944880382789
 20
238.5009176635921
 30
0.0
 11
136.0944880382789
 21
238.5009176635921
 31
0.0
  0
LINE
  5
3E0
330
1F
100
AcDbEntity
  8
1
  6
Continuous
 62
     7
100
AcDbLine
 10
136.0944880382789
 20
238.5009176635921
 30
0.0
 11
135.2944880382789
 21
238.4234176635921
 31
0.0
  0
LINE
  5
3E1
330
1F
100
AcDbEntity
  8
1
  6
Continuous
 62
     7
100
AcDbLine
 10
135.2944880382789
 20
238.4234176635921
 30
0.0
 11
134.6944880382789
 21
238.1909176635921
 31
0.0
  0
LINE
  5
3E2
330
1F
100
AcDbEntity
  8
1
  6
Continuous
 62
     7
100
AcDbLine
 10
134.6944880382789
 20
238.1909176635921
 30
0.0
 11
134.2944880382789
 21
237.9584176635921
 31
0.0
  0
LINE
  5
3E3
330
1F
100
AcDbEntity
  8
1
  6
Continuous
 62
     7
100
AcDbLine
 10
134.2944880382789
 20
237.9584176635921
 30
0.0
 11
133.8944880382789
 21
237.4934176635921
 31
0.0
  0
LINE
  5
3E4
330
1F
100
AcDbEntity
  8
1
  6
Continuous
 62
     7
100
AcDbLine
 10
133.8944880382789
 20
237.4934176635921
 30
0.0
 11
133.6944880382789
 21
236.9509176635921
 31
0.0
  0
LINE
  5
3E5
330
1F
100
AcDbEntity
  8
1
  6
Continuous
 62
     7
100
AcDbLine
 10
133.6944880382789
 20
236.9509176635921
 30
0.0
 11
133.6944880382789
 21
236.6409176635921
 31
0.0
  0
LINE
  5
3E6
330
1F
100
AcDbEntity
  8
1
  6
Continuous
 62
     7
100
AcDbLine
 10
133.6944880382789
 20
236.6409176635921
 30
0.0
 11
133.8944880382789
 21
236.2534176635921
 31
0.0
  0
LINE
  5
3E7
330
1F
100
AcDbEntity
  8
1
  6
Continuous
 62
     7
100
AcDbLine
 10
133.8944880382789
 20
236.2534176635921
 30
0.0
 11
134.1944880382789
 21
235.9434176635921
 31
0.0
  0
LINE
  5
3E8
330
1F
100
AcDbEntity
  8
1
  6
Continuous
 62
     7
100
AcDbLine
 10
134.1495628266291
 20
227.9100106951229
 30
0.0
 11
134.6495628266291
 21
227.6775106951229
 31
0.0
  0
LINE
  5
3E9
330
1F
100
AcDbEntity
  8
1
  6
Continuous
 62
     7
100
AcDbLine
 10
134.6495628266291
 20
227.6775106951229
 30
0.0
 11
134.2495628266291
 21
227.3675106951229
 31
0.0
  0
LINE
  5
3EA
330
1F
100
AcDbEntity
  8
1
  6
Continuous
 62
     7
100
AcDbLine
 10
134.2495628266291
 20
227.3675106951229
 30
0.0
 11
133.8495628266291
 21
226.9025106951229
 31
0.0
  0
LINE
  5
3EB
330
1F
100
AcDbEntity
  8
1
  6
Continuous
 62
     7
100
AcDbLine
 10
133.8495628266291
 20
226.9025106951229
 30
0.0
 11
133.6495628266291
 21
226.3600106951229
 31
0.0
  0
LINE
  5
3EC
330
1F
100
AcDbEntity
  8
1
  6
Continuous
 62
     7
100
AcDbLine
 10
133.6495628266291
 20
226.3600106951229
 30
0.0
 11
133.6495628266291
 21
226.0500106951229
 31
0.0
  0
LINE
  5
3ED
330
1F
100
AcDbEntity
  8
1
  6
Continuous
 62
     7
100
AcDbLine
 10
133.6495628266291
 20
226.0500106951229
 30
0.0
 11
133.8495628266291
 21
225.5850106951229
 31
0.0
  0
LINE
  5
3EE
330
1F
100
AcDbEntity
  8
1
  6
Continuous
 62
     7
100
AcDbLine
 10
133.8495628266291
 20
225.5850106951229
 30
0.0
 11
134.2495628266291
 21
225.3525106951229
 31
0.0
  0
LINE
  5
3EF
330
1F
100
AcDbEntity
  8
1
  6
Continuous
 62
     7
100
AcDbLine
 10
134.2495628266291
 20
225.3525106951229
 30
0.0
 11
133.7495628266291
 21
225.3525106951229
 31
0.0
  0
LINE
  5
3F0
330
1F
100
AcDbEntity
  8
1
  6
Continuous
 62
     7
100
AcDbLine
 10
133.7495628266291
 20
225.3525106951229
 30
0.0
 11
133.7495628266291
 21
224.5000106951229
 31
0.0
  0
LINE
  5
3F1
330
1F
100
AcDbEntity
  8
1
  6
Continuous
 62
     7
100
AcDbLine
 10
133.7495628266291
 20
224.5000106951229
 30
0.0
 11
139.6495628266291
 21
224.5000106951229
 31
0.0
  0
LINE
  5
3F2
330
1F
100
AcDbEntity
  8
1
  6
Continuous
 62
     7
100
AcDbLine
 10
139.6495628266291
 20
224.5000106951229
 30
0.0
 11
139.6495628266291
 21
225.3525106951229
 31
0.0
  0
LINE
  5
3F3
330
1F
100
AcDbEntity
  8
1
  6
Continuous
 62
     7
100
AcDbLine
 10
139.6495628266291
 20
225.3525106951229
 30
0.0
 11
135.5495628266291
 21
225.3525106951229
 31
0.0
  0
LINE
  5
3F4
330
1F
100
AcDbEntity
  8
1
  6
Continuous
 62
     7
100
AcDbLine
 10
135.5495628266291
 20
225.3525106951229
 30
0.0
 11
135.0495628266291
 21
225.5075106951229
 31
0.0
  0
LINE
  5
3F5
330
1F
100
AcDbEntity
  8
1
  6
Continuous
 62
     7
100
AcDbLine
 10
135.0495628266291
 20
225.5075106951229
 30
0.0
 11
134.7495628266291
 21
225.8175106951229
 31
0.0
  0
LINE
  5
3F6
330
1F
100
AcDbEntity
  8
1
  6
Continuous
 62
     7
100
AcDbLine
 10
134.7495628266291
 20
225.8175106951229
 30
0.0
 11
134.6495628266291
 21
226.1275106951229
 31
0.0
  0
LINE
  5
3F7
330
1F
100
AcDbEntity
  8
1
  6
Continuous
 62
     7
100
AcDbLine
 10
134.6495628266291
 20
226.1275106951229
 30
0.0
 11
134.7495628266291
 21
226.5150106951229
 31
0.0
  0
LINE
  5
3F8
330
1F
100
AcDbEntity
  8
1
  6
Continuous
 62
     7
100
AcDbLine
 10
134.7495628266291
 20
226.5150106951229
 30
0.0
 11
135.0495628266291
 21
226.7475106951229
 31
0.0
  0
LINE
  5
3F9
330
1F
100
AcDbEntity
  8
1
  6
Continuous
 62
     7
100
AcDbLine
 10
135.0495628266291
 20
226.7475106951229
 30
0.0
 11
135.5495628266291
 21
226.9800106951229
 31
0.0
  0
LINE
  5
3FA
330
1F
100
AcDbEntity
  8
1
  6
Continuous
 62
     7
100
AcDbLine
 10
135.5495628266291
 20
226.9800106951229
 30
0.0
 11
135.9495628266291
 21
227.0575106951229
 31
0.0
  0
LINE
  5
3FB
330
1F
100
AcDbEntity
  8
1
  6
Continuous
 62
     7
100
AcDbLine
 10
135.9495628266291
 20
227.0575106951229
 30
0.0
 11
139.6495628266291
 21
227.0575106951229
 31
0.0
  0
LINE
  5
3FC
330
1F
100
AcDbEntity
  8
1
  6
Continuous
 62
     7
100
AcDbLine
 10
139.6495628266291
 20
227.0575106951229
 30
0.0
 11
139.6495628266291
 21
227.9100106951229
 31
0.0
  0
LINE
  5
3FD
330
1F
100
AcDbEntity
  8
1
  6
Continuous
 62
     7
100
AcDbLine
 10
139.6495628266291
 20
227.9100106951229
 30
0.0
 11
135.5495628266291
 21
227.9100106951229
 31
0.0
  0
LINE
  5
3FE
330
1F
100
AcDbEntity
  8
1
  6
Continuous
 62
     7
100
AcDbLine
 10
135.5495628266291
 20
227.9100106951229
 30
0.0
 11
135.0495628266291
 21
228.0650106951229
 31
0.0
  0
LINE
  5
3FF
330
1F
100
AcDbEntity
  8
1
  6
Continuous
 62
     7
100
AcDbLine
 10
135.0495628266291
 20
228.0650106951229
 30
0.0
 11
134.7495628266291
 21
228.3750106951229
 31
0.0
  0
LINE
  5
400
330
1F
100
AcDbEntity
  8
1
  6
Continuous
 62
     7
100
AcDbLine
 10
134.7495628266291
 20
228.3750106951229
 30
0.0
 11
134.6495628266291
 21
228.6850106951229
 31
0.0
  0
LINE
  5
401
330
1F
100
AcDbEntity
  8
1
  6
Continuous
 62
     7
100
AcDbLine
 10
134.6495628266291
 20
228.6850106951229
 30
0.0
 11
134.7495628266291
 21
229.0725106951229
 31
0.0
  0
LINE
  5
402
330
1F
100
AcDbEntity
  8
1
  6
Continuous
 62
     7
100
AcDbLine
 10
134.7495628266291
 20
229.0725106951229
 30
0.0
 11
135.0495628266291
 21
229.3050106951229
 31
0.0
  0
LINE
  5
403
330
1F
100
AcDbEntity
  8
1
  6
Continuous
 62
     7
100
AcDbLine
 10
135.0495628266291
 20
229.3050106951229
 30
0.0
 11
135.5495628266291
 21
229.5375106951229
 31
0.0
  0
LINE
  5
404
330
1F
100
AcDbEntity
  8
1
  6
Continuous
 62
     7
100
AcDbLine
 10
135.5495628266291
 20
229.5375106951229
 30
0.0
 11
135.9495628266291
 21
229.6150106951229
 31
0.0
  0
LINE
  5
405
330
1F
100
AcDbEntity
  8
1
  6
Continuous
 62
     7
100
AcDbLine
 10
135.9495628266291
 20
229.6150106951229
 30
0.0
 11
139.6495628266291
 21
229.6150106951229
 31
0.0
  0
LINE
  5
406
330
1F
100
AcDbEntity
  8
1
  6
Continuous
 62
     7
100
AcDbLine
 10
139.6495628266291
 20
229.6150106951229
 30
0.0
 11
139.6495628266291
 21
230.4675106951229
 31
0.0
  0
LINE
  5
407
330
1F
100
AcDbEntity
  8
1
  6
Continuous
 62
     7
100
AcDbLine
 10
139.6495628266291
 20
230.4675106951229
 30
0.0
 11
136.0495628266291
 21
230.4675106951229
 31
0.0
  0
LINE
  5
408
330
1F
100
AcDbEntity
  8
1
  6
Continuous
 62
     7
100
AcDbLine
 10
136.0495628266291
 20
230.4675106951229
 30
0.0
 11
135.2495628266291
 21
230.3900106951229
 31
0.0
  0
LINE
  5
409
330
1F
100
AcDbEntity
  8
1
  6
Continuous
 62
     7
100
AcDbLine
 10
135.2495628266291
 20
230.3900106951229
 30
0.0
 11
134.6495628266291
 21
230.1575106951229
 31
0.0
  0
LINE
  5
40A
330
1F
100
AcDbEntity
  8
1
  6
Continuous
 62
     7
100
AcDbLine
 10
134.6495628266291
 20
230.1575106951229
 30
0.0
 11
134.2495628266291
 21
229.9250106951229
 31
0.0
  0
LINE
  5
40B
330
1F
100
AcDbEntity
  8
1
  6
Continuous
 62
     7
100
AcDbLine
 10
134.2495628266291
 20
229.9250106951229
 30
0.0
 11
133.8495628266291
 21
229.4600106951229
 31
0.0
  0
LINE
  5
40C
330
1F
100
AcDbEntity
  8
1
  6
Continuous
 62
     7
100
AcDbLine
 10
133.8495628266291
 20
229.4600106951229
 30
0.0
 11
133.6495628266291
 21
228.9175106951229
 31
0.0
  0
LINE
  5
40D
330
1F
100
AcDbEntity
  8
1
  6
Continuous
 62
     7
100
AcDbLine
 10
133.6495628266291
 20
228.9175106951229
 30
0.0
 11
133.6495628266291
 21
228.6075106951229
 31
0.0
  0
LINE
  5
40E
330
1F
100
AcDbEntity
  8
1
  6
Continuous
 62
     7
100
AcDbLine
 10
133.6495628266291
 20
228.6075106951229
 30
0.0
 11
133.8495628266291
 21
228.2200106951229
 31
0.0
  0
LINE
  5
40F
330
1F
100
AcDbEntity
  8
1
  6
Continuous
 62
     7
100
AcDbLine
 10
133.8495628266291
 20
228.2200106951229
 30
0.0
 11
134.1495628266291
 21
227.9100106951229
 31
0.0
  0
LINE
  5
410
330
1F
100
AcDbEntity
  8
1
  6
Continuous
 62
     7
100
AcDbLine
 10
152.6501104100951
 20
154.2084931170382
 30
0.0
 11
74.15011041009507
 21
154.2084931170382
 31
0.0
  0
LINE
  5
411
330
1F
100
AcDbEntity
  8
1
  6
Continuous
 62
     2
100
AcDbLine
 10
173.3251104100951
 20
25.09877682361383
 30
0.0
 11
173.8251104100951
 21
24.25502682361383
 31
0.0
  0
LINE
  5
412
330
1F
100
AcDbEntity
  8
1
  6
Continuous
 62
     2
100
AcDbLine
 10
172.5751104100951
 20
25.94252682361383
 30
0.0
 11
173.3251104100951
 21
25.09877682361383
 31
0.0
  0
LINE
  5
413
330
1F
100
AcDbEntity
  8
1
  6
Continuous
 62
     2
100
AcDbLine
 10
171.5751104100951
 20
26.78627682361383
 30
0.0
 11
172.5751104100951
 21
25.94252682361383
 31
0.0
  0
LINE
  5
414
330
1F
100
AcDbEntity
  8
1
  6
Continuous
 62
     2
100
AcDbLine
 10
171.0751104100951
 20
27.91127682361383
 30
0.0
 11
170.3251104100951
 21
29.31752682361383
 31
0.0
  0
LINE
  5
415
330
1F
100
AcDbEntity
  8
1
  6
Continuous
 62
     2
100
AcDbLine
 10
172.3251104100951
 20
28.19252682361383
 30
0.0
 11
171.8251104100951
 21
29.59877682361383
 31
0.0
  0
LINE
  5
416
330
1F
100
AcDbEntity
  8
1
  6
Continuous
 62
     2
100
AcDbLine
 10
173.8251104100951
 20
27.63002682361383
 30
0.0
 11
174.5751104100951
 21
29.31752682361383
 31
0.0
  0
LINE
  5
417
330
1F
100
AcDbEntity
  8
1
  6
Continuous
 62
     2
100
AcDbLine
 10
172.3251104100951
 20
25.38002682361383
 30
0.0
 11
173.8251104100951
 21
27.63002682361383
 31
0.0
  0
LINE
  5
418
330
1F
100
AcDbEntity
  8
1
  6
Continuous
 62
     2
100
AcDbLine
 10
171.5751104100951
 20
24.53627682361383
 30
0.0
 11
172.3251104100951
 21
25.38002682361383
 31
0.0
  0
LINE
  5
419
330
1F
100
AcDbEntity
  8
1
  6
Continuous
 62
     2
100
AcDbLine
 10
170.3251104100951
 20
23.69252682361383
 30
0.0
 11
171.5751104100951
 21
24.53627682361383
 31
0.0
  0
LINE
  5
41A
330
1F
100
AcDbEntity
  8
1
  6
Continuous
 62
     2
100
AcDbLine
 10
169.0751104100951
 20
30.72377682361383
 30
0.0
 11
169.0751104100951
 21
22.56752682361383
 31
0.0
  0
LINE
  5
41B
330
1F
100
AcDbEntity
  8
1
  6
Continuous
 62
     2
100
AcDbLine
 10
175.5751104100951
 20
30.72377682361383
 30
0.0
 11
169.0751104100951
 21
30.72377682361383
 31
0.0
  0
LINE
  5
41C
330
1F
100
AcDbEntity
  8
1
  6
Continuous
 62
     2
100
AcDbLine
 10
175.5751104100951
 20
22.56752682361383
 30
0.0
 11
175.5751104100951
 21
30.72377682361383
 31
0.0
  0
LINE
  5
41D
330
1F
100
AcDbEntity
  8
1
  6
Continuous
 62
     2
100
AcDbLine
 10
169.0751104100951
 20
22.56752682361383
 30
0.0
 11
175.5751104100951
 21
22.56752682361383
 31
0.0
  0
LINE
  5
41E
330
1F
100
AcDbEntity
  8
1
  6
Continuous
 62
     2
100
AcDbLine
 10
161.3251104100951
 20
26.50502682361383
 30
0.0
 11
167.0751104100951
 21
26.50502682361383
 31
0.0
  0
LINE
  5
41F
330
1F
100
AcDbEntity
  8
1
  6
Continuous
 62
     2
100
AcDbLine
 10
165.3251104100951
 20
24.81752682361383
 30
0.0
 11
166.8251104100951
 21
22.28627682361383
 31
0.0
  0
LINE
  5
420
330
1F
100
AcDbEntity
  8
1
  6
Continuous
 62
     2
100
AcDbLine
 10
161.8251104100951
 20
22.56752682361383
 30
0.0
 11
166.0751104100951
 21
23.41127682361383
 31
0.0
  0
LINE
  5
421
330
1F
100
AcDbEntity
  8
1
  6
Continuous
 62
     2
100
AcDbLine
 10
164.0751104100951
 20
26.50502682361383
 30
0.0
 11
162.8251104100951
 21
22.84877682361383
 31
0.0
  0
LINE
  5
422
330
1F
100
AcDbEntity
  8
1
  6
Continuous
 62
     2
100
AcDbLine
 10
164.3251104100951
 20
31.00502682361383
 30
0.0
 11
164.3251104100951
 21
26.50502682361383
 31
0.0
  0
LINE
  5
423
330
1F
100
AcDbEntity
  8
1
  6
Continuous
 62
     2
100
AcDbLine
 10
162.0751104100951
 20
28.75502682361383
 30
0.0
 11
166.8251104100951
 21
28.75502682361383
 31
0.0
  0
LINE
  5
424
330
1F
100
AcDbEntity
  8
1
  6
Continuous
 62
     2
100
AcDbLine
 10
160.0751104100951
 20
30.72377682361383
 30
0.0
 11
160.8251104100951
 21
29.59877682361383
 31
0.0
  0
LINE
  5
425
330
1F
100
AcDbEntity
  8
1
  6
Continuous
 62
     2
100
AcDbLine
 10
160.0751104100951
 20
27.34877682361383
 30
0.0
 11
159.3251104100951
 21
28.19252682361383
 31
0.0
  0
LINE
  5
426
330
1F
100
AcDbEntity
  8
1
  6
Continuous
 62
     2
100
AcDbLine
 10
159.5751104100951
 20
22.28627682361383
 30
0.0
 11
160.8251104100951
 21
25.94252682361383
 31
0.0
  0
LINE
  5
427
330
1F
100
AcDbEntity
  8
1
  6
Continuous
 62
     2
100
AcDbLine
 10
153.8251104100951
 20
25.66127682361383
 30
0.0
 11
152.8251104100951
 21
27.06752682361383
 31
0.0
  0
LINE
  5
428
330
1F
100
AcDbEntity
  8
1
  6
Continuous
 62
     2
100
AcDbLine
 10
155.8251104100951
 20
22.56752682361383
 30
0.0
 11
154.5751104100951
 21
22.56752682361383
 31
0.0
  0
LINE
  5
429
330
1F
100
AcDbEntity
  8
1
  6
Continuous
 62
     2
100
AcDbLine
 10
155.8251104100951
 20
30.72377682361383
 30
0.0
 11
155.8251104100951
 21
22.56752682361383
 31
0.0
  0
LINE
  5
42A
330
1F
100
AcDbEntity
  8
1
  6
Continuous
 62
     2
100
AcDbLine
 10
151.0751104100951
 20
28.47377682361383
 30
0.0
 11
157.8251104100951
 21
28.47377682361383
 31
0.0
  0
LINE
  5
42B
330
1F
100
AcDbEntity
  8
1
  6
Continuous
 62
     2
100
AcDbLine
 10
142.3251104100951
 20
22.28627682361383
 30
0.0
 11
142.3251104100951
 21
27.06752682361383
 31
0.0
  0
LINE
  5
42C
330
1F
100
AcDbEntity
  8
1
  6
Continuous
 62
     2
100
AcDbLine
 10
145.0751104100951
 20
22.84877682361383
 30
0.0
 11
142.3251104100951
 21
22.84877682361383
 31
0.0
  0
LINE
  5
42D
330
1F
100
AcDbEntity
  8
1
  6
Continuous
 62
     2
100
AcDbLine
 10
142.3251104100951
 20
27.06752682361383
 30
0.0
 11
145.0751104100951
 21
27.06752682361383
 31
0.0
  0
LINE
  5
42E
330
1F
100
AcDbEntity
  8
1
  6
Continuous
 62
     2
100
AcDbLine
 10
145.0751104100951
 20
29.88002682361383
 30
0.0
 11
142.5751104100951
 21
29.88002682361383
 31
0.0
  0
LINE
  5
42F
330
1F
100
AcDbEntity
  8
1
  6
Continuous
 62
     2
100
AcDbLine
 10
145.8251104100951
 20
30.44252682361383
 30
0.0
 11
145.8251104100951
 21
25.38002682361383
 31
0.0
  0
LINE
  5
430
330
1F
100
AcDbEntity
  8
1
  6
Continuous
 62
     2
100
AcDbLine
 10
148.3251104100951
 20
25.38002682361383
 30
0.0
 11
148.3251104100951
 21
30.44252682361383
 31
0.0
  0
LINE
  5
431
330
1F
100
AcDbEntity
  8
1
  6
Continuous
 62
     2
100
AcDbLine
 10
145.8251104100951
 20
25.38002682361383
 30
0.0
 11
148.3251104100951
 21
25.38002682361383
 31
0.0
  0
LINE
  5
432
330
1F
100
AcDbEntity
  8
1
  6
Continuous
 62
     2
100
AcDbLine
 10
149.0751104100951
 20
22.28627682361383
 30
0.0
 11
149.3251104100951
 21
22.84877682361383
 31
0.0
  0
LINE
  5
433
330
1F
100
AcDbEntity
  8
1
  6
Continuous
 62
     2
100
AcDbLine
 10
148.0751104100951
 20
22.28627682361383
 30
0.0
 11
149.0751104100951
 21
22.28627682361383
 31
0.0
  0
LINE
  5
434
330
1F
100
AcDbEntity
  8
1
  6
Continuous
 62
     2
100
AcDbLine
 10
147.3251104100951
 20
22.84877682361383
 30
0.0
 11
148.0751104100951
 21
22.28627682361383
 31
0.0
  0
LINE
  5
435
330
1F
100
AcDbEntity
  8
1
  6
Continuous
 62
     2
100
AcDbLine
 10
147.3251104100951
 20
25.38002682361383
 30
0.0
 11
147.3251104100951
 21
22.84877682361383
 31
0.0
  0
LINE
  5
436
330
1F
100
AcDbEntity
  8
1
  6
Continuous
 62
     2
100
AcDbLine
 10
145.8251104100951
 20
23.13002682361383
 30
0.0
 11
145.0751104100951
 21
22.28627682361383
 31
0.0
  0
LINE
  5
437
330
1F
100
AcDbEntity
  8
1
  6
Continuous
 62
     2
100
AcDbLine
 10
146.3251104100951
 20
24.53627682361383
 30
0.0
 11
145.8251104100951
 21
23.13002682361383
 31
0.0
  0
LINE
  5
438
330
1F
100
AcDbEntity
  8
1
  6
Continuous
 62
     2
100
AcDbLine
 10
146.5751104100951
 20
25.38002682361383
 30
0.0
 11
146.3251104100951
 21
24.53627682361383
 31
0.0
  0
LINE
  5
439
330
1F
100
AcDbEntity
  8
1
  6
Continuous
 62
     2
100
AcDbLine
 10
148.3251104100951
 20
27.06752682361383
 30
0.0
 11
145.8251104100951
 21
27.06752682361383
 31
0.0
  0
LINE
  5
43A
330
1F
100
AcDbEntity
  8
1
  6
Continuous
 62
     2
100
AcDbLine
 10
145.8251104100951
 20
28.75502682361383
 30
0.0
 11
148.3251104100951
 21
28.75502682361383
 31
0.0
  0
LINE
  5
43B
330
1F
100
AcDbEntity
  8
1
  6
Continuous
 62
     2
100
AcDbLine
 10
148.3251104100951
 20
30.44252682361383
 30
0.0
 11
145.8251104100951
 21
30.44252682361383
 31
0.0
  0
LINE
  5
43C
330
1F
100
AcDbEntity
  8
1
  6
Continuous
 62
     2
100
AcDbLine
 10
142.3251104100951
 20
29.88002682361383
 30
0.0
 11
142.8251104100951
 21
31.00502682361383
 31
0.0
  0
LINE
  5
43D
330
1F
100
AcDbEntity
  8
1
  6
Continuous
 62
     2
100
AcDbLine
 10
141.5751104100951
 20
29.03627682361383
 30
0.0
 11
142.3251104100951
 21
29.88002682361383
 31
0.0
  0
LINE
  5
43E
330
1F
100
AcDbEntity
  8
1
  6
Continuous
 62
     2
100
AcDbLine
 10
142.5751104100951
 20
27.34877682361383
 30
0.0
 11
143.5751104100951
 21
29.88002682361383
 31
0.0
  0
LINE
  5
43F
330
1F
100
AcDbEntity
  8
1
  6
Continuous
 62
     2
100
AcDbLine
 10
141.3251104100951
 20
25.66127682361383
 30
0.0
 11
142.5751104100951
 21
27.34877682361383
 31
0.0
  0
LINE
  5
440
330
1F
100
AcDbEntity
  8
1
  6
Continuous
 62
     2
100
AcDbLine
 10
145.3251104100951
 20
28.47377682361383
 30
0.0
 11
141.5751104100951
 21
28.47377682361383
 31
0.0
  0
LINE
  5
441
330
1F
100
AcDbEntity
  8
1
  6
Continuous
 62
     2
100
AcDbLine
 10
143.8251104100951
 20
27.06752682361383
 30
0.0
 11
144.0751104100951
 21
27.63002682361383
 31
0.0
  0
LINE
  5
442
330
1F
100
AcDbEntity
  8
1
  6
Continuous
 62
     2
100
AcDbLine
 10
143.8251104100951
 20
22.84877682361383
 30
0.0
 11
143.8251104100951
 21
27.06752682361383
 31
0.0
  0
LINE
  5
443
330
1F
100
AcDbEntity
  8
1
  6
Continuous
 62
     2
100
AcDbLine
 10
142.3251104100951
 20
24.25502682361383
 30
0.0
 11
145.0751104100951
 21
24.25502682361383
 31
0.0
  0
LINE
  5
444
330
1F
100
AcDbEntity
  8
1
  6
Continuous
 62
     2
100
AcDbLine
 10
145.0751104100951
 20
25.66127682361383
 30
0.0
 11
142.3251104100951
 21
25.66127682361383
 31
0.0
  0
LINE
  5
445
330
1F
100
AcDbEntity
  8
1
  6
Continuous
 62
     2
100
AcDbLine
 10
139.0751104100951
 20
27.06752682361383
 30
0.0
 11
140.3251104100951
 21
25.66127682361383
 31
0.0
  0
LINE
  5
446
330
1F
100
AcDbEntity
  8
1
  6
Continuous
 62
     2
100
AcDbLine
 10
137.0751104100951
 20
29.03627682361383
 30
0.0
 11
139.0751104100951
 21
27.06752682361383
 31
0.0
  0
LINE
  5
447
330
1F
100
AcDbEntity
  8
1
  6
Continuous
 62
     2
100
AcDbLine
 10
137.5751104100951
 20
31.28627682361383
 30
0.0
 11
137.5751104100951
 21
22.28627682361383
 31
0.0
  0
LINE
  5
448
330
1F
100
AcDbEntity
  8
1
  6
Continuous
 62
     2
100
AcDbLine
 10
133.3251104100951
 20
27.63002682361383
 30
0.0
 11
135.0751104100951
 21
26.22377682361383
 31
0.0
  0
LINE
  5
449
330
1F
100
AcDbEntity
  8
1
  6
Continuous
 62
     2
100
AcDbLine
 10
133.3251104100951
 20
27.91127682361383
 30
0.0
 11
132.3251104100951
 21
26.50502682361383
 31
0.0
  0
LINE
  5
44A
330
1F
100
AcDbEntity
  8
1
  6
Continuous
 62
     2
100
AcDbLine
 10
134.0751104100951
 20
29.59877682361383
 30
0.0
 11
133.3251104100951
 21
27.91127682361383
 31
0.0
  0
LINE
  5
44B
330
1F
100
AcDbEntity
  8
1
  6
Continuous
 62
     2
100
AcDbLine
 10
134.5751104100951
 20
31.28627682361383
 30
0.0
 11
134.0751104100951
 21
29.59877682361383
 31
0.0
  0
LINE
  5
44C
330
1F
100
AcDbEntity
  8
1
  6
Continuous
 62
     2
100
AcDbLine
 10
136.3251104100951
 20
29.31752682361383
 30
0.0
 11
134.0751104100951
 21
29.31752682361383
 31
0.0
  0
LINE
  5
44D
330
1F
100
AcDbEntity
  8
1
  6
Continuous
 62
     2
100
AcDbLine
 10
135.8251104100951
 20
27.63002682361383
 30
0.0
 11
136.3251104100951
 21
29.31752682361383
 31
0.0
  0
LINE
  5
44E
330
1F
100
AcDbEntity
  8
1
  6
Continuous
 62
     2
100
AcDbLine
 10
135.3251104100951
 20
26.50502682361383
 30
0.0
 11
135.8251104100951
 21
27.63002682361383
 31
0.0
  0
LINE
  5
44F
330
1F
100
AcDbEntity
  8
1
  6
Continuous
 62
     2
100
AcDbLine
 10
134.3251104100951
 20
24.81752682361383
 30
0.0
 11
135.3251104100951
 21
26.50502682361383
 31
0.0
  0
LINE
  5
450
330
1F
100
AcDbEntity
  8
1
  6
Continuous
 62
     2
100
AcDbLine
 10
132.8251104100951
 20
22.84877682361383
 30
0.0
 11
134.3251104100951
 21
24.81752682361383
 31
0.0
  0
LINE
  5
451
330
1F
100
AcDbEntity
  8
1
  6
Continuous
 62
     2
100
AcDbLine
 10
114.3251104100951
 20
28.58627682361384
 30
0.0
 11
119.2751104100951
 21
28.58627682361384
 31
0.0
  0
LINE
  5
452
330
1F
100
AcDbEntity
  8
1
  6
Continuous
 62
     2
100
AcDbLine
 10
117.4751104100951
 20
28.58627682361384
 30
0.0
 11
117.4751104100951
 21
22.28627682361383
 31
0.0
  0
LINE
  5
453
330
1F
100
AcDbEntity
  8
1
  6
Continuous
 62
     2
100
AcDbLine
 10
120.625110410095
 20
27.46127682361384
 30
0.0
 11
120.625110410095
 21
22.28627682361383
 31
0.0
  0
LINE
  5
454
330
1F
100
AcDbEntity
  8
1
  6
Continuous
 62
     2
100
AcDbLine
 10
120.4001104100951
 20
27.91127682361383
 30
0.0
 11
120.625110410095
 21
27.46127682361384
 31
0.0
  0
LINE
  5
455
330
1F
100
AcDbEntity
  8
1
  6
Continuous
 62
     2
100
AcDbLine
 10
119.9501104100951
 20
28.36127682361382
 30
0.0
 11
120.4001104100951
 21
27.91127682361383
 31
0.0
  0
LINE
  5
456
330
1F
100
AcDbEntity
  8
1
  6
Continuous
 62
     2
100
AcDbLine
 10
119.2751104100951
 20
28.58627682361384
 30
0.0
 11
119.9501104100951
 21
28.36127682361382
 31
0.0
  0
LINE
  5
457
330
1F
100
AcDbEntity
  8
1
  6
Continuous
 62
     2
100
AcDbLine
 10
114.3251104100951
 20
22.28627682361383
 30
0.0
 11
114.3251104100951
 21
28.58627682361384
 31
0.0
  0
LINE
  5
458
330
1F
100
AcDbEntity
  8
1
  6
Continuous
 62
     2
100
AcDbLine
 10
105.3251104100951
 20
28.58627682361384
 30
0.0
 11
110.2751104100951
 21
28.58627682361384
 31
0.0
  0
LINE
  5
459
330
1F
100
AcDbEntity
  8
1
  6
Continuous
 62
     2
100
AcDbLine
 10
108.4751104100951
 20
28.58627682361384
 30
0.0
 11
108.4751104100951
 21
22.28627682361383
 31
0.0
  0
LINE
  5
45A
330
1F
100
AcDbEntity
  8
1
  6
Continuous
 62
     2
100
AcDbLine
 10
111.625110410095
 20
27.46127682361384
 30
0.0
 11
111.625110410095
 21
22.28627682361383
 31
0.0
  0
LINE
  5
45B
330
1F
100
AcDbEntity
  8
1
  6
Continuous
 62
     2
100
AcDbLine
 10
111.4001104100951
 20
27.91127682361383
 30
0.0
 11
111.625110410095
 21
27.46127682361384
 31
0.0
  0
LINE
  5
45C
330
1F
100
AcDbEntity
  8
1
  6
Continuous
 62
     2
100
AcDbLine
 10
110.9501104100951
 20
28.36127682361382
 30
0.0
 11
111.4001104100951
 21
27.91127682361383
 31
0.0
  0
LINE
  5
45D
330
1F
100
AcDbEntity
  8
1
  6
Continuous
 62
     2
100
AcDbLine
 10
110.2751104100951
 20
28.58627682361384
 30
0.0
 11
110.9501104100951
 21
28.36127682361382
 31
0.0
  0
LINE
  5
45E
330
1F
100
AcDbEntity
  8
1
  6
Continuous
 62
     2
100
AcDbLine
 10
105.3251104100951
 20
22.28627682361383
 30
0.0
 11
105.3251104100951
 21
28.58627682361384
 31
0.0
  0
LINE
  5
45F
330
1F
100
AcDbEntity
  8
1
  6
Continuous
 62
     2
100
AcDbLine
 10
100.6001104100951
 20
22.28627682361383
 30
0.0
 11
97.22511041009514
 21
22.28627682361383
 31
0.0
  0
LINE
  5
460
330
1F
100
AcDbEntity
  8
1
  6
Continuous
 62
     2
100
AcDbLine
 10
101.2751104100951
 20
22.5112768236138
 30
0.0
 11
100.6001104100951
 21
22.28627682361383
 31
0.0
  0
LINE
  5
461
330
1F
100
AcDbEntity
  8
1
  6
Continuous
 62
     2
100
AcDbLine
 10
101.9501104100951
 20
22.96127682361384
 30
0.0
 11
101.2751104100951
 21
22.5112768236138
 31
0.0
  0
LINE
  5
462
330
1F
100
AcDbEntity
  8
1
  6
Continuous
 62
     2
100
AcDbLine
 10
102.4001104100951
 20
23.6362768236138
 30
0.0
 11
101.9501104100951
 21
22.96127682361384
 31
0.0
  0
LINE
  5
463
330
1F
100
AcDbEntity
  8
1
  6
Continuous
 62
     2
100
AcDbLine
 10
102.625110410095
 20
24.53627682361383
 30
0.0
 11
102.4001104100951
 21
23.6362768236138
 31
0.0
  0
LINE
  5
464
330
1F
100
AcDbEntity
  8
1
  6
Continuous
 62
     2
100
AcDbLine
 10
102.625110410095
 20
25.66127682361383
 30
0.0
 11
102.625110410095
 21
24.53627682361383
 31
0.0
  0
LINE
  5
465
330
1F
100
AcDbEntity
  8
1
  6
Continuous
 62
     2
100
AcDbLine
 10
102.4001104100951
 20
26.56127682361381
 30
0.0
 11
102.625110410095
 21
25.66127682361383
 31
0.0
  0
LINE
  5
466
330
1F
100
AcDbEntity
  8
1
  6
Continuous
 62
     2
100
AcDbLine
 10
102.175110410095
 20
27.0112768236138
 30
0.0
 11
102.4001104100951
 21
26.56127682361381
 31
0.0
  0
LINE
  5
467
330
1F
100
AcDbEntity
  8
1
  6
Continuous
 62
     2
100
AcDbLine
 10
101.7251104100951
 20
27.46127682361384
 30
0.0
 11
102.175110410095
 21
27.0112768236138
 31
0.0
  0
LINE
  5
468
330
1F
100
AcDbEntity
  8
1
  6
Continuous
 62
     2
100
AcDbLine
 10
100.8251104100951
 20
27.68627682361381
 30
0.0
 11
101.7251104100951
 21
27.46127682361384
 31
0.0
  0
LINE
  5
469
330
1F
100
AcDbEntity
  8
1
  6
Continuous
 62
     2
100
AcDbLine
 10
101.500110410095
 20
27.91127682361383
 30
0.0
 11
100.8251104100951
 21
27.68627682361381
 31
0.0
  0
LINE
  5
46A
330
1F
100
AcDbEntity
  8
1
  6
Continuous
 62
     2
100
AcDbLine
 10
101.9501104100951
 20
28.1362768236138
 30
0.0
 11
101.500110410095
 21
27.91127682361383
 31
0.0
  0
LINE
  5
46B
330
1F
100
AcDbEntity
  8
1
  6
Continuous
 62
     2
100
AcDbLine
 10
102.4001104100951
 20
28.58627682361384
 30
0.0
 11
101.9501104100951
 21
28.1362768236138
 31
0.0
  0
LINE
  5
46C
330
1F
100
AcDbEntity
  8
1
  6
Continuous
 62
     2
100
AcDbLine
 10
102.625110410095
 20
29.2612768236138
 30
0.0
 11
102.4001104100951
 21
28.58627682361384
 31
0.0
  0
LINE
  5
46D
330
1F
100
AcDbEntity
  8
1
  6
Continuous
 62
     2
100
AcDbLine
 10
102.625110410095
 20
29.93627682361381
 30
0.0
 11
102.625110410095
 21
29.2612768236138
 31
0.0
  0
LINE
  5
46E
330
1F
100
AcDbEntity
  8
1
  6
Continuous
 62
     2
100
AcDbLine
 10
102.4001104100951
 20
30.61127682361382
 30
0.0
 11
102.625110410095
 21
29.93627682361381
 31
0.0
  0
LINE
  5
46F
330
1F
100
AcDbEntity
  8
1
  6
Continuous
 62
     2
100
AcDbLine
 10
101.7251104100951
 20
31.06127682361381
 30
0.0
 11
102.4001104100951
 21
30.61127682361382
 31
0.0
  0
LINE
  5
470
330
1F
100
AcDbEntity
  8
1
  6
Continuous
 62
     2
100
AcDbLine
 10
100.6001104100951
 20
31.28627682361383
 30
0.0
 11
101.7251104100951
 21
31.06127682361381
 31
0.0
  0
LINE
  5
471
330
1F
100
AcDbEntity
  8
1
  6
Continuous
 62
     2
100
AcDbLine
 10
97.22511041009514
 20
31.28627682361383
 30
0.0
 11
100.6001104100951
 21
31.28627682361383
 31
0.0
  0
LINE
  5
472
330
1F
100
AcDbEntity
  8
1
  6
Continuous
 62
     2
100
AcDbLine
 10
98.57511041009505
 20
27.68627682361381
 30
0.0
 11
100.8251104100951
 21
27.68627682361381
 31
0.0
  0
LINE
  5
473
330
1F
100
AcDbEntity
  8
1
  6
Continuous
 62
     2
100
AcDbLine
 10
94.5251104100951
 20
31.28627682361383
 30
0.0
 11
94.5251104100951
 21
22.28627682361383
 31
0.0
  0
LINE
  5
474
330
1F
100
AcDbEntity
  8
1
  6
Continuous
 62
     2
100
AcDbLine
 10
91.82511041009505
 20
28.58627682361384
 30
0.0
 11
94.5251104100951
 21
31.28627682361383
 31
0.0
  0
LINE
  5
475
330
1F
100
AcDbEntity
  8
1
  6
Continuous
 62
     2
100
AcDbLine
 10
87.07511041009505
 20
30.72377682361383
 30
0.0
 11
83.32511041009505
 21
30.72377682361383
 31
0.0
  0
LINE
  5
476
330
1F
100
AcDbEntity
  8
1
  6
Continuous
 62
     2
100
AcDbLine
 10
83.32511041009505
 20
22.56752682361383
 30
0.0
 11
90.57511041009505
 21
22.56752682361383
 31
0.0
  0
LINE
  5
477
330
1F
100
AcDbEntity
  8
1
  6
Continuous
 62
     2
100
AcDbLine
 10
87.07511041009505
 20
25.94252682361383
 30
0.0
 11
87.07511041009505
 21
22.56752682361383
 31
0.0
  0
LINE
  5
478
330
1F
100
AcDbEntity
  8
1
  6
Continuous
 62
     2
100
AcDbLine
 10
90.07511041009505
 20
25.94252682361383
 30
0.0
 11
89.32511041009505
 21
25.94252682361383
 31
0.0
  0
LINE
  5
479
330
1F
100
AcDbEntity
  8
1
  6
Continuous
 62
     2
100
AcDbLine
 10
90.07511041009505
 20
31.00502682361383
 30
0.0
 11
90.07511041009505
 21
25.94252682361383
 31
0.0
  0
LINE
  5
47A
330
1F
100
AcDbEntity
  8
1
  6
Continuous
 62
     2
100
AcDbLine
 10
88.32511041009505
 20
27.06752682361383
 30
0.0
 11
88.32511041009505
 21
30.72377682361383
 31
0.0
  0
LINE
  5
47B
330
1F
100
AcDbEntity
  8
1
  6
Continuous
 62
     2
100
AcDbLine
 10
85.82511041009505
 20
30.72377682361383
 30
0.0
 11
85.82511041009505
 21
25.94252682361383
 31
0.0
  0
LINE
  5
47C
330
1F
100
AcDbEntity
  8
1
  6
Continuous
 62
     2
100
AcDbLine
 10
83.07511041009505
 20
28.75502682361383
 30
0.0
 11
87.32511041009505
 21
28.75502682361383
 31
0.0
  0
LINE
  5
47D
330
1F
100
AcDbEntity
  8
1
  6
Continuous
 62
     2
100
AcDbLine
 10
84.57511041009505
 20
28.75502682361383
 30
0.0
 11
84.57511041009505
 21
30.72377682361383
 31
0.0
  0
LINE
  5
47E
330
1F
100
AcDbEntity
  8
1
  6
Continuous
 62
     2
100
AcDbLine
 10
84.07511041009505
 20
26.78627682361383
 30
0.0
 11
84.57511041009505
 21
28.75502682361383
 31
0.0
  0
LINE
  5
47F
330
1F
100
AcDbEntity
  8
1
  6
Continuous
 62
     2
100
AcDbLine
 10
83.32511041009505
 20
25.66127682361383
 30
0.0
 11
84.07511041009505
 21
26.78627682361383
 31
0.0
  0
LINE
  5
480
330
1F
100
AcDbEntity
  8
1
  6
Continuous
 62
     2
100
AcDbLine
 10
89.57511041009505
 20
24.53627682361383
 30
0.0
 11
84.07511041009505
 21
24.53627682361383
 31
0.0
  0
LINE
  5
481
330
1F
100
AcDbEntity
  8
1
  6
Continuous
 62
     2
100
AcDbLine
 10
74.72511041009514
 20
22.28627682361383
 30
0.0
 11
74.72511041009514
 21
31.28627682361383
 31
0.0
  0
LINE
  5
482
330
1F
100
AcDbEntity
  8
1
  6
Continuous
 62
     2
100
AcDbLine
 10
80.125110410095
 20
22.28627682361383
 30
0.0
 11
74.72511041009514
 21
22.28627682361383
 31
0.0
  0
LINE
  5
483
330
1F
100
AcDbEntity
  8
1
  6
Continuous
 62
     2
100
AcDbLine
 10
71.80011041009496
 20
29.48627682361382
 30
0.0
 11
72.0251104100951
 21
28.58627682361384
 31
0.0
  0
LINE
  5
484
330
1F
100
AcDbEntity
  8
1
  6
Continuous
 62
     2
100
AcDbLine
 10
71.35011041009514
 20
30.16127682361383
 30
0.0
 11
71.80011041009496
 21
29.48627682361382
 31
0.0
  0
LINE
  5
485
330
1F
100
AcDbEntity
  8
1
  6
Continuous
 62
     2
100
AcDbLine
 10
70.9001104100951
 20
30.61127682361382
 30
0.0
 11
71.35011041009514
 21
30.16127682361383
 31
0.0
  0
LINE
  5
486
330
1F
100
AcDbEntity
  8
1
  6
Continuous
 62
     2
100
AcDbLine
 10
70.22511041009514
 20
31.06127682361381
 30
0.0
 11
70.9001104100951
 21
30.61127682361382
 31
0.0
  0
LINE
  5
487
330
1F
100
AcDbEntity
  8
1
  6
Continuous
 62
     2
100
AcDbLine
 10
69.32511041009505
 20
31.28627682361383
 30
0.0
 11
70.22511041009514
 21
31.06127682361381
 31
0.0
  0
LINE
  5
488
330
1F
100
AcDbEntity
  8
1
  6
Continuous
 62
     2
100
AcDbLine
 10
65.72511041009514
 20
31.28627682361383
 30
0.0
 11
69.32511041009505
 21
31.28627682361383
 31
0.0
  0
LINE
  5
489
330
1F
100
AcDbEntity
  8
1
  6
Continuous
 62
     2
100
AcDbLine
 10
65.72511041009514
 20
22.28627682361383
 30
0.0
 11
65.72511041009514
 21
31.28627682361383
 31
0.0
  0
LINE
  5
48A
330
1F
100
AcDbEntity
  8
1
  6
Continuous
 62
     2
100
AcDbLine
 10
69.32511041009505
 20
22.28627682361383
 30
0.0
 11
65.72511041009514
 21
22.28627682361383
 31
0.0
  0
LINE
  5
48B
330
1F
100
AcDbEntity
  8
1
  6
Continuous
 62
     2
100
AcDbLine
 10
70.22511041009514
 20
22.5112768236138
 30
0.0
 11
69.32511041009505
 21
22.28627682361383
 31
0.0
  0
LINE
  5
48C
330
1F
100
AcDbEntity
  8
1
  6
Continuous
 62
     2
100
AcDbLine
 10
70.9001104100951
 20
22.96127682361384
 30
0.0
 11
70.22511041009514
 21
22.5112768236138
 31
0.0
  0
LINE
  5
48D
330
1F
100
AcDbEntity
  8
1
  6
Continuous
 62
     2
100
AcDbLine
 10
71.35011041009514
 20
23.41127682361383
 30
0.0
 11
70.9001104100951
 21
22.96127682361384
 31
0.0
  0
LINE
  5
48E
330
1F
100
AcDbEntity
  8
1
  6
Continuous
 62
     2
100
AcDbLine
 10
71.80011041009496
 20
24.08627682361384
 30
0.0
 11
71.35011041009514
 21
23.41127682361383
 31
0.0
  0
LINE
  5
48F
330
1F
100
AcDbEntity
  8
1
  6
Continuous
 62
     2
100
AcDbLine
 10
72.0251104100951
 20
24.98627682361382
 30
0.0
 11
71.80011041009496
 21
24.08627682361384
 31
0.0
  0
LINE
  5
490
330
1F
100
AcDbEntity
  8
1
  6
Continuous
 62
     2
100
AcDbLine
 10
72.0251104100951
 20
28.58627682361384
 30
0.0
 11
72.0251104100951
 21
24.98627682361382
 31
0.0
  0
LINE
  5
491
330
1F
100
AcDbEntity
  8
1
  6
Continuous
 62
     2
100
AcDbLine
 10
56.72511041009514
 20
22.28627682361383
 30
0.0
 11
56.72511041009514
 21
31.28627682361383
 31
0.0
  0
LINE
  5
492
330
1F
100
AcDbEntity
  8
1
  6
Continuous
 62
     2
100
AcDbLine
 10
58.5251104100951
 20
26.78627682361383
 30
0.0
 11
63.0251104100951
 21
22.28627682361383
 31
0.0
  0
LINE
  5
493
330
1F
100
AcDbEntity
  8
1
  6
Continuous
 62
     2
100
AcDbLine
 10
63.0251104100951
 20
31.28627682361383
 30
0.0
 11
56.72511041009514
 21
24.98627682361382
 31
0.0
  0
LINE
  5
494
330
1F
100
AcDbEntity
  8
1
  6
Continuous
 62
     2
100
AcDbLine
 10
54.0251104100951
 20
22.28627682361383
 30
0.0
 11
54.0251104100951
 21
31.28627682361383
 31
0.0
  0
LINE
  5
495
330
1F
100
AcDbEntity
  8
1
  6
Continuous
 62
     2
100
AcDbLine
 10
47.72511041009514
 20
31.28627682361383
 30
0.0
 11
54.0251104100951
 21
22.28627682361383
 31
0.0
  0
LINE
  5
496
330
1F
100
AcDbEntity
  8
1
  6
Continuous
 62
     2
100
AcDbLine
 10
47.72511041009514
 20
22.28627682361383
 30
0.0
 11
47.72511041009514
 21
31.28627682361383
 31
0.0
  0
ARC
  5
497
330
1F
100
AcDbEntity
  8
1
  6
Continuous
 62
     7
100
AcDbCircle
 10
80.59960015287811
 20
85.20849311703824
 30
0.0
 40
0.9999999999997782
100
AcDbArc
 50
191.5369590328208
 51
218.5292892913613
  0
ARC
  5
498
330
1F
100
AcDbEntity
  8
1
  6
Continuous
 62
     7
100
AcDbCircle
 10
80.59960015287811
 20
85.20849311703824
 30
0.0
 40
1.000000000000439
100
AcDbArc
 50
218.5292892913613
 51
270.0
  0
ARC
  5
499
330
1F
100
AcDbEntity
  8
1
  6
Continuous
 62
     7
100
AcDbCircle
 10
142.7006206673111
 20
85.20849311703824
 30
0.0
 40
1.0
100
AcDbArc
 50
270.0
 51
321.4707107086316
  0
ARC
  5
49A
330
1F
100
AcDbEntity
  8
1
  6
Continuous
 62
     7
100
AcDbCircle
 10
142.7006206673111
 20
85.20849311703824
 30
0.0
 40
1.000000000000284
100
AcDbArc
 50
321.4707107086316
 51
348.46304096719
  0
ARC
  5
49B
330
1F
100
AcDbEntity
  8
1
  6
Continuous
 62
     7
100
AcDbCircle
 10
70.65011041009507
 20
150.7084931170382
 30
0.0
 40
3.5
100
AcDbArc
 50
180.0
 51
0.0
  0
ARC
  5
49C
330
1F
100
AcDbEntity
  8
1
  6
Continuous
 62
     2
100
AcDbCircle
 10
50.13813893063093
 20
155.3957528804313
 30
0.0
 40
24.54070764170868
100
AcDbArc
 50
347.1281597334693
 51
357.2269936731651
  0
ARC
  5
49D
330
1F
100
AcDbEntity
  8
1
  6
Continuous
 62
     7
100
AcDbCircle
 10
50.13813893063093
 20
155.3957528804313
 30
0.0
 40
24.54070764170924
100
AcDbArc
 50
313.8850967660006
 51
347.1281597334693
  0
ARC
  5
49E
330
1F
100
AcDbEntity
  8
1
  6
Continuous
 62
     7
100
AcDbCircle
 10
126.7751104100951
 20
111.8334931170382
 30
0.0
 40
0.875
100
AcDbArc
 50
0.0
 51
180.0
  0
ARC
  5
49F
330
1F
100
AcDbEntity
  8
1
  6
Continuous
 62
     7
100
AcDbCircle
 10
124.0251104100951
 20
111.8334931170382
 30
0.0
 40
0.875
100
AcDbArc
 50
0.0
 51
180.0
  0
ARC
  5
4A0
330
1F
100
AcDbEntity
  8
1
  6
Continuous
 62
     7
100
AcDbCircle
 10
121.2751104100951
 20
111.8334931170382
 30
0.0
 40
0.875
100
AcDbArc
 50
0.0
 51
64.62306647484785
  0
ARC
  5
4A1
330
1F
100
AcDbEntity
  8
1
  6
Continuous
 62
     7
100
AcDbCircle
 10
121.2751104100951
 20
111.8334931170382
 30
0.0
 40
1.875000000000001
100
AcDbArc
 50
42.83342806606731
 51
78.4630409671846
  0
ARC
  5
4A2
330
1F
100
AcDbEntity
  8
1
  6
Continuous
 62
     7
100
AcDbCircle
 10
124.0251104100951
 20
111.8334931170382
 30
0.0
 40
1.875000000000001
100
AcDbArc
 50
42.83342806606731
 51
137.1665719339327
  0
ARC
  5
4A3
330
1F
100
AcDbEntity
  8
1
  6
Continuous
 62
     7
100
AcDbCircle
 10
126.7751104100951
 20
111.8334931170382
 30
0.0
 40
1.875
100
AcDbArc
 50
0.0
 51
137.1665719339327
  0
ARC
  5
4A4
330
1F
100
AcDbEntity
  8
1
  6
Continuous
 62
     7
100
AcDbCircle
 10
117.7751104100951
 20
111.8334931170382
 30
0.0
 40
0.875
100
AcDbArc
 50
0.0
 51
180.0
  0
ARC
  5
4A5
330
1F
100
AcDbEntity
  8
1
  6
Continuous
 62
     7
100
AcDbCircle
 10
115.0251104100951
 20
111.8334931170382
 30
0.0
 40
0.875
100
AcDbArc
 50
0.0
 51
180.0
  0
ARC
  5
4A6
330
1F
100
AcDbEntity
  8
1
  6
Continuous
 62
     7
100
AcDbCircle
 10
112.2751104100951
 20
111.8334931170382
 30
0.0
 40
0.875
100
AcDbArc
 50
0.0
 51
64.62306647484785
  0
ARC
  5
4A7
330
1F
100
AcDbEntity
  8
1
  6
Continuous
 62
     7
100
AcDbCircle
 10
112.2751104100951
 20
111.8334931170382
 30
0.0
 40
1.875000000000001
100
AcDbArc
 50
42.83342806606731
 51
78.4630409671846
  0
ARC
  5
4A8
330
1F
100
AcDbEntity
  8
1
  6
Continuous
 62
     7
100
AcDbCircle
 10
115.0251104100951
 20
111.8334931170382
 30
0.0
 40
1.875000000000001
100
AcDbArc
 50
42.83342806606731
 51
137.1665719339327
  0
ARC
  5
4A9
330
1F
100
AcDbEntity
  8
1
  6
Continuous
 62
     7
100
AcDbCircle
 10
117.7751104100951
 20
111.8334931170382
 30
0.0
 40
1.875
100
AcDbArc
 50
0.0
 51
137.1665719339327
  0
ARC
  5
4AA
330
1F
100
AcDbEntity
  8
1
  6
Continuous
 62
     7
100
AcDbCircle
 10
103.4001104100951
 20
113.9584931170382
 30
0.0
 40
2.75
100
AcDbArc
 50
90.0
 51
180.0
  0
ARC
  5
4AB
330
1F
100
AcDbEntity
  8
1
  6
Continuous
 62
     7
100
AcDbCircle
 10
105.9001104100951
 20
113.9584931170382
 30
0.0
 40
2.749999999999892
100
AcDbArc
 50
305.0968012275814
 51
90.0
  0
ARC
  5
4AC
330
1F
100
AcDbEntity
  8
1
  6
Continuous
 62
     7
100
AcDbCircle
 10
105.9001104100951
 20
109.4584931170382
 30
0.0
 40
2.75
100
AcDbArc
 50
270.0
 51
54.90319877241863
  0
ARC
  5
4AD
330
1F
100
AcDbEntity
  8
1
  6
Continuous
 62
     7
100
AcDbCircle
 10
103.4001104100951
 20
109.4584931170382
 30
0.0
 40
2.75
100
AcDbArc
 50
180.0
 51
270.0
  0
ARC
  5
4AE
330
1F
100
AcDbEntity
  8
1
  6
Continuous
 62
     7
100
AcDbCircle
 10
103.4001104100951
 20
109.4584931170382
 30
0.0
 40
1.75
100
AcDbArc
 50
180.0
 51
270.0
  0
ARC
  5
4AF
330
1F
100
AcDbEntity
  8
1
  6
Continuous
 62
     7
100
AcDbCircle
 10
105.9001104100951
 20
109.4584931170382
 30
0.0
 40
1.75
100
AcDbArc
 50
270.0
 51
90.0
  0
ARC
  5
4B0
330
1F
100
AcDbEntity
  8
1
  6
Continuous
 62
     7
100
AcDbCircle
 10
105.9001104100951
 20
113.9584931170382
 30
0.0
 40
1.75
100
AcDbArc
 50
270.0
 51
90.0
  0
ARC
  5
4B1
330
1F
100
AcDbEntity
  8
1
  6
Continuous
 62
     7
100
AcDbCircle
 10
103.4001104100951
 20
113.9584931170382
 30
0.0
 40
1.75
100
AcDbArc
 50
90.0
 51
180.0
  0
ARC
  5
4B2
330
1F
100
AcDbEntity
  8
1
  6
Continuous
 62
     7
100
AcDbCircle
 10
90.21948180490608
 20
237.5383120381167
 30
0.0
 40
2.536500996892932
100
AcDbArc
 50
242.7207140490467
 51
63.19768219960953
  0
ARC
  5
4B3
330
1F
100
AcDbEntity
  8
1
  6
Continuous
 62
     7
100
AcDbCircle
 10
111.6501104100951
 20
224.467728506045
 30
0.0
 40
38.50000000000077
100
AcDbArc
 50
191.7453154210491
 51
344.941367051079
  0
ARC
  5
4B4
330
1F
100
AcDbEntity
  8
1
  6
Continuous
 62
     7
100
AcDbCircle
 10
111.6501104100951
 20
224.467728506045
 30
0.0
 40
38.50000000000029
100
AcDbArc
 50
15.0586329489211
 51
168.2546845789506
  0
ARC
  5
4B5
330
1F
100
AcDbEntity
  8
1
  6
Continuous
 62
     7
100
AcDbCircle
 10
111.6501104100951
 20
224.467728506045
 30
0.0
 40
33.99999999999961
100
AcDbArc
 50
192.8515887204598
 51
167.1484112795397
  0
ARC
  5
4B6
330
1F
100
AcDbEntity
  8
1
  6
Continuous
 62
     7
100
AcDbCircle
 10
111.6501104100951
 20
224.467728506045
 30
0.0
 40
37.50000000000014
100
AcDbArc
 50
17.14984979267363
 51
165.7096713094781
  0
ARC
  5
4B7
330
1F
100
AcDbEntity
  8
1
  6
Continuous
 62
     7
100
AcDbCircle
 10
77.551906645087
 20
219.2177285060452
 30
0.0
 40
2.5
100
AcDbArc
 50
270.0
 51
90.0
  0
ARC
  5
4B8
330
1F
100
AcDbEntity
  8
1
  6
Continuous
 62
     7
100
AcDbCircle
 10
77.551906645087
 20
229.717728506045
 30
0.0
 40
2.5
100
AcDbArc
 50
270.0
 51
90.0
  0
ARC
  5
4B9
330
1F
100
AcDbEntity
  8
1
  6
Continuous
 62
     7
100
AcDbCircle
 10
111.6501104100951
 20
224.467728506045
 30
0.0
 40
31.9999999999998
100
AcDbArc
 50
171.2470709231172
 51
188.7529290768824
  0
ARC
  5
4BA
330
1F
100
AcDbEntity
  8
1
  6
Continuous
 62
     7
100
AcDbCircle
 10
113.0185040923611
 20
224.7584592412212
 30
0.0
 40
22.16666666666696
100
AcDbArc
 50
221.8201967068531
 51
226.9510927821494
  0
ARC
  5
4BB
330
1F
100
AcDbEntity
  8
1
  6
Continuous
 62
     7
100
AcDbCircle
 10
113.0185040923611
 20
224.7584592412212
 30
0.0
 40
31.66666666666719
100
AcDbArc
 50
225.0130329237282
 51
227.6992684694372
  0
ARC
  5
4BC
330
1F
100
AcDbEntity
  8
1
  6
Continuous
 62
     7
100
AcDbCircle
 10
113.152949633946
 20
224.4216014401177
 30
0.0
 40
22.50473905872084
100
AcDbArc
 50
187.7154620145581
 51
191.3874980509866
  0
ARC
  5
4BD
330
1F
100
AcDbEntity
  8
1
  6
Continuous
 62
     7
100
AcDbCircle
 10
112.8170753440081
 20
224.3825724830192
 30
0.0
 40
31.66666666666756
100
AcDbArc
 50
190.9293665245508
 51
193.5187179288937
  0
ARC
  5
4BE
330
1F
100
AcDbEntity
  8
1
  6
Continuous
 62
     7
100
AcDbCircle
 10
112.8170753440081
 20
224.3825724830192
 30
0.0
 40
31.66666666666696
100
AcDbArc
 50
202.6953681394776
 51
205.2909727874134
  0
ARC
  5
4BF
330
1F
100
AcDbEntity
  8
1
  6
Continuous
 62
     7
100
AcDbCircle
 10
112.8170753440081
 20
224.3825724830192
 30
0.0
 40
22.16666666666693
100
AcDbArc
 50
204.5846785057864
 51
208.3054520854655
  0
ARC
  5
4C0
330
1F
100
AcDbEntity
  8
1
  6
Continuous
 62
     7
100
AcDbCircle
 10
113.1372054886599
 20
224.1438915310799
 30
0.0
 40
22.5047390587203
100
AcDbArc
 50
162.5719856801232
 51
166.2433226375042
  0
ARC
  5
4C1
330
1F
100
AcDbEntity
  8
1
  6
Continuous
 62
     7
100
AcDbCircle
 10
112.8165748467591
 20
224.2512730453539
 30
0.0
 40
31.66666666666683
100
AcDbArc
 50
165.7814182860412
 51
168.3745425154125
  0
ARC
  5
4C2
330
1F
100
AcDbEntity
  8
1
  6
Continuous
 62
     7
100
AcDbCircle
 10
113.035554810341
 20
224.1711380470725
 30
0.0
 40
22.16666666666626
100
AcDbArc
 50
115.9360805318603
 51
119.6575367872219
  0
ARC
  5
4C3
330
1F
100
AcDbEntity
  8
1
  6
Continuous
 62
     7
100
AcDbCircle
 10
113.035554810341
 20
224.1711380470725
 30
0.0
 40
22.16666666666628
100
AcDbArc
 50
132.7825517332638
 51
136.5094578103611
  0
ARC
  5
4C4
330
1F
100
AcDbEntity
  8
1
  6
Continuous
 62
     7
100
AcDbCircle
 10
113.035554810341
 20
224.1711380470725
 30
0.0
 40
31.66666666666676
100
AcDbArc
 50
130.7234973641145
 51
133.316621593486
  0
ARC
  5
4C5
330
1F
100
AcDbEntity
  8
1
  6
Continuous
 62
     7
100
AcDbCircle
 10
113.035554810341
 20
224.1711380470725
 30
0.0
 40
31.66666666666623
100
AcDbArc
 50
118.9550243718589
 51
121.5463118326857
  0
ARC
  5
4C6
330
1F
100
AcDbEntity
  8
1
  6
Continuous
 62
     7
100
AcDbCircle
 10
113.0185040923611
 20
224.7584592412212
 30
0.0
 40
22.16666666666693
100
AcDbArc
 50
238.6721177299921
 51
242.3935739853534
  0
ARC
  5
4C7
330
1F
100
AcDbEntity
  8
1
  6
Continuous
 62
     7
100
AcDbCircle
 10
113.0185040923611
 20
224.7584592412212
 30
0.0
 40
31.666666666667
100
AcDbArc
 50
236.7833426845277
 51
239.3746301453544
  0
ARC
  5
4C8
330
1F
100
AcDbEntity
  8
1
  6
Continuous
 62
     7
100
AcDbCircle
 10
112.8165748467591
 20
224.2512730453539
 30
0.0
 40
31.66666666666633
100
AcDbArc
 50
177.551192725996
 51
180.1430155076671
  0
ARC
  5
4C9
330
1F
100
AcDbEntity
  8
1
  6
Continuous
 62
     7
100
AcDbCircle
 10
112.8165748467591
 20
224.2512730453539
 30
0.0
 40
22.16666666666652
100
AcDbArc
 50
179.4405030923051
 51
183.1619593476656
  0
ARC
  5
4CA
330
1F
100
AcDbEntity
  8
1
  6
Continuous
 62
     7
100
AcDbCircle
 10
113.0260334347261
 20
224.5715453080486
 30
0.0
 40
22.16666666666629
100
AcDbArc
 50
213.7261038784978
 51
217.4100385268363
  0
ARC
  5
4CB
330
1F
100
AcDbEntity
  8
1
  6
Continuous
 62
     7
100
AcDbCircle
 10
113.0260334347261
 20
224.5715453080486
 30
0.0
 40
31.66666666666684
100
AcDbArc
 50
214.2788073663783
 51
216.8573350389545
  0
ARC
  5
4CC
330
1F
100
AcDbEntity
  8
1
  6
Continuous
 62
     7
100
AcDbCircle
 10
88.85772416488408
 20
238.3233039354837
 30
0.0
 40
3.966694204964616
100
AcDbArc
 50
64.31900348007522
 51
236.9536376728162
  0
ARC
  5
4CD
330
1F
100
AcDbEntity
  8
1
  6
Continuous
 62
     7
100
AcDbCircle
 10
90.209051747074
 20
237.5430210161053
 30
0.0
 40
3.972884323007928
100
AcDbArc
 50
235.3210221661453
 51
64.91007180298494
  0
ARC
  5
4CE
330
1F
100
AcDbEntity
  8
1
  6
Continuous
 62
     7
100
AcDbCircle
 10
88.85173267627692
 20
238.324538678168
 30
0.0
 40
2.535893881999166
100
AcDbArc
 50
62.89529519795549
 51
237.7649586501027
  0
ARC
  5
4CF
330
1F
100
AcDbEntity
  8
1
  6
Continuous
 62
     7
100
AcDbCircle
 10
111.6501104100951
 20
224.467728506045
 30
0.0
 40
37.50000000000029
100
AcDbArc
 50
194.2903286905218
 51
342.8501502073266
  0
ARC
  5
4D0
330
1F
100
AcDbEntity
  8
1
  6
Continuous
 62
     7
100
AcDbCircle
 10
111.6501104100951
 20
224.467728506045
 30
0.0
 40
42.49999999999937
100
AcDbArc
 50
347.474889243358
 51
12.5251107566425
  0
ARC
  5
4D1
330
1F
100
AcDbEntity
  8
1
  6
Continuous
 62
     7
100
AcDbCircle
 10
136.319905854228
 20
218.7785196552983
 30
0.0
 40
2.942732801027802
100
AcDbArc
 50
3.70906172346429
 51
180.0
  0
ARC
  5
4D2
330
1F
100
AcDbEntity
  8
1
  6
Continuous
 62
     7
100
AcDbCircle
 10
136.7599232218061
 20
216.7785196552983
 30
0.0
 40
2.502715433449532
100
AcDbArc
 50
282.9569738704674
 51
355.9779535784709
  0
ARC
  5
4D3
330
1F
100
AcDbEntity
  8
1
  6
Continuous
 62
     7
100
AcDbCircle
 10
136.7599232218061
 20
216.7785196552983
 30
0.0
 40
1.502715433449708
100
AcDbArc
 50
270.0
 51
0.0
  0
ARC
  5
4D4
330
1F
100
AcDbEntity
  8
1
  6
Continuous
 62
     7
100
AcDbCircle
 10
136.319905854228
 20
218.7783208754605
 30
0.0
 40
1.942732811197633
100
AcDbArc
 50
0.00586248696301
 51
180.0058623821533
  0
CIRCLE
  5
4D5
330
1F
100
AcDbEntity
  8
1
  6
Continuous
 62
     7
100
AcDbCircle
 10
74.65011041009507
 20
106.7084931170382
 30
0.0
 40
1.25
  0
CIRCLE
  5
4D6
330
1F
100
AcDbEntity
  8
1
  6
Continuous
 62
     7
100
AcDbCircle
 10
70.65011041009507
 20
150.7084931170382
 30
0.0
 40
1.349999999999909
  0
SPLINE
  5
4D7
330
1F
100
AcDbEntity
  8
1
  6
Continuous
 62
     2
100
AcDbSpline
210
0.0
220
0.0
230
1.0
 70
     8
 71
     3
 72
    23
 73
    19
 74
    17
 42
0.0000000001
 43
0.0000000001
 44
0.00000001
 40
0.0
 40
0.0
 40
0.0
 40
0.0
 40
0.754917886594549
 40
1.50955612832859
 40
2.292191868820989
 40
3.074390764963509
 40
3.897650841087352
 40
4.720459066566534
 40
5.591020360906832
 40
6.461198222906427
 40
7.379499230581876
 40
8.297509821574543
 40
9.258570097523315
 40
10.21942846180065
 40
11.21401639391394
 40
12.20847864035399
 40
12.3347228333656
 40
12.460910323292
 40
12.460910323292
 40
12.460910323292
 40
12.460910323292
 10
89.58238201496806
 20
95.79597295913413
 30
0.0
 10
89.53616783073366
 20
96.0436512315656
 30
0.0
 10
89.4437565814236
 20
96.53891602876014
 30
0.0
 10
89.19042176705702
 20
97.26255339873167
 30
0.0
 10
88.8601503173642
 20
97.96298168765576
 30
0.0
 10
88.44068798990284
 20
98.64144922629697
 30
0.0
 10
87.94615866070374
 20
99.28395162311723
 30
0.0
 10
87.37041299091652
 20
99.89577926788458
 30
0.0
 10
86.72905409602764
 20
100.4622463968292
 30
0.0
 10
86.01515111213325
 20
100.9892956470773
 30
0.0
 10
85.24673087018093
 20
101.4638943565284
 30
0.0
 10
84.41678268971839
 20
101.89085815632
 30
0.0
 10
83.54419995164507
 20
102.260136095354
 30
0.0
 10
82.62351441504482
 20
102.5747287826999
 30
0.0
 10
81.6726063113509
 20
102.8279129480951
 30
0.0
 10
80.98019021904622
 20
102.9640625748162
 30
0.0
 10
80.56969054229931
 20
103.0291781259851
 30
0.0
 10
80.48646017676748
 20
103.0415477956914
 30
0.0
 10
80.44485434191392
 20
103.0477312412608
 30
0.0
 11
89.58238201496806
 21
95.79597295913413
 31
0.0
 11
89.42512605317046
 21
96.53433031027211
 31
0.0
 11
89.18170993260972
 21
97.2486323949244
 31
0.0
 11
88.84707060387551
 21
97.95611753396295
 31
0.0
 11
88.4372265325985
 21
98.62234793732628
 31
0.0
 11
87.93572314025181
 21
99.27522732925422
 31
0.0
 11
87.37277893583087
 21
99.87531665479257
 31
0.0
 11
86.7209919435957
 21
100.452422090529
 31
0.0
 11
86.02153586351204
 21
100.9700809584605
 31
0.0
 11
85.24078374671853
 21
101.45350920838
 31
0.0
 11
84.42481604814
 21
101.874151764538
 31
0.0
 11
83.5400886174647
 21
102.2495105627797
 31
0.0
 11
82.63101263799291
 21
102.5606852078732
 31
0.0
 11
81.67008602671896
 21
102.8172494346293
 31
0.0
 11
80.6943306476288
 21
103.009230162233
 31
0.0
 11
80.56964052002117
 21
103.0289777784522
 31
0.0
 11
80.44485434191392
 21
103.0477312412608
 31
0.0
  0
SPLINE
  5
4D8
330
1F
100
AcDbEntity
  8
1
  6
Continuous
 62
     2
100
AcDbSpline
210
0.0
220
0.0
230
1.0
 70
     8
 71
     3
 72
    23
 73
    19
 74
    17
 42
0.0000000001
 43
0.0000000001
 44
0.00000001
 40
0.0
 40
0.0
 40
0.0
 40
0.0
 40
0.754917886594533
 40
1.509556128328619
 40
2.292191868821061
 40
3.074390764963748
 40
3.897650841087709
 40
4.720459066566737
 40
5.591020360906897
 40
6.461198222906701
 40
7.379499230582504
 40
8.297509821575254
 40
9.258570097523837
 40
10.21942846180079
 40
11.21401639391373
 40
12.20847864035366
 40
12.31788735939043
 40
12.42725270391303
 40
12.42725270391303
 40
12.42725270391303
 40
12.42725270391303
 10
133.7178388052209
 20
95.79597295913413
 30
0.0
 10
133.7640529894554
 20
96.04365123156538
 30
0.0
 10
133.8564642387655
 20
96.53891602875942
 30
0.0
 10
134.1097990531318
 20
97.26255339873452
 30
0.0
 10
134.4400705028259
 20
97.96298168764478
 30
0.0
 10
134.8595328302829
 20
98.64144922633905
 30
0.0
 10
135.3540621595008
 20
99.28395162295074
 30
0.0
 10
135.9298078292163
 20
99.89577926851916
 30
0.0
 10
136.5711667243863
 20
100.4622463943085
 30
0.0
 10
137.2850697072005
 20
100.9892956566823
 30
0.0
 10
138.0534899533994
 20
101.4638943184781
 30
0.0
 10
138.8834381175953
 20
101.8908583008298
 30
0.0
 10
139.7560209191043
 20
102.2601355279245
 30
0.0
 10
140.6767062139913
 20
102.5747309280083
 30
0.0
 10
141.6276152500495
 20
102.827904629503
 30
0.0
 10
142.3145179886125
 20
102.9629983096972
 30
0.0
 10
142.7139050328928
 20
103.0265514860571
 30
0.0
 10
142.7860184760739
 20
103.0374016362704
 30
0.0
 10
142.8220680489981
 20
103.0428256357925
 30
0.0
 11
133.7178388052209
 21
95.79597295913413
 31
0.0
 11
133.8750947670186
 21
96.53433031027208
 31
0.0
 11
134.1185108875794
 21
97.2486323949244
 31
0.0
 11
134.4531502163136
 21
97.95611753396297
 31
0.0
 11
134.862994287591
 21
98.62234793732628
 31
0.0
 11
135.3644976799379
 21
99.27522732925421
 31
0.0
 11
135.9274418843586
 21
99.87531665479258
 31
0.0
 11
136.5792288765936
 21
100.452422090529
 31
0.0
 11
137.2786849566775
 21
100.9700809584605
 31
0.0
 11
138.0594370734714
 21
101.45350920838
 31
0.0
 11
138.87540477205
 21
101.874151764538
 31
0.0
 11
139.7601322027251
 21
102.2495105627797
 31
0.0
 11
140.6692081821965
 21
102.5606852078732
 31
0.0
 11
141.6301347934701
 21
102.8172494346293
 31
0.0
 11
142.6058901725602
 21
103.009230162233
 31
0.0
 11
142.7139430427231
 21
103.0264012149329
 31
0.0
 11
142.8220680489981
 21
103.0428256357925
 31
0.0
  0
SPLINE
  5
4D9
330
1F
100
AcDbEntity
  8
1
  6
Continuous
 62
     2
100
AcDbSpline
210
0.0
220
0.0
230
1.0
 70
     8
 71
     3
 72
    25
 73
    21
 74
    19
 42
0.0000000001
 43
0.0000000001
 44
0.00000001
 40
0.0
 40
0.0
 40
0.0
 40
0.0
 40
0.5040823684726696
 40
1.008693071115805
 40
2.003155317555914
 40
2.997743249669164
 40
3.958601613946394
 40
4.919661889894949
 40
5.837672480887559
 40
6.755973488563404
 40
7.626151350563277
 40
8.496712644903402
 40
9.319520870382403
 40
10.14278094650631
 40
10.92497984264887
 40
11.70761558314117
 40
12.46225382487516
 40
13.21717171146975
 40
13.96212038299987
 40
14.70706905452994
 40
14.70706905452994
 40
14.70706905452994
 40
14.70706905452994
 10
143.1136217751
 20
86.3976356486915
 30
0.0
 10
142.947883215183
 20
86.42536356748457
 30
0.0
 10
142.6162323829758
 20
86.48084846700159
 30
0.0
 10
141.9623991099783
 20
86.61703495896413
 30
0.0
 10
141.1569226872306
 20
86.8246905518326
 30
0.0
 10
140.2225548212132
 20
87.1334977689859
 30
0.0
 10
139.3219460657422
 20
87.50161289077198
 30
0.0
 10
138.472576192222
 20
87.92154831036832
 30
0.0
 10
137.66915636399
 20
88.3965493379268
 30
0.0
 10
136.9299573219515
 20
88.91549049616047
 30
0.0
 10
136.2482666543146
 20
89.48358672285852
 30
0.0
 10
135.6413013372365
 20
90.08676821452234
 30
0.0
 10
135.1025375433142
 20
90.73137945490674
 30
0.0
 10
134.6465235000282
 20
91.40182479642061
 30
0.0
 10
134.2680213080739
 20
92.10381243117115
 30
0.0
 10
133.9781741628535
 20
92.82229501531558
 30
0.0
 10
133.7725407237857
 20
93.56009669797889
 30
0.0
 10
133.6607783660799
 20
94.30466172737539
 30
0.0
 10
133.6312299189313
 20
95.05511000214892
 30
0.0
 10
133.6889691764577
 20
95.54901864013905
 30
0.0
 10
133.7178388052209
 20
95.79597295913413
 30
0.0
 11
143.1136217751
 21
86.3976356486915
 31
0.0
 11
142.6170083921911
 21
86.48408900097323
 31
0.0
 11
142.1228636569181
 21
86.58632863039377
 31
0.0
 11
141.1600782002438
 21
86.83532526493167
 31
0.0
 11
140.215891624097
 21
87.1479222324943
 31
0.0
 11
139.3266756513887
 21
87.51198781735789
 31
0.0
 11
138.465538413576
 21
87.93869557643737
 31
0.0
 11
137.6757034973795
 21
88.40656762126525
 31
0.0
 11
136.9247133730039
 21
88.93504711357201
 31
0.0
 11
136.2568905817527
 21
89.4929200659546
 31
0.0
 11
135.640148311743
 21
90.10733518587472
 31
0.0
 11
135.113446080136
 21
90.73947293600214
 31
0.0
 11
134.6511810675955
 21
91.4206984574856
 31
0.0
 11
134.2812016078751
 21
92.10986484705468
 31
0.0
 11
133.9887215428508
 21
92.83579467414494
 31
0.0
 11
133.7877076470072
 21
93.56316822986796
 31
0.0
 11
133.6741187654178
 21
94.30949160581146
 31
0.0
 11
133.6505676037492
 21
95.05406790546016
 31
0.0
 11
133.7178388052209
 21
95.79597295913413
 31
0.0
  0
SPLINE
  5
4DA
330
1F
100
AcDbEntity
  8
1
  6
Continuous
 62
     2
100
AcDbSpline
210
0.0
220
0.0
230
1.0
 70
     8
 71
     3
 72
    25
 73
    21
 74
    19
 42
0.0000000001
 43
0.0000000001
 44
0.00000001
 40
0.0
 40
0.0
 40
0.0
 40
0.0
 40
0.3732768853751254
 40
0.746915272835402
 40
1.741377519275618
 40
2.735965451388886
 40
3.696823815666114
 40
4.657884091614669
 40
5.575894682607302
 40
6.494195690283132
 40
7.364373552282975
 40
8.23493484662309
 40
9.057743072102085
 40
9.88100314822601
 40
10.6632020443686
 40
11.44583778486093
 40
12.20047602659494
 40
12.95539391318952
 40
13.70034258471965
 40
14.44529125624974
 40
14.44529125624974
 40
14.44529125624974
 40
14.44529125624974
 10
80.44485434191392
 20
86.44057028728434
 30
0.0
 10
80.5672794102804
 20
86.46282724347867
 30
0.0
 10
80.81224811025484
 20
86.50736271074092
 30
0.0
 10
81.38013210602416
 20
86.62783383556726
 30
0.0
 10
82.14329628146172
 20
86.82472978270545
 30
0.0
 10
83.07766647646426
 20
87.13348765161024
 30
0.0
 10
83.97827462815219
 20
87.50161556679583
 30
0.0
 10
84.827644660131
 20
87.92154762885276
 30
0.0
 10
85.63106444773008
 20
88.3965495173738
 30
0.0
 10
86.37026350037527
 20
88.91549045086293
 30
0.0
 10
87.05195416531339
 20
89.48358673474681
 30
0.0
 10
87.65891948309374
 20
90.08676821152991
 30
0.0
 10
88.1976832768377
 20
90.7313794556912
 30
0.0
 10
88.65369732017027
 20
91.401824796222
 30
0.0
 10
89.03219951211261
 20
92.10381243122333
 30
0.0
 10
89.32204665733623
 20
92.82229501530217
 30
0.0
 10
89.5276800964033
 20
93.56009669798243
 30
0.0
 10
89.63944245410951
 20
94.30466172737444
 30
0.0
 10
89.66899090125793
 20
95.05511000214916
 30
0.0
 10
89.61125164373135
 20
95.54901864013914
 30
0.0
 10
89.58238201496806
 20
95.79597295913413
 30
0.0
 11
80.44485434191392
 21
86.44057028728434
 31
0.0
 11
80.81178220507664
 21
86.50912374372673
 31
0.0
 11
81.17735716327078
 21
86.58632863039374
 31
0.0
 11
82.14014261994518
 21
86.83532526493163
 31
0.0
 11
83.08432919609207
 21
87.14792223249427
 31
0.0
 11
83.97354516880029
 21
87.51198781735789
 31
0.0
 11
84.83468240661298
 21
87.93869557643737
 31
0.0
 11
85.62451732280954
 21
88.40656762126525
 31
0.0
 11
86.3755074471851
 21
88.93504711357203
 31
0.0
 11
87.04333023843631
 21
89.4929200659546
 31
0.0
 11
87.660072508446
 21
90.1073351858747
 31
0.0
 11
88.18677474005293
 21
90.73947293600214
 31
0.0
 11
88.64903975259355
 21
91.42069845748559
 31
0.0
 11
89.01901921231394
 21
92.10986484705468
 31
0.0
 11
89.31149927733833
 21
92.83579467414495
 31
0.0
 11
89.51251317318201
 21
93.56316822986796
 31
0.0
 11
89.62610205477145
 21
94.30949160581144
 31
0.0
 11
89.64965321643994
 21
95.05406790546016
 31
0.0
 11
89.58238201496806
 21
95.79597295913413
 31
0.0
  0
LWPOLYLINE
  5
4DB
330
1F
100
AcDbEntity
  8
1
  6
Continuous
 62
     7
 60
     1
100
AcDbPolyline
 90
        2
 70
     0
 43
0.0
 10
194.1501104100951
 20
83.30849311703844
 10
183.1501104100951
 20
83.48799311703823
  0
ARC
  5
4DC
330
1F
100
AcDbEntity
  8
1
  6
Continuous
 62
     7
100
AcDbCircle
 10
160.616387061026
 20
106.2084931170382
 30
0.0
 40
3.000000000000198
100
AcDbArc
 50
234.2933085993938
 51
270.0
  0
ARC
  5
4DD
330
1F
100
AcDbEntity
  8
1
  6
Continuous
 62
     7
100
AcDbCircle
 10
146.6501104100951
 20
116.2467544598953
 30
0.0
 40
3.0
100
AcDbArc
 50
180.0
 51
234.2933085993922
  0
ARC
  5
4DE
330
1F
100
AcDbEntity
  8
1
  6
Continuous
 62
     7
100
AcDbCircle
 10
62.68383375916301
 20
106.2084931170382
 30
0.0
 40
3.0
100
AcDbArc
 50
270.0
 51
305.7066914006061
  0
ARC
  5
4DF
330
1F
100
AcDbEntity
  8
1
  6
Continuous
 62
     7
100
AcDbCircle
 10
76.65011041009507
 20
116.2467544598953
 30
0.0
 40
2.999999999999454
100
AcDbArc
 50
305.7066914005896
 51
0.0
  0
ARC
  5
4E0
330
1F
100
AcDbEntity
  8
1
  6
Continuous
 62
     7
100
AcDbCircle
 10
98.15011041009507
 20
79.20849311703824
 30
0.0
 40
5.000000000000028
100
AcDbArc
 50
0.0
 51
90.0
  0
ARC
  5
4E1
330
1F
100
AcDbEntity
  8
1
  6
Continuous
 62
     7
100
AcDbCircle
 10
111.6501104100951
 20
74.70849311703824
 30
0.0
 40
3.000000000000353
100
AcDbArc
 50
241.5570713756242
 51
298.4429286243558
  0
ARC
  5
4E2
330
1F
100
AcDbEntity
  8
1
  6
Continuous
 62
     7
100
AcDbCircle
 10
105.6501104100951
 20
77.38985378104002
 30
0.0
 40
2.5
100
AcDbArc
 50
180.0
 51
241.5570713756322
  0
ARC
  5
4E3
330
1F
100
AcDbEntity
  8
1
  6
Continuous
 62
     7
100
AcDbCircle
 10
117.6501104100951
 20
77.38985378104002
 30
0.0
 40
2.499999999999519
100
AcDbArc
 50
298.4429286243439
 51
0.0
  0
ARC
  5
4E4
330
1F
100
AcDbEntity
  8
1
  6
Continuous
 62
     7
100
AcDbCircle
 10
125.1501104100951
 20
79.20849311703824
 30
0.0
 40
5.0
100
AcDbArc
 50
90.0
 51
180.0
  0
ARC
  5
4E5
330
1F
100
AcDbEntity
  8
1
  6
Continuous
 62
     7
100
AcDbCircle
 10
78.15011041009507
 20
84.70849311703824
 30
0.0
 40
1.50000000000009
100
AcDbArc
 50
11.53695903281301
 51
90.0
  0
ARC
  5
4E6
330
1F
100
AcDbEntity
  8
1
  6
Continuous
 62
     7
100
AcDbCircle
 10
145.1501104100951
 20
84.70849311703824
 30
0.0
 40
1.5
100
AcDbArc
 50
90.0
 51
168.463040967187
  0
ARC
  5
4E7
330
1F
100
AcDbEntity
  8
1
  6
Continuous
 62
     7
100
AcDbCircle
 10
145.6501104100951
 20
105.2084931170382
 30
0.0
 40
2.0
100
AcDbArc
 50
180.0
 51
270.0
  0
ARC
  5
4E8
330
1F
100
AcDbEntity
  8
1
  6
Continuous
 62
     7
100
AcDbCircle
 10
77.65011041009507
 20
105.2084931170382
 30
0.0
 40
2.0
100
AcDbArc
 50
270.0
 51
0.0
  0
ARC
  5
4E9
330
1F
100
AcDbEntity
  8
1
  6
Continuous
 62
     7
100
AcDbCircle
 10
42.15011041009507
 20
84.20849311703824
 30
0.0
 40
2.0
100
AcDbArc
 50
90.0
 51
180.0
  0
ARC
  5
4EA
330
1F
100
AcDbEntity
  8
1
  6
Continuous
 62
     7
100
AcDbCircle
 10
42.15011041009507
 20
105.2084931170382
 30
0.0
 40
2.0
100
AcDbArc
 50
180.0
 51
270.0
  0
ARC
  5
4EB
330
1F
100
AcDbEntity
  8
1
  6
Continuous
 62
     7
100
AcDbCircle
 10
181.1501104100951
 20
105.2084931170382
 30
0.0
 40
2.0
100
AcDbArc
 50
270.0
 51
0.0
  0
ARC
  5
4EC
330
1F
100
AcDbEntity
  8
1
  6
Continuous
 62
     7
100
AcDbCircle
 10
181.1501104100951
 20
84.20849311703824
 30
0.0
 40
2.0
100
AcDbArc
 50
0.0
 51
90.0
  0
ARC
  5
4ED
330
1F
100
AcDbEntity
  8
1
  6
Continuous
 62
     7
100
AcDbCircle
 10
145.6501104100951
 20
124.7084931170382
 30
0.0
 40
2.0
100
AcDbArc
 50
90.0
 51
180.0
  0
ARC
  5
4EE
330
1F
100
AcDbEntity
  8
1
  6
Continuous
 62
     7
100
AcDbCircle
 10
77.65011041009507
 20
124.7084931170382
 30
0.0
 40
2.0
100
AcDbArc
 50
0.0
 51
90.0
  0
ARC
  5
4EF
330
1F
100
AcDbEntity
  8
1
  6
Continuous
 62
     7
100
AcDbCircle
 10
114.1501104100951
 20
83.20849311703824
 30
0.0
 40
1.0
100
AcDbArc
 50
90.0
 51
180.0
  0
ARC
  5
4F0
330
1F
100
AcDbEntity
  8
1
  6
Continuous
 62
     7
100
AcDbCircle
 10
109.1501104100951
 20
83.20849311703824
 30
0.0
 40
1.0
100
AcDbArc
 50
0.0
 51
90.0
  0
ARC
  5
4F1
330
1F
100
AcDbEntity
  8
1
  6
Continuous
 62
     7
100
AcDbCircle
 10
68.65011041009507
 20
158.7084931170382
 30
0.0
 40
1.5
100
AcDbArc
 50
90.0
 51
180.0
  0
ARC
  5
4F2
330
1F
100
AcDbEntity
  8
1
  6
Continuous
 62
     7
100
AcDbCircle
 10
153.1501104100951
 20
159.2084931170382
 30
0.0
 40
1.0
100
AcDbArc
 50
0.0
 51
90.0
  0
ARC
  5
4F3
330
1F
100
AcDbEntity
  8
1
  6
Continuous
 62
     7
100
AcDbCircle
 10
148.1501104100951
 20
159.2084931170382
 30
0.0
 40
1.0
100
AcDbArc
 50
0.0
 51
90.0
  0
ARC
  5
4F4
330
1F
100
AcDbEntity
  8
1
  6
Continuous
 62
     7
100
AcDbCircle
 10
68.15011041009507
 20
162.2084931170382
 30
0.0
 40
1.0
100
AcDbArc
 50
90.0
 51
180.0
  0
ARC
  5
4F5
330
1F
100
AcDbEntity
  8
1
  6
Continuous
 62
     7
100
AcDbCircle
 10
76.65011041009507
 20
160.2084931170382
 30
0.0
 40
3.0
100
AcDbArc
 50
0.0
 51
90.0
  0
ARC
  5
4F6
330
1F
100
AcDbEntity
  8
1
  6
Continuous
 62
     7
100
AcDbCircle
 10
152.6501104100951
 20
150.7084931170382
 30
0.0
 40
3.5
100
AcDbArc
 50
0.0
 51
90.0
  0
ARC
  5
4F7
330
1F
100
AcDbEntity
  8
1
  6
Continuous
 62
     7
100
AcDbCircle
 10
149.1501104100951
 20
131.7084931170382
 30
0.0
 40
1.0
100
AcDbArc
 50
270.0
 51
0.0
  0
ARC
  5
4F8
330
1F
100
AcDbEntity
  8
1
  6
Continuous
 62
     7
100
AcDbCircle
 10
151.1501104100951
 20
131.7084931170382
 30
0.0
 40
1.0
100
AcDbArc
 50
90.0
 51
180.0
  0
ARC
  5
4F9
330
1F
100
AcDbEntity
  8
1
  6
Continuous
 62
     7
100
AcDbCircle
 10
155.1501104100951
 20
133.7084931170382
 30
0.0
 40
1.0
100
AcDbArc
 50
270.0
 51
0.0
  0
ARC
  5
4FA
330
1F
100
AcDbEntity
  8
1
  6
Continuous
 62
     7
100
AcDbCircle
 10
149.1501104100951
 20
145.7084931170382
 30
0.0
 40
1.0
100
AcDbArc
 50
0.0
 51
90.0
  0
ARC
  5
4FB
330
1F
100
AcDbEntity
  8
1
  6
Continuous
 62
     7
100
AcDbCircle
 10
74.15011041009507
 20
131.7084931170382
 30
0.0
 40
1.0
100
AcDbArc
 50
180.0
 51
270.0
  0
ARC
  5
4FC
330
1F
100
AcDbEntity
  8
1
  6
Continuous
 62
     7
100
AcDbCircle
 10
72.15011041009507
 20
131.7084931170382
 30
0.0
 40
1.0
100
AcDbArc
 50
0.0
 51
90.0
  0
ARC
  5
4FD
330
1F
100
AcDbEntity
  8
1
  6
Continuous
 62
     7
100
AcDbCircle
 10
68.15011041009507
 20
133.7084931170382
 30
0.0
 40
1.0
100
AcDbArc
 50
180.0
 51
270.0
  0
ARC
  5
4FE
330
1F
100
AcDbEntity
  8
1
  6
Continuous
 62
     7
100
AcDbCircle
 10
74.15011041009507
 20
145.7084931170382
 30
0.0
 40
1.0
100
AcDbArc
 50
90.0
 51
180.0
  0
ARC
  5
4FF
330
1F
100
AcDbEntity
  8
1
  6
Continuous
 62
     7
100
AcDbCircle
 10
113.6501104100951
 20
143.7084931170382
 30
0.0
 40
1.0
100
AcDbArc
 50
0.0
 51
90.0
  0
ARC
  5
500
330
1F
100
AcDbEntity
  8
1
  6
Continuous
 62
     7
100
AcDbCircle
 10
109.6501104100951
 20
143.7084931170382
 30
0.0
 40
1.0
100
AcDbArc
 50
90.0
 51
180.0
  0
ARC
  5
501
330
1F
100
AcDbEntity
  8
1
  6
Continuous
 62
     7
100
AcDbCircle
 10
109.6501104100951
 20
133.7084931170382
 30
0.0
 40
1.0
100
AcDbArc
 50
180.0
 51
270.0
  0
ARC
  5
502
330
1F
100
AcDbEntity
  8
1
  6
Continuous
 62
     7
100
AcDbCircle
 10
113.6501104100951
 20
133.7084931170382
 30
0.0
 40
1.0
100
AcDbArc
 50
270.0
 51
0.0
  0
ARC
  5
503
330
1F
100
AcDbEntity
  8
1
  6
Continuous
 62
     7
100
AcDbCircle
 10
181.2601104100941
 20
214.5793636701137
 30
0.0
 40
1.89000000000101
100
AcDbArc
 50
0.0
 51
105.9999999999968
  0
ARC
  5
504
330
1F
100
AcDbEntity
  8
1
  6
Continuous
 62
     7
100
AcDbCircle
 10
41.85011041009511
 20
214.5714273272561
 30
0.0
 40
1.69999999999979
100
AcDbArc
 50
74.00000000003388
 51
180.0
  0
ARC
  5
505
330
1F
100
AcDbEntity
  8
1
  6
Continuous
 62
     7
100
AcDbCircle
 10
42.15011041009507
 20
236.5397517517944
 30
0.0
 40
2.0
100
AcDbArc
 50
180.0
 51
253.999999999974
  0
ARC
  5
506
330
1F
100
AcDbEntity
  8
1
  6
Continuous
 62
     7
100
AcDbCircle
 10
181.1501104100951
 20
236.2796768928291
 30
0.0
 40
1.999999999999944
100
AcDbArc
 50
286.0000000000003
 51
0.0
  0
ARC
  5
507
330
1F
100
AcDbEntity
  8
1
  6
Continuous
 62
     7
100
AcDbCircle
 10
113.6501104100951
 20
267.967728506045
 30
0.0
 40
1.0
100
AcDbArc
 50
0.0
 51
90.0
  0
ARC
  5
508
330
1F
100
AcDbEntity
  8
1
  6
Continuous
 62
     7
100
AcDbCircle
 10
109.6501104100951
 20
267.967728506045
 30
0.0
 40
1.0
100
AcDbArc
 50
90.0
 51
180.0
  0
ARC
  5
509
330
1F
100
AcDbEntity
  8
1
  6
Continuous
 62
     7
100
AcDbCircle
 10
109.6501104100951
 20
180.967728506045
 30
0.0
 40
1.0
100
AcDbArc
 50
180.0
 51
270.0
  0
ARC
  5
50A
330
1F
100
AcDbEntity
  8
1
  6
Continuous
 62
     7
100
AcDbCircle
 10
113.6501104100951
 20
180.967728506045
 30
0.0
 40
1.0
100
AcDbArc
 50
270.0
 51
0.0
  0
ARC
  5
50B
330
1F
100
AcDbEntity
  8
1
  6
Continuous
 62
     7
100
AcDbCircle
 10
155.1501104100951
 20
222.467728506045
 30
0.0
 40
1.0
100
AcDbArc
 50
270.0
 51
0.0
  0
ARC
  5
50C
330
1F
100
AcDbEntity
  8
1
  6
Continuous
 62
     7
100
AcDbCircle
 10
155.1501104100951
 20
226.467728506045
 30
0.0
 40
1.0
100
AcDbArc
 50
0.0
 51
90.0
  0
ARC
  5
50D
330
1F
100
AcDbEntity
  8
1
  6
Continuous
 62
     7
100
AcDbCircle
 10
73.37234271133798
 20
234.217728506045
 30
0.0
 40
2.0
100
AcDbArc
 50
270.0
 51
345.7096713094784
  0
ARC
  5
50E
330
1F
100
AcDbEntity
  8
1
  6
Continuous
 62
     7
100
AcDbCircle
 10
73.37234271133798
 20
214.7177285060452
 30
0.0
 40
1.999999999999834
100
AcDbArc
 50
14.29032869051849
 51
90.0
  0
ARC
  5
50F
330
1F
100
AcDbEntity
  8
1
  6
Continuous
 62
     7
100
AcDbCircle
 10
68.15011041009507
 20
217.7177285060452
 30
0.0
 40
1.0
100
AcDbArc
 50
180.0
 51
270.0
  0
ARC
  5
510
330
1F
100
AcDbEntity
  8
1
  6
Continuous
 62
     7
100
AcDbCircle
 10
68.15011041009507
 20
231.217728506045
 30
0.0
 40
1.0
100
AcDbArc
 50
90.0
 51
180.0
  0
ARC
  5
511
330
1F
100
AcDbEntity
  8
1
  6
Continuous
 62
     7
100
AcDbCircle
 10
148.9160465985231
 20
235.967728506045
 30
0.0
 40
1.499999999999718
100
AcDbArc
 50
197.1498497926729
 51
270.0
  0
ARC
  5
512
330
1F
100
AcDbEntity
  8
1
  6
Continuous
 62
     7
100
AcDbCircle
 10
148.9160465985231
 20
212.9677285060452
 30
0.0
 40
1.5
100
AcDbArc
 50
90.0
 51
162.8501502073271
  0
ARC
  5
513
330
1F
100
AcDbEntity
  8
1
  6
Continuous
 62
     7
100
AcDbCircle
 10
152.162454208004
 20
233.467728506045
 30
0.0
 40
0.9999999999998566
100
AcDbArc
 50
12.5251107566547
 51
90.0
  0
ARC
  5
514
330
1F
100
AcDbEntity
  8
1
  6
Continuous
 62
     7
100
AcDbCircle
 10
152.162454208004
 20
215.4677285060452
 30
0.0
 40
1.0
100
AcDbArc
 50
270.0
 51
347.4748892433564
  0
LINE
  5
515
330
1F
100
AcDbEntity
  8
1
 62
     2
100
AcDbLine
 10
35.56036041009497
 20
107.9289931170382
 30
0.0
 11
33.7860006645198
 21
110.478074995049
 31
0.0
  0
LINE
  5
516
330
1F
100
AcDbEntity
  8
1
 62
     2
100
AcDbLine
 10
35.56036041009497
 20
107.9289931170382
 30
0.0
 11
35.29826073397976
 21
111.0237426525097
 31
0.0
  0
LEADER
  5
517
330
1F
100
AcDbEntity
  8
1
  6
Continuous
 62
     2
100
AcDbLeader
  3
Standard
 71
     0
 76
     3
 10
35.56036041009497
 20
107.9289931170382
 30
0.0
 10
29.72668802148996
 20
124.096397746905
 30
0.0
 10
66.473950621928
 20
124.096397746905
 30
0.0
  0
LINE
  5
518
330
1F
100
AcDbEntity
  8
1
 62
     2
100
AcDbLine
 10
92.83799019502612
 20
73.59726716627495
 30
0.0
 11
92.16062581839573
 21
70.56620325589752
 31
0.0
  0
LINE
  5
519
330
1F
100
AcDbEntity
  8
1
 62
     2
100
AcDbLine
 10
92.83799019502612
 20
73.59726716627495
 30
0.0
 11
90.73584348205686
 21
71.31097100770909
 31
0.0
  0
LEADER
  5
51A
330
1F
100
AcDbEntity
  8
1
  6
Continuous
 62
     2
100
AcDbLeader
  3
Standard
 71
     0
 76
     3
 10
92.83799019502612
 20
73.59726716627495
 30
0.0
 10
87.72920591362504
 20
63.82387729191385
 30
0.0
 10
68.49881384458604
 20
63.82387729191385
 30
0.0
  0
LINE
  5
51B
330
1F
100
AcDbEntity
  8
1
 62
     2
100
AcDbLine
 10
128.507564206016
 20
73.59726716627495
 30
0.0
 11
130.577075625478
 21
71.28138862623082
 31
0.0
  0
LINE
  5
51C
330
1F
100
AcDbEntity
  8
1
 62
     2
100
AcDbLine
 10
128.507564206016
 20
73.59726716627495
 30
0.0
 11
129.14187439867
 21
70.55690180878653
 31
0.0
  0
LEADER
  5
51D
330
1F
100
AcDbEntity
  8
1
  6
Continuous
 62
     2
100
AcDbLeader
  3
Standard
 71
     0
 76
     3
 10
128.507564206016
 20
73.59726716627495
 30
0.0
 10
133.842575149085
 20
63.02866320252491
 30
0.0
 10
153.9188258644961
 20
63.02866320252491
 30
0.0
  0
DIMENSION
  5
531
330
1F
100
AcDbEntity
  8
1
100
AcDbDimension
  2
*D1
 10
173.1736867216931
 20
71.70849311703822
 30
0.0
 11
170.8736867216931
 21
125.9735448719853
 31
0.0
 70
    32
  1
<>
 71
     5
 42
-1.0
 53
90.0
  3
ME10_DIM_10
100
AcDbAlignedDimension
 13
76.65011041009507
 23
163.2084931170382
 33
0.0
 14
136.6501104100951
 24
71.70849311703824
 34
0.0
 50
90.0
100
AcDbRotatedDimension
  0
DIMENSION
  5
53E
330
1F
100
AcDbEntity
  8
1
100
AcDbDimension
  2
*D3
 10
173.1736867216931
 20
179.9677285060452
 30
0.0
 11
170.8736867216931
 21
250.0141688513421
 31
0.0
 70
    32
  1
<>
 71
     5
 42
-1.0
 53
90.0
  3
ME10_DIM_11
100
AcDbAlignedDimension
 13
113.6501104100951
 23
268.967728506045
 33
0.0
 14
113.6501104100951
 24
179.967728506045
 34
0.0
 50
90.0
100
AcDbRotatedDimension
  0
DIMENSION
  5
54B
330
1F
100
AcDbEntity
  8
1
100
AcDbDimension
  2
*D4
 10
29.15011041009507
 20
57.81124484269574
 30
0.0
 11
111.6501104100951
 21
60.11124484269573
 31
0.0
 70
    32
  1
<>
 71
     5
 42
-1.0
 53
0.00013888888889
  3
ME10_DIM_12
100
AcDbAlignedDimension
 13
194.1501104100951
 23
83.30849311703844
 33
0.0
 14
29.15011041009507
 24
83.30849311703844
 34
0.0
100
AcDbRotatedDimension
  0
DIMENSION
  5
558
330
1F
100
AcDbEntity
  8
1
100
AcDbDimension
  2
*D5
 10
162.6215775070779
 20
94.70849311703824
 30
0.0
 11
160.321577507078
 21
78.123844388451
 31
0.0
 70
    32
  1
<>
 71
     5
 42
-1.0
 53
90.0
  3
ME10_DIM_13
100
AcDbAlignedDimension
 13
136.6501104100951
 23
71.70849311703824
 33
0.0
 14
167.426739508508
 24
94.70849311703824
 34
0.0
 50
90.0
100
AcDbRotatedDimension
  0
DIMENSION
  5
565
330
1F
100
AcDbEntity
  8
1
100
AcDbDimension
  2
*D6
 10
29.15011041009507
 20
71.70849311703819
 30
0.0
 11
34.65011041009507
 21
74.30849311703821
 31
0.0
 70
    32
  1
<>
 71
     5
 42
-1.0
 53
0.00013888888889
  3
ME10_DIM_14
100
AcDbAlignedDimension
 13
40.15011041009507
 23
81.48799311703823
 33
0.0
 14
29.15011041009507
 24
83.30849311703844
 34
0.0
100
AcDbRotatedDimension
  0
ENDSEC
  0
SECTION
  2
OBJECTS
  0
DICTIONARY
  5
C
330
0
100
AcDbDictionary
281
     1
  3
ACAD_GROUP
350
D
  3
ACAD_LAYOUT
350
1A
  3
ACAD_MLEADERSTYLE
350
567
  3
ACAD_MLINESTYLE
350
17
  3
ACAD_PLOTSETTINGS
350
19
  3
ACAD_PLOTSTYLENAME
350
E
  3
ACAD_TABLESTYLE
350
566
  3
ACAD_VISUALSTYLE
350
2A
  0
DICTIONARY
  5
D
102
{ACAD_REACTORS
330
C
102
}
330
C
100
AcDbDictionary
281
     1
  0
DICTIONARY
  5
1A
102
{ACAD_REACTORS
330
C
102
}
330
C
100
AcDbDictionary
281
     1
  3
Layout1
350
1E
  3
Layout2
350
26
  3
Model
350
22
  0
DICTIONARY
  5
567
102
{ACAD_REACTORS
330
C
102
}
330
C
100
AcDbDictionary
281
     1
  0
DICTIONARY
  5
17
102
{ACAD_REACTORS
330
C
102
}
330
C
100
AcDbDictionary
281
     1
  3
Standard
350
18
  0
DICTIONARY
  5
19
102
{ACAD_REACTORS
330
C
102
}
330
C
100
AcDbDictionary
281
     1
  0
ACDBDICTIONARYWDFLT
  5
E
102
{ACAD_REACTORS
330
C
102
}
330
C
100
AcDbDictionary
281
     1
  3
Normal
350
F
100
AcDbDictionaryWithDefault
340
F
  0
DICTIONARY
  5
566
102
{ACAD_REACTORS
330
C
102
}
330
C
100
AcDbDictionary
281
     1
  0
DICTIONARY
  5
2A
102
{ACAD_REACTORS
330
C
102
}
330
C
100
AcDbDictionary
281
     1
  3
2dWireframe
350
2F
  3
3D Hidden
350
31
  3
3dWireframe
350
30
  3
Basic
350
32
  3
Brighten
350
36
  3
ColorChange
350
3A
  3
Conceptual
350
34
  3
Dim
350
35
  3
Facepattern
350
39
  3
Flat
350
2B
  3
FlatWithEdges
350
2C
  3
Gouraud
350
2D
  3
GouraudWithEdges
350
2E
  3
Linepattern
350
38
  3
Realistic
350
33
  3
Thicken
350
37
  0
LAYOUT
  5
1E
102
{ACAD_REACTORS
330
1A
102
}
330
1A
100
AcDbPlotSettings
  1

  2
none_device
  4

  6

 40
0.0
 41
0.0
 42
0.0
 43
0.0
 44
0.0
 45
0.0
 46
0.0
 47
0.0
 48
0.0
 49
0.0
140
0.0
141
0.0
142
1.0
143
1.0
 70
   688
 72
     0
 73
     0
 74
     5
  7

 75
    16
147
1.0
148
0.0
149
0.0
100
AcDbLayout
  1
Layout1
 70
     1
 71
     1
 10
0.0
 20
0.0
 11
12.0
 21
9.0
 12
0.0
 22
0.0
 32
0.0
 14
1.00000000000000E+20
 24
1.00000000000000E+20
 34
1.00000000000000E+20
 15
-1.00000000000000E+20
 25
-1.00000000000000E+20
 35
-1.00000000000000E+20
146
0.0
 13
0.0
 23
0.0
 33
0.0
 16
1.0
 26
0.0
 36
0.0
 17
0.0
 27
1.0
 37
0.0
 76
     0
330
1B
  0
LAYOUT
  5
26
102
{ACAD_REACTORS
330
1A
102
}
330
1A
100
AcDbPlotSettings
  1

  2
none_device
  4

  6

 40
0.0
 41
0.0
 42
0.0
 43
0.0
 44
0.0
 45
0.0
 46
0.0
 47
0.0
 48
0.0
 49
0.0
140
0.0
141
0.0
142
1.0
143
1.0
 70
   688
 72
     0
 73
     0
 74
     5
  7

 75
    16
147
1.0
148
0.0
149
0.0
100
AcDbLayout
  1
Layout2
 70
     1
 71
     2
 10
0.0
 20
0.0
 11
0.0
 21
0.0
 12
0.0
 22
0.0
 32
0.0
 14
0.0
 24
0.0
 34
0.0
 15
0.0
 25
0.0
 35
0.0
146
0.0
 13
0.0
 23
0.0
 33
0.0
 16
1.0
 26
0.0
 36
0.0
 17
0.0
 27
1.0
 37
0.0
 76
     0
330
23
  0
LAYOUT
  5
22
102
{ACAD_REACTORS
330
1A
102
}
330
1A
100
AcDbPlotSettings
  1

  2
none_device
  4

  6

 40
0.0
 41
0.0
 42
0.0
 43
0.0
 44
0.0
 45
0.0
 46
0.0
 47
0.0
 48
0.0
 49
0.0
140
0.0
141
0.0
142
1.0
143
1.0
 70
  1712
 72
     0
 73
     0
 74
     0
  7

 75
     0
147
1.0
148
0.0
149
0.0
100
AcDbLayout
  1
Model
 70
     1
 71
     0
 10
0.0
 20
0.0
 11
12.0
 21
9.0
 12
0.0
 22
0.0
 32
0.0
 14
26.65281612541799
 24
-3.29150688296175
 34
0.0
 15
197.756840910896
 25
272.7901505632149
 35
0.0
146
0.0
 13
0.0
 23
0.0
 33
0.0
 16
1.0
 26
0.0
 36
0.0
 17
0.0
 27
1.0
 37
0.0
 76
     0
330
1F
331
29
  0
MLINESTYLE
  5
18
102
{ACAD_REACTORS
330
17
102
}
330
17
100
AcDbMlineStyle
  2
Standard
 70
     0
  3

 62
   256
 51
90.0
 52
90.0
 71
     2
 49
0.5
 62
   256
  6
BYLAYER
 49
-0.5
 62
   256
  6
BYLAYER
  0
ACDBPLACEHOLDER
  5
F
102
{ACAD_REACTORS
330
E
102
}
330
E
  0
VISUALSTYLE
  5
2F
102
{ACAD_REACTORS
330
2A
102
}
330
2A
100
AcDbVisualStyle
  2
2dWireframe
 70
     4
 71
     0
 72
     2
 73
     0
 90
        0
 40
-0.6
 41
-30.0
 62
     5
 63
     7
 74
     1
 91
        4
 64
     7
 65
   257
 75
     1
175
     1
 42
1.0
 92
        0
 66
   257
 43
1.0
 76
     1
 77
     6
 78
     2
 67
     7
 79
     5
170
     0
171
     0
290
     0
174
     0
 93
        1
 44
0.0
173
     0
291
     0
 45
0.0
1001
ACAD
1000
AcDbSavedByObjectVersion
1070
     0
  0
VISUALSTYLE
  5
31
102
{ACAD_REACTORS
330
2A
102
}
330
2A
100
AcDbVisualStyle
  2
3D Hidden
 70
     6
 71
     1
 72
     2
 73
     2
 90
        0
 40
-0.6
 41
-30.0
 62
     5
 63
     7
 74
     2
 91
        2
 64
     7
 65
   257
 75
     2
175
     1
 42
40.0
 92
        0
 66
   257
 43
1.0
 76
     1
 77
     6
 78
     2
 67
     7
 79
     3
170
     0
171
     0
290
     0
174
     0
 93
        1
 44
0.0
173
     0
291
     0
 45
0.0
1001
ACAD
1000
AcDbSavedByObjectVersion
1070
     0
  0
VISUALSTYLE
  5
30
102
{ACAD_REACTORS
330
2A
102
}
330
2A
100
AcDbVisualStyle
  2
3dWireframe
 70
     5
 71
     0
 72
     2
 73
     0
 90
        0
 40
-0.6
 41
-30.0
 62
     5
 63
     7
 74
     1
 91
        4
 64
     7
 65
   257
 75
     1
175
     1
 42
1.0
 92
        0
 66
   257
 43
1.0
 76
     1
 77
     6
 78
     2
 67
     7
 79
     5
170
     0
171
     0
290
     0
174
     0
 93
        1
 44
0.0
173
     0
291
     0
 45
0.0
1001
ACAD
1000
AcDbSavedByObjectVersion
1070
     0
  0
VISUALSTYLE
  5
32
102
{ACAD_REACTORS
330
2A
102
}
330
2A
100
AcDbVisualStyle
  2
Basic
 70
     7
 71
     1
 72
     0
 73
     1
 90
        0
 40
-0.6
 41
-30.0
 62
     5
 63
     7
 74
     0
 91
        4
 64
     7
 65
   257
 75
     1
175
     1
 42
1.0
 92
        8
 66
     7
 43
1.0
 76
     1
 77
     6
 78
     2
 67
     7
 79
     5
170
     0
171
     0
290
     0
174
     0
 93
        1
 44
0.0
173
     0
291
     1
 45
0.0
1001
ACAD
1000
AcDbSavedByObjectVersion
1070
     0
  0
VISUALSTYLE
  5
36
102
{ACAD_REACTORS
330
2A
102
}
330
2A
100
AcDbVisualStyle
  2
Brighten
 70
    12
 71
     2
 72
     2
 73
     0
 90
        0
 40
-0.6
 41
-30.0
 62
     5
 63
     7
 74
     1
 91
        4
 64
     7
 65
   257
 75
     1
175
     1
 42
1.0
 92
        8
 66
     7
 43
1.0
 76
     1
 77
     6
 78
     2
 67
     7
 79
     5
170
     0
171
     0
290
     0
174
     0
 93
        1
 44
50.0
173
     0
291
     1
 45
0.0
1001
ACAD
1000
AcDbSavedByObjectVersion
1070
     0
  0
VISUALSTYLE
  5
3A
102
{ACAD_REACTORS
330
2A
102
}
330
2A
100
AcDbVisualStyle
  2
ColorChange
 70
    16
 71
     2
 72
     2
 73
     3
 90
        0
 40
-0.6
 41
-30.0
 62
     5
 63
     8
 74
     1
 91
        4
 64
     7
 65
   257
 75
     1
175
     1
 42
1.0
 92
        8
 66
     8
 43
1.0
 76
     1
 77
     6
 78
     2
 67
     7
 79
     5
170
     0
171
     0
290
     0
174
     0
 93
        1
 44
0.0
173
     0
291
     1
 45
0.0
1001
ACAD
1000
AcDbSavedByObjectVersion
1070
     0
  0
VISUALSTYLE
  5
34
102
{ACAD_REACTORS
330
2A
102
}
330
2A
100
AcDbVisualStyle
  2
Conceptual
 70
     9
 71
     3
 72
     2
 73
     0
 90
        0
 40
-0.6
 41
-30.0
 62
     5
 63
     7
 74
     2
 91
        2
 64
     7
 65
   257
 75
     1
175
     1
 42
40.0
 92
        8
 66
     7
 43
1.0
 76
     1
 77
     6
 78
     2
 67
     7
 79
     3
170
     0
171
     0
290
     0
174
     0
 93
        1
 44
0.0
173
     0
291
     0
 45
0.0
1001
ACAD
1000
AcDbSavedByObjectVersion
1070
     0
  0
VISUALSTYLE
  5
35
102
{ACAD_REACTORS
330
2A
102
}
330
2A
100
AcDbVisualStyle
  2
Dim
 70
    11
 71
     2
 72
     2
 73
     0
 90
        0
 40
-0.6
 41
-30.0
 62
     5
 63
     7
 74
     1
 91
        4
 64
     7
 65
   257
 75
     1
175
     1
 42
1.0
 92
        8
 66
     7
 43
1.0
 76
     1
 77
     6
 78
     2
 67
     7
 79
     5
170
     0
171
     0
290
     0
174
     0
 93
        1
 44
-50.0
173
     0
291
     1
 45
0.0
1001
ACAD
1000
AcDbSavedByObjectVersion
1070
     0
  0
VISUALSTYLE
  5
39
102
{ACAD_REACTORS
330
2A
102
}
330
2A
100
AcDbVisualStyle
  2
Facepattern
 70
    15
 71
     2
 72
     2
 73
     0
 90
        0
 40
-0.6
 41
-30.0
 62
     5
 63
     7
 74
     1
 91
        4
 64
     7
 65
   257
 75
     1
175
     1
 42
1.0
 92
        8
 66
     7
 43
1.0
 76
     1
 77
     6
 78
     2
 67
     7
 79
     5
170
     0
171
     0
290
     0
174
     0
 93
        1
 44
0.0
173
     0
291
     1
 45
0.0
1001
ACAD
1000
AcDbSavedByObjectVersion
1070
     0
  0
VISUALSTYLE
  5
2B
102
{ACAD_REACTORS
330
2A
102
}
330
2A
100
AcDbVisualStyle
  2
Flat
 70
     0
 71
     2
 72
     1
 73
     1
 90
        2
 40
-0.6
 41
30.0
 62
     5
 63
     7
 74
     0
 91
        4
 64
     7
 65
   257
 75
     1
175
     1
 42
1.0
 92
        8
 66
     7
 43
1.0
 76
     1
 77
     6
 78
     2
 67
     7
 79
     5
170
     0
171
     0
290
     0
174
     0
 93
       13
 44
0.0
173
     0
291
     1
 45
0.0
1001
ACAD
1000
AcDbSavedByObjectVersion
1070
     0
  0
VISUALSTYLE
  5
2C
102
{ACAD_REACTORS
330
2A
102
}
330
2A
100
AcDbVisualStyle
  2
FlatWithEdges
 70
     1
 71
     2
 72
     1
 73
     1
 90
        2
 40
-0.6
 41
30.0
 62
     5
 63
     7
 74
     1
 91
        4
 64
     7
 65
   257
 75
     1
175
     1
 42
1.0
 92
        0
 66
   257
 43
1.0
 76
     1
 77
     6
 78
     2
 67
     7
 79
     5
170
     0
171
     0
290
     0
174
     0
 93
       13
 44
0.0
173
     0
291
     1
 45
0.0
1001
ACAD
1000
AcDbSavedByObjectVersion
1070
     0
  0
VISUALSTYLE
  5
2D
102
{ACAD_REACTORS
330
2A
102
}
330
2A
100
AcDbVisualStyle
  2
Gouraud
 70
     2
 71
     2
 72
     2
 73
     1
 90
        2
 40
-0.6
 41
30.0
 62
     5
 63
     7
 74
     0
 91
        4
 64
     7
 65
   257
 75
     1
175
     1
 42
1.0
 92
        0
 66
     7
 43
1.0
 76
     1
 77
     6
 78
     2
 67
     7
 79
     5
170
     0
171
     0
290
     0
174
     0
 93
       13
 44
0.0
173
     0
291
     1
 45
0.0
1001
ACAD
1000
AcDbSavedByObjectVersion
1070
     0
  0
VISUALSTYLE
  5
2E
102
{ACAD_REACTORS
330
2A
102
}
330
2A
100
AcDbVisualStyle
  2
GouraudWithEdges
 70
     3
 71
     2
 72
     2
 73
     1
 90
        2
 40
-0.6
 41
30.0
 62
     5
 63
     7
 74
     1
 91
        4
 64
     7
 65
   257
 75
     1
175
     1
 42
1.0
 92
        0
 66
   257
 43
1.0
 76
     1
 77
     6
 78
     2
 67
     7
 79
     5
170
     0
171
     0
290
     0
174
     0
 93
       13
 44
0.0
173
     0
291
     1
 45
0.0
1001
ACAD
1000
AcDbSavedByObjectVersion
1070
     0
  0
VISUALSTYLE
  5
38
102
{ACAD_REACTORS
330
2A
102
}
330
2A
100
AcDbVisualStyle
  2
Linepattern
 70
    14
 71
     2
 72
     2
 73
     0
 90
        0
 40
-0.6
 41
-30.0
 62
     5
 63
     7
 74
     1
 91
        4
 64
     7
 65
   257
 75
     7
175
     7
 42
1.0
 92
        8
 66
     7
 43
1.0
 76
     1
 77
     6
 78
     2
 67
     7
 79
     5
170
     0
171
     0
290
     0
174
     0
 93
        1
 44
0.0
173
     0
291
     1
 45
0.0
1001
ACAD
1000
AcDbSavedByObjectVersion
1070
     0
  0
VISUALSTYLE
  5
33
102
{ACAD_REACTORS
330
2A
102
}
330
2A
100
AcDbVisualStyle
  2
Realistic
 70
     8
 71
     2
 72
     2
 73
     0
 90
        0
 40
-0.6
 41
-30.0
 62
     5
 63
     7
 74
     1
 91
        0
 64
     7
 65
   257
 75
     1
175
     1
 42
1.0
 92
        8
 66
     8
 43
1.0
 76
     1
 77
     6
 78
     2
 67
     7
 79
     5
170
     0
171
     0
290
     0
174
     0
 93
       13
 44
0.0
173
     0
291
     0
 45
0.0
1001
ACAD
1000
AcDbSavedByObjectVersion
1070
     0
  0
VISUALSTYLE
  5
37
102
{ACAD_REACTORS
330
2A
102
}
330
2A
100
AcDbVisualStyle
  2
Thicken
 70
    13
 71
     2
 72
     2
 73
     0
 90
        0
 40
-0.6
 41
-30.0
 62
     5
 63
     7
 74
     1
 91
        4
 64
     7
 65
   257
 75
     1
175
     1
 42
1.0
 92
       12
 66
     7
 43
1.0
 76
     1
 77
     6
 78
     2
 67
     7
 79
     5
170
     0
171
     0
290
     0
174
     0
 93
        1
 44
0.0
173
     0
291
     1
 45
0.0
1001
ACAD
1000
AcDbSavedByObjectVersion
1070
     0
  0
ENDSEC
  0
EOF
