  0
SECTION
  2
HEADER
  9
$ACADVER
  1
AC1009
  9
$INSBASE
 10
0
 20
0
  9
$EXTMIN
 10
16.48200512371909
 20
23.625
  9
$EXTMAX
 10
680.6503339941
 20
681.0875649249613
  9
$LIMMIN
 10
16.48200512371909
 20
23.625
  9
$LIMMAX
 10
680.6503339941
 20
681.0875649249613
  9
$VIEWCTR
 10
10
 20
10
  9
$VIEWSIZE
 40
10
  9
$SNAPMODE
 70
0
  9
$SNAPUNIT
 10
1
 20
1
  9
$SNAPBASE
 10
0
 20
0
  9
$SNAPANG
 50
0
  9
$SNAPSTYLE
 70
0
  9
$SNAPISOPAIR
 70
0
  9
$GRIDMODE
 70
0
  9
$GRIDUNIT
 10
0
 20
0
  9
$ORTHOMODE
 70
0
  9
$REGENMODE
 70
1
  9
$FILLMODE
 70
1
  9
$QTEXTMODE
 70
0
  9
$DRAGMODE
 70
2
  9
$LTSCALE
 40
1
  9
$OSMODE
 70
0
  9
$ATTMODE
 70
1
  9
$TEXTSIZE
 40
3.5
  9
$TRACEWID
 40
0.5
  9
$TEXTSTYLE
  7
STANDARD
  9
$CLAYER
  8
0
  9
$CELTYPE
  6
BYLAYER
  9
$CECOLOR
 62
256
  9
$DIMSCALE
 40
1
  9
$DIMASZ
 40
0.18
  9
$DIMEXO
 40
0.0625
  9
$DIMDLI
 40
0.38
  9
$DIMRND
 40
0
  9
$DIMDLE
 40
0
  9
$DIMEXE
 40
0.18
  9
$DIMTP
 40
0
  9
$DIMTM
 40
0
  9
$DIMTXT
 40
0.18
  9
$DIMCEN
 40
0.09
  9
$DIMTSZ
 40
0
  9
$DIMTOL
 70
0
  9
$DIMLIM
 70
0
  9
$DIMTIH
 70
1
  9
$DIMTOH
 70
1
  9
$DIMSE1
 70
0
  9
$DIMSE2
 70
0
  9
$DIMTAD
 70
0
  9
$DIMZIN
 70
0
  9
$DIMBLK
  1

  9
$DIMASO
 70
1
  9
$DIMSHO
 70
1
  9
$DIMPOST
  1

  9
$DIMAPOST
  1

  9
$DIMALT
 70
0
  9
$DIMALTD
 70
2
  9
$DIMALTF
 40
25.4
  9
$DIMLFAC
 40
1
  9
$DIMTOFL
 70
0
  9
$DIMTVP
 40
0
  9
$DIMTIX
 70
0
  9
$DIMSOXD
 70
0
  9
$DIMSAH
 70
0
  9
$DIMBLK1
  1

  9
$DIMBLK2
  1

  9
$DIMSTYLE
  2
*UNNAMED
  9
$DIMCLRD
 70
0
  9
$DIMCLRE
 70
0
  9
$DIMCLRT
 70
0
  9
$DIMTFAC
 40
1
  9
$DIMGAP
 40
0.09
  9
$LUNITS
 70
2
  9
$LUPREC
 70
4
  9
$AXISMODE
 70
0
  9
$AXISUNIT
 10
0
 20
0
  9
$SKETCHINC
 40
0.1
  9
$FILLETRAD
 40
2
  9
$AUNITS
 70
0
  9
$AUPREC
 70
0
  9
$MENU
  1
ACAD
  9
$ELEVATION
 40
0
  9
$THICKNESS
 40
0
  9
$VIEWDIR
 10
0
 20
0
 30
1
  9
$LIMCHECK
 70
0
  9
$BLIPMODE
 70
1
  9
$CHAMFERA
 40
0
  9
$CHAMFERB
 40
0
  9
$FASTZOOM
 70
1
  9
$SKPOLY
 70
0
  9
$ANGBASE
 50
0
  9
$ANGDIR
 70
0
  9
$PDMODE
 70
0
  9
$PDSIZE
 40
0
  9
$PLINEWID
 40
0
  9
$COORDS
 70
2
  0
ENDSEC
  0
SECTION
  2
TABLES
  0
TABLE
  2
DIMSTYLE
 70
2
  0
DIMSTYLE
  2
DMST_1
 70
0
  3

  4

  5

  6

  7

 40
1
 41
3
 42
1
 43
7
 44
1
 45
0
 46
0
 47
0
 48
0
140
3
141
0
142
0
143
25.4
144
1
145
0
146
1
147
0.09
 71
0
 72
0
 73
0
 74
0
 75
0
 76
0
 77
1
 78
1
170
0
171
2
172
0
173
0
174
0
175
0
176
2
177
2
178
2
  0
DIMSTYLE
  2
DMST_2
 70
0
  3

  4

  5

  6

  7

 40
1
 41
3
 42
1
 43
7
 44
1
 45
0
 46
0
 47
0
 48
0
140
3
141
0
142
0
143
25.4
144
1
145
0
146
1
147
0.09
 71
0
 72
0
 73
0
 74
0
 75
0
 76
0
 77
1
 78
1
170
0
171
2
172
1
173
0
174
0
175
0
176
2
177
2
178
2
  0
ENDTAB
  0
TABLE
  2
LTYPE
 70
9
  0
LTYPE
  2
CONTINUOUS
 70
64
  3
Solid line
 72
65
 73
0
 40
0
  0
LTYPE
  2
BORDER
 70
64
  3
__ __ . __ __ .
 72
65
 73
6
 40
30.58669935587281
 49
8.739056958820802
 49
-4.369528479410401
 49
8.739056958820802
 49
-4.369528479410401
 49
0
 49
-4.369528479410401
  0
LTYPE
  2
CENTER
 70
64
  3
____ _ ____ _
 72
65
 73
4
 40
34.95622783528321
 49
21.84764239705201
 49
-4.369528479410401
 49
4.369528479410401
 49
-4.369528479410401
  0
LTYPE
  2
DASHDOT
 70
64
  3
__ . __ . __ .
 72
65
 73
4
 40
17.4781139176416
 49
8.739056958820802
 49
-4.369528479410401
 49
0
 49
-4.369528479410401
  0
LTYPE
  2
DASHED
 70
64
  3
__ __ __ __ __
 72
65
 73
2
 40
13.1085854382312
 49
8.739056958820802
 49
-4.369528479410401
  0
LTYPE
  2
DIVIDE
 70
64
  3
__ . . __ . . 
 72
65
 73
6
 40
21.84764239705201
 49
8.739056958820802
 49
-4.369528479410401
 49
0
 49
-4.369528479410401
 49
0
 49
-4.369528479410401
  0
LTYPE
  2
DOT
 70
64
  3
..............
 72
65
 73
4
 40
8.739056958820802
 49
0
 49
-4.369528479410401
 49
0
 49
-4.369528479410401
  0
LTYPE
  2
HIDDEN
 70
64
  3
_ _ _ _ _ _ _
 72
65
 73
2
 40
6.554292719115601
 49
4.369528479410401
 49
-2.184764239705201
  0
LTYPE
  2
PHANTOM
 70
64
  3
_____ _ _ _____ _ _ 
 72
65
 73
6
 40
43.69528479410401
 49
21.84764239705201
 49
-4.369528479410401
 49
4.369528479410401
 49
-4.369528479410401
 49
4.369528479410401
 49
-4.369528479410401
  0
ENDTAB
  0
TABLE
  2
LAYER
 70
3
  0
LAYER
  2
0
 70
0
 62
7
  6
CONTINUOUS
  0
LAYER
  2
1
 70
0
 62
7
  6
CONTINUOUS
  0
ENDTAB
  0
TABLE
  2
STYLE
 70
4
  0
STYLE
  2
STANDARD
 70
0
 40
0
 41
1
 50
0
 71
0
 42
3.5
  3
txt
  4

  0
STYLE
  2
SIMPLEX
 70
0
 40
0
 41
1
 50
0
 71
0
 42
3.5
  3
simplex
  4

  0
STYLE
  2
COMPLEX
 70
0
 40
0
 41
1
 50
0
 71
0
 42
3.5
  3
complex
  4

  0
STYLE
  2
ITALIC
 70
0
 40
0
 41
1
 50
0
 71
0
 42
3.5
  3
italic
  4

  0
ENDTAB
  0
TABLE
  2
VIEW
 70
0
  0
ENDTAB
  0
ENDSEC
  0
SECTION
  2
BLOCKS
  0
BLOCK
  8
1
  2
*D0
 70
1
 10
0
 20
0
 30
0
  0
LINE
  8
1
 62
2
 10
41.48200512371913
 20
120.3578660903613
 30
0
 11
184.4820103790001
 21
120.3578660903613
 31
0
  0
LINE
  8
1
 62
2
 10
41.48200512371913
 20
120.3578660903613
 30
0
 11
184.4820103790001
 21
120.3578660903613
 31
0
  0
LINE
  8
1
 62
2
 10
41.48200512371913
 20
120.3578660903613
 30
0
 11
184.4820103790001
 21
120.3578660903613
 31
0
  0
LINE
  8
1
 62
2
 10
41.48200512371913
 20
120.3578660903613
 30
0
 11
184.4820103790001
 21
120.3578660903613
 31
0
  0
LINE
  8
1
 62
2
 10
41.48200512371913
 20
184.087563752809
 30
0
 11
41.48200512371913
 21
119.3578660903613
 31
0
  0
LINE
  8
1
 62
2
 10
184.4820103790001
 20
130.05590459563
 30
0
 11
184.4820103790001
 21
119.3578660903613
 31
0
  0
SOLID
  8
1
 62
2
 10
184.4820103790001
 20
120.3578660903613
 30
0
 11
181.4820103790001
 21
119.9678660903613
 31
0
 12
181.4820103790001
 22
120.7478660903613
 32
0
 13
181.4820103790001
 23
120.7478660903613
 33
0
  0
SOLID
  8
1
 62
2
 10
41.48200512371913
 20
120.3578660903613
 30
0
 11
44.48200512371913
 21
120.7478660903613
 31
0
 12
44.48200512371913
 22
119.9678660903613
 32
0
 13
44.48200512371913
 23
119.9678660903613
 33
0
  0
TEXT
  8
1
 62
2
 10
109.6302022802969
 20
121.3578660903613
 30
0
 40
3
  1
143
 41
0.8732691000000002
 51
10
  0
ENDBLK
  8
0
  0
BLOCK
  8
1
  2
*D1
 70
1
 10
0
 20
0
 30
0
  0
LINE
  8
1
 62
2
 10
184.4820103790001
 20
120.3578660903613
 30
0
 11
311.4820131704091
 21
120.3578660903613
 31
0
  0
LINE
  8
1
 62
2
 10
184.4820103790001
 20
120.3578660903613
 30
0
 11
311.4820131704091
 21
120.3578660903613
 31
0
  0
LINE
  8
1
 62
2
 10
184.4820103790001
 20
120.3578660903613
 30
0
 11
311.4820131704091
 21
120.3578660903613
 31
0
  0
LINE
  8
1
 62
2
 10
184.4820103790001
 20
120.3578660903613
 30
0
 11
311.4820131704091
 21
120.3578660903613
 31
0
  0
LINE
  8
1
 62
2
 10
184.4820103790001
 20
130.05590459563
 30
0
 11
184.4820103790001
 21
119.3578660903613
 31
0
  0
LINE
  8
1
 62
2
 10
311.4820131704091
 20
184.087563752809
 30
0
 11
311.4820131704091
 21
119.3578660903613
 31
0
  0
SOLID
  8
1
 62
2
 10
311.4820131704091
 20
120.3578660903613
 30
0
 11
308.4820131704091
 21
119.9678660903613
 31
0
 12
308.4820131704091
 22
120.7478660903613
 32
0
 13
308.4820131704091
 23
120.7478660903613
 33
0
  0
SOLID
  8
1
 62
2
 10
184.4820103790001
 20
120.3578660903613
 30
0
 11
187.4820103790001
 21
120.7478660903613
 31
0
 12
187.4820103790001
 22
119.9678660903613
 32
0
 13
187.4820103790001
 23
119.9678660903613
 33
0
  0
TEXT
  8
1
 62
2
 10
244.6302063036419
 20
121.3578660903613
 30
0
 40
3
  1
127
 41
0.8732691000000002
 51
10
  0
ENDBLK
  8
0
  0
BLOCK
  8
1
  2
*D2
 70
1
 10
0
 20
0
 30
0
  0
LINE
  8
1
 62
2
 10
347.866259271009
 20
141.0875644282616
 30
0
 11
347.866259271009
 21
241.0875649249613
 31
0
  0
LINE
  8
1
 62
2
 10
235.48201062735
 20
141.0875644282616
 30
0
 11
348.866259271009
 21
141.0875644282616
 31
0
  0
LINE
  8
1
 62
2
 10
337.4820131704091
 20
241.0875649249613
 30
0
 11
348.866259271009
 21
241.0875649249613
 31
0
  0
SOLID
  8
1
 62
2
 10
347.866259271009
 20
141.0875644282616
 30
0
 11
347.476259271009
 21
144.0875644282616
 31
0
 12
348.256259271009
 22
144.0875644282616
 32
0
 13
348.256259271009
 23
144.0875644282616
 33
0
  0
SOLID
  8
1
 62
2
 10
347.866259271009
 20
241.0875649249613
 30
0
 11
348.256259271009
 21
238.0875649249613
 31
0
 12
347.476259271009
 22
238.0875649249613
 32
0
 13
347.476259271009
 23
238.0875649249613
 33
0
  0
TEXT
  8
1
 62
2
 10
346.866259271009
 20
187.7357592055488
 30
0
 40
3
  1
100
 50
90
 41
0.8732691000000002
 51
10
  0
ENDBLK
  8
0
  0
BLOCK
  8
1
  2
*D3
 70
1
 10
0
 20
0
 30
0
  0
LINE
  8
1
 62
2
 10
354.866259271009
 20
141.0875644282616
 30
0
 11
354.866259271009
 21
391.4375678662347
 31
0
  0
LINE
  8
1
 62
2
 10
136.4297835777358
 20
391.4375678662347
 30
0
 11
355.866259271009
 21
391.4375678662347
 31
0
  0
LINE
  8
1
 62
2
 10
235.48201062735
 20
141.0875644282616
 30
0
 11
355.866259271009
 21
141.0875644282616
 31
0
  0
SOLID
  8
1
 62
2
 10
354.866259271009
 20
141.0875644282616
 30
0
 11
354.476259271009
 21
144.0875644282616
 31
0
 12
355.256259271009
 22
144.0875644282616
 32
0
 13
355.256259271009
 23
144.0875644282616
 33
0
  0
SOLID
  8
1
 62
2
 10
354.866259271009
 20
391.4375678662347
 30
0
 11
355.256259271009
 21
388.4375678662347
 31
0
 12
354.476259271009
 22
388.4375678662347
 32
0
 13
354.476259271009
 23
388.4375678662347
 33
0
  0
TEXT
  8
1
 62
2
 10
353.866259271009
 20
262.9107606761854
 30
0
 40
3
  1
251
 50
90
 41
0.8732691000000002
 51
10
  0
ENDBLK
  8
0
  0
BLOCK
  8
1
  2
*D4
 70
1
 10
0
 20
0
 30
0
  0
LINE
  8
1
 62
2
 10
41.48200512371909
 20
108.3578660903613
 30
0
 11
311.4820131704091
 21
108.3578660903613
 31
0
  0
LINE
  8
1
 62
2
 10
41.48200512371909
 20
108.3578660903613
 30
0
 11
311.4820131704091
 21
108.3578660903613
 31
0
  0
LINE
  8
1
 62
2
 10
41.48200512371909
 20
184.0875637528091
 30
0
 11
41.48200512371909
 21
107.3578660903613
 31
0
  0
LINE
  8
1
 62
2
 10
311.4820131704091
 20
184.0875637528091
 30
0
 11
311.4820131704091
 21
107.3578660903613
 31
0
  0
SOLID
  8
1
 62
2
 10
311.4820131704091
 20
108.3578660903613
 30
0
 11
308.4820131704091
 21
107.9678660903613
 31
0
 12
308.4820131704091
 22
108.7478660903613
 32
0
 13
308.4820131704091
 23
108.7478660903613
 33
0
  0
SOLID
  8
1
 62
2
 10
41.48200512371909
 20
108.3578660903613
 30
0
 11
44.48200512371909
 21
108.7478660903613
 31
0
 12
44.48200512371909
 22
107.9678660903613
 32
0
 13
44.48200512371909
 23
107.9678660903613
 33
0
  0
TEXT
  8
1
 62
2
 10
180.6175199079373
 20
109.3578660903613
 30
0
 40
3
  1
270
 41
0.8910000000000001
 51
10
  0
ENDBLK
  8
0
  0
BLOCK
  8
1
  2
*D5
 70
1
 10
0
 20
0
 30
0
  0
LINE
  8
1
 62
2
 10
354.866259271009
 20
478.0875636434296
 30
0
 11
354.866259271009
 21
664.0875662067931
 31
0
  0
LINE
  8
1
 62
2
 10
310.4820091371751
 20
664.0875662067931
 30
0
 11
355.866259271009
 21
664.0875662067931
 31
0
  0
LINE
  8
1
 62
2
 10
310.4820091371751
 20
478.0875636434296
 30
0
 11
355.866259271009
 21
478.0875636434296
 31
0
  0
SOLID
  8
1
 62
2
 10
354.866259271009
 20
478.0875636434296
 30
0
 11
354.476259271009
 21
481.0875636434296
 31
0
 12
355.256259271009
 22
481.0875636434296
 32
0
 13
355.256259271009
 23
481.0875636434296
 33
0
  0
SOLID
  8
1
 62
2
 10
354.866259271009
 20
664.0875662067931
 30
0
 11
355.256259271009
 21
661.0875662067931
 31
0
 12
354.476259271009
 22
661.0875662067931
 32
0
 13
354.476259271009
 23
661.0875662067931
 33
0
  0
TEXT
  8
1
 62
2
 10
353.866259271009
 20
567.6730744538986
 30
0
 40
3
  1
186
 50
90
 41
0.8910000000000001
 51
10
  0
ENDBLK
  8
0
  0
BLOCK
  8
1
  2
*D6
 70
1
 10
0
 20
0
 30
0
  0
LINE
  8
1
 62
2
 10
478.6705529693803
 20
236.4961425403049
 30
0
 11
654.422008108285
 21
250.9546283551118
 31
0
  0
SOLID
  8
1
 62
2
 10
590.2934677886196
 20
245.6789873096175
 30
0
 11
587.3355442324735
 21
245.0443313114613
 31
0
 12
587.2715922771948
 22
245.8217051902455
 32
0
 13
587.2715922771948
 23
245.8217051902455
 33
0
  0
SOLID
  8
1
 62
2
 10
478.6705529693804
 20
236.4961425403049
 30
0
 11
481.6284765255266
 21
237.1307985384611
 31
0
 12
481.6924284808052
 22
236.3534246596769
 32
0
 13
481.6924284808052
 23
236.3534246596769
 33
0
  0
TEXT
  8
1
 62
2
 10
648.4309993038024
 20
251.4651462457853
 30
0
 40
3
  1
112
 50
4.702942161440064
 41
0.8732691000000002
 51
10
  0
TEXT
  8
1
 62
2
 10
644.3159199058458
 20
251.1266123937889
 30
0
 40
3
  1
%%c
 50
4.702942161440064
 41
0.8732691000000002
 51
10
  0
ENDBLK
  8
0
  0
BLOCK
  8
1
  2
*D7
 70
1
 10
0
 20
0
 30
0
  0
LINE
  8
1
 62
2
 10
465.5832926772573
 20
228.7195981675611
 30
0
 11
653.750525968449
 21
262.4973833543899
 31
0
  0
SOLID
  8
1
 62
2
 10
603.3807280807428
 20
253.4555316823615
 30
0
 11
600.4968331082422
 21
252.541611670771
 31
0
 12
600.3590186201479
 22
253.3093402470734
 32
0
 13
600.3590186201479
 23
253.3093402470734
 33
0
  0
SOLID
  8
1
 62
2
 10
465.5832926772573
 20
228.7195981675611
 30
0
 11
468.4671876497579
 21
229.6335181791516
 31
0
 12
468.6050021378521
 22
228.8657896028492
 32
0
 13
468.6050021378521
 23
228.8657896028492
 33
0
  0
TEXT
  8
1
 62
2
 10
646.8522973730792
 20
262.2750706153619
 30
0
 40
3
  1
140
 50
10.17674366643552
 41
0.8732691000000002
 51
10
  0
TEXT
  8
1
 62
2
 10
642.7882760137488
 20
261.5455406219134
 30
0
 40
3
  1
%%c
 50
10.17674366643552
 41
0.8732691000000002
 51
10
  0
ENDBLK
  8
0
  0
BLOCK
  8
1
  2
*D8
 70
1
 10
0
 20
0
 30
0
  0
LINE
  8
1
 62
2
 10
462.0545389842523
 20
221.6129333336642
 30
0
 11
651.9228035716703
 21
272.6655854905502
 31
0
  0
SOLID
  8
1
 62
2
 10
606.9094817737478
 20
260.5621965162582
 30
0
 11
604.1136509744616
 21
259.406588389875
 31
0
 12
603.9111148039003
 22
260.1598340998623
 32
0
 13
603.9111148039003
 23
260.1598340998623
 33
0
  0
SOLID
  8
1
 62
2
 10
462.0545389842523
 20
221.6129333336642
 30
0
 11
464.8503697835384
 21
222.7685414600474
 31
0
 12
465.0529059540997
 22
222.01529575006
 32
0
 13
465.0529059540997
 23
222.01529575006
 33
0
  0
TEXT
  8
1
 62
2
 10
645.0683974578207
 20
271.8580599279006
 30
0
 40
3
  1
150
 50
15.04999296249222
 41
0.8732691000000002
 51
10
  0
TEXT
  8
1
 62
2
 10
641.081042097211
 20
270.7859214813127
 30
0
 40
3
  1
%%c
 50
15.04999296249222
 41
0.8732691000000002
 51
10
  0
ENDBLK
  8
0
  0
BLOCK
  8
1
  2
*D9
 70
1
 10
0
 20
0
 30
0
  0
LINE
  8
1
 62
2
 10
447.1639549042924
 20
209.0788627286082
 30
0
 11
648.4426606667036
 21
282.8628025585846
 31
0
  0
SOLID
  8
1
 62
2
 10
621.8000658537078
 20
273.0962671213142
 30
0
 11
619.1175844016052
 21
271.6975558361929
 31
0
 12
618.8491243160015
 22
272.4299008248681
 32
0
 13
618.8491243160015
 23
272.4299008248681
 33
0
  0
SOLID
  8
1
 62
2
 10
447.1639549042923
 20
209.0788627286082
 30
0
 11
449.8464363563949
 21
210.4775740137295
 31
0
 12
450.1148964419986
 22
209.7452290250543
 32
0
 13
450.1148964419986
 23
209.7452290250543
 33
0
  0
TEXT
  8
1
 62
2
 10
641.6867246970529
 20
281.4513104821305
 30
0
 40
3
  1
186
 50
20.13172336486325
 41
0.8732691000000002
 51
10
  0
TEXT
  8
1
 62
2
 10
637.8100086697442
 20
280.0301994857467
 30
0
 40
3
  1
%%c
 50
20.13172336486325
 41
0.8732691000000002
 51
10
  0
ENDBLK
  8
0
  0
ENDSEC
  0
SECTION
  2
ENTITIES
  0
POLYLINE
  8
0
 62
7
 66
1
  0
VERTEX
  8
0
 10
240.5472755167041
 20
219.2740550975351
 30
0
  0
VERTEX
  8
0
 10
236.4866966150371
 20
220.7050752343204
 30
0
  0
VERTEX
  8
0
 10
232.39396904109
 20
221.6100880582309
 30
0
  0
VERTEX
  8
0
 10
228.2568749688851
 20
222.0635159815266
 30
0
  0
VERTEX
  8
0
 10
224.06319657364
 20
222.1397814164694
 30
0
  0
VERTEX
  8
0
 10
219.8007160296791
 20
221.9133067753193
 30
0
  0
VERTEX
  8
0
 10
215.4572155116241
 20
221.4585144706372
 30
0
  0
VERTEX
  8
0
 10
211.020477193794
 20
220.8498269143821
 30
0
  0
VERTEX
  8
0
 10
206.4782832508111
 20
220.1616665191179
 30
0
  0
VERTEX
  8
0
 10
201.8184158575981
 20
219.4684556971044
 30
0
  0
VERTEX
  8
0
 10
197.0286571881751
 20
218.8446168602997
 30
0
  0
VERTEX
  8
0
 10
192.0972374860578
 20
218.3639442365749
 30
0
  0
VERTEX
  8
0
 10
187.0342448685485
 20
218.069587691599
 30
0
  0
VERTEX
  8
0
 10
181.8810354842356
 20
217.9608598491788
 30
0
  0
VERTEX
  8
0
 10
176.6813715389828
 20
218.0337000833553
 30
0
  0
VERTEX
  8
0
 10
171.4790152377584
 20
218.2840477681686
 30
0
  0
VERTEX
  8
0
 10
166.3177287867254
 20
218.7078422773594
 30
0
  0
VERTEX
  8
0
 10
161.2412743914499
 20
219.3010229852672
 30
0
  0
VERTEX
  8
0
 10
156.2934142571974
 20
220.0595292653326
 30
0
  0
VERTEX
  8
0
 10
151.5179105901314
 20
220.9793004918967
 30
0
  0
VERTEX
  8
0
 10
146.9585255952204
 20
222.0562760386994
 30
0
  0
VERTEX
  8
0
 10
142.6565181055528
 20
223.28643599278
 30
0
  0
VERTEX
  8
0
 10
138.6193811634528
 20
224.6663095815731
 30
0
  0
VERTEX
  8
0
 10
134.830382518089
 20
226.1928200147105
 30
0
  0
VERTEX
  8
0
 10
131.2722608413326
 20
227.8628991058223
 30
0
  0
VERTEX
  8
0
 10
127.9277548050534
 20
229.6734786682374
 30
0
  0
VERTEX
  8
0
 10
124.7796030814241
 20
231.6214905164881
 30
0
  0
VERTEX
  8
0
 10
121.8105443417155
 20
233.7038664639032
 30
0
  0
VERTEX
  8
0
 10
119.0033172580995
 20
235.9175383244148
 30
0
  0
VERTEX
  8
0
 10
116.3406605021476
 20
238.2594379116528
 30
0
  0
VERTEX
  8
0
 10
113.805312746031
 20
240.7264970392472
 30
0
  0
VERTEX
  8
0
 10
111.3800126613216
 20
243.3156475211291
 30
0
  0
VERTEX
  8
0
 10
109.0474989198908
 20
246.0238211712296
 30
0
  0
VERTEX
  8
0
 10
106.7905101936092
 20
248.8479498031776
 30
0
  0
VERTEX
  8
0
 10
104.5917851543493
 20
251.7849652309034
 30
0
  0
VERTEX
  8
0
 10
102.4340624739818
 20
254.8317992677395
 30
0
  0
VERTEX
  8
0
 10
100.3000808240784
 20
257.9853837276152
 30
0
  0
VERTEX
  8
0
 10
98.17257887651181
 20
261.2426504247607
 30
0
  0
VERTEX
  8
0
 10
96.03429530315111
 20
264.6005311722075
 30
0
  0
VERTEX
  8
0
 10
93.86796877616985
 20
268.0559577844845
 30
0
  0
VERTEX
  8
0
 10
91.6563379668371
 20
271.6058620746236
 30
0
  0
SEQEND
  8
0
  0
POLYLINE
  8
0
 62
7
 66
1
  0
VERTEX
  8
0
 10
181.863084758814
 20
142.408939785236
 30
0
  0
VERTEX
  8
0
 10
179.3347786872266
 20
142.346258051358
 30
0
  0
VERTEX
  8
0
 10
174.1483569422437
 20
142.240243741012
 30
0
  0
VERTEX
  8
0
 10
168.9384789066933
 20
142.1533774227738
 30
0
  0
VERTEX
  8
0
 10
160.8239734280953
 20
142.3915277785092
 30
0
  0
VERTEX
  8
0
 10
155.6747915470421
 20
142.9080690756774
 30
0
  0
SEQEND
  8
0
  0
POLYLINE
  8
0
 62
7
 66
1
  0
VERTEX
  8
0
 10
122.561193052459
 20
332.0875621735587
 30
0
  0
VERTEX
  8
0
 10
121.1623651857542
 20
332.3204524193453
 30
0
  0
VERTEX
  8
0
 10
119.8187796484992
 20
332.9360715364302
 30
0
  0
SEQEND
  8
0
  0
POLYLINE
  8
0
 62
7
 66
1
  0
VERTEX
  8
0
 10
119.8187796484992
 20
332.9360715364302
 30
0
  0
VERTEX
  8
0
 10
118.4327779558664
 20
332.5762979041039
 30
0
  0
VERTEX
  8
0
 10
114.3339528399795
 20
332.0875621735587
 30
0
  0
SEQEND
  8
0
  0
POLYLINE
  8
0
 62
7
 66
1
  0
VERTEX
  8
0
 10
114.3339528399795
 20
332.0875621735587
 30
0
  0
VERTEX
  8
0
 10
112.8413109887063
 20
332.1548558166898
 30
0
  0
VERTEX
  8
0
 10
108.8491260317617
 20
332.9360715364302
 30
0
  0
SEQEND
  8
0
  0
POLYLINE
  8
0
 62
7
 66
1
  0
VERTEX
  8
0
 10
106.1067089021015
 20
332.0875621735587
 30
0
  0
VERTEX
  8
0
 10
104.7078847607961
 20
332.3204524193453
 30
0
  0
VERTEX
  8
0
 10
103.3642992232419
 20
332.9360715364302
 30
0
  0
SEQEND
  8
0
  0
POLYLINE
  8
0
 62
7
 66
1
  0
VERTEX
  8
0
 10
184.482010379
 20
332.0875621735587
 30
0
  0
VERTEX
  8
0
 10
181.6843548783893
 20
332.3204524193453
 30
0
  0
VERTEX
  8
0
 10
178.9971831048804
 20
332.9360715364302
 30
0
  0
SEQEND
  8
0
  0
POLYLINE
  8
0
 62
7
 66
1
  0
VERTEX
  8
0
 10
192.7092515226791
 20
332.0875621735587
 30
0
  0
VERTEX
  8
0
 10
191.9629310627922
 20
332.1548558166898
 30
0
  0
VERTEX
  8
0
 10
189.9668376528186
 20
332.9360715364302
 30
0
  0
SEQEND
  8
0
  0
POLYLINE
  8
0
 62
7
 66
1
  0
VERTEX
  8
0
 10
195.4516649269381
 20
332.9360715364302
 30
0
  0
VERTEX
  8
0
 10
194.758665012121
 20
332.5762979041039
 30
0
  0
VERTEX
  8
0
 10
192.7092515226791
 20
332.0875621735587
 30
0
  0
SEQEND
  8
0
  0
POLYLINE
  8
0
 62
7
 66
1
  0
VERTEX
  8
0
 10
176.2547692350206
 20
332.0875621735587
 30
0
  0
VERTEX
  8
0
 10
174.8559413683158
 20
332.3204524193453
 30
0
  0
VERTEX
  8
0
 10
173.5123558307621
 20
332.9360715364302
 30
0
  0
SEQEND
  8
0
  0
POLYLINE
  8
0
 62
7
 66
1
  0
VERTEX
  8
0
 10
254.6300679177191
 20
332.0875621735587
 30
0
  0
VERTEX
  8
0
 10
251.8324121843082
 20
332.3204524193453
 30
0
  0
VERTEX
  8
0
 10
249.145241109499
 20
332.9360715364302
 30
0
  0
SEQEND
  8
0
  0
POLYLINE
  8
0
 62
7
 66
1
  0
VERTEX
  8
0
 10
249.145241109499
 20
332.9360715364302
 30
0
  0
VERTEX
  8
0
 10
247.1491486310281
 20
332.1548558166898
 30
0
  0
VERTEX
  8
0
 10
246.40282770524
 20
332.0875621735587
 30
0
  0
SEQEND
  8
0
  0
POLYLINE
  8
0
 62
7
 66
1
  0
VERTEX
  8
0
 10
262.857311855598
 20
332.0875621735587
 30
0
  0
VERTEX
  8
0
 10
261.458480263492
 20
332.3204524193453
 30
0
  0
VERTEX
  8
0
 10
260.114894725938
 20
332.9360715364302
 30
0
  0
SEQEND
  8
0
  0
POLYLINE
  8
0
 62
7
 66
1
  0
VERTEX
  8
0
 10
246.40282770524
 20
332.0875621735587
 30
0
  0
VERTEX
  8
0
 10
244.353411421898
 20
332.5762979041039
 30
0
  0
VERTEX
  8
0
 10
243.6604105758811
 20
332.9360715364302
 30
0
  0
SEQEND
  8
0
  0
POLYLINE
  8
0
 62
7
 66
1
  0
VERTEX
  8
0
 10
184.482010379
 20
383.7875651051228
 30
0
  0
VERTEX
  8
0
 10
187.2796658796108
 20
383.5546748590351
 30
0
  0
VERTEX
  8
0
 10
189.9668376528186
 20
382.93906319275
 30
0
  0
SEQEND
  8
0
  0
POLYLINE
  8
0
 62
7
 66
1
  0
VERTEX
  8
0
 10
176.2547692350206
 20
383.7875651051228
 30
0
  0
VERTEX
  8
0
 10
178.3041827244635
 20
383.2988219237769
 30
0
  0
VERTEX
  8
0
 10
178.9971831048804
 20
382.93906319275
 30
0
  0
SEQEND
  8
0
  0
POLYLINE
  8
0
 62
7
 66
1
  0
VERTEX
  8
0
 10
192.7092515226791
 20
383.7875651051228
 30
0
  0
VERTEX
  8
0
 10
194.1080793893841
 20
383.5546748590351
 30
0
  0
VERTEX
  8
0
 10
195.4516649269381
 20
382.93906319275
 30
0
  0
SEQEND
  8
0
  0
POLYLINE
  8
0
 62
7
 66
1
  0
VERTEX
  8
0
 10
173.5123558307621
 20
382.93906319275
 30
0
  0
VERTEX
  8
0
 10
175.5084483092344
 20
383.7202714616907
 30
0
  0
VERTEX
  8
0
 10
176.2547692350206
 20
383.7875651051228
 30
0
  0
SEQEND
  8
0
  0
POLYLINE
  8
0
 62
7
 66
1
  0
VERTEX
  8
0
 10
254.6300679177191
 20
383.7875651051228
 30
0
  0
VERTEX
  8
0
 10
258.7288930336051
 20
383.2988219237769
 30
0
  0
VERTEX
  8
0
 10
260.114894725938
 20
382.93906319275
 30
0
  0
SEQEND
  8
0
  0
POLYLINE
  8
0
 62
7
 66
1
  0
VERTEX
  8
0
 10
262.857311855598
 20
383.7875651051228
 30
0
  0
VERTEX
  8
0
 10
264.2561359969031
 20
383.5546748590351
 30
0
  0
VERTEX
  8
0
 10
265.599721534458
 20
382.93906319275
 30
0
  0
SEQEND
  8
0
  0
POLYLINE
  8
0
 62
7
 66
1
  0
VERTEX
  8
0
 10
249.145241109499
 20
382.93906319275
 30
0
  0
VERTEX
  8
0
 10
253.137426066445
 20
383.7202714616907
 30
0
  0
VERTEX
  8
0
 10
254.6300679177191
 20
383.7875651051228
 30
0
  0
SEQEND
  8
0
  0
POLYLINE
  8
0
 62
7
 66
1
  0
VERTEX
  8
0
 10
246.40282770524
 20
383.7875651051228
 30
0
  0
VERTEX
  8
0
 10
247.8016555719451
 20
383.5546748590351
 30
0
  0
VERTEX
  8
0
 10
249.145241109499
 20
382.93906319275
 30
0
  0
SEQEND
  8
0
  0
POLYLINE
  8
0
 62
7
 66
1
  0
VERTEX
  8
0
 10
114.3339528399795
 20
383.7875651051228
 30
0
  0
VERTEX
  8
0
 10
117.1316085733918
 20
383.5546748590351
 30
0
  0
VERTEX
  8
0
 10
119.8187796484992
 20
382.93906319275
 30
0
  0
SEQEND
  8
0
  0
POLYLINE
  8
0
 62
7
 66
1
  0
VERTEX
  8
0
 10
106.1067089021015
 20
383.7875651051228
 30
0
  0
VERTEX
  8
0
 10
107.5055404942066
 20
383.5546748590351
 30
0
  0
VERTEX
  8
0
 10
108.8491260317617
 20
382.93906319275
 30
0
  0
SEQEND
  8
0
  0
POLYLINE
  8
0
 62
7
 66
1
  0
VERTEX
  8
0
 10
119.8187796484992
 20
382.93906319275
 30
0
  0
VERTEX
  8
0
 10
120.511780494516
 20
383.2988219237769
 30
0
  0
VERTEX
  8
0
 10
122.561193052459
 20
383.7875651051228
 30
0
  0
SEQEND
  8
0
  0
POLYLINE
  8
0
 62
7
 66
1
  0
VERTEX
  8
0
 10
122.561193052459
 20
383.7875651051228
 30
0
  0
VERTEX
  8
0
 10
123.3075139782457
 20
383.7202714616907
 30
0
  0
VERTEX
  8
0
 10
125.3036101821183
 20
382.93906319275
 30
0
  0
SEQEND
  8
0
  0
POLYLINE
  8
0
 62
7
 66
1
  0
VERTEX
  8
0
 10
238.650733364442
 20
385.4375706675329
 30
0
  0
VERTEX
  8
0
 10
238.615864647689
 20
385.7580350371501
 30
0
  0
VERTEX
  8
0
 10
238.564153893602
 20
385.9382049754596
 30
0
  0
SEQEND
  8
0
  0
POLYLINE
  8
0
 62
7
 66
1
  0
VERTEX
  8
0
 10
238.650733364442
 20
385.4375706675329
 30
0
  0
VERTEX
  8
0
 10
238.650748265741
 20
383.9640693575694
 30
0
  0
VERTEX
  8
0
 10
238.6507706172411
 20
382.5665490678504
 30
0
  0
VERTEX
  8
0
 10
238.650781793142
 20
381.8677740216918
 30
0
  0
SEQEND
  8
0
  0
POLYLINE
  8
0
 62
7
 66
1
  0
VERTEX
  8
0
 10
238.9817254041541
 20
385.9346734000957
 30
0
  0
VERTEX
  8
0
 10
238.9800974523701
 20
384.1747717748759
 30
0
  0
VERTEX
  8
0
 10
238.9767372406041
 20
381.934888851025
 30
0
  0
SEQEND
  8
0
  0
POLYLINE
  8
0
 62
7
 66
1
  0
VERTEX
  8
0
 10
238.650781793142
 20
381.8677740216918
 30
0
  0
VERTEX
  8
0
 10
238.795483242704
 20
381.8973081228979
 30
0
  0
VERTEX
  8
0
 10
238.9767372406041
 20
381.934888851025
 30
0
  0
SEQEND
  8
0
  0
POLYLINE
  8
0
 62
7
 66
1
  0
VERTEX
  8
0
 10
238.9767372406041
 20
381.934888851025
 30
0
  0
VERTEX
  8
0
 10
242.808567078142
 20
382.7422188553056
 30
0
  0
VERTEX
  8
0
 10
243.6604105758811
 20
382.9217033401229
 30
0
  0
SEQEND
  8
0
  0
POLYLINE
  8
0
 62
7
 66
1
  0
VERTEX
  8
0
 10
130.9767094347678
 20
377.9375629936304
 30
0
  0
VERTEX
  8
0
 10
130.987792173258
 20
378.1587111246337
 30
0
  0
VERTEX
  8
0
 10
131.116094895184
 20
378.7116634088417
 30
0
  0
VERTEX
  8
0
 10
131.3360397576983
 20
379.1510837466768
 30
0
  0
VERTEX
  8
0
 10
131.6066671939109
 20
379.4931697010781
 30
0
  0
VERTEX
  8
0
 10
131.8639878935549
 20
379.7245698306798
 30
0
  0
VERTEX
  8
0
 10
131.9811072938903
 20
379.8278646791533
 30
0
  0
VERTEX
  8
0
 10
131.9026079776711
 20
379.8434661948987
 30
0
  0
VERTEX
  8
0
 10
131.6677694047037
 20
379.796229514168
 30
0
  0
VERTEX
  8
0
 10
131.3430172263295
 20
379.6767222026548
 30
0
  0
VERTEX
  8
0
 10
130.9555274342781
 20
379.4397788408088
 30
0
  0
VERTEX
  8
0
 10
130.5590075391172
 20
379.0181057854971
 30
0
  0
VERTEX
  8
0
 10
130.2946534913428
 20
378.4482108814574
 30
0
  0
VERTEX
  8
0
 10
130.2258473802256
 20
377.9375629936304
 30
0
  0
SEQEND
  8
0
  0
POLYLINE
  8
0
 62
7
 66
1
  0
VERTEX
  8
0
 10
122.6134178967407
 20
372.8997784671702
 30
0
  0
VERTEX
  8
0
 10
120.3515110569085
 20
371.7958408523356
 30
0
  0
VERTEX
  8
0
 10
120.3339500386821
 20
371.7875707080185
 30
0
  0
SEQEND
  8
0
  0
POLYLINE
  8
0
 62
7
 66
1
  0
VERTEX
  8
0
 10
102.3445680693706
 20
366.7875606247836
 30
0
  0
VERTEX
  8
0
 10
102.3437932092782
 20
366.7991984316678
 30
0
  0
VERTEX
  8
0
 10
102.3966178249546
 20
367.0855838456238
 30
0
  0
SEQEND
  8
0
  0
POLYLINE
  8
0
 62
7
 66
1
  0
VERTEX
  8
0
 10
266.5674029327452
 20
367.0855838456238
 30
0
  0
VERTEX
  8
0
 10
266.620227548721
 20
366.7991984316678
 30
0
  0
VERTEX
  8
0
 10
266.6194526883292
 20
366.7875606247836
 30
0
  0
SEQEND
  8
0
  0
POLYLINE
  8
0
 62
7
 66
1
  0
VERTEX
  8
0
 10
248.6300707190171
 20
371.7875707080185
 30
0
  0
VERTEX
  8
0
 10
248.6125097007912
 20
371.7958408523356
 30
0
  0
VERTEX
  8
0
 10
248.1932804358551
 20
371.99578463105
 30
0
  0
VERTEX
  8
0
 10
246.350602860959
 20
372.8997784671702
 30
0
  0
SEQEND
  8
0
  0
POLYLINE
  8
0
 62
7
 66
1
  0
VERTEX
  8
0
 10
266.6194526883292
 20
366.7875606247836
 30
0
  0
VERTEX
  8
0
 10
266.620413813019
 20
366.7936999030227
 30
0
  0
VERTEX
  8
0
 10
266.5446935632722
 20
367.3418987169772
 30
0
  0
SEQEND
  8
0
  0
POLYLINE
  8
0
 62
7
 66
1
  0
VERTEX
  8
0
 10
102.4253100106691
 20
367.3852461944463
 30
0
  0
VERTEX
  8
0
 10
102.3436069446796
 20
366.7936999030227
 30
0
  0
VERTEX
  8
0
 10
102.3445680693706
 20
366.7875606247836
 30
0
  0
SEQEND
  8
0
  0
POLYLINE
  8
0
 62
7
 66
1
  0
VERTEX
  8
0
 10
191.4820105253691
 20
301.0875629879812
 30
0
  0
VERTEX
  8
0
 10
200.5887051556131
 20
298.5579269876081
 30
0
  0
VERTEX
  8
0
 10
209.4820105031751
 20
296.0875640806463
 30
0
  0
SEQEND
  8
0
  0
POLYLINE
  8
0
 62
7
 66
1
  0
VERTEX
  8
0
 10
209.4820105031751
 20
296.0875640806463
 30
0
  0
VERTEX
  8
0
 10
200.5939913424591
 20
293.6186689380703
 30
0
  0
VERTEX
  8
0
 10
191.4820105253691
 20
291.0875651736117
 30
0
  0
SEQEND
  8
0
  0
POLYLINE
  8
0
 62
7
 66
1
  0
VERTEX
  8
0
 10
163.9209245692334
 20
270.0909854817702
 30
0
  0
VERTEX
  8
0
 10
164.310576892062
 20
275.451501216524
 30
0
  0
VERTEX
  8
0
 10
164.6989980065048
 20
280.7950501169463
 30
0
  0
SEQEND
  8
0
  0
POLYLINE
  8
0
 62
7
 66
1
  0
VERTEX
  8
0
 10
148.1630864616552
 20
262.688172493002
 30
0
  0
VERTEX
  8
0
 10
147.0130074015794
 20
263.9178759073876
 30
0
  0
VERTEX
  8
0
 10
146.3586154634793
 20
265.1354274246934
 30
0
  0
VERTEX
  8
0
 10
145.9164831142709
 20
266.4534630587015
 30
0
  0
VERTEX
  8
0
 10
145.545015795861
 20
268.5913214582662
 30
0
  0
VERTEX
  8
0
 10
145.4398285000059
 20
270.7912506438145
 30
0
  0
SEQEND
  8
0
  0
POLYLINE
  8
0
 62
7
 66
1
  0
VERTEX
  8
0
 10
189.1658029234761
 20
190.4823987243227
 30
0
  0
VERTEX
  8
0
 10
189.7017669527525
 20
190.3907118804329
 30
0
  0
VERTEX
  8
0
 10
190.2790463135173
 20
190.0128929419854
 30
0
  0
SEQEND
  8
0
  0
POLYLINE
  8
0
 62
7
 66
1
  0
VERTEX
  8
0
 10
190.3149571801607
 20
185.3444523186573
 30
0
  0
VERTEX
  8
0
 10
189.8610990139689
 20
185.0083529058958
 30
0
  0
VERTEX
  8
0
 10
189.1658029234761
 20
184.8416983208509
 30
0
  0
SEQEND
  8
0
  0
POLYLINE
  8
0
 62
7
 66
1
  0
VERTEX
  8
0
 10
190.9254456411975
 20
190.5156469397918
 30
0
  0
VERTEX
  8
0
 10
190.2219613624854
 20
190.977925658901
 30
0
  0
VERTEX
  8
0
 10
189.1658029234761
 20
191.1620481301717
 30
0
  0
SEQEND
  8
0
  0
POLYLINE
  8
0
 62
7
 66
1
  0
VERTEX
  8
0
 10
190.9972678403844
 20
184.8776101189952
 30
0
  0
VERTEX
  8
0
 10
191.5799567881957
 20
186.0126464571205
 30
0
  0
VERTEX
  8
0
 10
191.7514002341925
 20
187.6427626950291
 30
0
  0
SEQEND
  8
0
  0
POLYLINE
  8
0
 62
7
 66
1
  0
VERTEX
  8
0
 10
189.1658029234761
 20
184.162048915002
 30
0
  0
VERTEX
  8
0
 10
190.041491072878
 20
184.2920540946108
 30
0
  0
VERTEX
  8
0
 10
190.9972678403844
 20
184.8776101189952
 30
0
  0
SEQEND
  8
0
  0
POLYLINE
  8
0
 62
7
 66
1
  0
VERTEX
  8
0
 10
241.429352864742
 20
377.9375629936304
 30
0
  0
VERTEX
  8
0
 10
241.1504180311131
 20
379.5695828548197
 30
0
  0
VERTEX
  8
0
 10
241.004155684866
 20
379.9375670268647
 30
0
  0
SEQEND
  8
0
  0
POLYLINE
  8
0
 62
7
 66
1
  0
VERTEX
  8
0
 10
91.14252339574045
 20
169.3733879096973
 30
0
  0
VERTEX
  8
0
 10
83.49913674996265
 20
175.9757645437159
 30
0
  0
VERTEX
  8
0
 10
76.43701459441058
 20
183.1286645722668
 30
0
  0
VERTEX
  8
0
 10
72.11090206898166
 20
187.294392175989
 30
0
  0
VERTEX
  8
0
 10
67.4318778960585
 20
191.0597330330876
 30
0
  0
SEQEND
  8
0
  0
POLYLINE
  8
0
 62
7
 66
1
  0
VERTEX
  8
0
 10
278.426618610948
 20
289.5206633861756
 30
0
  0
VERTEX
  8
0
 10
281.3461881934481
 20
288.3074257548261
 30
0
  0
VERTEX
  8
0
 10
287.091375538281
 20
286.5788761722962
 30
0
  0
SEQEND
  8
0
  0
POLYLINE
  8
0
 62
7
 66
1
  0
VERTEX
  8
0
 10
91.4565951671209
 20
593.4749202687874
 30
0
  0
VERTEX
  8
0
 10
91.69785241492468
 20
594.3244578117494
 30
0
  0
VERTEX
  8
0
 10
92.9212153851729
 20
598.0178260607638
 30
0
  0
VERTEX
  8
0
 10
94.40222688036215
 20
601.8929027932711
 30
0
  0
VERTEX
  8
0
 10
96.16879677531529
 20
605.9162274514076
 30
0
  0
VERTEX
  8
0
 10
98.23683205927296
 20
610.0270740789749
 30
0
  0
VERTEX
  8
0
 10
100.4740476750501
 20
613.9569423804398
 30
0
  0
VERTEX
  8
0
 10
104.273016727316
 20
619.7432681056637
 30
0
  0
VERTEX
  8
0
 10
108.260448214008
 20
624.9238132053054
 30
0
  0
VERTEX
  8
0
 10
112.3608081496802
 20
629.515754993093
 30
0
  0
VERTEX
  8
0
 10
116.3273705601794
 20
633.4660602369561
 30
0
  0
VERTEX
  8
0
 10
120.6482527779601
 20
637.5580680719088
 30
0
  0
VERTEX
  8
0
 10
125.0310493200266
 20
641.2972164131691
 30
0
  0
VERTEX
  8
0
 10
130.0607723182654
 20
645.072649081467
 30
0
  0
VERTEX
  8
0
 10
135.7697423911588
 20
648.7751778192899
 30
0
  0
VERTEX
  8
0
 10
140.5042994660296
 20
651.42490227647
 30
0
  0
VERTEX
  8
0
 10
145.6246513257695
 20
653.9004247105816
 30
0
  0
VERTEX
  8
0
 10
151.0976168100071
 20
656.1351816349836
 30
0
  0
VERTEX
  8
0
 10
156.1751594966711
 20
657.857778203572
 30
0
  0
VERTEX
  8
0
 10
160.4748615766623
 20
659.0695629715358
 30
0
  0
VERTEX
  8
0
 10
163.9815406297309
 20
659.898298493704
 30
0
  0
VERTEX
  8
0
 10
166.6920804503068
 20
660.4440460664821
 30
0
  0
VERTEX
  8
0
 10
168.6091055055651
 20
660.7812816926328
 30
0
  0
VERTEX
  8
0
 10
170.1907473353547
 20
661.0295946403669
 30
0
  0
VERTEX
  8
0
 10
172.5824088289985
 20
661.3543505441405
 30
0
  0
VERTEX
  8
0
 10
174.8278405725953
 20
661.5925903070749
 30
0
  0
SEQEND
  8
0
  0
POLYLINE
  8
0
 62
7
 66
1
  0
VERTEX
  8
0
 10
197.472390887267
 20
661.1334184800355
 30
0
  0
VERTEX
  8
0
 10
204.1548305280901
 20
660.0333477163633
 30
0
  0
VERTEX
  8
0
 10
212.7349842507641
 20
657.7655549179874
 30
0
  0
VERTEX
  8
0
 10
218.3714564497761
 20
655.7657967536536
 30
0
  0
VERTEX
  8
0
 10
223.9259983400032
 20
653.3506910771414
 30
0
  0
VERTEX
  8
0
 10
229.2221801748951
 20
650.6372120026947
 30
0
  0
VERTEX
  8
0
 10
234.2852296199051
 20
647.9848723915404
 30
0
  0
VERTEX
  8
0
 10
239.6178969474352
 20
645.158703286513
 30
0
  0
VERTEX
  8
0
 10
245.306191659233
 20
641.3357135626859
 30
0
  0
VERTEX
  8
0
 10
249.7264683466271
 20
637.465665972228
 30
0
  0
SEQEND
  8
0
  0
POLYLINE
  8
0
 62
7
 66
1
  0
VERTEX
  8
0
 10
249.120669094943
 20
504.1027407541217
 30
0
  0
VERTEX
  8
0
 10
248.8761708442721
 20
503.8612376371195
 30
0
  0
VERTEX
  8
0
 10
245.1777697281091
 20
500.7518049112061
 30
0
  0
VERTEX
  8
0
 10
241.436855599168
 20
498.1185238849623
 30
0
  0
VERTEX
  8
0
 10
237.745346269835
 20
495.9858846174459
 30
0
  0
VERTEX
  8
0
 10
232.7372448563801
 20
493.3780845769491
 30
0
  0
VERTEX
  8
0
 10
228.1260209659831
 20
490.9553793083135
 30
0
  0
VERTEX
  8
0
 10
223.473800256495
 20
488.6051905396582
 30
0
  0
VERTEX
  8
0
 10
221.707379373041
 20
487.8456262073034
 30
0
  0
SEQEND
  8
0
  0
POLYLINE
  8
0
 62
7
 66
1
  0
VERTEX
  8
0
 10
207.9164162924261
 20
483.0386830172504
 30
0
  0
VERTEX
  8
0
 10
207.633994587331
 20
482.9591182678407
 30
0
  0
VERTEX
  8
0
 10
203.0797918523671
 20
481.9407878229551
 30
0
  0
SEQEND
  8
0
  0
POLYLINE
  8
0
 62
7
 66
1
  0
VERTEX
  8
0
 10
177.4600994721488
 20
480.3605047930525
 30
0
  0
VERTEX
  8
0
 10
176.4948828189361
 20
480.4194463354672
 30
0
  0
VERTEX
  8
0
 10
176.0181117893715
 20
480.46548347251
 30
0
  0
SEQEND
  8
0
  0
POLYLINE
  8
0
 62
7
 66
1
  0
VERTEX
  8
0
 10
148.6101846229137
 20
487.0638516940683
 30
0
  0
VERTEX
  8
0
 10
144.5127378642148
 20
488.7802046762201
 30
0
  0
VERTEX
  8
0
 10
138.7931097361272
 20
491.6694429456213
 30
0
  0
VERTEX
  8
0
 10
133.5333537895729
 20
494.7901707515223
 30
0
  0
VERTEX
  8
0
 10
128.287966287375
 20
498.3930703267354
 30
0
  0
VERTEX
  8
0
 10
122.8904677334879
 20
502.6768263019851
 30
0
  0
VERTEX
  8
0
 10
118.3576761042125
 20
506.7988599762405
 30
0
  0
VERTEX
  8
0
 10
113.863448679854
 20
511.1960957431631
 30
0
  0
VERTEX
  8
0
 10
109.1841339344335
 20
516.2563325939993
 30
0
  0
VERTEX
  8
0
 10
104.7027140580474
 20
521.9264814171777
 30
0
  0
VERTEX
  8
0
 10
100.8372560250425
 20
527.6867301103614
 30
0
  0
VERTEX
  8
0
 10
97.78295014448099
 20
533.0417342781705
 30
0
  0
VERTEX
  8
0
 10
96.15605628244089
 20
536.3015048181917
 30
0
  0
VERTEX
  8
0
 10
94.80065412450426
 20
539.314076272068
 30
0
  0
VERTEX
  8
0
 10
93.84026684454352
 20
541.6613276489518
 30
0
  0
VERTEX
  8
0
 10
93.03458341844703
 20
543.8053700303547
 30
0
  0
VERTEX
  8
0
 10
92.35802600336706
 20
545.7622109880169
 30
0
  0
VERTEX
  8
0
 10
91.92982623961984
 20
547.0925475306033
 30
0
  0
VERTEX
  8
0
 10
91.51134948327649
 20
548.4699791926216
 30
0
  0
VERTEX
  8
0
 10
91.41218970726254
 20
548.8163939339813
 30
0
  0
SEQEND
  8
0
  0
POLYLINE
  8
0
 62
7
 66
1
  0
VERTEX
  8
0
 10
250.0752598232621
 20
637.2559395812098
 30
0
  0
VERTEX
  8
0
 10
250.07842631993
 20
637.2729194541419
 30
0
  0
VERTEX
  8
0
 10
250.322701052904
 20
637.1594396621688
 30
0
  0
VERTEX
  8
0
 10
250.8515730606521
 20
636.9027522619192
 30
0
  0
VERTEX
  8
0
 10
251.585082713365
 20
636.5784806457398
 30
0
  0
VERTEX
  8
0
 10
253.4339219183
 20
635.838205866193
 30
0
  0
VERTEX
  8
0
 10
255.746999345125
 20
634.9545893678699
 30
0
  0
VERTEX
  8
0
 10
258.510412210376
 20
633.8876140830682
 30
0
  0
VERTEX
  8
0
 10
261.68427755685
 20
632.5549808989047
 30
0
  0
VERTEX
  8
0
 10
266.2597014078021
 20
630.2640428721609
 30
0
  0
SEQEND
  8
0
  0
POLYLINE
  8
0
 62
7
 66
1
  0
VERTEX
  8
0
 10
266.1462067145301
 20
511.8719528037493
 30
0
  0
VERTEX
  8
0
 10
263.4587599682241
 20
510.4371349079013
 30
0
  0
VERTEX
  8
0
 10
261.379876639073
 20
509.4774852352341
 30
0
  0
VERTEX
  8
0
 10
259.3603967881331
 20
508.6239504557118
 30
0
  0
VERTEX
  8
0
 10
257.4288635899191
 20
507.8549350617507
 30
0
  0
VERTEX
  8
0
 10
255.680696628983
 20
507.1879069392764
 30
0
  0
VERTEX
  8
0
 10
254.6556755628651
 20
506.8168233259614
 30
0
  0
VERTEX
  8
0
 10
253.7213504136462
 20
506.506871725441
 30
0
  0
VERTEX
  8
0
 10
252.0951345545991
 20
506.0811306533699
 30
0
  0
VERTEX
  8
0
 10
251.4605239080031
 20
505.940351934468
 30
0
  0
VERTEX
  8
0
 10
251.0659337130221
 20
505.8714936692525
 30
0
  0
VERTEX
  8
0
 10
251.066552111115
 20
505.9093426180764
 30
0
  0
SEQEND
  8
0
  0
POLYLINE
  8
0
 62
7
 66
1
  0
VERTEX
  8
0
 10
66.533322983684
 20
616.2332027636296
 30
0
  0
VERTEX
  8
0
 10
67.08394323621428
 20
616.4898566361801
 30
0
  0
VERTEX
  8
0
 10
69.53603359425847
 20
617.6347165648078
 30
0
  0
VERTEX
  8
0
 10
71.55640006429007
 20
618.5837119070814
 30
0
  0
VERTEX
  8
0
 10
73.79047153519809
 20
619.6328244252611
 30
0
  0
VERTEX
  8
0
 10
75.59950228853018
 20
620.4808308738368
 30
0
  0
VERTEX
  8
0
 10
77.24900121154474
 20
621.2533964695642
 30
0
  0
VERTEX
  8
0
 10
80.2989261510495
 20
622.6796909013976
 30
0
  0
VERTEX
  8
0
 10
83.1819133832139
 20
624.0237532757458
 30
0
  0
VERTEX
  8
0
 10
86.62093743985338
 20
625.6208746178811
 30
0
  0
VERTEX
  8
0
 10
91.57353202855961
 20
627.9094359096482
 30
0
  0
VERTEX
  8
0
 10
96.51094978451624
 20
630.177899260216
 30
0
  0
VERTEX
  8
0
 10
101.012389370803
 20
632.2377649826569
 30
0
  0
VERTEX
  8
0
 10
105.0867393298333
 20
634.0974149799843
 30
0
  0
VERTEX
  8
0
 10
108.7918310675298
 20
635.7793462801776
 30
0
  0
VERTEX
  8
0
 10
112.1007307353632
 20
637.2692686695784
 30
0
  0
VERTEX
  8
0
 10
116.2215201626311
 20
638.9484507055979
 30
0
  0
VERTEX
  8
0
 10
120.7811115299403
 20
640.3796476194823
 30
0
  0
VERTEX
  8
0
 10
124.9491860666392
 20
641.2273746711628
 30
0
  0
SEQEND
  8
0
  0
POLYLINE
  8
0
 62
7
 66
1
  0
VERTEX
  8
0
 10
125.1103942771385
 20
500.9149651739856
 30
0
  0
VERTEX
  8
0
 10
120.7811115299403
 20
501.7954822307386
 30
0
  0
VERTEX
  8
0
 10
116.2215201626311
 20
503.226679144623
 30
0
  0
VERTEX
  8
0
 10
112.1007307353632
 20
504.9058611803432
 30
0
  0
VERTEX
  8
0
 10
108.7918310675298
 20
506.3957835700442
 30
0
  0
VERTEX
  8
0
 10
104.9654289778375
 20
508.1329609247889
 30
0
  0
VERTEX
  8
0
 10
100.7444441433647
 20
510.0598635870495
 30
0
  0
VERTEX
  8
0
 10
96.06593406063644
 20
512.2012014075783
 30
0
  0
VERTEX
  8
0
 10
90.92790197317277
 20
514.5632626761164
 30
0
  0
VERTEX
  8
0
 10
87.10015877909359
 20
516.332216756846
 30
0
  0
VERTEX
  8
0
 10
83.82504749382474
 20
517.8521836122475
 30
0
  0
VERTEX
  8
0
 10
81.08593097163316
 20
519.1280806256739
 30
0
  0
VERTEX
  8
0
 10
79.63934860890163
 20
519.8035651570647
 30
0
  0
VERTEX
  8
0
 10
78.1055870036364
 20
520.5208139174404
 30
0
  0
VERTEX
  8
0
 10
76.48706014391314
 20
521.2785118796148
 30
0
  0
VERTEX
  8
0
 10
74.78244927654509
 20
522.0772141116806
 30
0
  0
VERTEX
  8
0
 10
72.76700764036491
 20
523.0225400429911
 30
0
  0
VERTEX
  8
0
 10
70.27146549665281
 20
524.1953023956414
 30
0
  0
VERTEX
  8
0
 10
67.08394323621428
 20
525.6852732137415
 30
0
  0
VERTEX
  8
0
 10
66.53483545166887
 20
525.941219281299
 30
0
  0
SEQEND
  8
0
  0
POLYLINE
  8
0
 62
7
 66
1
  0
VERTEX
  8
0
 10
192.0533061386939
 20
663.2734338222792
 30
0
  0
VERTEX
  8
0
 10
193.8588835479591
 20
663.1342644287618
 30
0
  0
VERTEX
  8
0
 10
194.2421535172521
 20
663.089225669509
 30
0
  0
SEQEND
  8
0
  0
POLYLINE
  8
0
 62
7
 66
1
  0
VERTEX
  8
0
 10
215.9852478499781
 20
483.9568851103297
 30
0
  0
VERTEX
  8
0
 10
214.9054631545041
 20
483.5372162610986
 30
0
  0
VERTEX
  8
0
 10
213.5119885297451
 20
483.1279558730641
 30
0
  0
SEQEND
  8
0
  0
POLYLINE
  8
0
 62
7
 66
1
  0
VERTEX
  8
0
 10
197.367083450712
 20
479.4732896642656
 30
0
  0
VERTEX
  8
0
 10
196.355267607463
 20
479.3100474450869
 30
0
  0
VERTEX
  8
0
 10
194.890454605513
 20
479.1883645638957
 30
0
  0
SEQEND
  8
0
  0
POLYLINE
  8
0
 62
7
 66
1
  0
VERTEX
  8
0
 10
192.7092515226791
 20
494.8375638942518
 30
0
  0
VERTEX
  8
0
 10
191.9629310627922
 20
496.1302321645119
 30
0
  0
VERTEX
  8
0
 10
189.9668376528186
 20
499.5875622974702
 30
0
  0
SEQEND
  8
0
  0
POLYLINE
  8
0
 62
7
 66
1
  0
VERTEX
  8
0
 10
178.9971831048804
 20
499.5875622974702
 30
0
  0
VERTEX
  8
0
 10
177.7254970666129
 20
497.3849397269489
 30
0
  0
VERTEX
  8
0
 10
176.4497928367834
 20
495.1753583138973
 30
0
  0
VERTEX
  8
0
 10
176.2547692350206
 20
494.8375638942518
 30
0
  0
SEQEND
  8
0
  0
POLYLINE
  8
0
 62
7
 66
1
  0
VERTEX
  8
0
 10
176.2547692350206
 20
485.3375670881162
 30
0
  0
VERTEX
  8
0
 10
178.3041827244635
 20
481.7878795590743
 30
0
  0
VERTEX
  8
0
 10
178.9971831048804
 20
480.5875686848979
 30
0
  0
SEQEND
  8
0
  0
POLYLINE
  8
0
 62
7
 66
1
  0
VERTEX
  8
0
 10
173.5123558307621
 20
490.0875654913336
 30
0
  0
VERTEX
  8
0
 10
175.5084483092344
 20
486.6302279075756
 30
0
  0
VERTEX
  8
0
 10
176.2547692350206
 20
485.3375670881162
 30
0
  0
SEQEND
  8
0
  0
POLYLINE
  8
0
 62
7
 66
1
  0
VERTEX
  8
0
 10
176.2547692350206
 20
494.8375638942518
 30
0
  0
VERTEX
  8
0
 10
174.8559413683158
 20
492.4147245151182
 30
0
  0
VERTEX
  8
0
 10
173.5123558307621
 20
490.0875654913336
 30
0
  0
SEQEND
  8
0
  0
POLYLINE
  8
0
 62
7
 66
1
  0
VERTEX
  8
0
 10
189.9668376528186
 20
480.5875686848979
 30
0
  0
VERTEX
  8
0
 10
191.2385236913872
 20
482.7901912557193
 30
0
  0
VERTEX
  8
0
 10
192.514227920916
 20
484.9997726684708
 30
0
  0
VERTEX
  8
0
 10
192.7092515226791
 20
485.3375670881162
 30
0
  0
SEQEND
  8
0
  0
POLYLINE
  8
0
 62
7
 66
1
  0
VERTEX
  8
0
 10
192.7092515226791
 20
485.3375670881162
 30
0
  0
VERTEX
  8
0
 10
194.1080793893841
 20
487.7604064672498
 30
0
  0
VERTEX
  8
0
 10
195.4516649269381
 20
490.0875654913336
 30
0
  0
SEQEND
  8
0
  0
POLYLINE
  8
0
 62
7
 66
1
  0
VERTEX
  8
0
 10
262.857311855598
 20
616.3375630449921
 30
0
  0
VERTEX
  8
0
 10
261.458480263492
 20
618.760406149526
 30
0
  0
VERTEX
  8
0
 10
260.114894725938
 20
621.0875651733115
 30
0
  0
SEQEND
  8
0
  0
POLYLINE
  8
0
 62
7
 66
1
  0
VERTEX
  8
0
 10
249.145241109499
 20
621.0875651733115
 30
0
  0
VERTEX
  8
0
 10
248.4522402631831
 20
619.8872542994343
 30
0
  0
VERTEX
  8
0
 10
246.40282770524
 20
616.3375630449921
 30
0
  0
SEQEND
  8
0
  0
POLYLINE
  8
0
 62
7
 66
1
  0
VERTEX
  8
0
 10
262.857311855598
 20
606.8375662388555
 30
0
  0
VERTEX
  8
0
 10
264.9067206881412
 20
610.3872537678965
 30
0
  0
VERTEX
  8
0
 10
265.599721534458
 20
611.5875646420739
 30
0
  0
SEQEND
  8
0
  0
POLYLINE
  8
0
 62
7
 66
1
  0
VERTEX
  8
0
 10
265.599721534458
 20
611.5875646420739
 30
0
  0
VERTEX
  8
0
 10
264.32803409909
 20
613.7901872125951
 30
0
  0
VERTEX
  8
0
 10
263.052330800761
 20
615.9997723507488
 30
0
  0
VERTEX
  8
0
 10
262.857311855598
 20
616.3375630449921
 30
0
  0
SEQEND
  8
0
  0
POLYLINE
  8
0
 62
7
 66
1
  0
VERTEX
  8
0
 10
243.6604105758811
 20
611.5875646420739
 30
0
  0
VERTEX
  8
0
 10
244.93209801125
 20
609.3849383461532
 30
0
  0
VERTEX
  8
0
 10
246.207801309577
 20
607.1753569333998
 30
0
  0
VERTEX
  8
0
 10
246.40282770524
 20
606.8375662388555
 30
0
  0
SEQEND
  8
0
  0
POLYLINE
  8
0
 62
7
 66
1
  0
VERTEX
  8
0
 10
246.40282770524
 20
616.3375630449921
 30
0
  0
VERTEX
  8
0
 10
245.6565067794541
 20
615.0448985001333
 30
0
  0
VERTEX
  8
0
 10
243.6604105758811
 20
611.5875646420739
 30
0
  0
SEQEND
  8
0
  0
POLYLINE
  8
0
 62
7
 66
1
  0
VERTEX
  8
0
 10
260.114894725938
 20
602.0875641105388
 30
0
  0
VERTEX
  8
0
 10
262.110987204411
 20
605.5448979685964
 30
0
  0
VERTEX
  8
0
 10
262.857311855598
 20
606.8375662388555
 30
0
  0
SEQEND
  8
0
  0
POLYLINE
  8
0
 62
7
 66
1
  0
VERTEX
  8
0
 10
246.40282770524
 20
606.8375662388555
 30
0
  0
VERTEX
  8
0
 10
247.8016555719451
 20
604.4147231346226
 30
0
  0
VERTEX
  8
0
 10
249.145241109499
 20
602.0875641105388
 30
0
  0
SEQEND
  8
0
  0
POLYLINE
  8
0
 62
7
 66
1
  0
VERTEX
  8
0
 10
178.9971831048804
 20
661.5875611650247
 30
0
  0
VERTEX
  8
0
 10
177.7254970666129
 20
659.3849385945034
 30
0
  0
VERTEX
  8
0
 10
176.4497928367834
 20
657.1753571817501
 30
0
  0
VERTEX
  8
0
 10
176.2547692350206
 20
656.8375627621065
 30
0
  0
SEQEND
  8
0
  0
POLYLINE
  8
0
 62
7
 66
1
  0
VERTEX
  8
0
 10
192.7092515226791
 20
656.8375627621065
 30
0
  0
VERTEX
  8
0
 10
190.6598380335356
 20
660.3872502911484
 30
0
  0
VERTEX
  8
0
 10
189.9668376528186
 20
661.5875611650247
 30
0
  0
SEQEND
  8
0
  0
POLYLINE
  8
0
 62
7
 66
1
  0
VERTEX
  8
0
 10
192.7092515226791
 20
647.3375659556698
 30
0
  0
VERTEX
  8
0
 10
194.1080793893841
 20
649.7604053348025
 30
0
  0
VERTEX
  8
0
 10
195.4516649269381
 20
652.0875643588881
 30
0
  0
SEQEND
  8
0
  0
POLYLINE
  8
0
 62
7
 66
1
  0
VERTEX
  8
0
 10
195.4516649269381
 20
652.0875643588881
 30
0
  0
VERTEX
  8
0
 10
193.4555724484651
 20
655.5449019423461
 30
0
  0
VERTEX
  8
0
 10
192.7092515226791
 20
656.8375627621065
 30
0
  0
SEQEND
  8
0
  0
POLYLINE
  8
0
 62
7
 66
1
  0
VERTEX
  8
0
 10
176.2547692350206
 20
656.8375627621065
 30
0
  0
VERTEX
  8
0
 10
174.8559413683158
 20
654.4147233829729
 30
0
  0
VERTEX
  8
0
 10
173.5123558307621
 20
652.0875643588881
 30
0
  0
SEQEND
  8
0
  0
POLYLINE
  8
0
 62
7
 66
1
  0
VERTEX
  8
0
 10
189.9668376528186
 20
642.5875675527516
 30
0
  0
VERTEX
  8
0
 10
191.2385236913872
 20
644.7901901232719
 30
0
  0
VERTEX
  8
0
 10
192.514227920916
 20
646.9997715360253
 30
0
  0
VERTEX
  8
0
 10
192.7092515226791
 20
647.3375659556698
 30
0
  0
SEQEND
  8
0
  0
POLYLINE
  8
0
 62
7
 66
1
  0
VERTEX
  8
0
 10
176.2547692350206
 20
647.3375659556698
 30
0
  0
VERTEX
  8
0
 10
177.0010896952078
 20
646.0448976857099
 30
0
  0
VERTEX
  8
0
 10
178.9971831048804
 20
642.5875675527516
 30
0
  0
SEQEND
  8
0
  0
POLYLINE
  8
0
 62
7
 66
1
  0
VERTEX
  8
0
 10
262.857311855598
 20
525.8375668049296
 30
0
  0
VERTEX
  8
0
 10
264.2561359969031
 20
528.2604061840641
 30
0
  0
VERTEX
  8
0
 10
265.599721534458
 20
530.587565208147
 30
0
  0
SEQEND
  8
0
  0
POLYLINE
  8
0
 62
7
 66
1
  0
VERTEX
  8
0
 10
265.599721534458
 20
530.587565208147
 30
0
  0
VERTEX
  8
0
 10
264.32803409909
 20
532.7901915040686
 30
0
  0
VERTEX
  8
0
 10
263.052330800761
 20
534.9997729168201
 30
0
  0
VERTEX
  8
0
 10
262.857311855598
 20
535.3375636110652
 30
0
  0
SEQEND
  8
0
  0
POLYLINE
  8
0
 62
7
 66
1
  0
VERTEX
  8
0
 10
243.6604105758811
 20
530.587565208147
 30
0
  0
VERTEX
  8
0
 10
244.93209801125
 20
528.3849426376266
 30
0
  0
VERTEX
  8
0
 10
246.207801309577
 20
526.1753574994739
 30
0
  0
VERTEX
  8
0
 10
246.40282770524
 20
525.8375668049296
 30
0
  0
SEQEND
  8
0
  0
POLYLINE
  8
0
 62
7
 66
1
  0
VERTEX
  8
0
 10
246.40282770524
 20
535.3375636110652
 30
0
  0
VERTEX
  8
0
 10
245.003999838535
 20
532.9147242322317
 30
0
  0
VERTEX
  8
0
 10
243.6604105758811
 20
530.587565208147
 30
0
  0
SEQEND
  8
0
  0
POLYLINE
  8
0
 62
7
 66
1
  0
VERTEX
  8
0
 10
262.857311855598
 20
535.3375636110652
 30
0
  0
VERTEX
  8
0
 10
261.458480263492
 20
537.7604067155992
 30
0
  0
VERTEX
  8
0
 10
260.114894725938
 20
540.0875657396839
 30
0
  0
SEQEND
  8
0
  0
POLYLINE
  8
0
 62
7
 66
1
  0
VERTEX
  8
0
 10
249.145241109499
 20
540.0875657396839
 30
0
  0
VERTEX
  8
0
 10
247.873553674131
 20
537.8849394437632
 30
0
  0
VERTEX
  8
0
 10
246.5978503758031
 20
535.6753580310099
 30
0
  0
VERTEX
  8
0
 10
246.40282770524
 20
535.3375636110652
 30
0
  0
SEQEND
  8
0
  0
POLYLINE
  8
0
 62
7
 66
1
  0
VERTEX
  8
0
 10
260.114894725938
 20
521.087564676611
 30
0
  0
VERTEX
  8
0
 10
261.3865821616062
 20
523.2901909725317
 30
0
  0
VERTEX
  8
0
 10
262.6622854596351
 20
525.4997761106845
 30
0
  0
VERTEX
  8
0
 10
262.857311855598
 20
525.8375668049296
 30
0
  0
SEQEND
  8
0
  0
POLYLINE
  8
0
 62
7
 66
1
  0
VERTEX
  8
0
 10
246.40282770524
 20
525.8375668049296
 30
0
  0
VERTEX
  8
0
 10
247.8016555719451
 20
523.4147237006957
 30
0
  0
VERTEX
  8
0
 10
249.145241109499
 20
521.087564676611
 30
0
  0
SEQEND
  8
0
  0
POLYLINE
  8
0
 62
7
 66
1
  0
VERTEX
  8
0
 10
108.8491260317617
 20
621.0875651733115
 30
0
  0
VERTEX
  8
0
 10
107.577438596393
 20
618.8849388776901
 30
0
  0
VERTEX
  8
0
 10
106.3017352980639
 20
616.6753537395373
 30
0
  0
VERTEX
  8
0
 10
106.1067089021015
 20
616.3375630449921
 30
0
  0
SEQEND
  8
0
  0
POLYLINE
  8
0
 62
7
 66
1
  0
VERTEX
  8
0
 10
106.1067089021015
 20
616.3375630449921
 30
0
  0
VERTEX
  8
0
 10
104.7078847607961
 20
613.9147236658594
 30
0
  0
VERTEX
  8
0
 10
103.3642992232419
 20
611.5875646420739
 30
0
  0
SEQEND
  8
0
  0
POLYLINE
  8
0
 62
7
 66
1
  0
VERTEX
  8
0
 10
103.3642992232419
 20
611.5875646420739
 30
0
  0
VERTEX
  8
0
 10
104.6359866586101
 20
609.3849383461532
 30
0
  0
VERTEX
  8
0
 10
105.9116899569387
 20
607.1753569333998
 30
0
  0
VERTEX
  8
0
 10
106.1067089021015
 20
606.8375662388555
 30
0
  0
SEQEND
  8
0
  0
POLYLINE
  8
0
 62
7
 66
1
  0
VERTEX
  8
0
 10
122.561193052459
 20
616.3375630449921
 30
0
  0
VERTEX
  8
0
 10
121.1623651857542
 20
618.760406149526
 30
0
  0
VERTEX
  8
0
 10
119.8187796484992
 20
621.0875651733115
 30
0
  0
SEQEND
  8
0
  0
POLYLINE
  8
0
 62
7
 66
1
  0
VERTEX
  8
0
 10
125.3036101821183
 20
611.5875646420739
 30
0
  0
VERTEX
  8
0
 10
124.0319227464504
 20
613.7901872125951
 30
0
  0
VERTEX
  8
0
 10
122.7562194484219
 20
615.9997723507488
 30
0
  0
VERTEX
  8
0
 10
122.561193052459
 20
616.3375630449921
 30
0
  0
SEQEND
  8
0
  0
POLYLINE
  8
0
 62
7
 66
1
  0
VERTEX
  8
0
 10
122.561193052459
 20
606.8375662388555
 30
0
  0
VERTEX
  8
0
 10
123.9600209191647
 20
609.260405617991
 30
0
  0
VERTEX
  8
0
 10
125.3036101821183
 20
611.5875646420739
 30
0
  0
SEQEND
  8
0
  0
POLYLINE
  8
0
 62
7
 66
1
  0
VERTEX
  8
0
 10
119.8187796484992
 20
602.0875641105388
 30
0
  0
VERTEX
  8
0
 10
121.0904670838675
 20
604.2901904064604
 30
0
  0
VERTEX
  8
0
 10
122.3661703818964
 20
606.4997718192119
 30
0
  0
VERTEX
  8
0
 10
122.561193052459
 20
606.8375662388555
 30
0
  0
SEQEND
  8
0
  0
POLYLINE
  8
0
 62
7
 66
1
  0
VERTEX
  8
0
 10
106.1067089021015
 20
606.8375662388555
 30
0
  0
VERTEX
  8
0
 10
107.5055404942066
 20
604.4147231346226
 30
0
  0
VERTEX
  8
0
 10
108.8491260317617
 20
602.0875641105388
 30
0
  0
SEQEND
  8
0
  0
POLYLINE
  8
0
 62
7
 66
1
  0
VERTEX
  8
0
 10
106.1067089021015
 20
535.3375636110652
 30
0
  0
VERTEX
  8
0
 10
104.0573000695588
 20
531.7878760820242
 30
0
  0
VERTEX
  8
0
 10
103.3642992232419
 20
530.587565208147
 30
0
  0
SEQEND
  8
0
  0
POLYLINE
  8
0
 62
7
 66
1
  0
VERTEX
  8
0
 10
103.3642992232419
 20
530.587565208147
 30
0
  0
VERTEX
  8
0
 10
104.6359866586101
 20
528.3849426376266
 30
0
  0
VERTEX
  8
0
 10
105.9116899569387
 20
526.1753574994739
 30
0
  0
VERTEX
  8
0
 10
106.1067089021015
 20
525.8375668049296
 30
0
  0
SEQEND
  8
0
  0
POLYLINE
  8
0
 62
7
 66
1
  0
VERTEX
  8
0
 10
125.3036101821183
 20
530.587565208147
 30
0
  0
VERTEX
  8
0
 10
124.0319227464504
 20
532.7901915040686
 30
0
  0
VERTEX
  8
0
 10
122.7562194484219
 20
534.9997729168201
 30
0
  0
VERTEX
  8
0
 10
122.561193052459
 20
535.3375636110652
 30
0
  0
SEQEND
  8
0
  0
POLYLINE
  8
0
 62
7
 66
1
  0
VERTEX
  8
0
 10
122.561193052459
 20
525.8375668049296
 30
0
  0
VERTEX
  8
0
 10
123.3075139782457
 20
527.1302313497893
 30
0
  0
VERTEX
  8
0
 10
125.3036101821183
 20
530.587565208147
 30
0
  0
SEQEND
  8
0
  0
POLYLINE
  8
0
 62
7
 66
1
  0
VERTEX
  8
0
 10
122.561193052459
 20
535.3375636110652
 30
0
  0
VERTEX
  8
0
 10
121.1623651857542
 20
537.7604067155992
 30
0
  0
VERTEX
  8
0
 10
119.8187796484992
 20
540.0875657396839
 30
0
  0
SEQEND
  8
0
  0
POLYLINE
  8
0
 62
7
 66
1
  0
VERTEX
  8
0
 10
108.8491260317617
 20
540.0875657396839
 30
0
  0
VERTEX
  8
0
 10
106.8530335532885
 20
536.6302318813252
 30
0
  0
VERTEX
  8
0
 10
106.1067089021015
 20
535.3375636110652
 30
0
  0
SEQEND
  8
0
  0
POLYLINE
  8
0
 62
7
 66
1
  0
VERTEX
  8
0
 10
119.8187796484992
 20
521.087564676611
 30
0
  0
VERTEX
  8
0
 10
120.511780494516
 20
522.2878755504883
 30
0
  0
VERTEX
  8
0
 10
122.561193052459
 20
525.8375668049296
 30
0
  0
SEQEND
  8
0
  0
POLYLINE
  8
0
 62
7
 66
1
  0
VERTEX
  8
0
 10
106.1067089021015
 20
525.8375668049296
 30
0
  0
VERTEX
  8
0
 10
107.5055404942066
 20
523.4147237006957
 30
0
  0
VERTEX
  8
0
 10
108.8491260317617
 20
521.087564676611
 30
0
  0
SEQEND
  8
0
  0
POLYLINE
  8
0
 62
7
 66
1
  0
VERTEX
  8
0
 10
126.9820099069473
 20
580.2875650376766
 30
0
  0
VERTEX
  8
0
 10
126.9339722889247
 20
580.3356017244989
 30
0
  0
VERTEX
  8
0
 10
126.7917109046377
 20
580.4778659029873
 30
0
  0
VERTEX
  8
0
 10
126.5606833036316
 20
580.7088907097925
 30
0
  0
VERTEX
  8
0
 10
126.2497780289207
 20
581.0197978469034
 30
0
  0
VERTEX
  8
0
 10
125.8709383611838
 20
581.3986393776415
 30
0
  0
VERTEX
  8
0
 10
125.4387190090772
 20
581.8308559355485
 30
0
  0
VERTEX
  8
0
 10
124.9697384928352
 20
582.2998392459897
 30
0
  0
VERTEX
  8
0
 10
124.4820123159791
 20
582.7875644913449
 30
0
  0
SEQEND
  8
0
  0
POLYLINE
  8
0
 62
7
 66
1
  0
VERTEX
  8
0
 10
126.9820099069473
 20
573.5875648442282
 30
0
  0
VERTEX
  8
0
 10
126.9339722889247
 20
573.5395281577059
 30
0
  0
VERTEX
  8
0
 10
126.7917109046377
 20
573.3972637464187
 30
0
  0
VERTEX
  8
0
 10
126.5606833036316
 20
573.1662389396136
 30
0
  0
VERTEX
  8
0
 10
126.2497780289207
 20
572.8553318022016
 30
0
  0
VERTEX
  8
0
 10
125.8709383611838
 20
572.4764905045652
 30
0
  0
VERTEX
  8
0
 10
125.4387190090772
 20
572.0442734807577
 30
0
  0
VERTEX
  8
0
 10
124.9697384928352
 20
571.5752907235158
 30
0
  0
VERTEX
  8
0
 10
124.4820123159791
 20
571.0875649249613
 30
0
  0
SEQEND
  8
0
  0
POLYLINE
  8
0
 62
7
 66
1
  0
VERTEX
  8
0
 10
124.4820123159791
 20
571.0875649249613
 30
0
  0
VERTEX
  8
0
 10
124.9697384928352
 20
570.5998391264059
 30
0
  0
VERTEX
  8
0
 10
125.4387190090772
 20
570.130856369163
 30
0
  0
VERTEX
  8
0
 10
125.8709383611838
 20
569.6986393453574
 30
0
  0
VERTEX
  8
0
 10
126.2497780289207
 20
569.31979804772
 30
0
  0
VERTEX
  8
0
 10
126.5606833036316
 20
569.0088909106091
 30
0
  0
VERTEX
  8
0
 10
126.7917109046377
 20
568.7778661038039
 30
0
  0
VERTEX
  8
0
 10
126.9339722889247
 20
568.6356016922157
 30
0
  0
VERTEX
  8
0
 10
126.9820099069473
 20
568.5875650056935
 30
0
  0
SEQEND
  8
0
  0
POLYLINE
  8
0
 62
7
 66
1
  0
VERTEX
  8
0
 10
126.9820099069473
 20
561.8875648122441
 30
0
  0
VERTEX
  8
0
 10
126.9339722889247
 20
561.839528125721
 30
0
  0
VERTEX
  8
0
 10
126.7917109046377
 20
561.6972639472353
 30
0
  0
VERTEX
  8
0
 10
126.5606833036316
 20
561.4662391404283
 30
0
  0
VERTEX
  8
0
 10
126.2497780289207
 20
561.1553320030173
 30
0
  0
VERTEX
  8
0
 10
125.8709383611838
 20
560.7764904725811
 30
0
  0
VERTEX
  8
0
 10
125.4387190090772
 20
560.3442739143741
 30
0
  0
VERTEX
  8
0
 10
124.9697384928352
 20
559.8752906042321
 30
0
  0
VERTEX
  8
0
 10
124.4820123159791
 20
559.3875653585776
 30
0
  0
SEQEND
  8
0
  0
POLYLINE
  8
0
 62
7
 66
1
  0
VERTEX
  8
0
 10
238.650733364442
 20
565.0876189491594
 30
0
  0
VERTEX
  8
0
 10
238.615864647689
 20
565.0874028822602
 30
0
  0
VERTEX
  8
0
 10
238.564153893602
 20
565.0872380382618
 30
0
  0
SEQEND
  8
0
  0
POLYLINE
  8
0
 62
7
 66
1
  0
VERTEX
  8
0
 10
238.562186940321
 20
577.110337617037
 30
0
  0
VERTEX
  8
0
 10
238.5727853909161
 20
577.1073890496657
 30
0
  0
VERTEX
  8
0
 10
238.6509121782401
 20
577.0858857428805
 30
0
  0
SEQEND
  8
0
  0
POLYLINE
  8
0
 62
7
 66
1
  0
VERTEX
  8
0
 10
238.7401589571541
 20
576.022378703444
 30
0
  0
VERTEX
  8
0
 10
238.7455084740011
 20
576.044590746423
 30
0
  0
VERTEX
  8
0
 10
238.79085643245
 20
576.2329824003512
 30
0
  0
VERTEX
  8
0
 10
238.8636746811271
 20
576.5354824887465
 30
0
  0
VERTEX
  8
0
 10
238.9225491684431
 20
576.7800510540176
 30
0
  0
VERTEX
  8
0
 10
238.9608824051611
 20
576.9392951054354
 30
0
  0
VERTEX
  8
0
 10
238.974367955828
 20
576.9953150891781
 30
0
  0
SEQEND
  8
0
  0
POLYLINE
  8
0
 62
7
 66
1
  0
VERTEX
  8
0
 10
240.5379914878952
 20
565.4165918814917
 30
0
  0
VERTEX
  8
0
 10
241.2768916353562
 20
565.5721111083451
 30
0
  0
VERTEX
  8
0
 10
242.3560784218362
 20
565.7992224979901
 30
0
  0
VERTEX
  8
0
 10
245.730487318719
 20
566.5091394216381
 30
0
  0
VERTEX
  8
0
 10
247.687691492378
 20
566.9206470910515
 30
0
  0
SEQEND
  8
0
  0
POLYLINE
  8
0
 62
7
 66
1
  0
VERTEX
  8
0
 10
238.875390719011
 20
566.0885629986162
 30
0
  0
VERTEX
  8
0
 10
238.8768808351961
 20
566.0745563728553
 30
0
  0
VERTEX
  8
0
 10
238.8995455010711
 20
565.8614874649713
 30
0
  0
VERTEX
  8
0
 10
238.932421187644
 20
565.5524201555411
 30
0
  0
VERTEX
  8
0
 10
238.9588148690821
 20
565.3043609931058
 30
0
  0
VERTEX
  8
0
 10
238.975880423812
 20
565.1439951636987
 30
0
  0
VERTEX
  8
0
 10
238.9817254041541
 20
565.0890368877447
 30
0
  0
SEQEND
  8
0
  0
POLYLINE
  8
0
 62
7
 66
1
  0
VERTEX
  8
0
 10
238.6507259139421
 20
565.0875896124583
 30
0
  0
VERTEX
  8
0
 10
238.7168237390861
 20
565.0878708720559
 30
0
  0
VERTEX
  8
0
 10
238.8224543443362
 20
565.0883202351517
 30
0
  0
VERTEX
  8
0
 10
238.9817254041541
 20
565.0890368877447
 30
0
  0
SEQEND
  8
0
  0
POLYLINE
  8
0
 62
7
 66
1
  0
VERTEX
  8
0
 10
215.7798427954181
 20
594.5767344680428
 30
0
  0
VERTEX
  8
0
 10
216.0264681864691
 20
594.6766504783502
 30
0
  0
VERTEX
  8
0
 10
216.36467983891
 20
594.7085035726343
 30
0
  0
SEQEND
  8
0
  0
POLYLINE
  8
0
 62
7
 66
1
  0
VERTEX
  8
0
 10
215.6336344659701
 20
594.1868418641154
 30
0
  0
VERTEX
  8
0
 10
215.6586404767221
 20
594.37263699047
 30
0
  0
VERTEX
  8
0
 10
215.7798427954181
 20
594.5767344680428
 30
0
  0
SEQEND
  8
0
  0
POLYLINE
  8
0
 62
7
 66
1
  0
VERTEX
  8
0
 10
215.8773187404501
 20
593.6994789029579
 30
0
  0
VERTEX
  8
0
 10
215.7238237431751
 20
593.8907502061568
 30
0
  0
VERTEX
  8
0
 10
215.6336344659701
 20
594.1868418641154
 30
0
  0
SEQEND
  8
0
  0
POLYLINE
  8
0
 62
7
 66
1
  0
VERTEX
  8
0
 10
216.9495206075001
 20
593.3583224088463
 30
0
  0
VERTEX
  8
0
 10
216.4453211971081
 20
593.4095153476376
 30
0
  0
VERTEX
  8
0
 10
215.8773187404501
 20
593.6994789029579
 30
0
  0
SEQEND
  8
0
  0
POLYLINE
  8
0
 62
7
 66
1
  0
VERTEX
  8
0
 10
215.7798427954181
 20
592.2373844316801
 30
0
  0
VERTEX
  8
0
 10
216.0105388454271
 20
592.3020219432376
 30
0
  0
VERTEX
  8
0
 10
216.315945591793
 20
592.3204174264549
 30
0
  0
SEQEND
  8
0
  0
POLYLINE
  8
0
 62
7
 66
1
  0
VERTEX
  8
0
 10
215.6336344659701
 20
591.8962298002691
 30
0
  0
VERTEX
  8
0
 10
215.6624849763841
 20
592.0606659750358
 30
0
  0
VERTEX
  8
0
 10
215.7798427954181
 20
592.2373844316801
 30
0
  0
SEQEND
  8
0
  0
POLYLINE
  8
0
 62
7
 66
1
  0
VERTEX
  8
0
 10
215.8773187404501
 20
591.3601270038937
 30
0
  0
VERTEX
  8
0
 10
215.7172448806401
 20
591.5713770387949
 30
0
  0
VERTEX
  8
0
 10
215.6336344659701
 20
591.8962298002691
 30
0
  0
SEQEND
  8
0
  0
POLYLINE
  8
0
 62
7
 66
1
  0
VERTEX
  8
0
 10
216.9495206075001
 20
591.0189723724818
 30
0
  0
VERTEX
  8
0
 10
216.4453211971081
 20
591.070165311274
 30
0
  0
VERTEX
  8
0
 10
215.8773187404501
 20
591.3601270038937
 30
0
  0
SEQEND
  8
0
  0
POLYLINE
  8
0
 62
7
 66
1
  0
VERTEX
  8
0
 10
214.7076409283681
 20
592.2861205414959
 30
0
  0
VERTEX
  8
0
 10
214.890096332056
 20
591.6190160507215
 30
0
  0
VERTEX
  8
0
 10
215.536162246339
 20
591.0189723724818
 30
0
  0
SEQEND
  8
0
  0
POLYLINE
  8
0
 62
7
 66
1
  0
VERTEX
  8
0
 10
214.7076409283681
 20
594.5767344680428
 30
0
  0
VERTEX
  8
0
 10
214.890096332056
 20
593.9096299772684
 30
0
  0
VERTEX
  8
0
 10
215.536162246339
 20
593.3095862990297
 30
0
  0
SEQEND
  8
0
  0
POLYLINE
  8
0
 62
7
 66
1
  0
VERTEX
  8
0
 10
215.0000613126641
 20
595.4539900334287
 30
0
  0
VERTEX
  8
0
 10
214.7841043735091
 20
595.1002904869422
 30
0
  0
VERTEX
  8
0
 10
214.7076409283681
 20
594.5767344680428
 30
0
  0
SEQEND
  8
0
  0
POLYLINE
  8
0
 62
7
 66
1
  0
VERTEX
  8
0
 10
215.7798427954181
 20
584.8150015623071
 30
0
  0
VERTEX
  8
0
 10
216.0264681864691
 20
584.9149175723135
 30
0
  0
VERTEX
  8
0
 10
216.36467983891
 20
584.9467706665967
 30
0
  0
SEQEND
  8
0
  0
POLYLINE
  8
0
 62
7
 66
1
  0
VERTEX
  8
0
 10
215.6336344659701
 20
584.4251098895795
 30
0
  0
VERTEX
  8
0
 10
215.6586404767221
 20
584.6109040847343
 30
0
  0
VERTEX
  8
0
 10
215.7798427954181
 20
584.8150015623071
 30
0
  0
SEQEND
  8
0
  0
POLYLINE
  8
0
 62
7
 66
1
  0
VERTEX
  8
0
 10
216.9495206075001
 20
583.5965904340085
 30
0
  0
VERTEX
  8
0
 10
216.4453211971081
 20
583.6477824416018
 30
0
  0
VERTEX
  8
0
 10
215.8773187404501
 20
583.9377450657196
 30
0
  0
SEQEND
  8
0
  0
POLYLINE
  8
0
 62
7
 66
1
  0
VERTEX
  8
0
 10
215.7798427954181
 20
582.4756515256424
 30
0
  0
VERTEX
  8
0
 10
216.0105388454271
 20
582.5402890372018
 30
0
  0
VERTEX
  8
0
 10
216.315945591793
 20
582.5586835892184
 30
0
  0
SEQEND
  8
0
  0
POLYLINE
  8
0
 62
7
 66
1
  0
VERTEX
  8
0
 10
215.6336344659701
 20
582.1344959630326
 30
0
  0
VERTEX
  8
0
 10
215.6624849763841
 20
582.2989340001989
 30
0
  0
VERTEX
  8
0
 10
215.7798427954181
 20
582.4756515256424
 30
0
  0
SEQEND
  8
0
  0
POLYLINE
  8
0
 62
7
 66
1
  0
VERTEX
  8
0
 10
215.8773187404501
 20
581.5983950293569
 30
0
  0
VERTEX
  8
0
 10
215.7172448806401
 20
581.8096441327582
 30
0
  0
VERTEX
  8
0
 10
215.6336344659701
 20
582.1344959630326
 30
0
  0
SEQEND
  8
0
  0
POLYLINE
  8
0
 62
7
 66
1
  0
VERTEX
  8
0
 10
216.9495206075001
 20
581.2572394664451
 30
0
  0
VERTEX
  8
0
 10
216.4453211971081
 20
581.3084324052372
 30
0
  0
VERTEX
  8
0
 10
215.8773187404501
 20
581.5983950293569
 30
0
  0
SEQEND
  8
0
  0
POLYLINE
  8
0
 62
7
 66
1
  0
VERTEX
  8
0
 10
214.7076409283681
 20
582.5243876357583
 30
0
  0
VERTEX
  8
0
 10
214.890096332056
 20
581.8572831446857
 30
0
  0
VERTEX
  8
0
 10
215.536162246339
 20
581.2572394664451
 30
0
  0
SEQEND
  8
0
  0
POLYLINE
  8
0
 62
7
 66
1
  0
VERTEX
  8
0
 10
215.0000613126641
 20
585.6922580585926
 30
0
  0
VERTEX
  8
0
 10
214.7841043735091
 20
585.3385575809054
 30
0
  0
VERTEX
  8
0
 10
214.7076409283681
 20
584.8150015623071
 30
0
  0
SEQEND
  8
0
  0
POLYLINE
  8
0
 62
7
 66
1
  0
VERTEX
  8
0
 10
214.7076409283681
 20
584.8150015623071
 30
0
  0
VERTEX
  8
0
 10
214.890096332056
 20
584.1478970712326
 30
0
  0
VERTEX
  8
0
 10
215.536162246339
 20
583.5478533929929
 30
0
  0
SEQEND
  8
0
  0
POLYLINE
  8
0
 62
7
 66
1
  0
VERTEX
  8
0
 10
215.8773187404501
 20
583.9377450657196
 30
0
  0
VERTEX
  8
0
 10
215.7238237431751
 20
584.12901730012
 30
0
  0
VERTEX
  8
0
 10
215.6336344659701
 20
584.4251098895795
 30
0
  0
SEQEND
  8
0
  0
POLYLINE
  8
0
 62
7
 66
1
  0
VERTEX
  8
0
 10
148.8075281492545
 20
579.14660921361
 30
0
  0
VERTEX
  8
0
 10
148.8853718145808
 20
578.4506174249239
 30
0
  0
VERTEX
  8
0
 10
149.2743740743169
 20
577.6543045008341
 30
0
  0
SEQEND
  8
0
  0
POLYLINE
  8
0
 62
7
 66
1
  0
VERTEX
  8
0
 10
149.2743740743169
 20
580.5950225564241
 30
0
  0
VERTEX
  8
0
 10
148.9427897134108
 20
580.001461814519
 30
0
  0
VERTEX
  8
0
 10
148.8075281492545
 20
579.14660921361
 30
0
  0
SEQEND
  8
0
  0
POLYLINE
  8
0
 62
7
 66
1
  0
VERTEX
  8
0
 10
155.1278779585748
 20
579.14660921361
 30
0
  0
VERTEX
  8
0
 10
155.0635477838125
 20
578.7331862791164
 30
0
  0
VERTEX
  8
0
 10
154.8046792260846
 20
578.2687827476295
 30
0
  0
SEQEND
  8
0
  0
POLYLINE
  8
0
 62
7
 66
1
  0
VERTEX
  8
0
 10
149.4898374123766
 20
579.14660921361
 30
0
  0
VERTEX
  8
0
 10
149.5580884550984
 20
579.5403891580993
 30
0
  0
VERTEX
  8
0
 10
149.8130398702667
 20
579.9805443096268
 30
0
  0
SEQEND
  8
0
  0
POLYLINE
  8
0
 62
7
 66
1
  0
VERTEX
  8
0
 10
149.8130398702667
 20
578.2687827476295
 30
0
  0
VERTEX
  8
0
 10
149.5943802329387
 20
578.6258932631829
 30
0
  0
VERTEX
  8
0
 10
149.4898374123766
 20
579.14660921361
 30
0
  0
SEQEND
  8
0
  0
POLYLINE
  8
0
 62
7
 66
1
  0
VERTEX
  8
0
 10
155.8075292271235
 20
579.14660921361
 30
0
  0
VERTEX
  8
0
 10
155.7276869435161
 20
579.8230129602919
 30
0
  0
VERTEX
  8
0
 10
155.3433450220343
 20
580.5950225564241
 30
0
  0
SEQEND
  8
0
  0
POLYLINE
  8
0
 62
7
 66
1
  0
VERTEX
  8
0
 10
155.3433450220343
 20
577.6543045008341
 30
0
  0
VERTEX
  8
0
 10
155.6771161282184
 20
578.2671310472463
 30
0
  0
VERTEX
  8
0
 10
155.8075292271235
 20
579.14660921361
 30
0
  0
SEQEND
  8
0
  0
POLYLINE
  8
0
 62
7
 66
1
  0
VERTEX
  8
0
 10
154.8046792260846
 20
579.9805443096268
 30
0
  0
VERTEX
  8
0
 10
155.0187791079582
 20
579.6420290460894
 30
0
  0
VERTEX
  8
0
 10
155.1278779585748
 20
579.14660921361
 30
0
  0
SEQEND
  8
0
  0
POLYLINE
  8
0
 62
7
 66
1
  0
VERTEX
  8
0
 10
238.6508898267412
 20
577.086112054478
 30
0
  0
VERTEX
  8
0
 10
238.7923316473361
 20
577.0527311253084
 30
0
  0
VERTEX
  8
0
 10
238.971495757057
 20
577.0102465183311
 30
0
  0
SEQEND
  8
0
  0
POLYLINE
  8
0
 62
7
 66
1
  0
VERTEX
  8
0
 10
238.971495757057
 20
577.0102465183311
 30
0
  0
VERTEX
  8
0
 10
238.9726766740441
 20
577.0041067741925
 30
0
  0
VERTEX
  8
0
 10
238.974367955828
 20
576.9953155547794
 30
0
  0
SEQEND
  8
0
  0
POLYLINE
  8
0
 62
7
 66
1
  0
VERTEX
  8
0
 10
238.971495757057
 20
577.0102465183311
 30
0
  0
VERTEX
  8
0
 10
242.803273440795
 20
576.2355998823243
 30
0
  0
VERTEX
  8
0
 10
247.680084449453
 20
575.2496855165175
 30
0
  0
SEQEND
  8
0
  0
POLYLINE
  8
0
 62
7
 66
1
  0
VERTEX
  8
0
 10
244.2320079376032
 20
566.1441350160642
 30
0
  0
VERTEX
  8
0
 10
244.045441675956
 20
566.1194121273104
 30
0
  0
VERTEX
  8
0
 10
243.996565867842
 20
566.114111970662
 30
0
  0
SEQEND
  8
0
  0
POLYLINE
  8
0
 62
7
 66
1
  0
VERTEX
  8
0
 10
241.004155684866
 20
563.0875646245243
 30
0
  0
VERTEX
  8
0
 10
239.504156385264
 20
562.7819092150614
 30
0
  0
VERTEX
  8
0
 10
238.0281889331261
 20
561.8588241978298
 30
0
  0
SEQEND
  8
0
  0
POLYLINE
  8
0
 62
7
 66
1
  0
VERTEX
  8
0
 10
238.0708770340011
 20
580.2896074280573
 30
0
  0
VERTEX
  8
0
 10
239.504156385264
 20
579.3932206348611
 30
0
  0
VERTEX
  8
0
 10
241.004155684866
 20
579.0875652256966
 30
0
  0
SEQEND
  8
0
  0
POLYLINE
  8
0
 62
7
 66
1
  0
VERTEX
  8
0
 10
246.0225500754182
 20
566.4932035609966
 30
0
  0
VERTEX
  8
0
 10
244.8408097734562
 20
566.0164544176325
 30
0
  0
VERTEX
  8
0
 10
243.4820101503531
 20
565.8375650479086
 30
0
  0
SEQEND
  8
0
  0
POLYLINE
  8
0
 62
7
 66
1
  0
VERTEX
  8
0
 10
123.334779377775
 20
553.9625527420633
 30
0
  0
VERTEX
  8
0
 10
123.015607683845
 20
553.880164222581
 30
0
  0
VERTEX
  8
0
 10
122.5645197368256
 20
553.7637228249389
 30
0
  0
VERTEX
  8
0
 10
122.2003055585444
 20
553.6697076747726
 30
0
  0
VERTEX
  8
0
 10
121.9639582429916
 20
553.6086967332797
 30
0
  0
VERTEX
  8
0
 10
121.8820912642038
 20
553.5875650244882
 30
0
  0
SEQEND
  8
0
  0
POLYLINE
  8
0
 62
7
 66
1
  0
VERTEX
  8
0
 10
121.8820912642038
 20
588.5875648257327
 30
0
  0
VERTEX
  8
0
 10
121.9174591701533
 20
588.5784341392239
 30
0
  0
VERTEX
  8
0
 10
122.1028296135116
 20
588.5305846484991
 30
0
  0
VERTEX
  8
0
 10
122.4271533834906
 20
588.4468662005313
 30
0
  0
VERTEX
  8
0
 10
122.8538555808525
 20
588.3367186807247
 30
0
  0
VERTEX
  8
0
 10
123.334779377775
 20
588.2125771078584
 30
0
  0
SEQEND
  8
0
  0
POLYLINE
  8
0
 62
7
 66
1
  0
VERTEX
  8
0
 10
111.2598135138157
 20
587.3205358659191
 30
0
  0
VERTEX
  8
0
 10
111.2973271868434
 20
587.3122172926026
 30
0
  0
VERTEX
  8
0
 10
111.4084451448396
 20
587.2875856734456
 30
0
  0
VERTEX
  8
0
 10
111.5888833038473
 20
587.247581644044
 30
0
  0
VERTEX
  8
0
 10
111.8317126242353
 20
587.1937493370781
 30
0
  0
VERTEX
  8
0
 10
112.1275975284959
 20
587.12815070083
 30
0
  0
VERTEX
  8
0
 10
112.4651758815428
 20
587.053311482073
 30
0
  0
VERTEX
  8
0
 10
112.8314687718046
 20
586.9721076049802
 30
0
  0
VERTEX
  8
0
 10
113.2124020528202
 20
586.8876571375197
 30
0
  0
SEQEND
  8
0
  0
POLYLINE
  8
0
 62
7
 66
1
  0
VERTEX
  8
0
 10
113.2124020528202
 20
555.287472712703
 30
0
  0
VERTEX
  8
0
 10
112.8314687718046
 20
555.2030222449423
 30
0
  0
VERTEX
  8
0
 10
112.4651758815428
 20
555.1218183678486
 30
0
  0
VERTEX
  8
0
 10
112.1275975284959
 20
555.0469791493918
 30
0
  0
VERTEX
  8
0
 10
111.8317126242353
 20
554.9813805131428
 30
0
  0
VERTEX
  8
0
 10
111.5888833038473
 20
554.9275482061787
 30
0
  0
VERTEX
  8
0
 10
111.4084451448396
 20
554.8875441767752
 30
0
  0
VERTEX
  8
0
 10
111.2973271868434
 20
554.8629125573209
 30
0
  0
VERTEX
  8
0
 10
111.2598135138157
 20
554.8545939843027
 30
0
  0
SEQEND
  8
0
  0
POLYLINE
  8
0
 62
7
 66
1
  0
VERTEX
  8
0
 10
109.3072175246105
 20
587.7534145943184
 30
0
  0
VERTEX
  8
0
 10
109.688150805627
 20
587.6689641265577
 30
0
  0
VERTEX
  8
0
 10
110.0544436958878
 20
587.5877602494641
 30
0
  0
VERTEX
  8
0
 10
110.3920220486359
 20
587.512921030708
 30
0
  0
VERTEX
  8
0
 10
110.6879069528966
 20
587.4473223944599
 30
0
  0
VERTEX
  8
0
 10
110.9307362732845
 20
587.3934882250935
 30
0
  0
VERTEX
  8
0
 10
111.1111818830916
 20
587.3534860580924
 30
0
  0
VERTEX
  8
0
 10
111.222292390288
 20
587.3288525762366
 30
0
  0
VERTEX
  8
0
 10
111.2598135138157
 20
587.3205358659191
 30
0
  0
SEQEND
  8
0
  0
POLYLINE
  8
0
 62
7
 66
1
  0
VERTEX
  8
0
 10
111.2598135138157
 20
554.8545939843027
 30
0
  0
VERTEX
  8
0
 10
111.222292390288
 20
554.8462772736859
 30
0
  0
VERTEX
  8
0
 10
111.1111818830916
 20
554.8216437918311
 30
0
  0
VERTEX
  8
0
 10
110.9307362732845
 20
554.7816416251274
 30
0
  0
VERTEX
  8
0
 10
110.6879069528966
 20
554.7278074554636
 30
0
  0
VERTEX
  8
0
 10
110.3920220486359
 20
554.6622088192128
 30
0
  0
VERTEX
  8
0
 10
110.0544436958878
 20
554.5873696004576
 30
0
  0
VERTEX
  8
0
 10
109.688150805627
 20
554.5061657233639
 30
0
  0
VERTEX
  8
0
 10
109.3072175246105
 20
554.4217152559024
 30
0
  0
SEQEND
  8
0
  0
POLYLINE
  8
0
 62
7
 66
1
  0
VERTEX
  8
0
 10
107.097248681662
 20
574.5887524345837
 30
0
  0
VERTEX
  8
0
 10
107.3351010141007
 20
575.0115556498834
 30
0
  0
VERTEX
  8
0
 10
107.4288069653687
 20
575.6223835777166
 30
0
  0
SEQEND
  8
0
  0
POLYLINE
  8
0
 62
7
 66
1
  0
VERTEX
  8
0
 10
102.7622699653214
 20
576.6256135584511
 30
0
  0
VERTEX
  8
0
 10
102.5259375510698
 20
576.2161981049178
 30
0
  0
VERTEX
  8
0
 10
102.4288117834342
 20
575.6223835777166
 30
0
  0
SEQEND
  8
0
  0
POLYLINE
  8
0
 62
7
 66
1
  0
VERTEX
  8
0
 10
106.7124858022837
 20
576.2000005428783
 30
0
  0
VERTEX
  8
0
 10
106.8649172290704
 20
575.9665673357979
 30
0
  0
VERTEX
  8
0
 10
106.943342039692
 20
575.6223835777166
 30
0
  0
SEQEND
  8
0
  0
POLYLINE
  8
0
 62
7
 66
1
  0
VERTEX
  8
0
 10
107.4288069653687
 20
575.6223835777166
 30
0
  0
VERTEX
  8
0
 10
107.3714002424388
 20
576.092447222047
 30
0
  0
VERTEX
  8
0
 10
107.097248681662
 20
576.6256135584511
 30
0
  0
SEQEND
  8
0
  0
POLYLINE
  8
0
 62
7
 66
1
  0
VERTEX
  8
0
 10
102.9161766072932
 20
575.6223835777166
 30
0
  0
VERTEX
  8
0
 10
102.9653355374041
 20
575.896136532697
 30
0
  0
VERTEX
  8
0
 10
103.1470328446997
 20
576.2000005428783
 30
0
  0
SEQEND
  8
0
  0
POLYLINE
  8
0
 62
7
 66
1
  0
VERTEX
  8
0
 10
103.1470328446997
 20
575.0143649842569
 30
0
  0
VERTEX
  8
0
 10
102.9914200199457
 20
575.2607002684101
 30
0
  0
VERTEX
  8
0
 10
102.9161766072932
 20
575.6223835777166
 30
0
  0
SEQEND
  8
0
  0
POLYLINE
  8
0
 62
7
 66
1
  0
VERTEX
  8
0
 10
102.4288117834342
 20
575.6223835777166
 30
0
  0
VERTEX
  8
0
 10
102.4848774019772
 20
575.138785953721
 30
0
  0
VERTEX
  8
0
 10
102.7622699653214
 20
574.5887524345837
 30
0
  0
SEQEND
  8
0
  0
POLYLINE
  8
0
 62
7
 66
1
  0
VERTEX
  8
0
 10
106.943342039692
 20
575.6223835777166
 30
0
  0
VERTEX
  8
0
 10
106.8969323737522
 20
575.3350416953701
 30
0
  0
VERTEX
  8
0
 10
106.7124858022837
 20
575.0143649842569
 30
0
  0
SEQEND
  8
0
  0
POLYLINE
  8
0
 62
7
 66
1
  0
VERTEX
  8
0
 10
102.9161766072932
 20
571.1048079422892
 30
0
  0
VERTEX
  8
0
 10
102.9412105576441
 20
571.3320820057318
 30
0
  0
VERTEX
  8
0
 10
103.0700757984648
 20
571.5912225386576
 30
0
  0
SEQEND
  8
0
  0
POLYLINE
  8
0
 62
7
 66
1
  0
VERTEX
  8
0
 10
102.4288117834342
 20
571.1048079422892
 30
0
  0
VERTEX
  8
0
 10
102.4982660952444
 20
570.645589125051
 30
0
  0
VERTEX
  8
0
 10
102.7879223140665
 20
570.131978787653
 30
0
  0
SEQEND
  8
0
  0
POLYLINE
  8
0
 62
7
 66
1
  0
VERTEX
  8
0
 10
107.0715963329169
 20
570.0711769863567
 30
0
  0
VERTEX
  8
0
 10
107.3182776034676
 20
570.4791138488047
 30
0
  0
VERTEX
  8
0
 10
107.4288069653687
 20
571.0744070306912
 30
0
  0
SEQEND
  8
0
  0
POLYLINE
  8
0
 62
7
 66
1
  0
VERTEX
  8
0
 10
102.7109652678316
 20
572.0168353211304
 30
0
  0
VERTEX
  8
0
 10
102.5059327424681
 20
571.6430377755444
 30
0
  0
VERTEX
  8
0
 10
102.4288117834342
 20
571.1048079422892
 30
0
  0
SEQEND
  8
0
  0
POLYLINE
  8
0
 62
7
 66
1
  0
VERTEX
  8
0
 10
107.4288069653687
 20
571.0744070306912
 30
0
  0
VERTEX
  8
0
 10
107.3617144878351
 20
571.5466520890006
 30
0
  0
VERTEX
  8
0
 10
107.0715963329169
 20
572.0776370639271
 30
0
  0
SEQEND
  8
0
  0
POLYLINE
  8
0
 62
7
 66
1
  0
VERTEX
  8
0
 10
103.0957281472099
 20
570.61839334202
 30
0
  0
VERTEX
  8
0
 10
102.9729425803291
 20
570.8154622156637
 30
0
  0
VERTEX
  8
0
 10
102.9161766072932
 20
571.1048079422892
 30
0
  0
SEQEND
  8
0
  0
POLYLINE
  8
0
 62
7
 66
1
  0
VERTEX
  8
0
 10
106.6868409040383
 20
571.5912225386576
 30
0
  0
VERTEX
  8
0
 10
106.8226202834901
 20
571.3823694950336
 30
0
  0
VERTEX
  8
0
 10
106.892044792701
 20
571.0744070306912
 30
0
  0
SEQEND
  8
0
  0
POLYLINE
  8
0
 62
7
 66
1
  0
VERTEX
  8
0
 10
104.1730597391081
 20
572.6248535653915
 30
0
  0
VERTEX
  8
0
 10
103.4600615346906
 20
572.5307169938253
 30
0
  0
VERTEX
  8
0
 10
102.7109652678316
 20
572.0168353211304
 30
0
  0
SEQEND
  8
0
  0
POLYLINE
  8
0
 62
7
 66
1
  0
VERTEX
  8
0
 10
103.0700757984648
 20
571.5912225386576
 30
0
  0
VERTEX
  8
0
 10
103.5140931448534
 20
571.8582213675065
 30
0
  0
VERTEX
  8
0
 10
104.1730597391081
 20
571.956033461933
 30
0
  0
SEQEND
  8
0
  0
POLYLINE
  8
0
 62
7
 66
1
  0
VERTEX
  8
0
 10
102.7879223140665
 20
570.131978787653
 30
0
  0
VERTEX
  8
0
 10
103.6907911123983
 20
569.5213983004171
 30
0
  0
VERTEX
  8
0
 10
105.070839791091
 20
569.3111540938064
 30
0
  0
SEQEND
  8
0
  0
POLYLINE
  8
0
 62
7
 66
1
  0
VERTEX
  8
0
 10
107.0715963329169
 20
572.0776370639271
 30
0
  0
VERTEX
  8
0
 10
106.444227650549
 20
572.4763483615654
 30
0
  0
VERTEX
  8
0
 10
105.5068999171592
 20
572.6552544949893
 30
0
  0
SEQEND
  8
0
  0
POLYLINE
  8
0
 62
7
 66
1
  0
VERTEX
  8
0
 10
106.892044792701
 20
571.0744070306912
 30
0
  0
VERTEX
  8
0
 10
106.8514391289043
 20
570.8159564566588
 30
0
  0
VERTEX
  8
0
 10
106.6868409040383
 20
570.527190640528
 30
0
  0
SEQEND
  8
0
  0
POLYLINE
  8
0
 62
7
 66
1
  0
VERTEX
  8
0
 10
209.4820105031751
 20
652.9243614092768
 30
0
  0
VERTEX
  8
0
 10
200.5125807116681
 20
654.9763034390946
 30
0
  0
VERTEX
  8
0
 10
196.672133346315
 20
655.4623122572659
 30
0
  0
SEQEND
  8
0
  0
POLYLINE
  8
0
 62
7
 66
1
  0
VERTEX
  8
0
 10
249.75539150024
 20
637.4986645933998
 30
0
  0
VERTEX
  8
0
 10
250.1103371564132
 20
637.1722621111414
 30
0
  0
VERTEX
  8
0
 10
250.43997319044
 20
636.8211982074292
 30
0
  0
SEQEND
  8
0
  0
POLYLINE
  8
0
 62
7
 66
1
  0
VERTEX
  8
0
 10
196.674100299595
 20
486.7155594063281
 30
0
  0
VERTEX
  8
0
 10
200.5947513018521
 20
487.2136083625812
 30
0
  0
VERTEX
  8
0
 10
209.4820105031751
 20
489.2507684409459
 30
0
  0
SEQEND
  8
0
  0
POLYLINE
  8
0
 62
7
 66
1
  0
VERTEX
  8
0
 10
164.6989980065048
 20
482.2807354604795
 30
0
  0
VERTEX
  8
0
 10
170.3462353631105
 20
481.3518194327064
 30
0
  0
VERTEX
  8
0
 10
176.0181117893715
 20
480.7851431794345
 30
0
  0
SEQEND
  8
0
  0
POLYLINE
  8
0
 62
7
 66
1
  0
VERTEX
  8
0
 10
164.2851927643144
 20
482.2262791676205
 30
0
  0
VERTEX
  8
0
 10
164.3105955184626
 20
482.2073025388083
 30
0
  0
VERTEX
  8
0
 10
164.6989980065048
 20
482.2807354604795
 30
0
  0
SEQEND
  8
0
  0
POLYLINE
  8
0
 62
7
 66
1
  0
VERTEX
  8
0
 10
146.721197964878
 20
487.8551182468084
 30
0
  0
VERTEX
  8
0
 10
147.0389726746209
 20
487.6755294537927
 30
0
  0
VERTEX
  8
0
 10
149.2005164696514
 20
486.7779431172087
 30
0
  0
SEQEND
  8
0
  0
POLYLINE
  8
0
 62
7
 66
1
  0
VERTEX
  8
0
 10
191.7831695093767
 20
480.3938610421212
 30
0
  0
VERTEX
  8
0
 10
192.263243008809
 20
480.4499862649639
 30
0
  0
VERTEX
  8
0
 10
193.4492171033281
 20
480.5911896671616
 30
0
  0
VERTEX
  8
0
 10
194.8065396485461
 20
480.7521520087623
 30
0
  0
SEQEND
  8
0
  0
POLYLINE
  8
0
 62
7
 66
1
  0
VERTEX
  8
0
 10
209.4820105031751
 20
654.634232386293
 30
0
  0
VERTEX
  8
0
 10
200.5939913424591
 20
658.285672493523
 30
0
  0
VERTEX
  8
0
 10
193.2527378442801
 20
660.2686966538252
 30
0
  0
SEQEND
  8
0
  0
POLYLINE
  8
0
 62
7
 66
1
  0
VERTEX
  8
0
 10
209.4820105031751
 20
654.634232386293
 30
0
  0
VERTEX
  8
0
 10
200.5107273797871
 20
656.6267113333008
 30
0
  0
VERTEX
  8
0
 10
195.3872006416781
 20
657.2553615154568
 30
0
  0
SEQEND
  8
0
  0
POLYLINE
  8
0
 62
7
 66
1
  0
VERTEX
  8
0
 10
195.388564097865
 20
484.9216756834469
 30
0
  0
VERTEX
  8
0
 10
200.5887051556131
 20
485.562030727586
 30
0
  0
VERTEX
  8
0
 10
209.4820105031751
 20
487.5408974639297
 30
0
  0
SEQEND
  8
0
  0
POLYLINE
  8
0
 62
7
 66
1
  0
VERTEX
  8
0
 10
209.4820105031751
 20
487.5408974639297
 30
0
  0
VERTEX
  8
0
 10
200.5939913424591
 20
483.8894573563996
 30
0
  0
VERTEX
  8
0
 10
193.0697823201971
 20
481.8570134957874
 30
0
  0
SEQEND
  8
0
  0
POLYLINE
  8
0
 62
7
 66
1
  0
VERTEX
  8
0
 10
151.1456991313287
 20
484.4238353432922
 30
0
  0
VERTEX
  8
0
 10
149.9482157526238
 20
484.8823589699371
 30
0
  0
VERTEX
  8
0
 10
149.1391832906595
 20
485.2798325395891
 30
0
  0
SEQEND
  8
0
  0
POLYLINE
  8
0
 62
7
 66
1
  0
VERTEX
  8
0
 10
158.1483600664712
 20
482.5178129328244
 30
0
  0
VERTEX
  8
0
 10
158.3060180755058
 20
482.5116960060852
 30
0
  0
VERTEX
  8
0
 10
158.4077184995961
 20
482.6228065135813
 30
0
  0
SEQEND
  8
0
  0
POLYLINE
  8
0
 62
7
 66
1
  0
VERTEX
  8
0
 10
164.1805121078544
 20
480.7678876347065
 30
0
  0
VERTEX
  8
0
 10
164.310576892062
 20
480.6739507155392
 30
0
  0
VERTEX
  8
0
 10
164.6989980065048
 20
480.749432546889
 30
0
  0
SEQEND
  8
0
  0
POLYLINE
  8
0
 62
7
 66
1
  0
VERTEX
  8
0
 10
164.6989980065048
 20
480.749432546889
 30
0
  0
VERTEX
  8
0
 10
170.3466041666063
 20
479.834992997073
 30
0
  0
VERTEX
  8
0
 10
176.0181117893715
 20
479.276296315322
 30
0
  0
SEQEND
  8
0
  0
POLYLINE
  8
0
 62
7
 66
1
  0
VERTEX
  8
0
 10
219.1905397450391
 20
485.256683585819
 30
0
  0
VERTEX
  8
0
 10
219.1745507990981
 20
485.2685747124008
 30
0
  0
VERTEX
  8
0
 10
219.121890095922
 20
485.2659372069277
 30
0
  0
VERTEX
  8
0
 10
218.8772204822531
 20
485.2000368222819
 30
0
  0
SEQEND
  8
0
  0
POLYLINE
  8
0
 62
7
 66
1
  0
VERTEX
  8
0
 10
213.4926505479371
 20
483.183544654212
 30
0
  0
VERTEX
  8
0
 10
213.481219494751
 20
483.1965608185822
 30
0
  0
VERTEX
  8
0
 10
213.441560054644
 20
483.2010162655372
 30
0
  0
VERTEX
  8
0
 10
213.2956143580941
 20
483.1755129285914
 30
0
  0
SEQEND
  8
0
  0
POLYLINE
  8
0
 62
7
 66
1
  0
VERTEX
  8
0
 10
193.8762722716871
 20
479.0744898912265
 30
0
  0
VERTEX
  8
0
 10
193.5338082005881
 20
479.0393827557757
 30
0
  0
VERTEX
  8
0
 10
192.8870624209121
 20
478.9724243887406
 30
0
  0
VERTEX
  8
0
 10
192.5971538135921
 20
478.9424432527387
 30
0
  0
SEQEND
  8
0
  0
POLYLINE
  8
0
 62
7
 66
1
  0
VERTEX
  8
0
 10
191.7831695093767
 20
478.8884935989738
 30
0
  0
VERTEX
  8
0
 10
192.2637836415031
 20
478.9435608397273
 30
0
  0
VERTEX
  8
0
 10
193.4495235083251
 20
479.0820522305514
 30
0
  0
VERTEX
  8
0
 10
194.8065396485461
 20
479.2400715928818
 30
0
  0
SEQEND
  8
0
  0
POLYLINE
  8
0
 62
7
 66
1
  0
VERTEX
  8
0
 10
238.6466280945831
 20
566.0875813845253
 30
0
  0
VERTEX
  8
0
 10
238.4989948416492
 20
566.0869844067313
 30
0
  0
VERTEX
  8
0
 10
238.014386732463
 20
566.0851240899503
 30
0
  0
VERTEX
  8
0
 10
237.4821582380491
 20
566.0832428184688
 30
0
  0
VERTEX
  8
0
 10
237.245147821104
 20
566.0824558509769
 30
0
  0
SEQEND
  8
0
  0
POLYLINE
  8
0
 62
7
 66
1
  0
VERTEX
  8
0
 10
238.7401589571541
 20
576.022378703444
 30
0
  0
VERTEX
  8
0
 10
241.078467774827
 20
575.5535104115008
 30
0
  0
VERTEX
  8
0
 10
243.53267782335
 20
575.0612309984892
 30
0
  0
VERTEX
  8
0
 10
245.986839442872
 20
574.5687120027826
 30
0
  0
VERTEX
  8
0
 10
247.4820107663211
 20
574.2684780549646
 30
0
  0
SEQEND
  8
0
  0
POLYLINE
  8
0
 62
7
 66
1
  0
VERTEX
  8
0
 10
238.3750469838801
 20
576.1246029965289
 30
0
  0
VERTEX
  8
0
 10
238.535081728191
 20
576.0800732049695
 30
0
  0
VERTEX
  8
0
 10
238.7401589571541
 20
576.022378703444
 30
0
  0
SEQEND
  8
0
  0
POLYLINE
  8
0
 62
7
 66
1
  0
VERTEX
  8
0
 10
247.4820107663211
 20
567.8992652430309
 30
0
  0
VERTEX
  8
0
 10
245.980648010534
 20
567.5836213990654
 30
0
  0
VERTEX
  8
0
 10
243.5257748603181
 20
567.0672414538951
 30
0
  0
VERTEX
  8
0
 10
241.070946414002
 20
566.5506708200267
 30
0
  0
VERTEX
  8
0
 10
238.875390719011
 20
566.0885629986162
 30
0
  0
SEQEND
  8
0
  0
POLYLINE
  8
0
 62
7
 66
1
  0
VERTEX
  8
0
 10
238.875390719011
 20
566.0885629986162
 30
0
  0
VERTEX
  8
0
 10
238.8180696775801
 20
566.0883092133183
 30
0
  0
VERTEX
  8
0
 10
238.6466280945831
 20
566.0875813845253
 30
0
  0
SEQEND
  8
0
  0
POLYLINE
  8
0
 62
7
 66
1
  0
VERTEX
  8
0
 10
618.084467787377
 20
307.7270472381307
 30
0
  0
VERTEX
  8
0
 10
619.3479372325271
 20
304.7687495382162
 30
0
  0
VERTEX
  8
0
 10
620.627946966312
 20
301.0875629879812
 30
0
  0
SEQEND
  8
0
  0
POLYLINE
  8
0
 62
7
 66
1
  0
VERTEX
  8
0
 10
623.336955692504
 20
291.0875651736117
 30
0
  0
VERTEX
  8
0
 10
624.1460812867661
 20
287.0807323751117
 30
0
  0
VERTEX
  8
0
 10
624.9411401850691
 20
281.0875636338416
 30
0
  0
SEQEND
  8
0
  0
POLYLINE
  8
0
 62
7
 66
1
  0
VERTEX
  8
0
 10
448.336073791987
 20
301.0875629879812
 30
0
  0
VERTEX
  8
0
 10
449.6160835257731
 20
304.7687495382162
 30
0
  0
VERTEX
  8
0
 10
450.879552970923
 20
307.7270472381307
 30
0
  0
SEQEND
  8
0
  0
POLYLINE
  8
0
 62
7
 66
1
  0
VERTEX
  8
0
 10
623.0782193828732
 20
298.0956631698001
 30
0
  0
VERTEX
  8
0
 10
623.805813274447
 20
295.6285896941055
 30
0
  0
VERTEX
  8
0
 10
624.165095168378
 20
294.0951186613377
 30
0
  0
SEQEND
  8
0
  0
POLYLINE
  8
0
 62
7
 66
1
  0
VERTEX
  8
0
 10
444.798925589922
 20
294.0951186613377
 30
0
  0
VERTEX
  8
0
 10
445.1582074838532
 20
295.6285896941055
 30
0
  0
VERTEX
  8
0
 10
445.8851084714331
 20
298.0933125117228
 30
0
  0
SEQEND
  8
0
  0
POLYLINE
  8
0
 62
7
 66
1
  0
VERTEX
  8
0
 10
626.8810627368
 20
267.3375638449199
 30
0
  0
VERTEX
  8
0
 10
626.85496335326
 20
266.1669640233478
 30
0
  0
VERTEX
  8
0
 10
626.4463735174181
 20
261.097004164808
 30
0
  0
SEQEND
  8
0
  0
POLYLINE
  8
0
 62
7
 66
1
  0
VERTEX
  8
0
 10
470.4114807797121
 20
331.2565691253132
 30
0
  0
VERTEX
  8
0
 10
470.4555807657741
 20
331.8390108071272
 30
0
  0
VERTEX
  8
0
 10
470.4820079749111
 20
333.2341618123693
 30
0
  0
SEQEND
  8
0
  0
POLYLINE
  8
0
 62
7
 66
1
  0
VERTEX
  8
0
 10
598.5499322754122
 20
331.7578516336336
 30
0
  0
VERTEX
  8
0
 10
598.583698306177
 20
331.4074955349134
 30
0
  0
VERTEX
  8
0
 10
598.625816437959
 20
331.1600468547714
 30
0
  0
VERTEX
  8
0
 10
598.686046930962
 20
330.892734926727
 30
0
  0
VERTEX
  8
0
 10
598.914153904195
 20
330.2278451208305
 30
0
  0
VERTEX
  8
0
 10
599.138252465269
 20
329.8136300966445
 30
0
  0
VERTEX
  8
0
 10
599.187329438982
 20
329.7424025469528
 30
0
  0
VERTEX
  8
0
 10
599.2236808214211
 20
329.6943314012307
 30
0
  0
VERTEX
  8
0
 10
599.1514548939381
 20
329.7789699959895
 30
0
  0
VERTEX
  8
0
 10
599.1375074071771
 20
329.7951601075284
 30
0
  0
VERTEX
  8
0
 10
599.311038878054
 20
329.6535916269351
 30
0
  0
VERTEX
  8
0
 10
599.6725410449621
 20
329.3958611455947
 30
0
  0
SEQEND
  8
0
  0
POLYLINE
  8
0
 62
7
 66
1
  0
VERTEX
  8
0
 10
469.28205472893
 20
329.3925009338283
 30
0
  0
VERTEX
  8
0
 10
469.436065678801
 20
329.4943131166166
 30
0
  0
VERTEX
  8
0
 10
469.7449741979331
 20
329.7260932262144
 30
0
  0
VERTEX
  8
0
 10
469.8399392971892
 20
329.807498268906
 30
0
  0
VERTEX
  8
0
 10
469.8034985078512
 20
329.7690160203885
 30
0
  0
VERTEX
  8
0
 10
469.749437095689
 20
329.7059543071147
 30
0
  0
VERTEX
  8
0
 10
469.82479226704
 20
329.8121474312594
 30
0
  0
VERTEX
  8
0
 10
470.0641570674632
 20
330.2600241780111
 30
0
  0
VERTEX
  8
0
 10
470.2824888791931
 20
330.9107504305476
 30
0
  0
VERTEX
  8
0
 10
470.356711562257
 20
331.2580666919977
 30
0
  0
VERTEX
  8
0
 10
470.3833548382911
 20
331.4329839711601
 30
0
  0
VERTEX
  8
0
 10
470.4141257359861
 20
331.7566967935446
 30
0
  0
SEQEND
  8
0
  0
POLYLINE
  8
0
 62
7
 66
1
  0
VERTEX
  8
0
 10
458.2320093482911
 20
332.0875621735587
 30
0
  0
VERTEX
  8
0
 10
455.809169969157
 20
332.3204524193453
 30
0
  0
VERTEX
  8
0
 10
453.4820109453731
 20
332.9360715364302
 30
0
  0
SEQEND
  8
0
  0
POLYLINE
  8
0
 62
7
 66
1
  0
VERTEX
  8
0
 10
453.4820109453731
 20
332.9360715364302
 30
0
  0
VERTEX
  8
0
 10
452.2817000711941
 20
332.5762979041039
 30
0
  0
VERTEX
  8
0
 10
448.732012542155
 20
332.0875621735587
 30
0
  0
SEQEND
  8
0
  0
POLYLINE
  8
0
 62
7
 66
1
  0
VERTEX
  8
0
 10
448.732012542155
 20
332.0875621735587
 30
0
  0
VERTEX
  8
0
 10
447.4393442721951
 20
332.1548558166898
 30
0
  0
VERTEX
  8
0
 10
443.982014139237
 20
332.9360715364302
 30
0
  0
SEQEND
  8
0
  0
POLYLINE
  8
0
 62
7
 66
1
  0
VERTEX
  8
0
 10
489.232012259268
 20
332.0875621735587
 30
0
  0
VERTEX
  8
0
 10
486.809169154734
 20
332.3204524193453
 30
0
  0
VERTEX
  8
0
 10
484.48201013065
 20
332.9360715364302
 30
0
  0
SEQEND
  8
0
  0
POLYLINE
  8
0
 62
7
 66
1
  0
VERTEX
  8
0
 10
498.732009065405
 20
332.0875621735587
 30
0
  0
VERTEX
  8
0
 10
497.439344520544
 20
332.1548558166898
 30
0
  0
VERTEX
  8
0
 10
493.982010662186
 20
332.9360715364302
 30
0
  0
SEQEND
  8
0
  0
POLYLINE
  8
0
 62
7
 66
1
  0
VERTEX
  8
0
 10
503.4820111937231
 20
332.9360715364302
 30
0
  0
VERTEX
  8
0
 10
502.281700319845
 20
332.5762979041039
 30
0
  0
VERTEX
  8
0
 10
498.732009065405
 20
332.0875621735587
 30
0
  0
SEQEND
  8
0
  0
POLYLINE
  8
0
 62
7
 66
1
  0
VERTEX
  8
0
 10
620.232008216145
 20
332.0875621735587
 30
0
  0
VERTEX
  8
0
 10
617.8091688370112
 20
332.3204524193453
 30
0
  0
VERTEX
  8
0
 10
615.482009812926
 20
332.9360715364302
 30
0
  0
SEQEND
  8
0
  0
POLYLINE
  8
0
 62
7
 66
1
  0
VERTEX
  8
0
 10
615.482009812926
 20
332.9360715364302
 30
0
  0
VERTEX
  8
0
 10
612.0246722294692
 20
332.1548558166898
 30
0
  0
VERTEX
  8
0
 10
610.732011410008
 20
332.0875621735587
 30
0
  0
SEQEND
  8
0
  0
POLYLINE
  8
0
 62
7
 66
1
  0
VERTEX
  8
0
 10
610.732011410008
 20
332.0875621735587
 30
0
  0
VERTEX
  8
0
 10
607.182323880668
 20
332.5762979041039
 30
0
  0
VERTEX
  8
0
 10
605.982013006791
 20
332.9360715364302
 30
0
  0
SEQEND
  8
0
  0
POLYLINE
  8
0
 62
7
 66
1
  0
VERTEX
  8
0
 10
579.732008499032
 20
332.0875621735587
 30
0
  0
VERTEX
  8
0
 10
577.3091691201971
 20
332.3204524193453
 30
0
  0
VERTEX
  8
0
 10
574.982010096114
 20
332.9360715364302
 30
0
  0
SEQEND
  8
0
  0
POLYLINE
  8
0
 62
7
 66
1
  0
VERTEX
  8
0
 10
570.2320116928941
 20
332.0875621735587
 30
0
  0
VERTEX
  8
0
 10
567.80916858866
 20
332.3204524193453
 30
0
  0
VERTEX
  8
0
 10
565.4820095645771
 20
332.9360715364302
 30
0
  0
SEQEND
  8
0
  0
POLYLINE
  8
0
 62
7
 66
1
  0
VERTEX
  8
0
 10
448.732012542155
 20
383.7875651051228
 30
0
  0
VERTEX
  8
0
 10
451.154851921289
 20
383.5546748590351
 30
0
  0
VERTEX
  8
0
 10
453.4820109453731
 20
382.93906319275
 30
0
  0
SEQEND
  8
0
  0
POLYLINE
  8
0
 62
7
 66
1
  0
VERTEX
  8
0
 10
453.4820109453731
 20
382.93906319275
 30
0
  0
VERTEX
  8
0
 10
454.6823218192501
 20
383.2988219237769
 30
0
  0
VERTEX
  8
0
 10
458.2320093482911
 20
383.7875651051228
 30
0
  0
SEQEND
  8
0
  0
POLYLINE
  8
0
 62
7
 66
1
  0
VERTEX
  8
0
 10
458.2320093482911
 20
383.7875651051228
 30
0
  0
VERTEX
  8
0
 10
459.5246776185511
 20
383.7202714616907
 30
0
  0
VERTEX
  8
0
 10
462.9820077515092
 20
382.93906319275
 30
0
  0
SEQEND
  8
0
  0
POLYLINE
  8
0
 62
7
 66
1
  0
VERTEX
  8
0
 10
579.732008499032
 20
383.7875651051228
 30
0
  0
VERTEX
  8
0
 10
582.1548516035662
 20
383.5546748590351
 30
0
  0
VERTEX
  8
0
 10
584.4820106276491
 20
382.93906319275
 30
0
  0
SEQEND
  8
0
  0
POLYLINE
  8
0
 62
7
 66
1
  0
VERTEX
  8
0
 10
570.2320116928941
 20
383.7875651051228
 30
0
  0
VERTEX
  8
0
 10
573.7816992219362
 20
383.2988219237769
 30
0
  0
VERTEX
  8
0
 10
574.982010096114
 20
382.93906319275
 30
0
  0
SEQEND
  8
0
  0
POLYLINE
  8
0
 62
7
 66
1
  0
VERTEX
  8
0
 10
565.4820095645771
 20
382.93906319275
 30
0
  0
VERTEX
  8
0
 10
568.9393434229341
 20
383.7202714616907
 30
0
  0
VERTEX
  8
0
 10
570.2320116928941
 20
383.7875651051228
 30
0
  0
SEQEND
  8
0
  0
POLYLINE
  8
0
 62
7
 66
1
  0
VERTEX
  8
0
 10
610.732011410008
 20
383.7875651051228
 30
0
  0
VERTEX
  8
0
 10
613.1548507888422
 20
383.5546748590351
 30
0
  0
VERTEX
  8
0
 10
615.482009812926
 20
382.93906319275
 30
0
  0
SEQEND
  8
0
  0
POLYLINE
  8
0
 62
7
 66
1
  0
VERTEX
  8
0
 10
615.482009812926
 20
382.93906319275
 30
0
  0
VERTEX
  8
0
 10
618.9393473963851
 20
383.7202714616907
 30
0
  0
VERTEX
  8
0
 10
620.232008216145
 20
383.7875651051228
 30
0
  0
SEQEND
  8
0
  0
POLYLINE
  8
0
 62
7
 66
1
  0
VERTEX
  8
0
 10
620.232008216145
 20
383.7875651051228
 30
0
  0
VERTEX
  8
0
 10
623.781695745186
 20
383.2988219237769
 30
0
  0
VERTEX
  8
0
 10
624.982006619063
 20
382.93906319275
 30
0
  0
SEQEND
  8
0
  0
POLYLINE
  8
0
 62
7
 66
1
  0
VERTEX
  8
0
 10
498.732009065405
 20
383.7875651051228
 30
0
  0
VERTEX
  8
0
 10
501.1548521696391
 20
383.5546748590351
 30
0
  0
VERTEX
  8
0
 10
503.4820111937231
 20
382.93906319275
 30
0
  0
SEQEND
  8
0
  0
POLYLINE
  8
0
 62
7
 66
1
  0
VERTEX
  8
0
 10
489.232012259268
 20
383.7875651051228
 30
0
  0
VERTEX
  8
0
 10
491.6548516381022
 20
383.5546748590351
 30
0
  0
VERTEX
  8
0
 10
493.982010662186
 20
382.93906319275
 30
0
  0
SEQEND
  8
0
  0
POLYLINE
  8
0
 62
7
 66
1
  0
VERTEX
  8
0
 10
540.4046919723692
 20
381.934888851025
 30
0
  0
VERTEX
  8
0
 10
539.630045336364
 20
382.7417718205107
 30
0
  0
VERTEX
  8
0
 10
538.6441309705572
 20
383.7687002353106
 30
0
  0
SEQEND
  8
0
  0
POLYLINE
  8
0
 62
7
 66
1
  0
VERTEX
  8
0
 10
528.509433645326
 20
381.934888851025
 30
0
  0
VERTEX
  8
0
 10
529.3046322416271
 20
382.7422188553056
 30
0
  0
VERTEX
  8
0
 10
530.3167028019741
 20
383.7697284154002
 30
0
  0
SEQEND
  8
0
  0
POLYLINE
  8
0
 62
7
 66
1
  0
VERTEX
  8
0
 10
528.483482341783
 20
385.9346734000957
 30
0
  0
VERTEX
  8
0
 10
528.4919462015
 20
384.1747717748759
 30
0
  0
VERTEX
  8
0
 10
528.509433645326
 20
381.934888851025
 30
0
  0
SEQEND
  8
0
  0
POLYLINE
  8
0
 62
7
 66
1
  0
VERTEX
  8
0
 10
540.4046919723692
 20
381.934888851025
 30
0
  0
VERTEX
  8
0
 10
540.3985522282301
 20
383.6976962027148
 30
0
  0
VERTEX
  8
0
 10
540.3897610088181
 20
385.9412746144291
 30
0
  0
SEQEND
  8
0
  0
POLYLINE
  8
0
 62
7
 66
1
  0
VERTEX
  8
0
 10
528.482064403197
 20
385.4375706675329
 30
0
  0
VERTEX
  8
0
 10
528.482204101796
 20
383.9640693575694
 30
0
  0
VERTEX
  8
0
 10
528.482393625894
 20
382.5665490678504
 30
0
  0
VERTEX
  8
0
 10
528.4825016591922
 20
381.8677740216918
 30
0
  0
SEQEND
  8
0
  0
POLYLINE
  8
0
 62
7
 66
1
  0
VERTEX
  8
0
 10
540.4805575085161
 20
381.8678336262902
 30
0
  0
VERTEX
  8
0
 10
540.480468567217
 20
383.3541350337274
 30
0
  0
VERTEX
  8
0
 10
540.4803717095181
 20
384.8404364411637
 30
0
  0
VERTEX
  8
0
 10
540.480331197218
 20
385.4375706675329
 30
0
  0
SEQEND
  8
0
  0
POLYLINE
  8
0
 62
7
 66
1
  0
VERTEX
  8
0
 10
528.4825016591922
 20
381.8677740216918
 30
0
  0
VERTEX
  8
0
 10
528.494351807575
 20
381.8973081228979
 30
0
  0
VERTEX
  8
0
 10
528.509433645326
 20
381.934888851025
 30
0
  0
SEQEND
  8
0
  0
POLYLINE
  8
0
 62
7
 66
1
  0
VERTEX
  8
0
 10
528.482064403197
 20
385.4375706675329
 30
0
  0
VERTEX
  8
0
 10
528.4818483365991
 20
385.7580350371501
 30
0
  0
VERTEX
  8
0
 10
528.481683492301
 20
385.9382049754596
 30
0
  0
SEQEND
  8
0
  0
POLYLINE
  8
0
 62
7
 66
1
  0
VERTEX
  8
0
 10
540.504783071076
 20
385.9367148592747
 30
0
  0
VERTEX
  8
0
 10
540.5018345037051
 20
385.9067784265727
 30
0
  0
VERTEX
  8
0
 10
540.480331197218
 20
385.4375706675329
 30
0
  0
SEQEND
  8
0
  0
POLYLINE
  8
0
 62
7
 66
1
  0
VERTEX
  8
0
 10
540.4805575085161
 20
381.8678336262902
 30
0
  0
VERTEX
  8
0
 10
540.4471765793471
 20
381.8973379251976
 30
0
  0
VERTEX
  8
0
 10
540.4046919723692
 20
381.934888851025
 30
0
  0
SEQEND
  8
0
  0
POLYLINE
  8
0
 62
7
 66
1
  0
VERTEX
  8
0
 10
540.504783071076
 20
385.9367148592747
 30
0
  0
VERTEX
  8
0
 10
540.4899457057231
 20
386.2791137376736
 30
0
  0
VERTEX
  8
0
 10
540.3918779050971
 20
386.5610139023739
 30
0
  0
VERTEX
  8
0
 10
540.215936171244
 20
386.7880628932181
 30
0
  0
VERTEX
  8
0
 10
539.9615109536721
 20
386.9233058309748
 30
0
  0
VERTEX
  8
0
 10
539.8451673449272
 20
386.9375513407332
 30
0
  0
VERTEX
  8
0
 10
539.84091259767
 20
386.9375662420335
 30
0
  0
SEQEND
  8
0
  0
POLYLINE
  8
0
 62
7
 66
1
  0
VERTEX
  8
0
 10
563.468672717574
 20
372.8997784671702
 30
0
  0
VERTEX
  8
0
 10
563.205149409692
 20
373.3480500949182
 30
0
  0
VERTEX
  8
0
 10
563.041562601217
 20
373.7012076116099
 30
0
  0
VERTEX
  8
0
 10
562.9889931676401
 20
373.7875598399525
 30
0
  0
SEQEND
  8
0
  0
POLYLINE
  8
0
 62
7
 66
1
  0
VERTEX
  8
0
 10
505.9750275906602
 20
373.7875598399525
 30
0
  0
VERTEX
  8
0
 10
505.922458157082
 20
373.7012076116099
 30
0
  0
VERTEX
  8
0
 10
505.7560811062331
 20
373.3422982468748
 30
0
  0
VERTEX
  8
0
 10
505.495348040723
 20
372.8997784671702
 30
0
  0
SEQEND
  8
0
  0
POLYLINE
  8
0
 62
7
 66
1
  0
VERTEX
  8
0
 10
505.495348040723
 20
372.8997784671702
 30
0
  0
VERTEX
  8
0
 10
504.384442270459
 20
371.7958408523356
 30
0
  0
VERTEX
  8
0
 10
504.374315068859
 20
371.7875707080185
 30
0
  0
SEQEND
  8
0
  0
POLYLINE
  8
0
 62
7
 66
1
  0
VERTEX
  8
0
 10
615.482009812926
 20
371.7875707080185
 30
0
  0
VERTEX
  8
0
 10
615.4617293328281
 20
371.7958408523356
 30
0
  0
VERTEX
  8
0
 10
614.9713768263991
 20
371.99578463105
 30
0
  0
VERTEX
  8
0
 10
612.6548944842082
 20
372.8997784671702
 30
0
  0
SEQEND
  8
0
  0
POLYLINE
  8
0
 62
7
 66
1
  0
VERTEX
  8
0
 10
456.3091262740911
 20
372.8997784671702
 30
0
  0
VERTEX
  8
0
 10
453.5022914254721
 20
371.7958408523356
 30
0
  0
VERTEX
  8
0
 10
453.4820109453731
 20
371.7875707080185
 30
0
  0
SEQEND
  8
0
  0
POLYLINE
  8
0
 62
7
 66
1
  0
VERTEX
  8
0
 10
616.3188068633151
 20
296.0875640806463
 30
0
  0
VERTEX
  8
0
 10
618.3707488934331
 20
298.5790717352985
 30
0
  0
VERTEX
  8
0
 10
619.513571087982
 20
301.0875629879812
 30
0
  0
SEQEND
  8
0
  0
POLYLINE
  8
0
 62
7
 66
1
  0
VERTEX
  8
0
 10
616.3188068633151
 20
296.0875640806463
 30
0
  0
VERTEX
  8
0
 10
620.0581787219721
 20
293.6201180760555
 30
0
  0
VERTEX
  8
0
 10
622.5826067664971
 20
291.0875651736117
 30
0
  0
SEQEND
  8
0
  0
POLYLINE
  8
0
 62
7
 66
1
  0
VERTEX
  8
0
 10
452.6452138949851
 20
296.0875640806463
 30
0
  0
VERTEX
  8
0
 10
448.9058420363281
 20
293.6201180760555
 30
0
  0
VERTEX
  8
0
 10
446.3814139918031
 20
291.0875651736117
 30
0
  0
SEQEND
  8
0
  0
POLYLINE
  8
0
 62
7
 66
1
  0
VERTEX
  8
0
 10
449.450449670318
 20
301.0875629879812
 30
0
  0
VERTEX
  8
0
 10
450.60805381662
 20
298.5562468817244
 30
0
  0
VERTEX
  8
0
 10
452.6452138949851
 20
296.0875640806463
 30
0
  0
SEQEND
  8
0
  0
POLYLINE
  8
0
 62
7
 66
1
  0
VERTEX
  8
0
 10
446.5699583826302
 20
271.2914416420464
 30
0
  0
VERTEX
  8
0
 10
446.531073802917
 20
271.3794832894711
 30
0
  0
VERTEX
  8
0
 10
446.412549967893
 20
271.5283104979937
 30
0
  0
VERTEX
  8
0
 10
446.325154658462
 20
271.5530780903474
 30
0
  0
SEQEND
  8
0
  0
POLYLINE
  8
0
 62
7
 66
1
  0
VERTEX
  8
0
 10
444.908680091731
 20
265.7034876232513
 30
0
  0
VERTEX
  8
0
 10
444.863358210182
 20
267.2553783537361
 30
0
  0
VERTEX
  8
0
 10
445.115567811677
 20
273.2101170008883
 30
0
  0
SEQEND
  8
0
  0
POLYLINE
  8
0
 62
7
 66
1
  0
VERTEX
  8
0
 10
445.7002670192692
 20
271.7275036308148
 30
0
  0
VERTEX
  8
0
 10
445.7902998344741
 20
272.014518619064
 30
0
  0
VERTEX
  8
0
 10
446.2140367004652
 20
272.8835655071317
 30
0
  0
VERTEX
  8
0
 10
446.7505679049361
 20
273.2101170008883
 30
0
  0
SEQEND
  8
0
  0
POLYLINE
  8
0
 62
7
 66
1
  0
VERTEX
  8
0
 10
446.7505679049361
 20
273.2101170008883
 30
0
  0
VERTEX
  8
0
 10
446.967864086077
 20
273.1565175245206
 30
0
  0
VERTEX
  8
0
 10
447.1916720743541
 20
272.9102795636666
 30
0
  0
SEQEND
  8
0
  0
POLYLINE
  8
0
 62
7
 66
1
  0
VERTEX
  8
0
 10
618.0286778403311
 20
296.0875640806463
 30
0
  0
VERTEX
  8
0
 10
621.680117947561
 20
293.6186689380703
 30
0
  0
VERTEX
  8
0
 10
624.1414544762131
 20
291.0875651736117
 30
0
  0
SEQEND
  8
0
  0
POLYLINE
  8
0
 62
7
 66
1
  0
VERTEX
  8
0
 10
618.0286778403311
 20
296.0875640806463
 30
0
  0
VERTEX
  8
0
 10
620.02115678734
 20
298.5795858251934
 30
0
  0
VERTEX
  8
0
 10
621.128968704136
 20
301.0875629879812
 30
0
  0
SEQEND
  8
0
  0
POLYLINE
  8
0
 62
7
 66
1
  0
VERTEX
  8
0
 10
447.8350520541642
 20
301.0875629879812
 30
0
  0
VERTEX
  8
0
 10
448.9564761816241
 20
298.5579269876081
 30
0
  0
VERTEX
  8
0
 10
450.935342917968
 20
296.0875640806463
 30
0
  0
SEQEND
  8
0
  0
POLYLINE
  8
0
 62
7
 66
1
  0
VERTEX
  8
0
 10
450.935342917968
 20
296.0875640806463
 30
0
  0
VERTEX
  8
0
 10
447.283902810738
 20
293.6186689380703
 30
0
  0
VERTEX
  8
0
 10
444.8225662820871
 20
291.0875651736117
 30
0
  0
SEQEND
  8
0
  0
POLYLINE
  8
0
 62
7
 66
1
  0
VERTEX
  8
0
 10
443.337583627236
 20
271.2914416420464
 30
0
  0
VERTEX
  8
0
 10
443.3306992909061
 20
271.3221026434413
 30
0
  0
VERTEX
  8
0
 10
443.2703272369051
 20
271.4985547420885
 30
0
  0
VERTEX
  8
0
 10
443.231777933288
 20
271.5404977851723
 30
0
  0
VERTEX
  8
0
 10
443.192252603681
 20
271.5530780903474
 30
0
  0
SEQEND
  8
0
  0
POLYLINE
  8
0
 62
7
 66
1
  0
VERTEX
  8
0
 10
442.51489052591
 20
261.2684494732049
 30
0
  0
VERTEX
  8
0
 10
442.1409458894232
 20
267.246165710828
 30
0
  0
VERTEX
  8
0
 10
442.1583951492501
 20
273.2101170008883
 30
0
  0
SEQEND
  8
0
  0
POLYLINE
  8
0
 62
7
 66
1
  0
VERTEX
  8
0
 10
443.434240008577
 20
273.2101170008883
 30
0
  0
VERTEX
  8
0
 10
443.543815696288
 20
273.1816706843712
 30
0
  0
VERTEX
  8
0
 10
443.6499194135351
 20
273.0813076395672
 30
0
  0
VERTEX
  8
0
 10
443.7960625502822
 20
272.6868441042855
 30
0
  0
SEQEND
  8
0
  0
POLYLINE
  8
0
 62
7
 66
1
  0
VERTEX
  8
0
 10
442.897641748707
 20
273.8924299894109
 30
0
  0
VERTEX
  8
0
 10
442.769715281077
 20
273.8180992727486
 30
0
  0
VERTEX
  8
0
 10
442.5759405829022
 20
273.2815680679779
 30
0
  0
VERTEX
  8
0
 10
442.5645262934161
 20
273.2101170008883
 30
0
  0
SEQEND
  8
0
  0
POLYLINE
  8
0
 62
7
 66
1
  0
VERTEX
  8
0
 10
531.2955940643501
 20
383.937560192032
 30
0
  0
VERTEX
  8
0
 10
531.2953086137532
 20
384.1833399424905
 30
0
  0
VERTEX
  8
0
 10
531.294057847766
 20
385.4376451734316
 30
0
  0
VERTEX
  8
0
 10
531.2937106970692
 20
385.9375642252663
 30
0
  0
SEQEND
  8
0
  0
POLYLINE
  8
0
 62
7
 66
1
  0
VERTEX
  8
0
 10
537.662923509004
 20
385.9375642252663
 30
0
  0
VERTEX
  8
0
 10
537.6631765959012
 20
385.4375110629327
 30
0
  0
VERTEX
  8
0
 10
537.6636259589971
 20
384.4988571264568
 30
0
  0
VERTEX
  8
0
 10
537.6638729924941
 20
383.937560192032
 30
0
  0
SEQEND
  8
0
  0
LINE
  8
1
 62
2
 10
345.6003618378188
 20
53.4137174798661
 30
0
 11
345.8781396155965
 21
53.7262174798661
 31
0
  0
LINE
  8
1
 62
2
 10
345.6003618378188
 20
55.2887174798661
 30
0
 11
343.9336951711521
 21
55.2887174798661
 31
0
  0
LINE
  8
1
 62
2
 10
349.7670285044854
 20
48.1012174798661
 30
0
 11
352.2670285044854
 21
48.1012174798661
 31
0
  0
LINE
  8
1
 62
2
 10
346.9892507267076
 20
48.1012174798661
 30
0
 11
349.7670285044854
 21
48.1012174798661
 31
0
  0
LINE
  8
1
 62
2
 10
349.7670285044854
 20
57.1637174798661
 30
0
 11
349.7670285044854
 21
48.1012174798661
 31
0
  0
LINE
  8
1
 62
2
 10
347.822584060041
 20
53.4137174798661
 30
0
 11
351.7114729489298
 21
53.4137174798661
 31
0
  0
LINE
  8
1
 62
2
 10
346.1559173933743
 20
53.1012174798661
 30
0
 11
347.5448062822632
 21
51.5387174798661
 31
0
  0
LINE
  8
1
 62
2
 10
345.6003618378188
 20
55.2887174798661
 30
0
 11
345.6003618378188
 21
57.1637174798661
 31
0
  0
LINE
  8
1
 62
2
 10
346.9892507267076
 20
55.2887174798661
 30
0
 11
345.6003618378188
 21
55.2887174798661
 31
0
  0
LINE
  8
1
 62
2
 10
345.8781396155965
 20
53.7262174798661
 30
0
 11
346.9892507267076
 21
55.2887174798661
 31
0
  0
LINE
  8
1
 62
2
 10
344.4892507267076
 20
52.1637174798661
 30
0
 11
345.6003618378188
 21
53.4137174798661
 31
0
  0
LINE
  8
1
 62
2
 10
343.3781396155965
 20
51.2262174798661
 30
0
 11
344.4892507267076
 21
52.1637174798661
 31
0
  0
LINE
  8
1
 62
2
 10
345.6003618378188
 20
47.7887174798661
 30
0
 11
345.6003618378188
 21
53.4137174798661
 31
0
  0
LINE
  8
1
 62
2
 10
337.822584060041
 20
51.2262174798661
 30
0
 11
335.0448062822632
 21
47.7887174798661
 31
0
  0
LINE
  8
1
 62
2
 10
340.322584060041
 20
48.4137174798661
 30
0
 11
339.2114729489298
 21
49.6637174798661
 31
0
  0
LINE
  8
1
 62
2
 10
341.1559173933743
 20
47.4762174798661
 30
0
 11
340.322584060041
 21
48.4137174798661
 31
0
  0
LINE
  8
1
 62
2
 10
334.2114729489298
 20
47.7887174798661
 30
0
 11
340.322584060041
 21
48.4137174798661
 31
0
  0
LINE
  8
1
 62
2
 10
334.7670285044854
 20
51.5387174798661
 30
0
 11
341.1559173933743
 21
51.5387174798661
 31
0
  0
LINE
  8
1
 62
2
 10
335.8781396155965
 20
53.1012174798661
 30
0
 11
339.7670285044854
 21
53.1012174798661
 31
0
  0
LINE
  8
1
 62
2
 10
337.822584060041
 20
57.1637174798661
 30
0
 11
342.2670285044854
 21
52.4762174798661
 31
0
  0
LINE
  8
1
 62
2
 10
337.822584060041
 20
57.1637174798661
 30
0
 11
333.3781396155965
 21
52.4762174798661
 31
0
  0
LINE
  8
1
 62
2
 10
325.8781396155965
 20
52.7887174798661
 30
0
 11
323.9336951711521
 21
52.7887174798661
 31
0
  0
LINE
  8
1
 62
2
 10
325.8781396155965
 20
49.3512174798661
 30
0
 11
327.822584060041
 21
49.9762174798661
 31
0
  0
LINE
  8
1
 62
2
 10
331.4336951711521
 20
47.7887174798661
 30
0
 11
332.2670285044854
 21
48.7262174798661
 31
0
  0
LINE
  8
1
 62
2
 10
330.322584060041
 20
49.0387174798661
 30
0
 11
331.4336951711521
 21
47.7887174798661
 31
0
  0
LINE
  8
1
 62
2
 10
329.2114729489298
 20
51.2262174798661
 30
0
 11
330.322584060041
 21
49.0387174798661
 31
0
  0
LINE
  8
1
 62
2
 10
328.6559173933743
 20
53.7262174798661
 30
0
 11
329.2114729489298
 21
51.2262174798661
 31
0
  0
LINE
  8
1
 62
2
 10
328.3781396155965
 20
57.4762174798661
 30
0
 11
328.6559173933743
 21
53.7262174798661
 31
0
  0
LINE
  8
1
 62
2
 10
330.0448062822632
 20
56.2262174798661
 30
0
 11
329.2114729489298
 21
57.1637174798661
 31
0
  0
LINE
  8
1
 62
2
 10
323.3781396155965
 20
55.2887174798661
 30
0
 11
331.4336951711521
 21
55.2887174798661
 31
0
  0
LINE
  8
1
 62
2
 10
325.8781396155965
 20
52.7887174798661
 30
0
 11
325.8781396155965
 21
49.3512174798661
 31
0
  0
LINE
  8
1
 62
2
 10
327.822584060041
 20
52.7887174798661
 30
0
 11
325.8781396155965
 21
52.7887174798661
 31
0
  0
LINE
  8
1
 62
2
 10
323.9336951711521
 20
48.7262174798661
 30
0
 11
325.8781396155965
 21
49.3512174798661
 31
0
  0
LINE
  8
1
 62
2
 10
315.322584060041
 20
54.6637174798661
 30
0
 11
315.322584060041
 21
57.4762174798661
 31
0
  0
LINE
  8
1
 62
2
 10
315.322584060041
 20
54.6637174798661
 30
0
 11
313.9336951711521
 21
54.6637174798661
 31
0
  0
LINE
  8
1
 62
2
 10
320.8781396155965
 20
49.9762174798661
 30
0
 11
321.9892507267076
 21
47.7887174798661
 31
0
  0
LINE
  8
1
 62
2
 10
319.4892507267076
 20
52.7887174798661
 30
0
 11
320.8781396155965
 21
49.9762174798661
 31
0
  0
LINE
  8
1
 62
2
 10
318.6559173933743
 20
50.6012174798661
 30
0
 11
319.4892507267076
 21
52.7887174798661
 31
0
  0
LINE
  8
1
 62
2
 10
317.5448062822632
 20
49.0387174798661
 30
0
 11
318.6559173933743
 21
50.6012174798661
 31
0
  0
LINE
  8
1
 62
2
 10
316.7114729489298
 20
47.7887174798661
 30
0
 11
317.5448062822632
 21
49.0387174798661
 31
0
  0
LINE
  8
1
 62
2
 10
319.4892507267076
 20
57.4762174798661
 30
0
 11
319.4892507267076
 21
47.4762174798661
 31
0
  0
LINE
  8
1
 62
2
 10
321.9892507267076
 20
52.7887174798661
 30
0
 11
317.2670285044854
 21
52.7887174798661
 31
0
  0
LINE
  8
1
 62
2
 10
318.1003618378188
 20
54.9762174798661
 30
0
 11
321.7114729489298
 21
54.9762174798661
 31
0
  0
LINE
  8
1
 62
2
 10
318.1003618378188
 20
54.9762174798661
 30
0
 11
318.3781396155965
 21
56.5387174798661
 31
0
  0
LINE
  8
1
 62
2
 10
317.2670285044854
 20
53.4137174798661
 30
0
 11
318.1003618378188
 21
54.9762174798661
 31
0
  0
LINE
  8
1
 62
2
 10
315.322584060041
 20
54.6637174798661
 30
0
 11
316.7114729489298
 21
52.1637174798661
 31
0
  0
LINE
  8
1
 62
2
 10
313.6559173933743
 20
50.2887174798661
 30
0
 11
315.322584060041
 21
54.6637174798661
 31
0
  0
LINE
  8
1
 62
2
 10
316.7114729489298
 20
54.6637174798661
 30
0
 11
315.322584060041
 21
54.6637174798661
 31
0
  0
LINE
  8
1
 62
2
 10
315.322584060041
 20
47.7887174798661
 30
0
 11
315.322584060041
 21
54.6637174798661
 31
0
  0
LINE
  8
1
 62
2
 10
304.2114729489298
 20
53.7262174798661
 30
0
 11
304.2114729489298
 21
55.2887174798661
 31
0
  0
LINE
  8
1
 62
2
 10
306.9892507267076
 20
55.2887174798661
 30
0
 11
306.9892507267076
 21
53.7262174798661
 31
0
  0
LINE
  8
1
 62
2
 10
304.2114729489298
 20
55.2887174798661
 30
0
 11
304.2114729489298
 21
56.8512174798661
 31
0
  0
LINE
  8
1
 62
2
 10
311.4336951711521
 20
53.7262174798661
 30
0
 11
311.4336951711521
 21
55.2887174798661
 31
0
  0
LINE
  8
1
 62
2
 10
308.6559173933743
 20
55.2887174798661
 30
0
 11
308.6559173933743
 21
53.7262174798661
 31
0
  0
LINE
  8
1
 62
2
 10
311.4336951711521
 20
55.2887174798661
 30
0
 11
311.4336951711521
 21
56.8512174798661
 31
0
  0
LINE
  8
1
 62
2
 10
304.2114729489298
 20
48.1012174798661
 30
0
 11
304.2114729489298
 21
47.7887174798661
 31
0
  0
LINE
  8
1
 62
2
 10
308.6559173933743
 20
55.2887174798661
 30
0
 11
311.4336951711521
 21
55.2887174798661
 31
0
  0
LINE
  8
1
 62
2
 10
308.6559173933743
 20
53.7262174798661
 30
0
 11
311.4336951711521
 21
53.7262174798661
 31
0
  0
LINE
  8
1
 62
2
 10
308.6559173933743
 20
56.8512174798661
 30
0
 11
308.6559173933743
 21
55.2887174798661
 31
0
  0
LINE
  8
1
 62
2
 10
311.4336951711521
 20
56.8512174798661
 30
0
 11
308.6559173933743
 21
56.8512174798661
 31
0
  0
LINE
  8
1
 62
2
 10
311.4336951711521
 20
48.1012174798661
 30
0
 11
311.4336951711521
 21
53.7262174798661
 31
0
  0
LINE
  8
1
 62
2
 10
311.1559173933743
 20
47.7887174798661
 30
0
 11
311.4336951711521
 21
48.1012174798661
 31
0
  0
LINE
  8
1
 62
2
 10
310.322584060041
 20
47.7887174798661
 30
0
 11
311.1559173933743
 21
47.7887174798661
 31
0
  0
LINE
  8
1
 62
2
 10
306.9892507267076
 20
55.2887174798661
 30
0
 11
304.2114729489298
 21
55.2887174798661
 31
0
  0
LINE
  8
1
 62
2
 10
306.9892507267076
 20
53.7262174798661
 30
0
 11
304.2114729489298
 21
53.7262174798661
 31
0
  0
LINE
  8
1
 62
2
 10
306.9892507267076
 20
56.8512174798661
 30
0
 11
306.9892507267076
 21
55.2887174798661
 31
0
  0
LINE
  8
1
 62
2
 10
304.2114729489298
 20
56.8512174798661
 30
0
 11
306.9892507267076
 21
56.8512174798661
 31
0
  0
LINE
  8
1
 62
2
 10
304.2114729489298
 20
48.1012174798661
 30
0
 11
304.2114729489298
 21
53.7262174798661
 31
0
  0
LINE
  8
1
 62
2
 10
297.822584060041
 20
47.7887174798661
 30
0
 11
301.1559173933743
 21
47.7887174798661
 31
0
  0
LINE
  8
1
 62
2
 10
297.822584060041
 20
53.7262174798661
 30
0
 11
299.7670285044854
 21
53.7262174798661
 31
0
  0
LINE
  8
1
 62
2
 10
301.1559173933743
 20
53.4137174798661
 30
0
 11
302.2670285044854
 21
52.4762174798661
 31
0
  0
LINE
  8
1
 62
2
 10
299.2114729489298
 20
55.6012174798661
 30
0
 11
301.1559173933743
 21
53.4137174798661
 31
0
  0
LINE
  8
1
 62
2
 10
297.822584060041
 20
57.4762174798661
 30
0
 11
299.2114729489298
 21
55.6012174798661
 31
0
  0
LINE
  8
1
 62
2
 10
296.4336951711521
 20
55.6012174798661
 30
0
 11
297.822584060041
 21
57.4762174798661
 31
0
  0
LINE
  8
1
 62
2
 10
294.4892507267076
 20
53.4137174798661
 30
0
 11
296.4336951711521
 21
55.6012174798661
 31
0
  0
LINE
  8
1
 62
2
 10
293.3781396155965
 20
52.4762174798661
 30
0
 11
294.4892507267076
 21
53.4137174798661
 31
0
  0
LINE
  8
1
 62
2
 10
299.2114729489298
 20
49.0387174798661
 30
0
 11
299.7670285044854
 21
50.6012174798661
 31
0
  0
LINE
  8
1
 62
2
 10
295.8781396155965
 20
50.6012174798661
 30
0
 11
296.4336951711521
 21
49.0387174798661
 31
0
  0
LINE
  8
1
 62
2
 10
300.6003618378188
 20
51.8512174798661
 30
0
 11
295.0448062822632
 21
51.8512174798661
 31
0
  0
LINE
  8
1
 62
2
 10
295.8781396155965
 20
53.7262174798661
 30
0
 11
297.822584060041
 21
53.7262174798661
 31
0
  0
LINE
  8
1
 62
2
 10
297.822584060041
 20
47.7887174798661
 30
0
 11
297.822584060041
 21
53.7262174798661
 31
0
  0
LINE
  8
1
 62
2
 10
294.2114729489298
 20
47.7887174798661
 30
0
 11
297.822584060041
 21
47.7887174798661
 31
0
  0
LINE
  8
1
 62
2
 10
290.322584060041
 20
50.6012174798661
 30
0
 11
291.7114729489298
 21
52.4762174798661
 31
0
  0
LINE
  8
1
 62
2
 10
288.1003618378188
 20
49.3512174798661
 30
0
 11
290.322584060041
 21
50.6012174798661
 31
0
  0
LINE
  8
1
 62
2
 10
288.1003618378188
 20
54.9762174798661
 30
0
 11
288.1003618378188
 21
49.3512174798661
 31
0
  0
LINE
  8
1
 62
2
 10
285.8781396155965
 20
52.4762174798661
 30
0
 11
286.1559173933743
 21
54.9762174798661
 31
0
  0
LINE
  8
1
 62
2
 10
285.322584060041
 20
50.6012174798661
 30
0
 11
285.8781396155965
 21
52.4762174798661
 31
0
  0
LINE
  8
1
 62
2
 10
284.4892507267076
 20
49.0387174798661
 30
0
 11
285.322584060041
 21
50.6012174798661
 31
0
  0
LINE
  8
1
 62
2
 10
275.0448062822632
 20
51.5387174798661
 30
0
 11
275.0448062822632
 21
49.6637174798661
 31
0
  0
LINE
  8
1
 62
2
 10
278.1003618378188
 20
48.4137174798661
 30
0
 11
279.7670285044854
 21
48.7262174798661
 31
0
  0
LINE
  8
1
 62
2
 10
275.322584060041
 20
48.7262174798661
 30
0
 11
278.1003618378188
 21
48.4137174798661
 31
0
  0
LINE
  8
1
 62
2
 10
275.0448062822632
 20
49.6637174798661
 30
0
 11
275.322584060041
 21
48.7262174798661
 31
0
  0
LINE
  8
1
 62
2
 10
275.0448062822632
 20
54.9762174798661
 30
0
 11
275.0448062822632
 21
51.5387174798661
 31
0
  0
LINE
  8
1
 62
2
 10
280.322584060041
 20
55.6012174798661
 30
0
 11
281.1559173933743
 21
54.6637174798661
 31
0
  0
LINE
  8
1
 62
2
 10
280.6003618378188
 20
54.0387174798661
 30
0
 11
279.7670285044854
 21
54.9762174798661
 31
0
  0
LINE
  8
1
 62
2
 10
277.5448062822632
 20
52.4762174798661
 30
0
 11
279.2114729489298
 21
53.4137174798661
 31
0
  0
LINE
  8
1
 62
2
 10
275.0448062822632
 20
51.5387174798661
 30
0
 11
277.5448062822632
 21
52.4762174798661
 31
0
  0
LINE
  8
1
 62
2
 10
268.9336951711521
 20
50.6012174798661
 30
0
 11
270.6003618378188
 21
48.7262174798661
 31
0
  0
LINE
  8
1
 62
2
 10
267.5448062822632
 20
51.8512174798661
 30
0
 11
268.9336951711521
 21
50.6012174798661
 31
0
  0
LINE
  8
1
 62
2
 10
270.8781396155965
 20
56.2262174798661
 30
0
 11
271.7114729489298
 21
55.2887174798661
 31
0
  0
LINE
  8
1
 62
2
 10
270.322584060041
 20
55.6012174798661
 30
0
 11
271.1559173933743
 21
54.6637174798661
 31
0
  0
LINE
  8
1
 62
2
 10
269.2114729489298
 20
54.9762174798661
 30
0
 11
265.6003618378188
 21
54.9762174798661
 31
0
  0
LINE
  8
1
 62
2
 10
268.3781396155965
 20
53.1012174798661
 30
0
 11
269.2114729489298
 21
54.9762174798661
 31
0
  0
LINE
  8
1
 62
2
 10
266.4336951711521
 20
50.2887174798661
 30
0
 11
268.3781396155965
 21
53.1012174798661
 31
0
  0
LINE
  8
1
 62
2
 10
264.4892507267076
 20
48.7262174798661
 30
0
 11
266.4336951711521
 21
50.2887174798661
 31
0
  0
LINE
  8
1
 62
2
 10
261.1559173933743
 20
54.6637174798661
 30
0
 11
258.6559173933743
 21
51.8512174798661
 31
0
  0
LINE
  8
1
 62
2
 10
254.7670285044854
 20
54.6637174798661
 30
0
 11
261.1559173933743
 21
54.6637174798661
 31
0
  0
LINE
  8
1
 62
2
 10
257.822584060041
 20
51.8512174798661
 30
0
 11
258.1003618378188
 21
53.4137174798661
 31
0
  0
LINE
  8
1
 62
2
 10
257.2670285044854
 20
49.9762174798661
 30
0
 11
257.822584060041
 21
51.8512174798661
 31
0
  0
LINE
  8
1
 62
2
 10
256.1559173933743
 20
48.1012174798661
 30
0
 11
257.2670285044854
 21
49.9762174798661
 31
0
  0
LINE
  8
0
 62
2
  6
DASHDOT
 10
534.482010379
 20
401.9375662420335
 30
0
 11
534.482010379
 21
131.0559045956299
 31
0
  0
LINE
  8
0
 62
2
  6
DASHDOT
 10
336.4820131704091
 20
241.0875649249613
 30
0
 11
16.48200512371909
 21
241.0875649249613
 31
0
  0
LINE
  8
0
 62
2
  6
DASHDOT
 10
644.482010379
 20
241.0875649249613
 30
0
 11
424.482010379
 21
241.0875649249612
 31
0
  0
LINE
  8
0
 62
7
 10
171.4916294510333
 20
481.0490722274128
 30
0
 11
171.4916294510333
 21
479.5334688350679
 31
0
  0
LINE
  8
0
 62
7
 10
123.8339533715168
 20
332.0875621735587
 30
0
 11
125.3036101821183
 21
332.9360715364302
 31
0
  0
LINE
  8
0
 62
7
 10
103.3642992232419
 20
332.9360715364302
 30
0
 11
104.8339560338443
 21
332.0875621735587
 31
0
  0
LINE
  8
0
 62
7
 10
193.9820099790361
 20
332.0875621735587
 30
0
 11
195.4516649269381
 21
332.9360715364302
 31
0
  0
LINE
  8
0
 62
7
 10
173.5123558307621
 20
332.9360715364302
 30
0
 11
174.9820107786629
 21
332.0875621735587
 31
0
  0
LINE
  8
0
 62
7
 10
264.130064723855
 20
332.0875621735587
 30
0
 11
265.599721534458
 21
332.9360715364302
 31
0
  0
LINE
  8
0
 62
7
 10
243.6604105758811
 20
332.9360715364302
 30
0
 11
245.130067386182
 21
332.0875621735587
 31
0
  0
LINE
  8
0
 62
7
 10
178.4820103863979
 20
332.0875621735587
 30
0
 11
178.4820103863979
 21
330.7875625321705
 31
0
  0
LINE
  8
0
 62
7
 10
190.4820103713016
 20
330.7875625321705
 30
0
 11
190.4820103713016
 21
332.0875621735587
 31
0
  0
LINE
  8
0
 62
7
 10
195.4516649269381
 20
382.93906319275
 30
0
 11
193.9820099790361
 21
383.7875651051228
 31
0
  0
LINE
  8
0
 62
7
 10
174.9820107786629
 20
383.7875651051228
 30
0
 11
173.5123558307621
 21
382.93906319275
 31
0
  0
LINE
  8
0
 62
7
 10
248.6300707190171
 20
332.0875621735587
 30
0
 11
248.6300707190171
 21
330.7875625321705
 31
0
  0
LINE
  8
0
 62
7
 10
260.6300651164211
 20
330.7875625321705
 30
0
 11
260.6300651164211
 21
332.0875621735587
 31
0
  0
LINE
  8
0
 62
7
 10
245.130067386182
 20
383.7875651051228
 30
0
 11
243.6604105758811
 21
382.93906319275
 31
0
  0
LINE
  8
0
 62
7
 10
265.599721534458
 20
382.93906319275
 30
0
 11
264.130064723855
 21
383.7875651051228
 31
0
  0
LINE
  8
0
 62
7
 10
108.3339556415788
 20
332.0875621735587
 30
0
 11
108.3339556415788
 21
330.7875625321705
 31
0
  0
LINE
  8
0
 62
7
 10
120.3339500386821
 20
330.7875625321705
 30
0
 11
120.3339500386821
 21
332.0875621735587
 31
0
  0
LINE
  8
0
 62
7
 10
125.3036101821183
 20
382.93906319275
 30
0
 11
123.8339533715168
 21
383.7875651051228
 31
0
  0
LINE
  8
0
 62
7
 10
104.8339560338443
 20
383.7875651051228
 30
0
 11
103.3642992232419
 21
382.93906319275
 31
0
  0
LINE
  8
0
 62
7
 10
238.982008526152
 20
379.9375670268647
 30
0
 11
238.982008526152
 21
381.934888851025
 31
0
  0
LINE
  8
0
 62
7
 10
196.4820103639041
 20
371.7875707080185
 30
0
 11
196.4820103639041
 21
375.7875638731858
 31
0
  0
LINE
  8
0
 62
7
 10
172.4820103937961
 20
375.7875638731858
 30
0
 11
172.4820103937961
 21
371.7875707080185
 31
0
  0
LINE
  8
0
 62
7
 10
126.3339546878844
 20
373.7875598399525
 30
0
 11
126.3339546878844
 21
375.7875638731858
 31
0
  0
LINE
  8
0
 62
7
 10
102.3339509923765
 20
375.7875638731858
 30
0
 11
102.3339509923765
 21
367.0855838456238
 31
0
  0
LINE
  8
0
 62
7
 10
266.6300697656241
 20
367.0855838456238
 30
0
 11
266.6300697656241
 21
375.7875638731858
 31
0
  0
LINE
  8
0
 62
7
 10
242.6300660701161
 20
375.7875638731858
 30
0
 11
242.6300660701161
 21
373.7875598399525
 31
0
  0
LINE
  8
0
 62
7
 10
267.48200639536
 20
356.7875628101139
 30
0
 11
267.48200639536
 21
366.7875606247836
 31
0
  0
LINE
  8
0
 62
7
 10
101.482014362339
 20
366.7875606247836
 30
0
 11
101.482014362339
 21
356.7875628101139
 31
0
  0
LINE
  8
0
 62
7
 10
309.4820091371751
 20
334.0875662067921
 30
0
 11
293.4820066736031
 21
334.0875662067921
 31
0
  0
LINE
  8
0
 62
7
 10
293.4820066736031
 20
148.0875636434304
 30
0
 11
309.4820091371751
 21
148.0875636434304
 31
0
  0
LINE
  8
0
 62
7
 10
43.48200915695293
 20
148.0875636434304
 30
0
 11
59.48201162052442
 21
148.0875636434304
 31
0
  0
LINE
  8
0
 62
7
 10
59.48201162052442
 20
334.0875662067921
 30
0
 11
43.48200915695293
 21
334.0875662067921
 31
0
  0
LINE
  8
0
 62
7
 10
309.4820091371751
 20
183.0875671700743
 30
0
 11
311.4820131704091
 21
185.087563752809
 31
0
  0
LINE
  8
0
 62
7
 10
311.4820131704091
 20
297.0875660974126
 30
0
 11
309.4820091371751
 21
299.0875626801474
 31
0
  0
LINE
  8
0
 62
7
 10
43.48200915695293
 20
299.0875626801474
 30
0
 11
41.48200512371909
 21
297.0875660974126
 31
0
  0
LINE
  8
0
 62
7
 10
41.48200512371909
 20
185.087563752809
 30
0
 11
43.48200915695293
 21
183.0875671700743
 31
0
  0
LINE
  8
0
 62
7
 10
125.3036101821183
 20
332.9360715364302
 30
0
 11
125.3036101821183
 21
342.0875674384289
 31
0
  0
LINE
  8
0
 62
7
 10
119.8187796484992
 20
332.9360715364302
 30
0
 11
119.8187796484992
 21
342.0875674384289
 31
0
  0
LINE
  8
0
 62
7
 10
108.8491260317617
 20
332.9360715364302
 30
0
 11
108.8491260317617
 21
342.0875674384289
 31
0
  0
LINE
  8
0
 62
7
 10
111.211451795896
 20
342.0875674384289
 30
0
 11
108.8491260317617
 21
342.0875674384289
 31
0
  0
LINE
  8
0
 62
7
 10
122.561193052459
 20
332.0875621735587
 30
0
 11
114.3339528399795
 21
332.0875621735587
 31
0
  0
LINE
  8
0
 62
7
 10
114.3339528399795
 20
332.0875621735587
 30
0
 11
106.1067089021015
 21
332.0875621735587
 31
0
  0
LINE
  8
0
 62
7
 10
103.3642992232419
 20
332.9360715364302
 30
0
 11
103.3642992232419
 21
342.0875674384289
 31
0
  0
LINE
  8
0
 62
7
 10
108.8491260317617
 20
342.0875674384289
 30
0
 11
107.6679631496929
 21
342.0875674384289
 31
0
  0
LINE
  8
0
 62
7
 10
104.5454621053093
 20
342.0875674384289
 30
0
 11
103.3642992232419
 21
342.0875674384289
 31
0
  0
LINE
  8
0
 62
7
 10
123.8339533715168
 20
332.0875621735587
 30
0
 11
122.561193052459
 21
332.0875621735587
 31
0
  0
LINE
  8
0
 62
7
 10
106.1067089021015
 20
332.0875621735587
 30
0
 11
104.8339560338443
 21
332.0875621735587
 31
0
  0
LINE
  8
0
 62
7
 10
189.9668376528186
 20
342.0875674384289
 30
0
 11
187.6045093275841
 21
342.0875674384289
 31
0
  0
LINE
  8
0
 62
7
 10
181.3595114301149
 20
342.0875674384289
 30
0
 11
178.9971831048804
 21
342.0875674384289
 31
0
  0
LINE
  8
0
 62
7
 10
189.9668376528186
 20
332.9360715364302
 30
0
 11
189.9668376528186
 21
342.0875674384289
 31
0
  0
LINE
  8
0
 62
7
 10
178.9971831048804
 20
332.9360715364302
 30
0
 11
178.9971831048804
 21
342.0875674384289
 31
0
  0
LINE
  8
0
 62
7
 10
192.7092515226791
 20
332.0875621735587
 30
0
 11
184.482010379
 21
332.0875621735587
 31
0
  0
LINE
  8
0
 62
7
 10
184.482010379
 20
332.0875621735587
 30
0
 11
176.2547692350206
 21
332.0875621735587
 31
0
  0
LINE
  8
0
 62
7
 10
195.4516649269381
 20
332.9360715364302
 30
0
 11
195.4516649269381
 21
342.0875674384289
 31
0
  0
LINE
  8
0
 62
7
 10
191.1480019319863
 20
342.0875674384289
 30
0
 11
189.9668376528186
 21
342.0875674384289
 31
0
  0
LINE
  8
0
 62
7
 10
173.5123558307621
 20
332.9360715364302
 30
0
 11
173.5123558307621
 21
342.0875674384289
 31
0
  0
LINE
  8
0
 62
7
 10
178.9971831048804
 20
342.0875674384289
 30
0
 11
177.8160188260133
 21
342.0875674384289
 31
0
  0
LINE
  8
0
 62
7
 10
193.9820099790361
 20
332.0875621735587
 30
0
 11
192.7092515226791
 21
332.0875621735587
 31
0
  0
LINE
  8
0
 62
7
 10
174.9820107786629
 20
332.0875621735587
 30
0
 11
176.2547692350206
 21
332.0875621735587
 31
0
  0
LINE
  8
0
 62
7
 10
260.114894725938
 20
342.0875674384289
 30
0
 11
257.7525689621041
 21
342.0875674384289
 31
0
  0
LINE
  8
0
 62
7
 10
260.114894725938
 20
332.9360715364302
 30
0
 11
260.114894725938
 21
342.0875674384289
 31
0
  0
LINE
  8
0
 62
7
 10
249.145241109499
 20
332.9360715364302
 30
0
 11
249.145241109499
 21
342.0875674384289
 31
0
  0
LINE
  8
0
 62
7
 10
246.40282770524
 20
332.0875621735587
 30
0
 11
254.6300679177191
 21
332.0875621735587
 31
0
  0
LINE
  8
0
 62
7
 10
262.857311855598
 20
332.0875621735587
 30
0
 11
254.6300679177191
 21
332.0875621735587
 31
0
  0
LINE
  8
0
 62
7
 10
265.599721534458
 20
332.9360715364302
 30
0
 11
265.599721534458
 21
342.0875674384289
 31
0
  0
LINE
  8
0
 62
7
 10
265.599721534458
 20
342.0875674384289
 30
0
 11
264.4185586523902
 21
342.0875674384289
 31
0
  0
LINE
  8
0
 62
7
 10
261.2960576080061
 20
342.0875674384289
 30
0
 11
260.114894725938
 21
342.0875674384289
 31
0
  0
LINE
  8
0
 62
7
 10
243.6604105758811
 20
332.9360715364302
 30
0
 11
243.6604105758811
 21
342.0875674384289
 31
0
  0
LINE
  8
0
 62
7
 10
264.130064723855
 20
332.0875621735587
 30
0
 11
262.857311855598
 21
332.0875621735587
 31
0
  0
LINE
  8
0
 62
7
 10
246.40282770524
 20
332.0875621735587
 30
0
 11
245.130067386182
 21
332.0875621735587
 31
0
  0
LINE
  8
0
 62
7
 10
178.9971831048804
 20
382.93906319275
 30
0
 11
178.9971831048804
 21
375.7875638731858
 31
0
  0
LINE
  8
0
 62
7
 10
189.9668376528186
 20
382.93906319275
 30
0
 11
189.9668376528186
 21
375.7875638731858
 31
0
  0
LINE
  8
0
 62
7
 10
192.7092515226791
 20
383.7875651051228
 30
0
 11
184.482010379
 21
383.7875651051228
 31
0
  0
LINE
  8
0
 62
7
 10
184.482010379
 20
383.7875651051228
 30
0
 11
176.2547692350206
 21
383.7875651051228
 31
0
  0
LINE
  8
0
 62
7
 10
195.4516649269381
 20
382.93906319275
 30
0
 11
195.4516649269381
 21
375.7875638731858
 31
0
  0
LINE
  8
0
 62
7
 10
173.5123558307621
 20
382.93906319275
 30
0
 11
173.5123558307621
 21
375.7875638731858
 31
0
  0
LINE
  8
0
 62
7
 10
179.2858581755129
 20
330.7875625321705
 30
0
 11
178.4820103863979
 21
330.7875625321705
 31
0
  0
LINE
  8
0
 62
7
 10
190.4820103713016
 20
330.7875625321705
 30
0
 11
179.2858581755129
 21
330.7875625321705
 31
0
  0
LINE
  8
0
 62
7
 10
193.9820099790361
 20
383.7875651051228
 30
0
 11
192.7092515226791
 21
383.7875651051228
 31
0
  0
LINE
  8
0
 62
7
 10
176.2547692350206
 20
383.7875651051228
 30
0
 11
174.9820107786629
 21
383.7875651051228
 31
0
  0
LINE
  8
0
 62
7
 10
262.857311855598
 20
383.7875651051228
 30
0
 11
254.6300679177191
 21
383.7875651051228
 31
0
  0
LINE
  8
0
 62
7
 10
260.114894725938
 20
382.93906319275
 30
0
 11
260.114894725938
 21
375.7875638731858
 31
0
  0
LINE
  8
0
 62
7
 10
265.599721534458
 20
382.93906319275
 30
0
 11
265.599721534458
 21
375.7875638731858
 31
0
  0
LINE
  8
0
 62
7
 10
249.145241109499
 20
382.93906319275
 30
0
 11
249.145241109499
 21
375.7875638731858
 31
0
  0
LINE
  8
0
 62
7
 10
254.6300679177191
 20
383.7875651051228
 30
0
 11
246.40282770524
 21
383.7875651051228
 31
0
  0
LINE
  8
0
 62
7
 10
243.6604105758811
 20
382.93906319275
 30
0
 11
243.6604105758811
 21
375.7875638731858
 31
0
  0
LINE
  8
0
 62
7
 10
254.6300679177191
 20
330.7875625321705
 30
0
 11
248.6300707190171
 21
330.7875625321705
 31
0
  0
LINE
  8
0
 62
7
 10
260.6300651164211
 20
330.7875625321705
 30
0
 11
254.6300679177191
 21
330.7875625321705
 31
0
  0
LINE
  8
0
 62
7
 10
246.40282770524
 20
383.7875651051228
 30
0
 11
245.130067386182
 21
383.7875651051228
 31
0
  0
LINE
  8
0
 62
7
 10
264.130064723855
 20
383.7875651051228
 30
0
 11
262.857311855598
 21
383.7875651051228
 31
0
  0
LINE
  8
0
 62
7
 10
108.8491260317617
 20
382.93906319275
 30
0
 11
108.8491260317617
 21
375.7875638731858
 31
0
  0
LINE
  8
0
 62
7
 10
119.8187796484992
 20
382.93906319275
 30
0
 11
119.8187796484992
 21
375.7875638731858
 31
0
  0
LINE
  8
0
 62
7
 10
114.3339528399795
 20
383.7875651051228
 30
0
 11
106.1067089021015
 21
383.7875651051228
 31
0
  0
LINE
  8
0
 62
7
 10
122.561193052459
 20
383.7875651051228
 30
0
 11
114.3339528399795
 21
383.7875651051228
 31
0
  0
LINE
  8
0
 62
7
 10
125.3036101821183
 20
382.93906319275
 30
0
 11
125.3036101821183
 21
375.7875638731858
 31
0
  0
LINE
  8
0
 62
7
 10
103.3642992232419
 20
382.93906319275
 30
0
 11
103.3642992232419
 21
375.7875638731858
 31
0
  0
LINE
  8
0
 62
7
 10
120.3339500386821
 20
330.7875625321705
 30
0
 11
108.3339556415788
 21
330.7875625321705
 31
0
  0
LINE
  8
0
 62
7
 10
123.8339533715168
 20
383.7875651051228
 30
0
 11
122.561193052459
 21
383.7875651051228
 31
0
  0
LINE
  8
0
 62
7
 10
106.1067089021015
 20
383.7875651051228
 30
0
 11
104.8339560338443
 21
383.7875651051228
 31
0
  0
LINE
  8
0
 62
7
 10
134.3172442675857
 20
386.9375662420335
 30
0
 11
237.245147821104
 21
386.9375662420335
 31
0
  0
LINE
  8
0
 62
7
 10
238.9417567648511
 20
379.9375670268647
 30
0
 11
195.4516649269381
 21
379.9375670268647
 31
0
  0
LINE
  8
0
 62
7
 10
173.5123558307621
 20
379.9375670268647
 30
0
 11
132.8974877200892
 21
379.9375670268647
 31
0
  0
LINE
  8
0
 62
7
 10
137.9297811687027
 20
386.9375662420335
 30
0
 11
137.9297811687027
 21
388.9375702752669
 31
0
  0
LINE
  8
0
 62
7
 10
132.8974877200892
 20
379.9375670268647
 30
0
 11
128.1649609281974
 21
379.9375670268647
 31
0
  0
LINE
  8
0
 62
7
 10
132.3182721395422
 20
386.9375662420335
 30
0
 11
134.3172442675857
 21
386.9375662420335
 31
0
  0
LINE
  8
0
 62
7
 10
135.4297835777359
 20
391.4375678662346
 30
0
 11
124.4820123159791
 21
391.4375678662346
 31
0
  0
LINE
  8
0
 62
7
 10
121.9820109996128
 20
383.7875651051228
 30
0
 11
121.9820109996128
 21
386.9375662420335
 31
0
  0
LINE
  8
0
 62
7
 10
121.9820109996128
 20
386.9375662420335
 30
0
 11
121.9820109996128
 21
388.9375702752669
 31
0
  0
LINE
  8
0
 62
7
 10
237.245147821104
 20
386.9375662420335
 30
0
 11
238.6466280945831
 21
386.9375662420335
 31
0
  0
LINE
  8
0
 62
7
 10
238.9817254041541
 20
385.9346734000957
 30
0
 11
238.9817254041541
 21
385.9347181036948
 31
0
  0
LINE
  8
0
 62
7
 10
238.875390719011
 20
386.9375662420335
 30
0
 11
247.4820107663211
 21
386.9375662420335
 31
0
  0
LINE
  8
0
 62
7
 10
238.6466280945831
 20
386.9375662420335
 30
0
 11
238.875390719011
 21
386.9375662420335
 31
0
  0
LINE
  8
0
 62
7
 10
248.4820127830872
 20
385.9375642252663
 30
0
 11
248.4820127830872
 21
383.937560192032
 31
0
  0
LINE
  8
0
 62
7
 10
238.9417567648511
 20
379.9375670268647
 30
0
 11
241.004155684866
 21
379.9375670268647
 31
0
  0
LINE
  8
0
 62
7
 10
196.4820103639041
 20
371.7875707080185
 30
0
 11
196.4820103639041
 21
370.5592680029196
 31
0
  0
LINE
  8
0
 62
7
 10
195.1003337337281
 20
356.7875628101139
 30
0
 11
173.863687024271
 21
356.7875628101139
 31
0
  0
LINE
  8
0
 62
7
 10
172.4820103937961
 20
371.7875707080185
 30
0
 11
172.4820103937961
 21
370.5592680029196
 31
0
  0
LINE
  8
0
 62
7
 10
196.4820103639041
 20
375.7875638731858
 30
0
 11
172.4820103937961
 21
375.7875638731858
 31
0
  0
LINE
  8
0
 62
7
 10
198.4820106720381
 20
368.787564658017
 30
0
 11
206.568123850918
 21
368.787564658017
 31
0
  0
LINE
  8
0
 62
7
 10
173.863687024271
 20
356.7875628101139
 30
0
 11
161.8295875946058
 21
356.7875628101139
 31
0
  0
LINE
  8
0
 62
7
 10
162.3958969070811
 20
368.787564658017
 30
0
 11
170.4820100859618
 21
368.787564658017
 31
0
  0
LINE
  8
0
 62
7
 10
207.1344331630941
 20
356.7875628101139
 30
0
 11
195.1003337337281
 21
356.7875628101139
 31
0
  0
LINE
  8
0
 62
7
 10
168.9695105745852
 20
373.7875598399525
 30
0
 11
172.4820103937961
 21
373.7875598399525
 31
0
  0
LINE
  8
0
 62
7
 10
196.4820103639041
 20
373.7875598399525
 30
0
 11
199.994510183115
 21
373.7875598399525
 31
0
  0
LINE
  8
0
 62
7
 10
161.8295875946058
 20
356.7875628101139
 30
0
 11
129.36162101781
 21
356.7875628101139
 31
0
  0
LINE
  8
0
 62
7
 10
130.7396319627226
 20
368.787564658017
 30
0
 11
162.3958969070811
 21
368.787564658017
 31
0
  0
LINE
  8
0
 62
7
 10
206.568123850918
 20
368.787564658017
 30
0
 11
238.224388795277
 21
368.787564658017
 31
0
  0
LINE
  8
0
 62
7
 10
239.6023997398891
 20
356.7875628101139
 30
0
 11
207.1344331630941
 21
356.7875628101139
 31
0
  0
LINE
  8
0
 62
7
 10
130.4622803772775
 20
373.7875598399525
 30
0
 11
168.9695105745852
 21
373.7875598399525
 31
0
  0
LINE
  8
0
 62
7
 10
199.994510183115
 20
373.7875598399525
 30
0
 11
238.501740380422
 21
373.7875598399525
 31
0
  0
LINE
  8
0
 62
7
 10
125.3036101821183
 20
376.9375609768632
 30
0
 11
173.5123558307621
 21
376.9375609768632
 31
0
  0
LINE
  8
0
 62
7
 10
195.4516649269381
 20
376.9375609768632
 30
0
 11
243.6604105758811
 21
376.9375609768632
 31
0
  0
LINE
  8
0
 62
7
 10
238.224388795277
 20
368.787564658017
 30
0
 11
246.0730836376151
 21
368.787564658017
 31
0
  0
LINE
  8
0
 62
7
 10
254.162231065666
 20
356.7875628101139
 30
0
 11
239.6023997398891
 21
356.7875628101139
 31
0
  0
LINE
  8
0
 62
7
 10
129.36162101781
 20
356.7875628101139
 30
0
 11
114.8017896923336
 21
356.7875628101139
 31
0
  0
LINE
  8
0
 62
7
 10
122.8909371200841
 20
368.787564658017
 30
0
 11
130.7396319627226
 21
368.787564658017
 31
0
  0
LINE
  8
0
 62
7
 10
130.9767094347678
 20
377.9375629936304
 30
0
 11
130.9767094347678
 21
376.9375609768632
 31
0
  0
LINE
  8
0
 62
7
 10
126.3339546878844
 20
375.7875638731858
 30
0
 11
102.3339509923765
 21
375.7875638731858
 31
0
  0
LINE
  8
0
 62
7
 10
114.8017896923336
 20
356.7875628101139
 30
0
 11
102.3445680693706
 21
356.7875628101139
 31
0
  0
LINE
  8
0
 62
7
 10
266.6300697656241
 20
375.7875638731858
 30
0
 11
242.6300660701161
 21
375.7875638731858
 31
0
  0
LINE
  8
0
 62
7
 10
266.6194526883292
 20
356.7875628101139
 30
0
 11
254.162231065666
 21
356.7875628101139
 31
0
  0
LINE
  8
0
 62
7
 10
238.501740380422
 20
373.7875598399525
 30
0
 11
244.4484733788531
 21
373.7875598399525
 31
0
  0
LINE
  8
0
 62
7
 10
124.515547378847
 20
373.7875598399525
 30
0
 11
130.4622803772775
 21
373.7875598399525
 31
0
  0
LINE
  8
0
 62
7
 10
267.48200639536
 20
356.7875628101139
 30
0
 11
266.6194526883292
 21
356.7875628101139
 31
0
  0
LINE
  8
0
 62
7
 10
102.3445680693706
 20
356.7875628101139
 30
0
 11
101.482014362339
 21
356.7875628101139
 31
0
  0
LINE
  8
0
 62
7
 10
130.2258473802256
 20
376.9375609768632
 30
0
 11
130.2258473802256
 21
377.9375629936304
 31
0
  0
LINE
  8
0
 62
7
 10
236.327936655314
 20
379.9375670268647
 30
0
 11
241.004155684866
 21
379.9375670268647
 31
0
  0
LINE
  8
0
 62
7
 10
130.2233700621507
 20
376.9375609768632
 30
0
 11
130.2233700621507
 21
377.9375629936304
 31
0
  0
LINE
  8
0
 62
7
 10
241.004155684866
 20
379.9375670268647
 30
0
 11
243.4820101503531
 21
379.9375670268647
 31
0
  0
LINE
  8
0
 62
7
 10
243.4820101503531
 20
379.9375670268647
 30
0
 11
243.6604105758811
 21
379.9375670268647
 31
0
  0
LINE
  8
0
 62
7
 10
153.2071145745529
 20
280.7829317478675
 30
0
 11
152.8467448956333
 21
280.7829317478675
 31
0
  0
LINE
  8
0
 62
7
 10
265.853614966936
 20
299.7988137232825
 30
0
 11
264.391066010362
 21
302.1236295397895
 31
0
  0
LINE
  8
0
 62
7
 10
191.4820105253691
 20
301.0875629879812
 30
0
 11
191.4820105253691
 21
298.0875643887804
 31
0
  0
LINE
  8
0
 62
7
 10
191.4820105253691
 20
294.0875637728124
 30
0
 11
191.4820105253691
 21
291.0875651736117
 31
0
  0
LINE
  8
0
 62
7
 10
159.4820102548249
 20
298.0875643887804
 30
0
 11
159.4820102548249
 21
294.0875637728124
 31
0
  0
LINE
  8
0
 62
7
 10
191.4820105253691
 20
298.0875643887804
 30
0
 11
159.4820102548249
 21
298.0875643887804
 31
0
  0
LINE
  8
0
 62
7
 10
159.4820102548249
 20
294.0875637728124
 30
0
 11
191.4820105253691
 21
294.0875637728124
 31
0
  0
LINE
  8
0
 62
7
 10
197.3647765647361
 20
261.2684494732049
 30
0
 11
197.3647765647361
 21
269.1983388797372
 31
0
  0
LINE
  8
0
 62
7
 10
194.887292765444
 20
261.2684494732049
 30
0
 11
197.3647765647361
 21
261.2684494732049
 31
0
  0
LINE
  8
0
 62
7
 10
194.887292765444
 20
270.332101168576
 30
0
 11
194.887292765444
 21
261.2684494732049
 31
0
  0
LINE
  8
0
 62
7
 10
191.7831695093767
 20
261.2684494732049
 30
0
 11
191.7831695093767
 21
269.1983388797372
 31
0
  0
LINE
  8
0
 62
7
 10
189.3056852444868
 20
261.2684494732049
 30
0
 11
191.7831695093767
 21
261.2684494732049
 31
0
  0
LINE
  8
0
 62
7
 10
189.3056852444868
 20
273.2101170008883
 30
0
 11
189.3056852444868
 21
261.2684494732049
 31
0
  0
LINE
  8
0
 62
7
 10
191.7831695093767
 20
273.2101170008883
 30
0
 11
189.3056852444868
 21
273.2101170008883
 31
0
  0
LINE
  8
0
 62
7
 10
191.7831695093767
 20
271.7275036308148
 30
0
 11
191.7831695093767
 21
273.2101170008883
 31
0
  0
LINE
  8
0
 62
7
 10
203.0626666930381
 20
261.2684494732049
 30
0
 11
203.0626666930381
 21
271.0298033310447
 31
0
  0
LINE
  8
0
 62
7
 10
200.5851828937471
 20
261.2684494732049
 30
0
 11
203.0626666930381
 21
261.2684494732049
 31
0
  0
LINE
  8
0
 62
7
 10
200.5851828937471
 20
270.2448902610423
 30
0
 11
200.5851828937471
 21
261.2684494732049
 31
0
  0
LINE
  8
0
 62
7
 10
293.4820066736031
 20
241.0875649249612
 30
0
 11
293.4820066736031
 21
334.0875662067921
 31
0
  0
LINE
  8
0
 62
7
 10
293.4820066736031
 20
148.0875636434304
 30
0
 11
293.4820066736031
 21
241.0875649249612
 31
0
  0
LINE
  8
0
 62
7
 10
309.4820091371751
 20
241.0875649249612
 30
0
 11
309.4820091371751
 21
334.0875662067921
 31
0
  0
LINE
  8
0
 62
7
 10
309.4820091371751
 20
148.0875636434304
 30
0
 11
309.4820091371751
 21
241.0875649249612
 31
0
  0
LINE
  8
0
 62
7
 10
59.48201162052442
 20
241.0875649249612
 30
0
 11
59.48201162052442
 21
334.0875662067921
 31
0
  0
LINE
  8
0
 62
7
 10
59.48201162052442
 20
148.0875636434304
 30
0
 11
59.48201162052442
 21
241.0875649249612
 31
0
  0
LINE
  8
0
 62
7
 10
43.48200915695293
 20
241.0875649249612
 30
0
 11
43.48200915695293
 21
334.0875662067921
 31
0
  0
LINE
  8
0
 62
7
 10
43.48200915695293
 20
148.0875636434304
 30
0
 11
43.48200915695293
 21
241.0875649249612
 31
0
  0
LINE
  8
0
 62
7
 10
175.6334075833927
 20
342.0875674384289
 30
0
 11
177.8160188260133
 21
342.0875674384289
 31
0
  0
LINE
  8
0
 62
7
 10
181.3595114301149
 20
342.0875674384289
 30
0
 11
187.6045093275841
 21
342.0875674384289
 31
0
  0
LINE
  8
0
 62
7
 10
191.1480019319863
 20
342.0875674384289
 30
0
 11
193.330613174606
 21
342.0875674384289
 31
0
  0
LINE
  8
0
 62
7
 10
163.9209245692334
 20
270.0909854817702
 30
0
 11
166.681232405115
 21
270.0909854817702
 31
0
  0
LINE
  8
0
 62
7
 10
176.0181117893715
 20
280.7950501169463
 30
0
 11
164.6989980065048
 21
280.7950501169463
 31
0
  0
LINE
  8
0
 62
7
 10
176.0181117893715
 20
278.9017383970534
 30
0
 11
176.0181117893715
 21
280.7950501169463
 31
0
  0
LINE
  8
0
 62
7
 10
167.3296266256741
 20
278.9017383970534
 30
0
 11
176.0181117893715
 21
278.9017383970534
 31
0
  0
LINE
  8
0
 62
7
 10
166.8109097591266
 20
272.3918569950157
 30
0
 11
167.3296266256741
 21
278.9017383970534
 31
0
  0
LINE
  8
0
 62
7
 10
166.2921947552793
 20
266.7897301096621
 30
0
 11
163.3095802229052
 21
266.7897301096612
 31
0
  0
LINE
  8
0
 62
7
 10
215.9701343472281
 20
261.2684494732049
 30
0
 11
215.9701343472281
 21
269.1983388797372
 31
0
  0
LINE
  8
0
 62
7
 10
213.4926505479371
 20
261.2684494732049
 30
0
 11
215.9701343472281
 21
261.2684494732049
 31
0
  0
LINE
  8
0
 62
7
 10
213.4926505479371
 20
270.332101168576
 30
0
 11
213.4926505479371
 21
261.2684494732049
 31
0
  0
LINE
  8
0
 62
7
 10
210.3885282233711
 20
261.2684494732049
 30
0
 11
210.3885282233711
 21
269.1983388797372
 31
0
  0
LINE
  8
0
 62
7
 10
207.9110425613801
 20
261.2684494732049
 30
0
 11
210.3885282233711
 21
261.2684494732049
 31
0
  0
LINE
  8
0
 62
7
 10
210.3885282233711
 20
273.2101170008883
 30
0
 11
207.9110425613801
 21
273.2101170008883
 31
0
  0
LINE
  8
0
 62
7
 10
210.3885282233711
 20
271.7275036308148
 30
0
 11
210.3885282233711
 21
273.2101170008883
 31
0
  0
LINE
  8
0
 62
7
 10
221.6680254067321
 20
261.2684494732049
 30
0
 11
221.6680254067321
 21
271.0298033310447
 31
0
  0
LINE
  8
0
 62
7
 10
219.1905397450391
 20
261.2684494732049
 30
0
 11
221.6680254067321
 21
261.2684494732049
 31
0
  0
LINE
  8
0
 62
7
 10
219.1905397450391
 20
270.2448902610423
 30
0
 11
219.1905397450391
 21
261.2684494732049
 31
0
  0
LINE
  8
0
 62
7
 10
207.9110425613801
 20
273.2101170008883
 30
0
 11
207.9110425613801
 21
261.2684494732049
 31
0
  0
LINE
  8
0
 62
7
 10
155.1657455340981
 20
276.2933423099622
 30
0
 11
158.1483600664712
 21
276.2933423099622
 31
0
  0
LINE
  8
0
 62
7
 10
162.3958969070811
 20
342.0875674384289
 30
0
 11
175.6334075833927
 21
342.0875674384289
 31
0
  0
LINE
  8
0
 62
7
 10
193.330613174606
 20
342.0875674384289
 30
0
 11
206.568123850918
 21
342.0875674384289
 31
0
  0
LINE
  8
0
 62
7
 10
130.7396319627226
 20
342.0875674384289
 30
0
 11
162.3958969070811
 21
342.0875674384289
 31
0
  0
LINE
  8
0
 62
7
 10
206.568123850918
 20
342.0875674384289
 30
0
 11
238.224388795277
 21
342.0875674384289
 31
0
  0
LINE
  8
0
 62
7
 10
184.482010379
 20
152.9694075195386
 30
0
 11
180.9425157095582
 21
152.969042441143
 31
0
  0
LINE
  8
0
 62
7
 10
188.7707810602999
 20
184.8416983208509
 30
0
 11
189.1658029234761
 21
184.8416983208509
 31
0
  0
LINE
  8
0
 62
7
 10
189.1658029234761
 20
184.162048915002
 30
0
 11
187.9208854238416
 21
184.162048915002
 31
0
  0
LINE
  8
0
 62
7
 10
187.9208854238416
 20
184.162048915002
 30
0
 11
187.9208854238416
 21
191.1620481301717
 31
0
  0
LINE
  8
0
 62
7
 10
187.9208854238416
 20
191.1620481301717
 30
0
 11
189.1658029234761
 21
191.1620481301717
 31
0
  0
LINE
  8
0
 62
7
 10
189.1658029234761
 20
190.4823987243227
 30
0
 11
188.7707810602999
 21
190.4823987243227
 31
0
  0
LINE
  8
0
 62
7
 10
188.7707810602999
 20
190.4823987243227
 30
0
 11
188.7707810602999
 21
184.8416983208509
 31
0
  0
LINE
  8
0
 62
7
 10
183.9491204127933
 20
184.162048915002
 30
0
 11
183.9491204127933
 21
189.7322556506735
 31
0
  0
LINE
  8
0
 62
7
 10
183.9491204127933
 20
189.7322556506735
 30
0
 11
182.8957288164563
 21
189.7322556506735
 31
0
  0
LINE
  8
0
 62
7
 10
182.8957288164563
 20
189.7322556506735
 30
0
 11
182.8957288164563
 21
190.1565364091586
 31
0
  0
LINE
  8
0
 62
7
 10
184.3680829627308
 20
191.1620481301717
 30
0
 11
184.7990158746513
 21
191.1620481301717
 31
0
  0
LINE
  8
0
 62
7
 10
184.7990158746513
 20
191.1620481301717
 30
0
 11
184.7990158746513
 21
184.162048915002
 31
0
  0
LINE
  8
0
 62
7
 10
184.7990158746513
 20
184.162048915002
 30
0
 11
183.9491204127933
 21
184.162048915002
 31
0
  0
LINE
  8
0
 62
7
 10
178.4331788159827
 20
184.162048915002
 30
0
 11
178.4331788159827
 21
189.7322556506735
 31
0
  0
LINE
  8
0
 62
7
 10
178.4331788159827
 20
189.7322556506735
 30
0
 11
177.3797873363458
 21
189.7322556506735
 31
0
  0
LINE
  8
0
 62
7
 10
177.3797873363458
 20
189.7322556506735
 30
0
 11
177.3797873363458
 21
190.1565364091586
 31
0
  0
LINE
  8
0
 62
7
 10
178.8521417226204
 20
191.1620481301717
 30
0
 11
179.283074452441
 21
191.1620481301717
 31
0
  0
LINE
  8
0
 62
7
 10
179.283074452441
 20
191.1620481301717
 30
0
 11
179.283074452441
 21
184.162048915002
 31
0
  0
LINE
  8
0
 62
7
 10
179.283074452441
 20
184.162048915002
 30
0
 11
178.4331788159827
 21
184.162048915002
 31
0
  0
LINE
  8
0
 62
7
 10
193.482009902003
 20
181.5875641450749
 30
0
 11
175.4820108556971
 21
181.5875641450749
 31
0
  0
LINE
  8
0
 62
7
 10
175.4820108556971
 20
193.587565992979
 30
0
 11
193.482009902003
 21
193.587565992979
 31
0
  0
LINE
  8
0
 62
7
 10
193.482009902003
 20
193.587565992979
 30
0
 11
193.482009902003
 21
181.5875641450749
 31
0
  0
LINE
  8
0
 62
7
 10
175.4820108556971
 20
181.5875641450749
 30
0
 11
175.4820108556971
 21
193.587565992979
 31
0
  0
LINE
  8
0
 62
7
 10
232.886640171597
 20
151.8069902980852
 30
0
 11
235.5272972722671
 21
153.0352333985849
 31
0
  0
LINE
  8
0
 62
7
 10
184.4820103771997
 20
152.9693404644387
 30
0
 11
188.0272960119848
 21
153.0352333985849
 31
0
  0
LINE
  8
0
 62
7
 10
311.4820131704091
 20
297.0875660974126
 30
0
 11
311.4820131704091
 21
185.087563752809
 31
0
  0
LINE
  8
0
 62
7
 10
41.48200512371909
 20
297.0875660974126
 30
0
 11
41.48200512371909
 21
185.087563752809
 31
0
  0
LINE
  8
0
 62
7
 10
114.7238193670075
 20
342.0875674384289
 30
0
 11
130.7396319627226
 21
342.0875674384289
 31
0
  0
LINE
  8
0
 62
7
 10
238.224388795277
 20
342.0875674384289
 30
0
 11
254.2402013906922
 21
342.0875674384289
 31
0
  0
LINE
  8
0
 62
7
 10
254.2402013906922
 20
342.0875674384289
 30
0
 11
257.7525689621041
 21
342.0875674384289
 31
0
  0
LINE
  8
0
 62
7
 10
261.2960576080061
 20
342.0875674384289
 30
0
 11
264.4185586523902
 21
342.0875674384289
 31
0
  0
LINE
  8
0
 62
7
 10
104.5454621053093
 20
342.0875674384289
 30
0
 11
107.6679631496929
 21
342.0875674384289
 31
0
  0
LINE
  8
0
 62
7
 10
111.211451795896
 20
342.0875674384289
 30
0
 11
114.7238193670075
 21
342.0875674384289
 31
0
  0
LINE
  8
0
 62
7
 10
188.0272960119848
 20
153.0352333985849
 30
0
 11
186.9820102982669
 21
141.0875644282616
 31
0
  0
LINE
  8
0
 62
7
 10
181.9820104597318
 20
141.0875644282616
 30
0
 11
186.9820102982669
 21
141.0875644282616
 31
0
  0
LINE
  8
0
 62
7
 10
180.9425157095582
 20
152.969042441143
 30
0
 11
181.9820104597318
 21
141.0875644282616
 31
0
  0
LINE
  8
0
 62
7
 10
101.482014362339
 20
344.0875640211626
 30
0
 11
101.482014362339
 21
356.7875628101139
 31
0
  0
LINE
  8
0
 62
7
 10
267.48200639536
 20
344.0875640211626
 30
0
 11
267.48200639536
 21
356.7875628101139
 31
0
  0
LINE
  8
0
 62
7
 10
86.41530141739645
 20
170.1920800493664
 30
0
 11
85.72267310027678
 21
169.9579455562918
 31
0
  0
LINE
  8
0
 62
7
 10
272.4735898719791
 20
298.3264449013078
 30
0
 11
271.2217433324131
 21
297.7835210986007
 31
0
  0
LINE
  8
0
 62
7
 10
134.4820101303501
 20
141.0875644282616
 30
0
 11
149.482010577455
 21
141.0875644282616
 31
0
  0
LINE
  8
0
 62
7
 10
133.9478407598551
 20
147.1931661553137
 30
0
 11
134.4820101303501
 21
141.0875644282616
 31
0
  0
LINE
  8
0
 62
7
 10
149.7066157779238
 20
143.6548109590605
 30
0
 11
149.482010577455
 21
141.0875644282616
 31
0
  0
LINE
  8
0
 62
7
 10
235.5272972722671
 20
153.0352333985849
 30
0
 11
234.4820106273501
 21
141.0875644282616
 31
0
  0
LINE
  8
0
 62
7
 10
219.4820101802441
 20
141.0875644282616
 30
0
 11
234.4820106273501
 21
141.0875644282616
 31
0
  0
LINE
  8
0
 62
7
 10
218.9702633318282
 20
146.9368736357602
 30
0
 11
219.4820101802441
 21
141.0875644282616
 31
0
  0
LINE
  8
0
 62
7
 10
64.88776541772927
 20
308.2914734161251
 30
0
 11
81.65027519322734
 21
299.6211695317471
 31
0
  0
LINE
  8
0
 62
7
 10
288.6735733673652
 20
308.1667805005639
 30
0
 11
272.4735898719791
 21
298.3264449013078
 31
0
  0
LINE
  8
0
 62
7
 10
288.099096356372
 20
173.8894231831402
 30
0
 11
262.634830070408
 21
187.1438382955841
 31
0
  0
LINE
  8
0
 62
7
 10
85.72267310027678
 20
169.9579455562918
 30
0
 11
62.88082489406429
 21
162.2364991785891
 31
0
  0
LINE
  8
0
 62
7
 10
128.1649609281974
 20
379.9375670268647
 30
0
 11
128.1649609281974
 21
385.4375706675329
 31
0
  0
LINE
  8
0
 62
7
 10
122.9820092909793
 20
386.9375662420335
 30
0
 11
122.9820092909793
 21
383.7875651051228
 31
0
  0
LINE
  8
0
 62
7
 10
122.9820092909793
 20
388.9375702752669
 30
0
 11
122.9820092909793
 21
386.9375662420335
 31
0
  0
LINE
  8
0
 62
7
 10
135.4297835777359
 20
388.9375702752669
 30
0
 11
122.9820092909793
 21
388.9375702752669
 31
0
  0
LINE
  8
0
 62
7
 10
135.4297835777359
 20
386.9375662420335
 30
0
 11
135.4297835777359
 21
388.9375702752669
 31
0
  0
LINE
  8
0
 62
7
 10
120.3339500386821
 20
371.7875707080185
 30
0
 11
120.3339500386821
 21
370.5592680029196
 31
0
  0
LINE
  8
0
 62
7
 10
248.6300707190171
 20
371.7875707080185
 30
0
 11
248.6300707190171
 21
370.5592680029196
 31
0
  0
LINE
  8
0
 62
7
 10
247.073085654383
 20
370.7875686912513
 30
0
 11
248.6300707190171
 21
370.5592680029196
 31
0
  0
LINE
  8
0
 62
7
 10
120.3339500386821
 20
370.5592680029196
 30
0
 11
121.8909351033165
 21
370.7875686912513
 31
0
  0
LINE
  8
0
 62
7
 10
246.1817131016371
 20
370.7875686912513
 30
0
 11
247.073085654383
 21
370.7875686912513
 31
0
  0
LINE
  8
0
 62
7
 10
121.8909351033165
 20
370.7875686912513
 30
0
 11
122.7823076560628
 21
370.7875686912513
 31
0
  0
LINE
  8
0
 62
7
 10
246.1817131016371
 20
371.7875707080185
 30
0
 11
246.1817131016371
 21
370.7875686912513
 31
0
  0
LINE
  8
0
 62
7
 10
248.6300707190171
 20
371.7875707080185
 30
0
 11
246.1817131016371
 21
371.7875707080185
 31
0
  0
LINE
  8
0
 62
7
 10
122.7823076560628
 20
371.7875707080185
 30
0
 11
120.3339500386821
 21
371.7875707080185
 31
0
  0
LINE
  8
0
 62
7
 10
122.7823076560628
 20
370.7875686912513
 30
0
 11
122.7823076560628
 21
371.7875707080185
 31
0
  0
LINE
  8
0
 62
7
 10
241.429352864742
 20
377.9375629936304
 30
0
 11
241.429352864742
 21
376.9375609768632
 31
0
  0
LINE
  8
0
 62
7
 10
243.4820101503531
 20
376.9375609768632
 30
0
 11
243.4820101503531
 21
379.9375670268647
 31
0
  0
LINE
  8
0
 62
7
 10
266.62743226015
 20
344.0875640211626
 30
0
 11
266.62743226015
 21
356.7875628101139
 31
0
  0
LINE
  8
0
 62
7
 10
102.3365884978505
 20
344.0875640211626
 30
0
 11
102.3365884978505
 21
356.7875628101139
 31
0
  0
LINE
  8
0
 62
7
 10
102.3365884978505
 20
344.0875640211626
 30
0
 11
101.482014362339
 21
344.0875640211626
 31
0
  0
LINE
  8
0
 62
7
 10
267.48200639536
 20
344.0875640211626
 30
0
 11
266.62743226015
 21
344.0875640211626
 31
0
  0
LINE
  8
0
 62
7
 10
88.98424668047869
 20
303.2902898667018
 30
0
 11
88.60595090493666
 21
297.9878756212703
 31
0
  0
LINE
  8
0
 62
2
  6
DASHDOT
 10
184.482010379
 20
401.9375662420335
 30
0
 11
184.482010379
 21
131.0559045956299
 31
0
  0
LINE
  8
0
 62
7
 10
238.9817738328532
 20
565.0890331626445
 30
0
 11
240.5404576300721
 21
565.4171152848851
 31
0
  0
LINE
  8
0
 62
7
 10
238.716831189585
 20
565.0878904296553
 30
0
 11
238.981680700555
 21
565.0891342110429
 31
0
  0
LINE
  8
0
 62
7
 10
309.4820091371751
 20
664.0875662067931
 30
0
 11
293.4820066736031
 21
664.0875662067931
 31
0
  0
LINE
  8
0
 62
7
 10
293.4820066736031
 20
478.0875636434296
 30
0
 11
309.4820091371751
 21
478.0875636434296
 31
0
  0
LINE
  8
0
 62
7
 10
43.48200915695293
 20
478.0875636434296
 30
0
 11
59.48201162052442
 21
478.0875636434296
 31
0
  0
LINE
  8
0
 62
7
 10
59.48201162052442
 20
664.0875662067931
 30
0
 11
43.48200915695293
 21
664.0875662067931
 31
0
  0
LINE
  8
0
 62
7
 10
43.48200915695293
 20
629.0875626798463
 30
0
 11
41.48200512371909
 21
627.0875660974127
 31
0
  0
LINE
  8
0
 62
7
 10
41.48200512371909
 20
515.0875637528091
 30
0
 11
43.48200915695293
 21
513.0875671700753
 31
0
  0
LINE
  8
0
 62
7
 10
309.4820091371751
 20
513.0875671700753
 30
0
 11
311.4820131704091
 21
515.0875637528091
 31
0
  0
LINE
  8
0
 62
7
 10
311.4820131704091
 20
627.0875660974136
 30
0
 11
309.4820091371751
 21
629.0875626798463
 31
0
  0
LINE
  8
0
 62
7
 10
175.6292808929336
 20
663.114214916561
 30
0
 11
173.4217269695616
 21
662.8605599027799
 31
0
  0
LINE
  8
0
 62
7
 10
146.1943748665115
 20
486.5343091341285
 30
0
 11
149.1590353623626
 21
485.3283954234069
 31
0
  0
LINE
  8
0
 62
7
 10
164.1797800883617
 20
480.7640803881443
 30
0
 11
166.8963157637779
 21
480.2513165355379
 31
0
  0
LINE
  8
0
 62
7
 10
219.2045803638
 20
485.2081132515016
 30
0
 11
221.7139545104751
 21
486.183409143214
 31
0
  0
LINE
  8
0
 62
7
 10
207.910090749589
 20
481.4827261324056
 30
0
 11
210.389288182463
 21
482.2108490151734
 31
0
  0
LINE
  8
0
 62
7
 10
200.5897668634011
 20
479.9932060745007
 30
0
 11
203.080887087557
 21
480.395105288809
 31
0
  0
LINE
  8
0
 62
7
 10
189.0884142093444
 20
478.7063939604834
 30
0
 11
191.7805189653029
 21
478.9300231349619
 31
0
  0
LINE
  8
0
 62
7
 10
184.482010379
 20
499.5875622974702
 30
0
 11
189.9668376528186
 21
499.5875622974702
 31
0
  0
LINE
  8
0
 62
7
 10
178.9971831048804
 20
499.5875622974702
 30
0
 11
184.482010379
 21
499.5875622974702
 31
0
  0
LINE
  8
0
 62
7
 10
184.482010379
 20
480.5875686848979
 30
0
 11
178.9971831048804
 21
480.5875686848979
 31
0
  0
LINE
  8
0
 62
7
 10
189.9668376528186
 20
480.5875686848979
 30
0
 11
184.482010379
 21
480.5875686848979
 31
0
  0
LINE
  8
0
 62
7
 10
192.7092515226791
 20
494.8375638942518
 30
0
 11
195.4516649269381
 21
490.0875654913336
 31
0
  0
LINE
  8
0
 62
7
 10
254.6300679177191
 20
621.0875651733115
 30
0
 11
260.114894725938
 21
621.0875651733115
 31
0
  0
LINE
  8
0
 62
7
 10
249.145241109499
 20
621.0875651733115
 30
0
 11
254.6300679177191
 21
621.0875651733115
 31
0
  0
LINE
  8
0
 62
7
 10
260.114894725938
 20
602.0875641105388
 30
0
 11
254.6300679177191
 21
602.0875641105388
 31
0
  0
LINE
  8
0
 62
7
 10
254.6300679177191
 20
602.0875641105388
 30
0
 11
249.145241109499
 21
602.0875641105388
 31
0
  0
LINE
  8
0
 62
7
 10
178.9971831048804
 20
661.5875611650247
 30
0
 11
184.482010379
 21
661.5875611650247
 31
0
  0
LINE
  8
0
 62
7
 10
184.482010379
 20
661.5875611650247
 30
0
 11
189.9668376528186
 21
661.5875611650247
 31
0
  0
LINE
  8
0
 62
7
 10
176.2547692350206
 20
647.3375659556698
 30
0
 11
173.5123558307621
 21
652.0875643588881
 31
0
  0
LINE
  8
0
 62
7
 10
189.9668376528186
 20
642.5875675527516
 30
0
 11
184.482010379
 21
642.5875675527516
 31
0
  0
LINE
  8
0
 62
7
 10
184.482010379
 20
642.5875675527516
 30
0
 11
178.9971831048804
 21
642.5875675527516
 31
0
  0
LINE
  8
0
 62
7
 10
254.6300679177191
 20
540.0875657396839
 30
0
 11
260.114894725938
 21
540.0875657396839
 31
0
  0
LINE
  8
0
 62
7
 10
249.145241109499
 20
540.0875657396839
 30
0
 11
254.6300679177191
 21
540.0875657396839
 31
0
  0
LINE
  8
0
 62
7
 10
260.114894725938
 20
521.087564676611
 30
0
 11
254.6300679177191
 21
521.087564676611
 31
0
  0
LINE
  8
0
 62
7
 10
254.6300679177191
 20
521.087564676611
 30
0
 11
249.145241109499
 21
521.087564676611
 31
0
  0
LINE
  8
0
 62
7
 10
108.8491260317617
 20
621.0875651733115
 30
0
 11
114.3339528399795
 21
621.0875651733115
 31
0
  0
LINE
  8
0
 62
7
 10
114.3339528399795
 20
621.0875651733115
 30
0
 11
119.8187796484992
 21
621.0875651733115
 31
0
  0
LINE
  8
0
 62
7
 10
119.8187796484992
 20
602.0875641105388
 30
0
 11
114.3339528399795
 21
602.0875641105388
 31
0
  0
LINE
  8
0
 62
7
 10
114.3339528399795
 20
602.0875641105388
 30
0
 11
108.8491260317617
 21
602.0875641105388
 31
0
  0
LINE
  8
0
 62
7
 10
114.3339528399795
 20
540.0875657396839
 30
0
 11
119.8187796484992
 21
540.0875657396839
 31
0
  0
LINE
  8
0
 62
7
 10
108.8491260317617
 20
540.0875657396839
 30
0
 11
114.3339528399795
 21
540.0875657396839
 31
0
  0
LINE
  8
0
 62
7
 10
119.8187796484992
 20
521.087564676611
 30
0
 11
114.3339528399795
 21
521.087564676611
 31
0
  0
LINE
  8
0
 62
7
 10
114.3339528399795
 20
521.087564676611
 30
0
 11
108.8491260317617
 21
521.087564676611
 31
0
  0
LINE
  8
0
 62
7
 10
122.9820092909793
 20
585.2875648765132
 30
0
 11
135.4295675108376
 21
585.2875648765132
 31
0
  0
LINE
  8
0
 62
7
 10
121.9820109996128
 20
557.8875651277779
 30
0
 11
121.9820109996128
 21
584.2875647224457
 31
0
  0
LINE
  8
0
 62
7
 10
126.9820099069473
 20
573.5875648442282
 30
0
 11
126.9820099069473
 21
580.2875650376766
 31
0
  0
LINE
  8
0
 62
7
 10
126.9820099069473
 20
580.2875650376766
 30
0
 11
135.4295675108376
 21
580.2875650376766
 31
0
  0
LINE
  8
0
 62
7
 10
126.9820099069473
 20
568.5875650056935
 30
0
 11
133.9820091221161
 21
568.5875650056935
 31
0
  0
LINE
  8
0
 62
7
 10
126.9820099069473
 20
561.8875648122441
 30
0
 11
126.9820099069473
 21
568.5875650056935
 31
0
  0
LINE
  8
0
 62
7
 10
133.9820091221161
 20
573.5875648442282
 30
0
 11
126.9820099069473
 21
573.5875648442282
 31
0
  0
LINE
  8
0
 62
7
 10
135.4297835777359
 20
556.8875649737104
 30
0
 11
122.9820092909793
 21
556.8875649737104
 31
0
  0
LINE
  8
0
 62
7
 10
135.4297835777359
 20
561.8875648122441
 30
0
 11
126.9820099069473
 21
561.8875648122441
 31
0
  0
LINE
  8
0
 62
7
 10
238.6507259139421
 20
565.0875896124583
 30
0
 11
238.564153893602
 21
565.0872380382618
 31
0
  0
LINE
  8
0
 62
7
 10
238.562186940321
 20
577.110337617037
 30
0
 11
238.6410401590381
 21
577.0885772651529
 31
0
  0
LINE
  8
0
 62
7
 10
238.974367955828
 20
576.9953155547794
 30
0
 11
238.974367955828
 21
576.9953150891781
 31
0
  0
LINE
  8
0
 62
7
 10
221.3809284623831
 20
595.7464085550248
 30
0
 11
221.3809284623831
 21
594.7085035726343
 31
0
  0
LINE
  8
0
 62
7
 10
221.3809284623831
 20
594.7085035726343
 30
0
 11
216.36467983891
 21
594.7085035726343
 31
0
  0
LINE
  8
0
 62
7
 10
221.3809284623831
 20
593.3583224088463
 30
0
 11
221.3809284623831
 21
592.3204174264549
 31
0
  0
LINE
  8
0
 62
7
 10
221.3809284623831
 20
592.3204174264549
 30
0
 11
216.315945591793
 21
592.3204174264549
 31
0
  0
LINE
  8
0
 62
7
 10
216.9495206075001
 20
591.0189723724818
 30
0
 11
221.3809284623831
 21
591.0189723724818
 31
0
  0
LINE
  8
0
 62
7
 10
221.3809284623831
 20
591.0189723724818
 30
0
 11
221.3809284623831
 21
589.9810673900922
 31
0
  0
LINE
  8
0
 62
7
 10
221.3809284623831
 20
589.9810673900922
 30
0
 11
214.7076409283681
 21
589.9810673900922
 31
0
  0
LINE
  8
0
 62
7
 10
214.7076409283681
 20
589.9810673900922
 30
0
 11
214.7076409283681
 21
591.0189723724818
 31
0
  0
LINE
  8
0
 62
7
 10
214.7076409283681
 20
591.0189723724818
 30
0
 11
215.536162246339
 21
591.0189723724818
 31
0
  0
LINE
  8
0
 62
7
 10
215.9260529875671
 20
595.7464085550248
 30
0
 11
221.3809284623831
 21
595.7464085550248
 31
0
  0
LINE
  8
0
 62
7
 10
216.9495206075001
 20
593.3583224088463
 30
0
 11
221.3809284623831
 21
593.3583224088463
 31
0
  0
LINE
  8
0
 62
7
 10
206.4820100412741
 20
598.0875653572705
 30
0
 11
194.4820100560701
 21
598.0875653572705
 31
0
  0
LINE
  8
0
 62
7
 10
206.4820100412741
 20
544.0875644929522
 30
0
 11
206.4820100412741
 21
598.0875653572705
 31
0
  0
LINE
  8
0
 62
7
 10
194.4820100560701
 20
544.0875644929522
 30
0
 11
206.4820100412741
 21
544.0875644929522
 31
0
  0
LINE
  8
0
 62
7
 10
194.4820100560701
 20
598.0875653572705
 30
0
 11
194.4820100560701
 21
544.0875644929522
 31
0
  0
LINE
  8
0
 62
7
 10
221.3809284623831
 20
585.984676580488
 30
0
 11
221.3809284623831
 21
584.9467706665967
 31
0
  0
LINE
  8
0
 62
7
 10
221.3809284623831
 20
584.9467706665967
 30
0
 11
216.36467983891
 21
584.9467706665967
 31
0
  0
LINE
  8
0
 62
7
 10
221.3809284623831
 20
583.5965904340085
 30
0
 11
221.3809284623831
 21
582.5586835892184
 31
0
  0
LINE
  8
0
 62
7
 10
221.3809284623831
 20
582.5586835892184
 30
0
 11
216.315945591793
 21
582.5586835892184
 31
0
  0
LINE
  8
0
 62
7
 10
216.9495206075001
 20
581.2572394664451
 30
0
 11
221.3809284623831
 21
581.2572394664451
 31
0
  0
LINE
  8
0
 62
7
 10
221.3809284623831
 20
581.2572394664451
 30
0
 11
221.3809284623831
 21
580.2193335525556
 31
0
  0
LINE
  8
0
 62
7
 10
221.3809284623831
 20
580.2193335525556
 30
0
 11
214.7076409283681
 21
580.2193335525556
 31
0
  0
LINE
  8
0
 62
7
 10
214.7076409283681
 20
580.2193335525556
 30
0
 11
214.7076409283681
 21
581.2572394664451
 31
0
  0
LINE
  8
0
 62
7
 10
214.7076409283681
 20
581.2572394664451
 30
0
 11
215.536162246339
 21
581.2572394664451
 31
0
  0
LINE
  8
0
 62
7
 10
215.9260529875671
 20
585.984676580488
 30
0
 11
221.3809284623831
 21
585.984676580488
 31
0
  0
LINE
  8
0
 62
7
 10
216.9495206075001
 20
583.5965904340085
 30
0
 11
221.3809284623831
 21
583.5965904340085
 31
0
  0
LINE
  8
0
 62
7
 10
170.9820101626954
 20
574.2629914009197
 30
0
 11
165.4820111786273
 21
571.0875649249613
 31
0
  0
LINE
  8
0
 62
7
 10
165.4820111786273
 20
571.0875649249613
 30
0
 11
170.9820101626954
 21
567.912138449303
 31
0
  0
LINE
  8
0
 62
7
 10
170.9820101626954
 20
567.912138449303
 30
0
 11
170.9820101626954
 21
561.5612852645847
 31
0
  0
LINE
  8
0
 62
7
 10
170.9820101626954
 20
561.5612852645847
 30
0
 11
176.4820100782638
 21
564.7367119733437
 31
0
  0
LINE
  8
0
 62
7
 10
176.4820100782638
 20
564.7367119733437
 30
0
 11
181.9820104597318
 21
561.5612852645847
 31
0
  0
LINE
  8
0
 62
7
 10
181.9820104597318
 20
561.5612852645847
 30
0
 11
181.9820104597318
 21
567.912138449303
 31
0
  0
LINE
  8
0
 62
7
 10
181.9820104597318
 20
567.912138449303
 30
0
 11
187.4820103753016
 21
571.0875649249613
 31
0
  0
LINE
  8
0
 62
7
 10
187.4820103753016
 20
571.0875649249613
 30
0
 11
181.9820104597318
 21
574.2629914009197
 31
0
  0
LINE
  8
0
 62
7
 10
181.9820104597318
 20
574.2629914009197
 30
0
 11
181.9820104597318
 21
580.613844585336
 31
0
  0
LINE
  8
0
 62
7
 10
181.9820104597318
 20
580.613844585336
 30
0
 11
176.4820100782638
 21
577.4384178765779
 31
0
  0
LINE
  8
0
 62
7
 10
176.4820100782638
 20
577.4384178765779
 30
0
 11
170.9820101626954
 21
580.613844585336
 31
0
  0
LINE
  8
0
 62
7
 10
170.9820101626954
 20
580.613844585336
 30
0
 11
170.9820101626954
 21
574.2629914009197
 31
0
  0
LINE
  8
0
 62
7
 10
168.9820107860617
 20
584.0779454332271
 30
0
 11
168.9820107860617
 21
575.4176919162503
 31
0
  0
LINE
  8
0
 62
7
 10
176.4820100782638
 20
579.7478189078395
 30
0
 11
168.9820107860617
 21
584.0779454332271
 31
0
  0
LINE
  8
0
 62
7
 10
183.9820103601662
 20
584.0779454332271
 30
0
 11
176.4820100782638
 21
579.7478189078395
 31
0
  0
LINE
  8
0
 62
7
 10
191.4820105253691
 20
571.0875649249613
 30
0
 11
183.9820103601662
 21
575.4176919162503
 31
0
  0
LINE
  8
0
 62
7
 10
183.9820103601662
 20
566.7574379336732
 30
0
 11
191.4820105253691
 21
571.0875649249613
 31
0
  0
LINE
  8
0
 62
7
 10
183.9820103601662
 20
558.0971844166945
 30
0
 11
183.9820103601662
 21
566.7574379336732
 31
0
  0
LINE
  8
0
 62
7
 10
176.4820100782638
 20
562.4273109423841
 30
0
 11
183.9820103601662
 21
558.0971844166945
 31
0
  0
LINE
  8
0
 62
7
 10
168.9820107860617
 20
558.0971844166945
 30
0
 11
176.4820100782638
 21
562.4273109423841
 31
0
  0
LINE
  8
0
 62
7
 10
168.9820107860617
 20
566.7574379336732
 30
0
 11
168.9820107860617
 21
558.0971844166945
 31
0
  0
LINE
  8
0
 62
7
 10
161.4820105626588
 20
571.0875649249613
 30
0
 11
168.9820107860617
 21
566.7574379336732
 31
0
  0
LINE
  8
0
 62
7
 10
168.9820107860617
 20
575.4176919162503
 30
0
 11
161.4820105626588
 21
571.0875649249613
 31
0
  0
LINE
  8
0
 62
7
 10
183.9820103601662
 20
575.4176919162503
 30
0
 11
183.9820103601662
 21
584.0779454332271
 31
0
  0
LINE
  8
0
 62
7
 10
148.8075281492545
 20
588.5609755664975
 30
0
 11
155.8075292271235
 21
588.5609755664975
 31
0
  0
LINE
  8
0
 62
7
 10
155.8075292271235
 20
588.5609755664975
 30
0
 11
155.8075292271235
 21
587.2575356196451
 31
0
  0
LINE
  8
0
 62
7
 10
155.8075292271235
 20
587.2575356196451
 30
0
 11
150.5671727296756
 21
584.8368634281881
 31
0
  0
LINE
  8
0
 62
7
 10
150.5671727296756
 20
584.8368634281881
 30
0
 11
150.5671727296756
 21
584.7903122009514
 31
0
  0
LINE
  8
0
 62
7
 10
150.5671727296756
 20
584.7903122009514
 30
0
 11
155.8075292271235
 21
584.7903122009514
 31
0
  0
LINE
  8
0
 62
7
 10
148.8075281492545
 20
583.6890390999909
 30
0
 11
148.8075281492545
 21
585.023069267739
 31
0
  0
LINE
  8
0
 62
7
 10
148.8075281492545
 20
585.023069267739
 30
0
 11
154.0505463666752
 21
587.4437423906941
 31
0
  0
LINE
  8
0
 62
7
 10
154.0505463666752
 20
587.4437423906941
 30
0
 11
154.0505463666752
 21
587.4597015340362
 31
0
  0
LINE
  8
0
 62
7
 10
154.0505463666752
 20
587.4597015340362
 30
0
 11
148.8075281492545
 21
587.4597015340362
 31
0
  0
LINE
  8
0
 62
7
 10
148.8075281492545
 20
587.4597015340362
 30
0
 11
148.8075281492545
 21
588.5609755664975
 31
0
  0
LINE
  8
0
 62
7
 10
155.8075292271235
 20
583.6890390999909
 30
0
 11
148.8075281492545
 21
583.6890390999909
 31
0
  0
LINE
  8
0
 62
7
 10
155.8075292271235
 20
584.7903122009514
 30
0
 11
155.8075292271235
 21
583.6890390999909
 31
0
  0
LINE
  8
0
 62
7
 10
177.582010527037
 20
572.1875649081342
 30
0
 11
177.582010527037
 21
576.5875648405283
 31
0
  0
LINE
  8
0
 62
7
 10
181.9820104597318
 20
572.1875649081342
 30
0
 11
177.582010527037
 21
572.1875649081342
 31
0
  0
LINE
  8
0
 62
7
 10
181.9820104597318
 20
569.9875649417866
 30
0
 11
181.9820104597318
 21
572.1875649081342
 31
0
  0
LINE
  8
0
 62
7
 10
177.582010527037
 20
569.9875649417866
 30
0
 11
181.9820104597318
 21
569.9875649417866
 31
0
  0
LINE
  8
0
 62
7
 10
177.582010527037
 20
565.5875650093915
 30
0
 11
177.582010527037
 21
569.9875649417866
 31
0
  0
LINE
  8
0
 62
7
 10
175.3820100953901
 20
565.5875650093915
 30
0
 11
177.582010527037
 21
565.5875650093915
 31
0
  0
LINE
  8
0
 62
7
 10
175.3820100953901
 20
569.9875649417866
 30
0
 11
175.3820100953901
 21
565.5875650093915
 31
0
  0
LINE
  8
0
 62
7
 10
170.9820101626954
 20
569.9875649417866
 30
0
 11
175.3820100953901
 21
569.9875649417866
 31
0
  0
LINE
  8
0
 62
7
 10
170.9820101626954
 20
572.1875649081342
 30
0
 11
170.9820101626954
 21
569.9875649417866
 31
0
  0
LINE
  8
0
 62
7
 10
175.3820100953901
 20
572.1875649081342
 30
0
 11
170.9820101626954
 21
572.1875649081342
 31
0
  0
LINE
  8
0
 62
7
 10
175.3820100953901
 20
576.5875648405283
 30
0
 11
175.3820100953901
 21
572.1875649081342
 31
0
  0
LINE
  8
0
 62
7
 10
177.582010527037
 20
576.5875648405283
 30
0
 11
175.3820100953901
 21
576.5875648405283
 31
0
  0
LINE
  8
0
 62
7
 10
150.5671727296756
 20
570.6242550281625
 30
0
 11
155.8075292271235
 21
570.6242550281625
 31
0
  0
LINE
  8
0
 62
7
 10
155.8075292271235
 20
570.6242550281625
 30
0
 11
155.8075292271235
 21
569.6759366115823
 31
0
  0
LINE
  8
0
 62
7
 10
155.8075292271235
 20
569.6759366115823
 30
0
 11
148.8075281492545
 21
569.6759366115823
 31
0
  0
LINE
  8
0
 62
7
 10
148.8075281492545
 20
569.6759366115823
 30
0
 11
148.8075281492545
 21
571.1589310671518
 31
0
  0
LINE
  8
0
 62
7
 10
148.8075281492545
 20
571.1589310671518
 30
0
 11
153.3682352408525
 21
572.0952791073507
 31
0
  0
LINE
  8
0
 62
7
 10
153.3682352408525
 20
572.0952791073507
 30
0
 11
153.3682352408525
 21
572.1843917757662
 31
0
  0
LINE
  8
0
 62
7
 10
153.3682352408525
 20
572.1843917757662
 30
0
 11
148.8075281492545
 21
573.119409945378
 31
0
  0
LINE
  8
0
 62
7
 10
148.8075281492545
 20
573.119409945378
 30
0
 11
148.8075281492545
 21
574.5452126391158
 31
0
  0
LINE
  8
0
 62
7
 10
148.8075281492545
 20
574.5452126391158
 30
0
 11
155.8075292271235
 21
574.5452126391158
 31
0
  0
LINE
  8
0
 62
7
 10
155.8075292271235
 20
574.5452126391158
 30
0
 11
155.8075292271235
 21
573.5968941352351
 31
0
  0
LINE
  8
0
 62
7
 10
155.8075292271235
 20
573.5968941352351
 30
0
 11
150.5671727296756
 21
573.5968941352351
 31
0
  0
LINE
  8
0
 62
7
 10
150.5671727296756
 20
573.5649732871536
 30
0
 11
155.8075292271235
 21
572.4956211506744
 31
0
  0
LINE
  8
0
 62
7
 10
155.8075292271235
 20
571.7827197457557
 30
0
 11
150.5671727296756
 21
570.713367696578
 31
0
  0
LINE
  8
0
 62
7
 10
150.5671727296756
 20
570.713367696578
 30
0
 11
150.5671727296756
 21
570.6242550281625
 31
0
  0
LINE
  8
0
 62
7
 10
155.8075292271235
 20
572.4956211506744
 30
0
 11
155.8075292271235
 21
571.7827197457557
 31
0
  0
LINE
  8
0
 62
7
 10
150.5671727296756
 20
573.5968941352351
 30
0
 11
150.5671727296756
 21
573.5649732871536
 31
0
  0
LINE
  8
0
 62
7
 10
248.4820127830872
 20
574.2684780549646
 30
0
 11
248.4820127830872
 21
567.8992652430309
 31
0
  0
LINE
  8
0
 62
7
 10
215.482009564276
 20
567.587564851626
 30
0
 11
212.9820101106091
 21
567.587564851626
 31
0
  0
LINE
  8
0
 62
7
 10
215.482009564276
 20
570.0875648875947
 30
0
 11
215.482009564276
 21
567.587564851626
 31
0
  0
LINE
  8
0
 62
7
 10
216.9820088638771
 20
566.0875650864257
 30
0
 11
216.9820088638771
 21
570.0875648875947
 31
0
  0
LINE
  8
0
 62
7
 10
211.4820108110091
 20
566.0875650864257
 30
0
 11
216.9820088638771
 21
566.0875650864257
 31
0
  0
LINE
  8
0
 62
7
 10
211.4820108110091
 20
572.5875649232623
 30
0
 11
211.4820108110091
 21
566.0875650864257
 31
0
  0
LINE
  8
0
 62
7
 10
212.9820101106091
 20
572.5875649232623
 30
0
 11
211.4820108110091
 21
572.5875649232623
 31
0
  0
LINE
  8
0
 62
7
 10
212.9820101106091
 20
567.587564851626
 30
0
 11
212.9820101106091
 21
572.5875649232623
 31
0
  0
LINE
  8
0
 62
7
 10
219.9820111884781
 20
570.0875648875947
 30
0
 11
219.9820111884781
 21
568.2088852925556
 31
0
  0
LINE
  8
0
 62
7
 10
219.542669081643
 20
567.1482250730908
 30
0
 11
220.603329999507
 21
566.0875650864257
 31
0
  0
LINE
  8
0
 62
7
 10
221.4820104880791
 20
568.2088852925556
 30
0
 11
221.4820104880791
 21
570.0875648875947
 31
0
  0
LINE
  8
0
 62
7
 10
150.5671727296756
 20
563.6242550851941
 30
0
 11
155.8075292271235
 21
563.6242550851941
 31
0
  0
LINE
  8
0
 62
7
 10
155.8075292271235
 20
563.6242550851941
 30
0
 11
155.8075292271235
 21
562.6759368144133
 31
0
  0
LINE
  8
0
 62
7
 10
155.8075292271235
 20
562.6759368144133
 30
0
 11
148.8075281492545
 21
562.6759368144133
 31
0
  0
LINE
  8
0
 62
7
 10
148.8075281492545
 20
562.6759368144133
 30
0
 11
148.8075281492545
 21
564.1589310953834
 31
0
  0
LINE
  8
0
 62
7
 10
148.8075281492545
 20
564.1589310953834
 30
0
 11
153.3682352408525
 21
565.0952790773829
 31
0
  0
LINE
  8
0
 62
7
 10
153.3682352408525
 20
565.0952790773829
 30
0
 11
153.3682352408525
 21
565.1843917454964
 31
0
  0
LINE
  8
0
 62
7
 10
153.3682352408525
 20
565.1843917454964
 30
0
 11
148.8075281492545
 21
566.1194097990103
 31
0
  0
LINE
  8
0
 62
7
 10
148.8075281492545
 20
567.5452127252468
 30
0
 11
155.8075292271235
 21
567.5452127252468
 31
0
  0
LINE
  8
0
 62
7
 10
155.8075292271235
 20
566.5968942216671
 30
0
 11
150.5671727296756
 21
566.5968942216671
 31
0
  0
LINE
  8
0
 62
7
 10
150.5671727296756
 20
566.5968942216671
 30
0
 11
150.5671727296756
 21
566.5649731407841
 31
0
  0
LINE
  8
0
 62
7
 10
150.5671727296756
 20
566.5649731407841
 30
0
 11
155.8075292271235
 21
565.4956211204055
 31
0
  0
LINE
  8
0
 62
7
 10
155.8075292271235
 20
565.4956211204055
 30
0
 11
155.8075292271235
 21
564.7827197736863
 31
0
  0
LINE
  8
0
 62
7
 10
155.8075292271235
 20
564.7827197736863
 30
0
 11
150.5671727296756
 21
563.7133677536087
 31
0
  0
LINE
  8
0
 62
7
 10
150.5671727296756
 20
563.7133677536087
 30
0
 11
150.5671727296756
 21
563.6242550851941
 31
0
  0
LINE
  8
0
 62
7
 10
148.8075281492545
 20
566.1194097990103
 30
0
 11
148.8075281492545
 21
567.5452127252468
 31
0
  0
LINE
  8
0
 62
7
 10
155.8075292271235
 20
567.5452127252468
 30
0
 11
155.8075292271235
 21
566.5968942216671
 31
0
  0
LINE
  8
0
 62
7
 10
216.9820088638771
 20
557.0875646319239
 30
0
 11
216.9820088638771
 21
556.0875654093554
 31
0
  0
LINE
  8
0
 62
7
 10
219.9820111884781
 20
556.0875654093554
 30
0
 11
219.9820111884781
 21
557.0875646319239
 31
0
  0
LINE
  8
0
 62
7
 10
214.4820094102091
 20
553.0875658786556
 30
0
 11
218.4820118888781
 21
553.0875658786556
 31
0
  0
LINE
  8
0
 62
7
 10
211.4820108110091
 20
557.0875646319239
 30
0
 11
211.4820108110091
 21
556.0875654093554
 31
0
  0
LINE
  8
0
 62
7
 10
213.9762416526331
 20
558.4997262438967
 30
0
 11
213.7138955366401
 21
559.9875652647163
 31
0
  0
LINE
  8
0
 62
7
 10
212.9820101106091
 20
556.0875654093554
 30
0
 11
212.9820101106091
 21
557.0875646319239
 31
0
  0
LINE
  8
0
 62
7
 10
215.883934855785
 20
554.5875651782546
 30
0
 11
214.4820094102091
 21
554.5875651782546
 31
0
  0
LINE
  8
0
 62
7
 10
215.482009564276
 20
557.0875646319239
 30
0
 11
215.482009564276
 21
556.0875654093554
 31
0
  0
LINE
  8
0
 62
7
 10
221.4820104880791
 20
556.0875654093554
 30
0
 11
221.4820104880791
 21
557.0875646319239
 31
0
  0
LINE
  8
0
 62
7
 10
148.8075281492545
 20
560.1036583479647
 30
0
 11
148.8075281492545
 21
561.0799079138681
 31
0
  0
LINE
  8
0
 62
7
 10
148.8075281492545
 20
561.0799079138681
 30
0
 11
155.8075292271235
 21
561.0799079138681
 31
0
  0
LINE
  8
0
 62
7
 10
155.8075292271235
 20
560.1036583479647
 30
0
 11
148.8075281492545
 21
560.1036583479647
 31
0
  0
LINE
  8
0
 62
7
 10
155.8075292271235
 20
561.0799079138681
 30
0
 11
155.8075292271235
 21
560.1036583479647
 31
0
  0
LINE
  8
0
 62
7
 10
148.8075281492545
 20
553.6129808172366
 30
0
 11
148.8075281492545
 21
554.6677017597597
 31
0
  0
LINE
  8
0
 62
7
 10
151.5726807252879
 20
556.0482831547463
 30
0
 11
155.8075292271235
 21
558.5886591670126
 31
0
  0
LINE
  8
0
 62
7
 10
153.0450346456626
 20
554.6677017597597
 30
0
 11
155.8075292271235
 21
554.6677017597597
 31
0
  0
LINE
  8
0
 62
7
 10
155.8075292271235
 20
554.6677017597597
 30
0
 11
155.8075292271235
 21
553.6129808172366
 31
0
  0
LINE
  8
0
 62
7
 10
148.8075281492545
 20
558.4104338301825
 30
0
 11
151.5726807252879
 21
556.0482831547463
 31
0
  0
LINE
  8
0
 62
7
 10
155.8075292271235
 20
553.6129808172366
 30
0
 11
148.8075281492545
 21
553.6129808172366
 31
0
  0
LINE
  8
0
 62
7
 10
152.2549937135107
 20
555.380603106478
 30
0
 11
153.0450346456626
 21
554.6677017597597
 31
0
  0
LINE
  8
0
 62
7
 10
148.8075281492545
 20
557.2067478432384
 30
0
 11
148.8075281492545
 21
558.4104338301825
 31
0
  0
LINE
  8
0
 62
7
 10
155.8075292271235
 20
558.5886591670126
 30
0
 11
155.8075292271235
 21
557.4301944785195
 31
0
  0
LINE
  8
0
 62
7
 10
155.8075292271235
 20
557.4301944785195
 30
0
 11
152.2549937135107
 21
555.380603106478
 31
0
  0
LINE
  8
0
 62
7
 10
151.7522359906045
 20
554.6677017597597
 30
0
 11
148.8075281492545
 21
557.2067478432384
 31
0
  0
LINE
  8
0
 62
7
 10
148.8075281492545
 20
554.6677017597597
 30
0
 11
151.7522359906045
 21
554.6677017597597
 31
0
  0
LINE
  8
0
 62
7
 10
244.2320079376032
 20
566.1441350160642
 30
0
 11
244.568725748459
 21
566.2070886963386
 31
0
  0
LINE
  8
0
 62
7
 10
244.789214503169
 20
575.9136626264237
 30
0
 11
244.2320079376032
 21
576.0309948341576
 31
0
  0
LINE
  8
0
 62
7
 10
244.2320079376032
 20
566.1441350160642
 30
0
 11
244.2320079376032
 21
566.1938858017695
 31
0
  0
LINE
  8
0
 62
7
 10
244.2320079376032
 20
575.9467608988946
 30
0
 11
244.2320079376032
 21
576.0309948341576
 31
0
  0
LINE
  8
0
 62
7
 10
243.4820101503531
 20
579.0875652256966
 30
0
 11
241.004155684866
 21
579.0875652256966
 31
0
  0
LINE
  8
0
 62
7
 10
241.004155684866
 20
563.0875646245243
 30
0
 11
243.4820101503531
 21
563.0875646245243
 31
0
  0
LINE
  8
0
 62
7
 10
242.9052011076831
 20
565.8693473616943
 30
0
 11
243.4820101503531
 21
565.8375650479086
 31
0
  0
LINE
  8
0
 62
7
 10
131.067714550564
 20
586.216443651186
 30
0
 11
123.334779377775
 21
588.2125771078584
 31
0
  0
LINE
  8
0
 62
7
 10
123.334779377775
 20
553.9625527420633
 30
0
 11
131.067714550564
 21
555.9586861987357
 31
0
  0
LINE
  8
0
 62
7
 10
121.0227711092396
 20
557.0189904202036
 30
0
 11
113.2124020528202
 21
555.287472712703
 31
0
  0
LINE
  8
0
 62
7
 10
121.0227711092396
 20
585.1561394300181
 30
0
 11
113.2124020528202
 21
586.8876571375197
 31
0
  0
LINE
  8
0
 62
7
 10
196.4820103639041
 20
652.0875643588881
 30
0
 11
196.4820103639041
 21
649.2604490301703
 31
0
  0
LINE
  8
0
 62
7
 10
172.4820103937961
 20
649.2604490301703
 30
0
 11
172.4820103937961
 21
652.0875643588881
 31
0
  0
LINE
  8
0
 62
7
 10
120.3339500386821
 20
621.979869048748
 30
0
 11
122.7823076560628
 21
620.5663113840885
 31
0
  0
LINE
  8
0
 62
7
 10
246.1817131016371
 20
620.5663113840885
 30
0
 11
248.6300707190171
 21
621.979869048748
 31
0
  0
LINE
  8
0
 62
7
 10
110.7823058081588
 20
599.781702570742
 30
0
 11
108.3339556415788
 21
601.1952602354024
 31
0
  0
LINE
  8
0
 62
7
 10
260.6300651164211
 20
601.1952602354024
 30
0
 11
258.18171494954
 21
599.781702570742
 31
0
  0
LINE
  8
0
 62
7
 10
258.18171494954
 20
542.3934272791787
 30
0
 11
260.6300651164211
 21
540.9798696148212
 31
0
  0
LINE
  8
0
 62
7
 10
122.7823076560628
 20
521.6088184658331
 30
0
 11
120.3339500386821
 21
520.1952608014747
 31
0
  0
LINE
  8
0
 62
7
 10
108.3339556415788
 20
540.9798696148212
 30
0
 11
110.7823058081588
 21
542.3934272791787
 31
0
  0
LINE
  8
0
 62
7
 10
248.6300707190171
 20
520.1952608014747
 30
0
 11
246.1817131016371
 21
521.6088184658331
 31
0
  0
LINE
  8
0
 62
7
 10
196.4820103639041
 20
492.9146808200524
 30
0
 11
196.4820103639041
 21
490.0875654913336
 31
0
  0
LINE
  8
0
 62
7
 10
172.4820103937961
 20
490.0875654913336
 30
0
 11
172.4820103937961
 21
492.9146808200524
 31
0
  0
LINE
  8
0
 62
7
 10
105.017635195419
 20
565.492799678934
 30
0
 11
106.943342039692
 21
565.492799678934
 31
0
  0
LINE
  8
0
 62
7
 10
106.943342039692
 20
565.492799678934
 30
0
 11
106.943342039692
 21
567.8944717257784
 31
0
  0
LINE
  8
0
 62
7
 10
107.4288069653687
 20
567.8944717257784
 30
0
 11
107.4288069653696
 21
564.7736282029766
 31
0
  0
LINE
  8
0
 62
7
 10
107.4288069653696
 20
564.7736282029766
 30
0
 11
102.4288117834342
 21
564.7736282029784
 31
0
  0
LINE
  8
0
 62
7
 10
102.4288117834342
 20
564.7736282029784
 30
0
 11
102.4288117834342
 21
567.7424670774874
 31
0
  0
LINE
  8
0
 62
7
 10
102.9142767091123
 20
565.492799678934
 30
0
 11
104.5321702697413
 21
565.492799678934
 31
0
  0
LINE
  8
0
 62
7
 10
106.943342039692
 20
567.8944717257784
 30
0
 11
107.4288069653687
 21
567.8944717257784
 31
0
  0
LINE
  8
0
 62
7
 10
105.017635195419
 20
567.5600617323992
 30
0
 11
105.017635195419
 21
565.492799678934
 31
0
  0
LINE
  8
0
 62
7
 10
102.4288117834342
 20
567.7424670774874
 30
0
 11
102.9142767091123
 21
567.7424670774874
 31
0
  0
LINE
  8
0
 62
7
 10
104.5321702697413
 20
565.492799678934
 30
0
 11
104.5321702697413
 21
567.5600617323992
 31
0
  0
LINE
  8
0
 62
7
 10
104.5321702697413
 20
567.5600617323992
 30
0
 11
105.017635195419
 21
567.5600617323992
 31
0
  0
LINE
  8
0
 62
7
 10
102.9142767091123
 20
567.7424670774874
 30
0
 11
102.9142767091123
 21
565.492799678934
 31
0
  0
LINE
  8
0
 62
7
 10
105.5068999171592
 20
571.9256325320368
 30
0
 11
105.5068999171592
 21
572.6552544949893
 31
0
  0
LINE
  8
0
 62
7
 10
104.1730597391081
 20
572.6248535653915
 30
0
 11
104.1730597391081
 21
571.956033461933
 31
0
  0
LINE
  8
0
 62
7
 10
267.48200639536
 20
571.0875649249613
 30
0
 11
266.62743226015
 21
611.839155845176
 31
0
  0
LINE
  8
0
 62
7
 10
267.48200639536
 20
571.0875649249613
 30
0
 11
266.62743226015
 21
530.3359740050466
 31
0
  0
LINE
  8
0
 62
7
 10
102.3365884978505
 20
530.3359740050466
 30
0
 11
101.482014362339
 21
571.0875649249613
 31
0
  0
LINE
  8
0
 62
7
 10
102.3365884978505
 20
611.839155845176
 30
0
 11
101.482014362339
 21
571.0875649249613
 31
0
  0
LINE
  8
0
 62
7
 10
309.4820091371751
 20
478.0875636434296
 30
0
 11
309.4820091371751
 21
664.0875662067931
 31
0
  0
LINE
  8
0
 62
7
 10
293.4820066736031
 20
478.0875636434296
 30
0
 11
293.4820066736031
 21
664.0875662067931
 31
0
  0
LINE
  8
0
 62
7
 10
59.48201162052442
 20
478.0875636434296
 30
0
 11
59.48201162052442
 21
664.0875662067931
 31
0
  0
LINE
  8
0
 62
7
 10
43.48200915695293
 20
478.0875636434296
 30
0
 11
43.48200915695293
 21
664.0875662067931
 31
0
  0
LINE
  8
0
 62
7
 10
88.98424668047869
 20
565.2348363666963
 30
0
 11
88.60595090493666
 21
565.2355991199886
 31
0
  0
LINE
  8
0
 62
7
 10
88.60595090493666
 20
576.9395307302332
 30
0
 11
88.98424668047869
 21
576.9402934832262
 31
0
  0
LINE
  8
0
 62
7
 10
64.88776541772927
 20
568.0875649286602
 30
0
 11
62.48201021972614
 21
568.0875649286602
 31
0
  0
LINE
  8
0
 62
7
 10
62.48201021972614
 20
574.0875649212624
 30
0
 11
64.88776541772927
 21
574.0875649212624
 31
0
  0
LINE
  8
0
 62
7
 10
174.8354383020198
 20
661.5067074653291
 30
0
 11
177.3786841847571
 21
661.7316851946928
 31
0
  0
LINE
  8
0
 62
7
 10
197.472390887267
 20
661.0459412139046
 30
0
 11
191.4678208948096
 21
661.6527909974768
 31
0
  0
LINE
  8
0
 62
7
 10
88.62579925153909
 20
576.9240516834873
 30
0
 11
88.60582424523796
 21
576.938355401044
 31
0
  0
LINE
  8
0
 62
7
 10
210.3885282233711
 20
483.9815241799845
 30
0
 11
207.9110425613801
 21
483.2777646956758
 31
0
  0
LINE
  8
0
 62
7
 10
191.7831695093767
 20
480.4445920448172
 30
0
 11
191.5290618727011
 21
480.426412628198
 31
0
  0
LINE
  8
0
 62
7
 10
194.887292765444
 20
480.663378341844
 30
0
 11
194.887292765444
 21
480.9695152450033
 31
0
  0
LINE
  8
0
 62
7
 10
288.6735733673652
 20
574.0875649212624
 30
0
 11
290.4820080744021
 21
574.0875649212624
 31
0
  0
LINE
  8
0
 62
7
 10
290.4820080744021
 20
568.0875649286602
 30
0
 11
288.6735733673652
 21
568.0875649286602
 31
0
  0
LINE
  8
0
 62
7
 10
64.88776541772927
 20
568.0875649286602
 30
0
 11
81.65027519322734
 21
568.0875649286602
 31
0
  0
LINE
  8
0
 62
7
 10
64.88776541772927
 20
574.0875649212624
 30
0
 11
81.65027519322734
 21
574.0875649212624
 31
0
  0
LINE
  8
0
 62
7
 10
288.6735733673652
 20
568.0875649286602
 30
0
 11
272.4735898719791
 21
568.0875649286602
 31
0
  0
LINE
  8
0
 62
7
 10
288.6735733673652
 20
574.0875649212624
 30
0
 11
272.4735898719791
 21
574.0875649212624
 31
0
  0
LINE
  8
0
 62
7
 10
81.65027519322734
 20
574.0875649212624
 30
0
 11
85.63004003239598
 21
574.0875649212624
 31
0
  0
LINE
  8
0
 62
7
 10
85.63004003239598
 20
568.0875649286602
 30
0
 11
81.65027519322734
 21
568.0875649286602
 31
0
  0
LINE
  8
0
 62
7
 10
159.4820102548249
 20
658.4824721273674
 30
0
 11
159.4820102548249
 21
657.5436244757932
 31
0
  0
LINE
  8
0
 62
7
 10
209.4820105031751
 20
652.9243614092768
 30
0
 11
209.4820105031751
 21
654.634232386293
 31
0
  0
LINE
  8
0
 62
7
 10
209.4820105031751
 20
489.2507684409459
 30
0
 11
209.4820105031751
 21
487.5408974639297
 31
0
  0
LINE
  8
0
 62
7
 10
159.4820102548249
 20
484.6315053741284
 30
0
 11
159.4820102548249
 21
483.6926577225543
 31
0
  0
LINE
  8
0
 62
7
 10
271.2217433324131
 20
574.0875649212624
 30
0
 11
272.4735898719791
 21
574.0875649212624
 31
0
  0
LINE
  8
0
 62
7
 10
272.4735898719791
 20
568.0875649286602
 30
0
 11
271.2217433324131
 21
568.0875649286602
 31
0
  0
LINE
  8
0
 62
7
 10
41.48200512371909
 20
627.0875660974127
 30
0
 11
41.48200512371909
 21
515.0875637528091
 31
0
  0
LINE
  8
0
 62
7
 10
311.4820131704091
 20
627.0875660974136
 30
0
 11
311.4820131704091
 21
515.0875637528091
 31
0
  0
LINE
  8
0
 62
7
 10
159.4820102548249
 20
655.9525306534963
 30
0
 11
159.4820102548249
 21
657.5436244757932
 31
0
  0
LINE
  8
0
 62
7
 10
159.4820102548249
 20
486.2225991967246
 30
0
 11
159.4820102548249
 21
484.6315053741284
 31
0
  0
LINE
  8
0
 62
7
 10
180.1518833874109
 20
663.2790813624226
 30
0
 11
180.1518833874109
 21
663.478406743043
 31
0
  0
LINE
  8
0
 62
7
 10
180.1518833874109
 20
663.478406743043
 30
0
 11
180.7444396981252
 21
663.4192491337301
 31
0
  0
LINE
  8
0
 62
7
 10
190.8328633306167
 20
663.3136222535798
 30
0
 11
194.0082900390751
 21
663.0860368210399
 31
0
  0
LINE
  8
0
 62
7
 10
175.9103484553427
 20
663.1179774598224
 30
0
 11
174.955730718624
 21
663.1051997141506
 31
0
  0
LINE
  8
0
 62
7
 10
174.955730718624
 20
663.1051997141506
 30
0
 11
180.925372622228
 21
663.5072628415558
 31
0
  0
LINE
  8
0
 62
7
 10
194.0082900390751
 20
663.0860368210399
 30
0
 11
187.6574368546583
 21
663.5266194497638
 31
0
  0
LINE
  8
0
 62
7
 10
194.232254489651
 20
663.0057270135387
 30
0
 11
197.472390887267
 21
662.564809108718
 31
0
  0
LINE
  8
0
 62
7
 10
197.472390887267
 20
662.564809108718
 30
0
 11
188.8121373702886
 21
663.4244049354795
 31
0
  0
LINE
  8
0
 62
7
 10
188.8121373702886
 20
663.4244049354795
 30
0
 11
188.1677336338896
 21
663.3681083490385
 31
0
  0
LINE
  8
0
 62
7
 10
171.4916298704327
 20
662.7246464128295
 30
0
 11
180.1518833874109
 21
663.478406743043
 31
0
  0
LINE
  8
0
 62
7
 10
188.8121373702886
 20
663.2790813624226
 30
0
 11
188.8121373702886
 21
663.4244049354795
 31
0
  0
LINE
  8
0
 62
7
 10
155.1657455340981
 20
483.0700797635384
 30
0
 11
157.4842432582684
 21
482.3771981267212
 31
0
  0
LINE
  8
0
 62
7
 10
153.0908855184077
 20
485.3870836461231
 30
0
 11
153.0908855184077
 21
483.8027698522612
 31
0
  0
LINE
  8
0
 62
7
 10
156.2031774044929
 20
484.352823860497
 30
0
 11
156.2031774044929
 21
482.7861530409584
 31
0
  0
LINE
  8
0
 62
7
 10
149.2005164696514
 20
486.7779431172087
 30
0
 11
149.2005164696514
 21
485.1674107300053
 31
0
  0
LINE
  8
0
 62
7
 10
167.3296266256741
 20
480.1732791551124
 30
0
 11
176.0181117893715
 21
479.1358603230176
 31
0
  0
LINE
  8
0
 62
7
 10
166.8911059452305
 20
480.2236376289122
 30
0
 11
167.3296266256741
 21
480.1732791551124
 31
0
  0
LINE
  8
0
 62
7
 10
163.9209245692334
 20
481.2469301601479
 30
0
 11
163.3095802229052
 21
481.3870383268561
 31
0
  0
LINE
  8
0
 62
7
 10
176.0181117893715
 20
479.1358603230176
 30
0
 11
176.0181117893715
 21
479.276296315322
 31
0
  0
LINE
  8
0
 62
7
 10
163.9209245692334
 20
482.300993589078
 30
0
 11
163.9209245692334
 21
480.9553665926435
 31
0
  0
LINE
  8
0
 62
7
 10
164.6989980065048
 20
482.2807354604795
 30
0
 11
164.6989980065048
 21
480.749432546889
 31
0
  0
LINE
  8
0
 62
7
 10
176.0181117893715
 20
480.7851431794345
 30
0
 11
176.0181117893715
 21
479.276296315322
 31
0
  0
LINE
  8
0
 62
7
 10
158.1483600664712
 20
483.7377709877057
 30
0
 11
158.1483600664712
 21
482.178729562592
 31
0
  0
LINE
  8
0
 62
7
 10
145.4398285000059
 20
488.3918580676775
 30
0
 11
145.4398285000059
 21
487.2131538772858
 31
0
  0
LINE
  8
0
 62
7
 10
174.4619649148292
 20
479.3216703506716
 30
0
 11
174.4619649148292
 21
479.1032491320414
 31
0
  0
LINE
  8
0
 62
7
 10
171.4916298704327
 20
661.210904517465
 30
0
 11
171.4916298704327
 21
662.7246464128295
 31
0
  0
LINE
  8
0
 62
7
 10
197.472390887267
 20
661.0459412139046
 30
0
 11
197.472390887267
 21
662.564809108718
 31
0
  0
LINE
  8
0
 62
7
 10
213.4926505479371
 20
483.183544654212
 30
0
 11
213.4926505479371
 21
483.1938339059091
 31
0
  0
LINE
  8
0
 62
7
 10
207.9110425613801
 20
481.7211223576371
 30
0
 11
207.9110425613801
 21
481.4689127561426
 31
0
  0
LINE
  8
0
 62
7
 10
210.3885282233711
 20
482.4123425149712
 30
0
 11
207.9110425613801
 21
481.7211223576371
 31
0
  0
LINE
  8
0
 62
7
 10
210.3885282233711
 20
482.3058215652302
 30
0
 11
210.3885282233711
 21
482.4123425149712
 31
0
  0
LINE
  8
0
 62
7
 10
219.1905397450391
 20
485.256683585819
 30
0
 11
219.1905397450391
 21
485.244226215242
 31
0
  0
LINE
  8
0
 62
7
 10
213.411897431038
 20
484.942671419338
 30
0
 11
213.411897431038
 21
483.3561224508969
 31
0
  0
LINE
  8
0
 62
7
 10
215.8538494118831
 20
485.6827375824871
 30
0
 11
215.8538494118831
 21
484.0829787348778
 31
0
  0
LINE
  8
0
 62
7
 10
218.8772204822531
 20
486.9816643404849
 30
0
 11
218.8772204822531
 21
485.3566405743261
 31
0
  0
LINE
  8
0
 62
7
 10
197.2484934917901
 20
481.0042200489581
 30
0
 11
197.2484934917901
 21
479.4882727816168
 31
0
  0
LINE
  8
0
 62
7
 10
200.2718636309591
 20
481.5662024365759
 30
0
 11
200.2718636309591
 21
480.0397945542384
 31
0
  0
LINE
  8
0
 62
7
 10
197.3647765647361
 20
479.4878704504201
 30
0
 11
197.3647765647361
 21
479.4426156242701
 31
0
  0
LINE
  8
0
 62
7
 10
191.7831695093767
 20
478.9379654536826
 30
0
 11
189.3056852444868
 21
478.7639496949116
 31
0
  0
LINE
  8
0
 62
7
 10
191.7831695093767
 20
478.8884935989738
 30
0
 11
191.7831695093767
 21
478.9379654536826
 31
0
  0
LINE
  8
0
 62
7
 10
200.5851828937471
 20
479.9612430839181
 30
0
 11
200.5851828937471
 21
480.0219951176143
 31
0
  0
LINE
  8
0
 62
7
 10
194.8065396485461
 20
480.7521520087623
 30
0
 11
194.8065396485461
 21
479.2400715928818
 31
0
  0
LINE
  8
0
 62
7
 10
202.364966393269
 20
481.9342536640199
 30
0
 11
202.364966393269
 21
480.4016170962443
 31
0
  0
LINE
  8
0
 62
7
 10
220.9703232442612
 20
487.8232595644251
 30
0
 11
220.9703232442612
 21
486.1816955096313
 31
0
  0
LINE
  8
0
 62
7
 10
207.9110425613801
 20
483.2777646956758
 30
0
 11
207.9110425613801
 21
481.7211223576371
 31
0
  0
LINE
  8
0
 62
7
 10
210.3885282233711
 20
483.9815241799845
 30
0
 11
210.3885282233711
 21
482.4123425149712
 31
0
  0
LINE
  8
0
 62
7
 10
189.3056852444868
 20
479.0997473592763
 30
0
 11
189.3056852444868
 21
478.7639496949116
 31
0
  0
LINE
  8
0
 62
7
 10
191.7831695093767
 20
480.4445920448172
 30
0
 11
191.7831695093767
 21
478.9379654536826
 31
0
  0
LINE
  8
0
 62
7
 10
176.5368267932188
 20
480.5586902348844
 30
0
 11
176.5368267932188
 21
479.0496347546734
 31
0
  0
LINE
  8
0
 62
7
 10
158.4077184995961
 20
483.6740089196394
 30
0
 11
158.4077184995961
 21
482.6228065135813
 31
0
  0
LINE
  8
0
 62
7
 10
203.0626666930381
 20
481.9900883143666
 30
0
 11
203.0626666930381
 21
480.4573176363904
 31
0
  0
LINE
  8
0
 62
7
 10
221.668025406731
 20
487.9972157185969
 30
0
 11
221.6680254067321
 21
486.3523510563357
 31
0
  0
LINE
  8
0
 62
7
 10
163.3095802229052
 20
482.4263719581325
 30
0
 11
163.3095802229052
 21
481.3870383268561
 31
0
  0
LINE
  8
0
 62
7
 10
237.210390863049
 20
576.4464671436301
 30
0
 11
238.3750469838801
 21
576.1246029965289
 31
0
  0
LINE
  8
0
 62
7
 10
247.4820107663211
 20
567.8992652430309
 30
0
 11
247.4820107663211
 21
574.2684780549646
 31
0
  0
LINE
  8
0
 62
7
 10
88.86775685383623
 20
571.0875649249613
 30
0
 11
88.98424668047869
 21
565.2348363666963
 31
0
  0
LINE
  8
0
 62
2
  6
DASHDOT
 10
184.482010379
 20
681.0875649249613
 30
0
 11
184.482010379
 21
461.0875649249613
 31
0
  0
LINE
  8
0
 62
2
  6
DASHDOT
 10
336.4820131704091
 20
571.0875649249613
 30
0
 11
16.48200512371909
 21
571.0875649249613
 31
0
  0
LINE
  8
0
 62
7
 10
447.4820137466711
 20
332.0875621735587
 30
0
 11
447.4820137466711
 21
330.7875625321705
 31
0
  0
LINE
  8
0
 62
7
 10
459.482008143774
 20
330.7875625321705
 30
0
 11
459.482008143774
 21
332.0875621735587
 31
0
  0
LINE
  8
0
 62
7
 10
568.9820091723111
 20
332.0875621735587
 30
0
 11
568.9820091723111
 21
330.7875625321705
 31
0
  0
LINE
  8
0
 62
7
 10
580.982011019915
 20
330.7875625321705
 30
0
 11
580.982011019915
 21
332.0875621735587
 31
0
  0
LINE
  8
0
 62
7
 10
609.4820126145251
 20
332.0875621735587
 30
0
 11
609.4820126145251
 21
330.7875625321705
 31
0
  0
LINE
  8
0
 62
7
 10
621.4820070116291
 20
330.7875625321705
 30
0
 11
621.4820070116291
 21
332.0875621735587
 31
0
  0
LINE
  8
0
 62
7
 10
487.982009738384
 20
332.0875621735587
 30
0
 11
487.982009738384
 21
330.7875625321705
 31
0
  0
LINE
  8
0
 62
7
 10
499.9820115859891
 20
330.7875625321705
 30
0
 11
499.9820115859891
 21
332.0875621735587
 31
0
  0
LINE
  8
0
 62
7
 10
588.9820085264521
 20
379.9375670268647
 30
0
 11
588.9820085264521
 21
385.4375706675329
 31
0
  0
LINE
  8
0
 62
7
 10
479.982012231847
 20
385.4375706675329
 30
0
 11
479.982012231847
 21
379.9375670268647
 31
0
  0
LINE
  8
0
 62
7
 10
586.9820082186182
 20
356.7875628101139
 30
0
 11
586.9820082186182
 21
375.7875638731858
 31
0
  0
LINE
  8
0
 62
7
 10
562.982010110909
 20
375.7875638731858
 30
0
 11
562.982010110909
 21
373.7875598399525
 31
0
  0
LINE
  8
0
 62
7
 10
505.9820106473901
 20
373.7875598399525
 30
0
 11
505.9820106473901
 21
375.7875638731858
 31
0
  0
LINE
  8
0
 62
7
 10
481.9820125396821
 20
375.7875638731858
 30
0
 11
481.9820125396821
 21
356.7875628101139
 31
0
  0
LINE
  8
0
 62
7
 10
599.4820073493552
 20
373.7875598399525
 30
0
 11
599.4820073493552
 21
375.4375654026627
 31
0
  0
LINE
  8
0
 62
7
 10
469.4820134089441
 20
375.4375654026627
 30
0
 11
469.4820134089441
 21
373.7875598399525
 31
0
  0
LINE
  8
0
 62
7
 10
589.482009534684
 20
376.9375609768632
 30
0
 11
589.482009534684
 21
377.9375629936304
 31
0
  0
LINE
  8
0
 62
7
 10
479.4820112236141
 20
377.9375629936304
 30
0
 11
479.4820112236141
 21
376.9375609768632
 31
0
  0
LINE
  8
0
 62
7
 10
627.4820116608312
 20
356.7875628101139
 30
0
 11
627.4820116608312
 21
375.7875638731858
 31
0
  0
LINE
  8
0
 62
7
 10
603.482007965323
 20
375.7875638731858
 30
0
 11
603.482007965323
 21
373.7875598399525
 31
0
  0
LINE
  8
0
 62
7
 10
465.4820127929761
 20
373.7875598399525
 30
0
 11
465.4820127929761
 21
375.7875638731858
 31
0
  0
LINE
  8
0
 62
7
 10
441.4820090974681
 20
375.7875638731858
 30
0
 11
441.4820090974681
 21
356.7875628101139
 31
0
  0
LINE
  8
0
 62
7
 10
586.9820082186182
 20
344.0875640211626
 30
0
 11
586.9820082186182
 21
356.7875628101139
 31
0
  0
LINE
  8
0
 62
7
 10
481.9820125396821
 20
356.7875628101139
 30
0
 11
481.9820125396821
 21
344.0875640211626
 31
0
  0
LINE
  8
0
 62
7
 10
470.4820079749111
 20
337.0875648059929
 30
0
 11
470.4820079749111
 21
333.2343406264673
 31
0
  0
LINE
  8
0
 62
7
 10
598.482012783388
 20
333.2343406264673
 30
0
 11
598.482012783388
 21
337.0875648059929
 31
0
  0
LINE
  8
0
 62
7
 10
598.3660519479402
 20
332.2753764072924
 30
0
 11
597.9449451369221
 21
332.6509154678626
 31
0
  0
LINE
  8
0
 62
7
 10
471.0190756213772
 20
332.6509154678626
 30
0
 11
470.5979688103591
 21
332.2753764072924
 31
0
  0
LINE
  8
0
 62
7
 10
626.7595959228061
 20
277.1871288504846
 30
0
 11
626.553922647249
 21
279.8227232817045
 31
0
  0
LINE
  8
0
 62
7
 10
626.8152890121542
 20
276.4734153905739
 30
0
 11
626.795254400952
 21
276.7301623954237
 31
0
  0
LINE
  8
0
 62
7
 10
627.4820116608312
 20
344.0875640211626
 30
0
 11
627.4820116608312
 21
356.7875628101139
 31
0
  0
LINE
  8
0
 62
7
 10
441.4820090974681
 20
356.7875628101139
 30
0
 11
441.4820090974681
 21
344.0875640211626
 31
0
  0
LINE
  8
0
 62
7
 10
626.9609851141061
 20
270.9220344092156
 30
0
 11
626.9778085250391
 21
271.6762864778231
 31
0
  0
LINE
  8
0
 62
7
 10
598.560132119911
 20
331.2545500182324
 30
0
 11
598.482012783388
 21
333.2341618123693
 31
0
  0
LINE
  8
0
 62
7
 10
598.5540896993721
 20
331.6115669355869
 30
0
 11
598.482012783388
 21
333.2339382949714
 31
0
  0
LINE
  8
0
 62
7
 10
470.4820079749111
 20
333.2339382949714
 30
0
 11
470.409931058927
 21
331.6115669355869
 31
0
  0
LINE
  8
0
 62
7
 10
462.9820077515092
 20
332.9360715364302
 30
0
 11
462.9820077515092
 21
342.0875674384289
 31
0
  0
LINE
  8
0
 62
7
 10
453.4820109453731
 20
332.9360715364302
 30
0
 11
453.4820109453731
 21
342.0875674384289
 31
0
  0
LINE
  8
0
 62
7
 10
458.2320093482911
 20
332.0875621735587
 30
0
 11
448.732012542155
 21
332.0875621735587
 31
0
  0
LINE
  8
0
 62
7
 10
443.982014139237
 20
332.9360715364302
 30
0
 11
443.982014139237
 21
342.0875674384289
 31
0
  0
LINE
  8
0
 62
7
 10
446.0278466931152
 20
342.087567438428
 30
0
 11
443.982014139237
 21
342.0875674384289
 31
0
  0
LINE
  8
0
 62
7
 10
462.9820077515092
 20
332.9360715364302
 30
0
 11
462.9820077515092
 21
332.0875621735587
 31
0
  0
LINE
  8
0
 62
7
 10
462.9820077515092
 20
332.0875621735587
 30
0
 11
458.2320093482911
 21
332.0875621735587
 31
0
  0
LINE
  8
0
 62
7
 10
443.982014139237
 20
332.0875621735587
 30
0
 11
443.982014139237
 21
332.9360715364302
 31
0
  0
LINE
  8
0
 62
7
 10
448.732012542155
 20
332.0875621735587
 30
0
 11
443.982014139237
 21
332.0875621735587
 31
0
  0
LINE
  8
0
 62
7
 10
493.982010662186
 20
342.0875674384289
 30
0
 11
491.936174382907
 21
342.0875674384289
 31
0
  0
LINE
  8
0
 62
7
 10
486.527846409929
 20
342.0875674384289
 30
0
 11
484.48201013065
 21
342.0875674384289
 31
0
  0
LINE
  8
0
 62
7
 10
493.982010662186
 20
332.9360715364302
 30
0
 11
493.982010662186
 21
342.0875674384289
 31
0
  0
LINE
  8
0
 62
7
 10
484.48201013065
 20
332.9360715364302
 30
0
 11
484.48201013065
 21
342.0875674384289
 31
0
  0
LINE
  8
0
 62
7
 10
498.732009065405
 20
332.0875621735587
 30
0
 11
489.232012259268
 21
332.0875621735587
 31
0
  0
LINE
  8
0
 62
7
 10
503.4820111937231
 20
332.9360715364302
 30
0
 11
503.4820111937231
 21
342.0875674384289
 31
0
  0
LINE
  8
0
 62
7
 10
495.598965449625
 20
342.0875674384289
 30
0
 11
493.982010662186
 21
342.0875674384289
 31
0
  0
LINE
  8
0
 62
7
 10
484.48201013065
 20
332.0875621735587
 30
0
 11
484.48201013065
 21
332.9360715364302
 31
0
  0
LINE
  8
0
 62
7
 10
489.232012259268
 20
332.0875621735587
 30
0
 11
484.48201013065
 21
332.0875621735587
 31
0
  0
LINE
  8
0
 62
7
 10
503.4820111937231
 20
332.9360715364302
 30
0
 11
503.4820111937231
 21
332.0875621735587
 31
0
  0
LINE
  8
0
 62
7
 10
503.4820111937231
 20
332.0875621735587
 30
0
 11
498.732009065405
 21
332.0875621735587
 31
0
  0
LINE
  8
0
 62
7
 10
624.982006619063
 20
332.9360715364302
 30
0
 11
624.982006619063
 21
342.0875674384289
 31
0
  0
LINE
  8
0
 62
7
 10
615.482009812926
 20
332.9360715364302
 30
0
 11
615.482009812926
 21
342.0875674384289
 31
0
  0
LINE
  8
0
 62
7
 10
624.982006619063
 20
342.0875674384289
 30
0
 11
622.936174065185
 21
342.0875674384289
 31
0
  0
LINE
  8
0
 62
7
 10
610.732011410008
 20
332.0875621735587
 30
0
 11
620.232008216145
 21
332.0875621735587
 31
0
  0
LINE
  8
0
 62
7
 10
605.982013006791
 20
332.9360715364302
 30
0
 11
605.982013006791
 21
342.0875674384289
 31
0
  0
LINE
  8
0
 62
7
 10
624.982006619063
 20
332.9360715364302
 30
0
 11
624.982006619063
 21
332.0875621735587
 31
0
  0
LINE
  8
0
 62
7
 10
624.982006619063
 20
332.0875621735587
 30
0
 11
620.232008216145
 21
332.0875621735587
 31
0
  0
LINE
  8
0
 62
7
 10
605.982013006791
 20
332.0875621735587
 30
0
 11
605.982013006791
 21
332.9360715364302
 31
0
  0
LINE
  8
0
 62
7
 10
610.732011410008
 20
332.0875621735587
 30
0
 11
605.982013006791
 21
332.0875621735587
 31
0
  0
LINE
  8
0
 62
7
 10
584.4820106276491
 20
342.0875674384289
 30
0
 11
582.436174348072
 21
342.0875674384289
 31
0
  0
LINE
  8
0
 62
7
 10
577.0278463753921
 20
342.0875674384289
 30
0
 11
574.982010096114
 21
342.0875674384289
 31
0
  0
LINE
  8
0
 62
7
 10
584.4820106276491
 20
332.9360715364302
 30
0
 11
584.4820106276491
 21
342.0875674384289
 31
0
  0
LINE
  8
0
 62
7
 10
574.982010096114
 20
332.9360715364302
 30
0
 11
574.982010096114
 21
342.0875674384289
 31
0
  0
LINE
  8
0
 62
7
 10
579.732008499032
 20
332.0875621735587
 30
0
 11
570.2320116928941
 21
332.0875621735587
 31
0
  0
LINE
  8
0
 62
7
 10
565.4820095645771
 20
332.9360715364302
 30
0
 11
565.4820095645771
 21
342.0875674384289
 31
0
  0
LINE
  8
0
 62
7
 10
574.982010096114
 20
342.0875674384289
 30
0
 11
573.365055308675
 21
342.0875674384289
 31
0
  0
LINE
  8
0
 62
7
 10
584.4820106276491
 20
332.9360715364302
 30
0
 11
584.4820106276491
 21
332.0875621735587
 31
0
  0
LINE
  8
0
 62
7
 10
584.4820106276491
 20
332.0875621735587
 30
0
 11
579.732008499032
 21
332.0875621735587
 31
0
  0
LINE
  8
0
 62
7
 10
565.4820095645771
 20
332.0875621735587
 30
0
 11
565.4820095645771
 21
332.9360715364302
 31
0
  0
LINE
  8
0
 62
7
 10
565.4820095645771
 20
332.0875621735587
 30
0
 11
570.2320116928941
 21
332.0875621735587
 31
0
  0
LINE
  8
0
 62
7
 10
443.982014139237
 20
382.93906319275
 30
0
 11
443.982014139237
 21
375.7875638731858
 31
0
  0
LINE
  8
0
 62
7
 10
453.4820109453731
 20
382.93906319275
 30
0
 11
453.4820109453731
 21
375.7875638731858
 31
0
  0
LINE
  8
0
 62
7
 10
458.2320093482911
 20
383.7875651051228
 30
0
 11
448.732012542155
 21
383.7875651051228
 31
0
  0
LINE
  8
0
 62
7
 10
462.9820077515092
 20
382.93906319275
 30
0
 11
462.9820077515092
 21
375.7875638731858
 31
0
  0
LINE
  8
0
 62
7
 10
443.982014139237
 20
382.93906319275
 30
0
 11
443.982014139237
 21
383.7875651051228
 31
0
  0
LINE
  8
0
 62
7
 10
448.732012542155
 20
383.7875651051228
 30
0
 11
443.982014139237
 21
383.7875651051228
 31
0
  0
LINE
  8
0
 62
7
 10
462.9820077515092
 20
383.7875651051228
 30
0
 11
462.9820077515092
 21
382.93906319275
 31
0
  0
LINE
  8
0
 62
7
 10
462.9820077515092
 20
383.7875651051228
 30
0
 11
458.2320093482911
 21
383.7875651051228
 31
0
  0
LINE
  8
0
 62
7
 10
459.482008143774
 20
330.7875625321705
 30
0
 11
447.4820137466711
 21
330.7875625321705
 31
0
  0
LINE
  8
0
 62
7
 10
574.982010096114
 20
382.93906319275
 30
0
 11
574.982010096114
 21
375.7875638731858
 31
0
  0
LINE
  8
0
 62
7
 10
584.4820106276491
 20
382.93906319275
 30
0
 11
584.4820106276491
 21
375.7875638731858
 31
0
  0
LINE
  8
0
 62
7
 10
579.732008499032
 20
383.7875651051228
 30
0
 11
570.2320116928941
 21
383.7875651051228
 31
0
  0
LINE
  8
0
 62
7
 10
565.4820095645771
 20
382.93906319275
 30
0
 11
565.4820095645771
 21
375.7875638731858
 31
0
  0
LINE
  8
0
 62
7
 10
584.4820106276491
 20
383.7875651051228
 30
0
 11
584.4820106276491
 21
382.93906319275
 31
0
  0
LINE
  8
0
 62
7
 10
584.4820106276491
 20
383.7875651051228
 30
0
 11
579.732008499032
 21
383.7875651051228
 31
0
  0
LINE
  8
0
 62
7
 10
565.4820095645771
 20
382.93906319275
 30
0
 11
565.4820095645771
 21
383.7875651051228
 31
0
  0
LINE
  8
0
 62
7
 10
570.2320116928941
 20
383.7875651051228
 30
0
 11
565.4820095645771
 21
383.7875651051228
 31
0
  0
LINE
  8
0
 62
7
 10
571.9820114969132
 20
330.7875625321705
 30
0
 11
568.9820091723111
 21
330.7875625321705
 31
0
  0
LINE
  8
0
 62
7
 10
580.982011019915
 20
330.7875625321705
 30
0
 11
571.9820114969132
 21
330.7875625321705
 31
0
  0
LINE
  8
0
 62
7
 10
605.982013006791
 20
382.93906319275
 30
0
 11
605.982013006791
 21
375.7875638731858
 31
0
  0
LINE
  8
0
 62
7
 10
615.482009812926
 20
382.93906319275
 30
0
 11
615.482009812926
 21
375.7875638731858
 31
0
  0
LINE
  8
0
 62
7
 10
620.232008216145
 20
383.7875651051228
 30
0
 11
610.732011410008
 21
383.7875651051228
 31
0
  0
LINE
  8
0
 62
7
 10
624.982006619063
 20
382.93906319275
 30
0
 11
624.982006619063
 21
375.7875638731858
 31
0
  0
LINE
  8
0
 62
7
 10
605.982013006791
 20
382.93906319275
 30
0
 11
605.982013006791
 21
383.7875651051228
 31
0
  0
LINE
  8
0
 62
7
 10
610.732011410008
 20
383.7875651051228
 30
0
 11
605.982013006791
 21
383.7875651051228
 31
0
  0
LINE
  8
0
 62
7
 10
624.982006619063
 20
383.7875651051228
 30
0
 11
624.982006619063
 21
382.93906319275
 31
0
  0
LINE
  8
0
 62
7
 10
624.982006619063
 20
383.7875651051228
 30
0
 11
620.232008216145
 21
383.7875651051228
 31
0
  0
LINE
  8
0
 62
7
 10
618.4820084124281
 20
330.7875625321705
 30
0
 11
609.4820126145251
 21
330.7875625321705
 31
0
  0
LINE
  8
0
 62
7
 10
621.4820070116291
 20
330.7875625321705
 30
0
 11
618.4820084124281
 21
330.7875625321705
 31
0
  0
LINE
  8
0
 62
7
 10
493.982010662186
 20
382.93906319275
 30
0
 11
493.982010662186
 21
375.7875638731858
 31
0
  0
LINE
  8
0
 62
7
 10
503.4820111937231
 20
382.93906319275
 30
0
 11
503.4820111937231
 21
375.7875638731858
 31
0
  0
LINE
  8
0
 62
7
 10
498.732009065405
 20
383.7875651051228
 30
0
 11
489.232012259268
 21
383.7875651051228
 31
0
  0
LINE
  8
0
 62
7
 10
484.48201013065
 20
382.93906319275
 30
0
 11
484.48201013065
 21
375.7875638731858
 31
0
  0
LINE
  8
0
 62
7
 10
503.4820111937231
 20
383.7875651051228
 30
0
 11
503.4820111937231
 21
382.93906319275
 31
0
  0
LINE
  8
0
 62
7
 10
503.4820111937231
 20
383.7875651051228
 30
0
 11
498.732009065405
 21
383.7875651051228
 31
0
  0
LINE
  8
0
 62
7
 10
484.48201013065
 20
382.93906319275
 30
0
 11
484.48201013065
 21
383.7875651051228
 31
0
  0
LINE
  8
0
 62
7
 10
489.232012259268
 20
383.7875651051228
 30
0
 11
484.48201013065
 21
383.7875651051228
 31
0
  0
LINE
  8
0
 62
7
 10
499.9820115859891
 20
330.7875625321705
 30
0
 11
487.982009738384
 21
330.7875625321705
 31
0
  0
LINE
  8
0
 62
7
 10
535.6534316272641
 20
381.934888851025
 30
0
 11
533.325428824988
 21
381.934888851025
 31
0
  0
LINE
  8
0
 62
7
 10
531.2955940643501
 20
383.937560192032
 30
0
 11
537.6638729924941
 21
383.937560192032
 31
0
  0
LINE
  8
0
 62
7
 10
531.2937106970692
 20
386.9375662420335
 30
0
 11
537.662923509004
 21
386.9375662420335
 31
0
  0
LINE
  8
0
 62
7
 10
528.483482341783
 20
385.9346734000957
 30
0
 11
528.483482341783
 21
385.9347181036948
 31
0
  0
LINE
  8
0
 62
7
 10
529.4830084526541
 20
386.9375662420335
 30
0
 11
531.2937106970692
 21
386.9375662420335
 31
0
  0
LINE
  8
0
 62
7
 10
540.3897610088181
 20
385.9412746144291
 30
0
 11
540.389760543218
 21
385.941408724928
 31
0
  0
LINE
  8
0
 62
7
 10
537.662923509004
 20
386.9375662420335
 30
0
 11
539.4168241574821
 21
386.9375662420335
 31
0
  0
LINE
  8
0
 62
7
 10
539.4168241574821
 20
386.9375662420335
 30
0
 11
539.519048450567
 21
386.9375662420335
 31
0
  0
LINE
  8
0
 62
7
 10
588.9820085264521
 20
379.9375670268647
 30
0
 11
584.4820106276491
 21
379.9375670268647
 31
0
  0
LINE
  8
0
 62
7
 10
565.4820095645771
 20
379.9375670268647
 30
0
 11
542.4820106797361
 21
379.9375670268647
 31
0
  0
LINE
  8
0
 62
7
 10
526.4820100785641
 20
379.9375670268647
 30
0
 11
503.4820111937231
 21
379.9375670268647
 31
0
  0
LINE
  8
0
 62
7
 10
484.48201013065
 20
379.9375670268647
 30
0
 11
479.982012231847
 21
379.9375670268647
 31
0
  0
LINE
  8
0
 62
7
 10
539.84091259767
 20
386.9375662420335
 30
0
 11
587.4820092268501
 21
386.9375662420335
 31
0
  0
LINE
  8
0
 62
7
 10
481.482011531449
 20
386.9375662420335
 30
0
 11
529.300462244968
 21
386.9375662420335
 31
0
  0
LINE
  8
0
 62
7
 10
539.519048450567
 20
386.9375662420335
 30
0
 11
539.84091259767
 21
386.9375662420335
 31
0
  0
LINE
  8
0
 62
7
 10
523.9104189280072
 20
388.9375702752669
 30
0
 11
534.482010379
 21
388.9375702752669
 31
0
  0
LINE
  8
0
 62
7
 10
534.482010379
 20
388.9375702752669
 30
0
 11
545.054363652084
 21
388.9375702752669
 31
0
  0
LINE
  8
0
 62
7
 10
546.1811615105921
 20
386.9375662420335
 30
0
 11
546.1811615105921
 21
388.9375702752669
 31
0
  0
LINE
  8
0
 62
7
 10
522.7820108126161
 20
386.9375662420335
 30
0
 11
522.7820108126161
 21
388.9375702752669
 31
0
  0
LINE
  8
0
 62
7
 10
523.9104189280072
 20
388.9375702752669
 30
0
 11
522.7820108126161
 21
388.9375702752669
 31
0
  0
LINE
  8
0
 62
7
 10
520.282010427748
 20
386.9375662420335
 30
0
 11
520.282010427748
 21
388.9375702752669
 31
0
  0
LINE
  8
0
 62
7
 10
548.6820103305511
 20
386.9375662420335
 30
0
 11
548.6820103305511
 21
388.9375702752669
 31
0
  0
LINE
  8
0
 62
7
 10
546.1811615105921
 20
388.9375702752669
 30
0
 11
545.054363652084
 21
388.9375702752669
 31
0
  0
LINE
  8
0
 62
7
 10
546.1820099453842
 20
391.4375678662346
 30
0
 11
534.482010379
 21
391.4375678662346
 31
0
  0
LINE
  8
0
 62
7
 10
522.7820108126161
 20
391.4375678662356
 30
0
 11
534.482010379
 21
391.4375678662346
 31
0
  0
LINE
  8
0
 62
7
 10
503.403437371602
 20
368.787564658017
 30
0
 11
565.5605833866962
 21
368.787564658017
 31
0
  0
LINE
  8
0
 62
7
 10
575.4866416403002
 20
356.7875628101139
 30
0
 11
493.4773791179991
 21
356.7875628101139
 31
0
  0
LINE
  8
0
 62
7
 10
586.9820082186182
 20
375.7875638731858
 30
0
 11
562.982010110909
 21
375.7875638731858
 31
0
  0
LINE
  8
0
 62
7
 10
586.9820082186182
 20
356.7875628101139
 30
0
 11
575.4866416403002
 21
356.7875628101139
 31
0
  0
LINE
  8
0
 62
7
 10
505.9820106473901
 20
375.7875638731858
 30
0
 11
481.9820125396821
 21
375.7875638731858
 31
0
  0
LINE
  8
0
 62
7
 10
493.4773791179991
 20
356.7875628101139
 30
0
 11
481.9820125396821
 21
356.7875628101139
 31
0
  0
LINE
  8
0
 62
7
 10
512.249850627732
 20
373.7875598399525
 30
0
 11
556.714170130567
 21
373.7875598399525
 31
0
  0
LINE
  8
0
 62
7
 10
556.714170130567
 20
373.7875598399525
 30
0
 11
562.9889931676401
 21
373.7875598399525
 31
0
  0
LINE
  8
0
 62
7
 10
505.9750275906602
 20
373.7875598399525
 30
0
 11
512.249850627732
 21
373.7875598399525
 31
0
  0
LINE
  8
0
 62
7
 10
592.46254721778
 20
356.7875628101139
 30
0
 11
586.9820082186182
 21
356.7875628101139
 31
0
  0
LINE
  8
0
 62
7
 10
586.9820082186182
 20
368.787564658017
 30
0
 11
591.0130330516781
 21
368.787564658017
 31
0
  0
LINE
  8
0
 62
7
 10
477.9509877066221
 20
368.787564658017
 30
0
 11
481.9820125396821
 21
368.787564658017
 31
0
  0
LINE
  8
0
 62
7
 10
481.9820125396821
 20
356.7875628101139
 30
0
 11
476.50147354052
 21
356.7875628101139
 31
0
  0
LINE
  8
0
 62
7
 10
540.030988082882
 20
375.4375654026627
 30
0
 11
540.030988082882
 21
373.7875598399525
 31
0
  0
LINE
  8
0
 62
7
 10
528.9330326754171
 20
373.7875598399525
 30
0
 11
528.9330326754171
 21
375.4375654026627
 31
0
  0
LINE
  8
0
 62
7
 10
526.4820100785641
 20
376.9375609768632
 30
0
 11
526.4820100785641
 21
379.9375670268647
 31
0
  0
LINE
  8
0
 62
7
 10
542.4820106797361
 20
376.9375609768632
 30
0
 11
542.4820106797361
 21
379.9375670268647
 31
0
  0
LINE
  8
0
 62
7
 10
526.4820100785641
 20
379.9375670268647
 30
0
 11
542.4820106797361
 21
379.9375670268647
 31
0
  0
LINE
  8
0
 62
7
 10
470.982008983445
 20
376.9375609768632
 30
0
 11
484.48201013065
 21
376.9375609768632
 31
0
  0
LINE
  8
0
 62
7
 10
503.4820111937231
 20
376.9375609768632
 30
0
 11
527.6300472138601
 21
376.9375609768632
 31
0
  0
LINE
  8
0
 62
7
 10
541.3339735441391
 20
376.9375609768632
 30
0
 11
565.4820095645771
 21
376.9375609768632
 31
0
  0
LINE
  8
0
 62
7
 10
584.4820106276491
 20
376.9375609768632
 30
0
 11
597.9820117748541
 21
376.9375609768632
 31
0
  0
LINE
  8
0
 62
7
 10
523.482010547863
 20
379.9375670268647
 30
0
 11
526.4820100785641
 21
379.9375670268647
 31
0
  0
LINE
  8
0
 62
7
 10
542.4820106797361
 20
379.9375670268647
 30
0
 11
545.4820102101371
 21
379.9375670268647
 31
0
  0
LINE
  8
0
 62
7
 10
586.9820082186182
 20
373.7875598399525
 30
0
 11
605.8147698256521
 21
373.7875598399525
 31
0
  0
LINE
  8
0
 62
7
 10
463.149250932348
 20
373.7875598399525
 30
0
 11
481.9820125396821
 21
373.7875598399525
 31
0
  0
LINE
  8
0
 62
7
 10
611.2079321420811
 20
356.7875628101139
 30
0
 11
592.46254721778
 21
356.7875628101139
 31
0
  0
LINE
  8
0
 62
7
 10
591.0130330516781
 20
368.787564658017
 30
0
 11
609.289787636834
 21
368.787564658017
 31
0
  0
LINE
  8
0
 62
7
 10
459.674233121465
 20
368.787564658017
 30
0
 11
477.9509877066221
 21
368.787564658017
 31
0
  0
LINE
  8
0
 62
7
 10
476.50147354052
 20
356.7875628101139
 30
0
 11
457.756088616218
 21
356.7875628101139
 31
0
  0
LINE
  8
0
 62
7
 10
609.289787636834
 20
368.787564658017
 30
0
 11
613.6841623811852
 21
368.787564658017
 31
0
  0
LINE
  8
0
 62
7
 10
621.0722846874992
 20
356.7875628101139
 30
0
 11
611.2079321420811
 21
356.7875628101139
 31
0
  0
LINE
  8
0
 62
7
 10
455.2798583771141
 20
368.787564658017
 30
0
 11
459.674233121465
 21
368.787564658017
 31
0
  0
LINE
  8
0
 62
7
 10
457.756088616218
 20
356.7875628101139
 30
0
 11
447.891736070801
 21
356.7875628101139
 31
0
  0
LINE
  8
0
 62
7
 10
605.8147698256521
 20
373.7875598399525
 30
0
 11
609.83999065687
 21
373.7875598399525
 31
0
  0
LINE
  8
0
 62
7
 10
459.12403010143
 20
373.7875598399525
 30
0
 11
463.149250932348
 21
373.7875598399525
 31
0
  0
LINE
  8
0
 62
7
 10
627.4820116608312
 20
375.7875638731858
 30
0
 11
603.482007965323
 21
375.7875638731858
 31
0
  0
LINE
  8
0
 62
7
 10
627.4820116608312
 20
356.7875628101139
 30
0
 11
621.0722846874992
 21
356.7875628101139
 31
0
  0
LINE
  8
0
 62
7
 10
465.4820127929761
 20
375.7875638731858
 30
0
 11
441.4820090974681
 21
375.7875638731858
 31
0
  0
LINE
  8
0
 62
7
 10
447.891736070801
 20
356.7875628101139
 30
0
 11
441.4820090974681
 21
356.7875628101139
 31
0
  0
LINE
  8
0
 62
7
 10
488.57847341256
 20
181.7759707003035
 30
0
 11
492.142399001159
 21
185.3438897997622
 31
0
  0
LINE
  8
0
 62
7
 10
478.738335253802
 20
198.7479535471204
 30
0
 11
475.1704161543421
 21
195.1840279585205
 31
0
  0
LINE
  8
0
 62
7
 10
475.1704161543421
 20
286.9911018917011
 30
0
 11
478.738335253802
 21
283.4271763031021
 31
0
  0
LINE
  8
0
 62
7
 10
492.142399001159
 20
296.8312400504593
 30
0
 11
488.57847341256
 21
300.399159149919
 31
0
  0
LINE
  8
0
 62
7
 10
590.225685504498
 20
198.7479535471204
 30
0
 11
593.7936046039581
 21
195.1840279585205
 31
0
  0
LINE
  8
0
 62
7
 10
580.3855473457402
 20
181.7759707003035
 30
0
 11
576.8216217571401
 21
185.3438897997622
 31
0
  0
LINE
  8
0
 62
7
 10
576.8216217571401
 20
296.8312400504593
 30
0
 11
580.3855473457402
 21
300.399159149919
 31
0
  0
LINE
  8
0
 62
7
 10
593.7936046039581
 20
286.9911018917011
 30
0
 11
590.225685504498
 21
283.4271763031021
 31
0
  0
LINE
  8
0
 62
7
 10
625.315636164549
 20
273.5875634101386
 30
0
 11
624.9311713081681
 21
281.0875636338416
 31
0
  0
LINE
  8
0
 62
7
 10
625.0425351353631
 20
266.0875650494364
 30
0
 11
624.4403866679431
 21
273.5875634101386
 31
0
  0
LINE
  8
0
 62
7
 10
624.6598360666631
 20
263.1594831785208
 30
0
 11
625.0425351353631
 21
266.0875650494364
 31
0
  0
LINE
  8
0
 62
7
 10
445.072197982407
 20
273.1816520579706
 30
0
 11
444.960647890915
 21
273.2101170008883
 31
0
  0
LINE
  8
0
 62
7
 10
573.365055308675
 20
342.0875674384289
 30
0
 11
534.482010379
 21
342.0875674384289
 31
0
  0
LINE
  8
0
 62
7
 10
534.482010379
 20
342.0875674384289
 30
0
 11
534.482010379
 21
344.0875640211626
 31
0
  0
LINE
  8
0
 62
7
 10
534.482010379
 20
344.0875640211626
 30
0
 11
534.482010379
 21
356.7875628101139
 31
0
  0
LINE
  8
0
 62
7
 10
495.598965449625
 20
342.0875674384289
 30
0
 11
534.482010379
 21
342.0875674384289
 31
0
  0
LINE
  8
0
 62
7
 10
584.9820116358831
 20
342.0875674384289
 30
0
 11
584.4820106276491
 21
342.0875674384289
 31
0
  0
LINE
  8
0
 62
7
 10
582.436174348072
 20
342.0875674384289
 30
0
 11
577.0278463753921
 21
342.0875674384289
 31
0
  0
LINE
  8
0
 62
7
 10
483.982009122416
 20
342.0875674384289
 30
0
 11
484.48201013065
 21
342.0875674384289
 31
0
  0
LINE
  8
0
 62
7
 10
486.527846409929
 20
342.0875674384289
 30
0
 11
491.936174382907
 21
342.0875674384289
 31
0
  0
LINE
  8
0
 62
7
 10
582.886640171896
 20
151.8069902980852
 30
0
 11
585.527297272567
 21
153.0352333985849
 31
0
  0
LINE
  8
0
 62
7
 10
483.436723485733
 20
153.0352333985849
 30
0
 11
486.0773805864021
 21
151.8069902980852
 31
0
  0
LINE
  8
0
 62
7
 10
591.0130330516781
 20
342.0875674384289
 30
0
 11
584.9820116358831
 21
342.0875674384289
 31
0
  0
LINE
  8
0
 62
7
 10
477.9509877066221
 20
342.0875674384289
 30
0
 11
483.982009122416
 21
342.0875674384289
 31
0
  0
LINE
  8
0
 62
7
 10
609.289787636834
 20
342.0875674384289
 30
0
 11
591.0130330516781
 21
342.0875674384289
 31
0
  0
LINE
  8
0
 62
7
 10
459.674233121465
 20
342.0875674384289
 30
0
 11
477.9509877066221
 21
342.0875674384289
 31
0
  0
LINE
  8
0
 62
7
 10
537.599002184739
 20
148.1398145646109
 30
0
 11
536.9820102985671
 21
141.0875644282616
 31
0
  0
LINE
  8
0
 62
7
 10
531.982010459732
 20
141.0875644282616
 30
0
 11
536.9820102985671
 21
141.0875644282616
 31
0
  0
LINE
  8
0
 62
7
 10
531.365018573561
 20
148.1398145646109
 30
0
 11
531.982010459732
 21
141.0875644282616
 31
0
  0
LINE
  8
0
 62
7
 10
445.5928296481361
 20
267.8631631850988
 30
0
 11
445.57427025212
 21
269.1983388797372
 31
0
  0
LINE
  8
0
 62
7
 10
445.8067879690111
 20
273.2101170008883
 30
0
 11
445.115567811677
 21
273.2101170008883
 31
0
  0
LINE
  8
0
 62
7
 10
445.7002670192692
 20
271.7275036308148
 30
0
 11
445.8067879690111
 21
273.2101170008883
 31
0
  0
LINE
  8
0
 62
7
 10
447.2057760231141
 20
273.2101170008883
 30
0
 11
446.7505679049361
 21
273.2101170008883
 31
0
  0
LINE
  8
0
 62
7
 10
446.463646048986
 20
271.1170161012789
 30
0
 11
445.9035561087501
 21
271.1170161012789
 31
0
  0
LINE
  8
0
 62
7
 10
445.832224250858
 20
269.1983388797372
 30
0
 11
445.57427025212
 21
269.1983388797372
 31
0
  0
LINE
  8
0
 62
7
 10
446.7505679049361
 20
273.2101170008883
 30
0
 11
445.8067879690111
 21
273.2101170008883
 31
0
  0
LINE
  8
0
 62
7
 10
622.150711514586
 20
298.0875643887804
 30
0
 11
621.128968704136
 21
301.0875629879812
 31
0
  0
LINE
  8
0
 62
7
 10
623.051136522542
 20
298.0875643887804
 30
0
 11
622.150711514586
 21
298.0875643887804
 31
0
  0
LINE
  8
0
 62
7
 10
624.133251387294
 20
294.0875637728124
 30
0
 11
623.3551425596231
 21
294.0875637728124
 31
0
  0
LINE
  8
0
 62
7
 10
623.3551425596231
 20
294.0875637728124
 30
0
 11
624.1414544762131
 21
291.0875651736117
 31
0
  0
LINE
  8
0
 62
7
 10
616.3188068633151
 20
296.0875640806463
 30
0
 11
618.0286778403311
 21
296.0875640806463
 31
0
  0
LINE
  8
0
 62
7
 10
622.5826067664971
 20
291.0875651736117
 30
0
 11
624.1414544762131
 21
291.0875651736117
 31
0
  0
LINE
  8
0
 62
7
 10
619.513571087982
 20
301.0875629879812
 30
0
 11
621.128968704136
 21
301.0875629879812
 31
0
  0
LINE
  8
0
 62
7
 10
449.450449670318
 20
301.0875629879812
 30
0
 11
447.8350520541642
 21
301.0875629879812
 31
0
  0
LINE
  8
0
 62
7
 10
452.6452138949851
 20
296.0875640806463
 30
0
 11
450.935342917968
 21
296.0875640806463
 31
0
  0
LINE
  8
0
 62
7
 10
446.3814139918031
 20
291.0875651736117
 30
0
 11
444.8225662820871
 21
291.0875651736117
 31
0
  0
LINE
  8
0
 62
7
 10
447.8350520541642
 20
301.0875629879812
 30
0
 11
446.8133092437131
 21
298.0875643887804
 31
0
  0
LINE
  8
0
 62
7
 10
445.6088781986771
 20
294.0875637728124
 30
0
 11
444.8225662820871
 21
291.0875651736117
 31
0
  0
LINE
  8
0
 62
7
 10
444.8307693710051
 20
294.0875637728124
 30
0
 11
445.6088781986771
 21
294.0875637728124
 31
0
  0
LINE
  8
0
 62
7
 10
446.8133092437131
 20
298.0875643887804
 30
0
 11
445.9043235186412
 21
298.0875643887804
 31
0
  0
LINE
  8
0
 62
7
 10
620.140574691954
 20
342.0875674384289
 30
0
 11
609.289787636834
 21
342.0875674384289
 31
0
  0
LINE
  8
0
 62
7
 10
448.8234460663462
 20
342.0875674384289
 30
0
 11
459.674233121465
 21
342.0875674384289
 31
0
  0
LINE
  8
0
 62
7
 10
445.0934097851971
 20
272.6868441042855
 30
0
 11
443.7960625502822
 21
272.6868441042855
 31
0
  0
LINE
  8
0
 62
7
 10
443.1153030079452
 20
261.2684494732049
 30
0
 11
442.8370610783102
 21
269.1983388797372
 31
0
  0
LINE
  8
0
 62
7
 10
442.8521857569581
 20
261.2684494732049
 30
0
 11
443.1153030079452
 21
261.2684494732049
 31
0
  0
LINE
  8
0
 62
7
 10
442.5482914785771
 20
270.332101168576
 30
0
 11
442.8521857569581
 21
261.2684494732049
 31
0
  0
LINE
  8
0
 62
7
 10
442.6212103100531
 20
261.2684494732049
 30
0
 11
442.253494359006
 21
269.1983388797372
 31
0
  0
LINE
  8
0
 62
7
 10
442.51489052591
 20
261.2684494732049
 30
0
 11
442.6212103100531
 21
261.2684494732049
 31
0
  0
LINE
  8
0
 62
7
 10
442.3324109077212
 20
273.2101170008883
 30
0
 11
442.1583951492501
 21
273.2101170008883
 31
0
  0
LINE
  8
0
 62
7
 10
442.2829390533132
 20
271.7275036308148
 30
0
 11
442.3324109077212
 21
273.2101170008883
 31
0
  0
LINE
  8
0
 62
7
 10
443.9759940698962
 20
262.2760324556969
 30
0
 11
443.8517630904291
 21
271.0298033310447
 31
0
  0
LINE
  8
0
 62
7
 10
443.355688537958
 20
270.2448902610423
 30
0
 11
443.5631797549961
 21
261.2684494732049
 31
0
  0
LINE
  8
0
 62
7
 10
444.960647890915
 20
273.2101170008883
 30
0
 11
443.434240008577
 21
273.2101170008883
 31
0
  0
LINE
  8
0
 62
7
 10
443.3468148965451
 20
271.1170161012789
 30
0
 11
442.994938879641
 21
271.1170161012789
 31
0
  0
LINE
  8
0
 62
7
 10
443.3798805731171
 20
269.1983388797372
 30
0
 11
442.8370610783102
 21
269.1983388797372
 31
0
  0
LINE
  8
0
 62
7
 10
626.7080677076181
 20
266.0875650494364
 30
0
 11
626.4804822750791
 21
271.5875649650044
 31
0
  0
LINE
  8
0
 62
7
 10
626.1273918134871
 20
260.5875651338677
 30
0
 11
626.7080677076181
 21
266.0875650494364
 31
0
  0
LINE
  8
0
 62
7
 10
626.4118549780601
 20
260.5875651338677
 30
0
 11
626.1273918134871
 21
260.5875651338677
 31
0
  0
LINE
  8
0
 62
7
 10
626.1132878647261
 20
258.5875648257335
 30
0
 11
626.4118549780601
 21
260.5875651338677
 31
0
  0
LINE
  8
0
 62
7
 10
626.927382996141
 20
271.5875649650044
 30
0
 11
626.786075285743
 21
277.0875630178737
 31
0
  0
LINE
  8
0
 62
7
 10
626.921064903803
 20
271.5875649650044
 30
0
 11
626.786075285743
 21
277.0875630178737
 31
0
  0
LINE
  8
0
 62
7
 10
626.4804822750791
 20
271.5875649650044
 30
0
 11
626.921064903803
 21
271.5875649650044
 31
0
  0
LINE
  8
0
 62
7
 10
626.1638847569241
 20
258.5875648257335
 30
0
 11
625.581830505306
 21
258.5875648257335
 31
0
  0
LINE
  8
0
 62
7
 10
625.67495531128
 20
259.3100569323572
 30
0
 11
626.5485060753031
 21
266.0875650494364
 31
0
  0
LINE
  8
0
 62
7
 10
626.5485060753031
 20
266.0875650494364
 30
0
 11
625.959254562757
 21
273.5875634101386
 31
0
  0
LINE
  8
0
 62
7
 10
625.959254562757
 20
273.5875634101386
 30
0
 11
626.8188503895181
 21
273.5875634101386
 31
0
  0
LINE
  8
0
 62
7
 10
626.8188503895181
 20
273.5875634101386
 30
0
 11
626.440562064776
 21
281.0875636338416
 31
0
  0
LINE
  8
0
 62
7
 10
626.513637358549
 20
279.8197132473345
 30
0
 11
626.440562064776
 21
281.0875636338416
 31
0
  0
LINE
  8
0
 62
7
 10
625.948287308365
 20
257.3626707614004
 30
0
 11
626.1638847569241
 21
258.5875648257335
 31
0
  0
LINE
  8
0
 62
7
 10
624.4403866679431
 20
273.5875634101386
 30
0
 11
625.959254562757
 21
273.5875634101386
 31
0
  0
LINE
  8
0
 62
7
 10
625.0425351353631
 20
266.0875650494364
 30
0
 11
626.5485060753031
 21
266.0875650494364
 31
0
  0
LINE
  8
0
 62
7
 10
443.527506375551
 20
261.2684494732049
 30
0
 11
443.1153030079452
 21
261.2684494732049
 31
0
  0
LINE
  8
0
 62
7
 10
443.434240008577
 20
273.2101170008883
 30
0
 11
442.634517046921
 21
273.2101170008883
 31
0
  0
LINE
  8
0
 62
7
 10
625.4820076275971
 20
342.0875674384289
 30
0
 11
624.982006619063
 21
342.0875674384289
 31
0
  0
LINE
  8
0
 62
7
 10
622.936174065185
 20
342.0875674384289
 30
0
 11
620.140574691954
 21
342.0875674384289
 31
0
  0
LINE
  8
0
 62
7
 10
443.4820131307031
 20
342.0875674384289
 30
0
 11
443.982014139237
 21
342.0875674384289
 31
0
  0
LINE
  8
0
 62
7
 10
446.0278466931152
 20
342.087567438428
 30
0
 11
448.8234460663462
 21
342.0875674384289
 31
0
  0
LINE
  8
0
 62
7
 10
442.551584634944
 20
271.1170161012789
 30
0
 11
442.336888706777
 21
271.1170161012789
 31
0
  0
LINE
  8
0
 62
7
 10
462.4820141937751
 20
182.2233147307599
 30
0
 11
462.4820141937751
 21
181.5875641450749
 31
0
  0
LINE
  8
0
 62
7
 10
463.0064903591672
 20
181.5875641450749
 30
0
 11
462.4820141937751
 21
181.5875641450749
 31
0
  0
LINE
  8
0
 62
7
 10
442.5863043402001
 20
269.1983388797372
 30
0
 11
442.253494359006
 21
269.1983388797372
 31
0
  0
LINE
  8
0
 62
7
 10
442.8171978307062
 20
261.2684494732049
 30
0
 11
442.6212103100531
 21
261.2684494732049
 31
0
  0
LINE
  8
0
 62
7
 10
442.634517046921
 20
273.2101170008883
 30
0
 11
442.3324109077212
 21
273.2101170008883
 31
0
  0
LINE
  8
0
 62
7
 10
626.79453169466
 20
267.3375638449199
 30
0
 11
626.9083169604292
 21
267.3375638449199
 31
0
  0
LINE
  8
0
 62
7
 10
626.9707677264091
 20
271.5875649650044
 30
0
 11
626.9083169604292
 21
267.3375638449199
 31
0
  0
LINE
  8
0
 62
7
 10
626.406527812713
 20
260.5875651338677
 30
0
 11
626.7802638331011
 21
264.8375643912524
 31
0
  0
LINE
  8
0
 62
7
 10
626.6922575757751
 20
264.8375643912524
 30
0
 11
626.79453169466
 21
267.3375638449199
 31
0
  0
LINE
  8
0
 62
7
 10
624.9311713081681
 20
281.0875636338416
 30
0
 11
626.440562064776
 21
281.0875636338416
 31
0
  0
LINE
  8
0
 62
7
 10
585.527297272567
 20
153.0352333985849
 30
0
 11
584.4820106276491
 21
141.0875644282616
 31
0
  0
LINE
  8
0
 62
7
 10
484.48201013065
 20
141.0875644282616
 30
0
 11
531.982010459732
 21
141.0875644282616
 31
0
  0
LINE
  8
0
 62
7
 10
536.9820102985671
 20
141.0875644282616
 30
0
 11
584.4820106276491
 21
141.0875644282616
 31
0
  0
LINE
  8
0
 62
7
 10
483.436723485733
 20
153.0352333985849
 30
0
 11
484.48201013065
 21
141.0875644282616
 31
0
  0
LINE
  8
0
 62
7
 10
443.8470394224771
 20
278.9017383970534
 30
0
 11
442.530305777055
 21
278.9017383970534
 31
0
  0
LINE
  8
0
 62
7
 10
443.9840779499161
 20
280.7950501169463
 30
0
 11
442.670741769361
 21
280.7950501169463
 31
0
  0
LINE
  8
0
 62
7
 10
442.530305777055
 20
278.9017383970534
 30
0
 11
442.670741769361
 21
280.7950501169463
 31
0
  0
LINE
  8
0
 62
7
 10
443.5373858452522
 20
273.8924299894109
 30
0
 11
442.897641748707
 21
273.8924299894109
 31
0
  0
LINE
  8
0
 62
7
 10
537.662923509004
 20
385.9375642252663
 30
0
 11
531.2937106970692
 21
385.9375642252663
 31
0
  0
LINE
  8
0
 62
7
 10
564.5897056894401
 20
371.7875707080185
 30
0
 11
563.1761480250821
 21
371.7875707080185
 31
0
  0
LINE
  8
0
 62
7
 10
505.7878727332181
 20
371.7875707080185
 30
0
 11
504.374315068859
 21
371.7875707080185
 31
0
  0
LINE
  8
0
 62
7
 10
615.482009812926
 20
371.7875707080185
 30
0
 11
612.6548944842082
 21
371.7875707080185
 31
0
  0
LINE
  8
0
 62
7
 10
456.3091262740911
 20
371.7875707080185
 30
0
 11
453.4820109453731
 21
371.7875707080185
 31
0
  0
LINE
  8
0
 62
7
 10
534.482010379
 20
344.0875640211626
 30
0
 11
575.2336012992141
 21
344.0875640211626
 31
0
  0
LINE
  8
0
 62
7
 10
575.2336012992141
 20
344.0875640211626
 30
0
 11
575.2336012992141
 21
356.7875628101139
 31
0
  0
LINE
  8
0
 62
7
 10
534.482010379
 20
344.0875640211626
 30
0
 11
493.730419459084
 21
344.0875640211626
 31
0
  0
LINE
  8
0
 62
7
 10
493.730419459084
 20
344.0875640211626
 30
0
 11
493.730419459084
 21
356.7875628101139
 31
0
  0
LINE
  8
0
 62
7
 10
445.023225316593
 20
271.0298033310447
 30
0
 11
443.8517630904291
 21
271.0298033310447
 31
0
  0
LINE
  8
0
 62
7
 10
615.482009574426
 20
371.7875636268183
 30
0
 11
615.482009574426
 21
368.8066112132275
 31
0
  0
LINE
  8
0
 62
2
  6
CENTER
 10
472.1020215113201
 20
303.4675537947417
 30
0
 11
493.3979466109881
 21
282.1716286947732
 31
0
  0
LINE
  8
0
 62
2
  6
CENTER
 10
597.1979653226431
 20
303.8035198701039
 30
0
 11
574.479164975708
 21
281.0847195231692
 31
0
  0
LINE
  8
0
 62
2
  6
CENTER
 10
596.2439680492191
 20
179.3256072550431
 30
0
 11
575.7249916571332
 21
199.8445836471275
 31
0
  0
LINE
  8
0
 62
2
  6
CENTER
 10
472.4110371100501
 20
179.0165916560128
 30
0
 11
493.3184878560771
 21
199.9240424020383
 31
0
  0
LINE
  8
0
 62
7
 10
564.5897052346402
 20
371.7875636268183
 30
0
 11
564.5897052346402
 21
368.787563656617
 31
0
  0
LINE
  8
0
 62
7
 10
504.3743155236591
 20
371.7875636268183
 30
0
 11
504.3743155236591
 21
368.787563656617
 31
0
  0
LINE
  8
0
 62
7
 10
453.4820111835732
 20
371.7875636268183
 30
0
 11
453.4820111835732
 21
368.5820188092595
 31
0
  0
LINE
  8
1
 62
2
 10
599.504155751364
 20
298.3967631860683
 30
0
 11
596.2275957437
 21
297.9075255769706
 31
0
  0
LINE
  8
1
 62
2
 10
598.8205611428123
 20
299.969497778768
 30
0
 11
596.2275957437
 21
297.9075255769706
 31
0
  0
LINE
  8
1
 62
2
 10
658.6226214998
 20
325.0277424306613
 30
0
 11
596.2275957437
 21
297.9075255769706
 31
0
  0
LINE
  8
1
 62
2
 10
680.6503339941
 20
325.0277424306613
 30
0
 11
658.6226214998
 21
325.0277424306613
 31
0
  0
LINE
  8
1
 62
2
 10
188.0658614527432
 20
178.3403599004888
 30
0
 11
187.4094565821
 21
181.5875635540613
 31
0
  0
LINE
  8
1
 62
2
 10
189.6015217020311
 20
179.1036051341274
 30
0
 11
187.4094565821
 21
181.5875635540613
 31
0
  0
LINE
  8
1
 62
2
 10
211.9295892977
 20
132.2527083082613
 30
0
 11
187.4094565821
 21
181.5875635540613
 31
0
  0
LINE
  8
1
 62
2
 10
250.338747868
 20
132.2527083082613
 30
0
 11
211.9295892977
 21
132.2527083082613
 31
0
  0
LINE
  8
1
 62
2
 10
220.8306013164659
 20
23.625
 30
0
 11
220.8306013164659
 21
35.625
 31
0
  0
LINE
  8
1
 62
2
 10
220.8306013164659
 20
35.625
 30
0
 11
229.2306013164659
 21
23.625
 31
0
  0
LINE
  8
1
 62
2
 10
229.2306013164659
 20
23.625
 30
0
 11
229.2306013164659
 21
35.625
 31
0
  0
LINE
  8
1
 62
2
 10
232.8306013164659
 20
30.22500000000002
 30
0
 11
241.2306013164659
 21
30.22500000000002
 31
0
  0
LINE
  8
1
 62
2
 10
241.2306013164659
 20
35.625
 30
0
 11
232.8306013164659
 21
35.625
 31
0
  0
LINE
  8
1
 62
2
 10
232.8306013164659
 20
35.625
 30
0
 11
232.8306013164659
 21
23.625
 31
0
  0
LINE
  8
1
 62
2
 10
253.2306013164659
 20
32.02500000000001
 30
0
 11
253.2306013164659
 21
27.22500000000002
 31
0
  0
LINE
  8
1
 62
2
 10
253.2306013164659
 20
27.22500000000002
 30
0
 11
252.9306013164659
 21
26.02500000000001
 31
0
  0
LINE
  8
1
 62
2
 10
252.9306013164659
 20
26.02500000000001
 30
0
 11
252.3306013164659
 21
25.125
 31
0
  0
LINE
  8
1
 62
2
 10
252.3306013164659
 20
25.125
 30
0
 11
251.7306013164659
 21
24.52500000000001
 31
0
  0
LINE
  8
1
 62
2
 10
251.7306013164659
 20
24.52500000000001
 30
0
 11
250.8306013164659
 21
23.92500000000001
 31
0
  0
LINE
  8
1
 62
2
 10
250.8306013164659
 20
23.92500000000001
 30
0
 11
249.6306013164659
 21
23.625
 31
0
  0
LINE
  8
1
 62
2
 10
249.6306013164659
 20
23.625
 30
0
 11
244.8306013164659
 21
23.625
 31
0
  0
LINE
  8
1
 62
2
 10
244.8306013164659
 20
23.625
 30
0
 11
244.8306013164659
 21
35.625
 31
0
  0
LINE
  8
1
 62
2
 10
244.8306013164659
 20
35.625
 30
0
 11
249.6306013164659
 21
35.625
 31
0
  0
LINE
  8
1
 62
2
 10
249.6306013164659
 20
35.625
 30
0
 11
250.8306013164659
 21
35.32500000000002
 31
0
  0
LINE
  8
1
 62
2
 10
250.8306013164659
 20
35.32500000000002
 30
0
 11
251.7306013164659
 21
34.72500000000002
 31
0
  0
LINE
  8
1
 62
2
 10
251.7306013164659
 20
34.72500000000002
 30
0
 11
252.3306013164659
 21
34.125
 31
0
  0
LINE
  8
1
 62
2
 10
252.3306013164659
 20
34.125
 30
0
 11
252.9306013164659
 21
33.22500000000002
 31
0
  0
LINE
  8
1
 62
2
 10
252.9306013164659
 20
33.22500000000002
 30
0
 11
253.2306013164659
 21
32.02500000000001
 31
0
  0
LINE
  8
1
 62
2
 10
256.8306013164659
 20
35.625
 30
0
 11
265.2306013164659
 21
35.625
 31
0
  0
LINE
  8
1
 62
2
 10
261.0306013164659
 20
35.625
 30
0
 11
261.0306013164659
 21
23.625
 31
0
  0
LINE
  8
1
 62
2
 10
269.4972679831326
 20
24
 30
0
 11
279.1639346497992
 21
24
 31
0
  0
LINE
  8
1
 62
2
 10
277.8306013164659
 20
26.625
 30
0
 11
270.4972679831326
 21
26.625
 31
0
  0
LINE
  8
1
 62
2
 10
269.4972679831326
 20
28.125
 30
0
 11
270.4972679831326
 21
29.625
 31
0
  0
LINE
  8
1
 62
2
 10
270.4972679831326
 20
29.625
 30
0
 11
271.1639346497992
 21
32.25
 31
0
  0
LINE
  8
1
 62
2
 10
271.1639346497992
 20
32.25
 30
0
 11
271.1639346497992
 21
34.875
 31
0
  0
LINE
  8
1
 62
2
 10
274.4972679831326
 20
34.875
 30
0
 11
269.4972679831326
 21
34.875
 31
0
  0
LINE
  8
1
 62
2
 10
269.1639346497992
 20
32.25
 30
0
 11
274.8306013164659
 21
32.25
 31
0
  0
LINE
  8
1
 62
2
 10
272.8306013164659
 20
34.875
 30
0
 11
272.8306013164659
 21
28.5
 31
0
  0
LINE
  8
1
 62
2
 10
276.1639346497992
 20
30
 30
0
 11
276.1639346497992
 21
34.875
 31
0
  0
LINE
  8
1
 62
2
 10
278.4972679831326
 20
35.25
 30
0
 11
278.4972679831326
 21
28.5
 31
0
  0
LINE
  8
1
 62
2
 10
278.4972679831326
 20
28.5
 30
0
 11
277.4972679831326
 21
28.5
 31
0
  0
LINE
  8
1
 62
2
 10
274.4972679831326
 20
28.5
 30
0
 11
274.4972679831326
 21
24
 31
0
  0
LINE
  8
1
 62
2
 10
280.8306013164659
 20
27.82500000000002
 30
0
 11
281.1306013164659
 21
29.02500000000001
 31
0
  0
LINE
  8
1
 62
2
 10
281.1306013164659
 20
29.02500000000001
 30
0
 11
281.7306013164659
 21
29.92500000000001
 31
0
  0
LINE
  8
1
 62
2
 10
281.7306013164659
 20
29.92500000000001
 30
0
 11
282.6306013164659
 21
30.52500000000001
 31
0
  0
LINE
  8
1
 62
2
 10
282.6306013164659
 20
30.52500000000001
 30
0
 11
283.5306013164659
 21
30.82500000000002
 31
0
  0
LINE
  8
1
 62
2
 10
283.5306013164659
 20
30.82500000000002
 30
0
 11
285.3306013164659
 21
30.82500000000002
 31
0
  0
LINE
  8
1
 62
2
 10
285.3306013164659
 20
30.82500000000002
 30
0
 11
286.2306013164659
 21
30.52500000000001
 31
0
  0
LINE
  8
1
 62
2
 10
286.2306013164659
 20
30.52500000000001
 30
0
 11
287.1306013164659
 21
29.92500000000001
 31
0
  0
LINE
  8
1
 62
2
 10
287.1306013164659
 20
29.92500000000001
 30
0
 11
287.7306013164659
 21
29.02500000000001
 31
0
  0
LINE
  8
1
 62
2
 10
287.7306013164659
 20
29.02500000000001
 30
0
 11
288.0306013164659
 21
27.82500000000002
 31
0
  0
LINE
  8
1
 62
2
 10
288.0306013164659
 20
27.82500000000002
 30
0
 11
288.0306013164659
 21
26.625
 31
0
  0
LINE
  8
1
 62
2
 10
288.0306013164659
 20
26.625
 30
0
 11
287.7306013164659
 21
25.42500000000001
 31
0
  0
LINE
  8
1
 62
2
 10
287.7306013164659
 20
25.42500000000001
 30
0
 11
287.1306013164659
 21
24.52500000000001
 31
0
  0
LINE
  8
1
 62
2
 10
287.1306013164659
 20
24.52500000000001
 30
0
 11
286.2306013164659
 21
23.92500000000001
 31
0
  0
LINE
  8
1
 62
2
 10
286.2306013164659
 20
23.92500000000001
 30
0
 11
285.3306013164659
 21
23.625
 31
0
  0
LINE
  8
1
 62
2
 10
285.3306013164659
 20
23.625
 30
0
 11
283.5306013164659
 21
23.625
 31
0
  0
LINE
  8
1
 62
2
 10
283.5306013164659
 20
23.625
 30
0
 11
282.6306013164659
 21
23.92500000000001
 31
0
  0
LINE
  8
1
 62
2
 10
282.6306013164659
 20
23.92500000000001
 30
0
 11
281.7306013164659
 21
24.52500000000001
 31
0
  0
LINE
  8
1
 62
2
 10
281.7306013164659
 20
24.52500000000001
 30
0
 11
281.1306013164659
 21
25.42500000000001
 31
0
  0
LINE
  8
1
 62
2
 10
281.1306013164659
 20
25.42500000000001
 30
0
 11
280.8306013164659
 21
26.625
 31
0
  0
LINE
  8
1
 62
2
 10
280.8306013164659
 20
26.625
 30
0
 11
280.8306013164659
 21
27.82500000000002
 31
0
  0
LINE
  8
1
 62
2
 10
280.8306013164659
 20
27.82500000000002
 30
0
 11
281.1306013164659
 21
30.22500000000002
 31
0
  0
LINE
  8
1
 62
2
 10
281.1306013164659
 20
30.22500000000002
 30
0
 11
281.7306013164659
 21
31.42500000000001
 31
0
  0
LINE
  8
1
 62
2
 10
281.7306013164659
 20
31.42500000000001
 30
0
 11
282.9306013164659
 21
32.92500000000001
 31
0
  0
LINE
  8
1
 62
2
 10
282.9306013164659
 20
32.92500000000001
 30
0
 11
286.2306013164659
 21
35.625
 31
0
  0
LINE
  8
1
 62
2
 10
298.2306013164659
 20
35.625
 30
0
 11
291.6306013164659
 21
35.625
 31
0
  0
LINE
  8
1
 62
2
 10
291.6306013164659
 20
35.625
 30
0
 11
291.6306013164659
 21
30.82500000000002
 31
0
  0
LINE
  8
1
 62
2
 10
291.6306013164659
 20
30.82500000000002
 30
0
 11
296.1306013164659
 21
30.82500000000002
 31
0
  0
LINE
  8
1
 62
2
 10
296.1306013164659
 20
30.82500000000002
 30
0
 11
297.6306013164659
 21
30.52500000000001
 31
0
  0
LINE
  8
1
 62
2
 10
297.6306013164659
 20
30.52500000000001
 30
0
 11
298.5306013164659
 21
29.625
 31
0
  0
LINE
  8
1
 62
2
 10
298.5306013164659
 20
29.625
 30
0
 11
298.8306013164659
 21
28.42500000000001
 31
0
  0
LINE
  8
1
 62
2
 10
298.8306013164659
 20
28.42500000000001
 30
0
 11
298.8306013164659
 21
26.625
 31
0
  0
LINE
  8
1
 62
2
 10
298.8306013164659
 20
26.625
 30
0
 11
298.5306013164659
 21
25.42500000000001
 31
0
  0
LINE
  8
1
 62
2
 10
298.5306013164659
 20
25.42500000000001
 30
0
 11
297.9306013164659
 21
24.52500000000001
 31
0
  0
LINE
  8
1
 62
2
 10
297.9306013164659
 20
24.52500000000001
 30
0
 11
297.0306013164659
 21
23.92500000000001
 31
0
  0
LINE
  8
1
 62
2
 10
297.0306013164659
 20
23.92500000000001
 30
0
 11
296.1306013164659
 21
23.625
 31
0
  0
LINE
  8
1
 62
2
 10
296.1306013164659
 20
23.625
 30
0
 11
291.6306013164659
 21
23.625
 31
0
  0
LINE
  8
1
 62
2
 10
302.4306013164659
 20
23.625
 30
0
 11
302.4306013164659
 21
32.02500000000001
 31
0
  0
LINE
  8
1
 62
2
 10
302.4306013164659
 20
32.02500000000001
 30
0
 11
309.0306013164659
 21
32.02500000000001
 31
0
  0
LINE
  8
1
 62
2
 10
309.0306013164659
 20
32.02500000000001
 30
0
 11
309.9306013164659
 21
31.72500000000002
 31
0
  0
LINE
  8
1
 62
2
 10
309.9306013164659
 20
31.72500000000002
 30
0
 11
310.5306013164659
 21
31.125
 31
0
  0
LINE
  8
1
 62
2
 10
310.5306013164659
 20
31.125
 30
0
 11
310.8306013164659
 21
30.52500000000001
 31
0
  0
LINE
  8
1
 62
2
 10
310.8306013164659
 20
30.52500000000001
 30
0
 11
310.8306013164659
 21
23.625
 31
0
  0
LINE
  8
1
 62
2
 10
306.6306013164659
 20
32.02500000000001
 30
0
 11
306.6306013164659
 21
23.625
 31
0
  0
LINE
  8
1
 62
2
 10
314.4306013164659
 20
23.625
 30
0
 11
314.4306013164659
 21
32.02500000000001
 31
0
  0
LINE
  8
1
 62
2
 10
314.4306013164659
 20
32.02500000000001
 30
0
 11
321.0306013164659
 21
32.02500000000001
 31
0
  0
LINE
  8
1
 62
2
 10
321.0306013164659
 20
32.02500000000001
 30
0
 11
321.9306013164659
 21
31.72500000000002
 31
0
  0
LINE
  8
1
 62
2
 10
321.9306013164659
 20
31.72500000000002
 30
0
 11
322.5306013164659
 21
31.125
 31
0
  0
LINE
  8
1
 62
2
 10
322.5306013164659
 20
31.125
 30
0
 11
322.8306013164659
 21
30.52500000000001
 31
0
  0
LINE
  8
1
 62
2
 10
322.8306013164659
 20
30.52500000000001
 30
0
 11
322.8306013164659
 21
23.625
 31
0
  0
LINE
  8
1
 62
2
 10
318.6306013164659
 20
32.02500000000001
 30
0
 11
318.6306013164659
 21
23.625
 31
0
  0
LINE
  8
1
 62
2
 10
327.0972679831326
 20
25.5
 30
0
 11
328.4306013164659
 21
27
 31
0
  0
LINE
  8
1
 62
2
 10
328.4306013164659
 20
27
 30
0
 11
329.7639346497992
 21
29.25
 31
0
  0
LINE
  8
1
 62
2
 10
329.7639346497992
 20
29.25
 30
0
 11
330.4306013164659
 21
31.5
 31
0
  0
LINE
  8
1
 62
2
 10
330.4306013164659
 20
31.5
 30
0
 11
327.0972679831326
 21
31.5
 31
0
  0
LINE
  8
1
 62
2
 10
332.0972679831326
 20
35.25
 30
0
 11
332.0972679831326
 21
23.625
 31
0
  0
LINE
  8
1
 62
2
 10
332.0972679831326
 20
23.625
 30
0
 11
331.0972679831326
 21
24
 31
0
  0
LINE
  8
1
 62
2
 10
336.0972679831326
 20
32.625
 30
0
 11
333.7639346497992
 21
30.75
 31
0
  0
LINE
  8
1
 62
2
 10
333.0972679831326
 20
32.25
 30
0
 11
334.0972679831326
 21
29.625
 31
0
  0
LINE
  8
1
 62
2
 10
334.0972679831326
 20
29.625
 30
0
 11
335.4306013164659
 21
27.375
 31
0
  0
LINE
  8
1
 62
2
 10
335.4306013164659
 20
27.375
 30
0
 11
337.0972679831326
 21
25.5
 31
0
  0
LINE
  8
1
 62
2
 10
339.0972679831326
 20
24.75
 30
0
 11
340.0972679831326
 21
25.875
 31
0
  0
LINE
  8
1
 62
2
 10
340.0972679831326
 20
25.875
 30
0
 11
340.0972679831326
 21
30.375
 31
0
  0
LINE
  8
1
 62
2
 10
340.0972679831326
 20
30.375
 30
0
 11
338.7639346497992
 21
30.375
 31
0
  0
LINE
  8
1
 62
2
 10
339.4306013164659
 20
35.25
 30
0
 11
340.7639346497992
 21
33.75
 31
0
  0
LINE
  8
1
 62
2
 10
343.0972679831326
 20
35.25
 30
0
 11
344.0972679831326
 21
33.75
 31
0
  0
LINE
  8
1
 62
2
 10
346.7639346497992
 20
35.25
 30
0
 11
345.4306013164659
 21
33
 31
0
  0
LINE
  8
1
 62
2
 10
341.4306013164659
 20
33
 30
0
 11
348.4306013164659
 21
33
 31
0
  0
LINE
  8
1
 62
2
 10
344.7639346497992
 20
33
 30
0
 11
343.7639346497992
 21
31.125
 31
0
  0
LINE
  8
1
 62
2
 10
343.0972679831326
 20
31.125
 30
0
 11
343.0972679831326
 21
26.25
 31
0
  0
LINE
  8
1
 62
2
 10
343.0972679831326
 20
26.25
 30
0
 11
347.0972679831326
 21
26.25
 31
0
  0
LINE
  8
1
 62
2
 10
347.0972679831326
 20
26.25
 30
0
 11
347.0972679831326
 21
31.125
 31
0
  0
LINE
  8
1
 62
2
 10
347.0972679831326
 20
31.125
 30
0
 11
343.0972679831326
 21
31.125
 31
0
  0
LINE
  8
1
 62
2
 10
343.0972679831326
 20
29.625
 30
0
 11
347.0972679831326
 21
29.625
 31
0
  0
LINE
  8
1
 62
2
 10
347.0972679831326
 20
27.75
 30
0
 11
343.0972679831326
 21
27.75
 31
0
  0
LINE
  8
1
 62
2
 10
340.0972679831326
 20
25.875
 30
0
 11
341.0972679831326
 21
25.125
 31
0
  0
LINE
  8
1
 62
2
 10
341.0972679831326
 20
25.125
 30
0
 11
342.4306013164659
 21
24.75
 31
0
  0
LINE
  8
1
 62
2
 10
342.4306013164659
 20
24.75
 30
0
 11
348.7639346497992
 21
24.75
 31
0
  0
LINE
  8
1
 62
2
 10
352.4306013164659
 20
25.125
 30
0
 11
354.7639346497992
 21
27
 31
0
  0
LINE
  8
1
 62
2
 10
354.7639346497992
 20
27
 30
0
 11
357.4306013164659
 21
30.375
 31
0
  0
LINE
  8
1
 62
2
 10
357.4306013164659
 20
30.375
 30
0
 11
359.0972679831326
 21
33.75
 31
0
  0
LINE
  8
1
 62
2
 10
355.0972679831326
 20
31.5
 30
0
 11
356.7639346497992
 21
29.625
 31
0
  0
LINE
  8
1
 62
2
 10
356.7639346497992
 20
29.625
 30
0
 11
358.4306013164659
 21
27
 31
0
  0
LINE
  8
1
 62
2
 10
364.0972679831326
 20
30
 30
0
 11
364.7639346497992
 21
29.625
 31
0
  0
LINE
  8
1
 62
2
 10
364.7639346497992
 20
29.625
 30
0
 11
370.7639346497992
 21
29.625
 31
0
  0
LINE
  8
1
 62
2
 10
370.7639346497992
 20
29.625
 30
0
 11
371.4306013164659
 21
29.25
 31
0
  0
LINE
  8
1
 62
2
 10
376.4306013164659
 20
25.125
 30
0
 11
379.4306013164659
 21
27.375
 31
0
  0
LINE
  8
1
 62
2
 10
379.4306013164659
 20
27.375
 30
0
 11
382.0972679831326
 21
30.375
 31
0
  0
LINE
  8
1
 62
2
 10
382.0972679831326
 20
30.375
 30
0
 11
383.4306013164659
 21
33
 31
0
  0
LINE
  8
1
 62
2
 10
383.4306013164659
 20
33
 30
0
 11
379.0972679831326
 21
33
 31
0
  0
LINE
  8
1
 62
2
 10
380.0972679831326
 20
34.5
 30
0
 11
378.4306013164659
 21
32.25
 31
0
  0
LINE
  8
1
 62
2
 10
378.4306013164659
 20
32.25
 30
0
 11
376.7639346497992
 21
30.375
 31
0
  0
LINE
  8
1
 62
2
 10
379.4306013164659
 20
30.75
 30
0
 11
382.0972679831326
 21
27.75
 31
0
  0
LINE
  8
1
 62
2
 10
388.0972679831326
 20
30
 30
0
 11
388.7639346497992
 21
29.625
 31
0
  0
LINE
  8
1
 62
2
 10
388.7639346497992
 20
29.625
 30
0
 11
394.7639346497992
 21
29.625
 31
0
  0
LINE
  8
1
 62
2
 10
394.7639346497992
 20
29.625
 30
0
 11
395.4306013164659
 21
29.25
 31
0
  0
LINE
  8
1
 62
2
 10
662.8371214998
 20
329.0875227910613
 30
0
 11
661.7976214998
 21
326.6875227910613
 31
0
  0
LINE
  8
1
 62
2
 10
661.7976214998
 20
326.6875227910613
 30
0
 11
663.1836214998
 21
326.6875227910613
 31
0
  0
LINE
  8
1
 62
2
 10
662.8371214998
 20
327.2875227910613
 30
0
 11
662.8371214998
 21
326.0875227910613
 31
0
  0
LINE
  8
1
 62
2
 10
663.8766214998
 20
327.1375227910612
 30
0
 11
665.0316214997999
 21
327.1375227910612
 31
0
  0
LINE
  8
1
 62
2
 10
666.9062881333999
 20
327.7375227910612
 30
0
 11
666.9062881333999
 21
327.4375227910613
 31
0
  0
LINE
  8
1
 62
2
 10
666.9062881333999
 20
327.4375227910613
 30
0
 11
666.8485381334
 21
327.1375227910612
 31
0
  0
LINE
  8
1
 62
2
 10
666.8485381334
 20
327.1375227910612
 30
0
 11
666.6752881333999
 21
326.8375227910613
 31
0
  0
LINE
  8
1
 62
2
 10
666.6752881333999
 20
326.8375227910613
 30
0
 11
666.4442881333999
 21
326.6125227910612
 31
0
  0
LINE
  8
1
 62
2
 10
666.4442881333999
 20
326.6125227910612
 30
0
 11
666.2132881333999
 21
326.5375227910613
 31
0
  0
LINE
  8
1
 62
2
 10
666.2132881333999
 20
326.5375227910613
 30
0
 11
665.9822881334
 21
326.5375227910613
 31
0
  0
LINE
  8
1
 62
2
 10
665.9822881334
 20
326.5375227910613
 30
0
 11
665.7512881334
 21
326.6125227910612
 31
0
  0
LINE
  8
1
 62
2
 10
665.7512881334
 20
326.6125227910612
 30
0
 11
665.5202881334
 21
326.8375227910613
 31
0
  0
LINE
  8
1
 62
2
 10
665.5202881334
 20
326.8375227910613
 30
0
 11
665.3470381334
 21
327.1375227910612
 31
0
  0
LINE
  8
1
 62
2
 10
665.3470381334
 20
327.1375227910612
 30
0
 11
665.2892881334
 21
327.4375227910613
 31
0
  0
LINE
  8
1
 62
2
 10
665.2892881334
 20
327.4375227910613
 30
0
 11
665.2892881334
 21
327.7375227910612
 31
0
  0
LINE
  8
1
 62
2
 10
665.2892881334
 20
327.7375227910612
 30
0
 11
665.3470381334
 21
328.0375227910613
 31
0
  0
LINE
  8
1
 62
2
 10
665.3470381334
 20
328.0375227910613
 30
0
 11
665.5202881334
 21
328.3375227910613
 31
0
  0
LINE
  8
1
 62
2
 10
665.5202881334
 20
328.3375227910613
 30
0
 11
665.7512881334
 21
328.5625227910613
 31
0
  0
LINE
  8
1
 62
2
 10
665.7512881334
 20
328.5625227910613
 30
0
 11
665.9822881334
 21
328.6375227910612
 31
0
  0
LINE
  8
1
 62
2
 10
665.9822881334
 20
328.6375227910612
 30
0
 11
666.2132881333999
 21
328.6375227910612
 31
0
  0
LINE
  8
1
 62
2
 10
666.2132881333999
 20
328.6375227910612
 30
0
 11
666.4442881333999
 21
328.5625227910613
 31
0
  0
LINE
  8
1
 62
2
 10
666.4442881333999
 20
328.5625227910613
 30
0
 11
666.6752881333999
 21
328.3375227910613
 31
0
  0
LINE
  8
1
 62
2
 10
666.6752881333999
 20
328.3375227910613
 30
0
 11
666.8485381334
 21
328.0375227910613
 31
0
  0
LINE
  8
1
 62
2
 10
666.8485381334
 20
328.0375227910613
 30
0
 11
666.9062881333999
 21
327.7375227910612
 31
0
  0
LINE
  8
1
 62
2
 10
666.5597881333999
 20
329.0875227910613
 30
0
 11
665.6357881334
 21
326.0875227910613
 31
0
  0
LINE
  8
1
 62
2
 10
668.6015317363
 20
328.1875225582613
 30
0
 11
669.2945317363
 21
329.0875225582613
 31
0
  0
LINE
  8
1
 62
2
 10
669.2945317363
 20
329.0875225582613
 30
0
 11
669.2945317363
 21
326.0875225582613
 31
0
  0
LINE
  8
1
 62
2
 10
671.3157817363
 20
327.4375225582613
 30
0
 11
670.5072817363
 21
327.4375225582613
 31
0
  0
LINE
  8
1
 62
2
 10
670.5072817363
 20
327.4375225582613
 30
0
 11
670.3340317363
 21
327.5125225582613
 31
0
  0
LINE
  8
1
 62
2
 10
670.3340317363
 20
327.5125225582613
 30
0
 11
670.1607817363
 21
327.6625225582613
 31
0
  0
LINE
  8
1
 62
2
 10
670.1607817363
 20
327.6625225582613
 30
0
 11
670.0452817363
 21
327.8875225582613
 31
0
  0
LINE
  8
1
 62
2
 10
670.0452817363
 20
327.8875225582613
 30
0
 11
669.9875317363
 21
328.1875225582613
 31
0
  0
LINE
  8
1
 62
2
 10
669.9875317363
 20
328.1875225582613
 30
0
 11
669.9875317363
 21
328.3375225582613
 31
0
  0
LINE
  8
1
 62
2
 10
669.9875317363
 20
328.3375225582613
 30
0
 11
670.0452817363
 21
328.6375225582613
 31
0
  0
LINE
  8
1
 62
2
 10
670.0452817363
 20
328.6375225582613
 30
0
 11
670.1607817363
 21
328.8625225582613
 31
0
  0
LINE
  8
1
 62
2
 10
670.1607817363
 20
328.8625225582613
 30
0
 11
670.3340317363
 21
329.0125225582613
 31
0
  0
LINE
  8
1
 62
2
 10
670.3340317363
 20
329.0125225582613
 30
0
 11
670.5072817363
 21
329.0875225582613
 31
0
  0
LINE
  8
1
 62
2
 10
670.5072817363
 20
329.0875225582613
 30
0
 11
670.8537817363
 21
329.0875225582613
 31
0
  0
LINE
  8
1
 62
2
 10
670.8537817363
 20
329.0875225582613
 30
0
 11
671.0270317362999
 21
329.0125225582613
 31
0
  0
LINE
  8
1
 62
2
 10
671.0270317362999
 20
329.0125225582613
 30
0
 11
671.2002817363
 21
328.8625225582613
 31
0
  0
LINE
  8
1
 62
2
 10
671.2002817363
 20
328.8625225582613
 30
0
 11
671.3157817363
 21
328.6375225582613
 31
0
  0
LINE
  8
1
 62
2
 10
671.3157817363
 20
328.6375225582613
 30
0
 11
671.3735317362999
 21
328.3375225582613
 31
0
  0
LINE
  8
1
 62
2
 10
671.3735317362999
 20
328.3375225582613
 30
0
 11
671.3735317362999
 21
327.8125225582613
 31
0
  0
LINE
  8
1
 62
2
 10
671.3735317362999
 20
327.8125225582613
 30
0
 11
671.3157817363
 21
327.4375225582613
 31
0
  0
LINE
  8
1
 62
2
 10
671.3157817363
 20
327.4375225582613
 30
0
 11
671.2580317362999
 21
327.1375225582613
 31
0
  0
LINE
  8
1
 62
2
 10
671.2580317362999
 20
327.1375225582613
 30
0
 11
671.0847817363
 21
326.8375225582613
 31
0
  0
LINE
  8
1
 62
2
 10
671.0847817363
 20
326.8375225582613
 30
0
 11
670.6805317362999
 21
326.3875225582613
 31
0
  0
LINE
  8
1
 62
2
 10
670.6805317362999
 20
326.3875225582613
 30
0
 11
670.1607817363
 21
326.0875225582613
 31
0
  0
LINE
  8
1
 62
2
 10
674.0550563504471
 20
328.9875225582613
 30
0
 11
672.424468115153
 21
328.9875225582613
 31
0
  0
LINE
  8
1
 62
2
 10
672.424468115153
 20
328.9875225582613
 30
0
 11
672.424468115153
 21
326.0875225582613
 31
0
  0
LINE
  8
1
 62
2
 10
672.2206445857412
 20
326.0875225582613
 30
0
 11
672.424468115153
 21
326.0875225582613
 31
0
  0
LINE
  8
1
 62
2
 10
672.424468115153
 20
326.0875225582613
 30
0
 11
673.2397622328
 21
326.2875225582613
 31
0
  0
LINE
  8
1
 62
2
 10
672.424468115153
 20
328.4875225582613
 30
0
 11
673.9871151739765
 21
328.4875225582613
 31
0
  0
LINE
  8
1
 62
2
 10
672.424468115153
 20
327.9875225582613
 30
0
 11
673.9871151739765
 21
327.9875225582613
 31
0
  0
LINE
  8
1
 62
2
 10
672.1527034092707
 20
327.4875225582613
 30
0
 11
674.2588798798588
 21
327.4875225582613
 31
0
  0
LINE
  8
1
 62
2
 10
673.9871151739765
 20
327.1875225582613
 30
0
 11
673.4435857622118
 21
326.6875225582613
 31
0
  0
LINE
  8
1
 62
2
 10
672.9679975269177
 20
327.4875225582613
 30
0
 11
673.4435857622118
 21
326.6875225582613
 31
0
  0
LINE
  8
1
 62
2
 10
673.4435857622118
 20
326.6875225582613
 30
0
 11
674.1909387033883
 21
325.9875225582613
 31
0
  0
LINE
  8
1
 62
2
 10
674.9382916445647
 20
326.0875225582613
 30
0
 11
674.9382916445647
 21
328.9875225582613
 31
0
  0
LINE
  8
1
 62
2
 10
674.9382916445647
 20
328.9875225582613
 30
0
 11
676.8406445857412
 21
328.9875225582613
 31
0
  0
LINE
  8
1
 62
2
 10
676.8406445857412
 20
328.9875225582613
 30
0
 11
676.8406445857412
 21
326.0875225582613
 31
0
  0
LINE
  8
1
 62
2
 10
676.8406445857412
 20
326.0875225582613
 30
0
 11
676.2971151739765
 21
326.2875225582613
 31
0
  0
LINE
  8
1
 62
2
 10
675.889468115153
 20
328.9875225582613
 30
0
 11
675.889468115153
 21
327.3875225582613
 31
0
  0
LINE
  8
1
 62
2
 10
674.9382916445647
 20
327.3875225582613
 30
0
 11
676.8406445857412
 21
327.3875225582613
 31
0
  0
LINE
  8
1
 62
2
 10
214.5083749263706
 20
135.5202407433613
 30
0
 11
214.9839631616646
 21
136.2202407433613
 31
0
  0
LINE
  8
1
 62
2
 10
214.9839631616646
 20
136.2202407433613
 30
0
 11
215.3236690440176
 21
135.6202407433613
 31
0
  0
LINE
  8
1
 62
2
 10
214.5763161028413
 20
135.3202407433613
 30
0
 11
215.2557278675471
 21
135.3202407433613
 31
0
  0
LINE
  8
1
 62
2
 10
214.5083749263706
 20
134.7202407433613
 30
0
 11
215.3236690440176
 21
134.7202407433613
 31
0
  0
LINE
  8
1
 62
2
 10
214.9160219851941
 20
135.3202407433613
 30
0
 11
214.9160219851941
 21
133.4202407433613
 31
0
  0
LINE
  8
1
 62
2
 10
214.5763161028413
 20
134.4202407433613
 30
0
 11
214.7121984557824
 21
133.6202407433613
 31
0
  0
LINE
  8
1
 62
2
 10
215.3236690440176
 20
134.4202407433613
 30
0
 11
215.1877866910766
 21
133.7202407433613
 31
0
  0
LINE
  8
1
 62
2
 10
214.5083749263706
 20
133.3202407433613
 30
0
 11
215.3236690440176
 21
133.5202407433613
 31
0
  0
LINE
  8
1
 62
2
 10
215.4595513969588
 20
136.0202407433613
 30
0
 11
216.5466102204882
 21
136.0202407433613
 31
0
  0
LINE
  8
1
 62
2
 10
215.5274925734294
 20
135.6202407433613
 30
0
 11
216.4786690440176
 21
135.6202407433613
 31
0
  0
LINE
  8
1
 62
2
 10
215.3916102204883
 20
135.2202407433613
 30
0
 11
216.6145513969589
 21
135.2202407433613
 31
0
  0
LINE
  8
1
 62
2
 10
215.9351396322529
 20
136.3202407433613
 30
0
 11
215.8671984557824
 21
134.9202407433613
 31
0
  0
LINE
  8
1
 62
2
 10
215.8671984557824
 20
134.9202407433613
 30
0
 11
215.4595513969588
 21
133.6202407433613
 31
0
  0
LINE
  8
1
 62
2
 10
215.4595513969588
 20
134.5202407433613
 30
0
 11
216.6145513969589
 21
134.5202407433613
 31
0
  0
LINE
  8
1
 62
2
 10
216.4107278675472
 20
135.2202407433613
 30
0
 11
216.4107278675472
 21
133.3202407433613
 31
0
  0
LINE
  8
1
 62
2
 10
216.4107278675472
 20
133.3202407433613
 30
0
 11
215.8671984557824
 21
133.5202407433613
 31
0
  0
LINE
  8
1
 62
2
 10
215.9351396322529
 20
134.3202407433613
 30
0
 11
216.1389631616647
 21
133.6202407433613
 31
0
  0
LINE
  8
1
 62
2
 10
217.2939631616647
 20
136.2202407433613
 30
0
 11
217.6336690440176
 21
135.7202407433613
 31
0
  0
LINE
  8
1
 62
2
 10
217.2260219851942
 20
135.0202407433613
 30
0
 11
217.5657278675471
 21
135.0202407433613
 31
0
  0
LINE
  8
1
 62
2
 10
217.5657278675471
 20
135.0202407433613
 30
0
 11
217.5657278675471
 21
134.0202407433613
 31
0
  0
LINE
  8
1
 62
2
 10
217.5657278675471
 20
134.0202407433613
 30
0
 11
217.2260219851942
 21
133.3202407433613
 31
0
  0
LINE
  8
1
 62
2
 10
217.5657278675471
 20
134.0202407433613
 30
0
 11
218.1771984557825
 21
133.3202407433613
 31
0
  0
LINE
  8
1
 62
2
 10
218.1771984557825
 20
133.3202407433613
 30
0
 11
219.3321984557824
 21
133.3202407433613
 31
0
  0
LINE
  8
1
 62
2
 10
217.9733749263706
 20
136.2202407433613
 30
0
 11
217.9054337499
 21
135.8202407433613
 31
0
  0
LINE
  8
1
 62
2
 10
217.9054337499
 20
135.8202407433613
 30
0
 11
217.7016102204882
 21
135.4202407433613
 31
0
  0
LINE
  8
1
 62
2
 10
217.9054337499
 20
135.8202407433613
 30
0
 11
219.1963161028411
 21
135.8202407433613
 31
0
  0
LINE
  8
1
 62
2
 10
217.7016102204882
 20
135.1202407433613
 30
0
 11
219.2642572793118
 21
135.1202407433613
 31
0
  0
LINE
  8
1
 62
2
 10
218.5169043381353
 20
136.3202407433613
 30
0
 11
218.5169043381353
 21
135.1202407433613
 31
0
  0
LINE
  8
1
 62
2
 10
217.9733749263706
 20
134.7202407433613
 30
0
 11
219.0604337499
 21
134.7202407433613
 31
0
  0
LINE
  8
1
 62
2
 10
219.0604337499
 20
134.7202407433613
 30
0
 11
219.0604337499
 21
133.7202407433613
 31
0
  0
LINE
  8
1
 62
2
 10
219.0604337499
 20
133.7202407433613
 30
0
 11
217.9733749263706
 21
133.7202407433613
 31
0
  0
LINE
  8
1
 62
2
 10
217.9733749263706
 20
133.7202407433613
 30
0
 11
217.9733749263706
 21
134.7202407433613
 31
0
  0
LINE
  8
1
 62
2
 10
220.4871984557824
 20
136.4202407433613
 30
0
 11
220.3513161028412
 21
136.0202407433613
 31
0
  0
LINE
  8
1
 62
2
 10
220.3513161028412
 20
136.0202407433613
 30
0
 11
220.0116102204881
 21
135.4202407433613
 31
0
  0
LINE
  8
1
 62
2
 10
220.3513161028412
 20
136.0202407433613
 30
0
 11
222.0498455146059
 21
136.0202407433613
 31
0
  0
LINE
  8
1
 62
2
 10
221.9819043381353
 20
135.2202407433613
 30
0
 11
220.2833749263706
 21
135.2202407433613
 31
0
  0
LINE
  8
1
 62
2
 10
220.2833749263706
 20
135.2202407433613
 30
0
 11
220.2833749263706
 21
134.0202407433613
 31
0
  0
LINE
  8
1
 62
2
 10
219.8757278675471
 20
134.0202407433613
 30
0
 11
222.0498455146059
 21
134.0202407433613
 31
0
  0
LINE
  8
1
 62
2
 10
221.1666102204882
 20
136.0202407433613
 30
0
 11
221.1666102204882
 21
133.2202407433613
 31
0
  0
LINE
  8
1
 62
2
 10
223.001021985194
 20
135.8202407433613
 30
0
 11
223.9521984557823
 21
135.8202407433613
 31
0
  0
LINE
  8
1
 62
2
 10
223.4766102204882
 20
136.2202407433613
 30
0
 11
223.4766102204882
 21
133.7202407433613
 31
0
  0
LINE
  8
1
 62
2
 10
223.4766102204882
 20
133.7202407433613
 30
0
 11
223.2727866910765
 21
133.5202407433613
 31
0
  0
LINE
  8
1
 62
2
 10
223.2727866910765
 20
133.5202407433613
 30
0
 11
222.9330808087235
 21
133.7202407433613
 31
0
  0
LINE
  8
1
 62
2
 10
222.9330808087235
 20
133.7202407433613
 30
0
 11
222.865139632253
 21
134.2202407433613
 31
0
  0
LINE
  8
1
 62
2
 10
222.865139632253
 20
134.2202407433613
 30
0
 11
223.001021985194
 21
134.6202407433613
 31
0
  0
LINE
  8
1
 62
2
 10
223.001021985194
 20
134.6202407433613
 30
0
 11
223.1369043381353
 21
134.8202407433613
 31
0
  0
LINE
  8
1
 62
2
 10
223.1369043381353
 20
134.8202407433613
 30
0
 11
223.3407278675471
 21
135.0202407433613
 31
0
  0
LINE
  8
1
 62
2
 10
223.3407278675471
 20
135.0202407433613
 30
0
 11
223.5445513969588
 21
135.1202407433613
 31
0
  0
LINE
  8
1
 62
2
 10
223.5445513969588
 20
135.1202407433613
 30
0
 11
223.9521984557823
 21
135.2202407433613
 31
0
  0
LINE
  8
1
 62
2
 10
223.9521984557823
 20
135.2202407433613
 30
0
 11
224.2919043381353
 21
135.0202407433613
 31
0
  0
LINE
  8
1
 62
2
 10
224.2919043381353
 20
135.0202407433613
 30
0
 11
224.5636690440176
 21
134.6202407433613
 31
0
  0
LINE
  8
1
 62
2
 10
224.5636690440176
 20
134.6202407433613
 30
0
 11
224.4957278675471
 21
134.0202407433613
 31
0
  0
LINE
  8
1
 62
2
 10
224.4957278675471
 20
134.0202407433613
 30
0
 11
224.2239631616646
 21
133.6202407433613
 31
0
  0
LINE
  8
1
 62
2
 10
224.2239631616646
 20
133.6202407433613
 30
0
 11
223.8842572793118
 21
133.5202407433613
 31
0
  0
LINE
  8
1
 62
2
 10
224.3598455146059
 20
135.9202407433613
 30
0
 11
224.6995513969588
 21
135.3202407433613
 31
0
  0
LINE
  8
1
 62
2
 10
226.3980808087235
 20
135.5202407433613
 30
0
 11
227.2133749263705
 21
135.5202407433613
 31
0
  0
LINE
  8
1
 62
2
 10
226.3980808087235
 20
136.2202407433613
 30
0
 11
226.3980808087235
 21
134.0202407433613
 31
0
  0
LINE
  8
1
 62
2
 10
226.3980808087235
 20
134.0202407433613
 30
0
 11
226.2621984557823
 21
133.6202407433613
 31
0
  0
LINE
  8
1
 62
2
 10
226.2621984557823
 20
133.6202407433613
 30
0
 11
225.9904337499
 21
133.5202407433613
 31
0
  0
LINE
  8
1
 62
2
 10
225.9904337499
 20
133.5202407433613
 30
0
 11
225.7186690440176
 21
133.6202407433613
 31
0
  0
LINE
  8
1
 62
2
 10
225.7186690440176
 20
133.6202407433613
 30
0
 11
225.5827866910765
 21
134.0202407433613
 31
0
  0
LINE
  8
1
 62
2
 10
225.5827866910765
 20
134.0202407433613
 30
0
 11
225.7186690440176
 21
134.4202407433613
 31
0
  0
LINE
  8
1
 62
2
 10
225.7186690440176
 20
134.4202407433613
 30
0
 11
225.9904337499
 21
134.5202407433613
 31
0
  0
LINE
  8
1
 62
2
 10
225.9904337499
 20
134.5202407433613
 30
0
 11
226.3980808087235
 21
134.4202407433613
 31
0
  0
LINE
  8
1
 62
2
 10
226.3980808087235
 20
134.4202407433613
 30
0
 11
226.8736690440177
 21
134.2202407433613
 31
0
  0
LINE
  8
1
 62
2
 10
226.8736690440177
 20
134.2202407433613
 30
0
 11
227.2813161028412
 21
133.8202407433613
 31
0
  0
LINE
  8
1
 62
2
 10
228.3683749263706
 20
135.9202407433613
 30
0
 11
228.9798455146059
 21
135.9202407433613
 31
0
  0
LINE
  8
1
 62
2
 10
228.9798455146059
 20
135.9202407433613
 30
0
 11
228.7080808087235
 21
135.5202407433613
 31
0
  0
LINE
  8
1
 62
2
 10
228.7080808087235
 20
135.5202407433613
 30
0
 11
228.5042572793118
 21
135.0202407433613
 31
0
  0
LINE
  8
1
 62
2
 10
228.5042572793118
 20
135.0202407433613
 30
0
 11
228.3683749263706
 21
134.4202407433613
 31
0
  0
LINE
  8
1
 62
2
 10
228.3683749263706
 20
134.4202407433613
 30
0
 11
228.5042572793118
 21
133.8202407433613
 31
0
  0
LINE
  8
1
 62
2
 10
228.5042572793118
 20
133.8202407433613
 30
0
 11
228.8439631616648
 21
133.6202407433613
 31
0
  0
LINE
  8
1
 62
2
 10
228.8439631616648
 20
133.6202407433613
 30
0
 11
229.2516102204882
 21
133.8202407433613
 31
0
  0
LINE
  8
1
 62
2
 10
229.2516102204882
 20
133.8202407433613
 30
0
 11
229.5233749263706
 21
134.1202407433613
 31
0
  0
LINE
  8
1
 62
2
 10
229.5233749263706
 20
134.1202407433613
 30
0
 11
229.6592572793118
 21
134.5202407433613
 31
0
  0
LINE
  8
1
 62
2
 10
229.6592572793118
 20
134.5202407433613
 30
0
 11
229.7271984557823
 21
135.0202407433613
 31
0
  0
LINE
  8
1
 62
2
 10
229.7271984557823
 20
135.0202407433613
 30
0
 11
229.6592572793118
 21
135.4202407433613
 31
0
  0
LINE
  8
1
 62
2
 10
229.6592572793118
 20
135.4202407433613
 30
0
 11
229.5913161028412
 21
135.9202407433613
 31
0
  0
LINE
  8
1
 62
2
 10
229.5913161028412
 20
135.9202407433613
 30
0
 11
229.9989631616647
 21
134.8202407433613
 31
0
  0
LINE
  8
1
 62
2
 10
229.7271984557823
 20
136.4202407433613
 30
0
 11
229.8630808087235
 21
136.0202407433613
 31
0
  0
LINE
  8
1
 62
2
 10
230.0669043381353
 20
136.4202407433613
 30
0
 11
230.2027866910765
 21
136.0202407433613
 31
0
  0
LINE
  8
1
 62
2
 10
230.8142572793117
 20
135.8202407433613
 30
0
 11
231.6295513969587
 21
135.8202407433613
 31
0
  0
LINE
  8
1
 62
2
 10
231.2219043381354
 20
136.3202407433613
 30
0
 11
231.2219043381354
 21
133.3202407433613
 31
0
  0
LINE
  8
1
 62
2
 10
231.2219043381354
 20
135.8202407433613
 30
0
 11
230.8142572793117
 21
134.3202407433613
 31
0
  0
LINE
  8
1
 62
2
 10
231.2219043381354
 20
135.8202407433613
 30
0
 11
231.6295513969587
 21
134.6202407433613
 31
0
  0
LINE
  8
1
 62
2
 10
231.7654337499
 20
135.8202407433613
 30
0
 11
232.8524925734293
 21
135.8202407433613
 31
0
  0
LINE
  8
1
 62
2
 10
232.5807278675471
 20
136.3202407433613
 30
0
 11
232.5807278675471
 21
133.3202407433613
 31
0
  0
LINE
  8
1
 62
2
 10
232.5807278675471
 20
133.3202407433613
 30
0
 11
231.9692572793118
 21
133.7202407433613
 31
0
  0
LINE
  8
1
 62
2
 10
232.5807278675471
 20
135.8202407433613
 30
0
 11
231.6295513969587
 21
134.0202407433613
 31
0
  0
LINE
  8
1
 62
2
 10
233.5998455146059
 20
136.1202407433613
 30
0
 11
233.7357278675471
 21
135.2202407433613
 31
0
  0
LINE
  8
1
 62
2
 10
234.4151396322529
 20
136.1202407433613
 30
0
 11
234.1433749263706
 21
135.3202407433613
 31
0
  0
LINE
  8
1
 62
2
 10
233.5319043381353
 20
135.0202407433613
 30
0
 11
234.4151396322529
 21
135.0202407433613
 31
0
  0
LINE
  8
1
 62
2
 10
233.9395513969588
 20
136.3202407433613
 30
0
 11
233.9395513969588
 21
133.3202407433613
 31
0
  0
LINE
  8
1
 62
2
 10
233.9395513969588
 20
135.0202407433613
 30
0
 11
233.5319043381353
 21
133.8202407433613
 31
0
  0
LINE
  8
1
 62
2
 10
233.9395513969588
 20
135.0202407433613
 30
0
 11
234.4151396322529
 21
134.1202407433613
 31
0
  0
LINE
  8
1
 62
2
 10
234.6189631616647
 20
136.1202407433613
 30
0
 11
235.1624925734294
 21
135.4202407433613
 31
0
  0
LINE
  8
1
 62
2
 10
234.5510219851941
 20
135.2202407433613
 30
0
 11
235.1624925734294
 21
134.4202407433613
 31
0
  0
LINE
  8
1
 62
2
 10
234.4830808087236
 20
133.8202407433613
 30
0
 11
235.5701396322529
 21
134.1202407433613
 31
0
  0
LINE
  8
1
 62
2
 10
235.3663161028412
 20
136.2202407433613
 30
0
 11
235.3663161028412
 21
133.3202407433613
 31
0
  0
LINE
  8
1
 62
2
 10
236.3854337499
 20
136.2202407433613
 30
0
 11
236.9969043381353
 21
136.2202407433613
 31
0
  0
LINE
  8
1
 62
2
 10
236.2495513969589
 20
135.7202407433613
 30
0
 11
237.1327866910765
 21
135.7202407433613
 31
0
  0
LINE
  8
1
 62
2
 10
236.3854337499
 20
135.2202407433613
 30
0
 11
236.9969043381353
 21
135.2202407433613
 31
0
  0
LINE
  8
1
 62
2
 10
236.3854337499
 20
134.7202407433613
 30
0
 11
236.9969043381353
 21
134.7202407433613
 31
0
  0
LINE
  8
1
 62
2
 10
236.3174925734294
 20
134.3202407433613
 30
0
 11
237.0648455146059
 21
134.3202407433613
 31
0
  0
LINE
  8
1
 62
2
 10
237.0648455146059
 20
134.3202407433613
 30
0
 11
237.0648455146059
 21
133.3202407433613
 31
0
  0
LINE
  8
1
 62
2
 10
237.0648455146059
 20
133.3202407433613
 30
0
 11
236.3174925734294
 21
133.3202407433613
 31
0
  0
LINE
  8
1
 62
2
 10
236.3174925734294
 20
133.3202407433613
 30
0
 11
236.3174925734294
 21
134.3202407433613
 31
0
  0
LINE
  8
1
 62
2
 10
237.2007278675471
 20
136.2202407433613
 30
0
 11
238.1519043381353
 21
136.2202407433613
 31
0
  0
LINE
  8
1
 62
2
 10
238.1519043381353
 20
136.2202407433613
 30
0
 11
238.1519043381353
 21
135.0202407433613
 31
0
  0
LINE
  8
1
 62
2
 10
238.1519043381353
 20
135.0202407433613
 30
0
 11
237.2686690440178
 21
135.0202407433613
 31
0
  0
LINE
  8
1
 62
2
 10
237.2686690440178
 20
135.0202407433613
 30
0
 11
237.2686690440178
 21
133.3202407433613
 31
0
  0
LINE
  8
1
 62
2
 10
237.2686690440178
 20
133.3202407433613
 30
0
 11
238.2877866910765
 21
133.3202407433613
 31
0
  0
LINE
  8
1
 62
2
 10
238.2877866910765
 20
133.3202407433613
 30
0
 11
238.2877866910765
 21
134.0202407433613
 31
0
  0
LINE
  8
1
 62
2
 10
239.2389631616647
 20
136.2202407433613
 30
0
 11
240.8016102204882
 21
136.2202407433613
 31
0
  0
LINE
  8
1
 62
2
 10
240.8016102204882
 20
136.2202407433613
 30
0
 11
240.8016102204882
 21
135.3202407433613
 31
0
  0
LINE
  8
1
 62
2
 10
240.8016102204882
 20
135.3202407433613
 30
0
 11
239.2389631616647
 21
135.3202407433613
 31
0
  0
LINE
  8
1
 62
2
 10
239.2389631616647
 20
135.3202407433613
 30
0
 11
239.2389631616647
 21
136.2202407433613
 31
0
  0
LINE
  8
1
 62
2
 10
238.9671984557824
 20
135.0202407433613
 30
0
 11
241.0054337499
 21
135.0202407433613
 31
0
  0
LINE
  8
1
 62
2
 10
239.6466102204882
 20
135.0202407433613
 30
0
 11
239.5107278675471
 21
134.3202407433613
 31
0
  0
LINE
  8
1
 62
2
 10
239.5107278675471
 20
134.3202407433613
 30
0
 11
240.8016102204882
 21
134.3202407433613
 31
0
  0
LINE
  8
1
 62
2
 10
240.8016102204882
 20
134.3202407433613
 30
0
 11
240.7336690440177
 21
133.6202407433613
 31
0
  0
LINE
  8
1
 62
2
 10
240.7336690440177
 20
133.6202407433613
 30
0
 11
240.2580808087234
 21
133.2202407433613
 31
0
  0
LINE
  8
1
 62
2
 10
240.2580808087234
 20
133.2202407433613
 30
0
 11
239.2389631616647
 21
133.5202407433613
 31
0
  0
LINE
  8
1
 62
2
 10
242.8398455146059
 20
135.9202407433613
 30
0
 11
242.6360219851941
 21
135.4202407433613
 31
0
  0
LINE
  8
1
 62
2
 10
242.6360219851941
 20
135.4202407433613
 30
0
 11
242.5680808087235
 21
134.8202407433613
 31
0
  0
LINE
  8
1
 62
2
 10
242.5680808087235
 20
134.8202407433613
 30
0
 11
242.6360219851941
 21
134.2202407433613
 31
0
  0
LINE
  8
1
 62
2
 10
242.6360219851941
 20
134.2202407433613
 30
0
 11
242.8398455146059
 21
133.7202407433613
 31
0
  0
LINE
  8
1
 62
2
 10
245.9515513969589
 20
135.4202407433613
 30
0
 11
245.9515513969589
 21
134.2202407433613
 31
0
  0
LINE
  8
1
 62
2
 10
245.9515513969589
 20
134.2202407433613
 30
0
 11
245.8938013969588
 21
133.9202407433613
 31
0
  0
LINE
  8
1
 62
2
 10
245.8938013969588
 20
133.9202407433613
 30
0
 11
245.7783013969588
 21
133.6952407433613
 31
0
  0
LINE
  8
1
 62
2
 10
245.7783013969588
 20
133.6952407433613
 30
0
 11
245.6628013969588
 21
133.5452407433613
 31
0
  0
LINE
  8
1
 62
2
 10
245.6628013969588
 20
133.5452407433613
 30
0
 11
245.4895513969589
 21
133.3952407433613
 31
0
  0
LINE
  8
1
 62
2
 10
245.4895513969589
 20
133.3952407433613
 30
0
 11
245.2585513969589
 21
133.3202407433613
 31
0
  0
LINE
  8
1
 62
2
 10
245.2585513969589
 20
133.3202407433613
 30
0
 11
244.3345513969588
 21
133.3202407433613
 31
0
  0
LINE
  8
1
 62
2
 10
244.3345513969588
 20
133.3202407433613
 30
0
 11
244.3345513969588
 21
136.3202407433613
 31
0
  0
LINE
  8
1
 62
2
 10
244.3345513969588
 20
136.3202407433613
 30
0
 11
245.2585513969589
 21
136.3202407433613
 31
0
  0
LINE
  8
1
 62
2
 10
245.2585513969589
 20
136.3202407433613
 30
0
 11
245.4895513969589
 21
136.2452407433613
 31
0
  0
LINE
  8
1
 62
2
 10
245.4895513969589
 20
136.2452407433613
 30
0
 11
245.6628013969588
 21
136.0952407433613
 31
0
  0
LINE
  8
1
 62
2
 10
245.6628013969588
 20
136.0952407433613
 30
0
 11
245.7783013969588
 21
135.9452407433613
 31
0
  0
LINE
  8
1
 62
2
 10
245.7783013969588
 20
135.9452407433613
 30
0
 11
245.8938013969588
 21
135.7202407433613
 31
0
  0
LINE
  8
1
 62
2
 10
245.8938013969588
 20
135.7202407433613
 30
0
 11
245.9515513969589
 21
135.4202407433613
 31
0
  0
LINE
  8
1
 62
2
 10
246.6445513969588
 20
136.3202407433613
 30
0
 11
246.8755513969588
 21
135.7202407433613
 31
0
  0
LINE
  8
1
 62
2
 10
246.8755513969588
 20
135.7202407433613
 30
0
 11
246.9910513969588
 21
135.1202407433613
 31
0
  0
LINE
  8
1
 62
2
 10
246.9910513969588
 20
135.1202407433613
 30
0
 11
246.9910513969588
 21
134.5202407433613
 31
0
  0
LINE
  8
1
 62
2
 10
246.9910513969588
 20
134.5202407433613
 30
0
 11
246.8755513969588
 21
133.9202407433613
 31
0
  0
LINE
  8
1
 62
2
 10
246.8755513969588
 20
133.9202407433613
 30
0
 11
246.6445513969588
 21
133.3202407433613
 31
0
  0
ARC
  8
0
 62
7
 10
178.6827787739037
 20
521.0134293808471
 30
0
 40
42.09869066202903
 50
260.1647068341993
 51
264.9208860772996
  0
ARC
  8
0
 62
7
 10
265.4820095744271
 20
366.787563676383
 30
0
 40
1.999999980134021
 50
0
 51
54.96834947097319
  0
ARC
  8
0
 62
7
 10
103.4820111835727
 20
366.787563676383
 30
0
 40
1.999999980134124
 50
125.0316505289901
 51
180
  0
ARC
  8
0
 62
7
 10
218.932019124308
 20
185.5375745645398
 30
0
 40
36.54999054934479
 50
297.0212171653005
 51
356.0577115702994
  0
ARC
  8
0
 62
7
 10
184.482010379
 20
268.0875646567703
 30
0
 40
125.9999987484424
 50
271.1777465194998
 51
285.8870382585001
  0
ARC
  8
0
 62
7
 10
260.3835512737692
 20
182.6788754710343
 30
0
 40
5.00000015574518
 50
62.50256783489781
 51
176.0669384766887
  0
ARC
  8
0
 62
7
 10
122.4479223073838
 20
337.3097149876868
 30
0
 40
5.223381115461693
 50
271.2425753083052
 51
303.141769405198
  0
ARC
  8
0
 62
7
 10
105.9934381570263
 20
337.3097149876868
 30
0
 40
5.223381115462714
 50
271.2425753083039
 51
303.1417694052066
  0
ARC
  8
0
 62
7
 10
184.352576137486
 20
351.0756539309497
 30
0
 40
18.98853290304385
 50
270.3905564066973
 51
287.1974714474982
  0
ARC
  8
0
 62
7
 10
176.1414967988469
 20
337.3097094829874
 30
0
 40
5.223375648666724
 50
271.2425951628993
 51
303.1417880103863
  0
ARC
  8
0
 62
7
 10
254.500627885305
 20
351.0756882842489
 30
0
 40
18.98856729527487
 50
270.390573173997
 51
287.1974561502016
  0
ARC
  8
0
 62
7
 10
262.7440324288232
 20
337.3097179717871
 30
0
 40
5.223384287173146
 50
271.2426698055973
 51
303.1417628162022
  0
ARC
  8
0
 62
7
 10
184.6114621894137
 20
364.7992004953331
 30
0
 40
18.98880586873198
 50
90.39060380659856
 51
107.1972720249989
  0
ARC
  8
0
 62
7
 10
192.8225326570531
 20
378.5653512784949
 30
0
 40
5.223442338568166
 50
91.24267472640041
 51
123.1414243237986
  0
ARC
  8
0
 62
7
 10
262.970591298573
 20
378.5653457737946
 30
0
 40
5.223447805442467
 50
91.24265487190402
 51
123.1414057186971
  0
ARC
  8
0
 62
7
 10
246.5161071485152
 20
378.5653457737946
 30
0
 40
5.22344780544332
 50
91.24265487190445
 51
123.1414057186924
  0
ARC
  8
0
 62
7
 10
114.4634104418944
 20
364.7991661408343
 30
0
 40
18.98884026194033
 50
90.39062057379921
 51
107.1972567275979
  0
ARC
  8
0
 62
7
 10
106.2199970270769
 20
378.5653427893941
 30
0
 40
5.223450977415237
 50
91.24274936891005
 51
123.1413991294051
  0
ARC
  8
0
 62
7
 10
237.2102953664501
 20
385.5214411362996
 30
0
 40
1.416553920042759
 50
17.11015083581601
 51
88.59017009469653
  0
ARC
  8
0
 62
7
 10
133.9989588417477
 20
375.7839298055225
 30
0
 40
11.27955289662039
 50
98.56915071759568
 51
121.1458848455972
  0
ARC
  8
0
 62
7
 10
125.9820109600803
 20
379.9375635459647
 30
0
 40
3.99999996026806
 50
311.4096221092847
 51
0
  0
ARC
  8
0
 62
7
 10
125.9820109600803
 20
379.9375635459647
 30
0
 40
1.599999984106901
 50
0
 51
115.0874855615111
  0
ARC
  8
0
 62
7
 10
125.9820109600803
 20
379.9375635459647
 30
0
 40
1.599999984108022
 50
244.9125144385047
 51
0
  0
ARC
  8
0
 62
7
 10
124.48202182718
 20
388.9375570386675
 30
0
 40
2.500010827594297
 50
90.00021798172482
 51
179.9996966409048
  0
ARC
  8
0
 62
7
 10
135.4297821332355
 20
388.9375634565678
 30
0
 40
2.499999975167981
 50
0
 51
90
  0
ARC
  8
0
 62
7
 10
237.0702835501411
 20
386.2391043286708
 30
0
 40
1.935526010123859
 50
350.9519455537973
 51
21.15327480210058
  0
ARC
  8
0
 62
7
 10
247.4820097532211
 20
385.9375634863665
 30
0
 40
0.9999999900681189
 50
0
 51
90
  0
ARC
  8
0
 62
7
 10
170.4820105179613
 20
370.7875636368509
 30
0
 40
1.999999980133907
 50
270
 51
0
  0
ARC
  8
0
 62
7
 10
198.4820102397381
 20
370.7875636368509
 30
0
 40
1.999999980132998
 50
180
 51
270
  0
ARC
  8
0
 62
7
 10
132.2353616101657
 20
377.9256066956488
 30
0
 40
2.012027072791115
 50
89.53331898370749
 51
179.6595227502895
  0
ARC
  8
0
 62
7
 10
125.6692771742871
 20
368.8340096084559
 30
0
 40
5.086133338525262
 50
103.1109998816082
 51
126.9287702501978
  0
ARC
  8
0
 62
7
 10
243.3104990927561
 20
368.8677668144202
 30
0
 40
5.049687999387131
 50
52.98400568989894
 51
76.97622417839585
  0
ARC
  8
0
 62
7
 10
198.9601033956891
 20
270.3285466090104
 30
0
 40
1.62723131707359
 50
357.0531112965192
 51
36.28045788241042
  0
ARC
  8
0
 62
7
 10
199.4033863669861
 20
269.9881425154919
 30
0
 40
1.566154964144734
 50
56.32176797020105
 51
92.26109922873748
  0
ARC
  8
0
 62
7
 10
199.4097804493221
 20
269.6027703073197
 30
0
 40
1.95149930373047
 50
92.00228711539261
 51
129.1096926882996
  0
ARC
  8
0
 62
7
 10
199.560462511625
 20
269.3988376725448
 30
0
 40
2.204821204370211
 50
128.8050776327928
 51
185.2174873345852
  0
ARC
  8
0
 62
7
 10
193.0312780585791
 20
270.4508042139961
 30
0
 40
1.859806711794543
 50
356.3405822672901
 51
26.87224003258039
  0
ARC
  8
0
 62
7
 10
193.8973504355771
 20
270.2216323124724
 30
0
 40
1.331612611983824
 50
53.45542047609434
 51
90.90697570030628
  0
ARC
  8
0
 62
7
 10
193.8711121775381
 20
269.4741381793976
 30
0
 40
2.078946314801944
 50
89.85778761168879
 51
127.7915423889015
  0
ARC
  8
0
 62
7
 10
193.978804758667
 20
269.3988591807448
 30
0
 40
2.204772672813653
 50
128.804401206673
 51
185.2181637606904
  0
ARC
  8
0
 62
7
 10
194.749220482715
 20
269.5030428854099
 30
0
 40
3.707517226538157
 50
89.11415728539667
 51
143.131060306586
  0
ARC
  8
0
 62
7
 10
195.022476905601
 20
270.8134492341943
 30
0
 40
2.406375964624237
 50
22.32419823490481
 51
95.14838855580337
  0
ARC
  8
0
 62
7
 10
200.2145448476291
 20
269.5030421060102
 30
0
 40
3.707517999988943
 50
89.11416337791462
 51
143.1310542140033
  0
ARC
  8
0
 62
7
 10
200.4632094598591
 20
269.5276400789664
 30
0
 40
3.687444848033827
 50
58.95317605630424
 51
92.97448097210024
  0
ARC
  8
0
 62
7
 10
201.1510987097261
 20
271.2003382786509
 30
0
 40
1.919159796064164
 50
354.9020205901254
 51
50.76522442153064
  0
ARC
  8
0
 62
7
 10
169.7297344125343
 20
266.800582258554
 30
0
 40
3.612781987580904
 50
271.0117228647999
 51
308.8926292202924
  0
ARC
  8
0
 62
7
 10
168.6407696706503
 20
267.5976260162371
 30
0
 40
4.929099475627182
 50
312.9310419419017
 51
4.567952191998606
  0
ARC
  8
0
 62
7
 10
169.1464536616279
 20
268.437190569298
 30
0
 40
4.430366656915828
 50
354.2092572050931
 51
45.39682712739853
  0
ARC
  8
0
 62
7
 10
170.4949928813328
 20
269.3065298031626
 30
0
 40
2.885741122220494
 50
52.35713631789588
 51
91.05382129820373
  0
ARC
  8
0
 62
7
 10
170.4021742289549
 20
267.8464855840649
 30
0
 40
4.34547901224883
 50
89.47594619759767
 51
148.9013064230013
  0
ARC
  8
0
 62
7
 10
170.8806832086013
 20
267.6378757675367
 30
0
 40
6.258066270067108
 50
88.08036745009622
 51
130.5660678097923
  0
ARC
  8
0
 62
7
 10
171.1923571055061
 20
268.4895663363769
 30
0
 40
5.40382721015306
 50
52.76726502909928
 51
91.08201203310225
  0
ARC
  8
0
 62
7
 10
170.1170319195874
 20
267.7500228785231
 30
0
 40
6.424285537978525
 50
308.008049324894
 51
2.142425918496438
  0
ARC
  8
0
 62
7
 10
169.834570327693
 20
268.4284306878847
 30
0
 40
7.135421610774348
 50
268.6289924894004
 51
306.4405530026983
  0
ARC
  8
0
 62
7
 10
169.2980534026217
 20
268.2545164497125
 30
0
 40
6.969071160590878
 50
235.8356558789041
 51
273.0087234257
  0
ARC
  8
0
 62
7
 10
168.8536606005362
 20
266.8126630526341
 30
0
 40
5.544127808069303
 50
180.23700113681
 51
231.263001391801
  0
ARC
  8
0
 62
7
 10
169.8716634949244
 20
266.5556747010861
 30
0
 40
3.587112821191217
 50
176.2588517168941
 51
230.4793805290853
  0
ARC
  8
0
 62
7
 10
169.5591610367289
 20
266.6761609116894
 30
0
 40
3.495662657965166
 50
235.6944270149913
 51
273.8442378933915
  0
ARC
  8
0
 62
7
 10
170.7078626246187
 20
268.3206818825548
 30
0
 40
5.838326012692233
 50
356.7548691867959
 51
49.98336083959758
  0
ARC
  8
0
 62
7
 10
290.510767784416
 20
316.9391542638269
 30
0
 40
30.02910690464516
 50
184.4269300223999
 51
209.5727859232993
  0
ARC
  8
0
 62
7
 10
217.5672498555641
 20
270.3290823868057
 30
0
 40
1.625471740348221
 50
357.0310077690054
 51
36.30256140988944
  0
ARC
  8
0
 62
7
 10
218.0284635239821
 20
270.0582597840959
 30
0
 40
1.497039033786471
 50
55.46169123016205
 51
93.12120586884016
  0
ARC
  8
0
 62
7
 10
218.011889425348
 20
269.6114314722337
 30
0
 40
1.942732209169191
 50
91.91551033343474
 51
129.1964996436133
  0
ARC
  8
0
 62
7
 10
218.166262571214
 20
269.3986507107476
 30
0
 40
2.205244658935599
 50
128.8110071694048
 51
185.2116049365046
  0
ARC
  8
0
 62
7
 10
211.6371450295681
 20
270.4509087948948
 30
0
 40
1.859305241408334
 50
356.3363646238171
 51
26.87645767610845
  0
ARC
  8
0
 62
7
 10
212.5002277547941
 20
270.2139152088486
 30
0
 40
1.339292000685877
 50
53.56675056961684
 51
90.7956074105584
  0
ARC
  8
0
 62
7
 10
212.479292782103
 20
269.4658578848795
 30
0
 40
2.087221514997184
 50
89.9358145677873
 51
127.7134899508903
  0
ARC
  8
0
 62
7
 10
212.5844874099581
 20
269.3987224233462
 30
0
 40
2.205082836062084
 50
128.8087525634004
 51
185.2138595425016
  0
ARC
  8
0
 62
7
 10
213.362264359332
 20
269.4873711408665
 30
0
 40
3.723076708952993
 50
89.23615601069638
 51
143.0090755355973
  0
ARC
  8
0
 62
7
 10
213.6299201950731
 20
270.8168869839602
 30
0
 40
2.403140411833946
 50
22.26728231638706
 51
95.20526569927905
  0
ARC
  8
0
 62
7
 10
218.819303225627
 20
269.5042606597982
 30
0
 40
3.706308895700637
 50
89.10462146238753
 51
143.1405821752004
  0
ARC
  8
0
 62
7
 10
219.0757217364801
 20
269.5562619326812
 30
0
 40
3.659243037475239
 50
58.81803315870791
 51
93.10962386969322
  0
ARC
  8
0
 62
7
 10
219.7574732720082
 20
271.2007646401472
 30
0
 40
1.918185921329094
 50
354.8866393728966
 51
50.78071505139523
  0
ARC
  8
0
 62
7
 10
152.5916344057666
 20
268.2684883240728
 30
0
 40
3.91061355376077
 50
127.0040033967976
 51
181.1461935881003
  0
ARC
  8
0
 62
7
 10
153.9695385494799
 20
267.7058182803622
 30
0
 40
5.309880391732729
 50
174.7653719455024
 51
229.1622384573967
  0
ARC
  8
0
 62
7
 10
152.2681036575807
 20
265.9988875388173
 30
0
 40
2.910906320793239
 50
232.5309749995999
 51
270.8800001361915
  0
ARC
  8
0
 62
7
 10
152.2853381264092
 20
266.2164122335563
 30
0
 40
3.128208320039972
 50
270.5031810517903
 51
309.0946027419984
  0
ARC
  8
0
 62
7
 10
150.1948497095743
 20
267.1446378533357
 30
0
 40
5.269933036313853
 50
320.4442282821068
 51
7.035372542605896
  0
ARC
  8
0
 62
7
 10
151.1312747540726
 20
268.3636354618276
 30
0
 40
4.331962660215662
 50
352.3920542099114
 51
46.22377407640597
  0
ARC
  8
0
 62
7
 10
152.3630417505367
 20
269.1978851147417
 30
0
 40
2.894294697366537
 50
52.41664220068853
 51
90.99443891768885
  0
ARC
  8
0
 62
7
 10
152.2680636009816
 20
268.8003267938905
 30
0
 40
3.291721242189785
 50
89.22111530792078
 51
128.0779575826134
  0
ARC
  8
0
 62
7
 10
152.9125316420793
 20
275.9957553146179
 30
0
 40
2.898982107680146
 50
89.03798065100666
 51
127.5509382306963
  0
ARC
  8
0
 62
7
 10
157.9619773991233
 20
271.6201346578811
 30
0
 40
9.539575315968769
 50
135.6043981562033
 51
180.1716544460004
  0
ARC
  8
0
 62
7
 10
152.9484452510226
 20
268.2934657781253
 30
0
 40
5.600184826831389
 50
91.19628269630265
 51
143.919238441403
  0
ARC
  8
0
 62
7
 10
152.8727910540745
 20
268.3064509050957
 30
0
 40
5.586131491874306
 50
51.72746208720716
 51
90.42323972949771
  0
ARC
  8
0
 62
7
 10
152.4320173670524
 20
268.150769960842
 30
0
 40
5.986574935413572
 50
356.5461386045001
 51
49.33781977110331
  0
ARC
  8
0
 62
7
 10
151.9755995921857
 20
267.3552178793444
 30
0
 40
6.446804247631977
 50
310.9775549428959
 51
3.868030322400223
  0
ARC
  8
0
 62
7
 10
152.4454227325193
 20
267.780676285419
 30
0
 40
6.49092607522433
 50
267.6841216347951
 51
305.3749173892903
  0
ARC
  8
0
 62
7
 10
152.1698367868564
 20
267.7534499716886
 30
0
 40
6.458411887037166
 50
231.6551971060021
 51
270.1179561916999
  0
ARC
  8
0
 62
7
 10
155.9319510467878
 20
271.5140686098349
 30
0
 40
10.51699107863955
 50
129.7957921556017
 51
183.9409648945025
  0
ARC
  8
0
 62
7
 10
152.8940344189625
 20
274.5289239654877
 30
0
 40
6.269217439512479
 50
88.20063804229963
 51
126.0968088814928
  0
ARC
  8
0
 62
7
 10
153.2771603894578
 20
275.6095295317547
 30
0
 40
5.188865200334974
 50
55.67384685760892
 51
92.05730102149533
  0
ARC
  8
0
 62
7
 10
152.5333297663453
 20
276.4952040873569
 30
0
 40
2.640144115685407
 50
355.6149642002183
 51
49.21317424728272
  0
ARC
  8
0
 62
7
 10
153.0305853546067
 20
276.8178159460523
 30
0
 40
2.077671610538131
 50
53.78890093872502
 51
91.91366759532015
  0
ARC
  8
0
 62
7
 10
153.2715283554137
 20
275.9852517057226
 30
0
 40
4.886553730144509
 50
3.6148190115952
 51
53.13425279610518
  0
ARC
  8
0
 62
7
 10
165.6016551014375
 20
238.2818662339297
 30
0
 40
95.95914065643142
 50
260.4650239405003
 51
266.4724348256001
  0
ARC
  8
0
 62
7
 10
175.5249301062717
 20
398.3000246718704
 30
0
 40
256.2903753094515
 50
267.0713217951996
 51
271.4240957817998
  0
ARC
  8
0
 62
7
 10
169.3897395676111
 20
268.1791644550605
 30
0
 40
126.0703770744299
 50
253.6724679002999
 51
261.0177739322999
  0
ARC
  8
0
 62
7
 10
169.4859721860555
 20
268.0976238921704
 30
0
 40
126.0106865071851
 50
231.5701528579
 51
253.6185355014
  0
ARC
  8
0
 62
7
 10
187.3950737565644
 20
187.2410798137181
 30
0
 40
3.481797676795678
 50
326.9940237753908
 51
6.624765804397426
  0
ARC
  8
0
 62
7
 10
187.6196998520334
 20
188.1134919319531
 30
0
 40
3.268003641246341
 50
351.7182021559851
 51
35.53579207430353
  0
ARC
  8
0
 62
7
 10
187.7799194197417
 20
188.0561345947227
 30
0
 40
3.992935785327788
 50
354.0577613583916
 51
38.02213897839359
  0
ARC
  8
0
 62
7
 10
183.087603176951
 20
191.4563057096485
 30
0
 40
1.313855397188875
 50
261.6025397656658
 51
347.0579780761677
  0
ARC
  8
0
 62
7
 10
177.5716616884408
 20
191.4563060276488
 30
0
 40
1.313855710579806
 50
261.6025421521658
 51
347.0579669866766
  0
ARC
  8
0
 62
7
 10
288.4828565451592
 20
291.3804690016015
 30
0
 40
4.999151237097848
 50
253.8386384629011
 51
359.9618395085042
  0
ARC
  8
0
 62
7
 10
64.47637009081495
 20
288.0357647988241
 30
0
 40
4.994358927459081
 50
180.0245124596869
 51
264.2816779761058
  0
ARC
  8
0
 62
7
 10
64.48242683035528
 20
187.0217996767962
 30
0
 40
5.000416720719107
 50
53.85427032299472
 51
179.9554583835914
  0
ARC
  8
0
 62
7
 10
184.5164035627583
 20
267.7070167863506
 30
0
 40
125.5885979282326
 50
285.9226312214004
 51
292.6529480149001
  0
ARC
  8
0
 62
7
 10
103.4822244394711
 20
344.0877775140599
 30
0
 40
2.000210088398408
 50
180.006115480086
 51
270.0064763186884
  0
ARC
  8
0
 62
7
 10
265.4817963185292
 20
344.0877775140599
 30
0
 40
2.000210088397
 50
269.9935236812925
 51
359.9938845199141
  0
ARC
  8
0
 62
7
 10
123.9337264195258
 20
298.3344393342278
 30
0
 40
35.42220280937249
 50
113.6260995654999
 51
171.8673569658991
  0
ARC
  8
0
 62
7
 10
239.627765437137
 20
313.0862438341984
 30
0
 40
21.00112612436108
 50
4.148264619600174
 51
57.8030239694979
  0
ARC
  8
0
 62
7
 10
260.459700189914
 20
182.3970490157336
 30
0
 40
5.341908988416593
 50
115.0053463004009
 51
172.0736624786962
  0
ARC
  8
0
 62
7
 10
88.01087641974777
 20
165.3480064170818
 30
0
 40
5.100089111321992
 50
52.11796907699955
 51
108.231212346402
  0
ARC
  8
0
 62
7
 10
69.4818031134962
 20
317.1735516135997
 30
0
 40
9.999791493483793
 50
179.9995034099066
 51
225.5734866277063
  0
ARC
  8
0
 62
7
 10
283.4822477744301
 20
316.7134720246696
 30
0
 40
9.99975889951328
 50
314.4264349178945
 51
0.0005750444952890509
  0
ARC
  8
0
 62
7
 10
283.4822477744301
 20
165.0192125517489
 30
0
 40
9.999758899513612
 50
359.9994249554945
 51
45.57356508209942
  0
ARC
  8
0
 62
7
 10
269.8270167656681
 20
302.8532041081427
 30
0
 40
5.25803651676851
 50
217.4201375734917
 51
285.3821743172948
  0
ARC
  8
0
 62
7
 10
64.48258505335457
 20
157.499440887642
 30
0
 40
5.000573446955484
 50
113.5824972640113
 51
179.995713905196
  0
ARC
  8
0
 62
7
 10
83.86828350329574
 20
304.2515978154526
 30
0
 40
5.205496345487382
 50
289.7819565377096
 51
349.3580066005995
  0
ARC
  8
0
 62
7
 10
83.92137227466833
 20
304.0757183507997
 30
0
 40
5.000001192113091
 50
242.6499401490023
 51
351.6017051407077
  0
ARC
  8
0
 62
7
 10
83.94818910250137
 20
304.0635379585202
 30
0
 40
5.001504331012571
 50
242.6487288314034
 51
289.6497245159119
  0
ARC
  8
0
 62
7
 10
269.9183137454611
 20
302.5837159024196
 30
0
 40
4.927215877899603
 50
214.4167413409988
 51
290.9343627148024
  0
ARC
  8
0
 62
7
 10
260.322657187374
 20
182.7027425377975
 30
0
 40
5.006942676973109
 50
62.4971095674971
 51
115.0627890000917
  0
ARC
  8
0
 62
7
 10
69.48201152109527
 20
317.1736400316987
 30
0
 40
9.999999900671455
 50
225.5729959991978
 51
242.6500220505946
  0
ARC
  8
0
 62
7
 10
283.482009395633
 20
316.7135738512681
 30
0
 40
9.999999900669705
 50
301.2757041748022
 51
314.4270040007992
  0
ARC
  8
0
 62
7
 10
283.482009395633
 20
165.0191112801496
 30
0
 40
9.999999900669122
 50
45.57299599919744
 51
62.50255806519631
  0
ARC
  8
0
 62
7
 10
64.48201157095969
 20
157.4998122333383
 30
0
 40
4.999999950334868
 50
108.6772852314956
 51
113.5781784781967
  0
ARC
  8
0
 62
7
 10
290.462228162598
 20
317.8070323726071
 30
0
 40
30.74045775510184
 50
216.1847848661022
 51
246.9510370857993
  0
ARC
  8
0
 62
7
 10
820.6617547166281
 20
295.8354603563546
 30
0
 40
732.0590957302741
 50
179.8315118657003
 51
181.0635711421002
  0
ARC
  8
0
 62
7
 10
59.34805235545559
 20
238.505728502406
 30
0
 40
44.80049296024293
 50
60.64060814000073
 51
84.06716974870092
  0
ARC
  8
0
 62
7
 10
218.7819553880981
 20
185.5286228088281
 30
0
 40
36.46560135273857
 50
356.2343153813006
 51
31.30208209460004
  0
ARC
  8
0
 62
7
 10
292.294517763899
 20
274.7001914962867
 30
0
 40
76.38802742665044
 50
239.8851672559998
 51
267.2355817191989
  0
ARC
  8
0
 62
7
 10
288.4940479205491
 20
193.414451677798
 30
0
 40
4.987962926179315
 50
0.07411612450748428
 51
88.66379384110358
  0
ARC
  8
0
 62
7
 10
83.69670628430026
 20
281.9912190147653
 30
0
 40
5.03857949435609
 50
241.7733685372926
 51
2.913327746499366
  0
ARC
  8
0
 62
7
 10
252.64270829726
 20
205.8796757829815
 30
0
 40
3.046582828464289
 50
64.21423401729456
 51
207.4700768675063
  0
ARC
  8
0
 62
7
 10
247.4820097532211
 20
567.89926523493
 30
0
 40
0.999999990066362
 50
281.8696152433946
 51
0
  0
ARC
  8
0
 62
7
 10
176.0609444572467
 20
542.7193458680415
 30
0
 40
61.62912876986147
 50
252.9812281512988
 51
259.0350556927995
  0
ARC
  8
0
 62
7
 10
144.3533704410986
 20
564.9030632520864
 30
0
 40
55.3257734844409
 50
193.9408610328942
 51
196.4310276757943
  0
ARC
  8
0
 62
7
 10
288.4820093697681
 20
623.772039685846
 30
0
 40
4.999997303907616
 50
242.5595038310016
 51
359.9999510353984
  0
ARC
  8
0
 62
7
 10
288.482010783667
 20
518.4030948665761
 30
0
 40
4.999995889997098
 50
359.9999950798961
 51
117.4495661068891
  0
ARC
  8
0
 62
7
 10
652.2532478450326
 20
1313.082495519324
 30
0
 40
784.3684247447692
 50
240.5281623994996
 51
242.1766904564996
  0
ARC
  8
0
 62
7
 10
652.1655112132977
 20
-170.7487740393819
 30
0
 40
784.1871828540715
 50
117.8226245878997
 51
119.4719629159997
  0
ARC
  8
0
 62
7
 10
64.48200977635929
 20
620.7947085530198
 30
0
 40
4.999998217084736
 50
180.0089603057994
 51
294.6618379135042
  0
ARC
  8
0
 62
7
 10
64.48201214005962
 20
521.3804191825022
 30
0
 40
5.000000581090523
 50
65.78796602999755
 51
179.9910154685061
  0
ARC
  8
0
 62
7
 10
184.482010379
 20
490.0875657295339
 30
0
 40
9.499999905637099
 50
29.99999999999995
 51
90
  0
ARC
  8
0
 62
7
 10
184.482010379
 20
490.0875657295339
 30
0
 40
9.4999999056364
 50
90
 51
149.9999999999985
  0
ARC
  8
0
 62
7
 10
184.482010379
 20
490.0875657295339
 30
0
 40
9.499999905637196
 50
270
 51
330.0000000000012
  0
ARC
  8
0
 62
7
 10
184.482010379
 20
490.0875657295339
 30
0
 40
9.49999990563644
 50
210.0000000000003
 51
270
  0
ARC
  8
0
 62
7
 10
184.482010379
 20
490.0875657295339
 30
0
 40
9.499999905636425
 50
149.9999999999985
 51
210.0000000000003
  0
ARC
  8
0
 62
7
 10
184.482010379
 20
490.0875657295339
 30
0
 40
9.499999905637086
 50
330.0000000000012
 51
29.99999999999995
  0
ARC
  8
0
 62
7
 10
254.6300673885201
 20
611.5875645226754
 30
0
 40
9.499999905637219
 50
29.99999999999438
 51
90
  0
ARC
  8
0
 62
7
 10
254.6300673885201
 20
611.5875645226754
 30
0
 40
9.499999905636969
 50
90
 51
150.0000000000104
  0
ARC
  8
0
 62
7
 10
254.6300673885201
 20
611.5875645226754
 30
0
 40
9.499999905637925
 50
329.9999999999962
 51
29.99999999999438
  0
ARC
  8
0
 62
7
 10
254.6300673885201
 20
611.5875645226754
 30
0
 40
9.499999905637878
 50
270
 51
329.9999999999962
  0
ARC
  8
0
 62
7
 10
254.6300673885201
 20
611.5875645226754
 30
0
 40
9.499999905637869
 50
210.0000000000009
 51
270
  0
ARC
  8
0
 62
7
 10
254.6300673885201
 20
611.5875645226754
 30
0
 40
9.499999905636104
 50
150.0000000000104
 51
210.0000000000024
  0
ARC
  8
0
 62
7
 10
184.482010379
 20
652.0875641203886
 30
0
 40
9.499999905636514
 50
90
 51
150.0000000000036
  0
ARC
  8
0
 62
7
 10
184.482010379
 20
652.0875641203886
 30
0
 40
9.499999905637147
 50
29.99999999999464
 51
90
  0
ARC
  8
0
 62
7
 10
184.482010379
 20
652.0875641203886
 30
0
 40
9.499999905637186
 50
330.0000000000015
 51
29.99999999999464
  0
ARC
  8
0
 62
7
 10
184.482010379
 20
652.0875641203886
 30
0
 40
9.499999905636287
 50
270
 51
330.0000000000015
  0
ARC
  8
0
 62
7
 10
184.482010379
 20
652.0875641203886
 30
0
 40
9.499999905635939
 50
210.0000000000012
 51
270
  0
ARC
  8
0
 62
7
 10
184.482010379
 20
652.0875641203886
 30
0
 40
9.499999905635942
 50
150.0000000000036
 51
210.0000000000012
  0
ARC
  8
0
 62
7
 10
254.6300673885201
 20
530.5875653272481
 30
0
 40
9.499999905637925
 50
329.9999999999962
 51
29.99999999999378
  0
ARC
  8
0
 62
7
 10
254.6300673885201
 20
530.5875653272481
 30
0
 40
9.499999905637115
 50
150.0000000000084
 51
210.0000000000009
  0
ARC
  8
0
 62
7
 10
254.6300673885201
 20
530.5875653272481
 30
0
 40
9.499999905637878
 50
270
 51
329.9999999999962
  0
ARC
  8
0
 62
7
 10
254.6300673885201
 20
530.5875653272481
 30
0
 40
9.499999905637869
 50
210.0000000000009
 51
270
  0
ARC
  8
0
 62
7
 10
254.6300673885201
 20
530.5875653272481
 30
0
 40
9.499999905637196
 50
90
 51
150.0000000000084
  0
ARC
  8
0
 62
7
 10
254.6300673885201
 20
530.5875653272481
 30
0
 40
9.499999905637163
 50
29.99999999999378
 51
90
  0
ARC
  8
0
 62
7
 10
114.3339533691799
 20
611.5875645226754
 30
0
 40
9.499999905636969
 50
90
 51
150.0000000000039
  0
ARC
  8
0
 62
7
 10
114.3339533691799
 20
611.5875645226754
 30
0
 40
9.499999905636027
 50
150.0000000000039
 51
210.0000000000048
  0
ARC
  8
0
 62
7
 10
114.3339533691799
 20
611.5875645226754
 30
0
 40
9.499999905637258
 50
29.99999999999425
 51
90
  0
ARC
  8
0
 62
7
 10
114.3339533691799
 20
611.5875645226754
 30
0
 40
9.499999905637095
 50
329.9999999999965
 51
29.99999999999425
  0
ARC
  8
0
 62
7
 10
114.3339533691799
 20
611.5875645226754
 30
0
 40
9.499999905636287
 50
270
 51
329.9999999999965
  0
ARC
  8
0
 62
7
 10
114.3339533691799
 20
611.5875645226754
 30
0
 40
9.49999990563628
 50
210.0000000000048
 51
270
  0
ARC
  8
0
 62
7
 10
114.3339533691799
 20
530.5875653272481
 30
0
 40
9.499999905636059
 50
150.0000000000048
 51
210.0000000000048
  0
ARC
  8
0
 62
7
 10
114.3339533691799
 20
530.5875653272481
 30
0
 40
9.49999990563628
 50
210.0000000000048
 51
270
  0
ARC
  8
0
 62
7
 10
114.3339533691799
 20
530.5875653272481
 30
0
 40
9.499999905636969
 50
90
 51
150.0000000000048
  0
ARC
  8
0
 62
7
 10
114.3339533691799
 20
530.5875653272481
 30
0
 40
9.499999905636644
 50
29.999999999994
 51
90
  0
ARC
  8
0
 62
7
 10
114.3339533691799
 20
530.5875653272481
 30
0
 40
9.49999990563572
 50
329.9999999999964
 51
29.999999999994
  0
ARC
  8
0
 62
7
 10
114.3339533691799
 20
530.5875653272481
 30
0
 40
9.499999905635718
 50
270
 51
329.9999999999964
  0
ARC
  8
0
 62
7
 10
135.4295689562371
 20
582.787564808744
 30
0
 40
2.49999997516838
 50
0.7482081452146328
 51
90
  0
ARC
  8
0
 62
7
 10
122.9820109898794
 20
584.2875647938447
 30
0
 40
0.9999999900674084
 50
90
 51
180
  0
ARC
  8
0
 62
7
 10
135.4295689562375
 20
582.7875648087456
 30
0
 40
2.499999975166583
 50
333.1883735649816
 51
359.9805469402895
  0
ARC
  8
0
 62
7
 10
135.4295689562371
 20
582.787564808744
 30
0
 40
2.499999975166247
 50
270
 51
333.1883735650182
  0
ARC
  8
0
 62
7
 10
135.4295689562363
 20
582.7875648088506
 30
0
 40
2.499999975167784
 50
359.9805469378846
 51
0.7482081427732396
  0
ARC
  8
0
 62
7
 10
133.9820108804167
 20
571.0875649249613
 30
0
 40
2.499999975167185
 50
0
 51
90
  0
ARC
  8
0
 62
7
 10
133.9820108804167
 20
571.0875649249613
 30
0
 40
2.499999975167157
 50
270
 51
0
  0
ARC
  8
0
 62
7
 10
122.9820109898794
 20
557.8875650560769
 30
0
 40
0.9999999900673942
 50
180
 51
270
  0
ARC
  8
0
 62
7
 10
135.4297821332355
 20
559.3875650411776
 30
0
 40
2.499999975166952
 50
26.83119188505139
 51
90
  0
ARC
  8
0
 62
7
 10
135.4297821332359
 20
559.3875650411754
 30
0
 40
2.499999975167583
 50
0
 51
26.83119188509968
  0
ARC
  8
0
 62
7
 10
135.4297821332355
 20
559.3875650411776
 30
0
 40
2.499999975168066
 50
270
 51
0
  0
ARC
  8
0
 62
7
 10
184.482010379
 20
571.0875649249613
 30
0
 40
47.99999952321664
 50
167.275850467901
 51
180
  0
ARC
  8
0
 62
7
 10
184.4820103789997
 20
571.0875649249638
 30
0
 40
47.9999995232163
 50
180
 51
192.7232172348039
  0
ARC
  8
0
 62
7
 10
128.1649620099963
 20
590.2875647342473
 30
0
 40
4.999999950335223
 50
270
 51
341.1743730241172
  0
ARC
  8
0
 62
7
 10
128.1649620099963
 20
551.8875651156752
 30
0
 40
4.999999950335766
 50
18.82562697589192
 51
90
  0
ARC
  8
0
 62
7
 10
241.8788406192771
 20
570.8520159622005
 30
0
 40
6.649797936921803
 50
225.8278073587994
 51
240.1015506623095
  0
ARC
  8
0
 62
7
 10
184.482010379
 20
571.0875649249613
 30
0
 40
54.49999945865219
 50
198.8256269758992
 51
353.6794527796009
  0
ARC
  8
0
 62
7
 10
239.8967917637651
 20
572.684546739499
 30
0
 40
4.622639389580346
 50
106.7807750870006
 51
125.5307679152236
  0
ARC
  8
0
 62
7
 10
184.482010379
 20
571.0875649249613
 30
0
 40
54.49999945865134
 50
6.318828093798882
 51
161.1743730241008
  0
ARC
  8
0
 62
7
 10
184.482010379
 20
571.0875649249613
 30
0
 40
47.99999952321642
 50
194.1079746503004
 51
165.8930700373002
  0
ARC
  8
0
 62
7
 10
215.7167929990451
 20
592.316273833397
 30
0
 40
1.009602457879962
 50
100.3064370176436
 51
181.7114789074833
  0
ARC
  8
0
 62
7
 10
215.8117701358011
 20
594.4959418762458
 30
0
 40
1.25567809769852
 50
84.7781212926822
 51
130.2730264864134
  0
ARC
  8
0
 62
7
 10
215.716791936744
 20
582.5545417874594
 30
0
 40
1.009601421861933
 50
100.3063864413221
 51
181.7115294837077
  0
ARC
  8
0
 62
7
 10
215.8117741732011
 20
584.7341971169092
 30
0
 40
1.25569046190398
 50
84.77835783708181
 51
130.2727899420012
  0
ARC
  8
0
 62
7
 10
152.7796702065996
 20
576.8818070978061
 30
0
 40
3.701733896025907
 50
56.8355880782044
 51
97.58735896580264
  0
ARC
  8
0
 62
7
 10
151.7320075200057
 20
577.3126730527276
 30
0
 40
3.286331371784697
 50
80.20832522800866
 51
125.7270095028084
  0
ARC
  8
0
 62
7
 10
151.8256454456753
 20
577.8195099679936
 30
0
 40
3.769941078923216
 50
82.91093427680127
 51
132.5894472375106
  0
ARC
  8
0
 62
7
 10
152.8405272231946
 20
577.9906523582934
 30
0
 40
3.61204112130167
 50
46.1391312012025
 51
98.75239953220461
  0
ARC
  8
0
 62
7
 10
151.7534766222927
 20
580.2043643336049
 30
0
 40
3.556508764669126
 50
225.8083420026065
 51
278.6912764830921
  0
ARC
  8
0
 62
7
 10
152.7683019689118
 20
580.4869901364957
 30
0
 40
3.828179023307646
 50
262.8361724069085
 51
312.2722968597162
  0
ARC
  8
0
 62
7
 10
151.8117698941135
 20
581.2830344720899
 30
0
 40
3.616716074927578
 50
236.4519099086043
 51
277.6127553606037
  0
ARC
  8
0
 62
7
 10
152.8616735320841
 20
581.0062461243381
 30
0
 40
3.35692967846352
 50
260.2105580482984
 51
305.3664949077044
  0
ARC
  8
0
 62
7
 10
218.4820100411771
 20
570.0875649349939
 30
0
 40
2.999999970201998
 50
0
 51
180
  0
ARC
  8
0
 62
7
 10
218.4820100411771
 20
568.2088852970549
 30
0
 40
2.999999970202211
 50
315.0000000000161
 51
0
  0
ARC
  8
0
 62
7
 10
218.4820100411771
 20
568.2088852970549
 30
0
 40
1.499999985101026
 50
315.000000000013
 51
0
  0
ARC
  8
0
 62
7
 10
218.4820100411771
 20
570.0875649349939
 30
0
 40
1.499999985100914
 50
0
 51
180
  0
ARC
  8
0
 62
7
 10
218.4820100411771
 20
557.0875650642222
 30
0
 40
1.499999985100914
 50
0
 51
180
  0
ARC
  8
0
 62
7
 10
218.4820100411771
 20
556.0875650739565
 30
0
 40
1.499999985100004
 50
180
 51
0
  0
ARC
  8
0
 62
7
 10
214.4820100810101
 20
556.0875650739565
 30
0
 40
2.999999970201088
 50
180
 51
270
  0
ARC
  8
0
 62
7
 10
214.4820100810101
 20
557.0875650642222
 30
0
 40
1.49999998510098
 50
109.7050920955048
 51
180
  0
ARC
  8
0
 62
7
 10
214.4820100810101
 20
556.0875650739565
 30
0
 40
1.499999985100999
 50
180
 51
270
  0
ARC
  8
0
 62
7
 10
218.4820100411771
 20
556.0875650739565
 30
0
 40
2.999999970201003
 50
180
 51
210.0000000000133
  0
ARC
  8
0
 62
7
 10
218.4820100411771
 20
557.0875650642222
 30
0
 40
2.999999970201998
 50
0
 51
180
  0
ARC
  8
0
 62
7
 10
218.4820100411771
 20
556.0875650739565
 30
0
 40
2.999999970201316
 50
270
 51
0
  0
ARC
  8
0
 62
7
 10
214.4820100810101
 20
557.0875650642222
 30
0
 40
2.999999970201914
 50
104.8351115819872
 51
180
  0
ARC
  8
0
 62
7
 10
238.6463296941852
 20
577.0855474115925
 30
0
 40
0.004594956892381634
 50
4.222570136739545
 51
7.058528479646341
  0
ARC
  8
0
 62
7
 10
247.481892877423
 20
574.2693998811549
 30
0
 40
1.000119905971502
 50
0.001584450744456105
 51
78.57016200149211
  0
ARC
  8
0
 62
7
 10
243.4820097927532
 20
571.0875649249613
 30
0
 40
4.999999950335371
 50
81.37307344130265
 51
86.16574451790747
  0
ARC
  8
0
 62
7
 10
241.4293539129421
 20
560.0875650344226
 30
0
 40
2.999999970202225
 50
90
 51
169.0673388551807
  0
ARC
  8
0
 62
7
 10
241.4293539129421
 20
582.0875648157974
 30
0
 40
2.999999970201408
 50
190.9326611447824
 51
270
  0
ARC
  8
0
 62
7
 10
184.482010379
 20
571.0875649249613
 30
0
 40
54.99999945368479
 50
10.93266114479941
 51
163.3573837958996
  0
ARC
  8
0
 62
7
 10
184.482010379
 20
571.0875649249613
 30
0
 40
54.99999945368513
 50
196.6426162041004
 51
349.0673388551996
  0
ARC
  8
0
 62
7
 10
243.4820097927532
 20
571.0875649249613
 30
0
 40
7.999999920536538
 50
270
 51
90
  0
ARC
  8
0
 62
7
 10
243.4820097927532
 20
571.0875649249613
 30
0
 40
5.249999947852344
 50
342.247209838098
 51
17.75279016190199
  0
ARC
  8
0
 62
7
 10
243.4820097927532
 20
571.0875649249613
 30
0
 40
5.249999947852636
 50
61.11361827879696
 51
97.52802646950445
  0
ARC
  8
0
 62
7
 10
184.482010379
 20
571.0875649249613
 30
0
 40
64.99999935435493
 50
195.6184982755998
 51
355.1027624413995
  0
ARC
  8
0
 62
7
 10
184.482010379
 20
571.0875649249613
 30
0
 40
64.99999935435451
 50
4.89723755859971
 51
164.3815017244002
  0
ARC
  8
0
 62
7
 10
167.4820105477604
 20
649.2604494732698
 30
0
 40
4.999999950334354
 50
282.2688989960016
 51
0
  0
ARC
  8
0
 62
7
 10
201.4820102099391
 20
649.2604494732698
 30
0
 40
4.999999950336104
 50
180
 51
257.7311010040016
  0
ARC
  8
0
 62
7
 10
125.2823063885305
 20
624.8964389171772
 30
0
 40
4.999999950335471
 50
239.9999999999966
 51
317.7311010039918
  0
ARC
  8
0
 62
7
 10
243.681714369169
 20
624.8964389171772
 30
0
 40
4.999999950334738
 50
222.2688989960021
 51
300.0000000000073
  0
ARC
  8
0
 62
7
 10
108.2823065572909
 20
595.4515754810529
 30
0
 40
4.999999950335297
 50
342.2688989960195
 51
59.99999999999511
  0
ARC
  8
0
 62
7
 10
260.681714200409
 20
595.4515754810529
 30
0
 40
4.999999950335448
 50
120.000000000003
 51
197.7311010039827
  0
ARC
  8
0
 62
7
 10
260.681714200409
 20
546.7235543688687
 30
0
 40
4.999999950335729
 50
162.2688989959992
 51
239.9999999999995
  0
ARC
  8
0
 62
7
 10
108.2823065572909
 20
546.7235543688687
 30
0
 40
4.999999950335527
 50
300.0000000000046
 51
17.7311010040002
  0
ARC
  8
0
 62
7
 10
125.2823063885305
 20
517.2786909327444
 30
0
 40
4.999999950334223
 50
42.26889899600749
 51
120.0000000000041
  0
ARC
  8
0
 62
7
 10
243.681714369169
 20
517.2786909327444
 30
0
 40
4.999999950335477
 50
59.99999999999642
 51
137.7311010040002
  0
ARC
  8
0
 62
7
 10
201.4820102099391
 20
492.9146803766519
 30
0
 40
4.999999950335266
 50
102.2688989960006
 51
180
  0
ARC
  8
0
 62
7
 10
167.4820105477604
 20
492.9146803766519
 30
0
 40
4.999999950336104
 50
0
 51
77.73110100400048
  0
ARC
  8
0
 62
7
 10
184.482010379
 20
571.0875649249613
 30
0
 40
64.9999993543555
 50
167.5000000000007
 51
192.5000000000008
  0
ARC
  8
0
 62
7
 10
184.482010379
 20
571.0875649249613
 30
0
 40
74.99999925502519
 50
102.2688989960003
 51
137.7311010040006
  0
ARC
  8
0
 62
7
 10
184.482010379
 20
571.0875649249613
 30
0
 40
74.99999925502412
 50
42.268898996
 51
77.73110100400008
  0
ARC
  8
0
 62
7
 10
184.482010379
 20
571.0875649249613
 30
0
 40
74.99999925502424
 50
342.2688989959992
 51
17.73110100400018
  0
ARC
  8
0
 62
7
 10
184.482010379
 20
571.0875649249613
 30
0
 40
74.99999925502539
 50
162.2688989960003
 51
167.5000000000003
  0
ARC
  8
0
 62
7
 10
184.482010379
 20
571.0875649249613
 30
0
 40
74.99999925502533
 50
167.5000000000003
 51
192.5000000000004
  0
ARC
  8
0
 62
7
 10
184.4820103789982
 20
571.0875649249683
 30
0
 40
74.9999992550251
 50
192.5000000000059
 51
197.7311010040059
  0
ARC
  8
0
 62
7
 10
184.482010379
 20
571.0875649249613
 30
0
 40
74.99999925502561
 50
222.268898996
 51
257.7311010039995
  0
ARC
  8
0
 62
7
 10
184.482010379
 20
571.0875649249613
 30
0
 40
74.99999925502503
 50
282.2688989959998
 51
317.7311010039996
  0
ARC
  8
0
 62
7
 10
105.3239806027757
 20
577.0462723893727
 30
0
 40
2.461014911036465
 50
260.4796321041051
 51
304.3467728513182
  0
ARC
  8
0
 62
7
 10
104.5177612032837
 20
574.222117579425
 30
0
 40
2.406432473599724
 50
80.45181150170005
 51
124.72304469099
  0
ARC
  8
0
 62
7
 10
104.5754542978114
 20
577.2506198506428
 30
0
 40
2.65353041728348
 50
237.4313457940847
 51
277.3938123719124
  0
ARC
  8
0
 62
7
 10
105.3125669384897
 20
574.6959144588184
 30
0
 40
2.628464863585339
 50
47.23581398362427
 51
98.65700205549389
  0
ARC
  8
0
 62
7
 10
105.2602750388098
 20
576.6889201848228
 30
0
 40
2.790192958086785
 50
262.9316614418728
 51
311.1755225189984
  0
ARC
  8
0
 62
7
 10
104.5312014704507
 20
576.4823931866742
 30
0
 40
2.59133054011303
 50
226.9501469367922
 51
278.5605594359104
  0
ARC
  8
0
 62
7
 10
104.582083743345
 20
574.5680510301893
 30
0
 40
2.746868352003113
 50
82.99810099118412
 51
131.4911926359792
  0
ARC
  8
0
 62
7
 10
105.2667025183448
 20
573.9078649827472
 30
0
 40
2.71001378780384
 50
57.75798458127945
 51
97.41559629068865
  0
ARC
  8
0
 62
7
 10
105.2869057013447
 20
571.7558639875235
 30
0
 40
2.454239381568363
 50
264.9492650748157
 51
316.6510741875794
  0
ARC
  8
0
 62
7
 10
105.6661018503776
 20
570.2384924560959
 30
0
 40
1.694634736871115
 50
52.96263412179593
 51
95.39058329469536
  0
ARC
  8
0
 62
7
 10
105.3187285703286
 20
571.9930099774676
 30
0
 40
2.005082962666787
 50
261.4184174442127
 51
313.0253644199256
  0
ARC
  8
0
 62
7
 10
104.7271709734039
 20
572.4328478369982
 30
0
 40
2.440051394654613
 50
228.0401236268034
 51
276.8816472617233
  0
ARC
  8
0
 62
7
 10
-707.597181233579
 20
571.0875649249603
 30
0
 40
975.0791907880927
 50
357.5898518572
 51
2.410148142799966
  0
ARC
  8
0
 62
7
 10
1076.561201991279
 20
571.0875649249613
 30
0
 40
975.0791907880933
 50
177.5898518572
 51
182.4101481428
  0
ARC
  8
0
 62
7
 10
156.1664812743582
 20
666.9949713798126
 30
0
 40
19.99999980133951
 50
286.4486131295001
 51
332.2343338483965
  0
ARC
  8
0
 62
7
 10
253.382496227511
 20
643.5632356784602
 30
0
 40
19.99999980134025
 50
226.4486131294989
 51
272.2343338484004
  0
ARC
  8
0
 62
7
 10
115.5815245301885
 20
498.6118941717616
 30
0
 40
19.99999980133977
 50
46.44861312950037
 51
92.23433384840106
  0
ARC
  8
0
 62
7
 10
212.7975394833421
 20
475.1801584704083
 30
0
 40
19.9999998013416
 50
106.448613129502
 51
152.2343338483986
  0
ARC
  8
0
 62
7
 10
212.7975394833421
 20
666.9949713798126
 30
0
 40
19.9999998013419
 50
207.7656661516006
 51
253.5513868704953
  0
ARC
  8
0
 62
7
 10
115.5815245301885
 20
643.5632356784602
 30
0
 40
19.99999980133966
 50
267.7656661515989
 51
313.5513868704996
  0
ARC
  8
0
 62
7
 10
253.382496227511
 20
498.6118941717616
 30
0
 40
19.99999980134056
 50
87.76566615159965
 51
133.5513868705006
  0
ARC
  8
0
 62
7
 10
156.1664812743582
 20
475.1801584704083
 30
0
 40
19.99999980133996
 50
27.76566615160354
 51
73.55138687050152
  0
ARC
  8
0
 62
7
 10
184.482010379
 20
571.0875649249613
 30
0
 40
79.99999920536034
 50
46.44861312950037
 51
73.55138687050041
  0
ARC
  8
0
 62
7
 10
184.482010379
 20
571.0875649249613
 30
0
 40
79.99999920535994
 50
106.4486131295001
 51
133.5513868704996
  0
ARC
  8
0
 62
7
 10
184.482010379
 20
571.0875649249613
 30
0
 40
79.99999920536061
 50
286.4486131294997
 51
313.5513868704995
  0
ARC
  8
0
 62
7
 10
184.482010379
 20
571.0875649249613
 30
0
 40
79.9999992053603
 50
226.4486131295004
 51
253.5513868705001
  0
ARC
  8
0
 62
7
 10
154.6469002684514
 20
568.0803634893312
 30
0
 40
66.1021954338577
 50
182.4660202299995
 51
197.0627138424001
  0
ARC
  8
0
 62
7
 10
154.6469002684514
 20
574.0947663608906
 30
0
 40
66.10219543385801
 50
162.9372861575999
 51
177.5339797700006
  0
ARC
  8
0
 62
7
 10
62.48196074012571
 20
565.0876158090589
 30
0
 40
2.99994911999843
 50
89.99905499079064
 51
180.0009716896279
  0
ARC
  8
0
 62
7
 10
62.48196074012571
 20
577.0875140408637
 30
0
 40
2.999949119997233
 50
179.9990283104069
 51
270.0009450092094
  0
ARC
  8
0
 62
7
 10
176.6875041971218
 20
588.2301948719835
 30
0
 40
69.87377036847632
 50
92.12817773829875
 51
104.2549368153997
  0
ARC
  8
0
 62
7
 10
176.7042791307565
 20
553.0742919002853
 30
0
 40
69.0344505487613
 50
255.5536387091987
 51
267.8475099092997
  0
ARC
  8
0
 62
7
 10
221.66702358674
 20
486.5150861843188
 30
0
 40
1.482129872766735
 50
89.96127190864343
 51
118.0386457198518
  0
ARC
  8
0
 62
7
 10
254.4809684856011
 20
401.4564375105072
 30
0
 40
92.64011709931506
 50
111.2064366494006
 51
112.6017312928005
  0
ARC
  8
0
 62
7
 10
245.613677512679
 20
420.5820603059322
 30
0
 40
71.58034332460757
 50
111.9326684137996
 51
114.5668207900999
  0
ARC
  8
0
 62
7
 10
221.9544322703862
 20
461.1541954123288
 30
0
 40
25.27580843843941
 50
103.9668546444999
 51
109.7534119346998
  0
ARC
  8
0
 62
7
 10
237.3401363056616
 20
412.5485223350296
 30
0
 40
76.24613719579834
 50
108.2901280600013
 51
110.7004150330012
  0
ARC
  8
0
 62
7
 10
171.998556080998
 20
530.9242410421032
 30
0
 40
49.17713783717807
 50
251.2648798994001
 51
253.6419550155995
  0
ARC
  8
0
 62
7
 10
249.9155178429458
 20
771.5516378289525
 30
0
 40
302.1012437832284
 50
251.3065975485008
 51
251.9286095159008
  0
ARC
  8
0
 62
7
 10
193.2150811216541
 20
603.7546562408772
 30
0
 40
124.9833321477994
 50
249.3802998246002
 51
251.2743881097996
  0
ARC
  8
0
 62
7
 10
202.897863402875
 20
479.6623527160875
 30
0
 40
2.333562328315368
 50
85.95022605187876
 51
103.2006562487904
  0
ARC
  8
0
 62
7
 10
225.5051968021323
 20
344.2003001486347
 30
0
 40
139.6642839609629
 50
99.53701047830663
 51
100.4088658265064
  0
ARC
  8
0
 62
7
 10
238.7940287833279
 20
265.9098721472922
 30
0
 40
219.0698747017647
 50
100.1277886108024
 51
100.9320752346026
  0
ARC
  8
0
 62
7
 10
200.6183158114183
 20
436.4040042149722
 30
0
 40
44.72734012791188
 50
94.3208410203995
 51
97.46600318340124
  0
ARC
  8
0
 62
7
 10
236.552111159288
 20
518.6128881980924
 30
0
 40
19.20870198200809
 50
310.3869579802982
 51
319.1738435732986
  0
ARC
  8
0
 62
7
 10
290.4820607427012
 20
577.0875108524635
 30
0
 40
2.999945931480707
 50
269.9989940914134
 51
0.001032589015169009
  0
ARC
  8
0
 62
7
 10
290.4820607427012
 20
565.0876189977591
 30
0
 40
2.999945931482082
 50
359.9989674110022
 51
90.00100590858662
  0
ARC
  8
0
 62
7
 10
85.49492453583866
 20
577.6447160203281
 30
0
 40
3.559716300382268
 50
272.1752879040064
 51
348.586560605914
  0
ARC
  8
0
 62
7
 10
85.6096137762986
 20
577.0875562100639
 30
0
 40
2.999991288650795
 50
270.0000805028188
 51
357.1717649628903
  0
ARC
  8
0
 62
7
 10
85.47025152208312
 20
564.5014035730812
 30
0
 40
3.589719436948926
 50
11.78939079049626
 51
87.44876069969094
  0
ARC
  8
0
 62
7
 10
176.9619218212972
 20
587.2645470926748
 30
0
 40
72.4202735855185
 50
91.4122383136998
 51
103.9672744904006
  0
ARC
  8
0
 62
7
 10
178.0991399619013
 20
583.9645367982541
 30
0
 40
76.80833421107104
 50
91.2530191661004
 51
104.0273029678999
  0
ARC
  8
0
 62
7
 10
177.9881779523037
 20
557.5673739684555
 30
0
 40
76.15741555001422
 50
255.9363946716992
 51
268.643712361999
  0
ARC
  8
0
 62
7
 10
177.0180806603387
 20
555.0081285344779
 30
0
 40
72.52849683213111
 50
256.0082725591003
 51
268.6912090540005
  0
ARC
  8
0
 62
7
 10
271.586712013089
 20
581.045459914749
 30
0
 40
6.967460432331836
 50
232.9611787178037
 51
266.9973651126028
  0
ARC
  8
0
 62
7
 10
271.586712013089
 20
561.1296699354718
 30
0
 40
6.967460432333324
 50
93.00263488739655
 51
127.0388212821873
  0
ARC
  8
0
 62
7
 10
186.8752649404149
 20
584.0384557841248
 30
0
 40
105.8285144866424
 50
250.2682101840074
 51
251.3091083905075
  0
ARC
  8
0
 62
7
 10
150.3046833519827
 20
491.6767062125493
 30
0
 40
6.602280831817565
 50
222.5366885605086
 51
260.3726019369034
  0
ARC
  8
0
 62
7
 10
194.0687330013858
 20
606.8516688508121
 30
0
 40
129.6927736194776
 50
249.7597303571951
 51
251.5811668749948
  0
ARC
  8
0
 62
7
 10
254.6256005586667
 20
789.3709358652512
 30
0
 40
321.9956559318973
 50
251.6192961042995
 51
252.2018944682994
  0
ARC
  8
0
 62
7
 10
173.4243019802304
 20
534.5159340400289
 30
0
 40
54.52098104262206
 50
251.5871197689064
 51
253.7287745820063
  0
ARC
  8
0
 62
7
 10
157.4417943440901
 20
491.8793474748366
 30
0
 40
9.098549103732722
 50
249.5173406767023
 51
255.5133073386044
  0
ARC
  8
0
 62
7
 10
235.0512801849652
 20
726.2606634656363
 30
0
 40
255.9887069236071
 50
251.296037074407
 51
251.6021944706071
  0
ARC
  8
0
 62
7
 10
178.6776539996552
 20
536.9171934710751
 30
0
 40
57.91316607783863
 50
258.1760146511999
 51
262.4719035938995
  0
ARC
  8
0
 62
7
 10
183.0581476016446
 20
565.9830380515642
 30
0
 40
87.30402098104386
 50
262.1209548660988
 51
264.349351799199
  0
ARC
  8
0
 62
7
 10
175.6122070774029
 20
483.4422057172417
 30
0
 40
4.488830725329544
 50
255.152607338305
 51
281.8870085007133
  0
ARC
  8
0
 62
7
 10
228.1543838765007
 20
458.9438196301837
 30
0
 40
27.84698730343321
 50
109.4599477432953
 51
111.5032655948952
  0
ARC
  8
0
 62
7
 10
233.3142843749508
 20
445.3211531221992
 30
0
 40
42.41329217058306
 50
111.2429584703026
 51
112.9383373219025
  0
ARC
  8
0
 62
7
 10
218.002552854241
 20
480.8990279285038
 30
0
 40
3.688628136826732
 50
109.288322565821
 51
123.4353539255258
  0
ARC
  8
0
 62
7
 10
219.9596960178022
 20
459.5414747594488
 30
0
 40
24.55560515535453
 50
105.7468414875057
 51
107.7302489303058
  0
ARC
  8
0
 62
7
 10
228.4433018640411
 20
432.3521941437216
 30
0
 40
53.0373559196666
 50
107.5147603083096
 51
108.9697439798104
  0
ARC
  8
0
 62
7
 10
212.3136156897491
 20
478.5917868939216
 30
0
 40
4.071851882734462
 50
105.835381578717
 51
118.214861616106
  0
ARC
  8
0
 62
7
 10
237.5278126248961
 20
409.0600201317805
 30
0
 40
78.11202330914536
 50
107.9830120021999
 51
110.3308474439999
  0
ARC
  8
0
 62
7
 10
221.6271400943372
 20
460.2215583072932
 30
0
 40
24.54991385170104
 50
103.6013736272005
 51
109.5503000365015
  0
ARC
  8
0
 62
7
 10
245.5645865373672
 20
417.7819505110458
 30
0
 40
72.6536595369396
 50
111.5506191788009
 51
114.1380482415009
  0
ARC
  8
0
 62
7
 10
254.0787447378984
 20
399.1205522938095
 30
0
 40
93.14402950182486
 50
110.8212739405013
 51
112.2052559257013
  0
ARC
  8
0
 62
7
 10
221.6687303359231
 20
484.8379107294788
 30
0
 40
1.514440491070241
 50
90.02666956410562
 51
117.4623144849743
  0
ARC
  8
0
 62
7
 10
240.1048219212096
 20
253.1181126037539
 30
0
 40
230.391220113493
 50
99.95604907730277
 51
100.720341588703
  0
ARC
  8
0
 62
7
 10
200.45998794259
 20
479.407670382918
 30
0
 40
0.5675530911243739
 50
77.25647518785814
 51
109.3577540736413
  0
ARC
  8
0
 62
7
 10
208.0132142956634
 20
427.3405690010992
 30
0
 40
53.16915265103925
 50
98.3719404792993
 51
99.38658162399835
  0
ARC
  8
0
 62
7
 10
216.5818130675495
 20
374.6703321782726
 30
0
 40
106.5317373819961
 50
99.31323318729855
 51
99.94758174489802
  0
ARC
  8
0
 62
7
 10
199.7518530285241
 20
469.3126617141909
 30
0
 40
10.40740602949698
 50
98.69364755749778
 51
103.259586481301
  0
ARC
  8
0
 62
7
 10
194.7889345117221
 20
478.7695214601565
 30
0
 40
0.3967111250629316
 50
75.64469785819242
 51
104.4029660228261
  0
ARC
  8
0
 62
7
 10
200.8287127444228
 20
411.9057066159141
 30
0
 40
67.52763786192575
 50
95.21555072719646
 51
95.90947114489626
  0
ARC
  8
0
 62
7
 10
171.0997416671383
 20
684.757273472082
 30
0
 40
206.9344897964215
 50
275.7363818651963
 51
275.9629367625964
  0
ARC
  8
0
 62
7
 10
200.6941882325641
 20
433.4506258022086
 30
0
 40
46.16641367559431
 50
94.28033078459973
 51
97.32694104170044
  0
ARC
  8
0
 62
7
 10
225.9439178741527
 20
337.7649379085527
 30
0
 40
144.5724358328694
 50
99.38655085839737
 51
100.2283826681974
  0
ARC
  8
0
 62
7
 10
202.903131770023
 20
478.058120684623
 30
0
 40
2.404495249303407
 50
86.19570988519078
 51
102.933285704926
  0
ARC
  8
0
 62
7
 10
128.1649620099963
 20
590.2875647342473
 30
0
 40
6.499999935435366
 50
309.7151372318091
 51
341.1743730241025
  0
ARC
  8
0
 62
7
 10
128.1649620099963
 20
551.8875651156752
 30
0
 40
6.499999935435911
 50
18.82562697588944
 51
50.28486276819668
  0
ARC
  8
0
 62
7
 10
184.482010379
 20
571.0875649249613
 30
0
 40
52.99999947355119
 50
198.8256269759
 51
354.5811395031994
  0
ARC
  8
0
 62
7
 10
184.482010379
 20
571.0875649249613
 30
0
 40
52.99999947355165
 50
5.803171276099376
 51
161.1743730240999
  0
ARC
  8
0
 62
7
 10
1076.561201991279
 20
571.0875649249788
 30
0
 40
973.07919080796
 50
179.6859527075011
 51
179.781618465001
  0
ARC
  8
0
 62
7
 10
163.5105778044092
 20
569.9233164222253
 30
0
 40
75.12117145777732
 50
196.4228381893
 51
207.9371418351994
  0
ARC
  8
0
 62
7
 10
224.578099404325
 20
571.3139766681127
 30
0
 40
135.7105314168105
 50
177.6239380865002
 51
180.0955890688001
  0
ARC
  8
0
 62
7
 10
163.5105778044092
 20
572.2518134279965
 30
0
 40
75.12117145778012
 50
152.0628581648001
 51
163.5771618107005
  0
ARC
  8
0
 62
7
 10
228.0877618436641
 20
615.1555722601327
 30
0
 40
31.12909731696038
 50
14.32213872690309
 51
44.10637918020089
  0
ARC
  8
0
 62
7
 10
228.90357107006
 20
526.5988790548674
 30
0
 40
30.2352789469157
 50
317.1976962389007
 51
346.0678442132993
  0
ARC
  8
0
 62
7
 10
587.4820098526511
 20
385.4375634912332
 30
0
 40
1.499999985100885
 50
0
 51
90
  0
ARC
  8
0
 62
7
 10
481.4820109056482
 20
385.4375634912332
 30
0
 40
1.499999985099692
 50
90
 51
180
  0
ARC
  8
0
 62
7
 10
470.9820110099452
 20
375.4375635906628
 30
0
 40
1.499999985100601
 50
90
 51
180
  0
ARC
  8
0
 62
7
 10
597.982009748355
 20
375.4375635906628
 30
0
 40
1.499999985099976
 50
0
 51
90
  0
ARC
  8
0
 62
7
 10
587.4820098526511
 20
377.9375635657299
 30
0
 40
1.999999980133907
 50
0
 51
90
  0
ARC
  8
0
 62
7
 10
481.4820109056482
 20
377.9375635657299
 30
0
 40
1.999999980134817
 50
90
 51
180
  0
ARC
  8
0
 62
7
 10
524.5826540616292
 20
272.7229742091279
 30
0
 40
81.06320518580718
 50
166.906161369001
 51
179.6556835629008
  0
ARC
  8
0
 62
7
 10
584.9820098775831
 20
344.0875639020616
 30
0
 40
1.999999980132998
 50
270
 51
0
  0
ARC
  8
0
 62
7
 10
483.982010880716
 20
344.0875639020616
 30
0
 40
1.999999980133907
 50
180
 51
270
  0
ARC
  8
0
 62
7
 10
603.482009693623
 20
337.0875639713933
 30
0
 40
4.999999950335166
 50
90
 51
180
  0
ARC
  8
0
 62
7
 10
465.4820110643761
 20
337.0875639713933
 30
0
 40
4.999999950334995
 50
0
 51
90
  0
ARC
  8
0
 62
7
 10
559.767516174338
 20
278.2513898205135
 30
0
 40
63.24672342454237
 50
38.65789583569954
 51
50.15070263349869
  0
ARC
  8
0
 62
7
 10
510.5488486196271
 20
276.954116865599
 30
0
 40
65.11293188185042
 50
130.0288244833998
 51
141.1856304502994
  0
ARC
  8
0
 62
7
 10
557.346584638886
 20
277.6960723087288
 30
0
 40
67.81773904503318
 50
26.44219649410029
 51
34.95140990249984
  0
ARC
  8
0
 62
7
 10
627.2865689752741
 20
331.8989267861305
 30
0
 40
22.99336669549916
 50
218.1194567110933
 51
225.7238214269922
  0
ARC
  8
0
 62
7
 10
442.0393427793317
 20
331.5765983713322
 30
0
 40
22.50946085381694
 50
314.1728262333052
 51
321.9618346981044
  0
ARC
  8
0
 62
7
 10
498.5113178214963
 20
285.4979480643315
 30
0
 40
52.61762756443021
 50
143.8444658209984
 51
154.8082323709994
  0
ARC
  8
0
 62
7
 10
604.256825494527
 20
331.0393967070696
 30
0
 40
5.715885743353027
 50
177.9417522973984
 51
228.7700818429988
  0
ARC
  8
0
 62
7
 10
464.614960182789
 20
331.0757314914082
 30
0
 40
5.805693578848882
 50
311.7593491212064
 51
1.55287371930217
  0
ARC
  8
0
 62
7
 10
625.4820094752961
 20
344.0875639020616
 30
0
 40
1.999999980132998
 50
270
 51
0
  0
ARC
  8
0
 62
7
 10
443.4820112830021
 20
344.0875639020616
 30
0
 40
1.999999980133907
 50
180
 51
270
  0
ARC
  8
0
 62
7
 10
491.5267186921749
 20
185.0389490538934
 30
0
 40
28.20452739843914
 50
187.8957546747021
 51
196.598169920503
  0
ARC
  8
0
 62
7
 10
581.593069345045
 20
184.177867393145
 30
0
 40
23.97868076338758
 50
342.5369960020015
 51
352.7077365691009
  0
ARC
  8
0
 62
7
 10
578.208053319169
 20
293.9050043108256
 30
0
 40
41.44197493665156
 50
33.28519062730049
 51
59.13655800330054
  0
ARC
  8
0
 62
7
 10
490.740527926383
 20
293.8988877506864
 30
0
 40
41.43329415106084
 50
120.5496336880991
 51
146.7062631898995
  0
ARC
  8
0
 62
7
 10
458.110574915996
 20
346.4869788197285
 30
0
 40
14.3999286828528
 50
270.4831803742042
 51
289.7730681497062
  0
ARC
  8
0
 62
7
 10
489.1105756888742
 20
346.4869907876283
 30
0
 40
14.39994066861
 50
270.4831884789019
 51
289.7730600450996
  0
ARC
  8
0
 62
7
 10
620.1105737838511
 20
346.4869788197285
 30
0
 40
14.39992868285456
 50
270.4831803742027
 51
289.7730681497029
  0
ARC
  8
0
 62
7
 10
579.6105692457381
 20
346.487027195628
 30
0
 40
14.39997709770684
 50
270.4831979326977
 51
289.7730350337989
  0
ARC
  8
0
 62
7
 10
570.110570471302
 20
346.4870168264289
 30
0
 40
14.39996674542334
 50
270.4832061116969
 51
289.7730424122937
  0
ARC
  8
0
 62
7
 10
448.853462173347
 20
369.3879443854531
 30
0
 40
14.40013287707209
 50
90.48323399839481
 51
109.7728403418946
  0
ARC
  8
0
 62
7
 10
579.853460268326
 20
369.3879324172532
 30
0
 40
14.40014486299951
 50
90.48324210290545
 51
109.7728322373021
  0
ARC
  8
0
 62
7
 10
610.8534610412021
 20
369.3879443854531
 30
0
 40
14.40013287707579
 50
90.48323399839921
 51
109.7728403418977
  0
ARC
  8
0
 62
7
 10
498.8534654858981
 20
369.3879063778542
 30
0
 40
14.40017094061196
 50
90.48325973580018
 51
109.7728146045024
  0
ARC
  8
0
 62
7
 10
489.353466711462
 20
369.3878960086541
 30
0
 40
14.40018129286322
 50
90.48325155670375
 51
109.7728072262014
  0
ARC
  8
0
 62
7
 10
537.8408843112361
 20
382.0354340600262
 30
0
 40
1.910344688704548
 50
65.13560274091809
 51
95.31661679508591
  0
ARC
  8
0
 62
7
 10
531.126648854829
 20
381.9843018673338
 30
0
 40
1.960551087496542
 50
85.05655954822447
 51
114.4010819047099
  0
ARC
  8
0
 62
7
 10
529.4833363430512
 20
385.9377078247645
 30
0
 40
0.9998584709508042
 50
90.01878938981103
 51
180.1713229089973
  0
ARC
  8
0
 62
7
 10
539.4061781049882
 20
385.9539613203034
 30
0
 40
0.9836625338681743
 50
359.2688241849011
 51
89.37988308181517
  0
ARC
  8
0
 62
7
 10
529.4820394154651
 20
385.9375618924661
 30
0
 40
1.000004349733917
 50
90.00072059214088
 51
180.002427637584
  0
ARC
  8
0
 62
7
 10
534.6180919124613
 20
113.8943183345721
 30
0
 40
268.0436875224041
 50
90.27631475690289
 51
91.3116299667028
  0
ARC
  8
0
 62
7
 10
534.433312334083
 20
120.3223175187224
 30
0
 40
261.6154165377766
 50
88.67548903419997
 51
89.73278356319989
  0
ARC
  8
0
 62
7
 10
529.478196225002
 20
385.9410502888323
 30
0
 40
0.9965167946584398
 50
90.07445280557401
 51
180.1635945029251
  0
ARC
  8
0
 62
7
 10
522.782010495215
 20
388.9375634565678
 30
0
 40
2.499999975168066
 50
0
 51
90
  0
ARC
  8
0
 62
7
 10
522.782010495215
 20
388.9375634565678
 30
0
 40
2.499999975166247
 50
90
 51
180
  0
ARC
  8
0
 62
7
 10
546.1820102627842
 20
388.9375634565678
 30
0
 40
2.499999975166929
 50
90
 51
180
  0
ARC
  8
0
 62
7
 10
546.1820102627842
 20
388.9375634565678
 30
0
 40
2.499999975166929
 50
0
 51
90
  0
ARC
  8
0
 62
7
 10
534.482010379
 20
388.9375634565678
 30
0
 40
2.499999975168066
 50
0
 51
90
  0
ARC
  8
0
 62
7
 10
534.482010379
 20
388.9375634565678
 30
0
 40
2.499999975168009
 50
90
 51
180
  0
ARC
  8
0
 62
7
 10
569.6719791309581
 20
378.031239262
 30
0
 40
8.050645958530733
 50
219.598022731494
 51
230.854812287803
  0
ARC
  8
0
 62
7
 10
541.559925915295
 20
375.4253621335839
 30
0
 40
1.52898653223569
 50
98.49824846594486
 51
179.5427015104954
  0
ARC
  8
0
 62
7
 10
527.3968080011771
 20
375.4190323490467
 30
0
 40
1.536336461755939
 50
0.6911842064317689
 51
81.26786581731584
  0
ARC
  8
0
 62
7
 10
608.8933333867722
 20
365.8794542531033
 30
0
 40
7.964564894588281
 50
61.81714145100117
 51
83.17376455259624
  0
ARC
  8
0
 62
7
 10
460.082708966308
 20
365.8413371729822
 30
0
 40
8.003844066389402
 50
96.87925034720556
 51
118.1298436492046
  0
ARC
  8
0
 62
7
 10
484.984536187857
 20
191.5900907338193
 30
0
 40
9.499999905636379
 50
318.8909178151995
 51
131.1090821847892
  0
ARC
  8
0
 62
7
 10
481.4490023169772
 20
188.0545568629379
 30
0
 40
9.499999905637239
 50
131.3688370333056
 51
318.6311629666907
  0
ARC
  8
0
 62
7
 10
484.984536187857
 20
290.5850391164032
 30
0
 40
9.499999905635555
 50
228.8909178152068
 51
41.1090821847976
  0
ARC
  8
0
 62
7
 10
481.4490023169772
 20
294.1205729872846
 30
0
 40
9.499999905634933
 50
41.36883703330454
 51
228.631162966696
  0
ARC
  8
0
 62
7
 10
583.9794845704412
 20
191.5900907338193
 30
0
 40
9.499999905636877
 50
48.890917815206
 51
221.1090821848019
  0
ARC
  8
0
 62
7
 10
587.515018441323
 20
188.0545568629379
 30
0
 40
9.499999905637113
 50
221.3688370333003
 51
48.6311629666962
  0
ARC
  8
0
 62
7
 10
583.9794845704412
 20
290.5850391164032
 30
0
 40
9.499999905636361
 50
138.8909178151997
 51
311.1090821847986
  0
ARC
  8
0
 62
7
 10
587.515018441323
 20
294.1205729872846
 30
0
 40
9.499999905636621
 50
311.3688370333011
 51
138.6311629667038
  0
ARC
  8
0
 62
7
 10
569.1827796523171
 20
185.2918046714796
 30
0
 40
36.21735050697727
 50
296.8162642183003
 51
352.9556722017013
  0
ARC
  8
0
 62
7
 10
499.8580796576191
 20
185.3327177794737
 30
0
 40
36.28856258264192
 50
187.0806544653994
 51
243.1046047706983
  0
ARC
  8
0
 62
7
 10
534.4758677179611
 20
267.7946346987802
 30
0
 40
125.6803374051536
 50
247.3505507947999
 51
268.8209924841
  0
ARC
  8
0
 62
7
 10
534.4881530403382
 20
267.7946346987802
 30
0
 40
125.6803374051532
 50
271.1790075159004
 51
292.6494492052001
  0
ARC
  8
0
 62
7
 10
446.5000524364232
 20
270.962142962517
 30
0
 40
0.6162739310257915
 50
106.4870581461995
 51
165.4452109889762
  0
ARC
  8
0
 62
7
 10
450.6505211021981
 20
269.3147410109806
 30
0
 40
5.077585267649393
 50
159.2097865414993
 51
181.3136037694979
  0
ARC
  8
0
 62
7
 10
436.8291983023851
 20
271.6232001274526
 30
0
 40
7.047590791173746
 50
355.1700610999847
 51
8.680423087886171
  0
ARC
  8
0
 62
7
 10
434.426652559549
 20
270.6138538862786
 30
0
 40
8.936655843239128
 50
357.6337827786895
 51
4.348406579887331
  0
ARC
  8
0
 62
7
 10
443.615646349175
 20
271.0988243750592
 30
0
 40
0.6209739944438506
 50
132.9861870045045
 51
178.3212528963937
  0
ARC
  8
0
 62
7
 10
452.0904556521964
 20
269.402760054008
 30
0
 40
9.255652281449425
 50
169.326518777112
 51
181.2655426754106
  0
ARC
  8
0
 62
7
 10
423.898390435726
 20
270.8101781491215
 30
0
 40
18.6560276186649
 50
358.5315849291172
 51
1.478204619316563
  0
ARC
  8
0
 62
7
 10
442.201191223425
 20
271.3291253178725
 30
0
 40
0.3490583892615891
 50
353.802378432312
 51
39.91056990782121
  0
ARC
  8
0
 62
7
 10
442.9988931025021
 20
271.1545743654052
 30
0
 40
0.6630689581825503
 50
143.0585267259826
 51
183.2471470235088
  0
ARC
  8
0
 62
7
 10
456.813934776877
 20
269.5266275618773
 30
0
 40
14.56414084739662
 50
173.7308607624035
 51
181.2916071977026
  0
ARC
  8
0
 62
7
 10
445.1098125823341
 20
271.840148117196
 30
0
 40
2.829116952369762
 50
151.0373714409013
 51
182.2818993594026
  0
ARC
  8
0
 62
7
 10
440.943553009316
 20
272.1649541596692
 30
0
 40
1.98789454971765
 50
347.2876067532122
 51
31.71967101129426
  0
ARC
  8
0
 62
7
 10
445.0645536110831
 20
271.7597639777944
 30
0
 40
2.182073860859557
 50
138.3431975417064
 51
180.8471065514087
  0
CIRCLE
  8
0
 62
7
 10
184.482010379
 20
652.0875641203886
 30
0
 40
11.99999988080401
  0
CIRCLE
  8
0
 62
7
 10
254.6300673885201
 20
611.5875645226754
 30
0
 40
11.99999988080288
  0
CIRCLE
  8
0
 62
7
 10
114.3339533691799
 20
611.5875645226754
 30
0
 40
11.99999988080431
  0
CIRCLE
  8
0
 62
7
 10
254.6300673885201
 20
530.5875653272481
 30
0
 40
11.99999988080288
  0
CIRCLE
  8
0
 62
7
 10
114.3339533691799
 20
530.5875653272481
 30
0
 40
11.99999988080481
  0
CIRCLE
  8
0
 62
7
 10
184.482010379
 20
490.0875657295339
 30
0
 40
11.99999988080401
  0
CIRCLE
  8
0
 62
7
 10
534.482010379
 20
241.0875649249612
 30
0
 40
35.99999964241215
  0
CIRCLE
  8
0
 62
7
 10
534.482010379
 20
241.0875649249612
 30
0
 40
57.99999942388604
  0
CIRCLE
  8
0
 62
7
 10
534.482010379
 20
241.0875649249612
 30
0
 40
55.99999944375099
  0
CIRCLE
  8
0
 62
7
 10
534.482010379
 20
241.0875649249612
 30
0
 40
35.49999964737708
  0
CIRCLE
  8
0
 62
7
 10
534.482010379
 20
241.0875649249612
 30
0
 40
92.99999907623101
  0
CIRCLE
  8
0
 62
2
  6
DASHDOT
 10
534.482010379
 20
241.0875649249612
 30
0
 40
74.99999925502493
  0
CIRCLE
  8
0
 62
2
  6
DASHDOT
 10
534.482010379
 20
241.0875649249612
 30
0
 40
69.99999930468994
  0
DIMENSION
  8
1
  6
CONTINUOUS
 62
2
  2
*D0
  3
DMST_1
 10
41.48200512371913
 20
120.3578660903613
 30
0
 11
112.9820077513596
 21
122.8578660903613
 31
0
 12
0
 22
0
 32
0
 70
0
 13
184.482010379
 23
131.0559045956299
 33
0
 14
41.48200512371909
 24
185.087563752809
 34
0
 53
0
  0
DIMENSION
  8
1
  6
CONTINUOUS
 62
2
  2
*D1
  3
DMST_1
 10
184.4820103790001
 20
120.3578660903613
 30
0
 11
247.9820117747046
 21
122.8578660903613
 31
0
 12
0
 22
0
 32
0
 70
0
 13
311.4820131704091
 23
185.087563752809
 33
0
 14
184.482010379
 24
131.0559045956299
 34
0
 53
0
  0
DIMENSION
  8
1
  6
CONTINUOUS
 62
2
  2
*D2
  3
DMST_1
 10
347.866259271009
 20
241.0875649249613
 30
0
 11
345.366259271009
 21
191.0875646766115
 31
0
 12
0
 22
0
 32
0
 70
0
 13
234.4820106273501
 23
141.0875644282616
 33
0
 14
336.4820131704091
 24
241.0875649249613
 34
0
 50
90
 53
0
  0
DIMENSION
  8
1
  6
CONTINUOUS
 62
2
  2
*D3
  3
DMST_1
 10
354.866259271009
 20
141.0875644282616
 30
0
 11
352.366259271009
 21
266.2625661472481
 31
0
 12
0
 22
0
 32
0
 70
0
  1
251
 13
135.4297835777359
 23
391.4375678662346
 33
0
 14
234.4820106273501
 24
141.0875644282616
 34
0
 50
90
 53
0
  0
DIMENSION
  8
1
  6
CONTINUOUS
 62
2
  2
*D4
  3
DMST_1
 10
311.4820131704091
 20
108.3578660903613
 30
0
 11
184.482010379
 21
110.8578660903613
 31
0
 12
0
 22
0
 32
0
 70
0
 13
41.48200512371909
 23
185.087563752809
 33
0
 14
311.4820131704091
 24
185.087563752809
 34
0
 53
0
  0
DIMENSION
  8
1
  6
CONTINUOUS
 62
2
  2
*D5
  3
DMST_1
 10
354.866259271009
 20
478.0875636434296
 30
0
 11
352.366259271009
 21
571.0875649249613
 31
0
 12
0
 22
0
 32
0
 70
0
 13
309.4820091371751
 23
664.0875662067931
 33
0
 14
309.4820091371751
 24
478.0875636434296
 34
0
 50
90
 53
0
  0
DIMENSION
  8
1
  6
CONTINUOUS
 62
2
  2
*D6
  3
DMST_2
 10
478.6705529693804
 20
236.4961425403049
 30
0
 11
649.204984634556
 21
253.0338867303073
 31
0
 12
0
 22
0
 32
0
 70
3
 15
590.2934677886196
 25
245.6789873096175
 35
0
 40
0
 53
0
  0
DIMENSION
  8
1
  6
CONTINUOUS
 62
2
  2
*D7
  3
DMST_2
 10
465.5832926772573
 20
228.7195981675611
 30
0
 11
647.916030508806
 21
263.9899967991834
 31
0
 12
0
 22
0
 32
0
 70
3
 15
603.3807280807428
 25
253.4555316823615
 35
0
 40
0
 53
0
  0
DIMENSION
  8
1
  6
CONTINUOUS
 62
2
  2
*D8
  3
DMST_2
 10
462.0545389842523
 20
221.6129333336642
 30
0
 11
645.982599320181
 21
273.6571527423093
 31
0
 12
0
 22
0
 32
0
 70
3
 15
606.9094817737478
 25
260.5621965162582
 35
0
 40
0
 53
0
  0
DIMENSION
  8
1
  6
CONTINUOUS
 62
2
  2
*D9
  3
DMST_2
 10
447.1639549042922
 20
209.0788627286081
 30
0
 11
642.4379754743681
 21
283.3243086854353
 31
0
 12
0
 22
0
 32
0
 70
3
 15
621.8000658537079
 25
273.0962671213142
 35
0
 40
0
 53
0
  0
ENDSEC
  0
EOF
