  0
SECTION
  2
HEADER
  9
$ACADVER
  1
AC1009
  9
$INSBASE
 10
0
 20
0
  9
$EXTMIN
 10
460.3400578969
 20
-129.3670217118613
  9
$EXTMAX
 10
1050.799920402864
 20
482.9995948585
  9
$LIMMIN
 10
460.3400578969
 20
-129.3670217118613
  9
$LIMMAX
 10
1050.799920402864
 20
482.9995948585
  9
$VIEWCTR
 10
10
 20
10
  9
$VIEWSIZE
 40
10
  9
$SNAPMODE
 70
0
  9
$SNAPUNIT
 10
1
 20
1
  9
$SNAPBASE
 10
0
 20
0
  9
$SNAPANG
 50
0
  9
$SNAPSTYLE
 70
0
  9
$SNAPISOPAIR
 70
0
  9
$GRIDMODE
 70
0
  9
$GRIDUNIT
 10
0
 20
0
  9
$ORTHOMODE
 70
0
  9
$REGENMODE
 70
1
  9
$FILLMODE
 70
1
  9
$QTEXTMODE
 70
0
  9
$DRAGMODE
 70
2
  9
$LTSCALE
 40
1
  9
$OSMODE
 70
0
  9
$ATTMODE
 70
1
  9
$TEXTSIZE
 40
3.5
  9
$TRACEWID
 40
0.5
  9
$TEXTSTYLE
  7
STANDARD
  9
$CLAYER
  8
0
  9
$CELTYPE
  6
BYLAYER
  9
$CECOLOR
 62
256
  9
$DIMSCALE
 40
1
  9
$DIMASZ
 40
0.18
  9
$DIMEXO
 40
0.0625
  9
$DIMDLI
 40
0.38
  9
$DIMRND
 40
0
  9
$DIMDLE
 40
0
  9
$DIMEXE
 40
0.18
  9
$DIMTP
 40
0
  9
$DIMTM
 40
0
  9
$DIMTXT
 40
0.18
  9
$DIMCEN
 40
0.09
  9
$DIMTSZ
 40
0
  9
$DIMTOL
 70
0
  9
$DIMLIM
 70
0
  9
$DIMTIH
 70
1
  9
$DIMTOH
 70
1
  9
$DIMSE1
 70
0
  9
$DIMSE2
 70
0
  9
$DIMTAD
 70
0
  9
$DIMZIN
 70
0
  9
$DIMBLK
  1

  9
$DIMASO
 70
1
  9
$DIMSHO
 70
1
  9
$DIMPOST
  1

  9
$DIMAPOST
  1

  9
$DIMALT
 70
0
  9
$DIMALTD
 70
2
  9
$DIMALTF
 40
25.4
  9
$DIMLFAC
 40
1
  9
$DIMTOFL
 70
0
  9
$DIMTVP
 40
0
  9
$DIMTIX
 70
0
  9
$DIMSOXD
 70
0
  9
$DIMSAH
 70
0
  9
$DIMBLK1
  1

  9
$DIMBLK2
  1

  9
$DIMSTYLE
  2
*UNNAMED
  9
$DIMCLRD
 70
0
  9
$DIMCLRE
 70
0
  9
$DIMCLRT
 70
0
  9
$DIMTFAC
 40
1
  9
$DIMGAP
 40
0.09
  9
$LUNITS
 70
2
  9
$LUPREC
 70
4
  9
$AXISMODE
 70
0
  9
$AXISUNIT
 10
0
 20
0
  9
$SKETCHINC
 40
0.1
  9
$FILLETRAD
 40
2
  9
$AUNITS
 70
0
  9
$AUPREC
 70
0
  9
$MENU
  1
ACAD
  9
$ELEVATION
 40
0
  9
$THICKNESS
 40
0
  9
$VIEWDIR
 10
0
 20
0
 30
1
  9
$LIMCHECK
 70
0
  9
$BLIPMODE
 70
1
  9
$CHAMFERA
 40
0
  9
$CHAMFERB
 40
0
  9
$FASTZOOM
 70
1
  9
$SKPOLY
 70
0
  9
$ANGBASE
 50
0
  9
$ANGDIR
 70
0
  9
$PDMODE
 70
0
  9
$PDSIZE
 40
0
  9
$PLINEWID
 40
0
  9
$COORDS
 70
2
  0
ENDSEC
  0
SECTION
  2
TABLES
  0
TABLE
  2
DIMSTYLE
 70
1
  0
DIMSTYLE
  2
DMST_1
 70
0
  3

  4

  5

  6

  7

 40
1
 41
3.2
 42
0.5
 43
7
 44
1.5
 45
0
 46
0
 47
0
 48
0
140
3.2
141
0
142
0
143
25.4
144
1
145
0
146
1
147
0.09
 71
0
 72
0
 73
0
 74
0
 75
0
 76
0
 77
1
 78
9
170
0
171
2
172
0
173
0
174
0
175
0
176
2
177
2
178
2
  0
ENDTAB
  0
TABLE
  2
LTYPE
 70
9
  0
LTYPE
  2
CONTINUOUS
 70
64
  3
Solid line
 72
65
 73
0
 40
0
  0
LTYPE
  2
BORDER
 70
64
  3
__ __ . __ __ .
 72
65
 73
6
 40
28.20109418416138
 49
8.057455481188965
 49
-4.028727740594483
 49
8.057455481188965
 49
-4.028727740594483
 49
0
 49
-4.028727740594483
  0
LTYPE
  2
CENTER
 70
64
  3
____ _ ____ _
 72
65
 73
4
 40
32.22982192475586
 49
20.14363870297241
 49
-4.028727740594483
 49
4.028727740594483
 49
-4.028727740594483
  0
LTYPE
  2
DASHDOT
 70
64
  3
__ . __ . __ .
 72
65
 73
4
 40
16.11491096237793
 49
8.057455481188965
 49
-4.028727740594483
 49
0
 49
-4.028727740594483
  0
LTYPE
  2
DASHED
 70
64
  3
__ __ __ __ __
 72
65
 73
2
 40
12.08618322178345
 49
8.057455481188965
 49
-4.028727740594483
  0
LTYPE
  2
DIVIDE
 70
64
  3
__ . . __ . . 
 72
65
 73
6
 40
20.14363870297241
 49
8.057455481188965
 49
-4.028727740594483
 49
0
 49
-4.028727740594483
 49
0
 49
-4.028727740594483
  0
LTYPE
  2
DOT
 70
64
  3
..............
 72
65
 73
4
 40
8.057455481188965
 49
0
 49
-4.028727740594483
 49
0
 49
-4.028727740594483
  0
LTYPE
  2
HIDDEN
 70
64
  3
_ _ _ _ _ _ _
 72
65
 73
2
 40
6.043091610891723
 49
4.028727740594483
 49
-2.014363870297241
  0
LTYPE
  2
PHANTOM
 70
64
  3
_____ _ _ _____ _ _ 
 72
65
 73
6
 40
40.28727740594483
 49
20.14363870297241
 49
-4.028727740594483
 49
4.028727740594483
 49
-4.028727740594483
 49
4.028727740594483
 49
-4.028727740594483
  0
ENDTAB
  0
TABLE
  2
LAYER
 70
3
  0
LAYER
  2
0
 70
0
 62
7
  6
CONTINUOUS
  0
LAYER
  2
1
 70
0
 62
7
  6
CONTINUOUS
  0
ENDTAB
  0
TABLE
  2
STYLE
 70
4
  0
STYLE
  2
STANDARD
 70
0
 40
0
 41
1
 50
0
 71
0
 42
3.5
  3
txt
  4

  0
STYLE
  2
SIMPLEX
 70
0
 40
0
 41
1
 50
0
 71
0
 42
3.5
  3
simplex
  4

  0
STYLE
  2
COMPLEX
 70
0
 40
0
 41
1
 50
0
 71
0
 42
3.5
  3
complex
  4

  0
STYLE
  2
ITALIC
 70
0
 40
0
 41
1
 50
0
 71
0
 42
3.5
  3
italic
  4

  0
ENDTAB
  0
TABLE
  2
VIEW
 70
0
  0
ENDTAB
  0
ENDSEC
  0
SECTION
  2
BLOCKS
  0
BLOCK
  8
1
  2
*D0
 70
1
 10
0
 20
0
 30
0
  0
LINE
  8
1
 62
2
 10
739.658520951495
 20
12.095541723
 30
0
 11
739.658520951495
 21
92.0955399348
 31
0
  0
LINE
  8
1
 62
2
 10
726.2390669545
 20
92.0955399348
 30
0
 11
741.158520951495
 21
92.0955399348
 31
0
  0
LINE
  8
1
 62
2
 10
638.2390660604
 20
12.095541723
 30
0
 11
741.158520951495
 21
12.095541723
 31
0
  0
LINE
  8
1
 62
2
 10
739.658520951495
 20
12.095541723
 30
0
 11
738.794520951495
 21
15.295541723
 31
0
  0
LINE
  8
1
 62
2
 10
739.658520951495
 20
12.095541723
 30
0
 11
740.522520951495
 21
15.295541723
 31
0
  0
LINE
  8
1
 62
2
 10
739.658520951495
 20
92.0955399348
 30
0
 11
740.522520951495
 21
88.8955399348
 31
0
  0
LINE
  8
1
 62
2
 10
739.658520951495
 20
92.0955399348
 30
0
 11
738.794520951495
 21
88.8955399348
 31
0
  0
TEXT
  8
1
 62
2
 10
738.658520951495
 20
47.8996801136972
 30
0
 40
3.2
  1
80
 50
90
 41
0.9
 51
15
  0
ENDBLK
  8
0
  0
BLOCK
  8
1
  2
*D1
 70
1
 10
0
 20
0
 30
0
  0
LINE
  8
1
 62
2
 10
756.7390669545
 20
317.9995926532
 30
0
 11
756.7390669545
 21
461.9995926532
 31
0
  0
LINE
  8
1
 62
2
 10
598.2390669545
 20
461.9995926532
 30
0
 11
758.2390669545
 21
461.9995926532
 31
0
  0
LINE
  8
1
 62
2
 10
598.2390669545
 20
317.9995926532
 30
0
 11
758.2390669545
 21
317.9995926532
 31
0
  0
LINE
  8
1
 62
2
 10
756.7390669545
 20
461.9995926532
 30
0
 11
757.6030669545
 21
458.7995926532
 31
0
  0
LINE
  8
1
 62
2
 10
756.7390669545
 20
461.9995926532
 30
0
 11
755.8750669545
 21
458.7995926532
 31
0
  0
LINE
  8
1
 62
2
 10
756.7390669545
 20
317.9995926532
 30
0
 11
755.8750669545
 21
321.1995926532
 31
0
  0
LINE
  8
1
 62
2
 10
756.7390669545
 20
317.9995926532
 30
0
 11
757.6030669545
 21
321.1995926532
 31
0
  0
TEXT
  8
1
 62
2
 10
755.7390669545
 20
386.2108739453102
 30
0
 40
3.2
  1
144
 50
90
 41
0.9
 51
15
  0
ENDBLK
  8
0
  0
BLOCK
  8
1
  2
*D2
 70
1
 10
0
 20
0
 30
0
  0
LINE
  8
1
 62
2
 10
756.7390669545
 20
12.095541723
 30
0
 11
756.7390669545
 21
229.0955344512
 31
0
  0
LINE
  8
1
 62
2
 10
638.2390660604
 20
12.095541723
 30
0
 11
758.2390669545
 21
12.095541723
 31
0
  0
LINE
  8
1
 62
2
 10
635.2390674313
 20
229.0955344512
 30
0
 11
758.2390669545
 21
229.0955344512
 31
0
  0
LINE
  8
1
 62
2
 10
756.7390669545
 20
229.0955344512
 30
0
 11
757.6030669545
 21
225.8955344512
 31
0
  0
LINE
  8
1
 62
2
 10
756.7390669545
 20
229.0955344512
 30
0
 11
755.8750669545
 21
225.8955344512
 31
0
  0
LINE
  8
1
 62
2
 10
756.7390669545
 20
12.095541723
 30
0
 11
755.8750669545
 21
15.295541723
 31
0
  0
LINE
  8
1
 62
2
 10
756.7390669545
 20
12.095541723
 30
0
 11
757.6030669545
 21
15.295541723
 31
0
  0
TEXT
  8
1
 62
2
 10
755.7390669545
 20
116.8068193792102
 30
0
 40
3.2
  1
217
 50
90
 41
0.9
 51
15
  0
ENDBLK
  8
0
  0
BLOCK
  8
1
  2
*D3
 70
1
 10
0
 20
0
 30
0
  0
LINE
  8
1
 62
2
 10
597.7390669545
 20
-12.0823850705
 30
0
 11
712.7390690407
 21
-12.0823850705
 31
0
  0
LINE
  8
1
 62
2
 10
597.7390669545
 20
-1.4876316213
 30
0
 11
597.7390669545
 21
-13.5823850705
 31
0
  0
LINE
  8
1
 62
2
 10
712.7390690407
 20
41.5955391898
 30
0
 11
712.7390690407
 21
-13.5823850705
 31
0
  0
LINE
  8
1
 62
2
 10
712.7390690407
 20
-12.0823850705
 30
0
 11
709.5390690406999
 21
-12.9463850705
 31
0
  0
LINE
  8
1
 62
2
 10
712.7390690407
 20
-12.0823850705
 30
0
 11
709.5390690406999
 21
-11.2183850705
 31
0
  0
LINE
  8
1
 62
2
 10
597.7390669545
 20
-12.0823850705
 30
0
 11
600.9390669545001
 21
-11.2183850705
 31
0
  0
LINE
  8
1
 62
2
 10
597.7390669545
 20
-12.0823850705
 30
0
 11
600.9390669545001
 21
-12.9463850705
 31
0
  0
TEXT
  8
1
 62
2
 10
651.9303492897101
 20
-11.0823850705
 30
0
 40
3.2
  1
115
 41
0.9
 51
15
  0
ENDBLK
  8
0
  0
BLOCK
  8
1
  2
*D4
 70
1
 10
0
 20
0
 30
0
  0
LINE
  8
1
 62
2
 10
467.7390717229
 20
-24.0823850706
 30
0
 11
712.7390690407
 21
-24.0823850706
 31
0
  0
LINE
  8
1
 62
2
 10
467.7390717229
 20
41.59553918980001
 30
0
 11
467.7390717229
 21
-25.5823850706
 31
0
  0
LINE
  8
1
 62
2
 10
712.7390690407
 20
41.59553918980001
 30
0
 11
712.7390690407
 21
-25.5823850706
 31
0
  0
LINE
  8
1
 62
2
 10
712.7390690407
 20
-24.0823850706
 30
0
 11
709.5390690406999
 21
-24.9463850706
 31
0
  0
LINE
  8
1
 62
2
 10
712.7390690407
 20
-24.0823850706
 30
0
 11
709.5390690406999
 21
-23.2183850706
 31
0
  0
LINE
  8
1
 62
2
 10
467.7390717229
 20
-24.0823850706
 30
0
 11
470.9390717229
 21
-23.2183850706
 31
0
  0
LINE
  8
1
 62
2
 10
467.7390717229
 20
-24.0823850706
 30
0
 11
470.9390717229
 21
-24.9463850706
 31
0
  0
TEXT
  8
1
 62
2
 10
593.4703482466102
 20
-23.0823850706
 30
0
 40
3.2
  1
245
 41
0.9
 51
15
  0
ENDBLK
  8
0
  0
BLOCK
  8
1
  2
*D5
 70
1
 10
0
 20
0
 30
0
  0
LINE
  8
1
 62
2
 10
467.7390717229
 20
-12.0823850705
 30
0
 11
597.7390669545
 21
-12.0823850705
 31
0
  0
LINE
  8
1
 62
2
 10
467.7390717229
 20
41.5955391898
 30
0
 11
467.7390717229
 21
-13.5823850705
 31
0
  0
LINE
  8
1
 62
2
 10
597.7390669545
 20
-1.4876316213
 30
0
 11
597.7390669545
 21
-13.5823850705
 31
0
  0
LINE
  8
1
 62
2
 10
467.7390717229
 20
-12.0823850705
 30
0
 11
470.9390717229
 21
-11.2183850705
 31
0
  0
LINE
  8
1
 62
2
 10
467.7390717229
 20
-12.0823850705
 30
0
 11
470.9390717229
 21
-12.9463850705
 31
0
  0
LINE
  8
1
 62
2
 10
597.7390669545
 20
-12.0823850705
 30
0
 11
594.5390669545
 21
-12.9463850705
 31
0
  0
LINE
  8
1
 62
2
 10
597.7390669545
 20
-12.0823850705
 30
0
 11
594.5390669545
 21
-11.2183850705
 31
0
  0
TEXT
  8
1
 62
2
 10
528.9503506308103
 20
-11.0823850705
 30
0
 40
3.2
  1
130
 41
0.9
 51
15
  0
ENDBLK
  8
0
  0
ENDSEC
  0
SECTION
  2
ENTITIES
  0
POLYLINE
  8
0
 62
2
 40
0.5
 41
0.5
 66
1
  0
VERTEX
  8
0
 10
592.0760186921697
 20
62.6150002298266
 30
0
 42
0.9999999999999941
  0
VERTEX
  8
0
 10
591.8778459010304
 20
62.1559495301734
 30
0
 42
1.000000000000006
  0
VERTEX
  8
0
 10
592.0760186921697
 20
62.6150002298266
 30
0
  0
SEQEND
  8
0
  0
POLYLINE
  8
0
 62
2
 66
1
  0
VERTEX
  8
0
 10
986.1776247422
 20
145.4004954321
 30
0
  0
VERTEX
  8
0
 10
1032.6187660215
 20
172.8463270741
 30
0
  0
VERTEX
  8
0
 10
1050.7234216114
 20
172.8463270741
 30
0
  0
SEQEND
  8
0
  0
POLYLINE
  8
0
 62
2
 66
1
  0
VERTEX
  8
0
 10
604.3680480597
 20
60.3539037437
 30
0
  0
VERTEX
  8
0
 10
642.830337243697
 20
-42.11261513040001
 30
0
  0
VERTEX
  8
0
 10
671.557437062397
 20
-42.11261513040001
 30
0
  0
SEQEND
  8
0
  0
POLYLINE
  8
0
 62
2
 66
1
  0
VERTEX
  8
0
 10
591.9769322966
 20
62.38547488
 30
0
  0
VERTEX
  8
0
 10
546.8649693223
 20
-42.11261513040001
 30
0
  0
VERTEX
  8
0
 10
514.1965563453
 20
-42.11261513040001
 30
0
  0
SEQEND
  8
0
  0
POLYLINE
  8
0
 62
7
 66
1
  0
VERTEX
  8
0
 10
628.8568321874
 20
401.8280552464
 30
0
  0
VERTEX
  8
0
 10
629.0928609928
 20
401.9062220814
 30
0
  0
VERTEX
  8
0
 10
629.4098645708
 20
401.9267447057
 30
0
  0
SEQEND
  8
0
  0
POLYLINE
  8
0
 62
7
 66
1
  0
VERTEX
  8
0
 10
628.7060063591
 20
404.1370050746
 30
0
  0
VERTEX
  8
0
 10
628.7308372816
 20
404.3534192952
 30
0
  0
VERTEX
  8
0
 10
628.8568321874
 20
404.5987948539
 30
0
  0
SEQEND
  8
0
  0
POLYLINE
  8
0
 62
7
 66
1
  0
VERTEX
  8
0
 10
628.0524246653
 20
405.637821159
 30
0
  0
VERTEX
  8
0
 10
627.8289631268
 20
405.2104316416
 30
0
  0
VERTEX
  8
0
 10
627.7507711461
 20
404.5987948539
 30
0
  0
SEQEND
  8
0
  0
POLYLINE
  8
0
 62
7
 66
1
  0
VERTEX
  8
0
 10
627.7507711461
 20
404.5987948539
 30
0
  0
VERTEX
  8
0
 10
627.9269717893
 20
403.8319112497
 30
0
  0
VERTEX
  8
0
 10
628.605455186
 20
403.0979778382
 30
0
  0
SEQEND
  8
0
  0
POLYLINE
  8
0
 62
7
 66
1
  0
VERTEX
  8
0
 10
627.7507711461
 20
401.8857795509
 30
0
  0
VERTEX
  8
0
 10
627.9269717893
 20
401.1188959467
 30
0
  0
VERTEX
  8
0
 10
628.605455186
 20
400.3849625352
 30
0
  0
SEQEND
  8
0
  0
POLYLINE
  8
0
 62
7
 66
1
  0
VERTEX
  8
0
 10
628.9573833605
 20
400.78902801
 30
0
  0
VERTEX
  8
0
 10
628.789525505
 20
401.0449442777
 30
0
  0
VERTEX
  8
0
 10
628.7060063591
 20
401.4239897716
 30
0
  0
SEQEND
  8
0
  0
POLYLINE
  8
0
 62
7
 66
1
  0
VERTEX
  8
0
 10
628.7060063591
 20
401.4239897716
 30
0
  0
VERTEX
  8
0
 10
628.7345793357
 20
401.6151800516
 30
0
  0
VERTEX
  8
0
 10
628.8568321874
 20
401.8280552464
 30
0
  0
SEQEND
  8
0
  0
POLYLINE
  8
0
 62
7
 66
1
  0
VERTEX
  8
0
 10
628.9573833605
 20
403.5597676175
 30
0
  0
VERTEX
  8
0
 10
628.7963297477
 20
403.7915589052
 30
0
  0
VERTEX
  8
0
 10
628.7060063591
 20
404.1370050746
 30
0
  0
SEQEND
  8
0
  0
POLYLINE
  8
0
 62
7
 66
1
  0
VERTEX
  8
0
 10
628.8568321874
 20
404.5987948539
 30
0
  0
VERTEX
  8
0
 10
629.1081607601
 20
404.7160912069
 30
0
  0
VERTEX
  8
0
 10
629.4601373633
 20
404.7552076864
 30
0
  0
SEQEND
  8
0
  0
POLYLINE
  8
0
 62
7
 66
1
  0
VERTEX
  8
0
 10
628.8568321874
 20
413.5987944665
 30
0
  0
VERTEX
  8
0
 10
629.1081607601
 20
413.7160908195
 30
0
  0
VERTEX
  8
0
 10
629.4601373633
 20
413.7552082303
 30
0
  0
SEQEND
  8
0
  0
POLYLINE
  8
0
 62
7
 66
1
  0
VERTEX
  8
0
 10
627.7507711461
 20
410.8857791635
 30
0
  0
VERTEX
  8
0
 10
627.9269717893
 20
410.1188964906
 30
0
  0
VERTEX
  8
0
 10
628.605455186
 20
409.3849621477
 30
0
  0
SEQEND
  8
0
  0
POLYLINE
  8
0
 62
7
 66
1
  0
VERTEX
  8
0
 10
628.0524246653
 20
414.6378226342
 30
0
  0
VERTEX
  8
0
 10
627.8289631268
 20
414.2104312542
 30
0
  0
VERTEX
  8
0
 10
627.7507711461
 20
413.5987944665
 30
0
  0
SEQEND
  8
0
  0
POLYLINE
  8
0
 62
7
 66
1
  0
VERTEX
  8
0
 10
627.7507711461
 20
413.5987944665
 30
0
  0
VERTEX
  8
0
 10
627.9269717893
 20
412.8319117936
 30
0
  0
VERTEX
  8
0
 10
628.605455186
 20
412.0979774507
 30
0
  0
SEQEND
  8
0
  0
POLYLINE
  8
0
 62
7
 66
1
  0
VERTEX
  8
0
 10
628.9573833605
 20
409.7890276226
 30
0
  0
VERTEX
  8
0
 10
628.789525505
 20
410.0449438902
 30
0
  0
VERTEX
  8
0
 10
628.7060063591
 20
410.4239903155
 30
0
  0
SEQEND
  8
0
  0
POLYLINE
  8
0
 62
7
 66
1
  0
VERTEX
  8
0
 10
628.7060063591
 20
410.4239903155
 30
0
  0
VERTEX
  8
0
 10
628.7345793357
 20
410.6151796642
 30
0
  0
VERTEX
  8
0
 10
628.8568321874
 20
410.8280557903
 30
0
  0
SEQEND
  8
0
  0
POLYLINE
  8
0
 62
7
 66
1
  0
VERTEX
  8
0
 10
628.8568321874
 20
410.8280557903
 30
0
  0
VERTEX
  8
0
 10
629.0928609928
 20
410.906221694
 30
0
  0
VERTEX
  8
0
 10
629.4098645708
 20
410.9267443183
 30
0
  0
SEQEND
  8
0
  0
POLYLINE
  8
0
 62
7
 66
1
  0
VERTEX
  8
0
 10
628.9573833605
 20
412.5597681614
 30
0
  0
VERTEX
  8
0
 10
628.7963297477
 20
412.7915575865
 30
0
  0
VERTEX
  8
0
 10
628.7060063591
 20
413.1370056185
 30
0
  0
SEQEND
  8
0
  0
POLYLINE
  8
0
 62
7
 66
1
  0
VERTEX
  8
0
 10
628.7060063591
 20
413.1370056185
 30
0
  0
VERTEX
  8
0
 10
628.7308372816
 20
413.3534189078
 30
0
  0
VERTEX
  8
0
 10
628.8568321874
 20
413.5987944665
 30
0
  0
SEQEND
  8
0
  0
POLYLINE
  8
0
 62
7
 66
1
  0
VERTEX
  8
0
 10
650.0649675986
 20
202.5955403521
 30
0
  0
VERTEX
  8
0
 10
651.5576094648
 20
202.5282541587
 30
0
  0
VERTEX
  8
0
 10
655.5497944614
 20
201.7470309808
 30
0
  0
SEQEND
  8
0
  0
POLYLINE
  8
0
 62
7
 66
1
  0
VERTEX
  8
0
 10
644.5801407358
 20
201.7470309808
 30
0
  0
VERTEX
  8
0
 10
645.9661424419001
 20
202.1068046167
 30
0
  0
VERTEX
  8
0
 10
650.0649675986
 20
202.5955403521
 30
0
  0
SEQEND
  8
0
  0
POLYLINE
  8
0
 62
7
 66
1
  0
VERTEX
  8
0
 10
539.9283394476
 20
201.7470309808
 30
0
  0
VERTEX
  8
0
 10
541.3143374285
 20
202.1068046167
 30
0
  0
VERTEX
  8
0
 10
545.4131663104
 20
202.5955403521
 30
0
  0
SEQEND
  8
0
  0
POLYLINE
  8
0
 62
7
 66
1
  0
VERTEX
  8
0
 10
553.6404066047001
 20
202.5955403521
 30
0
  0
VERTEX
  8
0
 10
555.0392344853
 20
202.3626501038
 30
0
  0
VERTEX
  8
0
 10
556.3828200361
 20
201.7470309808
 30
0
  0
SEQEND
  8
0
  0
POLYLINE
  8
0
 62
7
 66
1
  0
VERTEX
  8
0
 10
537.1859222909
 20
202.5955403521
 30
0
  0
VERTEX
  8
0
 10
538.5847501716
 20
202.3626501038
 30
0
  0
VERTEX
  8
0
 10
539.9283394476
 20
201.7470309808
 30
0
  0
SEQEND
  8
0
  0
POLYLINE
  8
0
 62
7
 66
1
  0
VERTEX
  8
0
 10
545.4131663104
 20
202.5955403521
 30
0
  0
VERTEX
  8
0
 10
546.9058044513999
 20
202.5282541587
 30
0
  0
VERTEX
  8
0
 10
550.8979931733001
 20
201.7470309808
 30
0
  0
SEQEND
  8
0
  0
POLYLINE
  8
0
 62
7
 66
1
  0
VERTEX
  8
0
 10
556.3828200361
 20
155.9440428688
 30
0
  0
VERTEX
  8
0
 10
555.6898191830001
 20
155.5842766835
 30
0
  0
VERTEX
  8
0
 10
553.6404066047001
 20
155.0955409481
 30
0
  0
SEQEND
  8
0
  0
POLYLINE
  8
0
 62
7
 66
1
  0
VERTEX
  8
0
 10
537.1859222909
 20
155.0955409481
 30
0
  0
VERTEX
  8
0
 10
535.7870944103
 20
155.3284311964
 30
0
  0
VERTEX
  8
0
 10
534.4435088595
 20
155.9440428688
 30
0
  0
SEQEND
  8
0
  0
POLYLINE
  8
0
 62
7
 66
1
  0
VERTEX
  8
0
 10
553.6404066047001
 20
155.0955409481
 30
0
  0
VERTEX
  8
0
 10
552.8940856716
 20
155.1628271415
 30
0
  0
VERTEX
  8
0
 10
550.8979931733001
 20
155.9440428688
 30
0
  0
SEQEND
  8
0
  0
POLYLINE
  8
0
 62
7
 66
1
  0
VERTEX
  8
0
 10
545.4131663104
 20
155.0955409481
 30
0
  0
VERTEX
  8
0
 10
542.6155105492001
 20
155.3284311964
 30
0
  0
VERTEX
  8
0
 10
539.9283394476
 20
155.9440428688
 30
0
  0
SEQEND
  8
0
  0
POLYLINE
  8
0
 62
7
 66
1
  0
VERTEX
  8
0
 10
641.8377273044
 20
155.0955409481
 30
0
  0
VERTEX
  8
0
 10
639.788314726
 20
155.5842766835
 30
0
  0
VERTEX
  8
0
 10
639.0953138729
 20
155.9440428688
 30
0
  0
SEQEND
  8
0
  0
POLYLINE
  8
0
 62
7
 66
1
  0
VERTEX
  8
0
 10
644.5801407358
 20
155.9440428688
 30
0
  0
VERTEX
  8
0
 10
642.5840482375
 20
155.1628271415
 30
0
  0
VERTEX
  8
0
 10
641.8377273044
 20
155.0955409481
 30
0
  0
SEQEND
  8
0
  0
POLYLINE
  8
0
 62
7
 66
1
  0
VERTEX
  8
0
 10
658.2922116181001
 20
155.0955409481
 30
0
  0
VERTEX
  8
0
 10
656.8933837375
 20
155.3284311964
 30
0
  0
VERTEX
  8
0
 10
655.5497944614
 20
155.9440428688
 30
0
  0
SEQEND
  8
0
  0
POLYLINE
  8
0
 62
7
 66
1
  0
VERTEX
  8
0
 10
650.0649675986
 20
155.0955409481
 30
0
  0
VERTEX
  8
0
 10
647.2673118373
 20
155.3284311964
 30
0
  0
VERTEX
  8
0
 10
644.5801407358
 20
155.9440428688
 30
0
  0
SEQEND
  8
0
  0
POLYLINE
  8
0
 62
7
 66
1
  0
VERTEX
  8
0
 10
547.7272793909
 20
212.5955382659
 30
0
  0
VERTEX
  8
0
 10
547.6888232192
 20
213.888169296
 30
0
  0
VERTEX
  8
0
 10
547.4283769986
 20
216.1322245672
 30
0
  0
VERTEX
  8
0
 10
546.9734594485
 20
217.9881045892
 30
0
  0
VERTEX
  8
0
 10
546.4397110304
 20
219.1804359033
 30
0
  0
VERTEX
  8
0
 10
545.9248237570999
 20
219.5955375507
 30
0
  0
SEQEND
  8
0
  0
POLYLINE
  8
0
 62
7
 66
1
  0
VERTEX
  8
0
 10
672.3295562228
 20
63.4287568106
 30
0
  0
VERTEX
  8
0
 10
681.1179258188
 20
60.0401470735
 30
0
  0
VERTEX
  8
0
 10
689.3064044674835
 20
56.89210913322795
 30
0
  0
SEQEND
  8
0
  0
POLYLINE
  8
0
 62
7
 66
1
  0
VERTEX
  8
0
 10
688.7712292632
 20
127.5405818894
 30
0
  0
VERTEX
  8
0
 10
681.932453092
 20
125.349753566
 30
0
  0
VERTEX
  8
0
 10
678.4187369307
 20
124.1349773779
 30
0
  0
VERTEX
  8
0
 10
674.8392321428
 20
123.1964463665
 30
0
  0
VERTEX
  8
0
 10
671.4364625772
 20
123.2361300214
 30
0
  0
VERTEX
  8
0
 10
668.2382859548621
 20
124.3995065166765
 30
0
  0
SEQEND
  8
0
  0
POLYLINE
  8
0
 62
7
 66
1
  0
VERTEX
  8
0
 10
506.0835518202
 20
58.3247477486
 30
0
  0
VERTEX
  8
0
 10
511.0504366716
 20
55.618506886
 30
0
  0
VERTEX
  8
0
 10
515.6620256862
 20
52.3014301731
 30
0
  0
VERTEX
  8
0
 10
519.8570750913
 20
48.4005818441
 30
0
  0
VERTEX
  8
0
 10
524.9432735404
 20
43.1217970624
 30
0
  0
VERTEX
  8
0
 10
530.3436108192
 20
38.2319661155
 30
0
  0
VERTEX
  8
0
 10
536.042857941
 20
33.7516004517
 30
0
  0
SEQEND
  8
0
  0
POLYLINE
  8
0
 62
7
 66
1
  0
VERTEX
  8
0
 10
521.0956000050733
 20
118.378930754923
 30
0
  0
VERTEX
  8
0
 10
521.5260125956
 20
117.8658409341
 30
0
  0
VERTEX
  8
0
 10
522.166263338
 20
116.90510533
 30
0
  0
VERTEX
  8
0
 10
523.3084522447
 20
115.1880277618
 30
0
  0
VERTEX
  8
0
 10
524.9892883262
 20
112.8964172973
 30
0
  0
VERTEX
  8
0
 10
526.1197053155
 20
111.5126861557
 30
0
  0
VERTEX
  8
0
 10
527.2872783502
 20
110.1810718252
 30
0
  0
VERTEX
  8
0
 10
528.4101106485
 20
108.9901039674
 30
0
  0
VERTEX
  8
0
 10
529.6782218179
 20
107.7936990484
 30
0
  0
VERTEX
  8
0
 10
532.4903913101
 20
105.1910538524
 30
0
  0
VERTEX
  8
0
 10
535.8856991192
 20
102.2736402526
 30
0
  0
SEQEND
  8
0
  0
POLYLINE
  8
0
 62
7
 66
1
  0
VERTEX
  8
0
 10
630.6578219196
 20
84.7562761343
 30
0
  0
VERTEX
  8
0
 10
632.2671771308
 20
83.8660812303
 30
0
  0
VERTEX
  8
0
 10
633.3620995542
 20
83.25622885670001
 30
0
  0
VERTEX
  8
0
 10
634.6877478322
 20
82.5344873889
 30
0
  0
VERTEX
  8
0
 10
636.0129975041
 20
81.7872751801
 30
0
  0
VERTEX
  8
0
 10
637.2592561206
 20
80.7944350242
 30
0
  0
VERTEX
  8
0
 10
638.4875178596
 20
79.5526672452
 30
0
  0
VERTEX
  8
0
 10
639.6650262436
 20
78.3695206343
 30
0
  0
VERTEX
  8
0
 10
640.8139020463
 20
77.3169594183
 30
0
  0
VERTEX
  8
0
 10
641.8477818629
 20
76.4391208365
 30
0
  0
VERTEX
  8
0
 10
642.7639052531
 20
75.74613302189999
 30
0
  0
VERTEX
  8
0
 10
643.8754648229
 20
74.8942522629
 30
0
  0
VERTEX
  8
0
 10
645.1650634667
 20
73.8276960625
 30
0
  0
VERTEX
  8
0
 10
646.7406898996001
 20
72.5100403949
 30
0
  0
VERTEX
  8
0
 10
648.0581462642
 20
71.4102769568
 30
0
  0
VERTEX
  8
0
 10
649.3133604785
 20
70.386282198
 30
0
  0
VERTEX
  8
0
 10
650.3280662259
 20
69.5981076284
 30
0
  0
VERTEX
  8
0
 10
651.367612209
 20
68.8675465359
 30
0
  0
VERTEX
  8
0
 10
652.0092226823671
 20
68.47945696849899
 30
0
  0
SEQEND
  8
0
  0
POLYLINE
  8
0
 62
7
 66
1
  0
VERTEX
  8
0
 10
603.3421829602
 20
60.1700218692
 30
0
  0
VERTEX
  8
0
 10
604.2178711181
 20
60.3000307753
 30
0
  0
VERTEX
  8
0
 10
605.1736478953
 20
60.8855830803
 30
0
  0
SEQEND
  8
0
  0
POLYLINE
  8
0
 62
7
 66
1
  0
VERTEX
  8
0
 10
605.1736478953
 20
60.8855830803
 30
0
  0
VERTEX
  8
0
 10
605.756336849
 20
62.0206212922
 30
0
  0
VERTEX
  8
0
 10
605.9277802965
 20
63.6507356837
 30
0
  0
SEQEND
  8
0
  0
POLYLINE
  8
0
 62
7
 66
1
  0
VERTEX
  8
0
 10
605.1018256953
 20
66.5236236825
 30
0
  0
VERTEX
  8
0
 10
604.3983414097
 20
66.98589868089999
 30
0
  0
VERTEX
  8
0
 10
603.3421829602
 20
67.1700230165
 30
0
  0
SEQEND
  8
0
  0
POLYLINE
  8
0
 62
7
 66
1
  0
VERTEX
  8
0
 10
604.491337694
 20
61.3524271472
 30
0
  0
VERTEX
  8
0
 10
604.0374795234
 20
61.0163258686
 30
0
  0
VERTEX
  8
0
 10
603.3421829602
 20
60.8496731444
 30
0
  0
SEQEND
  8
0
  0
POLYLINE
  8
0
 62
7
 66
1
  0
VERTEX
  8
0
 10
603.3421829602
 20
66.4903717413
 30
0
  0
VERTEX
  8
0
 10
603.8781474603001
 20
66.3986848964
 30
0
  0
VERTEX
  8
0
 10
604.4554263612
 20
66.020867817
 30
0
  0
SEQEND
  8
0
  0
POLYLINE
  8
0
 62
7
 66
1
  0
VERTEX
  8
0
 10
597.7429388644
 20
84.09702687700001
 30
0
  0
VERTEX
  8
0
 10
599.4552057495
 20
84.2122258916
 30
0
  0
VERTEX
  8
0
 10
602.1491713149
 20
84.4108276366
 30
0
  0
VERTEX
  8
0
 10
604.4258317238
 20
84.5720297954
 30
0
  0
VERTEX
  8
0
 10
606.5084152182
 20
84.7111582122
 30
0
  0
VERTEX
  8
0
 10
608.8442281146999
 20
84.8545548803
 30
0
  0
VERTEX
  8
0
 10
611.0499333849
 20
84.97501540179999
 30
0
  0
VERTEX
  8
0
 10
613.1248520946
 20
85.0725407078
 30
0
  0
VERTEX
  8
0
 10
615.0692403575
 20
85.1471303328
 30
0
  0
VERTEX
  8
0
 10
618.5243614277
 20
85.2313987277
 30
0
  0
VERTEX
  8
0
 10
621.7065081259
 20
85.2429638914
 30
0
  0
VERTEX
  8
0
 10
624.8049307873
 20
85.1753526664
 30
0
  0
VERTEX
  8
0
 10
627.8478969147
 20
85.01272604979999
 30
0
  0
VERTEX
  8
0
 10
630.6578219196
 20
84.7562761343
 30
0
  0
SEQEND
  8
0
  0
POLYLINE
  8
0
 62
7
 66
1
  0
VERTEX
  8
0
 10
536.1634120604
 20
102.6735771745
 30
0
  0
VERTEX
  8
0
 10
540.5177772304
 20
100.8317862003
 30
0
  0
VERTEX
  8
0
 10
544.9427888056
 20
98.7898009195
 30
0
  0
VERTEX
  8
0
 10
549.4920537135
 20
96.6973272449
 30
0
  0
VERTEX
  8
0
 10
556.6380545756
 20
93.63041646489999
 30
0
  0
VERTEX
  8
0
 10
564.1548410317
 20
90.77914248400001
 30
0
  0
VERTEX
  8
0
 10
569.3537239244
 20
89.03819977480001
 30
0
  0
VERTEX
  8
0
 10
574.8422332367001
 20
87.561538007
 30
0
  0
VERTEX
  8
0
 10
580.4797355344
 20
86.02564086380001
 30
0
  0
VERTEX
  8
0
 10
589.1172914093
 20
84.4760947227
 30
0
  0
VERTEX
  8
0
 10
597.7429388644
 20
84.09702687700001
 30
0
  0
SEQEND
  8
0
  0
POLYLINE
  8
0
 62
7
 66
1
  0
VERTEX
  8
0
 10
658.5251949986566
 20
138.4606669022866
 30
0
  0
VERTEX
  8
0
 10
658.3486274144
 20
139.9771282747
 30
0
  0
VERTEX
  8
0
 10
658.2390666267
 20
144.3203697278
 30
0
  0
VERTEX
  8
0
 10
658.2390666267
 20
150.8615324571
 30
0
  0
VERTEX
  8
0
 10
658.1446491441
 20
153.0161323323
 30
0
  0
VERTEX
  8
0
 10
657.4155837556
 20
154.6896482184
 30
0
  0
VERTEX
  8
0
 10
656.9843627771001
 20
155.0955409481
 30
0
  0
SEQEND
  8
0
  0
POLYLINE
  8
0
 62
7
 66
1
  0
VERTEX
  8
0
 10
587.5373566782093
 20
123.9942657127164
 30
0
  0
VERTEX
  8
0
 10
587.0541325098
 20
123.5565143003
 30
0
  0
VERTEX
  8
0
 10
585.7465220874
 20
121.6389080807
 30
0
  0
VERTEX
  8
0
 10
585.1993738001
 20
120.0737608894
 30
0
  0
VERTEX
  8
0
 10
584.9026628097
 20
118.4347672685
 30
0
  0
VERTEX
  8
0
 10
584.7875941804
 20
116.3298161998
 30
0
  0
SEQEND
  8
0
  0
POINT
  8
0
 62
7
  6
DASHED
 10
597.7390669545
 20
317.9995926532
 30
0
  0
POINT
  8
0
 62
7
  6
DASHED
 10
597.7390669545
 20
461.9995926532
 30
0
  0
LINE
  8
1
 62
2
 10
879.9708129708333
 20
-99.36702171186131
 30
0
 11
880.6374796375
 21
-99.74202171186131
 31
0
  0
LINE
  8
1
 62
2
 10
873.9708129708333
 20
-99.36702171186131
 30
0
 11
879.9708129708333
 21
-99.36702171186131
 31
0
  0
LINE
  8
1
 62
2
 10
873.3041463041666
 20
-98.99202171186131
 30
0
 11
873.9708129708333
 21
-99.36702171186131
 31
0
  0
LINE
  8
1
 62
2
 10
864.6374796375
 20
-98.24202171186131
 30
0
 11
867.3041463041666
 21
-101.2420217118613
 31
0
  0
LINE
  8
1
 62
2
 10
863.6374796375
 20
-96.74202171186131
 30
0
 11
861.9708129708333
 21
-98.61702171186131
 31
0
  0
LINE
  8
1
 62
2
 10
865.3041463041666
 20
-94.49202171186131
 30
0
 11
863.6374796375
 21
-96.74202171186131
 31
0
  0
LINE
  8
1
 62
2
 10
868.6374796375
 20
-95.99202171186131
 30
0
 11
864.3041463041666
 21
-95.99202171186131
 31
0
  0
LINE
  8
1
 62
2
 10
867.3041463041666
 20
-98.61702171186131
 30
0
 11
868.6374796375
 21
-95.99202171186131
 31
0
  0
LINE
  8
1
 62
2
 10
864.6374796375
 20
-101.6170217118613
 30
0
 11
867.3041463041666
 21
-98.61702171186131
 31
0
  0
LINE
  8
1
 62
2
 10
861.6374796375
 20
-103.8670217118613
 30
0
 11
864.6374796375
 21
-101.6170217118613
 31
0
  0
LINE
  8
1
 62
2
 10
855.9708129708333
 20
-99.36702171186131
 30
0
 11
856.6374796375
 21
-99.74202171186131
 31
0
  0
LINE
  8
1
 62
2
 10
849.9708129708333
 20
-99.36702171186131
 30
0
 11
855.9708129708333
 21
-99.36702171186131
 31
0
  0
LINE
  8
1
 62
2
 10
849.3041463041666
 20
-98.99202171186131
 30
0
 11
849.9708129708333
 21
-99.36702171186131
 31
0
  0
LINE
  8
1
 62
2
 10
841.9708129708333
 20
-99.36702171186131
 30
0
 11
843.6374796375
 21
-101.9920217118613
 31
0
  0
LINE
  8
1
 62
2
 10
840.3041463041666
 20
-97.49202171186131
 30
0
 11
841.9708129708333
 21
-99.36702171186131
 31
0
  0
LINE
  8
1
 62
2
 10
842.6374796375
 20
-98.61702171186131
 30
0
 11
844.3041463041666
 21
-95.24202171186131
 31
0
  0
LINE
  8
1
 62
2
 10
839.9708129708333
 20
-101.9920217118613
 30
0
 11
842.6374796375
 21
-98.61702171186131
 31
0
  0
LINE
  8
1
 62
2
 10
837.6374796375
 20
-103.8670217118613
 30
0
 11
839.9708129708333
 21
-101.9920217118613
 31
0
  0
LINE
  8
1
 62
2
 10
827.6374796375
 20
-104.2420217118613
 30
0
 11
833.9708129708333
 21
-104.2420217118613
 31
0
  0
LINE
  8
1
 62
2
 10
826.3041463041666
 20
-103.8670217118613
 30
0
 11
827.6374796375
 21
-104.2420217118613
 31
0
  0
LINE
  8
1
 62
2
 10
825.3041463041666
 20
-103.1170217118613
 30
0
 11
826.3041463041666
 21
-103.8670217118613
 31
0
  0
LINE
  8
1
 62
2
 10
832.3041463041666
 20
-101.2420217118613
 30
0
 11
828.3041463041666
 21
-101.2420217118613
 31
0
  0
LINE
  8
1
 62
2
 10
828.3041463041666
 20
-99.36702171186131
 30
0
 11
832.3041463041666
 21
-99.36702171186131
 31
0
  0
LINE
  8
1
 62
2
 10
832.3041463041666
 20
-97.86702171186131
 30
0
 11
828.3041463041666
 21
-97.86702171186131
 31
0
  0
LINE
  8
1
 62
2
 10
832.3041463041666
 20
-102.7420217118613
 30
0
 11
832.3041463041666
 21
-97.86702171186131
 31
0
  0
LINE
  8
1
 62
2
 10
828.3041463041666
 20
-102.7420217118613
 30
0
 11
832.3041463041666
 21
-102.7420217118613
 31
0
  0
LINE
  8
1
 62
2
 10
828.3041463041666
 20
-97.86702171186131
 30
0
 11
828.3041463041666
 21
-102.7420217118613
 31
0
  0
LINE
  8
1
 62
2
 10
829.9708129708333
 20
-95.99202171186131
 30
0
 11
828.9708129708333
 21
-97.86702171186131
 31
0
  0
LINE
  8
1
 62
2
 10
826.6374796375
 20
-95.99202171186131
 30
0
 11
833.6374796375
 21
-95.99202171186131
 31
0
  0
LINE
  8
1
 62
2
 10
831.9708129708333
 20
-93.74202171186131
 30
0
 11
830.6374796375
 21
-95.99202171186131
 31
0
  0
LINE
  8
1
 62
2
 10
828.3041463041666
 20
-93.74202171186131
 30
0
 11
829.3041463041666
 21
-95.24202171186131
 31
0
  0
LINE
  8
1
 62
2
 10
824.6374796375
 20
-93.74202171186131
 30
0
 11
825.9708129708333
 21
-95.24202171186131
 31
0
  0
LINE
  8
1
 62
2
 10
825.3041463041666
 20
-98.61702171186131
 30
0
 11
823.9708129708333
 21
-98.61702171186131
 31
0
  0
LINE
  8
1
 62
2
 10
825.3041463041666
 20
-103.1170217118613
 30
0
 11
825.3041463041666
 21
-98.61702171186131
 31
0
  0
LINE
  8
1
 62
2
 10
824.3041463041666
 20
-104.2420217118613
 30
0
 11
825.3041463041666
 21
-103.1170217118613
 31
0
  0
LINE
  8
1
 62
2
 10
820.6374796375
 20
-101.6170217118613
 30
0
 11
822.3041463041666
 21
-103.4920217118613
 31
0
  0
LINE
  8
1
 62
2
 10
819.3041463041666
 20
-99.36702171186131
 30
0
 11
820.6374796375
 21
-101.6170217118613
 31
0
  0
LINE
  8
1
 62
2
 10
818.3041463041666
 20
-96.74202171186131
 30
0
 11
819.3041463041666
 21
-99.36702171186131
 31
0
  0
LINE
  8
1
 62
2
 10
821.3041463041666
 20
-96.36702171186131
 30
0
 11
818.9708129708333
 21
-98.24202171186131
 31
0
  0
LINE
  8
1
 62
2
 10
817.3041463041666
 20
-105.3670217118613
 30
0
 11
816.3041463041666
 21
-104.9920217118613
 31
0
  0
LINE
  8
1
 62
2
 10
817.3041463041666
 20
-93.74202171186131
 30
0
 11
817.3041463041666
 21
-105.3670217118613
 31
0
  0
LINE
  8
1
 62
2
 10
815.6374796375
 20
-97.49202171186131
 30
0
 11
812.3041463041666
 21
-97.49202171186131
 31
0
  0
LINE
  8
1
 62
2
 10
814.9708129708333
 20
-99.74202171186131
 30
0
 11
815.6374796375
 21
-97.49202171186131
 31
0
  0
LINE
  8
1
 62
2
 10
813.6374796375
 20
-101.9920217118613
 30
0
 11
814.9708129708333
 21
-99.74202171186131
 31
0
  0
LINE
  8
1
 62
2
 10
812.3041463041666
 20
-103.4920217118613
 30
0
 11
813.6374796375
 21
-101.9920217118613
 31
0
  0
LINE
  8
1
 62
2
 10
803.8374796375
 20
-96.96702171186132
 30
0
 11
803.8374796375
 21
-105.3670217118613
 31
0
  0
LINE
  8
1
 62
2
 10
808.0374796374999
 20
-98.46702171186131
 30
0
 11
808.0374796374999
 21
-105.3670217118613
 31
0
  0
LINE
  8
1
 62
2
 10
807.7374796375
 20
-97.86702171186131
 30
0
 11
808.0374796374999
 21
-98.46702171186131
 31
0
  0
LINE
  8
1
 62
2
 10
807.1374796375
 20
-97.2670217118613
 30
0
 11
807.7374796375
 21
-97.86702171186131
 31
0
  0
LINE
  8
1
 62
2
 10
806.2374796375
 20
-96.96702171186132
 30
0
 11
807.1374796375
 21
-97.2670217118613
 31
0
  0
LINE
  8
1
 62
2
 10
799.6374796375
 20
-96.96702171186132
 30
0
 11
806.2374796375
 21
-96.96702171186132
 31
0
  0
LINE
  8
1
 62
2
 10
799.6374796375
 20
-105.3670217118613
 30
0
 11
799.6374796375
 21
-96.96702171186132
 31
0
  0
LINE
  8
1
 62
2
 10
791.8374796375
 20
-96.96702171186132
 30
0
 11
791.8374796375
 21
-105.3670217118613
 31
0
  0
LINE
  8
1
 62
2
 10
796.0374796374999
 20
-98.46702171186131
 30
0
 11
796.0374796374999
 21
-105.3670217118613
 31
0
  0
LINE
  8
1
 62
2
 10
795.7374796375
 20
-97.86702171186131
 30
0
 11
796.0374796374999
 21
-98.46702171186131
 31
0
  0
LINE
  8
1
 62
2
 10
795.1374796375
 20
-97.2670217118613
 30
0
 11
795.7374796375
 21
-97.86702171186131
 31
0
  0
LINE
  8
1
 62
2
 10
794.2374796375
 20
-96.96702171186132
 30
0
 11
795.1374796375
 21
-97.2670217118613
 31
0
  0
LINE
  8
1
 62
2
 10
787.6374796375
 20
-96.96702171186132
 30
0
 11
794.2374796375
 21
-96.96702171186132
 31
0
  0
LINE
  8
1
 62
2
 10
787.6374796375
 20
-105.3670217118613
 30
0
 11
787.6374796375
 21
-96.96702171186132
 31
0
  0
LINE
  8
1
 62
2
 10
784.0374796375
 20
-97.86702171186131
 30
0
 11
784.0374796375
 21
-100.8670217118613
 31
0
  0
LINE
  8
1
 62
2
 10
783.7374796375
 20
-96.06702171186132
 30
0
 11
784.0374796375
 21
-97.86702171186131
 31
0
  0
LINE
  8
1
 62
2
 10
783.1374796375
 20
-94.86702171186131
 30
0
 11
783.7374796375
 21
-96.06702171186132
 31
0
  0
LINE
  8
1
 62
2
 10
782.5374796375
 20
-94.2670217118613
 30
0
 11
783.1374796375
 21
-94.86702171186131
 31
0
  0
LINE
  8
1
 62
2
 10
781.6374796375
 20
-93.66702171186131
 30
0
 11
782.5374796375
 21
-94.2670217118613
 31
0
  0
LINE
  8
1
 62
2
 10
780.7374796375
 20
-93.36702171186131
 30
0
 11
781.6374796375
 21
-93.66702171186131
 31
0
  0
LINE
  8
1
 62
2
 10
780.1374796375
 20
-93.36702171186131
 30
0
 11
780.7374796375
 21
-93.36702171186131
 31
0
  0
LINE
  8
1
 62
2
 10
779.2374796375
 20
-93.66702171186131
 30
0
 11
780.1374796375
 21
-93.36702171186131
 31
0
  0
LINE
  8
1
 62
2
 10
778.3374796375
 20
-94.2670217118613
 30
0
 11
779.2374796375
 21
-93.66702171186131
 31
0
  0
LINE
  8
1
 62
2
 10
777.7374796375
 20
-94.86702171186131
 30
0
 11
778.3374796375
 21
-94.2670217118613
 31
0
  0
LINE
  8
1
 62
2
 10
777.1374796375
 20
-96.06702171186132
 30
0
 11
777.7374796375
 21
-94.86702171186131
 31
0
  0
LINE
  8
1
 62
2
 10
776.8374796375
 20
-97.86702171186131
 30
0
 11
777.1374796375
 21
-96.06702171186132
 31
0
  0
LINE
  8
1
 62
2
 10
776.8374796375
 20
-100.8670217118613
 30
0
 11
776.8374796375
 21
-97.86702171186131
 31
0
  0
LINE
  8
1
 62
2
 10
777.1374796375
 20
-102.6670217118613
 30
0
 11
776.8374796375
 21
-100.8670217118613
 31
0
  0
LINE
  8
1
 62
2
 10
777.7374796375
 20
-103.8670217118613
 30
0
 11
777.1374796375
 21
-102.6670217118613
 31
0
  0
LINE
  8
1
 62
2
 10
778.3374796375
 20
-104.4670217118613
 30
0
 11
777.7374796375
 21
-103.8670217118613
 31
0
  0
LINE
  8
1
 62
2
 10
779.2374796375
 20
-105.0670217118613
 30
0
 11
778.3374796375
 21
-104.4670217118613
 31
0
  0
LINE
  8
1
 62
2
 10
780.1374796375
 20
-105.3670217118613
 30
0
 11
779.2374796375
 21
-105.0670217118613
 31
0
  0
LINE
  8
1
 62
2
 10
780.7374796375
 20
-105.3670217118613
 30
0
 11
780.1374796375
 21
-105.3670217118613
 31
0
  0
LINE
  8
1
 62
2
 10
781.6374796375
 20
-105.0670217118613
 30
0
 11
780.7374796375
 21
-105.3670217118613
 31
0
  0
LINE
  8
1
 62
2
 10
782.5374796375
 20
-104.4670217118613
 30
0
 11
781.6374796375
 21
-105.0670217118613
 31
0
  0
LINE
  8
1
 62
2
 10
783.1374796375
 20
-103.8670217118613
 30
0
 11
782.5374796375
 21
-104.4670217118613
 31
0
  0
LINE
  8
1
 62
2
 10
783.7374796375
 20
-102.6670217118613
 30
0
 11
783.1374796375
 21
-103.8670217118613
 31
0
  0
LINE
  8
1
 62
2
 10
784.0374796375
 20
-100.8670217118613
 30
0
 11
783.7374796375
 21
-102.6670217118613
 31
0
  0
LINE
  8
1
 62
2
 10
770.5374796374999
 20
-105.3670217118613
 30
0
 11
766.0374796374999
 21
-105.3670217118613
 31
0
  0
LINE
  8
1
 62
2
 10
771.4374796374999
 20
-105.0670217118613
 30
0
 11
770.5374796374999
 21
-105.3670217118613
 31
0
  0
LINE
  8
1
 62
2
 10
772.3374796374999
 20
-104.4670217118613
 30
0
 11
771.4374796374999
 21
-105.0670217118613
 31
0
  0
LINE
  8
1
 62
2
 10
772.9374796374999
 20
-103.5670217118613
 30
0
 11
772.3374796374999
 21
-104.4670217118613
 31
0
  0
LINE
  8
1
 62
2
 10
773.2374796375
 20
-102.3670217118613
 30
0
 11
772.9374796374999
 21
-103.5670217118613
 31
0
  0
LINE
  8
1
 62
2
 10
773.2374796375
 20
-100.5670217118613
 30
0
 11
773.2374796375
 21
-102.3670217118613
 31
0
  0
LINE
  8
1
 62
2
 10
772.9374796374999
 20
-99.36702171186131
 30
0
 11
773.2374796375
 21
-100.5670217118613
 31
0
  0
LINE
  8
1
 62
2
 10
772.0374796374999
 20
-98.46702171186131
 30
0
 11
772.9374796374999
 21
-99.36702171186131
 31
0
  0
LINE
  8
1
 62
2
 10
770.5374796374999
 20
-98.16702171186131
 30
0
 11
772.0374796374999
 21
-98.46702171186131
 31
0
  0
LINE
  8
1
 62
2
 10
766.0374796374999
 20
-98.16702171186131
 30
0
 11
770.5374796374999
 21
-98.16702171186131
 31
0
  0
LINE
  8
1
 62
2
 10
766.0374796374999
 20
-93.36702171186131
 30
0
 11
766.0374796374999
 21
-98.16702171186131
 31
0
  0
LINE
  8
1
 62
2
 10
772.6374796375
 20
-93.36702171186131
 30
0
 11
766.0374796374999
 21
-93.36702171186131
 31
0
  0
LINE
  8
1
 62
2
 10
759.7041463041666
 20
-100.4920217118613
 30
0
 11
759.7041463041666
 21
-104.9920217118613
 31
0
  0
LINE
  8
1
 62
2
 10
763.7041463041666
 20
-100.4920217118613
 30
0
 11
762.7041463041666
 21
-100.4920217118613
 31
0
  0
LINE
  8
1
 62
2
 10
763.7041463041666
 20
-93.74202171186131
 30
0
 11
763.7041463041666
 21
-100.4920217118613
 31
0
  0
LINE
  8
1
 62
2
 10
761.3708129708333
 20
-98.99202171186131
 30
0
 11
761.3708129708333
 21
-94.11702171186131
 31
0
  0
LINE
  8
1
 62
2
 10
758.0374796374999
 20
-94.11702171186131
 30
0
 11
758.0374796374999
 21
-100.4920217118613
 31
0
  0
LINE
  8
1
 62
2
 10
754.3708129708333
 20
-96.74202171186131
 30
0
 11
760.0374796374999
 21
-96.74202171186131
 31
0
  0
LINE
  8
1
 62
2
 10
759.7041463041666
 20
-94.11702171186131
 30
0
 11
754.7041463041666
 21
-94.11702171186131
 31
0
  0
LINE
  8
1
 62
2
 10
756.3708129708333
 20
-96.74202171186131
 30
0
 11
756.3708129708333
 21
-94.11702171186131
 31
0
  0
LINE
  8
1
 62
2
 10
755.7041463041666
 20
-99.36702171186131
 30
0
 11
756.3708129708333
 21
-96.74202171186131
 31
0
  0
LINE
  8
1
 62
2
 10
754.7041463041666
 20
-100.8670217118613
 30
0
 11
755.7041463041666
 21
-99.36702171186131
 31
0
  0
LINE
  8
1
 62
2
 10
763.0374796374999
 20
-102.3670217118613
 30
0
 11
755.7041463041666
 21
-102.3670217118613
 31
0
  0
LINE
  8
1
 62
2
 10
754.7041463041666
 20
-104.9920217118613
 30
0
 11
764.3708129708333
 21
-104.9920217118613
 31
0
  0
LINE
  8
1
 62
2
 10
746.2374796375
 20
-93.36702171186131
 30
0
 11
746.2374796375
 21
-105.3670217118613
 31
0
  0
LINE
  8
1
 62
2
 10
742.0374796374999
 20
-93.36702171186131
 30
0
 11
750.4374796374999
 21
-93.36702171186131
 31
0
  0
LINE
  8
1
 62
2
 10
738.1374796375
 20
-95.7670217118613
 30
0
 11
738.4374796374999
 21
-96.96702171186132
 31
0
  0
LINE
  8
1
 62
2
 10
737.5374796374999
 20
-94.86702171186131
 30
0
 11
738.1374796375
 21
-95.7670217118613
 31
0
  0
LINE
  8
1
 62
2
 10
736.9374796374999
 20
-94.2670217118613
 30
0
 11
737.5374796374999
 21
-94.86702171186131
 31
0
  0
LINE
  8
1
 62
2
 10
736.0374796374999
 20
-93.66702171186131
 30
0
 11
736.9374796374999
 21
-94.2670217118613
 31
0
  0
LINE
  8
1
 62
2
 10
734.8374796374999
 20
-93.36702171186131
 30
0
 11
736.0374796374999
 21
-93.66702171186131
 31
0
  0
LINE
  8
1
 62
2
 10
730.0374796374999
 20
-93.36702171186131
 30
0
 11
734.8374796374999
 21
-93.36702171186131
 31
0
  0
LINE
  8
1
 62
2
 10
730.0374796374999
 20
-105.3670217118613
 30
0
 11
730.0374796374999
 21
-93.36702171186131
 31
0
  0
LINE
  8
1
 62
2
 10
734.8374796374999
 20
-105.3670217118613
 30
0
 11
730.0374796374999
 21
-105.3670217118613
 31
0
  0
LINE
  8
1
 62
2
 10
736.0374796374999
 20
-105.0670217118613
 30
0
 11
734.8374796374999
 21
-105.3670217118613
 31
0
  0
LINE
  8
1
 62
2
 10
736.9374796374999
 20
-104.4670217118613
 30
0
 11
736.0374796374999
 21
-105.0670217118613
 31
0
  0
LINE
  8
1
 62
2
 10
737.5374796374999
 20
-103.8670217118613
 30
0
 11
736.9374796374999
 21
-104.4670217118613
 31
0
  0
LINE
  8
1
 62
2
 10
738.1374796375
 20
-102.9670217118613
 30
0
 11
737.5374796374999
 21
-103.8670217118613
 31
0
  0
LINE
  8
1
 62
2
 10
738.4374796374999
 20
-101.7670217118613
 30
0
 11
738.1374796375
 21
-102.9670217118613
 31
0
  0
LINE
  8
1
 62
2
 10
738.4374796374999
 20
-96.96702171186132
 30
0
 11
738.4374796374999
 21
-101.7670217118613
 31
0
  0
LINE
  8
1
 62
2
 10
718.0374796374999
 20
-93.36702171186131
 30
0
 11
718.0374796374999
 21
-105.3670217118613
 31
0
  0
LINE
  8
1
 62
2
 10
726.4374796374999
 20
-93.36702171186131
 30
0
 11
718.0374796374999
 21
-93.36702171186131
 31
0
  0
LINE
  8
1
 62
2
 10
718.0374796374999
 20
-98.76702171186132
 30
0
 11
726.4374796374999
 21
-98.76702171186132
 31
0
  0
LINE
  8
1
 62
2
 10
706.0374796374999
 20
-105.3670217118613
 30
0
 11
714.4374796374999
 21
-105.3670217118613
 31
0
  0
LINE
  8
1
 62
2
 10
706.0374796374999
 20
-93.36702171186131
 30
0
 11
706.0374796374999
 21
-105.3670217118613
 31
0
  0
LINE
  8
1
 62
2
 10
714.4374796374999
 20
-93.36702171186131
 30
0
 11
706.0374796374999
 21
-93.36702171186131
 31
0
  0
LINE
  8
1
 62
2
 10
713.2374796375
 20
-98.76702171186132
 30
0
 11
706.0374796374999
 21
-98.76702171186132
 31
0
  0
LINE
  8
1
 62
2
 10
846.3374796375
 20
-128.6170217118613
 30
0
 11
852.6708129708333
 21
-128.6170217118613
 31
0
  0
LINE
  8
1
 62
2
 10
849.6708129708333
 20
-117.7420217118613
 30
0
 11
849.6708129708333
 21
-128.6170217118613
 31
0
  0
LINE
  8
1
 62
2
 10
847.3374796375
 20
-122.2420217118613
 30
0
 11
852.0041463041666
 21
-122.2420217118613
 31
0
  0
LINE
  8
1
 62
2
 10
845.3374796375
 20
-122.6170217118613
 30
0
 11
847.0041463041666
 21
-124.4920217118613
 31
0
  0
LINE
  8
1
 62
2
 10
844.6708129708333
 20
-119.9920217118613
 30
0
 11
844.6708129708333
 21
-117.7420217118613
 31
0
  0
LINE
  8
1
 62
2
 10
846.3374796375
 20
-119.9920217118613
 30
0
 11
842.6708129708333
 21
-119.9920217118613
 31
0
  0
LINE
  8
1
 62
2
 10
845.0041463041666
 20
-121.8670217118613
 30
0
 11
846.3374796375
 21
-119.9920217118613
 31
0
  0
LINE
  8
1
 62
2
 10
843.3374796375
 20
-123.7420217118613
 30
0
 11
845.0041463041666
 21
-121.8670217118613
 31
0
  0
LINE
  8
1
 62
2
 10
842.0041463041666
 20
-124.8670217118613
 30
0
 11
843.3374796375
 21
-123.7420217118613
 31
0
  0
LINE
  8
1
 62
2
 10
844.6708129708333
 20
-128.9920217118613
 30
0
 11
844.6708129708333
 21
-122.2420217118613
 31
0
  0
LINE
  8
1
 62
2
 10
835.3374796375
 20
-124.8670217118613
 30
0
 11
832.0041463041666
 21
-128.9920217118613
 31
0
  0
LINE
  8
1
 62
2
 10
839.3374796375
 20
-129.3670217118613
 30
0
 11
837.0041463041666
 21
-126.7420217118613
 31
0
  0
LINE
  8
1
 62
2
 10
831.0041463041666
 20
-128.9920217118613
 30
0
 11
838.3374796375
 21
-128.2420217118613
 31
0
  0
LINE
  8
1
 62
2
 10
831.6708129708333
 20
-124.4920217118613
 30
0
 11
839.3374796375
 21
-124.4920217118613
 31
0
  0
LINE
  8
1
 62
2
 10
833.0041463041666
 20
-122.6170217118613
 30
0
 11
837.6708129708333
 21
-122.6170217118613
 31
0
  0
LINE
  8
1
 62
2
 10
835.3374796375
 20
-117.7420217118613
 30
0
 11
840.6708129708333
 21
-123.3670217118613
 31
0
  0
LINE
  8
1
 62
2
 10
835.3374796375
 20
-117.7420217118613
 30
0
 11
830.0041463041666
 21
-123.3670217118613
 31
0
  0
LINE
  8
1
 62
2
 10
827.6708129708333
 20
-128.9920217118613
 30
0
 11
828.6708129708333
 21
-127.8670217118613
 31
0
  0
LINE
  8
1
 62
2
 10
826.3374796375
 20
-127.4920217118613
 30
0
 11
827.6708129708333
 21
-128.9920217118613
 31
0
  0
LINE
  8
1
 62
2
 10
825.0041463041666
 20
-124.8670217118613
 30
0
 11
826.3374796375
 21
-127.4920217118613
 31
0
  0
LINE
  8
1
 62
2
 10
824.3374796375
 20
-121.8670217118613
 30
0
 11
825.0041463041666
 21
-124.8670217118613
 31
0
  0
LINE
  8
1
 62
2
 10
824.0041463041666
 20
-117.3670217118613
 30
0
 11
824.3374796375
 21
-121.8670217118613
 31
0
  0
LINE
  8
1
 62
2
 10
826.0041463041666
 20
-118.8670217118613
 30
0
 11
825.0041463041666
 21
-117.7420217118613
 31
0
  0
LINE
  8
1
 62
2
 10
818.0041463041666
 20
-119.9920217118613
 30
0
 11
827.6708129708333
 21
-119.9920217118613
 31
0
  0
LINE
  8
1
 62
2
 10
821.0041463041666
 20
-122.9920217118613
 30
0
 11
821.0041463041666
 21
-127.1170217118613
 31
0
  0
LINE
  8
1
 62
2
 10
823.3374796375
 20
-122.9920217118613
 30
0
 11
818.6708129708333
 21
-122.9920217118613
 31
0
  0
LINE
  8
1
 62
2
 10
818.6708129708333
 20
-127.8670217118613
 30
0
 11
823.3374796375
 21
-126.3670217118613
 31
0
  0
LINE
  8
1
 62
2
 10
815.0041463041666
 20
-126.3670217118613
 30
0
 11
816.3374796375
 21
-128.9920217118613
 31
0
  0
LINE
  8
1
 62
2
 10
813.3374796375
 20
-122.9920217118613
 30
0
 11
815.0041463041666
 21
-126.3670217118613
 31
0
  0
LINE
  8
1
 62
2
 10
812.3374796375
 20
-125.6170217118613
 30
0
 11
813.3374796375
 21
-122.9920217118613
 31
0
  0
LINE
  8
1
 62
2
 10
811.0041463041666
 20
-127.4920217118613
 30
0
 11
812.3374796375
 21
-125.6170217118613
 31
0
  0
LINE
  8
1
 62
2
 10
810.0041463041666
 20
-128.9920217118613
 30
0
 11
811.0041463041666
 21
-127.4920217118613
 31
0
  0
LINE
  8
1
 62
2
 10
813.3374796375
 20
-117.3670217118613
 30
0
 11
813.3374796375
 21
-129.3670217118613
 31
0
  0
LINE
  8
1
 62
2
 10
816.3374796375
 20
-122.9920217118613
 30
0
 11
810.6708129708333
 21
-122.9920217118613
 31
0
  0
LINE
  8
1
 62
2
 10
811.6708129708333
 20
-120.3670217118613
 30
0
 11
816.0041463041666
 21
-120.3670217118613
 31
0
  0
LINE
  8
1
 62
2
 10
811.6708129708333
 20
-120.3670217118613
 30
0
 11
812.0041463041666
 21
-118.4920217118613
 31
0
  0
LINE
  8
1
 62
2
 10
810.6708129708333
 20
-122.2420217118613
 30
0
 11
811.6708129708333
 21
-120.3670217118613
 31
0
  0
LINE
  8
1
 62
2
 10
808.3374796375
 20
-120.7420217118613
 30
0
 11
810.0041463041666
 21
-123.7420217118613
 31
0
  0
LINE
  8
1
 62
2
 10
806.3374796375
 20
-125.9920217118613
 30
0
 11
808.3374796375
 21
-120.7420217118613
 31
0
  0
LINE
  8
1
 62
2
 10
810.0041463041666
 20
-120.7420217118613
 30
0
 11
806.6708129708333
 21
-120.7420217118613
 31
0
  0
LINE
  8
1
 62
2
 10
808.3374796375
 20
-128.9920217118613
 30
0
 11
808.3374796375
 21
-117.3670217118613
 31
0
  0
LINE
  8
1
 62
2
 10
800.3374796375
 20
-119.9920217118613
 30
0
 11
803.6708129708333
 21
-119.9920217118613
 31
0
  0
LINE
  8
1
 62
2
 10
800.3374796375
 20
-121.8670217118613
 30
0
 11
803.6708129708333
 21
-121.8670217118613
 31
0
  0
LINE
  8
1
 62
2
 10
800.3374796375
 20
-118.1170217118613
 30
0
 11
800.3374796375
 21
-121.8670217118613
 31
0
  0
LINE
  8
1
 62
2
 10
803.6708129708333
 20
-118.1170217118613
 30
0
 11
800.3374796375
 21
-118.1170217118613
 31
0
  0
LINE
  8
1
 62
2
 10
803.6708129708333
 20
-128.6170217118613
 30
0
 11
803.6708129708333
 21
-118.1170217118613
 31
0
  0
LINE
  8
1
 62
2
 10
803.3374796375
 20
-128.9920217118613
 30
0
 11
803.6708129708333
 21
-128.6170217118613
 31
0
  0
LINE
  8
1
 62
2
 10
802.3374796375
 20
-128.9920217118613
 30
0
 11
803.3374796375
 21
-128.9920217118613
 31
0
  0
LINE
  8
1
 62
2
 10
798.3374796375
 20
-119.9920217118613
 30
0
 11
795.0041463041666
 21
-119.9920217118613
 31
0
  0
LINE
  8
1
 62
2
 10
798.3374796375
 20
-121.8670217118613
 30
0
 11
795.0041463041666
 21
-121.8670217118613
 31
0
  0
LINE
  8
1
 62
2
 10
798.3374796375
 20
-118.1170217118613
 30
0
 11
798.3374796375
 21
-121.8670217118613
 31
0
  0
LINE
  8
1
 62
2
 10
795.0041463041666
 20
-118.1170217118613
 30
0
 11
798.3374796375
 21
-118.1170217118613
 31
0
  0
LINE
  8
1
 62
2
 10
795.0041463041666
 20
-128.9920217118613
 30
0
 11
795.0041463041666
 21
-118.1170217118613
 31
0
  0
LINE
  8
1
 62
2
 10
791.3374796375
 20
-122.2420217118613
 30
0
 11
792.6708129708333
 21
-123.3670217118613
 31
0
  0
LINE
  8
1
 62
2
 10
789.0041463041666
 20
-119.6170217118613
 30
0
 11
791.3374796375
 21
-122.2420217118613
 31
0
  0
LINE
  8
1
 62
2
 10
787.3374796375
 20
-117.3670217118613
 30
0
 11
789.0041463041666
 21
-119.6170217118613
 31
0
  0
LINE
  8
1
 62
2
 10
785.6708129708333
 20
-119.6170217118613
 30
0
 11
787.3374796375
 21
-117.3670217118613
 31
0
  0
LINE
  8
1
 62
2
 10
783.3374796375
 20
-122.2420217118613
 30
0
 11
785.6708129708333
 21
-119.6170217118613
 31
0
  0
LINE
  8
1
 62
2
 10
782.0041463041666
 20
-123.3670217118613
 30
0
 11
783.3374796375
 21
-122.2420217118613
 31
0
  0
LINE
  8
1
 62
2
 10
789.0041463041666
 20
-127.4920217118613
 30
0
 11
789.6708129708333
 21
-125.6170217118613
 31
0
  0
LINE
  8
1
 62
2
 10
785.0041463041666
 20
-125.6170217118613
 30
0
 11
785.6708129708333
 21
-127.4920217118613
 31
0
  0
LINE
  8
1
 62
2
 10
790.6708129708333
 20
-124.1170217118613
 30
0
 11
784.0041463041666
 21
-124.1170217118613
 31
0
  0
LINE
  8
1
 62
2
 10
785.0041463041666
 20
-121.8670217118613
 30
0
 11
789.6708129708333
 21
-121.8670217118613
 31
0
  0
LINE
  8
1
 62
2
 10
787.3374796375
 20
-128.9920217118613
 30
0
 11
787.3374796375
 21
-121.8670217118613
 31
0
  0
LINE
  8
1
 62
2
 10
783.0041463041666
 20
-128.9920217118613
 30
0
 11
791.3374796375
 21
-128.9920217118613
 31
0
  0
LINE
  8
1
 62
2
 10
778.3374796375
 20
-125.6170217118613
 30
0
 11
780.0041463041666
 21
-123.3670217118613
 31
0
  0
LINE
  8
1
 62
2
 10
775.6708129708333
 20
-127.1170217118613
 30
0
 11
778.3374796375
 21
-125.6170217118613
 31
0
  0
LINE
  8
1
 62
2
 10
775.6708129708333
 20
-120.3670217118613
 30
0
 11
775.6708129708333
 21
-127.1170217118613
 31
0
  0
LINE
  8
1
 62
2
 10
773.0041463041666
 20
-123.3670217118613
 30
0
 11
773.3374796375
 21
-120.3670217118613
 31
0
  0
LINE
  8
1
 62
2
 10
772.3374796375
 20
-125.6170217118613
 30
0
 11
773.0041463041666
 21
-123.3670217118613
 31
0
  0
LINE
  8
1
 62
2
 10
771.3374796375
 20
-127.4920217118613
 30
0
 11
772.3374796375
 21
-125.6170217118613
 31
0
  0
LINE
  8
1
 62
2
 10
763.6708129708333
 20
-128.2420217118613
 30
0
 11
765.6708129708333
 21
-127.8670217118613
 31
0
  0
LINE
  8
1
 62
2
 10
760.3374796375
 20
-127.8670217118613
 30
0
 11
763.6708129708333
 21
-128.2420217118613
 31
0
  0
LINE
  8
1
 62
2
 10
760.0041463041666
 20
-126.7420217118613
 30
0
 11
760.3374796375
 21
-127.8670217118613
 31
0
  0
LINE
  8
1
 62
2
 10
760.0041463041666
 20
-120.3670217118613
 30
0
 11
760.0041463041666
 21
-126.7420217118613
 31
0
  0
LINE
  8
1
 62
2
 10
766.3374796375
 20
-119.6170217118613
 30
0
 11
767.3374796375
 21
-120.7420217118613
 31
0
  0
LINE
  8
1
 62
2
 10
766.6708129708333
 20
-121.4920217118613
 30
0
 11
765.6708129708333
 21
-120.3670217118613
 31
0
  0
LINE
  8
1
 62
2
 10
763.0041463041666
 20
-123.3670217118613
 30
0
 11
765.0041463041666
 21
-122.2420217118613
 31
0
  0
LINE
  8
1
 62
2
 10
760.0041463041666
 20
-124.4920217118613
 30
0
 11
763.0041463041666
 21
-123.3670217118613
 31
0
  0
LINE
  8
1
 62
2
 10
752.6708129708333
 20
-125.6170217118613
 30
0
 11
754.6708129708333
 21
-127.8670217118613
 31
0
  0
LINE
  8
1
 62
2
 10
751.0041463041666
 20
-124.1170217118613
 30
0
 11
752.6708129708333
 21
-125.6170217118613
 31
0
  0
LINE
  8
1
 62
2
 10
755.0041463041666
 20
-118.8670217118613
 30
0
 11
756.0041463041666
 21
-119.9920217118613
 31
0
  0
LINE
  8
1
 62
2
 10
754.3374796375
 20
-119.6170217118613
 30
0
 11
755.3374796375
 21
-120.7420217118613
 31
0
  0
LINE
  8
1
 62
2
 10
753.0041463041666
 20
-120.3670217118613
 30
0
 11
748.6708129708333
 21
-120.3670217118613
 31
0
  0
LINE
  8
1
 62
2
 10
752.0041463041666
 20
-122.6170217118613
 30
0
 11
753.0041463041666
 21
-120.3670217118613
 31
0
  0
LINE
  8
1
 62
2
 10
749.6708129708333
 20
-125.9920217118613
 30
0
 11
752.0041463041666
 21
-122.6170217118613
 31
0
  0
LINE
  8
1
 62
2
 10
747.3374796375
 20
-127.8670217118613
 30
0
 11
749.6708129708333
 21
-125.9920217118613
 31
0
  0
LINE
  8
1
 62
2
 10
743.3374796375
 20
-120.7420217118613
 30
0
 11
740.3374796375
 21
-124.1170217118613
 31
0
  0
LINE
  8
1
 62
2
 10
735.6708129708333
 20
-120.7420217118613
 30
0
 11
743.3374796375
 21
-120.7420217118613
 31
0
  0
LINE
  8
1
 62
2
 10
739.3374796375
 20
-124.1170217118613
 30
0
 11
739.6708129708333
 21
-122.2420217118613
 31
0
  0
LINE
  8
1
 62
2
 10
738.6708129708333
 20
-126.3670217118613
 30
0
 11
739.3374796375
 21
-124.1170217118613
 31
0
  0
LINE
  8
1
 62
2
 10
737.3374796375
 20
-128.6170217118613
 30
0
 11
738.6708129708333
 21
-126.3670217118613
 31
0
  0
LINE
  8
1
 62
2
 10
1047.286478027736
 20
174.7219632806
 30
0
 11
1047.286478027736
 21
180.0136299473
 31
0
  0
LINE
  8
1
 62
2
 10
1045.758509277727
 20
174.7219632806
 30
0
 11
1047.286478027736
 21
174.7219632806
 31
0
  0
LINE
  8
1
 62
2
 10
1045.351050944391
 20
174.8542549472675
 30
0
 11
1045.758509277727
 21
174.7219632806
 31
0
  0
LINE
  8
1
 62
2
 10
1045.147321777723
 20
174.986546613935
 30
0
 11
1045.351050944391
 21
174.8542549472675
 31
0
  0
LINE
  8
1
 62
2
 10
1044.943592611055
 20
175.25112994727
 30
0
 11
1045.147321777723
 21
174.986546613935
 31
0
  0
LINE
  8
1
 62
2
 10
1044.841728027721
 20
175.78029661394
 30
0
 11
1044.943592611055
 21
175.25112994727
 31
0
  0
LINE
  8
1
 62
2
 10
1044.841728027721
 20
177.36779661395
 30
0
 11
1044.841728027721
 21
175.78029661394
 31
0
  0
LINE
  8
1
 62
2
 10
1044.943592611055
 20
177.89696328062
 30
0
 11
1044.841728027721
 21
177.36779661395
 31
0
  0
LINE
  8
1
 62
2
 10
1045.147321777723
 20
178.161546613955
 30
0
 11
1044.943592611055
 21
177.89696328062
 31
0
  0
LINE
  8
1
 62
2
 10
1045.351050944391
 20
178.2938382806225
 30
0
 11
1045.147321777723
 21
178.161546613955
 31
0
  0
LINE
  8
1
 62
2
 10
1045.758509277727
 20
178.42612994729
 30
0
 11
1045.351050944391
 21
178.2938382806225
 31
0
  0
LINE
  8
1
 62
2
 10
1047.286478027736
 20
178.42612994729
 30
0
 11
1045.758509277727
 21
178.42612994729
 31
0
  0
LINE
  8
1
 62
2
 10
1042.564754988491
 20
179.30807439174
 30
0
 11
1041.366348125738
 21
173.31085216948
 31
0
  0
LINE
  8
1
 62
2
 10
1042.804436361041
 20
177.89696328062
 30
0
 11
1042.325073615941
 21
178.07335216951
 31
0
  0
LINE
  8
1
 62
2
 10
1043.044117733592
 20
177.54418550284
 30
0
 11
1042.804436361041
 21
177.89696328062
 31
0
  0
LINE
  8
1
 62
2
 10
1043.163958419867
 20
177.01501883617
 30
0
 11
1043.044117733592
 21
177.54418550284
 31
0
  0
LINE
  8
1
 62
2
 10
1043.163958419867
 20
176.13307439172
 30
0
 11
1043.163958419867
 21
177.01501883617
 31
0
  0
LINE
  8
1
 62
2
 10
1042.924277047317
 20
175.42751883616
 30
0
 11
1043.163958419867
 21
176.13307439172
 31
0
  0
LINE
  8
1
 62
2
 10
1042.684595674766
 20
175.07474105838
 30
0
 11
1042.924277047317
 21
175.42751883616
 31
0
  0
LINE
  8
1
 62
2
 10
1042.205232929665
 20
174.7219632806
 30
0
 11
1042.684595674766
 21
175.07474105838
 31
0
  0
LINE
  8
1
 62
2
 10
1041.725870184564
 20
174.54557439171
 30
0
 11
1042.205232929665
 21
174.7219632806
 31
0
  0
LINE
  8
1
 62
2
 10
1041.366348125738
 20
174.7219632806
 30
0
 11
1041.725870184564
 21
174.54557439171
 31
0
  0
LINE
  8
1
 62
2
 10
1041.006826066913
 20
175.07474105838
 30
0
 11
1041.366348125738
 21
174.7219632806
 31
0
  0
LINE
  8
1
 62
2
 10
1040.886985380637
 20
175.60390772505
 30
0
 11
1041.006826066913
 21
175.07474105838
 31
0
  0
LINE
  8
1
 62
2
 10
1040.886985380637
 20
176.30946328061
 30
0
 11
1040.886985380637
 21
175.60390772505
 31
0
  0
LINE
  8
1
 62
2
 10
1041.006826066913
 20
176.83862994728
 30
0
 11
1040.886985380637
 21
176.30946328061
 31
0
  0
LINE
  8
1
 62
2
 10
1041.366348125738
 20
177.36779661395
 30
0
 11
1041.006826066913
 21
176.83862994728
 31
0
  0
LINE
  8
1
 62
2
 10
1041.725870184564
 20
177.72057439173
 30
0
 11
1041.366348125738
 21
177.36779661395
 31
0
  0
LINE
  8
1
 62
2
 10
1042.325073615941
 20
178.07335216951
 30
0
 11
1041.725870184564
 21
177.72057439173
 31
0
  0
LINE
  8
1
 62
2
 10
1036.788433910023
 20
176.574046613945
 30
0
 11
1038.825725576703
 21
176.574046613945
 31
0
  0
LINE
  8
1
 62
2
 10
1035.566058910015
 20
177.7646716139525
 30
0
 11
1035.566058910015
 21
174.7219632806
 31
0
  0
LINE
  8
1
 62
2
 10
1035.464194326681
 20
178.0292549472875
 30
0
 11
1035.566058910015
 21
177.7646716139525
 31
0
  0
LINE
  8
1
 62
2
 10
1035.260465160013
 20
178.2938382806225
 30
0
 11
1035.464194326681
 21
178.0292549472875
 31
0
  0
LINE
  8
1
 62
2
 10
1034.954871410012
 20
178.42612994729
 30
0
 11
1035.260465160013
 21
178.2938382806225
 31
0
  0
LINE
  8
1
 62
2
 10
1033.12130891
 20
178.42612994729
 30
0
 11
1034.954871410012
 21
178.42612994729
 31
0
  0
LINE
  8
1
 62
2
 10
1033.12130891
 20
174.7219632806
 30
0
 11
1033.12130891
 21
178.42612994729
 31
0
  0
LINE
  8
1
 62
2
 10
1042.982153795819
 20
61.93498123069143
 30
0
 11
1041.727053925285
 21
62.27128422742153
 31
0
  0
LINE
  8
1
 62
2
 10
1043.2622909125
 20
61.97638728680294
 30
0
 11
1042.982153795819
 21
61.93498123069143
 31
0
  0
LINE
  8
1
 62
2
 10
1043.571545171755
 20
62.12645999837196
 30
0
 11
1043.2622909125
 21
61.97638728680294
 31
0
  0
LINE
  8
1
 62
2
 10
1043.826243248881
 20
62.40761956518051
 30
0
 11
1043.571545171755
 21
62.12645999837196
 31
0
  0
LINE
  8
1
 62
2
 10
1044.02638514388
 20
62.81986598722859
 30
0
 11
1043.826243248881
 21
62.40761956518051
 31
0
  0
LINE
  8
1
 62
2
 10
1044.17197085675
 20
63.36319926451619
 30
0
 11
1044.02638514388
 21
62.81986598722859
 31
0
  0
LINE
  8
1
 62
2
 10
1044.204766102344
 20
63.82028608612827
 30
0
 11
1044.17197085675
 21
63.36319926451619
 31
0
  0
LINE
  8
1
 62
2
 10
1044.17932706279
 20
64.06003959682532
 30
0
 11
1044.204766102344
 21
63.82028608612827
 31
0
  0
LINE
  8
1
 62
2
 10
1044.070214698533
 20
64.32221330730437
 30
0
 11
1044.17932706279
 21
64.06003959682532
 31
0
  0
LINE
  8
1
 62
2
 10
1043.764638542298
 20
64.52056076188991
 30
0
 11
1044.070214698533
 21
64.32221330730437
 31
0
  0
LINE
  8
1
 62
2
 10
1044.044775658979
 20
64.56196681800142
 30
0
 11
1043.764638542298
 21
64.52056076188991
 31
0
  0
LINE
  8
1
 62
2
 10
1044.241239450957
 20
64.62579307389493
 30
0
 11
1044.044775658979
 21
64.56196681800142
 31
0
  0
LINE
  8
1
 62
2
 10
1044.46682038551
 20
64.79828598524595
 30
0
 11
1044.241239450957
 21
64.62579307389493
 31
0
  0
LINE
  8
1
 62
2
 10
1044.637845137935
 20
65.10186575183651
 30
0
 11
1044.46682038551
 21
64.79828598524595
 31
0
  0
LINE
  8
1
 62
2
 10
1044.725196565657
 20
65.42786571820906
 30
0
 11
1044.637845137935
 21
65.10186575183651
 31
0
  0
LINE
  8
1
 62
2
 10
1044.728874668676
 20
65.77628588436363
 30
0
 11
1044.725196565657
 21
65.42786571820906
 31
0
  0
LINE
  8
1
 62
2
 10
1044.536088979718
 20
66.0608797946247
 30
0
 11
1044.728874668676
 21
65.77628588436363
 31
0
  0
LINE
  8
1
 62
2
 10
1044.14683949878
 20
66.28164744899225
 30
0
 11
1044.536088979718
 21
66.0608797946247
 31
0
  0
LINE
  8
1
 62
2
 10
1042.891739628246
 20
66.61795044572233
 30
0
 11
1044.14683949878
 21
66.28164744899225
 31
0
  0
LINE
  8
1
 62
2
 10
1042.927905295275
 20
64.74476275970997
 30
0
 11
1043.764638542298
 21
64.52056076188991
 31
0
  0
LINE
  8
1
 62
2
 10
1041.571049266524
 20
66.04007979922825
 30
0
 11
1041.53825402093
 21
65.58299297761616
 31
0
  0
LINE
  8
1
 62
2
 10
1041.491054044841
 20
66.41092016516483
 30
0
 11
1041.571049266524
 21
66.04007979922825
 31
0
  0
LINE
  8
1
 62
2
 10
1041.381941680585
 20
66.67309387564387
 30
0
 11
1041.491054044841
 21
66.41092016516483
 31
0
  0
LINE
  8
1
 62
2
 10
1041.189155991626
 20
66.95768778590492
 30
0
 11
1041.381941680585
 21
66.67309387564387
 31
0
  0
LINE
  8
1
 62
2
 10
1040.883579835391
 20
67.15603524049047
 30
0
 11
1041.189155991626
 21
66.95768778590492
 31
0
  0
LINE
  8
1
 62
2
 10
1039.544806640154
 20
67.51475843700257
 30
0
 11
1040.883579835391
 21
67.15603524049047
 31
0
  0
LINE
  8
1
 62
2
 10
1038.380120937193
 20
63.16809221870176
 30
0
 11
1039.544806640154
 21
67.51475843700257
 31
0
  0
LINE
  8
1
 62
2
 10
1039.71889413243
 20
62.80936902218966
 30
0
 11
1038.380120937193
 21
63.16809221870176
 31
0
  0
LINE
  8
1
 62
2
 10
1040.082704573813
 20
62.82835487851916
 30
0
 11
1039.71889413243
 21
62.80936902218966
 31
0
  0
LINE
  8
1
 62
2
 10
1040.391958833068
 20
62.97842759008819
 30
0
 11
1040.082704573813
 21
62.82835487851916
 31
0
  0
LINE
  8
1
 62
2
 10
1040.61753976762
 20
63.15092050143922
 30
0
 11
1040.391958833068
 21
62.97842759008819
 31
0
  0
LINE
  8
1
 62
2
 10
1040.872237844747
 20
63.43208006824776
 30
0
 11
1040.61753976762
 21
63.15092050143922
 31
0
  0
LINE
  8
1
 62
2
 10
1041.072379739745
 20
63.84432649029584
 30
0
 11
1040.872237844747
 21
63.43208006824776
 31
0
  0
LINE
  8
1
 62
2
 10
1041.53825402093
 20
65.58299297761616
 30
0
 11
1041.072379739745
 21
63.84432649029584
 31
0
  0
LINE
  8
1
 62
2
 10
1048.74077033145
 20
110.2035347420146
 30
0
 11
1050.799920402864
 21
110.4901389698266
 31
0
  0
LINE
  8
1
 62
2
 10
1050.225093507134
 20
113.363327895471
 30
0
 11
1048.74077033145
 21
110.2035347420146
 31
0
  0
LINE
  8
1
 62
2
 10
1050.334653799273
 20
113.8329150597828
 30
0
 11
1050.225093507134
 21
113.363327895471
 31
0
  0
LINE
  8
1
 62
2
 10
1050.272618252127
 20
114.2786185384437
 30
0
 11
1050.334653799273
 21
113.8329150597828
 31
0
  0
LINE
  8
1
 62
2
 10
1050.054495752484
 20
114.5890124617883
 30
0
 11
1050.272618252127
 21
114.2786185384437
 31
0
  0
LINE
  8
1
 62
2
 10
1049.766084219984
 20
114.7760386726422
 30
0
 11
1050.054495752484
 21
114.5890124617883
 31
0
  0
LINE
  8
1
 62
2
 10
1049.407383654629
 20
114.8396971710054
 30
0
 11
1049.766084219984
 21
114.7760386726422
 31
0
  0
LINE
  8
1
 62
2
 10
1048.892596136776
 20
114.7680461140524
 30
0
 11
1049.407383654629
 21
114.8396971710054
 31
0
  0
LINE
  8
1
 62
2
 10
1048.564913344993
 20
114.6088528730852
 30
0
 11
1048.892596136776
 21
114.7680461140524
 31
0
  0
LINE
  8
1
 62
2
 10
1048.33853735964
 20
114.3501756052783
 30
0
 11
1048.564913344993
 21
114.6088528730852
 31
0
  0
LINE
  8
1
 62
2
 10
1048.213468180714
 20
113.9920143106317
 30
0
 11
1048.33853735964
 21
114.3501756052783
 31
0
  0
LINE
  8
1
 62
2
 10
1047.129112998938
 20
113.6139186145698
 30
0
 11
1047.276946465726
 21
113.1801569787345
 31
0
  0
LINE
  8
1
 62
2
 10
1046.910990499295
 20
113.9243125379144
 30
0
 11
1047.129112998938
 21
113.6139186145698
 31
0
  0
LINE
  8
1
 62
2
 10
1046.708376886438
 20
114.1232805915938
 30
0
 11
1046.910990499295
 21
113.9243125379144
 31
0
  0
LINE
  8
1
 62
2
 10
1046.419965353938
 20
114.3103068024478
 30
0
 11
1046.708376886438
 21
114.1232805915938
 31
0
  0
LINE
  8
1
 62
2
 10
1046.061264788583
 20
114.373965300811
 30
0
 11
1046.419965353938
 21
114.3103068024478
 31
0
  0
LINE
  8
1
 62
2
 10
1044.688498074308
 20
114.182895815603
 30
0
 11
1046.061264788583
 21
114.373965300811
 31
0
  0
LINE
  8
1
 62
2
 10
1045.308853545762
 20
109.7258610289947
 30
0
 11
1044.688498074308
 21
114.182895815603
 31
0
  0
LINE
  8
1
 62
2
 10
1046.681620260037
 20
109.9169305142027
 30
0
 11
1045.308853545762
 21
109.7258610289947
 31
0
  0
LINE
  8
1
 62
2
 10
1047.00930305182
 20
110.0761237551699
 30
0
 11
1046.681620260037
 21
109.9169305142027
 31
0
  0
LINE
  8
1
 62
2
 10
1047.235679037174
 20
110.3348010229768
 30
0
 11
1047.00930305182
 21
110.0761237551699
 31
0
  0
LINE
  8
1
 62
2
 10
1047.376257102886
 20
110.5815364479582
 30
0
 11
1047.235679037174
 21
110.3348010229768
 31
0
  0
LINE
  8
1
 62
2
 10
1047.501326281811
 20
110.9396977426048
 30
0
 11
1047.376257102886
 21
110.5815364479582
 31
0
  0
LINE
  8
1
 62
2
 10
1047.525088654308
 20
111.3973430640912
 30
0
 11
1047.501326281811
 21
110.9396977426048
 31
0
  0
LINE
  8
1
 62
2
 10
1047.276946465726
 20
113.1801569787345
 30
0
 11
1047.525088654308
 21
111.3973430640912
 31
0
  0
LINE
  8
1
 62
2
 10
1047.379500883259
 20
138.0477971669993
 30
0
 11
1048.794422282905
 21
133.7760296835303
 31
0
  0
LINE
  8
1
 62
2
 10
1046.817199014472
 20
136.4394200786403
 30
0
 11
1047.379500883259
 21
138.0477971669993
 31
0
  0
LINE
  8
1
 62
2
 10
1045.606697061769
 20
136.5125127467257
 30
0
 11
1045.83042072579
 21
136.112573235322
 31
0
  0
LINE
  8
1
 62
2
 10
1045.336114908682
 20
136.7784208340995
 30
0
 11
1045.606697061769
 21
136.5125127467257
 31
0
  0
LINE
  8
1
 62
2
 10
1045.100905790586
 20
136.9375347343866
 30
0
 11
1045.336114908682
 21
136.7784208340995
 31
0
  0
LINE
  8
1
 62
2
 10
1044.783465148433
 20
137.0694113977305
 30
0
 11
1045.100905790586
 21
136.9375347343866
 31
0
  0
LINE
  8
1
 62
2
 10
1044.419166017215
 20
137.0672566370444
 30
0
 11
1044.783465148433
 21
137.0694113977305
 31
0
  0
LINE
  8
1
 62
2
 10
1043.103461632307
 20
136.6314608459534
 30
0
 11
1044.419166017215
 21
137.0672566370444
 31
0
  0
LINE
  8
1
 62
2
 10
1044.518383031953
 20
132.3596933624844
 30
0
 11
1043.103461632307
 21
136.6314608459534
 31
0
  0
LINE
  8
1
 62
2
 10
1045.834087416861
 20
132.7954891535754
 30
0
 11
1044.518383031953
 21
132.3596933624844
 31
0
  0
LINE
  8
1
 62
2
 10
1046.127640478097
 20
133.0112322884349
 30
0
 11
1045.834087416861
 21
132.7954891535754
 31
0
  0
LINE
  8
1
 62
2
 10
1046.303588980285
 20
133.3065323734379
 30
0
 11
1046.127640478097
 21
133.0112322884349
 31
0
  0
LINE
  8
1
 62
2
 10
1046.397305958417
 20
133.5745952214978
 30
0
 11
1046.303588980285
 21
133.3065323734379
 31
0
  0
LINE
  8
1
 62
2
 10
1046.455649901557
 20
133.9494522566443
 30
0
 11
1046.397305958417
 21
133.5745952214978
 31
0
  0
LINE
  8
1
 62
2
 10
1046.396389285649
 20
134.4038662419344
 30
0
 11
1046.455649901557
 21
133.9494522566443
 31
0
  0
LINE
  8
1
 62
2
 10
1045.83042072579
 20
136.112573235322
 30
0
 11
1046.396389285649
 21
134.4038662419344
 31
0
  0
LINE
  8
1
 62
2
 10
665.115385907334
 20
-40.41621925949
 30
0
 11
663.3177756132051
 21
-39.88705259282
 31
0
  0
LINE
  8
1
 62
2
 10
665.954270711261
 20
-39.71066370393
 30
0
 11
665.115385907334
 21
-40.41621925949
 31
0
  0
LINE
  8
1
 62
2
 10
666.0741113975362
 20
-38.4759414817
 30
0
 11
665.954270711261
 21
-39.71066370393
 31
0
  0
LINE
  8
1
 62
2
 10
663.7971383583061
 20
-38.4759414817
 30
0
 11
666.0741113975362
 21
-38.4759414817
 31
0
  0
LINE
  8
1
 62
2
 10
664.0368197308567
 20
-37.24121925946999
 30
0
 11
663.7971383583061
 21
-38.4759414817
 31
0
  0
LINE
  8
1
 62
2
 10
662.838412868104
 20
-37.24121925946999
 30
0
 11
666.433633456362
 21
-37.24121925946999
 31
0
  0
LINE
  8
1
 62
2
 10
663.3177756132051
 20
-36.7120525928
 30
0
 11
663.3177756132051
 21
-35.12455259279
 31
0
  0
LINE
  8
1
 62
2
 10
666.0741113975362
 20
-36.7120525928
 30
0
 11
663.3177756132051
 21
-36.7120525928
 31
0
  0
LINE
  8
1
 62
2
 10
666.0741113975362
 20
-35.12455259279
 30
0
 11
666.0741113975362
 21
-36.7120525928
 31
0
  0
LINE
  8
1
 62
2
 10
663.3177756132051
 20
-35.12455259279
 30
0
 11
666.0741113975362
 21
-35.12455259279
 31
0
  0
LINE
  8
1
 62
2
 10
661.6400060053514
 20
-40.2398303706
 30
0
 11
661.6400060053514
 21
-39.00510814837
 31
0
  0
LINE
  8
1
 62
2
 10
659.8423957112225
 20
-40.2398303706
 30
0
 11
661.6400060053514
 21
-40.2398303706
 31
0
  0
LINE
  8
1
 62
2
 10
659.8423957112225
 20
-37.24121925946999
 30
0
 11
659.8423957112225
 21
-40.2398303706
 31
0
  0
LINE
  8
1
 62
2
 10
661.4003246328009
 20
-37.24121925946999
 30
0
 11
659.8423957112225
 21
-37.24121925946999
 31
0
  0
LINE
  8
1
 62
2
 10
661.4003246328009
 20
-35.12455259279
 30
0
 11
661.4003246328009
 21
-37.24121925946999
 31
0
  0
LINE
  8
1
 62
2
 10
659.7225550249472
 20
-35.12455259279
 30
0
 11
661.4003246328009
 21
-35.12455259279
 31
0
  0
LINE
  8
1
 62
2
 10
658.1646261033687
 20
-40.2398303706
 30
0
 11
658.1646261033687
 21
-38.4759414817
 31
0
  0
LINE
  8
1
 62
2
 10
659.4828736523966
 20
-40.2398303706
 30
0
 11
658.1646261033687
 21
-40.2398303706
 31
0
  0
LINE
  8
1
 62
2
 10
659.4828736523966
 20
-38.4759414817
 30
0
 11
659.4828736523966
 21
-40.2398303706
 31
0
  0
LINE
  8
1
 62
2
 10
658.1646261033687
 20
-38.4759414817
 30
0
 11
659.4828736523966
 21
-38.4759414817
 31
0
  0
LINE
  8
1
 62
2
 10
658.2844667896439
 20
-37.77038592613999
 30
0
 11
659.3630329661214
 21
-37.77038592613999
 31
0
  0
LINE
  8
1
 62
2
 10
658.2844667896439
 20
-36.88844148169
 30
0
 11
659.3630329661214
 21
-36.88844148169
 31
0
  0
LINE
  8
1
 62
2
 10
658.0447854170934
 20
-36.00649703724
 30
0
 11
659.6027143386719
 21
-36.00649703724
 31
0
  0
LINE
  8
1
 62
2
 10
658.2844667896439
 20
-35.12455259279
 30
0
 11
659.3630329661214
 21
-35.12455259279
 31
0
  0
LINE
  8
1
 62
2
 10
656.486856495515
 20
-35.12455259279
 30
0
 11
656.486856495515
 21
-40.2398303706
 31
0
  0
LINE
  8
1
 62
2
 10
654.9289275739366
 20
-39.35788592615
 30
0
 11
656.8463785543408
 21
-38.82871925948
 31
0
  0
LINE
  8
1
 62
2
 10
655.0487682602119
 20
-36.88844148169
 30
0
 11
656.1273344366892
 21
-38.29955259281
 31
0
  0
LINE
  8
1
 62
2
 10
655.1686089464871
 20
-35.30094148168
 30
0
 11
656.1273344366892
 21
-36.53566370391
 31
0
  0
LINE
  8
1
 62
2
 10
653.9702020837344
 20
-37.24121925946999
 30
0
 11
654.8090868876614
 21
-38.82871925948
 31
0
  0
LINE
  8
1
 62
2
 10
653.9702020837344
 20
-37.24121925946999
 30
0
 11
653.2511579660828
 21
-39.35788592615
 31
0
  0
LINE
  8
1
 62
2
 10
653.9702020837344
 20
-34.94816370389999
 30
0
 11
653.9702020837344
 21
-40.2398303706
 31
0
  0
LINE
  8
1
 62
2
 10
653.2511579660828
 20
-37.24121925946999
 30
0
 11
654.8090868876614
 21
-37.24121925946999
 31
0
  0
LINE
  8
1
 62
2
 10
654.8090868876614
 20
-35.30094148168
 30
0
 11
654.3297241425603
 21
-36.7120525928
 31
0
  0
LINE
  8
1
 62
2
 10
653.3709986523581
 20
-35.30094148168
 30
0
 11
653.6106800249087
 21
-36.88844148169
 31
0
  0
LINE
  8
1
 62
2
 10
651.5733883582292
 20
-35.83010814834999
 30
0
 11
649.8956187503754
 21
-39.00510814837
 31
0
  0
LINE
  8
1
 62
2
 10
651.5733883582292
 20
-40.2398303706
 30
0
 11
650.4948221817518
 21
-39.53427481504
 31
0
  0
LINE
  8
1
 62
2
 10
651.5733883582292
 20
-34.94816370389999
 30
0
 11
651.5733883582292
 21
-40.2398303706
 31
0
  0
LINE
  8
1
 62
2
 10
650.135300122926
 20
-35.83010814834999
 30
0
 11
652.0527511033303
 21
-35.83010814834999
 31
0
  0
LINE
  8
1
 62
2
 10
649.1765746327238
 20
-35.83010814834999
 30
0
 11
649.8956187503754
 21
-37.94677481503
 31
0
  0
LINE
  8
1
 62
2
 10
649.1765746327238
 20
-35.83010814834999
 30
0
 11
648.4575305150722
 21
-38.4759414817
 31
0
  0
LINE
  8
1
 62
2
 10
649.1765746327238
 20
-34.94816370389999
 30
0
 11
649.1765746327238
 21
-40.2398303706
 31
0
  0
LINE
  8
1
 62
2
 10
648.4575305150722
 20
-35.83010814834999
 30
0
 11
649.8956187503754
 21
-35.83010814834999
 31
0
  0
LINE
  8
1
 62
2
 10
535.0672858129512
 20
-35.47733037056999
 30
0
 11
535.0672858129512
 21
-40.41621925949
 31
0
  0
LINE
  8
1
 62
2
 10
532.7903127737212
 20
-39.00510814837
 30
0
 11
536.6252147345297
 21
-39.00510814837
 31
0
  0
LINE
  8
1
 62
2
 10
533.5093568913728
 20
-36.88844148169
 30
0
 11
533.5093568913728
 21
-39.00510814837
 31
0
  0
LINE
  8
1
 62
2
 10
536.5053740482545
 20
-36.88844148169
 30
0
 11
533.5093568913728
 21
-36.88844148169
 31
0
  0
LINE
  8
1
 62
2
 10
533.629197577648
 20
-35.47733037056999
 30
0
 11
536.6252147345297
 21
-35.47733037056999
 31
0
  0
LINE
  8
1
 62
2
 10
533.629197577648
 20
-35.47733037056999
 30
0
 11
533.0299941462718
 21
-36.53566370391
 31
0
  0
LINE
  8
1
 62
2
 10
533.8688789501986
 20
-34.77177481501
 30
0
 11
533.629197577648
 21
-35.47733037056999
 31
0
  0
LINE
  8
1
 62
2
 10
529.4347735580138
 20
-39.53427481504
 30
0
 11
529.4347735580138
 21
-37.77038592613999
 31
0
  0
LINE
  8
1
 62
2
 10
531.352224538418
 20
-39.53427481504
 30
0
 11
529.4347735580138
 21
-39.53427481504
 31
0
  0
LINE
  8
1
 62
2
 10
531.352224538418
 20
-37.77038592613999
 30
0
 11
531.352224538418
 21
-39.53427481504
 31
0
  0
LINE
  8
1
 62
2
 10
529.4347735580138
 20
-37.77038592613999
 30
0
 11
531.352224538418
 21
-37.77038592613999
 31
0
  0
LINE
  8
1
 62
2
 10
530.3934990482159
 20
-34.94816370389999
 30
0
 11
530.3934990482159
 21
-37.06483037058
 31
0
  0
LINE
  8
1
 62
2
 10
528.9554108129128
 20
-37.06483037058
 30
0
 11
531.7117465972439
 21
-37.06483037058
 31
0
  0
LINE
  8
1
 62
2
 10
529.3149328717385
 20
-35.83010814834999
 30
0
 11
531.5919059109685
 21
-35.83010814834999
 31
0
  0
LINE
  8
1
 62
2
 10
529.3149328717385
 20
-35.83010814834999
 30
0
 11
528.9554108129128
 21
-36.53566370391
 31
0
  0
LINE
  8
1
 62
2
 10
529.4347735580138
 20
-35.12455259279
 30
0
 11
529.3149328717385
 21
-35.83010814834999
 31
0
  0
LINE
  8
1
 62
2
 10
529.7942956168396
 20
-40.2398303706
 30
0
 11
531.8315872835191
 21
-40.2398303706
 31
0
  0
LINE
  8
1
 62
2
 10
528.7157294403622
 20
-39.00510814837
 30
0
 11
529.7942956168396
 21
-40.2398303706
 31
0
  0
LINE
  8
1
 62
2
 10
528.7157294403622
 20
-39.00510814837
 30
0
 11
528.1165260089858
 21
-40.2398303706
 31
0
  0
LINE
  8
1
 62
2
 10
528.7157294403622
 20
-37.24121925946999
 30
0
 11
528.7157294403622
 21
-39.00510814837
 31
0
  0
LINE
  8
1
 62
2
 10
528.1165260089858
 20
-37.24121925946999
 30
0
 11
528.7157294403622
 21
-37.24121925946999
 31
0
  0
LINE
  8
1
 62
2
 10
528.2363666952612
 20
-35.12455259279
 30
0
 11
528.8355701266374
 21
-36.00649703724
 31
0
  0
LINE
  8
1
 62
2
 10
525.8395529697558
 20
-38.4759414817
 30
0
 11
526.1990750285817
 21
-39.71066370393
 31
0
  0
LINE
  8
1
 62
2
 10
526.6784377736827
 20
-40.2398303706
 30
0
 11
525.7197122834806
 21
-39.88705259282
 31
0
  0
LINE
  8
1
 62
2
 10
526.6784377736827
 20
-36.88844148169
 30
0
 11
526.6784377736827
 21
-40.2398303706
 31
0
  0
LINE
  8
1
 62
2
 10
525.000668165829
 20
-38.12316370392
 30
0
 11
527.0379598325085
 21
-38.12316370392
 31
0
  0
LINE
  8
1
 62
2
 10
525.7197122834806
 20
-37.41760814836
 30
0
 11
525.000668165829
 21
-39.71066370393
 31
0
  0
LINE
  8
1
 62
2
 10
525.8395529697558
 20
-34.94816370389999
 30
0
 11
525.7197122834806
 21
-37.41760814836
 31
0
  0
LINE
  8
1
 62
2
 10
524.8808274795538
 20
-36.88844148169
 30
0
 11
527.0379598325085
 21
-36.88844148169
 31
0
  0
LINE
  8
1
 62
2
 10
525.1205088521043
 20
-36.18288592613
 30
0
 11
526.7982784599579
 21
-36.18288592613
 31
0
  0
LINE
  8
1
 62
2
 10
525.000668165829
 20
-35.47733037056999
 30
0
 11
526.9181191462333
 21
-35.47733037056999
 31
0
  0
LINE
  8
1
 62
2
 10
523.3228985579752
 20
-40.2398303706
 30
0
 11
524.7609867932785
 21
-39.88705259282
 31
0
  0
LINE
  8
1
 62
2
 10
524.7609867932785
 20
-38.29955259281
 30
0
 11
524.5213054207279
 21
-39.53427481504
 31
0
  0
LINE
  8
1
 62
2
 10
523.4427392442506
 20
-38.29955259281
 30
0
 11
523.6824206168011
 21
-39.71066370393
 31
0
  0
LINE
  8
1
 62
2
 10
524.0419426756268
 20
-36.7120525928
 30
0
 11
524.0419426756268
 21
-40.06344148170999
 31
0
  0
LINE
  8
1
 62
2
 10
523.3228985579752
 20
-37.77038592613999
 30
0
 11
524.7609867932785
 21
-37.77038592613999
 31
0
  0
LINE
  8
1
 62
2
 10
523.4427392442506
 20
-36.7120525928
 30
0
 11
524.6411461070032
 21
-36.7120525928
 31
0
  0
LINE
  8
1
 62
2
 10
524.1617833619022
 20
-35.12455259279
 30
0
 11
524.7609867932785
 21
-36.18288592613
 31
0
  0
LINE
  8
1
 62
2
 10
523.3228985579752
 20
-36.35927481501999
 30
0
 11
524.1617833619022
 21
-35.12455259279
 31
0
  0
LINE
  8
1
 62
2
 10
657.4195768766271
 20
-49.13495234401001
 30
0
 11
656.1013293275992
 21
-49.13495234401001
 31
0
  0
LINE
  8
1
 62
2
 10
658.0187803080033
 20
-48.78217456623001
 30
0
 11
657.4195768766271
 21
-49.13495234401001
 31
0
  0
LINE
  8
1
 62
2
 10
658.3783023668292
 20
-47.72384123289001
 30
0
 11
658.0187803080033
 21
-48.78217456623001
 31
0
  0
LINE
  8
1
 62
2
 10
658.4981430531044
 20
-46.66550789955002
 30
0
 11
658.3783023668292
 21
-47.72384123289001
 31
0
  0
LINE
  8
1
 62
2
 10
658.3783023668292
 20
-45.43078567732001
 30
0
 11
658.4981430531044
 21
-46.66550789955002
 31
0
  0
LINE
  8
1
 62
2
 10
658.0187803080033
 20
-44.54884123287001
 30
0
 11
658.3783023668292
 21
-45.43078567732001
 31
0
  0
LINE
  8
1
 62
2
 10
657.4195768766271
 20
-44.19606345509001
 30
0
 11
658.0187803080033
 21
-44.54884123287001
 31
0
  0
LINE
  8
1
 62
2
 10
656.1013293275992
 20
-44.19606345509001
 30
0
 11
657.4195768766271
 21
-44.19606345509001
 31
0
  0
LINE
  8
1
 62
2
 10
656.1013293275992
 20
-49.13495234401001
 30
0
 11
656.1013293275992
 21
-44.19606345509001
 31
0
  0
LINE
  8
1
 62
2
 10
540.7446261901004
 20
-48.25300789966
 30
0
 11
540.3371678567645
 21
-49.311341233
 31
0
  0
LINE
  8
1
 62
2
 10
540.9483553567684
 20
-47.19467456632
 30
0
 11
540.7446261901004
 21
-48.25300789966
 31
0
  0
LINE
  8
1
 62
2
 10
540.9483553567684
 20
-46.13634123298
 30
0
 11
540.9483553567684
 21
-47.19467456632
 31
0
  0
LINE
  8
1
 62
2
 10
540.7446261901004
 20
-45.07800789964
 30
0
 11
540.9483553567684
 21
-46.13634123298
 31
0
  0
LINE
  8
1
 62
2
 10
540.3371678567645
 20
-44.0196745663
 30
0
 11
540.7446261901004
 21
-45.07800789964
 31
0
  0
LINE
  8
1
 62
2
 10
538.7792389351861
 20
-49.311341233
 30
0
 11
537.9403541312591
 21
-48.78217456633
 31
0
  0
LINE
  8
1
 62
2
 10
538.7792389351861
 20
-45.95995234409
 30
0
 11
538.7792389351861
 21
-49.311341233
 31
0
  0
LINE
  8
1
 62
2
 10
537.7006727587087
 20
-45.95995234409
 30
0
 11
539.2586016802871
 21
-45.95995234409
 31
0
  0
LINE
  8
1
 62
2
 10
537.7006727587087
 20
-44.37245234408
 30
0
 11
539.1387609940118
 21
-44.37245234408
 31
0
  0
LINE
  8
1
 62
2
 10
537.2213100136077
 20
-46.48911901076
 30
0
 11
537.2213100136077
 21
-49.311341233
 31
0
  0
LINE
  8
1
 62
2
 10
537.5808320724334
 20
-45.43078567742
 30
0
 11
536.8617879547818
 21
-47.5474523441
 31
0
  0
LINE
  8
1
 62
2
 10
537.4609913861582
 20
-44.0196745663
 30
0
 11
536.8617879547818
 21
-45.7835634552
 31
0
  0
LINE
  8
1
 62
2
 10
536.2625845234055
 20
-45.25439678853
 30
0
 11
536.8617879547818
 21
-47.19467456632
 31
0
  0
LINE
  8
1
 62
2
 10
536.2625845234055
 20
-45.25439678853
 30
0
 11
535.6633810920291
 21
-47.72384123299
 31
0
  0
LINE
  8
1
 62
2
 10
536.2625845234055
 20
-44.0196745663
 30
0
 11
536.2625845234055
 21
-49.311341233
 31
0
  0
LINE
  8
1
 62
2
 10
535.6633810920291
 20
-45.25439678853
 30
0
 11
536.8617879547818
 21
-45.25439678853
 31
0
  0
LINE
  8
1
 62
2
 10
531.4689570723949
 20
-49.311341233
 30
0
 11
534.1054521704507
 21
-49.311341233
 31
0
  0
LINE
  8
1
 62
2
 10
531.7086384449455
 20
-48.42939678855
 30
0
 11
531.4689570723949
 21
-49.311341233
 31
0
  0
LINE
  8
1
 62
2
 10
531.948319817496
 20
-47.90023012188
 30
0
 11
531.7086384449455
 21
-48.42939678855
 31
0
  0
LINE
  8
1
 62
2
 10
532.4276825625971
 20
-47.37106345521
 30
0
 11
531.948319817496
 21
-47.90023012188
 31
0
  0
LINE
  8
1
 62
2
 10
532.9070453076981
 20
-47.01828567743
 30
0
 11
532.4276825625971
 21
-47.37106345521
 31
0
  0
LINE
  8
1
 62
2
 10
533.5062487390744
 20
-46.48911901076
 30
0
 11
532.9070453076981
 21
-47.01828567743
 31
0
  0
LINE
  8
1
 62
2
 10
533.8657707979002
 20
-45.7835634552
 30
0
 11
533.5062487390744
 21
-46.48911901076
 31
0
  0
LINE
  8
1
 62
2
 10
533.9856114841755
 20
-45.07800789964
 30
0
 11
533.8657707979002
 21
-45.7835634552
 31
0
  0
LINE
  8
1
 62
2
 10
533.5062487390744
 20
-44.37245234408
 30
0
 11
533.9856114841755
 21
-45.07800789964
 31
0
  0
LINE
  8
1
 62
2
 10
532.7872046214228
 20
-44.0196745663
 30
0
 11
533.5062487390744
 21
-44.37245234408
 31
0
  0
LINE
  8
1
 62
2
 10
532.0681605037712
 20
-44.37245234408
 30
0
 11
532.7872046214228
 21
-44.0196745663
 31
0
  0
LINE
  8
1
 62
2
 10
531.5887977586701
 20
-45.07800789964
 30
0
 11
532.0681605037712
 21
-44.37245234408
 31
0
  0
LINE
  8
1
 62
2
 10
527.873736484137
 20
-45.25439678853
 30
0
 11
529.5515060919906
 21
-47.01828567743
 31
0
  0
LINE
  8
1
 62
2
 10
527.873736484137
 20
-44.0196745663
 30
0
 11
527.873736484137
 21
-49.311341233
 31
0
  0
LINE
  8
1
 62
2
 10
526.0761261900079
 20
-44.0196745663
 30
0
 11
529.671346778266
 21
-44.0196745663
 31
0
  0
LINE
  8
1
 62
2
 10
522.1213835429243
 20
-48.60578567744
 30
0
 11
522.1213835429243
 21
-48.42939678855
 31
0
  0
LINE
  8
1
 62
2
 10
522.1213835429243
 20
-48.42939678855
 30
0
 11
524.6380379547048
 21
-48.42939678855
 31
0
  0
LINE
  8
1
 62
2
 10
524.6380379547048
 20
-49.311341233
 30
0
 11
522.1213835429243
 21
-49.311341233
 31
0
  0
LINE
  8
1
 62
2
 10
524.6380379547048
 20
-47.5474523441
 30
0
 11
524.6380379547048
 21
-49.311341233
 31
0
  0
LINE
  8
1
 62
2
 10
522.1213835429243
 20
-47.5474523441
 30
0
 11
524.6380379547048
 21
-47.5474523441
 31
0
  0
LINE
  8
1
 62
2
 10
522.1213835429243
 20
-49.311341233
 30
0
 11
522.1213835429243
 21
-47.5474523441
 31
0
  0
LINE
  8
1
 62
2
 10
524.1586752096038
 20
-45.07800789964
 30
0
 11
524.9975600135306
 21
-46.84189678854
 31
0
  0
LINE
  8
1
 62
2
 10
524.1586752096038
 20
-45.07800789964
 30
0
 11
523.4396310919522
 21
-46.84189678854
 31
0
  0
LINE
  8
1
 62
2
 10
524.1586752096038
 20
-44.37245234408
 30
0
 11
524.1586752096038
 21
-47.01828567743
 31
0
  0
LINE
  8
1
 62
2
 10
523.4396310919522
 20
-45.07800789964
 30
0
 11
524.8777193272554
 21
-45.07800789964
 31
0
  0
LINE
  8
1
 62
2
 10
522.6007462880253
 20
-45.07800789964
 30
0
 11
523.1999497194016
 21
-46.31273012187
 31
0
  0
LINE
  8
1
 62
2
 10
522.6007462880253
 20
-45.07800789964
 30
0
 11
521.8817021703737
 21
-46.84189678854
 31
0
  0
LINE
  8
1
 62
2
 10
522.6007462880253
 20
-44.37245234408
 30
0
 11
522.6007462880253
 21
-47.01828567743
 31
0
  0
LINE
  8
1
 62
2
 10
521.8817021703737
 20
-45.07800789964
 30
0
 11
523.1999497194016
 21
-45.07800789964
 31
0
  0
LINE
  8
1
 62
2
 10
521.6420207978232
 20
-44.19606345519
 30
0
 11
524.9975600135306
 21
-44.19606345519
 31
0
  0
LINE
  8
1
 62
2
 10
521.6420207978232
 20
-47.5474523441
 30
0
 11
521.6420207978232
 21
-44.19606345519
 31
0
  0
LINE
  8
1
 62
2
 10
521.2824987389973
 20
-48.95856345522
 30
0
 11
521.6420207978232
 21
-47.5474523441
 31
0
  0
LINE
  8
1
 62
2
 10
518.7658443272168
 20
-47.90023012188
 30
0
 11
519.9642511899695
 21
-47.90023012188
 31
0
  0
LINE
  8
1
 62
2
 10
518.7658443272168
 20
-44.19606345519
 30
0
 11
518.7658443272168
 21
-47.90023012188
 31
0
  0
LINE
  8
1
 62
2
 10
517.8071188370147
 20
-46.66550789965
 30
0
 11
516.9682340330878
 21
-47.90023012188
 31
0
  0
LINE
  8
1
 62
2
 10
517.8071188370147
 20
-44.19606345519
 30
0
 11
517.8071188370147
 21
-46.66550789965
 31
0
  0
LINE
  8
1
 62
2
 10
516.6087119742621
 20
-49.311341233
 30
0
 11
516.6087119742621
 21
-45.60717456631
 31
0
  0
LINE
  8
1
 62
2
 10
519.9642511899695
 20
-49.311341233
 30
0
 11
516.6087119742621
 21
-49.311341233
 31
0
  0
LINE
  8
1
 62
2
 10
519.9642511899695
 20
-45.60717456631
 30
0
 11
519.9642511899695
 21
-49.311341233
 31
0
  0
LINE
  8
1
 62
2
 10
516.6087119742621
 20
-45.60717456631
 30
0
 11
519.9642511899695
 21
-45.60717456631
 31
0
  0
LINE
  8
1
 62
2
 10
516.4888712879867
 20
-44.19606345519
 30
0
 11
520.0840918762448
 21
-44.19606345519
 31
0
  0
LINE
  8
1
 62
2
 10
514.7391972683679
 20
-48.25300789966
 30
0
 11
515.1466556017039
 21
-49.311341233
 31
0
  0
LINE
  8
1
 62
2
 10
514.5354681017
 20
-47.19467456632
 30
0
 11
514.7391972683679
 21
-48.25300789966
 31
0
  0
LINE
  8
1
 62
2
 10
514.5354681017
 20
-46.13634123298
 30
0
 11
514.5354681017
 21
-47.19467456632
 31
0
  0
LINE
  8
1
 62
2
 10
514.7391972683679
 20
-45.07800789964
 30
0
 11
514.5354681017
 21
-46.13634123298
 31
0
  0
LINE
  8
1
 62
2
 10
515.1466556017039
 20
-44.0196745663
 30
0
 11
514.7391972683679
 21
-45.07800789964
 31
0
  0
LINE
  8
1
 62
2
 10
1007.59516153905
 20
325.1957648898001
 30
0
 11
1006.55566153905
 21
324.5957648898
 31
0
  0
LINE
  8
1
 62
2
 10
1008.40366153905
 20
326.0957648898
 30
0
 11
1007.59516153905
 21
325.1957648898001
 31
0
  0
LINE
  8
1
 62
2
 10
1008.75016153905
 20
326.6957648898001
 30
0
 11
1008.40366153905
 21
326.0957648898
 31
0
  0
LINE
  8
1
 62
2
 10
1008.86566153905
 20
327.2957648898
 30
0
 11
1008.75016153905
 21
326.6957648898001
 31
0
  0
LINE
  8
1
 62
2
 10
1008.98116153905
 20
328.0457648898
 30
0
 11
1008.86566153905
 21
327.2957648898
 31
0
  0
LINE
  8
1
 62
2
 10
1008.98116153905
 20
329.0957648898
 30
0
 11
1008.98116153905
 21
328.0457648898
 31
0
  0
LINE
  8
1
 62
2
 10
1008.86566153905
 20
329.6957648898001
 30
0
 11
1008.98116153905
 21
329.0957648898
 31
0
  0
LINE
  8
1
 62
2
 10
1008.63466153905
 20
330.1457648898
 30
0
 11
1008.86566153905
 21
329.6957648898001
 31
0
  0
LINE
  8
1
 62
2
 10
1008.28816153905
 20
330.4457648898001
 30
0
 11
1008.63466153905
 21
330.1457648898
 31
0
  0
LINE
  8
1
 62
2
 10
1007.94166153905
 20
330.5957648898
 30
0
 11
1008.28816153905
 21
330.4457648898001
 31
0
  0
LINE
  8
1
 62
2
 10
1007.24866153905
 20
330.5957648898
 30
0
 11
1007.94166153905
 21
330.5957648898
 31
0
  0
LINE
  8
1
 62
2
 10
1006.90216153905
 20
330.4457648898001
 30
0
 11
1007.24866153905
 21
330.5957648898
 31
0
  0
LINE
  8
1
 62
2
 10
1006.55566153905
 20
330.1457648898
 30
0
 11
1006.90216153905
 21
330.4457648898001
 31
0
  0
LINE
  8
1
 62
2
 10
1006.32466153905
 20
329.6957648898001
 30
0
 11
1006.55566153905
 21
330.1457648898
 31
0
  0
LINE
  8
1
 62
2
 10
1006.20916153905
 20
329.0957648898
 30
0
 11
1006.32466153905
 21
329.6957648898001
 31
0
  0
LINE
  8
1
 62
2
 10
1006.20916153905
 20
328.7957648898
 30
0
 11
1006.20916153905
 21
329.0957648898
 31
0
  0
LINE
  8
1
 62
2
 10
1006.32466153905
 20
328.1957648898001
 30
0
 11
1006.20916153905
 21
328.7957648898
 31
0
  0
LINE
  8
1
 62
2
 10
1006.55566153905
 20
327.7457648898
 30
0
 11
1006.32466153905
 21
328.1957648898001
 31
0
  0
LINE
  8
1
 62
2
 10
1006.90216153905
 20
327.4457648898001
 30
0
 11
1006.55566153905
 21
327.7457648898
 31
0
  0
LINE
  8
1
 62
2
 10
1007.24866153905
 20
327.2957648898
 30
0
 11
1006.90216153905
 21
327.4457648898001
 31
0
  0
LINE
  8
1
 62
2
 10
1008.86566153905
 20
327.2957648898
 30
0
 11
1007.24866153905
 21
327.2957648898
 31
0
  0
LINE
  8
1
 62
2
 10
1004.82316153905
 20
330.5957648898
 30
0
 11
1004.82316153905
 21
324.5957648898
 31
0
  0
LINE
  8
1
 62
2
 10
1003.43716153905
 20
328.7957648898
 30
0
 11
1004.82316153905
 21
330.5957648898
 31
0
  0
LINE
  8
1
 62
2
 10
972.2253294508499
 20
326.9957648898
 30
0
 11
972.2253294508499
 21
324.5957648898
 31
0
  0
LINE
  8
1
 62
2
 10
970.14632945085
 20
325.7957648898
 30
0
 11
972.91832945085
 21
325.7957648898
 31
0
  0
LINE
  8
1
 62
2
 10
972.2253294508499
 20
330.5957648898
 30
0
 11
970.14632945085
 21
325.7957648898
 31
0
  0
LINE
  8
1
 62
2
 10
938.3303307290502
 20
329.2457648898
 30
0
 11
939.6008307290501
 21
330.5957648898
 31
0
  0
LINE
  8
1
 62
2
 10
937.8683307290502
 20
328.4957648898
 30
0
 11
938.3303307290502
 21
329.2457648898
 31
0
  0
LINE
  8
1
 62
2
 10
937.6373307290502
 20
327.8957648898
 30
0
 11
937.8683307290502
 21
328.4957648898
 31
0
  0
LINE
  8
1
 62
2
 10
937.5218307290502
 20
326.6957648898001
 30
0
 11
937.6373307290502
 21
327.8957648898
 31
0
  0
LINE
  8
1
 62
2
 10
937.5218307290502
 20
326.0957648898
 30
0
 11
937.5218307290502
 21
326.6957648898001
 31
0
  0
LINE
  8
1
 62
2
 10
937.6373307290502
 20
325.4957648898
 30
0
 11
937.5218307290502
 21
326.0957648898
 31
0
  0
LINE
  8
1
 62
2
 10
937.8683307290502
 20
325.0457648898
 30
0
 11
937.6373307290502
 21
325.4957648898
 31
0
  0
LINE
  8
1
 62
2
 10
938.2148307290502
 20
324.7457648898
 30
0
 11
937.8683307290502
 21
325.0457648898
 31
0
  0
LINE
  8
1
 62
2
 10
938.5613307290502
 20
324.5957648898
 30
0
 11
938.2148307290502
 21
324.7457648898
 31
0
  0
LINE
  8
1
 62
2
 10
939.2543307290501
 20
324.5957648898
 30
0
 11
938.5613307290502
 21
324.5957648898
 31
0
  0
LINE
  8
1
 62
2
 10
939.6008307290501
 20
324.7457648898
 30
0
 11
939.2543307290501
 21
324.5957648898
 31
0
  0
LINE
  8
1
 62
2
 10
939.9473307290502
 20
325.0457648898
 30
0
 11
939.6008307290501
 21
324.7457648898
 31
0
  0
LINE
  8
1
 62
2
 10
940.1783307290502
 20
325.4957648898
 30
0
 11
939.9473307290502
 21
325.0457648898
 31
0
  0
LINE
  8
1
 62
2
 10
940.2938307290502
 20
326.0957648898
 30
0
 11
940.1783307290502
 21
325.4957648898
 31
0
  0
LINE
  8
1
 62
2
 10
940.2938307290502
 20
326.6957648898001
 30
0
 11
940.2938307290502
 21
326.0957648898
 31
0
  0
LINE
  8
1
 62
2
 10
940.1783307290502
 20
327.2957648898
 30
0
 11
940.2938307290502
 21
326.6957648898001
 31
0
  0
LINE
  8
1
 62
2
 10
939.9473307290502
 20
327.7457648898
 30
0
 11
940.1783307290502
 21
327.2957648898
 31
0
  0
LINE
  8
1
 62
2
 10
939.6008307290501
 20
328.0457648898
 30
0
 11
939.9473307290502
 21
327.7457648898
 31
0
  0
LINE
  8
1
 62
2
 10
939.2543307290501
 20
328.1957648898001
 30
0
 11
939.6008307290501
 21
328.0457648898
 31
0
  0
LINE
  8
1
 62
2
 10
938.5613307290502
 20
328.1957648898001
 30
0
 11
939.2543307290501
 21
328.1957648898001
 31
0
  0
LINE
  8
1
 62
2
 10
938.2148307290502
 20
328.0457648898
 30
0
 11
938.5613307290502
 21
328.1957648898001
 31
0
  0
LINE
  8
1
 62
2
 10
937.8683307290502
 20
327.7457648898
 30
0
 11
938.2148307290502
 21
328.0457648898
 31
0
  0
LINE
  8
1
 62
2
 10
937.6373307290502
 20
327.2957648898
 30
0
 11
937.8683307290502
 21
327.7457648898
 31
0
  0
LINE
  8
1
 62
2
 10
937.5218307290502
 20
326.6957648898001
 30
0
 11
937.6373307290502
 21
327.2957648898
 31
0
  0
LINE
  8
1
 62
2
 10
934.7498307290501
 20
325.1957648898001
 30
0
 11
933.7103307290502
 21
324.5957648898
 31
0
  0
LINE
  8
1
 62
2
 10
935.5583307290501
 20
326.0957648898
 30
0
 11
934.7498307290501
 21
325.1957648898001
 31
0
  0
LINE
  8
1
 62
2
 10
935.9048307290502
 20
326.6957648898001
 30
0
 11
935.5583307290501
 21
326.0957648898
 31
0
  0
LINE
  8
1
 62
2
 10
936.0203307290502
 20
327.2957648898
 30
0
 11
935.9048307290502
 21
326.6957648898001
 31
0
  0
LINE
  8
1
 62
2
 10
936.1358307290502
 20
328.0457648898
 30
0
 11
936.0203307290502
 21
327.2957648898
 31
0
  0
LINE
  8
1
 62
2
 10
936.1358307290502
 20
329.0957648898
 30
0
 11
936.1358307290502
 21
328.0457648898
 31
0
  0
LINE
  8
1
 62
2
 10
936.0203307290502
 20
329.6957648898001
 30
0
 11
936.1358307290502
 21
329.0957648898
 31
0
  0
LINE
  8
1
 62
2
 10
935.7893307290502
 20
330.1457648898
 30
0
 11
936.0203307290502
 21
329.6957648898001
 31
0
  0
LINE
  8
1
 62
2
 10
935.4428307290501
 20
330.4457648898001
 30
0
 11
935.7893307290502
 21
330.1457648898
 31
0
  0
LINE
  8
1
 62
2
 10
935.0963307290501
 20
330.5957648898
 30
0
 11
935.4428307290501
 21
330.4457648898001
 31
0
  0
LINE
  8
1
 62
2
 10
934.4033307290501
 20
330.5957648898
 30
0
 11
935.0963307290501
 21
330.5957648898
 31
0
  0
LINE
  8
1
 62
2
 10
934.0568307290502
 20
330.4457648898001
 30
0
 11
934.4033307290501
 21
330.5957648898
 31
0
  0
LINE
  8
1
 62
2
 10
933.7103307290502
 20
330.1457648898
 30
0
 11
934.0568307290502
 21
330.4457648898001
 31
0
  0
LINE
  8
1
 62
2
 10
933.4793307290502
 20
329.6957648898001
 30
0
 11
933.7103307290502
 21
330.1457648898
 31
0
  0
LINE
  8
1
 62
2
 10
933.3638307290502
 20
329.0957648898
 30
0
 11
933.4793307290502
 21
329.6957648898001
 31
0
  0
LINE
  8
1
 62
2
 10
933.3638307290502
 20
328.7957648898
 30
0
 11
933.3638307290502
 21
329.0957648898
 31
0
  0
LINE
  8
1
 62
2
 10
933.4793307290502
 20
328.1957648898001
 30
0
 11
933.3638307290502
 21
328.7957648898
 31
0
  0
LINE
  8
1
 62
2
 10
933.7103307290502
 20
327.7457648898
 30
0
 11
933.4793307290502
 21
328.1957648898001
 31
0
  0
LINE
  8
1
 62
2
 10
934.0568307290502
 20
327.4457648898001
 30
0
 11
933.7103307290502
 21
327.7457648898
 31
0
  0
LINE
  8
1
 62
2
 10
934.4033307290501
 20
327.2957648898
 30
0
 11
934.0568307290502
 21
327.4457648898001
 31
0
  0
LINE
  8
1
 62
2
 10
936.0203307290502
 20
327.2957648898
 30
0
 11
934.4033307290501
 21
327.2957648898
 31
0
  0
LINE
  8
1
 62
2
 10
906.2833317744502
 20
328.3457648898
 30
0
 11
906.2833317744502
 21
326.8457648898
 31
0
  0
LINE
  8
1
 62
2
 10
906.1678317744502
 20
329.2457648898
 30
0
 11
906.2833317744502
 21
328.3457648898
 31
0
  0
LINE
  8
1
 62
2
 10
905.9368317744502
 20
329.8457648898
 30
0
 11
906.1678317744502
 21
329.2457648898
 31
0
  0
LINE
  8
1
 62
2
 10
905.7058317744501
 20
330.1457648898
 30
0
 11
905.9368317744502
 21
329.8457648898
 31
0
  0
LINE
  8
1
 62
2
 10
905.3593317744501
 20
330.4457648898001
 30
0
 11
905.7058317744501
 21
330.1457648898
 31
0
  0
LINE
  8
1
 62
2
 10
905.0128317744501
 20
330.5957648898
 30
0
 11
905.3593317744501
 21
330.4457648898001
 31
0
  0
LINE
  8
1
 62
2
 10
904.7818317744501
 20
330.5957648898
 30
0
 11
905.0128317744501
 21
330.5957648898
 31
0
  0
LINE
  8
1
 62
2
 10
904.4353317744501
 20
330.4457648898001
 30
0
 11
904.7818317744501
 21
330.5957648898
 31
0
  0
LINE
  8
1
 62
2
 10
904.0888317744501
 20
330.1457648898
 30
0
 11
904.4353317744501
 21
330.4457648898001
 31
0
  0
LINE
  8
1
 62
2
 10
903.8578317744501
 20
329.8457648898
 30
0
 11
904.0888317744501
 21
330.1457648898
 31
0
  0
LINE
  8
1
 62
2
 10
903.6268317744501
 20
329.2457648898
 30
0
 11
903.8578317744501
 21
329.8457648898
 31
0
  0
LINE
  8
1
 62
2
 10
903.5113317744501
 20
328.3457648898
 30
0
 11
903.6268317744501
 21
329.2457648898
 31
0
  0
LINE
  8
1
 62
2
 10
903.5113317744501
 20
326.8457648898
 30
0
 11
903.5113317744501
 21
328.3457648898
 31
0
  0
LINE
  8
1
 62
2
 10
903.6268317744501
 20
325.9457648898001
 30
0
 11
903.5113317744501
 21
326.8457648898
 31
0
  0
LINE
  8
1
 62
2
 10
903.8578317744501
 20
325.3457648898
 30
0
 11
903.6268317744501
 21
325.9457648898001
 31
0
  0
LINE
  8
1
 62
2
 10
904.0888317744501
 20
325.0457648898
 30
0
 11
903.8578317744501
 21
325.3457648898
 31
0
  0
LINE
  8
1
 62
2
 10
904.4353317744501
 20
324.7457648898
 30
0
 11
904.0888317744501
 21
325.0457648898
 31
0
  0
LINE
  8
1
 62
2
 10
904.7818317744501
 20
324.5957648898
 30
0
 11
904.4353317744501
 21
324.7457648898
 31
0
  0
LINE
  8
1
 62
2
 10
905.0128317744501
 20
324.5957648898
 30
0
 11
904.7818317744501
 21
324.5957648898
 31
0
  0
LINE
  8
1
 62
2
 10
905.3593317744501
 20
324.7457648898
 30
0
 11
905.0128317744501
 21
324.5957648898
 31
0
  0
LINE
  8
1
 62
2
 10
905.7058317744501
 20
325.0457648898
 30
0
 11
905.3593317744501
 21
324.7457648898
 31
0
  0
LINE
  8
1
 62
2
 10
905.9368317744502
 20
325.3457648898
 30
0
 11
905.7058317744501
 21
325.0457648898
 31
0
  0
LINE
  8
1
 62
2
 10
906.1678317744502
 20
325.9457648898001
 30
0
 11
905.9368317744502
 21
325.3457648898
 31
0
  0
LINE
  8
1
 62
2
 10
906.2833317744502
 20
326.8457648898
 30
0
 11
906.1678317744502
 21
325.9457648898001
 31
0
  0
LINE
  8
1
 62
2
 10
899.3533317744502
 20
324.5957648898
 30
0
 11
902.1253317744503
 21
324.5957648898
 31
0
  0
LINE
  8
1
 62
2
 10
901.8943317744503
 20
328.4957648898
 30
0
 11
899.3533317744502
 21
324.5957648898
 31
0
  0
LINE
  8
1
 62
2
 10
902.1253317744503
 20
329.0957648898
 30
0
 11
901.8943317744503
 21
328.4957648898
 31
0
  0
LINE
  8
1
 62
2
 10
902.1253317744503
 20
329.6957648898001
 30
0
 11
902.1253317744503
 21
329.0957648898
 31
0
  0
LINE
  8
1
 62
2
 10
901.8943317744503
 20
330.1457648898
 30
0
 11
902.1253317744503
 21
329.6957648898001
 31
0
  0
LINE
  8
1
 62
2
 10
901.5478317744502
 20
330.4457648898001
 30
0
 11
901.8943317744503
 21
330.1457648898
 31
0
  0
LINE
  8
1
 62
2
 10
901.0858317744502
 20
330.5957648898
 30
0
 11
901.5478317744502
 21
330.4457648898001
 31
0
  0
LINE
  8
1
 62
2
 10
900.3928317744502
 20
330.5957648898
 30
0
 11
901.0858317744502
 21
330.5957648898
 31
0
  0
LINE
  8
1
 62
2
 10
899.9308317744502
 20
330.4457648898001
 30
0
 11
900.3928317744502
 21
330.5957648898
 31
0
  0
LINE
  8
1
 62
2
 10
899.5843317744502
 20
330.1457648898
 30
0
 11
899.9308317744502
 21
330.4457648898001
 31
0
  0
LINE
  8
1
 62
2
 10
899.3533317744502
 20
329.6957648898001
 30
0
 11
899.5843317744502
 21
330.1457648898
 31
0
  0
LINE
  8
1
 62
2
 10
897.9673317744501
 20
330.5957648898
 30
0
 11
897.9673317744501
 21
324.5957648898
 31
0
  0
LINE
  8
1
 62
2
 10
896.5813317744502
 20
328.7957648898
 30
0
 11
897.9673317744501
 21
330.5957648898
 31
0
  0
LINE
  8
1
 62
2
 10
869.2831663692501
 20
329.2457648898
 30
0
 11
870.5536663692501
 21
330.5957648898
 31
0
  0
LINE
  8
1
 62
2
 10
868.8211663692501
 20
328.4957648898
 30
0
 11
869.2831663692501
 21
329.2457648898
 31
0
  0
LINE
  8
1
 62
2
 10
868.5901663692501
 20
327.8957648898
 30
0
 11
868.8211663692501
 21
328.4957648898
 31
0
  0
LINE
  8
1
 62
2
 10
868.4746663692501
 20
326.6957648898001
 30
0
 11
868.5901663692501
 21
327.8957648898
 31
0
  0
LINE
  8
1
 62
2
 10
868.4746663692501
 20
326.0957648898
 30
0
 11
868.4746663692501
 21
326.6957648898001
 31
0
  0
LINE
  8
1
 62
2
 10
868.5901663692501
 20
325.4957648898
 30
0
 11
868.4746663692501
 21
326.0957648898
 31
0
  0
LINE
  8
1
 62
2
 10
868.8211663692501
 20
325.0457648898
 30
0
 11
868.5901663692501
 21
325.4957648898
 31
0
  0
LINE
  8
1
 62
2
 10
869.1676663692501
 20
324.7457648898
 30
0
 11
868.8211663692501
 21
325.0457648898
 31
0
  0
LINE
  8
1
 62
2
 10
869.5141663692501
 20
324.5957648898
 30
0
 11
869.1676663692501
 21
324.7457648898
 31
0
  0
LINE
  8
1
 62
2
 10
870.2071663692501
 20
324.5957648898
 30
0
 11
869.5141663692501
 21
324.5957648898
 31
0
  0
LINE
  8
1
 62
2
 10
870.5536663692501
 20
324.7457648898
 30
0
 11
870.2071663692501
 21
324.5957648898
 31
0
  0
LINE
  8
1
 62
2
 10
870.9001663692502
 20
325.0457648898
 30
0
 11
870.5536663692501
 21
324.7457648898
 31
0
  0
LINE
  8
1
 62
2
 10
871.1311663692502
 20
325.4957648898
 30
0
 11
870.9001663692502
 21
325.0457648898
 31
0
  0
LINE
  8
1
 62
2
 10
871.2466663692502
 20
326.0957648898
 30
0
 11
871.1311663692502
 21
325.4957648898
 31
0
  0
LINE
  8
1
 62
2
 10
871.2466663692502
 20
326.6957648898001
 30
0
 11
871.2466663692502
 21
326.0957648898
 31
0
  0
LINE
  8
1
 62
2
 10
871.1311663692502
 20
327.2957648898
 30
0
 11
871.2466663692502
 21
326.6957648898001
 31
0
  0
LINE
  8
1
 62
2
 10
870.9001663692502
 20
327.7457648898
 30
0
 11
871.1311663692502
 21
327.2957648898
 31
0
  0
LINE
  8
1
 62
2
 10
870.5536663692501
 20
328.0457648898
 30
0
 11
870.9001663692502
 21
327.7457648898
 31
0
  0
LINE
  8
1
 62
2
 10
870.2071663692501
 20
328.1957648898001
 30
0
 11
870.5536663692501
 21
328.0457648898
 31
0
  0
LINE
  8
1
 62
2
 10
869.5141663692501
 20
328.1957648898001
 30
0
 11
870.2071663692501
 21
328.1957648898001
 31
0
  0
LINE
  8
1
 62
2
 10
869.1676663692501
 20
328.0457648898
 30
0
 11
869.5141663692501
 21
328.1957648898001
 31
0
  0
LINE
  8
1
 62
2
 10
868.8211663692501
 20
327.7457648898
 30
0
 11
869.1676663692501
 21
328.0457648898
 31
0
  0
LINE
  8
1
 62
2
 10
868.5901663692501
 20
327.2957648898
 30
0
 11
868.8211663692501
 21
327.7457648898
 31
0
  0
LINE
  8
1
 62
2
 10
868.4746663692501
 20
326.6957648898001
 30
0
 11
868.5901663692501
 21
327.2957648898
 31
0
  0
LINE
  8
1
 62
2
 10
864.7786663692502
 20
330.1457648898
 30
0
 11
865.1251663692502
 21
330.4457648898001
 31
0
  0
LINE
  8
1
 62
2
 10
864.5476663692502
 20
329.6957648898001
 30
0
 11
864.7786663692502
 21
330.1457648898
 31
0
  0
LINE
  8
1
 62
2
 10
864.5476663692502
 20
329.0957648898
 30
0
 11
864.5476663692502
 21
329.6957648898001
 31
0
  0
LINE
  8
1
 62
2
 10
864.7786663692502
 20
328.6457648898
 30
0
 11
864.5476663692502
 21
329.0957648898
 31
0
  0
LINE
  8
1
 62
2
 10
865.1251663692502
 20
328.3457648898
 30
0
 11
864.7786663692502
 21
328.6457648898
 31
0
  0
LINE
  8
1
 62
2
 10
865.4716663692502
 20
328.1957648898001
 30
0
 11
865.1251663692502
 21
328.3457648898
 31
0
  0
LINE
  8
1
 62
2
 10
865.9336663692502
 20
328.1957648898001
 30
0
 11
865.4716663692502
 21
328.1957648898001
 31
0
  0
LINE
  8
1
 62
2
 10
866.2801663692502
 20
328.3457648898
 30
0
 11
865.9336663692502
 21
328.1957648898001
 31
0
  0
LINE
  8
1
 62
2
 10
866.6266663692502
 20
328.6457648898
 30
0
 11
866.2801663692502
 21
328.3457648898
 31
0
  0
LINE
  8
1
 62
2
 10
866.8576663692503
 20
329.0957648898
 30
0
 11
866.6266663692502
 21
328.6457648898
 31
0
  0
LINE
  8
1
 62
2
 10
866.8576663692503
 20
329.6957648898001
 30
0
 11
866.8576663692503
 21
329.0957648898
 31
0
  0
LINE
  8
1
 62
2
 10
866.6266663692502
 20
330.1457648898
 30
0
 11
866.8576663692503
 21
329.6957648898001
 31
0
  0
LINE
  8
1
 62
2
 10
866.2801663692502
 20
330.4457648898001
 30
0
 11
866.6266663692502
 21
330.1457648898
 31
0
  0
LINE
  8
1
 62
2
 10
865.9336663692502
 20
330.5957648898
 30
0
 11
866.2801663692502
 21
330.4457648898001
 31
0
  0
LINE
  8
1
 62
2
 10
865.4716663692502
 20
330.5957648898
 30
0
 11
865.9336663692502
 21
330.5957648898
 31
0
  0
LINE
  8
1
 62
2
 10
865.1251663692502
 20
330.4457648898001
 30
0
 11
865.4716663692502
 21
330.5957648898
 31
0
  0
LINE
  8
1
 62
2
 10
866.5111663692502
 20
327.8957648898
 30
0
 11
865.9336663692502
 21
328.1957648898001
 31
0
  0
LINE
  8
1
 62
2
 10
866.8576663692503
 20
327.4457648898001
 30
0
 11
866.5111663692502
 21
327.8957648898
 31
0
  0
LINE
  8
1
 62
2
 10
867.0886663692503
 20
326.8457648898
 30
0
 11
866.8576663692503
 21
327.4457648898001
 31
0
  0
LINE
  8
1
 62
2
 10
867.0886663692503
 20
325.9457648898001
 30
0
 11
867.0886663692503
 21
326.8457648898
 31
0
  0
LINE
  8
1
 62
2
 10
866.8576663692503
 20
325.3457648898
 30
0
 11
867.0886663692503
 21
325.9457648898001
 31
0
  0
LINE
  8
1
 62
2
 10
866.5111663692502
 20
324.8957648898
 30
0
 11
866.8576663692503
 21
325.3457648898
 31
0
  0
LINE
  8
1
 62
2
 10
866.0491663692502
 20
324.5957648898
 30
0
 11
866.5111663692502
 21
324.8957648898
 31
0
  0
LINE
  8
1
 62
2
 10
865.3561663692502
 20
324.5957648898
 30
0
 11
866.0491663692502
 21
324.5957648898
 31
0
  0
LINE
  8
1
 62
2
 10
864.8941663692502
 20
324.8957648898
 30
0
 11
865.3561663692502
 21
324.5957648898
 31
0
  0
LINE
  8
1
 62
2
 10
864.5476663692502
 20
325.3457648898
 30
0
 11
864.8941663692502
 21
324.8957648898
 31
0
  0
LINE
  8
1
 62
2
 10
864.3166663692502
 20
325.9457648898001
 30
0
 11
864.5476663692502
 21
325.3457648898
 31
0
  0
LINE
  8
1
 62
2
 10
864.3166663692502
 20
326.8457648898
 30
0
 11
864.3166663692502
 21
325.9457648898001
 31
0
  0
LINE
  8
1
 62
2
 10
864.5476663692502
 20
327.4457648898001
 30
0
 11
864.3166663692502
 21
326.8457648898
 31
0
  0
LINE
  8
1
 62
2
 10
864.8941663692502
 20
327.8957648898
 30
0
 11
864.5476663692502
 21
327.4457648898001
 31
0
  0
LINE
  8
1
 62
2
 10
865.4716663692502
 20
328.1957648898001
 30
0
 11
864.8941663692502
 21
327.8957648898
 31
0
  0
LINE
  8
1
 62
2
 10
862.9306663692502
 20
330.5957648898
 30
0
 11
862.9306663692502
 21
324.5957648898
 31
0
  0
LINE
  8
1
 62
2
 10
861.5446663692502
 20
328.7957648898
 30
0
 11
862.9306663692502
 21
330.5957648898
 31
0
  0
LINE
  8
1
 62
2
 10
837.4405017122501
 20
324.5957648898
 30
0
 11
837.4405017122501
 21
330.5957648898
 31
0
  0
LINE
  8
1
 62
2
 10
838.3645017122501
 20
327.5957648898
 30
0
 11
840.6745017122502
 21
324.5957648898
 31
0
  0
LINE
  8
1
 62
2
 10
840.6745017122502
 20
330.5957648898
 30
0
 11
837.4405017122501
 21
326.3957648898
 31
0
  0
LINE
  8
1
 62
2
 10
836.0545017122503
 20
328.3457648898
 30
0
 11
836.0545017122503
 21
326.8457648898
 31
0
  0
LINE
  8
1
 62
2
 10
835.9390017122503
 20
329.2457648898
 30
0
 11
836.0545017122503
 21
328.3457648898
 31
0
  0
LINE
  8
1
 62
2
 10
835.7080017122503
 20
329.8457648898
 30
0
 11
835.9390017122503
 21
329.2457648898
 31
0
  0
LINE
  8
1
 62
2
 10
835.4770017122502
 20
330.1457648898
 30
0
 11
835.7080017122503
 21
329.8457648898
 31
0
  0
LINE
  8
1
 62
2
 10
835.1305017122502
 20
330.4457648898001
 30
0
 11
835.4770017122502
 21
330.1457648898
 31
0
  0
LINE
  8
1
 62
2
 10
834.7840017122502
 20
330.5957648898
 30
0
 11
835.1305017122502
 21
330.4457648898001
 31
0
  0
LINE
  8
1
 62
2
 10
834.5530017122502
 20
330.5957648898
 30
0
 11
834.7840017122502
 21
330.5957648898
 31
0
  0
LINE
  8
1
 62
2
 10
834.2065017122502
 20
330.4457648898001
 30
0
 11
834.5530017122502
 21
330.5957648898
 31
0
  0
LINE
  8
1
 62
2
 10
833.8600017122502
 20
330.1457648898
 30
0
 11
834.2065017122502
 21
330.4457648898001
 31
0
  0
LINE
  8
1
 62
2
 10
833.6290017122502
 20
329.8457648898
 30
0
 11
833.8600017122502
 21
330.1457648898
 31
0
  0
LINE
  8
1
 62
2
 10
833.3980017122502
 20
329.2457648898
 30
0
 11
833.6290017122502
 21
329.8457648898
 31
0
  0
LINE
  8
1
 62
2
 10
833.2825017122502
 20
328.3457648898
 30
0
 11
833.3980017122502
 21
329.2457648898
 31
0
  0
LINE
  8
1
 62
2
 10
833.2825017122502
 20
326.8457648898
 30
0
 11
833.2825017122502
 21
328.3457648898
 31
0
  0
LINE
  8
1
 62
2
 10
833.3980017122502
 20
325.9457648898001
 30
0
 11
833.2825017122502
 21
326.8457648898
 31
0
  0
LINE
  8
1
 62
2
 10
833.6290017122502
 20
325.3457648898
 30
0
 11
833.3980017122502
 21
325.9457648898001
 31
0
  0
LINE
  8
1
 62
2
 10
833.8600017122502
 20
325.0457648898
 30
0
 11
833.6290017122502
 21
325.3457648898
 31
0
  0
LINE
  8
1
 62
2
 10
834.2065017122502
 20
324.7457648898
 30
0
 11
833.8600017122502
 21
325.0457648898
 31
0
  0
LINE
  8
1
 62
2
 10
834.5530017122502
 20
324.5957648898
 30
0
 11
834.2065017122502
 21
324.7457648898
 31
0
  0
LINE
  8
1
 62
2
 10
834.7840017122502
 20
324.5957648898
 30
0
 11
834.5530017122502
 21
324.5957648898
 31
0
  0
LINE
  8
1
 62
2
 10
835.1305017122502
 20
324.7457648898
 30
0
 11
834.7840017122502
 21
324.5957648898
 31
0
  0
LINE
  8
1
 62
2
 10
835.4770017122502
 20
325.0457648898
 30
0
 11
835.1305017122502
 21
324.7457648898
 31
0
  0
LINE
  8
1
 62
2
 10
835.7080017122503
 20
325.3457648898
 30
0
 11
835.4770017122502
 21
325.0457648898
 31
0
  0
LINE
  8
1
 62
2
 10
835.9390017122503
 20
325.9457648898001
 30
0
 11
835.7080017122503
 21
325.3457648898
 31
0
  0
LINE
  8
1
 62
2
 10
836.0545017122503
 20
326.8457648898
 30
0
 11
835.9390017122503
 21
325.9457648898001
 31
0
  0
LINE
  8
1
 62
2
 10
831.8965017122501
 20
330.5957648898
 30
0
 11
831.8965017122501
 21
324.5957648898
 31
0
  0
LINE
  8
1
 62
2
 10
830.5105017122502
 20
328.7957648898
 30
0
 11
831.8965017122501
 21
330.5957648898
 31
0
  0
LINE
  8
1
 62
2
 10
826.1215017122502
 20
325.0457648898
 30
0
 11
825.8905017122502
 21
325.3457648898
 31
0
  0
LINE
  8
1
 62
2
 10
826.5835017122502
 20
324.7457648898
 30
0
 11
826.1215017122502
 21
325.0457648898
 31
0
  0
LINE
  8
1
 62
2
 10
827.1610017122501
 20
324.5957648898
 30
0
 11
826.5835017122502
 21
324.7457648898
 31
0
  0
LINE
  8
1
 62
2
 10
827.8540017122501
 20
324.5957648898
 30
0
 11
827.1610017122501
 21
324.5957648898
 31
0
  0
LINE
  8
1
 62
2
 10
828.4315017122502
 20
324.7457648898
 30
0
 11
827.8540017122501
 21
324.5957648898
 31
0
  0
LINE
  8
1
 62
2
 10
828.7780017122502
 20
325.0457648898
 30
0
 11
828.4315017122502
 21
324.7457648898
 31
0
  0
LINE
  8
1
 62
2
 10
829.0090017122502
 20
325.4957648898
 30
0
 11
828.7780017122502
 21
325.0457648898
 31
0
  0
LINE
  8
1
 62
2
 10
829.1245017122502
 20
325.9457648898001
 30
0
 11
829.0090017122502
 21
325.4957648898
 31
0
  0
LINE
  8
1
 62
2
 10
829.1245017122502
 20
326.2457648898
 30
0
 11
829.1245017122502
 21
325.9457648898001
 31
0
  0
LINE
  8
1
 62
2
 10
829.0090017122502
 20
326.6957648898001
 30
0
 11
829.1245017122502
 21
326.2457648898
 31
0
  0
LINE
  8
1
 62
2
 10
828.7780017122502
 20
327.1457648898
 30
0
 11
829.0090017122502
 21
326.6957648898001
 31
0
  0
LINE
  8
1
 62
2
 10
828.4315017122502
 20
327.4457648898001
 30
0
 11
828.7780017122502
 21
327.1457648898
 31
0
  0
LINE
  8
1
 62
2
 10
826.4680017122502
 20
328.4957648898
 30
0
 11
828.4315017122502
 21
327.4457648898001
 31
0
  0
LINE
  8
1
 62
2
 10
826.1215017122502
 20
328.7957648898
 30
0
 11
826.4680017122502
 21
328.4957648898
 31
0
  0
LINE
  8
1
 62
2
 10
826.0060017122502
 20
329.2457648898
 30
0
 11
826.1215017122502
 21
328.7957648898
 31
0
  0
LINE
  8
1
 62
2
 10
826.0060017122502
 20
329.5457648898
 30
0
 11
826.0060017122502
 21
329.2457648898
 31
0
  0
LINE
  8
1
 62
2
 10
826.1215017122502
 20
329.9957648898
 30
0
 11
826.0060017122502
 21
329.5457648898
 31
0
  0
LINE
  8
1
 62
2
 10
826.4680017122502
 20
330.2957648898
 30
0
 11
826.1215017122502
 21
329.9957648898
 31
0
  0
LINE
  8
1
 62
2
 10
826.8145017122502
 20
330.4457648898001
 30
0
 11
826.4680017122502
 21
330.2957648898
 31
0
  0
LINE
  8
1
 62
2
 10
827.2765017122501
 20
330.5957648898
 30
0
 11
826.8145017122502
 21
330.4457648898001
 31
0
  0
LINE
  8
1
 62
2
 10
827.7385017122501
 20
330.5957648898
 30
0
 11
827.2765017122501
 21
330.5957648898
 31
0
  0
LINE
  8
1
 62
2
 10
828.3160017122502
 20
330.4457648898001
 30
0
 11
827.7385017122501
 21
330.5957648898
 31
0
  0
LINE
  8
1
 62
2
 10
828.6625017122502
 20
330.2957648898
 30
0
 11
828.3160017122502
 21
330.4457648898001
 31
0
  0
LINE
  8
1
 62
2
 10
829.0090017122502
 20
329.9957648898
 30
0
 11
828.6625017122502
 21
330.2957648898
 31
0
  0
LINE
  8
1
 62
2
 10
824.5045017122502
 20
324.5957648898
 30
0
 11
824.5045017122502
 21
330.5957648898
 31
0
  0
LINE
  8
1
 62
2
 10
822.1945017122501
 20
324.5957648898
 30
0
 11
821.2705017122502
 21
324.5957648898
 31
0
  0
LINE
  8
1
 62
2
 10
822.5410017122501
 20
324.7457648898
 30
0
 11
822.1945017122501
 21
324.5957648898
 31
0
  0
LINE
  8
1
 62
2
 10
822.8875017122501
 20
325.0457648898
 30
0
 11
822.5410017122501
 21
324.7457648898
 31
0
  0
LINE
  8
1
 62
2
 10
823.1185017122501
 20
325.6457648898
 30
0
 11
822.8875017122501
 21
325.0457648898
 31
0
  0
LINE
  8
1
 62
2
 10
823.1185017122501
 20
330.5957648898
 30
0
 11
823.1185017122501
 21
325.6457648898
 31
0
  0
LINE
  8
1
 62
2
 10
1007.59516153905
 20
335.1957652698
 30
0
 11
1006.55566153905
 21
334.5957652697999
 31
0
  0
LINE
  8
1
 62
2
 10
1008.40366153905
 20
336.0957652697999
 30
0
 11
1007.59516153905
 21
335.1957652698
 31
0
  0
LINE
  8
1
 62
2
 10
1008.75016153905
 20
336.6957652698
 30
0
 11
1008.40366153905
 21
336.0957652697999
 31
0
  0
LINE
  8
1
 62
2
 10
1008.86566153905
 20
337.2957652697999
 30
0
 11
1008.75016153905
 21
336.6957652698
 31
0
  0
LINE
  8
1
 62
2
 10
1008.98116153905
 20
338.0457652697999
 30
0
 11
1008.86566153905
 21
337.2957652697999
 31
0
  0
LINE
  8
1
 62
2
 10
1008.98116153905
 20
339.0957652697999
 30
0
 11
1008.98116153905
 21
338.0457652697999
 31
0
  0
LINE
  8
1
 62
2
 10
1008.86566153905
 20
339.6957652698
 30
0
 11
1008.98116153905
 21
339.0957652697999
 31
0
  0
LINE
  8
1
 62
2
 10
1008.63466153905
 20
340.1457652697999
 30
0
 11
1008.86566153905
 21
339.6957652698
 31
0
  0
LINE
  8
1
 62
2
 10
1008.28816153905
 20
340.4457652698
 30
0
 11
1008.63466153905
 21
340.1457652697999
 31
0
  0
LINE
  8
1
 62
2
 10
1007.94166153905
 20
340.5957652697999
 30
0
 11
1008.28816153905
 21
340.4457652698
 31
0
  0
LINE
  8
1
 62
2
 10
1007.24866153905
 20
340.5957652697999
 30
0
 11
1007.94166153905
 21
340.5957652697999
 31
0
  0
LINE
  8
1
 62
2
 10
1006.90216153905
 20
340.4457652698
 30
0
 11
1007.24866153905
 21
340.5957652697999
 31
0
  0
LINE
  8
1
 62
2
 10
1006.55566153905
 20
340.1457652697999
 30
0
 11
1006.90216153905
 21
340.4457652698
 31
0
  0
LINE
  8
1
 62
2
 10
1006.32466153905
 20
339.6957652698
 30
0
 11
1006.55566153905
 21
340.1457652697999
 31
0
  0
LINE
  8
1
 62
2
 10
1006.20916153905
 20
339.0957652697999
 30
0
 11
1006.32466153905
 21
339.6957652698
 31
0
  0
LINE
  8
1
 62
2
 10
1006.20916153905
 20
338.7957652697999
 30
0
 11
1006.20916153905
 21
339.0957652697999
 31
0
  0
LINE
  8
1
 62
2
 10
1006.32466153905
 20
338.1957652698
 30
0
 11
1006.20916153905
 21
338.7957652697999
 31
0
  0
LINE
  8
1
 62
2
 10
1006.55566153905
 20
337.7457652697999
 30
0
 11
1006.32466153905
 21
338.1957652698
 31
0
  0
LINE
  8
1
 62
2
 10
1006.90216153905
 20
337.4457652698
 30
0
 11
1006.55566153905
 21
337.7457652697999
 31
0
  0
LINE
  8
1
 62
2
 10
1007.24866153905
 20
337.2957652697999
 30
0
 11
1006.90216153905
 21
337.4457652698
 31
0
  0
LINE
  8
1
 62
2
 10
1008.86566153905
 20
337.2957652697999
 30
0
 11
1007.24866153905
 21
337.2957652697999
 31
0
  0
LINE
  8
1
 62
2
 10
1004.82316153905
 20
340.5957652697999
 30
0
 11
1004.82316153905
 21
334.5957652697999
 31
0
  0
LINE
  8
1
 62
2
 10
1003.43716153905
 20
338.7957652697999
 30
0
 11
1004.82316153905
 21
340.5957652697999
 31
0
  0
LINE
  8
1
 62
2
 10
972.2253294508499
 20
336.9957652697999
 30
0
 11
972.2253294508499
 21
334.5957652697999
 31
0
  0
LINE
  8
1
 62
2
 10
970.14632945085
 20
335.7957652697999
 30
0
 11
972.91832945085
 21
335.7957652697999
 31
0
  0
LINE
  8
1
 62
2
 10
972.2253294508499
 20
340.5957652697999
 30
0
 11
970.14632945085
 21
335.7957652697999
 31
0
  0
LINE
  8
1
 62
2
 10
941.3199971794501
 20
338.3457652697999
 30
0
 11
941.3199971794501
 21
336.8457652697999
 31
0
  0
LINE
  8
1
 62
2
 10
941.2044971794501
 20
339.2457652697999
 30
0
 11
941.3199971794501
 21
338.3457652697999
 31
0
  0
LINE
  8
1
 62
2
 10
940.9734971794501
 20
339.8457652697999
 30
0
 11
941.2044971794501
 21
339.2457652697999
 31
0
  0
LINE
  8
1
 62
2
 10
940.74249717945
 20
340.1457652697999
 30
0
 11
940.9734971794501
 21
339.8457652697999
 31
0
  0
LINE
  8
1
 62
2
 10
940.39599717945
 20
340.4457652698
 30
0
 11
940.74249717945
 21
340.1457652697999
 31
0
  0
LINE
  8
1
 62
2
 10
940.04949717945
 20
340.5957652697999
 30
0
 11
940.39599717945
 21
340.4457652698
 31
0
  0
LINE
  8
1
 62
2
 10
939.81849717945
 20
340.5957652697999
 30
0
 11
940.04949717945
 21
340.5957652697999
 31
0
  0
LINE
  8
1
 62
2
 10
939.47199717945
 20
340.4457652698
 30
0
 11
939.81849717945
 21
340.5957652697999
 31
0
  0
LINE
  8
1
 62
2
 10
939.12549717945
 20
340.1457652697999
 30
0
 11
939.47199717945
 21
340.4457652698
 31
0
  0
LINE
  8
1
 62
2
 10
938.89449717945
 20
339.8457652697999
 30
0
 11
939.12549717945
 21
340.1457652697999
 31
0
  0
LINE
  8
1
 62
2
 10
938.66349717945
 20
339.2457652697999
 30
0
 11
938.89449717945
 21
339.8457652697999
 31
0
  0
LINE
  8
1
 62
2
 10
938.54799717945
 20
338.3457652697999
 30
0
 11
938.66349717945
 21
339.2457652697999
 31
0
  0
LINE
  8
1
 62
2
 10
938.54799717945
 20
336.8457652697999
 30
0
 11
938.54799717945
 21
338.3457652697999
 31
0
  0
LINE
  8
1
 62
2
 10
938.66349717945
 20
335.9457652698
 30
0
 11
938.54799717945
 21
336.8457652697999
 31
0
  0
LINE
  8
1
 62
2
 10
938.89449717945
 20
335.3457652697999
 30
0
 11
938.66349717945
 21
335.9457652698
 31
0
  0
LINE
  8
1
 62
2
 10
939.12549717945
 20
335.0457652697999
 30
0
 11
938.89449717945
 21
335.3457652697999
 31
0
  0
LINE
  8
1
 62
2
 10
939.47199717945
 20
334.7457652697999
 30
0
 11
939.12549717945
 21
335.0457652697999
 31
0
  0
LINE
  8
1
 62
2
 10
939.81849717945
 20
334.5957652697999
 30
0
 11
939.47199717945
 21
334.7457652697999
 31
0
  0
LINE
  8
1
 62
2
 10
940.04949717945
 20
334.5957652697999
 30
0
 11
939.81849717945
 21
334.5957652697999
 31
0
  0
LINE
  8
1
 62
2
 10
940.39599717945
 20
334.7457652697999
 30
0
 11
940.04949717945
 21
334.5957652697999
 31
0
  0
LINE
  8
1
 62
2
 10
940.74249717945
 20
335.0457652697999
 30
0
 11
940.39599717945
 21
334.7457652697999
 31
0
  0
LINE
  8
1
 62
2
 10
940.9734971794501
 20
335.3457652697999
 30
0
 11
940.74249717945
 21
335.0457652697999
 31
0
  0
LINE
  8
1
 62
2
 10
941.2044971794501
 20
335.9457652698
 30
0
 11
940.9734971794501
 21
335.3457652697999
 31
0
  0
LINE
  8
1
 62
2
 10
941.3199971794501
 20
336.8457652697999
 30
0
 11
941.2044971794501
 21
335.9457652698
 31
0
  0
LINE
  8
1
 62
2
 10
937.1619971794502
 20
338.3457652697999
 30
0
 11
937.1619971794502
 21
336.8457652697999
 31
0
  0
LINE
  8
1
 62
2
 10
937.0464971794502
 20
339.2457652697999
 30
0
 11
937.1619971794502
 21
338.3457652697999
 31
0
  0
LINE
  8
1
 62
2
 10
936.8154971794502
 20
339.8457652697999
 30
0
 11
937.0464971794502
 21
339.2457652697999
 31
0
  0
LINE
  8
1
 62
2
 10
936.5844971794501
 20
340.1457652697999
 30
0
 11
936.8154971794502
 21
339.8457652697999
 31
0
  0
LINE
  8
1
 62
2
 10
936.2379971794501
 20
340.4457652698
 30
0
 11
936.5844971794501
 21
340.1457652697999
 31
0
  0
LINE
  8
1
 62
2
 10
935.8914971794501
 20
340.5957652697999
 30
0
 11
936.2379971794501
 21
340.4457652698
 31
0
  0
LINE
  8
1
 62
2
 10
935.6604971794501
 20
340.5957652697999
 30
0
 11
935.8914971794501
 21
340.5957652697999
 31
0
  0
LINE
  8
1
 62
2
 10
935.3139971794501
 20
340.4457652698
 30
0
 11
935.6604971794501
 21
340.5957652697999
 31
0
  0
LINE
  8
1
 62
2
 10
934.9674971794501
 20
340.1457652697999
 30
0
 11
935.3139971794501
 21
340.4457652698
 31
0
  0
LINE
  8
1
 62
2
 10
934.7364971794501
 20
339.8457652697999
 30
0
 11
934.9674971794501
 21
340.1457652697999
 31
0
  0
LINE
  8
1
 62
2
 10
934.5054971794501
 20
339.2457652697999
 30
0
 11
934.7364971794501
 21
339.8457652697999
 31
0
  0
LINE
  8
1
 62
2
 10
934.3899971794501
 20
338.3457652697999
 30
0
 11
934.5054971794501
 21
339.2457652697999
 31
0
  0
LINE
  8
1
 62
2
 10
934.3899971794501
 20
336.8457652697999
 30
0
 11
934.3899971794501
 21
338.3457652697999
 31
0
  0
LINE
  8
1
 62
2
 10
934.5054971794501
 20
335.9457652698
 30
0
 11
934.3899971794501
 21
336.8457652697999
 31
0
  0
LINE
  8
1
 62
2
 10
934.7364971794501
 20
335.3457652697999
 30
0
 11
934.5054971794501
 21
335.9457652698
 31
0
  0
LINE
  8
1
 62
2
 10
934.9674971794501
 20
335.0457652697999
 30
0
 11
934.7364971794501
 21
335.3457652697999
 31
0
  0
LINE
  8
1
 62
2
 10
935.3139971794501
 20
334.7457652697999
 30
0
 11
934.9674971794501
 21
335.0457652697999
 31
0
  0
LINE
  8
1
 62
2
 10
935.6604971794501
 20
334.5957652697999
 30
0
 11
935.3139971794501
 21
334.7457652697999
 31
0
  0
LINE
  8
1
 62
2
 10
935.8914971794501
 20
334.5957652697999
 30
0
 11
935.6604971794501
 21
334.5957652697999
 31
0
  0
LINE
  8
1
 62
2
 10
936.2379971794501
 20
334.7457652697999
 30
0
 11
935.8914971794501
 21
334.5957652697999
 31
0
  0
LINE
  8
1
 62
2
 10
936.5844971794501
 20
335.0457652697999
 30
0
 11
936.2379971794501
 21
334.7457652697999
 31
0
  0
LINE
  8
1
 62
2
 10
936.8154971794502
 20
335.3457652697999
 30
0
 11
936.5844971794501
 21
335.0457652697999
 31
0
  0
LINE
  8
1
 62
2
 10
937.0464971794502
 20
335.9457652698
 30
0
 11
936.8154971794502
 21
335.3457652697999
 31
0
  0
LINE
  8
1
 62
2
 10
937.1619971794502
 20
336.8457652697999
 30
0
 11
937.0464971794502
 21
335.9457652698
 31
0
  0
LINE
  8
1
 62
2
 10
933.00399717945
 20
340.5957652697999
 30
0
 11
933.00399717945
 21
334.5957652697999
 31
0
  0
LINE
  8
1
 62
2
 10
931.6179971794501
 20
338.7957652697999
 30
0
 11
933.00399717945
 21
340.5957652697999
 31
0
  0
LINE
  8
1
 62
2
 10
905.2438317744501
 20
334.5957652697999
 30
0
 11
903.5113317744501
 21
334.5957652697999
 31
0
  0
LINE
  8
1
 62
2
 10
905.5903317744501
 20
334.7457652697999
 30
0
 11
905.2438317744501
 21
334.5957652697999
 31
0
  0
LINE
  8
1
 62
2
 10
905.9368317744502
 20
335.0457652697999
 30
0
 11
905.5903317744501
 21
334.7457652697999
 31
0
  0
LINE
  8
1
 62
2
 10
906.1678317744502
 20
335.4957652697999
 30
0
 11
905.9368317744502
 21
335.0457652697999
 31
0
  0
LINE
  8
1
 62
2
 10
906.2833317744502
 20
336.0957652697999
 30
0
 11
906.1678317744502
 21
335.4957652697999
 31
0
  0
LINE
  8
1
 62
2
 10
906.2833317744502
 20
336.8457652697999
 30
0
 11
906.2833317744502
 21
336.0957652697999
 31
0
  0
LINE
  8
1
 62
2
 10
906.1678317744502
 20
337.4457652698
 30
0
 11
906.2833317744502
 21
336.8457652697999
 31
0
  0
LINE
  8
1
 62
2
 10
906.0523317744502
 20
337.7457652697999
 30
0
 11
906.1678317744502
 21
337.4457652698
 31
0
  0
LINE
  8
1
 62
2
 10
905.8213317744501
 20
338.0457652697999
 30
0
 11
906.0523317744502
 21
337.7457652697999
 31
0
  0
LINE
  8
1
 62
2
 10
905.3593317744501
 20
338.1957652698
 30
0
 11
905.8213317744501
 21
338.0457652697999
 31
0
  0
LINE
  8
1
 62
2
 10
905.7058317744501
 20
338.3457652697999
 30
0
 11
905.3593317744501
 21
338.1957652698
 31
0
  0
LINE
  8
1
 62
2
 10
905.9368317744502
 20
338.4957652697999
 30
0
 11
905.7058317744501
 21
338.3457652697999
 31
0
  0
LINE
  8
1
 62
2
 10
906.1678317744502
 20
338.7957652697999
 30
0
 11
905.9368317744502
 21
338.4957652697999
 31
0
  0
LINE
  8
1
 62
2
 10
906.2833317744502
 20
339.2457652697999
 30
0
 11
906.1678317744502
 21
338.7957652697999
 31
0
  0
LINE
  8
1
 62
2
 10
906.2833317744502
 20
339.6957652698
 30
0
 11
906.2833317744502
 21
339.2457652697999
 31
0
  0
LINE
  8
1
 62
2
 10
906.1678317744502
 20
340.1457652697999
 30
0
 11
906.2833317744502
 21
339.6957652698
 31
0
  0
LINE
  8
1
 62
2
 10
905.8213317744501
 20
340.4457652698
 30
0
 11
906.1678317744502
 21
340.1457652697999
 31
0
  0
LINE
  8
1
 62
2
 10
905.2438317744501
 20
340.5957652697999
 30
0
 11
905.8213317744501
 21
340.4457652698
 31
0
  0
LINE
  8
1
 62
2
 10
903.5113317744501
 20
340.5957652697999
 30
0
 11
905.2438317744501
 21
340.5957652697999
 31
0
  0
LINE
  8
1
 62
2
 10
904.2043317744501
 20
338.1957652698
 30
0
 11
905.3593317744501
 21
338.1957652698
 31
0
  0
LINE
  8
1
 62
2
 10
901.4323317744502
 20
336.9957652697999
 30
0
 11
901.4323317744502
 21
334.5957652697999
 31
0
  0
LINE
  8
1
 62
2
 10
899.3533317744502
 20
335.7957652697999
 30
0
 11
902.1253317744503
 21
335.7957652697999
 31
0
  0
LINE
  8
1
 62
2
 10
901.4323317744502
 20
340.5957652697999
 30
0
 11
899.3533317744502
 21
335.7957652697999
 31
0
  0
LINE
  8
1
 62
2
 10
897.9673317744501
 20
340.5957652697999
 30
0
 11
897.9673317744501
 21
334.5957652697999
 31
0
  0
LINE
  8
1
 62
2
 10
896.5813317744502
 20
338.7957652697999
 30
0
 11
897.9673317744501
 21
340.5957652697999
 31
0
  0
LINE
  8
1
 62
2
 10
869.2831663692501
 20
339.2457652697999
 30
0
 11
870.5536663692501
 21
340.5957652697999
 31
0
  0
LINE
  8
1
 62
2
 10
868.8211663692501
 20
338.4957652697999
 30
0
 11
869.2831663692501
 21
339.2457652697999
 31
0
  0
LINE
  8
1
 62
2
 10
868.5901663692501
 20
337.8957652697999
 30
0
 11
868.8211663692501
 21
338.4957652697999
 31
0
  0
LINE
  8
1
 62
2
 10
868.4746663692501
 20
336.6957652698
 30
0
 11
868.5901663692501
 21
337.8957652697999
 31
0
  0
LINE
  8
1
 62
2
 10
868.4746663692501
 20
336.0957652697999
 30
0
 11
868.4746663692501
 21
336.6957652698
 31
0
  0
LINE
  8
1
 62
2
 10
868.5901663692501
 20
335.4957652697999
 30
0
 11
868.4746663692501
 21
336.0957652697999
 31
0
  0
LINE
  8
1
 62
2
 10
868.8211663692501
 20
335.0457652697999
 30
0
 11
868.5901663692501
 21
335.4957652697999
 31
0
  0
LINE
  8
1
 62
2
 10
869.1676663692501
 20
334.7457652697999
 30
0
 11
868.8211663692501
 21
335.0457652697999
 31
0
  0
LINE
  8
1
 62
2
 10
869.5141663692501
 20
334.5957652697999
 30
0
 11
869.1676663692501
 21
334.7457652697999
 31
0
  0
LINE
  8
1
 62
2
 10
870.2071663692501
 20
334.5957652697999
 30
0
 11
869.5141663692501
 21
334.5957652697999
 31
0
  0
LINE
  8
1
 62
2
 10
870.5536663692501
 20
334.7457652697999
 30
0
 11
870.2071663692501
 21
334.5957652697999
 31
0
  0
LINE
  8
1
 62
2
 10
870.9001663692502
 20
335.0457652697999
 30
0
 11
870.5536663692501
 21
334.7457652697999
 31
0
  0
LINE
  8
1
 62
2
 10
871.1311663692502
 20
335.4957652697999
 30
0
 11
870.9001663692502
 21
335.0457652697999
 31
0
  0
LINE
  8
1
 62
2
 10
871.2466663692502
 20
336.0957652697999
 30
0
 11
871.1311663692502
 21
335.4957652697999
 31
0
  0
LINE
  8
1
 62
2
 10
871.2466663692502
 20
336.6957652698
 30
0
 11
871.2466663692502
 21
336.0957652697999
 31
0
  0
LINE
  8
1
 62
2
 10
871.1311663692502
 20
337.2957652697999
 30
0
 11
871.2466663692502
 21
336.6957652698
 31
0
  0
LINE
  8
1
 62
2
 10
870.9001663692502
 20
337.7457652697999
 30
0
 11
871.1311663692502
 21
337.2957652697999
 31
0
  0
LINE
  8
1
 62
2
 10
870.5536663692501
 20
338.0457652697999
 30
0
 11
870.9001663692502
 21
337.7457652697999
 31
0
  0
LINE
  8
1
 62
2
 10
870.2071663692501
 20
338.1957652698
 30
0
 11
870.5536663692501
 21
338.0457652697999
 31
0
  0
LINE
  8
1
 62
2
 10
869.5141663692501
 20
338.1957652698
 30
0
 11
870.2071663692501
 21
338.1957652698
 31
0
  0
LINE
  8
1
 62
2
 10
869.1676663692501
 20
338.0457652697999
 30
0
 11
869.5141663692501
 21
338.1957652698
 31
0
  0
LINE
  8
1
 62
2
 10
868.8211663692501
 20
337.7457652697999
 30
0
 11
869.1676663692501
 21
338.0457652697999
 31
0
  0
LINE
  8
1
 62
2
 10
868.5901663692501
 20
337.2957652697999
 30
0
 11
868.8211663692501
 21
337.7457652697999
 31
0
  0
LINE
  8
1
 62
2
 10
868.4746663692501
 20
336.6957652698
 30
0
 11
868.5901663692501
 21
337.2957652697999
 31
0
  0
LINE
  8
1
 62
2
 10
864.7786663692502
 20
340.1457652697999
 30
0
 11
865.1251663692502
 21
340.4457652698
 31
0
  0
LINE
  8
1
 62
2
 10
864.5476663692502
 20
339.6957652698
 30
0
 11
864.7786663692502
 21
340.1457652697999
 31
0
  0
LINE
  8
1
 62
2
 10
864.5476663692502
 20
339.0957652697999
 30
0
 11
864.5476663692502
 21
339.6957652698
 31
0
  0
LINE
  8
1
 62
2
 10
864.7786663692502
 20
338.6457652697999
 30
0
 11
864.5476663692502
 21
339.0957652697999
 31
0
  0
LINE
  8
1
 62
2
 10
865.1251663692502
 20
338.3457652697999
 30
0
 11
864.7786663692502
 21
338.6457652697999
 31
0
  0
LINE
  8
1
 62
2
 10
865.4716663692502
 20
338.1957652698
 30
0
 11
865.1251663692502
 21
338.3457652697999
 31
0
  0
LINE
  8
1
 62
2
 10
865.9336663692502
 20
338.1957652698
 30
0
 11
865.4716663692502
 21
338.1957652698
 31
0
  0
LINE
  8
1
 62
2
 10
866.2801663692502
 20
338.3457652697999
 30
0
 11
865.9336663692502
 21
338.1957652698
 31
0
  0
LINE
  8
1
 62
2
 10
866.6266663692502
 20
338.6457652697999
 30
0
 11
866.2801663692502
 21
338.3457652697999
 31
0
  0
LINE
  8
1
 62
2
 10
866.8576663692503
 20
339.0957652697999
 30
0
 11
866.6266663692502
 21
338.6457652697999
 31
0
  0
LINE
  8
1
 62
2
 10
866.8576663692503
 20
339.6957652698
 30
0
 11
866.8576663692503
 21
339.0957652697999
 31
0
  0
LINE
  8
1
 62
2
 10
866.6266663692502
 20
340.1457652697999
 30
0
 11
866.8576663692503
 21
339.6957652698
 31
0
  0
LINE
  8
1
 62
2
 10
866.2801663692502
 20
340.4457652698
 30
0
 11
866.6266663692502
 21
340.1457652697999
 31
0
  0
LINE
  8
1
 62
2
 10
865.9336663692502
 20
340.5957652697999
 30
0
 11
866.2801663692502
 21
340.4457652698
 31
0
  0
LINE
  8
1
 62
2
 10
865.4716663692502
 20
340.5957652697999
 30
0
 11
865.9336663692502
 21
340.5957652697999
 31
0
  0
LINE
  8
1
 62
2
 10
865.1251663692502
 20
340.4457652698
 30
0
 11
865.4716663692502
 21
340.5957652697999
 31
0
  0
LINE
  8
1
 62
2
 10
866.5111663692502
 20
337.8957652697999
 30
0
 11
865.9336663692502
 21
338.1957652698
 31
0
  0
LINE
  8
1
 62
2
 10
866.8576663692503
 20
337.4457652698
 30
0
 11
866.5111663692502
 21
337.8957652697999
 31
0
  0
LINE
  8
1
 62
2
 10
867.0886663692503
 20
336.8457652697999
 30
0
 11
866.8576663692503
 21
337.4457652698
 31
0
  0
LINE
  8
1
 62
2
 10
867.0886663692503
 20
335.9457652698
 30
0
 11
867.0886663692503
 21
336.8457652697999
 31
0
  0
LINE
  8
1
 62
2
 10
866.8576663692503
 20
335.3457652697999
 30
0
 11
867.0886663692503
 21
335.9457652698
 31
0
  0
LINE
  8
1
 62
2
 10
866.5111663692502
 20
334.8957652697999
 30
0
 11
866.8576663692503
 21
335.3457652697999
 31
0
  0
LINE
  8
1
 62
2
 10
866.0491663692502
 20
334.5957652697999
 30
0
 11
866.5111663692502
 21
334.8957652697999
 31
0
  0
LINE
  8
1
 62
2
 10
865.3561663692502
 20
334.5957652697999
 30
0
 11
866.0491663692502
 21
334.5957652697999
 31
0
  0
LINE
  8
1
 62
2
 10
864.8941663692502
 20
334.8957652697999
 30
0
 11
865.3561663692502
 21
334.5957652697999
 31
0
  0
LINE
  8
1
 62
2
 10
864.5476663692502
 20
335.3457652697999
 30
0
 11
864.8941663692502
 21
334.8957652697999
 31
0
  0
LINE
  8
1
 62
2
 10
864.3166663692502
 20
335.9457652698
 30
0
 11
864.5476663692502
 21
335.3457652697999
 31
0
  0
LINE
  8
1
 62
2
 10
864.3166663692502
 20
336.8457652697999
 30
0
 11
864.3166663692502
 21
335.9457652698
 31
0
  0
LINE
  8
1
 62
2
 10
864.5476663692502
 20
337.4457652698
 30
0
 11
864.3166663692502
 21
336.8457652697999
 31
0
  0
LINE
  8
1
 62
2
 10
864.8941663692502
 20
337.8957652697999
 30
0
 11
864.5476663692502
 21
337.4457652698
 31
0
  0
LINE
  8
1
 62
2
 10
865.4716663692502
 20
338.1957652698
 30
0
 11
864.8941663692502
 21
337.8957652697999
 31
0
  0
LINE
  8
1
 62
2
 10
862.9306663692502
 20
340.5957652697999
 30
0
 11
862.9306663692502
 21
334.5957652697999
 31
0
  0
LINE
  8
1
 62
2
 10
861.5446663692502
 20
338.7957652697999
 30
0
 11
862.9306663692502
 21
340.5957652697999
 31
0
  0
LINE
  8
1
 62
2
 10
833.5945208214265
 20
336.1957652698
 30
0
 11
834.5456972920148
 21
334.7957652697999
 31
0
  0
LINE
  8
1
 62
2
 10
832.9151090567207
 20
337.7957652697999
 30
0
 11
833.5945208214265
 21
336.1957652698
 31
0
  0
LINE
  8
1
 62
2
 10
832.3715796449559
 20
339.9957652697999
 30
0
 11
832.9151090567207
 21
337.7957652697999
 31
0
  0
LINE
  8
1
 62
2
 10
834.2739325861325
 20
339.9957652697999
 30
0
 11
833.186873762603
 21
337.9957652697999
 31
0
  0
LINE
  8
1
 62
2
 10
831.1486384684854
 20
336.3957652697999
 30
0
 11
830.3333443508383
 21
334.9957652697999
 31
0
  0
LINE
  8
1
 62
2
 10
831.5562855273089
 20
337.7957652697999
 30
0
 11
831.1486384684854
 21
336.3957652697999
 31
0
  0
LINE
  8
1
 62
2
 10
831.6921678802501
 20
339.3957652697999
 30
0
 11
831.5562855273089
 21
337.7957652697999
 31
0
  0
LINE
  8
1
 62
2
 10
830.3333443508383
 20
339.3957652697999
 30
0
 11
831.6921678802501
 21
339.3957652697999
 31
0
  0
LINE
  8
1
 62
2
 10
832.3715796449559
 20
334.3957652697999
 30
0
 11
831.4204031743677
 21
335.1957652698
 31
0
  0
LINE
  8
1
 62
2
 10
832.3715796449559
 20
340.5957652697999
 30
0
 11
832.3715796449559
 21
334.3957652697999
 31
0
  0
LINE
  8
1
 62
2
 10
824.8980502331913
 20
334.5957652697999
 30
0
 11
828.9745208214266
 21
334.5957652697999
 31
0
  0
LINE
  8
1
 62
2
 10
826.5286384684854
 20
340.3957652697999
 30
0
 11
826.5286384684854
 21
334.5957652697999
 31
0
  0
LINE
  8
1
 62
2
 10
826.5286384684854
 20
338.5957652697999
 30
0
 11
828.7027561155443
 21
338.5957652697999
 31
0
  0
LINE
  8
1
 62
2
 10
1014.221210907191
 20
345.7957656498001
 30
0
 11
1013.759210907191
 21
344.5957656498001
 31
0
  0
LINE
  8
1
 62
2
 10
1014.452210907191
 20
346.9957656498001
 30
0
 11
1014.221210907191
 21
345.7957656498001
 31
0
  0
LINE
  8
1
 62
2
 10
1014.452210907191
 20
348.1957656498001
 30
0
 11
1014.452210907191
 21
346.9957656498001
 31
0
  0
LINE
  8
1
 62
2
 10
1014.221210907191
 20
349.3957656498001
 30
0
 11
1014.452210907191
 21
348.1957656498001
 31
0
  0
LINE
  8
1
 62
2
 10
1013.759210907191
 20
350.5957656498001
 30
0
 11
1014.221210907191
 21
349.3957656498001
 31
0
  0
LINE
  8
1
 62
2
 10
1009.546857966015
 20
344.5957656498001
 30
0
 11
1012.536269730721
 21
344.5957656498001
 31
0
  0
LINE
  8
1
 62
2
 10
1011.041563848368
 20
347.3957656498001
 30
0
 11
1011.041563848368
 21
344.5957656498001
 31
0
  0
LINE
  8
1
 62
2
 10
1009.682740318956
 20
346.3957656498001
 30
0
 11
1012.40038737778
 21
346.3957656498001
 31
0
  0
LINE
  8
1
 62
2
 10
1011.585093260132
 20
347.9957656498001
 30
0
 11
1012.536269730721
 21
347.5957656498001
 31
0
  0
LINE
  8
1
 62
2
 10
1010.633916789544
 20
348.7957656498001
 30
0
 11
1011.585093260132
 21
347.9957656498001
 31
0
  0
LINE
  8
1
 62
2
 10
1009.954505024838
 20
349.9957656498001
 30
0
 11
1010.633916789544
 21
348.7957656498001
 31
0
  0
LINE
  8
1
 62
2
 10
1010.769799142485
 20
348.1957656498001
 30
0
 11
1009.546857966015
 21
347.5957656498001
 31
0
  0
LINE
  8
1
 62
2
 10
1011.720975613074
 20
349.1957656498001
 30
0
 11
1010.769799142485
 21
348.1957656498001
 31
0
  0
LINE
  8
1
 62
2
 10
1012.264505024838
 20
350.3957656498001
 30
0
 11
1011.720975613074
 21
349.1957656498001
 31
0
  0
LINE
  8
1
 62
2
 10
1009.818622671897
 20
350.3957656498001
 30
0
 11
1012.264505024838
 21
350.3957656498001
 31
0
  0
LINE
  8
1
 62
2
 10
1009.00332855425
 20
347.5957656498001
 30
0
 11
1009.00332855425
 21
344.5957656498001
 31
0
  0
LINE
  8
1
 62
2
 10
1009.275093260132
 20
348.7957656498001
 30
0
 11
1008.731563848368
 21
346.3957656498001
 31
0
  0
LINE
  8
1
 62
2
 10
1009.275093260132
 20
350.3957656498001
 30
0
 11
1008.731563848368
 21
348.7957656498001
 31
0
  0
LINE
  8
1
 62
2
 10
1006.285681495427
 20
346.1957656498001
 30
0
 11
1007.100975613074
 21
344.5957656498001
 31
0
  0
LINE
  8
1
 62
2
 10
1005.878034436603
 20
348.3957656498001
 30
0
 11
1006.285681495427
 21
346.1957656498001
 31
0
  0
LINE
  8
1
 62
2
 10
1004.111563848368
 20
348.3957656498001
 30
0
 11
1005.878034436603
 21
348.3957656498001
 31
0
  0
LINE
  8
1
 62
2
 10
1004.111563848368
 20
347.5957656498001
 30
0
 11
1003.024505024838
 21
344.5957656498001
 31
0
  0
LINE
  8
1
 62
2
 10
1007.100975613074
 20
349.7957656498001
 30
0
 11
1006.829210907191
 21
348.3957656498001
 31
0
  0
LINE
  8
1
 62
2
 10
1003.024505024838
 20
349.7957656498001
 30
0
 11
1007.100975613074
 21
349.7957656498001
 31
0
  0
LINE
  8
1
 62
2
 10
1003.024505024838
 20
348.3957656498001
 30
0
 11
1003.024505024838
 21
349.7957656498001
 31
0
  0
LINE
  8
1
 62
2
 10
1005.062740318956
 20
350.5957656498001
 30
0
 11
1005.062740318956
 21
349.7957656498001
 31
0
  0
LINE
  8
1
 62
2
 10
1001.040622671897
 20
345.7957656498001
 30
0
 11
1001.502622671897
 21
344.5957656498001
 31
0
  0
LINE
  8
1
 62
2
 10
1000.809622671897
 20
346.9957656498001
 30
0
 11
1001.040622671897
 21
345.7957656498001
 31
0
  0
LINE
  8
1
 62
2
 10
1000.809622671897
 20
348.1957656498001
 30
0
 11
1000.809622671897
 21
346.9957656498001
 31
0
  0
LINE
  8
1
 62
2
 10
1001.040622671897
 20
349.3957656498001
 30
0
 11
1000.809622671897
 21
348.1957656498001
 31
0
  0
LINE
  8
1
 62
2
 10
1001.502622671897
 20
350.5957656498001
 30
0
 11
1001.040622671897
 21
349.3957656498001
 31
0
  0
LINE
  8
1
 62
2
 10
999.4236226718971
 20
344.5957656498001
 30
0
 11
999.4236226718971
 21
350.5957656498001
 31
0
  0
LINE
  8
1
 62
2
 10
997.691122671897
 20
344.5957656498001
 30
0
 11
999.4236226718971
 21
344.5957656498001
 31
0
  0
LINE
  8
1
 62
2
 10
997.229122671897
 20
344.7457656498001
 30
0
 11
997.691122671897
 21
344.5957656498001
 31
0
  0
LINE
  8
1
 62
2
 10
996.998122671897
 20
344.8957656498001
 30
0
 11
997.229122671897
 21
344.7457656498001
 31
0
  0
LINE
  8
1
 62
2
 10
996.767122671897
 20
345.1957656498001
 30
0
 11
996.998122671897
 21
344.8957656498001
 31
0
  0
LINE
  8
1
 62
2
 10
996.651622671897
 20
345.7957656498001
 30
0
 11
996.767122671897
 21
345.1957656498001
 31
0
  0
LINE
  8
1
 62
2
 10
996.651622671897
 20
347.5957656498001
 30
0
 11
996.651622671897
 21
345.7957656498001
 31
0
  0
LINE
  8
1
 62
2
 10
996.767122671897
 20
348.1957656498001
 30
0
 11
996.651622671897
 21
347.5957656498001
 31
0
  0
LINE
  8
1
 62
2
 10
996.998122671897
 20
348.4957656498001
 30
0
 11
996.767122671897
 21
348.1957656498001
 31
0
  0
LINE
  8
1
 62
2
 10
997.229122671897
 20
348.6457656498001
 30
0
 11
996.998122671897
 21
348.4957656498001
 31
0
  0
LINE
  8
1
 62
2
 10
997.691122671897
 20
348.7957656498001
 30
0
 11
997.229122671897
 21
348.6457656498001
 31
0
  0
LINE
  8
1
 62
2
 10
999.4236226718971
 20
348.7957656498001
 30
0
 11
997.691122671897
 21
348.7957656498001
 31
0
  0
LINE
  8
1
 62
2
 10
994.0698579660148
 20
349.7957656498001
 30
0
 11
992.711034436603
 21
342.9957656498001
 31
0
  0
LINE
  8
1
 62
2
 10
994.3416226718971
 20
348.1957656498001
 30
0
 11
993.7980932601324
 21
348.3957656498001
 31
0
  0
LINE
  8
1
 62
2
 10
994.6133873777794
 20
347.7957656498001
 30
0
 11
994.3416226718971
 21
348.1957656498001
 31
0
  0
LINE
  8
1
 62
2
 10
994.7492697307206
 20
347.1957656498001
 30
0
 11
994.6133873777794
 21
347.7957656498001
 31
0
  0
LINE
  8
1
 62
2
 10
994.7492697307206
 20
346.1957656498001
 30
0
 11
994.7492697307206
 21
347.1957656498001
 31
0
  0
LINE
  8
1
 62
2
 10
994.4775050248383
 20
345.3957656498001
 30
0
 11
994.7492697307206
 21
346.1957656498001
 31
0
  0
LINE
  8
1
 62
2
 10
994.2057403189559
 20
344.9957656498001
 30
0
 11
994.4775050248383
 21
345.3957656498001
 31
0
  0
LINE
  8
1
 62
2
 10
993.6622109071913
 20
344.5957656498001
 30
0
 11
994.2057403189559
 21
344.9957656498001
 31
0
  0
LINE
  8
1
 62
2
 10
993.1186814954265
 20
344.3957656498001
 30
0
 11
993.6622109071913
 21
344.5957656498001
 31
0
  0
LINE
  8
1
 62
2
 10
992.711034436603
 20
344.5957656498001
 30
0
 11
993.1186814954265
 21
344.3957656498001
 31
0
  0
LINE
  8
1
 62
2
 10
992.3033873777795
 20
344.9957656498001
 30
0
 11
992.711034436603
 21
344.5957656498001
 31
0
  0
LINE
  8
1
 62
2
 10
992.1675050248383
 20
345.5957656498001
 30
0
 11
992.3033873777795
 21
344.9957656498001
 31
0
  0
LINE
  8
1
 62
2
 10
992.1675050248383
 20
346.3957656498001
 30
0
 11
992.1675050248383
 21
345.5957656498001
 31
0
  0
LINE
  8
1
 62
2
 10
992.3033873777795
 20
346.9957656498001
 30
0
 11
992.1675050248383
 21
346.3957656498001
 31
0
  0
LINE
  8
1
 62
2
 10
992.711034436603
 20
347.5957656498001
 30
0
 11
992.3033873777795
 21
346.9957656498001
 31
0
  0
LINE
  8
1
 62
2
 10
993.1186814954265
 20
347.9957656498001
 30
0
 11
992.711034436603
 21
347.5957656498001
 31
0
  0
LINE
  8
1
 62
2
 10
993.7980932601324
 20
348.3957656498001
 30
0
 11
993.1186814954265
 21
347.9957656498001
 31
0
  0
LINE
  8
1
 62
2
 10
975.2972905340971
 20
345.7957656498001
 30
0
 11
974.8352905340971
 21
344.5957656498001
 31
0
  0
LINE
  8
1
 62
2
 10
975.5282905340971
 20
346.9957656498001
 30
0
 11
975.2972905340971
 21
345.7957656498001
 31
0
  0
LINE
  8
1
 62
2
 10
975.5282905340971
 20
348.1957656498001
 30
0
 11
975.5282905340971
 21
346.9957656498001
 31
0
  0
LINE
  8
1
 62
2
 10
975.2972905340971
 20
349.3957656498001
 30
0
 11
975.5282905340971
 21
348.1957656498001
 31
0
  0
LINE
  8
1
 62
2
 10
974.8352905340971
 20
350.5957656498001
 30
0
 11
975.2972905340971
 21
349.3957656498001
 31
0
  0
LINE
  8
1
 62
2
 10
972.9329375929206
 20
345.9957656498001
 30
0
 11
973.6123493576265
 21
344.7957656498001
 31
0
  0
LINE
  8
1
 62
2
 10
972.3894081811559
 20
347.3957656498001
 30
0
 11
972.9329375929206
 21
345.9957656498001
 31
0
  0
LINE
  8
1
 62
2
 10
972.1176434752736
 20
348.9957656498001
 30
0
 11
972.3894081811559
 21
347.3957656498001
 31
0
  0
LINE
  8
1
 62
2
 10
972.2535258282147
 20
345.9957656498001
 30
0
 11
971.4382317105676
 21
344.5957656498001
 31
0
  0
LINE
  8
1
 62
2
 10
972.9329375929206
 20
347.5957656498001
 30
0
 11
972.2535258282147
 21
345.9957656498001
 31
0
  0
LINE
  8
1
 62
2
 10
973.2047022988029
 20
349.5957656498001
 30
0
 11
972.9329375929206
 21
347.5957656498001
 31
0
  0
LINE
  8
1
 62
2
 10
972.2535258282147
 20
349.5957656498001
 30
0
 11
973.6123493576265
 21
349.5957656498001
 31
0
  0
LINE
  8
1
 62
2
 10
972.1176434752736
 20
348.9957656498001
 30
0
 11
971.7099964164499
 21
347.7957656498001
 31
0
  0
LINE
  8
1
 62
2
 10
972.2535258282147
 20
349.5957656498001
 30
0
 11
972.1176434752736
 21
348.9957656498001
 31
0
  0
LINE
  8
1
 62
2
 10
972.2535258282147
 20
350.5957656498001
 30
0
 11
972.2535258282147
 21
349.5957656498001
 31
0
  0
LINE
  8
1
 62
2
 10
969.5358787693912
 20
346.9957656498001
 30
0
 11
971.8458787693912
 21
346.9957656498001
 31
0
  0
LINE
  8
1
 62
2
 10
970.7588199458618
 20
345.5957656498001
 30
0
 11
969.6717611223323
 21
344.5957656498001
 31
0
  0
LINE
  8
1
 62
2
 10
971.4382317105676
 20
346.9957656498001
 30
0
 11
970.7588199458618
 21
345.5957656498001
 31
0
  0
LINE
  8
1
 62
2
 10
969.8076434752735
 20
345.9957656498001
 30
0
 11
971.4382317105676
 21
345.1957656498001
 31
0
  0
LINE
  8
1
 62
2
 10
970.4870552399794
 20
347.3957656498001
 30
0
 11
969.8076434752735
 21
345.9957656498001
 31
0
  0
LINE
  8
1
 62
2
 10
970.6229375929206
 20
349.3957656498001
 30
0
 11
971.5741140635088
 21
347.9957656498001
 31
0
  0
LINE
  8
1
 62
2
 10
970.6229375929206
 20
349.3957656498001
 30
0
 11
969.5358787693912
 21
347.5957656498001
 31
0
  0
LINE
  8
1
 62
2
 10
970.6229375929206
 20
350.5957656498001
 30
0
 11
970.6229375929206
 21
347.7957656498001
 31
0
  0
LINE
  8
1
 62
2
 10
969.5358787693912
 20
349.3957656498001
 30
0
 11
971.7099964164499
 21
349.3957656498001
 31
0
  0
LINE
  8
1
 62
2
 10
971.5741140635088
 20
350.1957656498001
 30
0
 11
971.0305846517441
 21
349.5957656498001
 31
0
  0
LINE
  8
1
 62
2
 10
969.8076434752735
 20
350.1957656498001
 30
0
 11
970.2152905340971
 21
349.5957656498001
 31
0
  0
LINE
  8
1
 62
2
 10
967.55199641645
 20
345.7957656498001
 30
0
 11
968.01399641645
 21
344.5957656498001
 31
0
  0
LINE
  8
1
 62
2
 10
967.32099641645
 20
346.9957656498001
 30
0
 11
967.55199641645
 21
345.7957656498001
 31
0
  0
LINE
  8
1
 62
2
 10
967.32099641645
 20
348.1957656498001
 30
0
 11
967.32099641645
 21
346.9957656498001
 31
0
  0
LINE
  8
1
 62
2
 10
967.55199641645
 20
349.3957656498001
 30
0
 11
967.32099641645
 21
348.1957656498001
 31
0
  0
LINE
  8
1
 62
2
 10
968.01399641645
 20
350.5957656498001
 30
0
 11
967.55199641645
 21
349.3957656498001
 31
0
  0
LINE
  8
1
 62
2
 10
965.9349964164501
 20
348.0457656498001
 30
0
 11
965.9349964164501
 21
344.5957656498001
 31
0
  0
LINE
  8
1
 62
2
 10
965.8194964164501
 20
348.3457656498001
 30
0
 11
965.9349964164501
 21
348.0457656498001
 31
0
  0
LINE
  8
1
 62
2
 10
965.5884964164501
 20
348.6457656498001
 30
0
 11
965.8194964164501
 21
348.3457656498001
 31
0
  0
LINE
  8
1
 62
2
 10
965.24199641645
 20
348.7957656498001
 30
0
 11
965.5884964164501
 21
348.6457656498001
 31
0
  0
LINE
  8
1
 62
2
 10
963.16299641645
 20
348.7957656498001
 30
0
 11
965.24199641645
 21
348.7957656498001
 31
0
  0
LINE
  8
1
 62
2
 10
963.16299641645
 20
344.5957656498001
 30
0
 11
963.16299641645
 21
348.7957656498001
 31
0
  0
LINE
  8
1
 62
2
 10
998.8543189996618
 20
355.5033972798
 30
0
 11
999.6696131173089
 21
353.9033972798
 31
0
  0
LINE
  8
1
 62
2
 10
998.4466719408383
 20
357.7033972798
 30
0
 11
998.8543189996618
 21
355.5033972798
 31
0
  0
LINE
  8
1
 62
2
 10
996.680201352603
 20
357.7033972798
 30
0
 11
998.4466719408383
 21
357.7033972798
 31
0
  0
LINE
  8
1
 62
2
 10
996.680201352603
 20
356.9033972798
 30
0
 11
995.5931425290736
 21
353.9033972798
 31
0
  0
LINE
  8
1
 62
2
 10
999.6696131173089
 20
359.1033972797999
 30
0
 11
999.3978484114266
 21
357.7033972798
 31
0
  0
LINE
  8
1
 62
2
 10
995.5931425290736
 20
359.1033972797999
 30
0
 11
999.6696131173089
 21
359.1033972797999
 31
0
  0
LINE
  8
1
 62
2
 10
995.5931425290736
 20
357.7033972798
 30
0
 11
995.5931425290736
 21
359.1033972797999
 31
0
  0
LINE
  8
1
 62
2
 10
997.6313778231912
 20
359.9033972798
 30
0
 11
997.6313778231912
 21
359.1033972797999
 31
0
  0
LINE
  8
1
 62
2
 10
991.6525542937795
 20
357.5033972798
 30
0
 11
993.554907234956
 21
356.3033972797999
 31
0
  0
LINE
  8
1
 62
2
 10
991.6525542937795
 20
359.5033972798
 30
0
 11
991.6525542937795
 21
354.5033972798
 31
0
  0
LINE
  8
1
 62
2
 10
988.3913778231912
 20
356.1033972797999
 30
0
 11
988.6631425290736
 21
356.9033972798
 31
0
  0
LINE
  8
1
 62
2
 10
987.9837307643677
 20
355.3033972797999
 30
0
 11
988.3913778231912
 21
356.1033972797999
 31
0
  0
LINE
  8
1
 62
2
 10
987.1684366467207
 20
354.9033972798
 30
0
 11
987.9837307643677
 21
355.3033972797999
 31
0
  0
LINE
  8
1
 62
2
 10
987.1684366467207
 20
358.9033972798
 30
0
 11
987.1684366467207
 21
354.9033972798
 31
0
  0
LINE
  8
1
 62
2
 10
985.6737307643678
 20
355.7033972798
 30
0
 11
984.9943189996618
 21
354.7033972798
 31
0
  0
LINE
  8
1
 62
2
 10
985.9454954702501
 20
356.7033972798
 30
0
 11
985.6737307643678
 21
355.7033972798
 31
0
  0
LINE
  8
1
 62
2
 10
985.9454954702501
 20
358.7033972798
 30
0
 11
985.9454954702501
 21
356.7033972798
 31
0
  0
LINE
  8
1
 62
2
 10
983.0919660584855
 20
359.9033972798
 30
0
 11
983.3637307643678
 21
359.1033972797999
 31
0
  0
LINE
  8
1
 62
2
 10
982.5484366467207
 20
359.9033972798
 30
0
 11
982.820201352603
 21
359.1033972797999
 31
0
  0
LINE
  8
1
 62
2
 10
982.4125542937795
 20
356.7033972798
 30
0
 11
983.0919660584855
 21
354.9033972798
 31
0
  0
LINE
  8
1
 62
2
 10
980.3743189996619
 20
356.7033972798
 30
0
 11
979.694907234956
 21
354.9033972798
 31
0
  0
LINE
  8
1
 62
2
 10
981.4613778231912
 20
359.5033972798
 30
0
 11
981.4613778231912
 21
354.3033972797999
 31
0
  0
LINE
  8
1
 62
2
 10
979.8307895878971
 20
358.1033972797999
 30
0
 11
983.0919660584855
 21
358.1033972797999
 31
0
  0
LINE
  8
1
 62
2
 10
939.7163307290501
 20
349.5957658398
 30
0
 11
937.9838307290502
 21
349.5957658398
 31
0
  0
LINE
  8
1
 62
2
 10
940.0628307290501
 20
349.7457658398
 30
0
 11
939.7163307290501
 21
349.5957658398
 31
0
  0
LINE
  8
1
 62
2
 10
940.4093307290502
 20
350.0457658398
 30
0
 11
940.0628307290501
 21
349.7457658398
 31
0
  0
LINE
  8
1
 62
2
 10
940.6403307290502
 20
350.4957658398
 30
0
 11
940.4093307290502
 21
350.0457658398
 31
0
  0
LINE
  8
1
 62
2
 10
940.7558307290502
 20
351.0957658398
 30
0
 11
940.6403307290502
 21
350.4957658398
 31
0
  0
LINE
  8
1
 62
2
 10
940.7558307290502
 20
351.8457658398
 30
0
 11
940.7558307290502
 21
351.0957658398
 31
0
  0
LINE
  8
1
 62
2
 10
940.6403307290502
 20
352.4457658398
 30
0
 11
940.7558307290502
 21
351.8457658398
 31
0
  0
LINE
  8
1
 62
2
 10
940.5248307290502
 20
352.7457658398
 30
0
 11
940.6403307290502
 21
352.4457658398
 31
0
  0
LINE
  8
1
 62
2
 10
940.2938307290501
 20
353.0457658398
 30
0
 11
940.5248307290502
 21
352.7457658398
 31
0
  0
LINE
  8
1
 62
2
 10
939.8318307290501
 20
353.1957658398
 30
0
 11
940.2938307290501
 21
353.0457658398
 31
0
  0
LINE
  8
1
 62
2
 10
940.1783307290501
 20
353.3457658398
 30
0
 11
939.8318307290501
 21
353.1957658398
 31
0
  0
LINE
  8
1
 62
2
 10
940.4093307290502
 20
353.4957658398
 30
0
 11
940.1783307290501
 21
353.3457658398
 31
0
  0
LINE
  8
1
 62
2
 10
940.6403307290502
 20
353.7957658398
 30
0
 11
940.4093307290502
 21
353.4957658398
 31
0
  0
LINE
  8
1
 62
2
 10
940.7558307290502
 20
354.2457658398
 30
0
 11
940.6403307290502
 21
353.7957658398
 31
0
  0
LINE
  8
1
 62
2
 10
940.7558307290502
 20
354.6957658398
 30
0
 11
940.7558307290502
 21
354.2457658398
 31
0
  0
LINE
  8
1
 62
2
 10
940.6403307290502
 20
355.1457658398
 30
0
 11
940.7558307290502
 21
354.6957658398
 31
0
  0
LINE
  8
1
 62
2
 10
940.2938307290501
 20
355.4457658398
 30
0
 11
940.6403307290502
 21
355.1457658398
 31
0
  0
LINE
  8
1
 62
2
 10
939.7163307290501
 20
355.5957658398
 30
0
 11
940.2938307290501
 21
355.4457658398
 31
0
  0
LINE
  8
1
 62
2
 10
937.9838307290502
 20
355.5957658398
 30
0
 11
939.7163307290501
 21
355.5957658398
 31
0
  0
LINE
  8
1
 62
2
 10
938.6768307290502
 20
353.1957658398
 30
0
 11
939.8318307290501
 21
353.1957658398
 31
0
  0
LINE
  8
1
 62
2
 10
936.4823307290502
 20
354.3957658398
 30
0
 11
936.5978307290502
 21
353.7957658398
 31
0
  0
LINE
  8
1
 62
2
 10
936.2513307290502
 20
354.8457658398
 30
0
 11
936.4823307290502
 21
354.3957658398
 31
0
  0
LINE
  8
1
 62
2
 10
936.0203307290502
 20
355.1457658398
 30
0
 11
936.2513307290502
 21
354.8457658398
 31
0
  0
LINE
  8
1
 62
2
 10
935.6738307290501
 20
355.4457658398
 30
0
 11
936.0203307290502
 21
355.1457658398
 31
0
  0
LINE
  8
1
 62
2
 10
935.2118307290501
 20
355.5957658398
 30
0
 11
935.6738307290501
 21
355.4457658398
 31
0
  0
LINE
  8
1
 62
2
 10
933.3638307290502
 20
355.5957658398
 30
0
 11
935.2118307290501
 21
355.5957658398
 31
0
  0
LINE
  8
1
 62
2
 10
933.3638307290502
 20
349.5957658398
 30
0
 11
933.3638307290502
 21
355.5957658398
 31
0
  0
LINE
  8
1
 62
2
 10
935.2118307290501
 20
349.5957658398
 30
0
 11
933.3638307290502
 21
349.5957658398
 31
0
  0
LINE
  8
1
 62
2
 10
935.6738307290501
 20
349.7457658398
 30
0
 11
935.2118307290501
 21
349.5957658398
 31
0
  0
LINE
  8
1
 62
2
 10
936.0203307290502
 20
350.0457658398
 30
0
 11
935.6738307290501
 21
349.7457658398
 31
0
  0
LINE
  8
1
 62
2
 10
936.2513307290502
 20
350.3457658398
 30
0
 11
936.0203307290502
 21
350.0457658398
 31
0
  0
LINE
  8
1
 62
2
 10
936.4823307290502
 20
350.7957658398
 30
0
 11
936.2513307290502
 21
350.3457658398
 31
0
  0
LINE
  8
1
 62
2
 10
936.5978307290502
 20
351.3957658398
 30
0
 11
936.4823307290502
 21
350.7957658398
 31
0
  0
LINE
  8
1
 62
2
 10
936.5978307290502
 20
353.7957658398
 30
0
 11
936.5978307290502
 21
351.3957658398
 31
0
  0
LINE
  8
1
 62
2
 10
902.9471653240501
 20
349.5957658398
 30
0
 11
905.7191653240501
 21
349.5957658398
 31
0
  0
LINE
  8
1
 62
2
 10
905.4881653240501
 20
353.4957658398
 30
0
 11
902.9471653240501
 21
349.5957658398
 31
0
  0
LINE
  8
1
 62
2
 10
905.7191653240501
 20
354.0957658398
 30
0
 11
905.4881653240501
 21
353.4957658398
 31
0
  0
LINE
  8
1
 62
2
 10
905.7191653240501
 20
354.6957658398
 30
0
 11
905.7191653240501
 21
354.0957658398
 31
0
  0
LINE
  8
1
 62
2
 10
905.4881653240501
 20
355.1457658398
 30
0
 11
905.7191653240501
 21
354.6957658398
 31
0
  0
LINE
  8
1
 62
2
 10
905.14166532405
 20
355.4457658398
 30
0
 11
905.4881653240501
 21
355.1457658398
 31
0
  0
LINE
  8
1
 62
2
 10
904.67966532405
 20
355.5957658398
 30
0
 11
905.14166532405
 21
355.4457658398
 31
0
  0
LINE
  8
1
 62
2
 10
903.98666532405
 20
355.5957658398
 30
0
 11
904.67966532405
 21
355.5957658398
 31
0
  0
LINE
  8
1
 62
2
 10
903.52466532405
 20
355.4457658398
 30
0
 11
903.98666532405
 21
355.5957658398
 31
0
  0
LINE
  8
1
 62
2
 10
903.17816532405
 20
355.1457658398
 30
0
 11
903.52466532405
 21
355.4457658398
 31
0
  0
LINE
  8
1
 62
2
 10
902.9471653240501
 20
354.6957658398
 30
0
 11
903.17816532405
 21
355.1457658398
 31
0
  0
LINE
  8
1
 62
2
 10
901.4456653240501
 20
354.3957658398
 30
0
 11
901.5611653240501
 21
353.7957658398
 31
0
  0
LINE
  8
1
 62
2
 10
901.2146653240501
 20
354.8457658398
 30
0
 11
901.4456653240501
 21
354.3957658398
 31
0
  0
LINE
  8
1
 62
2
 10
900.9836653240501
 20
355.1457658398
 30
0
 11
901.2146653240501
 21
354.8457658398
 31
0
  0
LINE
  8
1
 62
2
 10
900.63716532405
 20
355.4457658398
 30
0
 11
900.9836653240501
 21
355.1457658398
 31
0
  0
LINE
  8
1
 62
2
 10
900.17516532405
 20
355.5957658398
 30
0
 11
900.63716532405
 21
355.4457658398
 31
0
  0
LINE
  8
1
 62
2
 10
898.32716532405
 20
355.5957658398
 30
0
 11
900.17516532405
 21
355.5957658398
 31
0
  0
LINE
  8
1
 62
2
 10
898.32716532405
 20
349.5957658398
 30
0
 11
898.32716532405
 21
355.5957658398
 31
0
  0
LINE
  8
1
 62
2
 10
900.17516532405
 20
349.5957658398
 30
0
 11
898.32716532405
 21
349.5957658398
 31
0
  0
LINE
  8
1
 62
2
 10
900.63716532405
 20
349.7457658398
 30
0
 11
900.17516532405
 21
349.5957658398
 31
0
  0
LINE
  8
1
 62
2
 10
900.9836653240501
 20
350.0457658398
 30
0
 11
900.63716532405
 21
349.7457658398
 31
0
  0
LINE
  8
1
 62
2
 10
901.2146653240501
 20
350.3457658398
 30
0
 11
900.9836653240501
 21
350.0457658398
 31
0
  0
LINE
  8
1
 62
2
 10
901.4456653240501
 20
350.7957658398
 30
0
 11
901.2146653240501
 21
350.3457658398
 31
0
  0
LINE
  8
1
 62
2
 10
901.5611653240501
 20
351.3957658398
 30
0
 11
901.4456653240501
 21
350.7957658398
 31
0
  0
LINE
  8
1
 62
2
 10
901.5611653240501
 20
353.7957658398
 30
0
 11
901.5611653240501
 21
351.3957658398
 31
0
  0
LINE
  8
1
 62
2
 10
869.2964999190501
 20
355.5957658398
 30
0
 11
869.2964999190501
 21
349.5957658398
 31
0
  0
LINE
  8
1
 62
2
 10
867.9104999190502
 20
353.7957658398
 30
0
 11
869.2964999190501
 21
355.5957658398
 31
0
  0
LINE
  8
1
 62
2
 10
866.4089999190502
 20
354.3957658398
 30
0
 11
866.5244999190502
 21
353.7957658398
 31
0
  0
LINE
  8
1
 62
2
 10
866.1779999190502
 20
354.8457658398
 30
0
 11
866.4089999190502
 21
354.3957658398
 31
0
  0
LINE
  8
1
 62
2
 10
865.9469999190502
 20
355.1457658398
 30
0
 11
866.1779999190502
 21
354.8457658398
 31
0
  0
LINE
  8
1
 62
2
 10
865.6004999190501
 20
355.4457658398
 30
0
 11
865.9469999190502
 21
355.1457658398
 31
0
  0
LINE
  8
1
 62
2
 10
865.1384999190501
 20
355.5957658398
 30
0
 11
865.6004999190501
 21
355.4457658398
 31
0
  0
LINE
  8
1
 62
2
 10
863.2904999190502
 20
355.5957658398
 30
0
 11
865.1384999190501
 21
355.5957658398
 31
0
  0
LINE
  8
1
 62
2
 10
863.2904999190502
 20
349.5957658398
 30
0
 11
863.2904999190502
 21
355.5957658398
 31
0
  0
LINE
  8
1
 62
2
 10
865.1384999190501
 20
349.5957658398
 30
0
 11
863.2904999190502
 21
349.5957658398
 31
0
  0
LINE
  8
1
 62
2
 10
865.6004999190501
 20
349.7457658398
 30
0
 11
865.1384999190501
 21
349.5957658398
 31
0
  0
LINE
  8
1
 62
2
 10
865.9469999190502
 20
350.0457658398
 30
0
 11
865.6004999190501
 21
349.7457658398
 31
0
  0
LINE
  8
1
 62
2
 10
866.1779999190502
 20
350.3457658398
 30
0
 11
865.9469999190502
 21
350.0457658398
 31
0
  0
LINE
  8
1
 62
2
 10
866.4089999190502
 20
350.7957658398
 30
0
 11
866.1779999190502
 21
350.3457658398
 31
0
  0
LINE
  8
1
 62
2
 10
866.5244999190502
 20
351.3957658398
 30
0
 11
866.4089999190502
 21
350.7957658398
 31
0
  0
LINE
  8
1
 62
2
 10
866.5244999190502
 20
353.7957658398
 30
0
 11
866.5244999190502
 21
351.3957658398
 31
0
  0
LINE
  8
1
 62
7
 10
669.7129197678
 20
427.9703628036
 30
0
 11
685.7161112388502
 21
427.9966372761167
 31
0
  0
LINE
  8
1
 62
7
 10
669.7129197678
 20
352.0288225028
 30
0
 11
685.7350655159155
 21
352.0025703820205
 31
0
  0
LINE
  8
0
 62
7
 10
556.3828200361
 20
201.5955383255
 30
0
 11
639.0953138729
 21
201.5955383255
 31
0
  0
LINE
  8
1
 62
7
 10
578.6481108775274
 20
217.8286621644001
 30
0
 11
582.7390672898
 21
201.5955383255
 31
0
  0
LINE
  8
0
 62
7
 10
628.2719769774
 20
117.0377778187
 30
0
 11
628.2719769774
 21
107.2764257266
 31
0
  0
LINE
  8
0
 62
7
 10
618.5590750796
 20
119.2180933728
 30
0
 11
618.5590750796046
 21
117.7354799880321
 31
0
  0
LINE
  8
0
 62
7
 10
616.4272111168
 20
119.2180933728
 30
0
 11
618.5590750796
 21
119.2180933728
 31
0
  0
LINE
  8
0
 62
7
 10
616.4272111168
 20
107.2764257266
 30
0
 11
616.4272111168
 21
119.2180933728
 31
0
  0
LINE
  8
0
 62
7
 10
618.5590750796
 20
107.2764257266
 30
0
 11
616.4272111168
 21
107.2764257266
 31
0
  0
LINE
  8
0
 62
7
 10
618.5590750796
 20
115.2063133492
 30
0
 11
618.5590750796
 21
107.2764257266
 31
0
  0
LINE
  8
0
 62
7
 10
621.2335950953
 20
107.2764257266
 30
0
 11
621.2335950953
 21
116.3400775119
 31
0
  0
LINE
  8
0
 62
7
 10
623.3654595239
 20
107.2764257266
 30
0
 11
621.2335950953
 21
107.2764257266
 31
0
  0
LINE
  8
0
 62
7
 10
623.3654595239
 20
115.2063133492
 30
0
 11
623.3654595239
 21
107.2764257266
 31
0
  0
LINE
  8
0
 62
7
 10
626.1401125488
 20
107.2764257266
 30
0
 11
626.1401125488
 21
116.2528647407
 31
0
  0
LINE
  8
0
 62
7
 10
628.2719769774
 20
107.2764257266
 30
0
 11
626.1401125488
 21
107.2764257266
 31
0
  0
LINE
  8
1
 62
7
 10
661.0346250495001
 20
442.3254932972
 30
0
 11
655.5497981867001
 21
451.8254939231
 31
0
  0
LINE
  8
1
 62
7
 10
655.5497981867001
 20
432.8254926714
 30
0
 11
661.0346250495001
 21
442.3254932972
 31
0
  0
LINE
  8
1
 62
7
 10
644.580144461
 20
432.8254926714
 30
0
 11
655.5497981867001
 21
432.8254926714
 31
0
  0
LINE
  8
1
 62
7
 10
639.0953138729
 20
442.3254932972
 30
0
 11
644.580144461
 21
432.8254926714
 31
0
  0
LINE
  8
1
 62
7
 10
644.580144461
 20
451.8254939231
 30
0
 11
639.0953138729
 21
442.3254932972
 31
0
  0
LINE
  8
1
 62
7
 10
655.5497981867001
 20
451.8254939231
 30
0
 11
644.580144461
 21
451.8254939231
 31
0
  0
LINE
  8
1
 62
7
 10
655.5497981867001
 20
328.1736913833
 30
0
 11
661.0346250495001
 21
337.6736920091
 31
0
  0
LINE
  8
1
 62
7
 10
644.580144461
 20
328.1736913833
 30
0
 11
655.5497981867001
 21
328.1736913833
 31
0
  0
LINE
  8
1
 62
7
 10
639.0953138729
 20
337.6736920091
 30
0
 11
644.580144461
 21
328.1736913833
 31
0
  0
LINE
  8
1
 62
7
 10
644.580144461
 20
347.173692635
 30
0
 11
639.0953138729
 21
337.6736920091
 31
0
  0
LINE
  8
1
 62
7
 10
655.5497981867001
 20
347.173692635
 30
0
 11
644.580144461
 21
347.173692635
 31
0
  0
LINE
  8
1
 62
7
 10
661.0346250495001
 20
337.6736920091
 30
0
 11
655.5497981867001
 21
347.173692635
 31
0
  0
LINE
  8
1
 62
7
 10
556.3828200361
 20
442.3254932972
 30
0
 11
550.8979931733001
 21
451.8254939231
 31
0
  0
LINE
  8
1
 62
7
 10
550.8979931733001
 20
451.8254939231
 30
0
 11
539.9283394476
 21
451.8254939231
 31
0
  0
LINE
  8
1
 62
7
 10
539.9283394476
 20
451.8254939231
 30
0
 11
534.4435088595
 21
442.3254932972
 31
0
  0
LINE
  8
1
 62
7
 10
534.4435088595
 20
442.3254932972
 30
0
 11
539.9283394476
 21
432.8254926714
 31
0
  0
LINE
  8
1
 62
7
 10
539.9283394476
 20
432.8254926714
 30
0
 11
550.8979931733001
 21
432.8254926714
 31
0
  0
LINE
  8
1
 62
7
 10
550.8979931733001
 20
432.8254926714
 30
0
 11
556.3828200361
 21
442.3254932972
 31
0
  0
LINE
  8
1
 62
7
 10
539.9283394476
 20
347.173692635
 30
0
 11
534.4435088595
 21
337.6736920091
 31
0
  0
LINE
  8
1
 62
7
 10
550.8979931733001
 20
347.173692635
 30
0
 11
539.9283394476
 21
347.173692635
 31
0
  0
LINE
  8
1
 62
7
 10
556.3828200361
 20
337.6736920091
 30
0
 11
550.8979931733001
 21
347.173692635
 31
0
  0
LINE
  8
1
 62
7
 10
550.8979931733001
 20
328.1736913833
 30
0
 11
556.3828200361
 21
337.6736920091
 31
0
  0
LINE
  8
1
 62
7
 10
539.9283394476
 20
328.1736913833
 30
0
 11
550.8979931733001
 21
328.1736913833
 31
0
  0
LINE
  8
1
 62
7
 10
534.4435088595
 20
337.6736920091
 30
0
 11
539.9283394476
 21
328.1736913833
 31
0
  0
LINE
  8
1
 62
7
 10
505.2515305838
 20
357.3409933361
 30
0
 11
530.4441739427858
 21
346.8729794828694
 31
0
  0
LINE
  8
1
 62
7
 10
505.0927289089
 20
422.593088797
 30
0
 11
530.4441749307629
 21
433.1262102974934
 31
0
  0
LINE
  8
0
 62
7
 10
537.2390672823
 20
404.1995927456
 30
0
 11
543.0091848059
 21
404.1995926532
 31
0
  0
LINE
  8
0
 62
7
 10
525.7446952423001
 20
388.4995926401
 30
0
 11
507.4104257187
 21
388.4995926401
 31
0
  0
LINE
  8
1
 62
7
 10
525.3720405667293
 20
388.4995926401
 30
0
 11
525.862906397095
 21
382.9625164968186
 31
0
  0
LINE
  8
1
 62
7
 10
617.7390665075
 20
137.095541723
 30
0
 11
605.7390673345
 21
141.0955386533
 31
0
  0
LINE
  8
1
 62
7
 10
605.7390673345
 20
133.0955410673
 30
0
 11
617.7390665075
 21
137.095541723
 31
0
  0
LINE
  8
1
 62
2
  6
DASHDOT
 10
866.9435636437279
 20
33.39460119766713
 30
0
 11
884.0119953446862
 21
50.26672730170937
 31
0
  0
LINE
  8
1
 62
2
  6
DASHDOT
 10
985.7114008958104
 20
33.39460119753045
 30
0
 11
968.6429691948521
 21
50.26672730157269
 31
0
  0
LINE
  8
1
 62
2
  6
DASHDOT
 10
985.7114008962383
 20
150.7964786716367
 30
0
 11
968.64296919528
 21
133.9243525675944
 31
0
  0
LINE
  8
1
 62
2
  6
DASHDOT
 10
866.9435636433
 20
150.7964786715
 30
0
 11
884.0119953442583
 21
133.9243525674578
 31
0
  0
LINE
  8
1
 62
2
  6
DASHDOT
 10
926.3274822697
 20
-0.9876316213
 30
0
 11
926.3274822697
 21
232.5309093565
 31
0
  0
LINE
  8
1
 62
2
  6
DASHDOT
 10
818.6726816846
 20
92.0955399348
 30
0
 11
1035.0244679705
 21
92.0955399348
 31
0
  0
LINE
  8
1
 62
2
  6
DASHDOT
 10
597.7390669545
 20
232.5309093565
 30
0
 11
597.7390669545
 21
-0.9876316213
 31
0
  0
LINE
  8
1
 62
2
  6
DASHDOT
 10
460.3400578969
 20
92.0955399348
 30
0
 11
725.7390669545
 21
92.0955399348
 31
0
  0
LINE
  8
1
 62
2
  6
DASHDOT
 10
597.7390669545
 20
475.6956194433
 30
0
 11
597.7390669545
 21
304.1292633377
 31
0
  0
LINE
  8
1
 62
2
  6
DASHDOT
 10
460.3400578969
 20
389.9995926532
 30
0
 11
725.7390669545
 21
389.9995926532
 31
0
  0
LINE
  8
0
 62
2
 10
988.2008365025838
 20
145.8407235991325
 30
0
 11
986.1776247422
 21
145.4004954321
 31
0
  0
LINE
  8
0
 62
2
 10
986.1776247422
 20
145.4004954321
 30
0
 11
987.7096639405596
 21
146.7933495382769
 31
0
  0
LINE
  8
0
 62
2
 10
986.1776247422
 20
145.4004954321
 30
0
 11
987.9552502215717
 21
146.3170365687047
 31
0
  0
LINE
  8
0
 62
7
 10
604.3680480597
 20
60.3539037437
 30
0
 11
605.465557058801
 21
58.68193663968983
 31
0
  0
LINE
  8
0
 62
2
 10
604.3680480597
 20
60.3539037437
 30
0
 11
605.9135589723535
 21
58.97601307848997
 31
0
  0
LINE
  8
0
 62
2
 10
605.0175551452486
 20
58.3878602008897
 30
0
 11
604.3680480597
 21
60.3539037437
 31
0
  0
LINE
  8
0
 62
7
 10
591.7787595054608
 20
61.92642418034679
 30
0
 11
591.5805867143216
 21
61.46737348069359
 31
0
  0
LINE
  8
0
 62
2
 10
974.6237735841
 20
79.1545876797
 30
0
 11
1043.0077422624
 21
60.8311584971
 31
0
  0
LINE
  8
0
 62
2
 10
974.6237735841
 20
79.1545876797
 30
0
 11
878.0311909552
 21
105.03649219
 31
0
  0
LINE
  8
0
 62
2
 10
997.144812768
 20
101.9522990924
 30
0
 11
1050.4812556553
 21
109.3759688093
 31
0
  0
LINE
  8
0
 62
2
 10
997.144812768
 20
101.9522990924
 30
0
 11
855.5101517713
 21
82.23878077729999
 31
0
  0
LINE
  8
0
 62
2
 10
1014.610676928
 20
121.3372488609
 30
0
 11
1049.6689519208
 21
132.9494687942
 31
0
  0
LINE
  8
0
 62
2
 10
1014.610676928
 20
121.3372488609
 30
0
 11
838.0442876113
 21
62.8538310088
 31
0
  0
LINE
  8
0
 62
7
 10
926.3274822697
 20
117.0955533459
 30
0
 11
926.3274822697
 21
117.0955403074
 31
0
  0
LINE
  8
0
 62
7
 10
856.2271301016
 20
191.5955404117
 30
0
 11
862.289086388
 21
191.5955404117
 31
0
  0
LINE
  8
0
 62
7
 10
856.2271301016
 20
188.0955407693
 30
0
 11
856.2271301016
 21
191.5955404117
 31
0
  0
LINE
  8
0
 62
7
 10
854.3274853691
 20
188.0955407693
 30
0
 11
856.2271301016
 21
188.0955407693
 31
0
  0
LINE
  8
0
 62
7
 10
996.4278344378
 20
188.0955407693
 30
0
 11
998.3274791702
 21
188.0955407693
 31
0
  0
LINE
  8
0
 62
7
 10
996.4278344378
 20
188.0955407693
 30
0
 11
996.4278344378
 21
191.5955404117
 31
0
  0
LINE
  8
0
 62
7
 10
990.3658781513
 20
191.5955404117
 30
0
 11
996.4278344378
 21
191.5955404117
 31
0
  0
LINE
  8
0
 62
7
 10
916.1756415233
 20
194.5955390408
 30
0
 11
916.1756415233
 21
201.5955383255
 31
0
  0
LINE
  8
0
 62
7
 10
936.4793230161
 20
201.5955383255
 30
0
 11
936.4793230161
 21
194.5955390408
 31
0
  0
LINE
  8
0
 62
7
 10
897.4213213041001
 20
194.5955390408
 30
0
 11
897.4213213041001
 21
191.5955404117
 31
0
  0
LINE
  8
0
 62
7
 10
955.2336432352
 20
194.5955390408
 30
0
 11
955.2336432352
 21
191.5955404117
 31
0
  0
LINE
  8
0
 62
7
 10
914.3558539763
 20
188.0955407693
 30
0
 11
914.3558539763
 21
191.5955404117
 31
0
  0
LINE
  8
0
 62
7
 10
938.2991105631
 20
188.0955407693
 30
0
 11
938.2991105631
 21
191.5955404117
 31
0
  0
LINE
  8
0
 62
7
 10
884.1464709803
 20
194.5955390408
 30
0
 11
884.1464709803
 21
191.5955404117
 31
0
  0
LINE
  8
0
 62
7
 10
861.811392413
 20
194.5955390408
 30
0
 11
918.7393755965001
 21
194.5955390408
 31
0
  0
LINE
  8
0
 62
7
 10
862.289086388
 20
180.095539458
 30
0
 11
862.289086388
 21
191.5955404117
 31
0
  0
LINE
  8
0
 62
7
 10
990.3658781513
 20
191.5955404117
 30
0
 11
990.3658781513
 21
180.095539458
 31
0
  0
LINE
  8
0
 62
7
 10
933.9155889428999
 20
194.5955390408
 30
0
 11
990.8435721263001
 21
194.5955390408
 31
0
  0
LINE
  8
0
 62
7
 10
968.508493559
 20
194.5955390408
 30
0
 11
968.508493559
 21
191.5955404117
 31
0
  0
LINE
  8
0
 62
7
 10
883.5015822515001
 20
201.5955383255
 30
0
 11
969.1533822878999
 21
201.5955383255
 31
0
  0
LINE
  8
0
 62
7
 10
918.7393755965001
 20
188.0955407693
 30
0
 11
918.7393755965001
 21
194.5955390408
 31
0
  0
LINE
  8
0
 62
7
 10
933.9155889428999
 20
194.5955390408
 30
0
 11
933.9155889428999
 21
188.0955407693
 31
0
  0
LINE
  8
0
 62
7
 10
905.3538780972
 20
188.0955407693
 30
0
 11
905.3538780972
 21
191.5955404117
 31
0
  0
LINE
  8
0
 62
7
 10
947.3010864421
 20
188.0955407693
 30
0
 11
947.3010864421
 21
191.5955404117
 31
0
  0
LINE
  8
0
 62
7
 10
956.4107008591
 20
180.095539458
 30
0
 11
998.3274791702
 21
180.095539458
 31
0
  0
LINE
  8
0
 62
7
 10
854.3274853691
 20
180.095539458
 30
0
 11
896.2442636802
 21
180.095539458
 31
0
  0
LINE
  8
0
 62
7
 10
938.2991105631
 20
191.5955404117
 30
0
 11
982.1956683263001
 21
191.5955404117
 31
0
  0
LINE
  8
0
 62
7
 10
953.8274821207
 20
188.0955407693
 30
0
 11
953.8274821207
 21
191.5955404117
 31
0
  0
LINE
  8
0
 62
7
 10
898.8274824187
 20
188.0955407693
 30
0
 11
953.8274821207
 21
188.0955407693
 31
0
  0
LINE
  8
0
 62
7
 10
898.8274824187
 20
188.0955407693
 30
0
 11
898.8274824187
 21
191.5955404117
 31
0
  0
LINE
  8
0
 62
7
 10
870.4592962131
 20
191.5955404117
 30
0
 11
914.3558539763
 21
191.5955404117
 31
0
  0
LINE
  8
0
 62
7
 10
870.4592962131
 20
191.5955404117
 30
0
 11
870.4592962131
 21
180.095539458
 31
0
  0
LINE
  8
0
 62
7
 10
982.1956683263001
 20
180.095539458
 30
0
 11
982.1956683263001
 21
191.5955404117
 31
0
  0
LINE
  8
0
 62
7
 10
969.1533822878999
 20
202.5955403521
 30
0
 11
969.1533822878999
 21
194.5955390408
 31
0
  0
LINE
  8
0
 62
7
 10
988.1533835396
 20
202.5955403521
 30
0
 11
969.1533822878999
 21
202.5955403521
 31
0
  0
LINE
  8
0
 62
7
 10
988.1533835396
 20
202.5955403521
 30
0
 11
988.1533835396
 21
194.5955390408
 31
0
  0
LINE
  8
0
 62
7
 10
978.6533829137001
 20
201.7470309808
 30
0
 11
978.6533829137001
 21
194.5955390408
 31
0
  0
LINE
  8
0
 62
7
 10
864.5015809998
 20
202.5955403521
 30
0
 11
864.5015809998
 21
194.5955390408
 31
0
  0
LINE
  8
0
 62
7
 10
883.5015822515001
 20
202.5955403521
 30
0
 11
864.5015809998
 21
202.5955403521
 31
0
  0
LINE
  8
0
 62
7
 10
883.5015822515001
 20
202.5955403521
 30
0
 11
883.5015822515001
 21
194.5955390408
 31
0
  0
LINE
  8
0
 62
7
 10
874.0015816256
 20
201.7470309808
 30
0
 11
874.0015816256
 21
194.5955390408
 31
0
  0
LINE
  8
0
 62
7
 10
864.5015809998
 20
161.5689704492
 30
0
 11
864.5015809998
 21
165.095538862
 31
0
  0
LINE
  8
0
 62
7
 10
988.1533835396
 20
161.5689704492
 30
0
 11
988.1533835396
 21
165.095538862
 31
0
  0
LINE
  8
0
 62
7
 10
793.3374796375
 20
219.095543988
 30
0
 11
793.3374796375
 21
214.0955413058
 31
0
  0
LINE
  8
0
 62
7
 10
953.32748297
 20
229.0955344512
 30
0
 11
953.32748297
 21
228.0955473258
 31
0
  0
LINE
  8
0
 62
7
 10
899.3274815693
 20
229.0955344512
 30
0
 11
899.3274815693
 21
228.0955473258
 31
0
  0
LINE
  8
0
 62
7
 10
937.7518793881
 20
229.0955344512
 30
0
 11
937.7518793881
 21
228.0955473258
 31
0
  0
LINE
  8
0
 62
7
 10
940.4648946911
 20
229.0955344512
 30
0
 11
940.4648946911
 21
228.0955473258
 31
0
  0
LINE
  8
0
 62
7
 10
946.751879932
 20
229.0955344512
 30
0
 11
946.751879932
 21
228.0955473258
 31
0
  0
LINE
  8
0
 62
7
 10
949.464895235
 20
229.0955344512
 30
0
 11
949.464895235
 21
228.0955473258
 31
0
  0
LINE
  8
0
 62
7
 10
938.1559448629
 20
229.0955344512
 30
0
 11
938.1559448629
 21
228.0955473258
 31
0
  0
LINE
  8
0
 62
7
 10
947.1559454068
 20
229.0955344512
 30
0
 11
947.1559454068
 21
228.0955473258
 31
0
  0
LINE
  8
0
 62
7
 10
940.9266844704
 20
229.0955344512
 30
0
 11
940.9266844704
 21
228.0955473258
 31
0
  0
LINE
  8
0
 62
7
 10
949.9266840830001
 20
229.0955344512
 30
0
 11
949.9266840830001
 21
228.0955473258
 31
0
  0
LINE
  8
0
 62
7
 10
937.1169176265
 20
229.0955344512
 30
0
 11
937.1169176265
 21
228.0955473258
 31
0
  0
LINE
  8
0
 62
7
 10
939.887657234
 20
229.0955344512
 30
0
 11
939.887657234
 21
228.0955473258
 31
0
  0
LINE
  8
0
 62
7
 10
946.1169172391
 20
229.0955344512
 30
0
 11
946.1169172391
 21
228.0955473258
 31
0
  0
LINE
  8
0
 62
7
 10
948.8876577779
 20
229.0955344512
 30
0
 11
948.8876577779
 21
228.0955473258
 31
0
  0
LINE
  8
0
 62
7
 10
936.7128521517
 20
229.0955344512
 30
0
 11
936.7128521517
 21
228.0955473258
 31
0
  0
LINE
  8
0
 62
7
 10
935.4838947147
 20
229.0955344512
 30
0
 11
935.4838947147
 21
228.0955473258
 31
0
  0
LINE
  8
0
 62
7
 10
939.4835908278
 20
229.0955344512
 30
0
 11
939.4835908278
 21
228.0955473258
 31
0
  0
LINE
  8
0
 62
7
 10
938.2546343222
 20
229.0955344512
 30
0
 11
938.2546343222
 21
228.0955473258
 31
0
  0
LINE
  8
0
 62
7
 10
942.3120528772
 20
229.0955344512
 30
0
 11
942.3120528772
 21
228.0955473258
 31
0
  0
LINE
  8
0
 62
7
 10
941.0830973029
 20
229.0955344512
 30
0
 11
941.0830973029
 21
228.0955473258
 31
0
  0
LINE
  8
0
 62
7
 10
945.7128517642
 20
229.0955344512
 30
0
 11
945.7128517642
 21
228.0955473258
 31
0
  0
LINE
  8
0
 62
7
 10
944.4838952586
 20
229.0955344512
 30
0
 11
944.4838952586
 21
228.0955473258
 31
0
  0
LINE
  8
0
 62
7
 10
948.4835904404
 20
229.0955344512
 30
0
 11
948.4835904404
 21
228.0955473258
 31
0
  0
LINE
  8
0
 62
7
 10
947.2546339348
 20
229.0955344512
 30
0
 11
947.2546339348
 21
228.0955473258
 31
0
  0
LINE
  8
0
 62
7
 10
951.3120543524
 20
229.0955344512
 30
0
 11
951.3120543524
 21
228.0955473258
 31
0
  0
LINE
  8
0
 62
7
 10
950.0830978468
 20
229.0955344512
 30
0
 11
950.0830978468
 21
228.0955473258
 31
0
  0
LINE
  8
0
 62
7
 10
931.3274821579
 20
229.0955344512
 30
0
 11
931.3274821579
 21
228.0955473258
 31
0
  0
LINE
  8
0
 62
7
 10
899.3274815693
 20
229.0955344512
 30
0
 11
953.32748297
 21
229.0955344512
 31
0
  0
LINE
  8
0
 62
7
 10
901.3274818971
 20
229.0955344512
 30
0
 11
901.3274818971
 21
228.0955473258
 31
0
  0
LINE
  8
0
 62
7
 10
880.3274822697
 20
228.0955399348
 30
0
 11
972.3274822697
 21
228.0955399348
 31
0
  0
LINE
  8
0
 62
7
 10
914.7638459071
 20
219.095543988
 30
0
 11
914.7638459071
 21
221.0955331399
 31
0
  0
LINE
  8
0
 62
7
 10
937.8911186322
 20
221.0955331399
 30
0
 11
937.8911186322
 21
219.095543988
 31
0
  0
LINE
  8
0
 62
7
 10
916.3274824932
 20
219.095543988
 30
0
 11
916.3274824932
 21
221.0955331399
 31
0
  0
LINE
  8
0
 62
7
 10
936.3274820462
 20
221.0955331399
 30
0
 11
936.3274820462
 21
219.095543988
 31
0
  0
LINE
  8
0
 62
7
 10
914.7638459071
 20
219.095543988
 30
0
 11
937.8911186322
 21
219.095543988
 31
0
  0
LINE
  8
0
 62
7
 10
914.7638459071
 20
221.0955331399
 30
0
 11
937.8911186322
 21
221.0955331399
 31
0
  0
LINE
  8
0
 62
7
 10
918.0417679563
 20
221.0955331399
 30
0
 11
918.0417679563
 21
219.095543988
 31
0
  0
LINE
  8
0
 62
7
 10
934.6131965831
 20
219.095543988
 30
0
 11
934.6131965831
 21
221.0955331399
 31
0
  0
LINE
  8
0
 62
7
 10
926.0067688847
 20
67.1271281614
 30
0
 11
926.3274822697
 21
67.0955395623
 31
0
  0
LINE
  8
0
 62
7
 10
854.3274853691
 20
165.095538862
 30
0
 11
868.708040969
 21
165.095538862
 31
0
  0
LINE
  8
0
 62
7
 10
862.5069264635
 20
165.095538862
 30
0
 11
862.5069264635
 21
180.095539458
 31
0
  0
LINE
  8
0
 62
7
 10
998.3274791702
 20
165.095538862
 30
0
 11
983.9469235703
 21
165.095538862
 31
0
  0
LINE
  8
0
 62
7
 10
990.1480380758
 20
165.095538862
 30
0
 11
990.1480380758
 21
180.095539458
 31
0
  0
LINE
  8
0
 62
7
 10
878.9038564476269
 20
12.095541723
 30
0
 11
973.7511080917731
 21
12.095541723
 31
0
  0
LINE
  8
0
 62
7
 10
861.811392413
 20
194.5955390408
 30
0
 11
861.811392413
 21
191.5955404117
 31
0
  0
LINE
  8
0
 62
7
 10
990.8435721263001
 20
191.5955404117
 30
0
 11
990.8435721263001
 21
194.5955390408
 31
0
  0
LINE
  8
0
 62
7
 10
934.3274826496
 20
194.5955390408
 30
0
 11
934.3274826496
 21
201.5955383255
 31
0
  0
LINE
  8
0
 62
7
 10
918.3274818897
 20
201.5955383255
 30
0
 11
918.3274818897
 21
194.5955390408
 31
0
  0
LINE
  8
0
 62
7
 10
873.3274828955
 20
219.095543988
 30
0
 11
793.3374796375
 21
219.095543988
 31
0
  0
LINE
  8
0
 62
7
 10
793.3374796375
 20
214.0955413058
 30
0
 11
873.3274828955
 21
214.0955413058
 31
0
  0
LINE
  8
0
 62
7
 10
873.3274828955
 20
221.0955331399
 30
0
 11
873.3274828955
 21
202.5955403521
 31
0
  0
LINE
  8
0
 62
7
 10
979.3274816438
 20
202.5955403521
 30
0
 11
979.3274816438
 21
221.0955331399
 31
0
  0
LINE
  8
0
 62
7
 10
854.3274853691
 20
188.0955407693
 30
0
 11
854.3274853691
 21
165.095538862
 31
0
  0
LINE
  8
0
 62
7
 10
998.3274791702
 20
165.095538862
 30
0
 11
998.3274791702
 21
188.0955407693
 31
0
  0
LINE
  8
0
 62
7
 10
570.2390671035
 20
319.8992404851
 30
0
 11
573.2390675953
 21
319.5058870825
 31
0
  0
LINE
  8
0
 62
7
 10
625.2390668055
 20
319.8992404851
 30
0
 11
618.712671127
 21
326.4256361636
 31
0
  0
LINE
  8
0
 62
7
 10
573.2390675953
 20
322.8992391142
 30
0
 11
570.2390671035
 21
319.8992404851
 31
0
  0
LINE
  8
0
 62
7
 10
527.3077152928
 20
364.9995922806
 30
0
 11
538.014700068
 21
364.9995926532
 31
0
  0
LINE
  8
0
 62
7
 10
661.3130234441001
 20
369.0259884807
 30
0
 11
667.8394191226
 21
362.4995928022
 31
0
  0
LINE
  8
0
 62
7
 10
538.014700068
 20
414.9995926532001
 30
0
 11
527.3077152928
 21
414.9995930257
 31
0
  0
LINE
  8
0
 62
7
 10
667.8394191226
 20
417.4995925042
 30
0
 11
661.3130234441001
 21
410.9731968256
 31
0
  0
LINE
  8
0
 62
7
 10
618.7126704014655
 20
453.5735494567344
 30
0
 11
625.2390668055
 21
460.0999448213
 31
0
  0
LINE
  8
0
 62
7
 10
570.2390671035
 20
460.0999448213
 30
0
 11
576.7654635075345
 21
453.5735494567345
 31
0
  0
LINE
  8
0
 62
7
 10
568.8329056535969
 20
335.1504008738733
 30
0
 11
573.2390675953
 21
333.0456632885
 31
0
  0
LINE
  8
0
 62
7
 10
538.2787548264
 20
372.4362421545
 30
0
 11
537.4120511373
 21
375.7995925608
 31
0
  0
LINE
  8
0
 62
7
 10
538.2787548264
 20
372.4362421545
 30
0
 11
538.2787548264
 21
375.7995925608
 31
0
  0
LINE
  8
0
 62
7
 10
537.413212881154
 20
404.1995927456
 30
0
 11
538.2787548264
 21
407.5629431519
 31
0
  0
LINE
  8
0
 62
7
 10
538.2787548264
 20
404.1995927456
 30
0
 11
538.2787548264
 21
407.5629431519
 31
0
  0
LINE
  8
0
 62
7
 10
656.7390673121
 20
395.2495925824
 30
0
 11
655.513960894
 21
395.1046503844
 31
0
  0
LINE
  8
0
 62
7
 10
655.9890657922
 20
394.9430226113
 30
0
 11
655.9890657922
 21
385.0561626951
 31
0
  0
LINE
  8
0
 62
7
 10
655.5356756112
 20
385.1465675744
 30
0
 11
655.9890657922
 21
385.0561626951
 31
0
  0
LINE
  8
0
 62
7
 10
655.9890657922
 20
394.9430226113
 30
0
 11
655.5356756112
 21
394.8526177319
 31
0
  0
LINE
  8
0
 62
7
 10
657.4890651068
 20
385.0561626951
 30
0
 11
657.4890651068
 21
394.9430226113
 31
0
  0
LINE
  8
0
 62
7
 10
573.2390675953
 20
257.009590021
 30
0
 11
578.2390665522
 21
257.009590021
 31
0
  0
LINE
  8
0
 62
7
 10
543.0091848059
 20
375.7995926532
 30
0
 11
537.2390672823
 21
375.7995925608
 31
0
  0
LINE
  8
0
 62
7
 10
535.2390669545
 20
377.7995928886
 30
0
 11
535.2390669545
 21
402.1995924177
 31
0
  0
LINE
  8
0
 62
7
 10
651.4140144249
 20
379.9995928767
 30
0
 11
653.164692249
 21
379.9995928767
 31
0
  0
LINE
  8
0
 62
7
 10
653.164692249
 20
399.9995924297
 30
0
 11
651.4140144249
 21
399.9995924297
 31
0
  0
LINE
  8
0
 62
7
 10
622.739067327
 20
394.9995925414
 30
0
 11
622.739067327
 21
364.9995922806
 31
0
  0
LINE
  8
0
 62
7
 10
634.7390674313
 20
394.9995925414
 30
0
 11
622.739067327
 21
394.9995925414
 31
0
  0
LINE
  8
0
 62
7
 10
622.739067327
 20
364.9995922806
 30
0
 11
634.7390674313
 21
364.9995922806
 31
0
  0
LINE
  8
0
 62
7
 10
634.7390674313
 20
364.9995922806
 30
0
 11
634.7390674313
 21
394.9995925414
 31
0
  0
LINE
  8
0
 62
7
 10
590.8390670342
 20
391.0995926472
 30
0
 11
595.2390670104001
 21
391.0995926472
 31
0
  0
LINE
  8
0
 62
7
 10
590.8390670342
 20
391.0995926472
 30
0
 11
590.8390670342
 21
395.4995926234
 31
0
  0
LINE
  8
0
 62
7
 10
588.6390665805
 20
395.4995926234
 30
0
 11
590.8390670342
 21
395.4995926234
 31
0
  0
LINE
  8
0
 62
7
 10
588.6390665805
 20
391.0995926472
 30
0
 11
588.6390665805
 21
395.4995926234
 31
0
  0
LINE
  8
0
 62
7
 10
584.2390666043
 20
391.0995926472
 30
0
 11
588.6390665805
 21
391.0995926472
 31
0
  0
LINE
  8
0
 62
7
 10
584.2390666043
 20
388.8995926591
 30
0
 11
584.2390666043
 21
391.0995926472
 31
0
  0
LINE
  8
0
 62
7
 10
584.2390666043
 20
388.8995926591
 30
0
 11
588.6390665805
 21
388.8995926591
 31
0
  0
LINE
  8
0
 62
7
 10
588.6390665805
 20
384.499592683
 30
0
 11
588.6390665805
 21
388.8995926591
 31
0
  0
LINE
  8
0
 62
7
 10
588.6390665805
 20
384.499592683
 30
0
 11
590.8390670342
 21
384.499592683
 31
0
  0
LINE
  8
0
 62
7
 10
590.8390670342
 20
384.499592683
 30
0
 11
590.8390670342
 21
388.8995926591
 31
0
  0
LINE
  8
0
 62
7
 10
590.8390670342
 20
388.8995926591
 30
0
 11
595.2390670104001
 21
388.8995926591
 31
0
  0
LINE
  8
0
 62
7
 10
595.2390670104001
 20
388.8995926591
 30
0
 11
595.2390670104001
 21
391.0995926472
 31
0
  0
LINE
  8
0
 62
7
 10
582.2390672078
 20
402.9899732905
 30
0
 11
582.2390672078
 21
394.3297196875
 31
0
  0
LINE
  8
0
 62
7
 10
589.7390665745
 20
398.6598467218
 30
0
 11
582.2390672078
 21
402.9899732905
 31
0
  0
LINE
  8
0
 62
7
 10
584.2390666043
 20
399.5258724081
 30
0
 11
584.2390666043
 21
393.1750191605
 31
0
  0
LINE
  8
0
 62
7
 10
589.7390665745
 20
396.3504456679
 30
0
 11
584.2390666043
 21
399.5258724081
 31
0
  0
LINE
  8
0
 62
7
 10
595.2390670104001
 20
399.5258724081
 30
0
 11
589.7390665745
 21
396.3504456679
 31
0
  0
LINE
  8
0
 62
7
 10
595.2390670104001
 20
393.1750191605
 30
0
 11
595.2390670104001
 21
399.5258724081
 31
0
  0
LINE
  8
0
 62
7
 10
600.7390669806
 20
389.9995926532
 30
0
 11
595.2390670104001
 21
393.1750191605
 31
0
  0
LINE
  8
0
 62
7
 10
595.2390670104001
 20
386.8241661458
 30
0
 11
600.7390669806
 21
389.9995926532
 31
0
  0
LINE
  8
0
 62
7
 10
595.2390670104001
 20
380.4733128982
 30
0
 11
595.2390670104001
 21
386.8241661458
 31
0
  0
LINE
  8
0
 62
7
 10
589.7390665745
 20
383.6487396384
 30
0
 11
595.2390670104001
 21
380.4733128982
 31
0
  0
LINE
  8
0
 62
7
 10
584.2390666043
 20
380.4733128982
 30
0
 11
589.7390665745
 21
383.6487396384
 31
0
  0
LINE
  8
0
 62
7
 10
584.2390666043
 20
386.8241661458
 30
0
 11
584.2390666043
 21
380.4733128982
 31
0
  0
LINE
  8
0
 62
7
 10
578.7390675655
 20
389.9995926532
 30
0
 11
584.2390666043
 21
386.8241661458
 31
0
  0
LINE
  8
0
 62
7
 10
584.2390666043
 20
393.1750191605
 30
0
 11
578.7390675655
 21
389.9995926532
 31
0
  0
LINE
  8
0
 62
7
 10
582.2390672078
 20
394.3297196875
 30
0
 11
574.7390669098
 21
389.9995926532
 31
0
  0
LINE
  8
0
 62
7
 10
574.7390669098
 20
389.9995926532
 30
0
 11
582.2390672078
 21
385.6694656188
 31
0
  0
LINE
  8
0
 62
7
 10
582.2390672078
 20
385.6694656188
 30
0
 11
582.2390672078
 21
377.0092120158
 31
0
  0
LINE
  8
0
 62
7
 10
582.2390672078
 20
377.0092120158
 30
0
 11
589.7390665745
 21
381.3393385845
 31
0
  0
LINE
  8
0
 62
7
 10
589.7390665745
 20
381.3393385845
 30
0
 11
597.2390669308001
 21
377.0092120158
 31
0
  0
LINE
  8
0
 62
7
 10
597.2390669308001
 20
377.0092120158
 30
0
 11
597.2390669308001
 21
385.6694656188
 31
0
  0
LINE
  8
0
 62
7
 10
597.2390669308001
 20
385.6694656188
 30
0
 11
604.7390671706
 21
389.9995926532
 31
0
  0
LINE
  8
0
 62
7
 10
604.7390671706
 20
389.9995926532
 30
0
 11
597.2390669308001
 21
394.3297196875
 31
0
  0
LINE
  8
0
 62
7
 10
597.2390669308001
 20
394.3297196875
 30
0
 11
597.2390669308001
 21
402.9899732905
 31
0
  0
LINE
  8
0
 62
7
 10
597.2390669308001
 20
402.9899732905
 30
0
 11
589.7390665745
 21
398.6598467218
 31
0
  0
LINE
  8
0
 62
7
 10
561.7390685042
 20
371.999593428
 30
0
 11
571.7390664181
 21
371.999593428
 31
0
  0
LINE
  8
0
 62
7
 10
571.7390664181
 20
371.999593428
 30
0
 11
571.7390664181
 21
407.9995918783
 31
0
  0
LINE
  8
0
 62
7
 10
571.7390664181
 20
407.9995918783
 30
0
 11
561.7390685042
 21
407.9995918783
 31
0
  0
LINE
  8
0
 62
7
 10
561.7390685042
 20
407.9995918783
 30
0
 11
561.7390685042
 21
371.999593428
 31
0
  0
LINE
  8
0
 62
7
 10
619.7390668353
 20
362.9995919528
 30
0
 11
619.7390668353
 21
416.9995933535
 31
0
  0
LINE
  8
0
 62
7
 10
619.7390668353
 20
416.9995933535
 30
0
 11
607.739066731
 21
416.9995933535
 31
0
  0
LINE
  8
0
 62
7
 10
607.739066731
 20
362.9995919528
 30
0
 11
619.7390668353
 21
362.9995919528
 31
0
  0
LINE
  8
0
 62
7
 10
607.739066731
 20
416.9995933535
 30
0
 11
607.739066731
 21
362.9995919528
 31
0
  0
LINE
  8
0
 62
7
 10
629.0076598784
 20
405.9841632607
 30
0
 11
634.6347928306
 21
405.9841632607
 31
0
  0
LINE
  8
0
 62
7
 10
627.7507711461
 20
400.3849625352
 30
0
 11
628.605455186
 21
400.3849625352
 31
0
  0
LINE
  8
0
 62
7
 10
627.7507711461
 20
399.1560050982
 30
0
 11
627.7507711461
 21
400.3849625352
 31
0
  0
LINE
  8
0
 62
7
 10
634.6347928306
 20
399.1560050982
 30
0
 11
627.7507711461
 21
399.1560050982
 31
0
  0
LINE
  8
0
 62
7
 10
634.6347928306
 20
400.3849625352
 30
0
 11
634.6347928306
 21
399.1560050982
 31
0
  0
LINE
  8
0
 62
7
 10
630.0634444019
 20
400.3849625352
 30
0
 11
634.6347928306
 21
400.3849625352
 31
0
  0
LINE
  8
0
 62
7
 10
634.6347928306
 20
401.9267447057
 30
0
 11
629.4098645708
 21
401.9267447057
 31
0
  0
LINE
  8
0
 62
7
 10
634.6347928306
 20
403.1557012114
 30
0
 11
634.6347928306
 21
401.9267447057
 31
0
  0
LINE
  8
0
 62
7
 10
630.0634444019
 20
403.1557012114
 30
0
 11
634.6347928306
 21
403.1557012114
 31
0
  0
LINE
  8
0
 62
7
 10
634.6347928306
 20
404.7552076864
 30
0
 11
629.4601373633
 21
404.7552076864
 31
0
  0
LINE
  8
0
 62
7
 10
634.6347928306
 20
405.9841632607
 30
0
 11
634.6347928306
 21
404.7552076864
 31
0
  0
LINE
  8
0
 62
7
 10
629.0076598784
 20
414.9841647359
 30
0
 11
634.6347928306
 21
414.9841647359
 31
0
  0
LINE
  8
0
 62
7
 10
627.7507711461
 20
409.3849621477
 30
0
 11
628.605455186
 21
409.3849621477
 31
0
  0
LINE
  8
0
 62
7
 10
627.7507711461
 20
408.1560056421
 30
0
 11
627.7507711461
 21
409.3849621477
 31
0
  0
LINE
  8
0
 62
7
 10
634.6347928306
 20
408.1560056421
 30
0
 11
627.7507711461
 21
408.1560056421
 31
0
  0
LINE
  8
0
 62
7
 10
634.6347928306
 20
409.3849621477
 30
0
 11
634.6347928306
 21
408.1560056421
 31
0
  0
LINE
  8
0
 62
7
 10
630.0634444019
 20
409.3849621477
 30
0
 11
634.6347928306
 21
409.3849621477
 31
0
  0
LINE
  8
0
 62
7
 10
634.6347928306
 20
410.9267443183
 30
0
 11
629.4098645708
 21
410.9267443183
 31
0
  0
LINE
  8
0
 62
7
 10
634.6347928306
 20
412.1557008239
 30
0
 11
634.6347928306
 21
410.9267443183
 31
0
  0
LINE
  8
0
 62
7
 10
630.0634444019
 20
412.1557008239
 30
0
 11
634.6347928306
 21
412.1557008239
 31
0
  0
LINE
  8
0
 62
7
 10
634.6347928306
 20
413.7552082303
 30
0
 11
629.4601373633
 21
413.7552082303
 31
0
  0
LINE
  8
0
 62
7
 10
634.6347928306
 20
414.9841647359
 30
0
 11
634.6347928306
 21
413.7552082303
 31
0
  0
LINE
  8
0
 62
7
 10
525.7446952423001
 20
391.4995926662
 30
0
 11
507.4104257187
 21
391.4995926662
 31
0
  0
LINE
  8
0
 62
7
 10
507.4104257187
 20
388.4995926401
 30
0
 11
507.4104257187
 21
391.4995926662
 31
0
  0
LINE
  8
0
 62
7
 10
467.7390717229
 20
339.9995919081
 30
0
 11
467.7390717229
 21
439.9995933982
 31
0
  0
LINE
  8
0
 62
7
 10
712.7390690407
 20
339.9995919081
 30
0
 11
712.7390690407
 21
439.9995933982
 31
0
  0
LINE
  8
0
 62
7
 10
669.6765534839
 20
394.9995925414
 30
0
 11
695.7390643915001
 21
394.9995925414
 31
0
  0
LINE
  8
0
 62
7
 10
695.7390643915001
 20
384.9995927649
 30
0
 11
669.6765534839
 21
384.9995927649
 31
0
  0
LINE
  8
0
 62
7
 10
710.7390649876001
 20
482.9995948585
 30
0
 11
710.7390649876001
 21
296.9995904478
 31
0
  0
LINE
  8
0
 62
7
 10
695.7390643915001
 20
482.9995948585
 30
0
 11
695.7390643915001
 21
296.9995904478
 31
0
  0
LINE
  8
0
 62
7
 10
469.7390608748
 20
482.9995948585
 30
0
 11
469.7390608748
 21
296.9995904478
 31
0
  0
LINE
  8
0
 62
7
 10
484.7390689215
 20
482.9995948585
 30
0
 11
484.7390689215
 21
296.9995904478
 31
0
  0
LINE
  8
0
 62
7
 10
573.2390675953
 20
343.0022541198
 30
0
 11
573.2390675953
 21
257.009590021
 31
0
  0
LINE
  8
0
 62
7
 10
578.2390665522
 20
257.009590021
 30
0
 11
578.2390665522
 21
340.7172430071
 31
0
  0
LINE
  8
0
 62
7
 10
467.7390717229
 20
339.9995919081
 30
0
 11
469.7390608748
 21
337.9995915803
 31
0
  0
LINE
  8
0
 62
7
 10
469.7390608748
 20
441.9995937261
 30
0
 11
467.7390717229
 21
439.9995933982
 31
0
  0
LINE
  8
0
 62
7
 10
712.7390690407
 20
439.9995933982
 30
0
 11
710.7390649876001
 21
441.9995937261
 31
0
  0
LINE
  8
0
 62
7
 10
710.7390649876001
 20
337.9995915803
 30
0
 11
712.7390690407
 21
339.9995919081
 31
0
  0
LINE
  8
0
 62
7
 10
665.5767597517
 20
349.571635923
 30
0
 11
669.7129197678
 21
352.0288225028
 31
0
  0
LINE
  8
0
 62
7
 10
669.7129197678
 20
427.9703628036
 30
0
 11
665.4794477185
 21
430.4853584382
 31
0
  0
LINE
  8
0
 62
7
 10
525.8751251062
 20
397.174475691
 30
0
 11
525.3720097503
 21
391.4992450501
 31
0
  0
LINE
  8
0
 62
7
 10
695.7390643915001
 20
296.9995904478
 30
0
 11
710.7390649876001
 21
296.9995904478
 31
0
  0
LINE
  8
0
 62
7
 10
710.7390649876001
 20
482.9995948585
 30
0
 11
695.7390643915001
 21
482.9995948585
 31
0
  0
LINE
  8
0
 62
7
 10
484.7390689215
 20
482.9995948585
 30
0
 11
469.7390608748
 21
482.9995948585
 31
0
  0
LINE
  8
0
 62
7
 10
469.7390608748
 20
296.9995904478
 30
0
 11
484.7390689215
 21
296.9995904478
 31
0
  0
LINE
  8
0
 62
7
 10
599.7726219612
 20
67.1700221693
 30
0
 11
599.7726219612
 21
60.1700221693
 31
0
  0
LINE
  8
0
 62
7
 10
590.0263555732
 20
60.1700221693
 30
0
 11
599.7726219612
 21
60.1700221693
 31
0
  0
LINE
  8
0
 62
7
 10
590.0263555732
 20
67.1700221693
 30
0
 11
590.0263555732
 21
60.1700221693
 31
0
  0
LINE
  8
0
 62
7
 10
590.0263555732
 20
67.1700221693
 30
0
 11
599.7726219612
 21
67.1700221693
 31
0
  0
LINE
  8
0
 62
7
 10
544.7390675804001
 20
219.5955375507
 30
0
 11
545.9248237570999
 21
219.5955375507
 31
0
  0
LINE
  8
0
 62
7
 10
661.0346250495001
 20
201.5955383255
 30
0
 11
664.7390686234
 21
201.5955383255
 31
0
  0
LINE
  8
0
 62
7
 10
572.739066582
 20
203.0955413654
 30
0
 11
582.361047182
 21
203.0955413654
 31
0
  0
LINE
  8
0
 62
7
 10
527.3077152928
 20
191.5955404117
 30
0
 11
533.7006710729
 21
191.5955404117
 31
0
  0
LINE
  8
0
 62
7
 10
527.3077152928
 20
188.0955407693
 30
0
 11
527.3077152928
 21
191.5955404117
 31
0
  0
LINE
  8
0
 62
7
 10
525.739070054
 20
188.0955407693
 30
0
 11
527.3077152928
 21
188.0955407693
 31
0
  0
LINE
  8
0
 62
7
 10
667.8394191226
 20
188.0955407693
 30
0
 11
669.7390638551
 21
188.0955407693
 31
0
  0
LINE
  8
0
 62
7
 10
667.8394191226
 20
188.0955407693
 30
0
 11
667.8394191226
 21
191.5955404117
 31
0
  0
LINE
  8
0
 62
7
 10
661.7774628362
 20
191.5955404117
 30
0
 11
667.8394191226
 21
191.5955404117
 31
0
  0
LINE
  8
0
 62
7
 10
626.6452279201
 20
194.5955390408
 30
0
 11
626.6452279201
 21
191.5955404117
 31
0
  0
LINE
  8
0
 62
7
 10
568.8329059889001
 20
194.5955390408
 30
0
 11
568.8329059889001
 21
191.5955404117
 31
0
  0
LINE
  8
0
 62
7
 10
609.7106952479001
 20
188.0955407693
 30
0
 11
609.7106952479001
 21
191.5955404117
 31
0
  0
LINE
  8
0
 62
7
 10
585.7674386611
 20
188.0955407693
 30
0
 11
585.7674386611
 21
191.5955404117
 31
0
  0
LINE
  8
0
 62
7
 10
555.5580556652
 20
194.5955390408
 30
0
 11
555.5580556652
 21
191.5955404117
 31
0
  0
LINE
  8
0
 62
7
 10
533.7006710729
 20
180.095539458
 30
0
 11
533.7006710729
 21
191.5955404117
 31
0
  0
LINE
  8
0
 62
7
 10
661.7774628362
 20
191.5955404117
 30
0
 11
661.7774628362
 21
180.095539458
 31
0
  0
LINE
  8
0
 62
7
 10
533.2229770979
 20
194.5955390408
 30
0
 11
662.2551568111001
 21
194.5955390408
 31
0
  0
LINE
  8
0
 62
7
 10
639.9200782439
 20
194.5955390408
 30
0
 11
639.9200782439
 21
191.5955404117
 31
0
  0
LINE
  8
0
 62
7
 10
618.712671127
 20
188.0955407693
 30
0
 11
618.712671127
 21
191.5955404117
 31
0
  0
LINE
  8
0
 62
7
 10
576.765462782
 20
188.0955407693
 30
0
 11
576.765462782
 21
191.5955404117
 31
0
  0
LINE
  8
0
 62
7
 10
525.739070054
 20
180.095539458
 30
0
 11
669.7390638551
 21
180.095539458
 31
0
  0
LINE
  8
0
 62
7
 10
609.7106952479001
 20
191.5955404117
 30
0
 11
653.6072530111001
 21
191.5955404117
 31
0
  0
LINE
  8
0
 62
7
 10
625.2390668055
 20
188.0955407693
 30
0
 11
625.2390668055
 21
191.5955404117
 31
0
  0
LINE
  8
0
 62
7
 10
570.2390671035
 20
188.0955407693
 30
0
 11
625.2390668055
 21
188.0955407693
 31
0
  0
LINE
  8
0
 62
7
 10
570.2390671035
 20
188.0955407693
 30
0
 11
570.2390671035
 21
191.5955404117
 31
0
  0
LINE
  8
0
 62
7
 10
541.8708808979
 20
191.5955404117
 30
0
 11
585.7674386611
 21
191.5955404117
 31
0
  0
LINE
  8
0
 62
7
 10
541.8708808979
 20
191.5955404117
 30
0
 11
541.8708808979
 21
180.095539458
 31
0
  0
LINE
  8
0
 62
7
 10
653.6072530111001
 20
180.095539458
 30
0
 11
653.6072530111001
 21
191.5955404117
 31
0
  0
LINE
  8
0
 62
7
 10
656.064968582
 20
149.5955409779
 30
0
 11
644.0649703404
 21
149.5955409779
 31
0
  0
LINE
  8
0
 62
7
 10
661.034625049472
 20
201.7470309807712
 30
0
 11
661.0346250495001
 21
194.5955390408
 31
0
  0
LINE
  8
0
 62
7
 10
655.5497944614
 20
201.7470309808
 30
0
 11
655.5497944614
 21
194.5955390408
 31
0
  0
LINE
  8
0
 62
7
 10
644.5801407358
 20
201.7470309808
 30
0
 11
644.5801407358
 21
194.5955390408
 31
0
  0
LINE
  8
0
 62
7
 10
639.0953138729
 20
201.7470309808051
 30
0
 11
639.0953138729
 21
194.5955390408
 31
0
  0
LINE
  8
0
 62
7
 10
659.5649682244
 20
202.5955403521
 30
0
 11
640.5649669727
 21
202.5955403521
 31
0
  0
LINE
  8
0
 62
7
 10
551.4131635686
 20
149.5955409779
 30
0
 11
539.413165327
 21
149.5955409779
 31
0
  0
LINE
  8
0
 62
7
 10
556.3828200361
 20
201.7470309808
 30
0
 11
556.3828200361
 21
194.5955390408
 31
0
  0
LINE
  8
0
 62
7
 10
550.8979931733001
 20
201.7470309808
 30
0
 11
550.8979931733001
 21
194.5955390408
 31
0
  0
LINE
  8
0
 62
7
 10
539.9283394476
 20
201.7470309808
 30
0
 11
539.9283394476
 21
194.5955390408
 31
0
  0
LINE
  8
0
 62
7
 10
534.4435088595
 20
201.7470309808
 30
0
 11
534.4435088595
 21
194.5955390408
 31
0
  0
LINE
  8
0
 62
7
 10
554.9131669362999
 20
202.5955403521
 30
0
 11
535.9131656846
 21
202.5955403521
 31
0
  0
LINE
  8
0
 62
7
 10
556.3828200361
 20
155.9440428688
 30
0
 11
556.3828200361
 21
165.095538862
 31
0
  0
LINE
  8
0
 62
7
 10
534.4435088595
 20
155.9440428688
 30
0
 11
534.4435088595
 21
165.095538862
 31
0
  0
LINE
  8
0
 62
7
 10
554.9131669362999
 20
155.0955409481
 30
0
 11
535.9131656846
 21
155.0955409481
 31
0
  0
LINE
  8
0
 62
7
 10
539.9283394476
 20
155.9440428688
 30
0
 11
539.9283394476
 21
165.095538862
 31
0
  0
LINE
  8
0
 62
7
 10
550.8979931733001
 20
155.9440428688
 30
0
 11
550.8979931733001
 21
165.095538862
 31
0
  0
LINE
  8
0
 62
7
 10
639.0953138729
 20
155.9440428688
 30
0
 11
639.0953138729
 21
165.095538862
 31
0
  0
LINE
  8
0
 62
7
 10
661.0346250495001
 20
155.9440428688
 30
0
 11
661.0346250495001
 21
165.095538862
 31
0
  0
LINE
  8
0
 62
7
 10
659.5649682244
 20
155.0955409481
 30
0
 11
640.5649669727
 21
155.0955409481
 31
0
  0
LINE
  8
0
 62
7
 10
644.5801407358
 20
155.9440428688
 30
0
 11
644.5801407358
 21
165.095538862
 31
0
  0
LINE
  8
0
 62
7
 10
655.5497944614
 20
155.9440428688
 30
0
 11
655.5497944614
 21
165.095538862
 31
0
  0
LINE
  8
0
 62
7
 10
639.0953138729
 20
159.1955432966
 30
0
 11
556.3828200361
 21
159.1955432966
 31
0
  0
LINE
  8
0
 62
7
 10
579.2390667161
 20
215.4837185814
 30
0
 11
579.2390667161
 21
213.0955392792
 31
0
  0
LINE
  8
0
 62
7
 10
572.739066582
 20
213.0955392792
 30
0
 11
579.8409190288
 21
213.0955392792
 31
0
  0
LINE
  8
0
 62
7
 10
574.7390669098
 20
229.0955344512
 30
0
 11
574.7390669098
 21
228.0955473258
 31
0
  0
LINE
  8
0
 62
7
 10
604.7390671706
 20
229.0955344512
 30
0
 11
604.7390671706
 21
228.0955473258
 31
0
  0
LINE
  8
0
 62
7
 10
655.1441811284
 20
221.0955331399
 30
0
 11
655.1441811284
 21
219.095543988
 31
0
  0
LINE
  8
0
 62
7
 10
653.164692249
 20
219.095543988
 30
0
 11
653.164692249
 21
221.0955331399
 31
0
  0
LINE
  8
0
 62
7
 10
649.4621970018
 20
221.0955331399
 30
0
 11
655.7390652856
 21
221.0955331399
 31
0
  0
LINE
  8
0
 62
7
 10
655.7390652856
 20
219.095543988
 30
0
 11
649.4621970018
 21
219.095543988
 31
0
  0
LINE
  8
0
 62
7
 10
651.4140144249
 20
221.0955331399
 30
0
 11
651.4140144249
 21
219.095543988
 31
0
  0
LINE
  8
0
 62
7
 10
597.2390669308001
 20
229.0955344512
 30
0
 11
597.2390669308001
 21
228.0955473258
 31
0
  0
LINE
  8
0
 62
7
 10
574.7390669098
 20
229.0955344512
 30
0
 11
604.7390671706
 21
229.0955344512
 31
0
  0
LINE
  8
0
 62
7
 10
589.7390665745
 20
229.0955344512
 30
0
 11
589.7390665745
 21
228.0955473258
 31
0
  0
LINE
  8
0
 62
7
 10
582.2390672078
 20
229.0955344512
 30
0
 11
582.2390672078
 21
228.0955473258
 31
0
  0
LINE
  8
0
 62
7
 10
537.2390672823
 20
214.595542319
 30
0
 11
539.7439497809698
 21
214.595542319
 31
0
  0
LINE
  8
0
 62
7
 10
535.2390669545
 20
202.206351824
 30
0
 11
535.2390669545
 21
212.5955399348
 31
0
  0
LINE
  8
0
 62
7
 10
571.7390664181
 20
229.0955344512
 30
0
 11
571.7390664181
 21
228.0955473258
 31
0
  0
LINE
  8
0
 62
7
 10
561.7390685042
 20
229.0955344512
 30
0
 11
571.7390664181
 21
229.0955344512
 31
0
  0
LINE
  8
0
 62
7
 10
561.7390685042
 20
229.0955344512
 30
0
 11
561.7390685042
 21
228.0955473258
 31
0
  0
LINE
  8
0
 62
7
 10
622.739067327
 20
229.0955344512
 30
0
 11
622.739067327
 21
228.0955473258
 31
0
  0
LINE
  8
0
 62
7
 10
622.739067327
 20
229.0955344512
 30
0
 11
634.7390674313
 21
229.0955344512
 31
0
  0
LINE
  8
0
 62
7
 10
634.7390674313
 20
229.0955344512
 30
0
 11
634.7390674313
 21
228.0955473258
 31
0
  0
LINE
  8
0
 62
7
 10
607.739066731
 20
229.0955344512
 30
0
 11
607.739066731
 21
228.0955473258
 31
0
  0
LINE
  8
0
 62
7
 10
619.7390668353
 20
229.0955344512
 30
0
 11
619.7390668353
 21
228.0955473258
 31
0
  0
LINE
  8
0
 62
7
 10
607.739066731
 20
229.0955344512
 30
0
 11
619.7390668353
 21
229.0955344512
 31
0
  0
LINE
  8
0
 62
7
 10
649.4621970018
 20
219.095543988
 30
0
 11
649.4621970018
 21
221.0955331399
 31
0
  0
LINE
  8
0
 62
7
 10
547.7272793909
 20
212.5955382659
 30
0
 11
547.7272793909
 21
202.5955403521
 31
0
  0
LINE
  8
0
 62
7
 10
572.739066582
 20
201.5955383255
 30
0
 11
572.739066582
 21
217.0955399348
 31
0
  0
LINE
  8
0
 62
7
 10
643.7390669545
 20
228.0955399348
 30
0
 11
551.7390669545
 21
228.0955399348
 31
0
  0
LINE
  8
0
 62
7
 10
526.5395380815
 20
135.7369544282
 30
0
 11
526.5331082305
 21
135.7369544282
 31
0
  0
LINE
  8
0
 62
7
 10
507.4104257187
 20
121.5955401137
 30
0
 11
507.4150376280841
 21
121.5745071246722
 31
0
  0
LINE
  8
0
 62
7
 10
568.0460408589
 20
17.9529348685
 30
0
 11
567.7390676251
 21
12.095541723
 31
0
  0
LINE
  8
0
 62
7
 10
557.2290756067
 20
21.8267524912
 30
0
 11
557.7390678486
 21
12.095541723
 31
0
  0
LINE
  8
0
 62
7
 10
557.7390678486
 20
12.095541723
 30
0
 11
567.7390676251
 21
12.095541723
 31
0
  0
LINE
  8
0
 62
7
 10
638.3326612672
 20
23.4219814017
 30
0
 11
637.7390660604
 21
12.095541723
 31
0
  0
LINE
  8
0
 62
7
 10
627.4326499810001
 20
17.9423326924
 30
0
 11
627.7390662840001
 21
12.095541723
 31
0
  0
LINE
  8
0
 62
7
 10
627.7390662840001
 20
12.095541723
 30
0
 11
637.7390660604
 21
12.095541723
 31
0
  0
LINE
  8
0
 62
7
 10
690.7116411042073
 20
149.2141245638563
 30
0
 11
665.932316358924
 21
135.0121209695072
 31
0
  0
LINE
  8
0
 62
7
 10
691.4163965125351
 20
35.07669196375404
 30
0
 11
659.8672755321001
 21
56.834706135
 31
0
  0
LINE
  8
0
 62
7
 10
600.8326604756001
 20
23.4219814017
 30
0
 11
600.2390668986
 21
12.095541723
 31
0
  0
LINE
  8
0
 62
7
 10
594.6293811107
 20
23.7290421798
 30
0
 11
595.2390670104001
 21
12.095541723
 31
0
  0
LINE
  8
0
 62
7
 10
595.2390670104001
 20
12.095541723
 30
0
 11
600.2390668986
 21
12.095541723
 31
0
  0
LINE
  8
0
 62
7
 10
507.4104257187
 20
121.5955401137
 30
0
 11
499.7390669545
 21
121.5955399348
 31
0
  0
LINE
  8
0
 62
7
 10
467.7390717229
 20
42.0955391898
 30
0
 11
467.7390717229
 21
142.0955406799
 31
0
  0
LINE
  8
0
 62
7
 10
712.7390690407
 20
42.0955391898
 30
0
 11
712.7390690407
 21
142.0955406799
 31
0
  0
LINE
  8
0
 62
7
 10
600.8326604756001
 20
23.4219814017
 30
0
 11
597.7342574991349
 21
23.33030125912236
 31
0
  0
LINE
  8
0
 62
7
 10
568.0460408589
 20
17.9529348685
 30
0
 11
557.2290756067
 21
21.8267524912
 31
0
  0
LINE
  8
0
 62
7
 10
597.7342574991349
 20
23.33030125912236
 30
0
 11
594.6293811107
 21
23.7290421798
 31
0
  0
LINE
  8
0
 62
7
 10
652.0092226823671
 20
68.47945696849899
 30
0
 11
652.0092226824
 21
52.746553935
 31
0
  0
LINE
  8
0
 62
7
 10
606.7390665671001
 20
69.59553904080001
 30
0
 11
588.7390673419
 21
69.59553904080001
 31
0
  0
LINE
  8
0
 62
7
 10
588.7390673419
 20
69.59553904080001
 30
0
 11
588.7390673419
 21
57.5955407991
 31
0
  0
LINE
  8
0
 62
7
 10
588.7390673419
 20
57.5955407991
 30
0
 11
606.7390665671001
 21
57.5955407991
 31
0
  0
LINE
  8
0
 62
7
 10
606.7390665671001
 20
57.5955407991
 30
0
 11
606.7390665671001
 21
69.59553904080001
 31
0
  0
LINE
  8
0
 62
7
 10
602.9471610932
 20
66.4903717413
 30
0
 11
602.9471610932
 21
60.8496731444
 31
0
  0
LINE
  8
0
 62
7
 10
602.0972659139
 20
67.1700230165
 30
0
 11
603.3421829602
 21
67.1700230165
 31
0
  0
LINE
  8
0
 62
7
 10
602.0972659139
 20
60.1700218692
 30
0
 11
602.0972659139
 21
67.1700230165
 31
0
  0
LINE
  8
0
 62
7
 10
603.3421829602
 20
60.1700218692
 30
0
 11
602.0972659139
 21
60.1700218692
 31
0
  0
LINE
  8
0
 62
7
 10
602.9471610932
 20
60.8496731444
 30
0
 11
603.3421829602
 21
60.8496731444
 31
0
  0
LINE
  8
0
 62
7
 10
603.3421829602
 20
66.4903717413
 30
0
 11
602.9471610932
 21
66.4903717413
 31
0
  0
LINE
  8
0
 62
7
 10
661.5596227607
 20
165.095538862
 30
0
 11
661.5596227607
 21
180.095539458
 31
0
  0
LINE
  8
0
 62
7
 10
533.9185111483
 20
165.095538862
 30
0
 11
533.9185111483
 21
180.095539458
 31
0
  0
LINE
  8
0
 62
7
 10
580.2292824050001
 20
125.2870643809
 30
0
 11
580.2292824050001
 21
123.5393928661
 31
0
  0
LINE
  8
0
 62
7
 10
569.0010842194424
 20
112.3590776993916
 30
0
 11
571.6345645745731
 21
112.359077699354
 31
0
  0
LINE
  8
0
 62
7
 10
572.5511517635
 20
123.5393928661
 30
0
 11
572.0928572376896
 21
117.5302723719558
 31
0
  0
LINE
  8
0
 62
7
 10
580.2292824050001
 20
123.5393928661
 30
0
 11
572.5511517635
 21
123.5393928661
 31
0
  0
LINE
  8
0
 62
7
 10
570.2289007863
 20
125.2870643809
 30
0
 11
580.2292824050001
 21
125.2870643809
 31
0
  0
LINE
  8
0
 62
7
 10
569.5414617917
 20
115.4063893779
 30
0
 11
570.2289007863
 21
125.2870643809
 31
0
  0
LINE
  8
0
 62
7
 10
571.9799939802232
 20
115.4063893779731
 30
0
 11
569.5414617917
 21
115.4063893779
 31
0
  0
LINE
  8
0
 62
7
 10
605.7390673345
 20
141.0955386533
 30
0
 11
605.7390673345
 21
138.5955410375
 31
0
  0
LINE
  8
0
 62
7
 10
605.7390673345
 20
135.5955386832
 30
0
 11
605.7390673345
 21
133.0955410673
 31
0
  0
LINE
  8
0
 62
7
 10
605.7390673345
 20
138.5955410375
 30
0
 11
577.7390674015001
 21
138.5955410375
 31
0
  0
LINE
  8
0
 62
7
 10
577.7390674015001
 20
138.5955410375
 30
0
 11
577.7390674015001
 21
135.5955386832
 31
0
  0
LINE
  8
0
 62
7
 10
577.7390674015001
 20
135.5955386832
 30
0
 11
605.7390673345
 21
135.5955386832
 31
0
  0
LINE
  8
0
 62
7
 10
541.967447873
 20
165.095538862
 30
0
 11
541.967447873
 21
180.095539458
 31
0
  0
LINE
  8
0
 62
7
 10
525.739070054
 20
165.095538862
 30
0
 11
669.7390638551
 21
165.095538862
 31
0
  0
LINE
  8
0
 62
7
 10
653.510686036
 20
165.095538862
 30
0
 11
653.510686036
 21
180.095539458
 31
0
  0
LINE
  8
0
 62
7
 10
614.1732502988
 20
117.0377778187
 30
0
 11
614.1732502988
 21
107.2764257266
 31
0
  0
LINE
  8
0
 62
7
 10
604.460348401
 20
119.2180933728
 30
0
 11
604.4603484010046
 21
117.7354799880321
 31
0
  0
LINE
  8
0
 62
7
 10
602.3284844382
 20
119.2180933728
 30
0
 11
604.460348401
 21
119.2180933728
 31
0
  0
LINE
  8
0
 62
7
 10
602.3284844382
 20
107.2764257266
 30
0
 11
602.3284844382
 21
119.2180933728
 31
0
  0
LINE
  8
0
 62
7
 10
604.460348401
 20
107.2764257266
 30
0
 11
602.3284844382
 21
107.2764257266
 31
0
  0
LINE
  8
0
 62
7
 10
604.460348401
 20
115.2063133492
 30
0
 11
604.460348401
 21
107.2764257266
 31
0
  0
LINE
  8
0
 62
7
 10
607.1348684167
 20
107.2764257266
 30
0
 11
607.1348684167
 21
116.3400775119
 31
0
  0
LINE
  8
0
 62
7
 10
609.2667328453
 20
107.2764257266
 30
0
 11
607.1348684167
 21
107.2764257266
 31
0
  0
LINE
  8
0
 62
7
 10
609.2667328453
 20
115.2063133492
 30
0
 11
609.2667328453
 21
107.2764257266
 31
0
  0
LINE
  8
0
 62
7
 10
612.0413858702
 20
107.2764257266
 30
0
 11
612.0413858702
 21
116.2528647407
 31
0
  0
LINE
  8
0
 62
7
 10
614.1732502988
 20
107.2764257266
 30
0
 11
612.0413858702
 21
107.2764257266
 31
0
  0
LINE
  8
0
 62
7
 10
484.7390689215
 20
185.0955421402
 30
0
 11
484.7390689215
 21
12.095541723
 31
0
  0
LINE
  8
0
 62
7
 10
469.7390608748
 20
185.0955421402
 30
0
 11
469.7390608748
 21
12.095541723
 31
0
  0
LINE
  8
0
 62
7
 10
484.7390689215
 20
12.095541723
 30
0
 11
469.7390608748
 21
12.095541723
 31
0
  0
LINE
  8
0
 62
7
 10
695.7390643915001
 20
12.095541723
 30
0
 11
710.7390649876001
 21
12.095541723
 31
0
  0
LINE
  8
0
 62
7
 10
710.7390649876001
 20
185.0955421402
 30
0
 11
710.7390649876001
 21
12.095541723
 31
0
  0
LINE
  8
0
 62
7
 10
695.7390643915001
 20
185.0955421402
 30
0
 11
695.7390643915001
 21
12.095541723
 31
0
  0
LINE
  8
0
 62
7
 10
664.7390686234
 20
191.5955404117
 30
0
 11
664.7390686234
 21
201.5955383255
 31
0
  0
LINE
  8
0
 62
7
 10
533.2229770979
 20
194.5955390408
 30
0
 11
533.2229770979
 21
191.5955404117
 31
0
  0
LINE
  8
0
 62
7
 10
662.2551568111001
 20
191.5955404117
 30
0
 11
662.2551568111001
 21
194.5955390408
 31
0
  0
LINE
  8
0
 62
7
 10
661.034625049472
 20
201.7470309807712
 30
0
 11
659.5649682244
 21
202.5955403521
 31
0
  0
LINE
  8
0
 62
7
 10
640.5649669727
 20
202.5955403521
 30
0
 11
639.0953138729
 21
201.7470309808
 31
0
  0
LINE
  8
0
 62
7
 10
656.064968582
 20
149.5955409779
 30
0
 11
656.064968582
 21
155.0955409481
 31
0
  0
LINE
  8
0
 62
7
 10
644.0649703404
 20
155.0955409481
 30
0
 11
644.0649703404
 21
149.5955409779
 31
0
  0
LINE
  8
0
 62
7
 10
556.3828200361
 20
201.7470309808
 30
0
 11
554.9131669362999
 21
202.5955403521
 31
0
  0
LINE
  8
0
 62
7
 10
535.9131656846
 20
202.5955403521
 30
0
 11
534.4435088595
 21
201.7470309808
 31
0
  0
LINE
  8
0
 62
7
 10
551.4131635686
 20
149.5955409779
 30
0
 11
551.4131635686
 21
155.0955409481
 31
0
  0
LINE
  8
0
 62
7
 10
539.413165327
 20
155.0955409481
 30
0
 11
539.413165327
 21
149.5955409779
 31
0
  0
LINE
  8
0
 62
7
 10
554.9131669362999
 20
155.0955409481
 30
0
 11
556.3828200361
 21
155.9440428688
 31
0
  0
LINE
  8
0
 62
7
 10
534.4435088595
 20
155.9440428688
 30
0
 11
535.9131656846
 21
155.0955409481
 31
0
  0
LINE
  8
0
 62
7
 10
659.5649682244
 20
155.0955409481
 30
0
 11
661.0346250495001
 21
155.9440428688
 31
0
  0
LINE
  8
0
 62
7
 10
639.0953138729
 20
155.9440428688
 30
0
 11
640.5649669727
 21
155.0955409481
 31
0
  0
LINE
  8
0
 62
7
 10
655.7390652856
 20
219.095543988
 30
0
 11
655.7390652856
 21
221.0955331399
 31
0
  0
LINE
  8
0
 62
7
 10
544.7390675804001
 20
221.0955331399
 30
0
 11
544.7390675804001
 21
219.5955375507
 31
0
  0
LINE
  8
0
 62
7
 10
650.7390663287
 20
202.5955403521
 30
0
 11
650.7390663287
 21
219.095543988
 31
0
  0
LINE
  8
0
 62
7
 10
467.7390717229
 20
42.0955391898
 30
0
 11
469.7390608748
 21
40.095538862
 31
0
  0
LINE
  8
0
 62
7
 10
469.7390608748
 20
144.0955410077
 30
0
 11
467.7390717229
 21
142.0955406799
 31
0
  0
LINE
  8
0
 62
7
 10
712.7390690407
 20
142.0955406799
 30
0
 11
710.7390649876001
 21
144.0955410077
 31
0
  0
LINE
  8
0
 62
7
 10
710.7390649876001
 20
40.095538862
 30
0
 11
712.7390690407
 21
42.0955391898
 31
0
  0
LINE
  8
0
 62
7
 10
525.739070054
 20
188.0955407693
 30
0
 11
525.739070054
 21
165.095538862
 31
0
  0
LINE
  8
0
 62
7
 10
669.7390638551
 20
165.095538862
 30
0
 11
669.7390638551
 21
188.0955407693
 31
0
  0
LINE
  8
0
 62
7
 10
484.7390689215
 20
185.0955421402
 30
0
 11
469.7390608748
 21
185.0955421402
 31
0
  0
LINE
  8
0
 62
7
 10
710.7390649876001
 20
185.0955421402
 30
0
 11
695.7390643915001
 21
185.0955421402
 31
0
  0
LINE
  8
0
 62
2
 10
814.2271684450501
 20
331.9033963297999
 30
0
 11
1024.44716087525
 21
331.9033963297999
 31
0
  0
LINE
  8
0
 62
2
 10
814.2271684450501
 20
341.9033967098
 30
0
 11
1024.44716087525
 21
341.9033967098
 31
0
  0
LINE
  8
0
 62
2
 10
954.37383006525
 20
351.9033970898
 30
0
 11
1024.44716087525
 21
351.9033970898
 31
0
  0
LINE
  8
0
 62
2
 10
989.4104954702501
 20
351.9033970898
 30
0
 11
989.4104954702501
 21
321.9033959498
 31
0
  0
LINE
  8
0
 62
2
 10
954.37383006525
 20
361.9033974697999
 30
0
 11
954.37383006525
 21
321.9033959498
 31
0
  0
LINE
  8
0
 62
2
 10
919.3371646602501
 20
361.9033974697999
 30
0
 11
919.3371646602501
 21
321.9033959498
 31
0
  0
LINE
  8
0
 62
2
 10
884.3004992550501
 20
361.9033974697999
 30
0
 11
884.3004992550501
 21
321.9033959498
 31
0
  0
LINE
  8
0
 62
2
 10
849.26383385005
 20
361.9033974697999
 30
0
 11
849.26383385005
 21
321.9033959498
 31
0
  0
LINE
  8
0
 62
2
 10
1024.44716087525
 20
361.9033974697999
 30
0
 11
814.2271684450501
 21
361.9033974697999
 31
0
  0
LINE
  8
0
 62
2
 10
1024.44716087525
 20
321.9033959498
 30
0
 11
1024.44716087525
 21
361.9033974697999
 31
0
  0
LINE
  8
0
 62
2
 10
814.2271684450501
 20
321.9033959498
 30
0
 11
1024.44716087525
 21
321.9033959498
 31
0
  0
LINE
  8
0
 62
2
 10
814.2271684450501
 20
361.9033974697999
 30
0
 11
814.2271684450501
 21
321.9033959498
 31
0
  0
ARC
  8
0
 62
7
 10
626.1308403945512
 20
117.1988966921404
 30
0
 40
2.147190060938212
 50
355.6966471358512
 51
44.16189573045116
  0
ARC
  8
0
 62
7
 10
626.0914815443288
 20
116.6193951282531
 30
0
 40
2.608222848219056
 50
52.72361893720861
 51
94.89802491501062
  0
ARC
  8
0
 62
7
 10
625.8947146821357
 20
116.1454271210693
 30
0
 40
3.07277565981068
 50
90.48350194389784
 51
148.8376597587008
  0
ARC
  8
0
 62
7
 10
621.2939178186343
 20
117.1719318881599
 30
0
 40
2.050375260158262
 50
15.95314683124231
 51
93.67393153824247
  0
ARC
  8
0
 62
7
 10
621.1883705312
 20
116.1455899296
 30
0
 40
3.072612076016451
 50
90.48179872780047
 51
148.8393629772002
  0
ARC
  8
0
 62
7
 10
621.0320697186207
 20
115.3902497522134
 30
0
 40
2.479825615840501
 50
135.6097729726727
 51
184.2537132353708
  0
ARC
  8
0
 62
7
 10
620.3694632319755
 20
115.9317256298021
 30
0
 40
1.629348426253874
 50
90.28110837102776
 51
132.915632549026
  0
ARC
  8
0
 62
7
 10
620.3726375228999
 20
116.5212553176
 30
0
 40
1.039859104498934
 50
48.44617710629821
 51
90.61537896560057
  0
ARC
  8
0
 62
7
 10
619.0481832908032
 20
116.445033172697
 30
0
 40
2.187930630976938
 50
357.2504497910702
 51
22.98550202087259
  0
ARC
  8
0
 62
7
 10
625.8373870368619
 20
115.3906395946818
 30
0
 40
2.478790389305131
 50
135.5989572650512
 51
184.2645289460509
  0
ARC
  8
0
 62
7
 10
625.174450011829
 20
115.948267461853
 30
0
 40
1.616314636855062
 50
93.7861396341689
 51
133.2786297361743
  0
ARC
  8
0
 62
7
 10
625.1297155840999
 20
116.393728318
 30
0
 40
1.168971195717205
 50
50.78449479699869
 51
93.04003510150056
  0
ARC
  8
0
 62
7
 10
624.404092843671
 20
116.361233902478
 30
0
 40
1.739398830579214
 50
356.4280075305906
 51
32.64086724109172
  0
ARC
  8
0
 62
7
 10
725.7390669545
 20
389.9995926532
 30
0
 40
200.0000000000006
 50
163.7791271864
 51
196.2208728136
  0
ARC
  8
0
 62
7
 10
597.7390669545
 20
261.9995926532
 30
0
 40
200.0000000000009
 50
73.7791271864
 51
90
  0
ARC
  8
0
 62
7
 10
597.7390669545
 20
517.9995926532
 30
0
 40
200.0000000000002
 50
264.4047725645
 51
270
  0
ARC
  8
0
 62
7
 10
651.4140145558
 20
377.9995926532
 30
0
 40
2.000000000000114
 50
90
 51
167.3977351585023
  0
ARC
  8
0
 62
7
 10
974.024823718
 20
188.196075187
 30
0
 40
14.39997724074834
 50
90.48319793270004
 51
109.7730350337999
  0
ARC
  8
0
 62
7
 10
983.5248243439
 20
188.196075187
 30
0
 40
14.39997724074834
 50
90.48319793270004
 51
109.7730350337557
  0
ARC
  8
0
 62
7
 10
869.3730160215
 20
188.1961115947
 30
0
 40
14.39994081164943
 50
90.48318847890013
 51
109.7730600451002
  0
ARC
  8
0
 62
7
 10
878.8730166474001
 20
188.1961115947
 30
0
 40
14.39994081164943
 50
90.48318847890013
 51
109.7730600450892
  0
ARC
  8
0
 62
7
 10
926.3274822697
 20
92.0955399348
 30
0
 40
93
 50
300.6592644657989
 51
239.3407355342012
  0
ARC
  8
0
 62
7
 10
972.3274785593
 20
221.0955368503001
 30
0
 40
7.000003084500991
 50
359.9999696299753
 51
89.99996962997578
  0
ARC
  8
0
 62
7
 10
880.3274859800499
 20
221.09553685025
 30
0
 40
7.000003084550984
 50
90.00003036961385
 51
180.0000303696145
  0
ARC
  8
0
 62
7
 10
611.6416032467537
 20
319.3545675144104
 30
0
 40
10.00000064043017
 50
45.00000311531456
 51
101.1332164981142
  0
ARC
  8
0
 62
7
 10
597.7390669545
 20
517.9995926532
 30
0
 40
200
 50
270
 51
286.2208728136
  0
ARC
  8
0
 62
7
 10
597.7390669545
 20
517.9995926532
 30
0
 40
200.0000000000003
 50
253.7791271864
 51
262.0967922665
  0
ARC
  8
0
 62
7
 10
583.8365313194
 20
319.3545680378
 30
0
 40
9.999999999999949
 50
78.86678661720006
 51
124.0382639507003
  0
ARC
  8
0
 62
7
 10
538.014700068
 20
366.9995926532
 30
0
 40
2
 50
270
 51
21.06181760159993
  0
ARC
  8
0
 62
7
 10
668.3840920932896
 20
376.0970563609465
 30
0
 40
10.00000064043027
 50
168.8667835018873
 51
224.9999968846864
  0
ARC
  8
0
 62
7
 10
538.014700068
 20
412.9995926532
 30
0
 40
2.000000000000046
 50
338.9381823984001
 51
90
  0
ARC
  8
0
 62
7
 10
469.7390669545
 20
389.9995926532
 30
0
 40
200.0000000000005
 50
343.7791271864
 51
16.22087281360002
  0
ARC
  8
0
 62
7
 10
668.3840920931957
 20
403.9021289454036
 30
0
 40
10.0000006403284
 50
135.0000031151363
 51
191.1332164979365
  0
ARC
  8
0
 62
7
 10
611.6416025896
 20
460.6446172686
 30
0
 40
10
 50
258.8667866172001
 51
314.9999999999998
  0
ARC
  8
0
 62
7
 10
583.8365313194
 20
460.6446172686
 30
0
 40
10.00000000000004
 50
224.9999999999998
 51
281.1332133827999
  0
ARC
  8
0
 62
7
 10
597.7390669545
 20
261.9995926532
 30
0
 40
200
 50
90
 51
106.2208728136
  0
ARC
  8
0
 62
7
 10
597.7390669545
 20
389.9995926532
 30
0
 40
62.0000000000002
 50
196.4560541826
 51
207.7897515168
  0
ARC
  8
0
 62
7
 10
534.0432313398139
 20
356.4311472714471
 30
0
 40
10.00000000000557
 50
300.5420180350813
 51
27.78975151687919
  0
ARC
  8
0
 62
7
 10
545.2229736454843
 20
337.4834993441419
 30
0
 40
11.99999999995605
 50
120.5420180350372
 51
329.4579819650379
  0
ARC
  8
0
 62
7
 10
564.1706215728
 20
326.3037570385
 30
0
 40
10.00000000000003
 50
62.2102484832004
 51
149.4579819649997
  0
ARC
  8
0
 62
7
 10
597.7390669545
 20
389.9995926532
 30
0
 40
62.00000000000006
 50
251.6683945757
 51
297.7897515168
  0
ARC
  8
0
 62
7
 10
631.3075123362123
 20
326.3037570385262
 30
0
 40
9.999999999976104
 50
30.54201803490671
 51
117.789751516706
  0
ARC
  8
0
 62
7
 10
650.2551602635156
 20
337.4834993441419
 30
0
 40
11.99999999995598
 50
210.5420180349624
 51
59.45798196496277
  0
ARC
  8
0
 62
7
 10
661.4349025692118
 20
356.4311472714595
 30
0
 40
10.00000000002946
 50
152.2102484830264
 51
239.4579819648275
  0
ARC
  8
0
 62
7
 10
597.7390669546098
 20
389.9995926531852
 30
0
 40
61.99999999988925
 50
332.2102484832013
 51
352.9700120678012
  0
ARC
  8
0
 62
7
 10
597.7390669545
 20
389.9995926532
 30
0
 40
62.00000000000021
 50
152.2102484832
 51
163.5439458174
  0
ARC
  8
0
 62
7
 10
597.7390669545
 20
389.9995926532
 30
0
 40
62.00000000000011
 50
62.21024848319999
 51
117.7897515168
  0
ARC
  8
0
 62
7
 10
545.2229736454921
 20
442.5156859622286
 30
0
 40
11.9999999999924
 50
30.54201803486297
 51
239.4579819648624
  0
ARC
  8
0
 62
7
 10
597.7390669546101
 20
389.9995926532147
 30
0
 40
61.99999999988899
 50
7.029987932198988
 51
27.78975151679892
  0
ARC
  8
0
 62
7
 10
661.4349025692
 20
423.5680380349
 30
0
 40
10.00000000000009
 50
120.5420180349999
 51
207.7897515168
  0
ARC
  8
0
 62
7
 10
650.2551602635081
 20
442.5156859622285
 30
0
 40
11.99999999999247
 50
300.542018035137
 51
149.4579819651366
  0
ARC
  8
0
 62
7
 10
631.307512336203
 20
453.6954282678332
 30
0
 40
9.999999999935678
 50
242.2102484832329
 51
329.4579819650336
  0
ARC
  8
0
 62
7
 10
564.170621572797
 20
453.6954282678332
 30
0
 40
9.99999999993555
 50
210.5420180349667
 51
297.7897515167671
  0
ARC
  8
0
 62
7
 10
534.0432313398262
 20
423.5680380349126
 30
0
 40
9.999999999975962
 50
332.2102484832923
 51
59.4579819650929
  0
ARC
  8
0
 62
7
 10
656.7390669545
 20
389.9995926532
 30
0
 40
5.249999999999959
 50
256.5054122687002
 51
90
  0
ARC
  8
0
 62
7
 10
597.7390669545
 20
389.9995926532
 30
0
 40
54.50000000000006
 50
249.0349647653
 51
349.4243970970381
  0
ARC
  8
0
 62
7
 10
597.7390669545
 20
389.9995926532
 30
0
 40
54.50000000000001
 50
195.6921034790999
 51
243.2857429566
  0
ARC
  8
0
 62
7
 10
656.7390669545
 20
389.9995926532
 30
0
 40
7.999999999999991
 50
258.9458122641998
 51
101.0541877358001
  0
ARC
  8
0
 62
7
 10
597.7390669545
 20
389.9995926532
 30
0
 40
54.50000000000005
 50
10.57560290296213
 51
164.3078965208999
  0
ARC
  8
0
 62
7
 10
656.7390669545
 20
389.9995926532
 30
0
 40
5.000000000000018
 50
261.3730734413003
 51
98.62692655869958
  0
ARC
  8
0
 62
7
 10
537.2390672823001
 20
377.7995928885999
 30
0
 40
2.00000032780008
 50
180
 51
270
  0
ARC
  8
0
 62
7
 10
537.23906728235
 20
402.19959241775
 30
0
 40
2.000000327849989
 50
90.00000000143304
 51
180.000000001433
  0
ARC
  8
0
 62
7
 10
543.0091848059
 20
409.1995926532
 30
0
 40
5
 50
270
 51
340.6684235941
  0
ARC
  8
0
 62
7
 10
543.0091848059
 20
370.7995926532
 30
0
 40
4.999999999999971
 50
19.33157640589994
 51
90
  0
ARC
  8
0
 62
7
 10
653.1646927967
 20
397.9995926532
 30
0
 40
1.999999999999962
 50
8.213210701700268
 51
90
  0
ARC
  8
0
 62
7
 10
597.7390669545
 20
389.9995926532
 30
0
 40
58.00000000000001
 50
351.7867892983
 51
8.213210701699941
  0
ARC
  8
0
 62
7
 10
651.4140145558
 20
401.9995926532
 30
0
 40
2.000000000000134
 50
192.6022648414993
 51
270
  0
ARC
  8
0
 62
7
 10
653.1646927967
 20
381.9995926532
 30
0
 40
2
 50
270
 51
351.7867892982981
  0
ARC
  8
0
 62
7
 10
628.8985867128
 20
404.7945214261
 30
0
 40
1.194631595999167
 50
84.76144147939901
 51
135.0970713792993
  0
ARC
  8
0
 62
7
 10
628.9299791026
 20
401.9617609548
 30
0
 40
1.18165332419235
 50
105.940291767401
 51
183.6867152255998
  0
ARC
  8
0
 62
7
 10
629.9406057977
 20
401.7645730384
 30
0
 40
1.385068396597398
 50
224.7754297649985
 51
275.0881189960979
  0
ARC
  8
0
 62
7
 10
629.9406067939
 20
404.5353121929
 30
0
 40
1.385068784736998
 50
224.7753874393996
 51
275.0880761944992
  0
ARC
  8
0
 62
7
 10
628.9299773180001
 20
410.9617618256
 30
0
 40
1.181651624168547
 50
105.9402253178997
 51
183.686781675101
  0
ARC
  8
0
 62
7
 10
628.8985899334
 20
413.7945140188
 30
0
 40
1.194640147378457
 50
84.76163419049995
 51
135.0968786681998
  0
ARC
  8
0
 62
7
 10
629.9406092101
 20
410.7645819918
 30
0
 40
1.385077397992256
 50
224.7756046358998
 51
275.0879441251981
  0
ARC
  8
0
 62
7
 10
629.9406075729
 20
413.5353116894
 30
0
 40
1.385068600028191
 50
224.7753339849999
 51
275.0880445219
  0
ARC
  8
0
 62
7
 10
685.7393348813
 20
342.0028391272
 30
0
 40
9.999732166218999
 50
0.04175960239980822
 51
90.02446231769986
  0
ARC
  8
0
 62
7
 10
685.7393279322999
 20
437.9963494422
 30
0
 40
9.9997391175655
 50
269.8669745552002
 51
359.9582217304995
  0
ARC
  8
0
 62
7
 10
499.6845795442295
 20
436.5259299665304
 30
0
 40
14.94563958504111
 50
179.7619807899494
 51
291.2141409489494
  0
ARC
  8
0
 62
7
 10
499.7436928767143
 20
343.3838010738722
 30
0
 40
15.00464901463499
 50
68.46463700765715
 51
179.8952847664565
  0
ARC
  8
0
 62
7
 10
658.4054823644
 20
197.3733874859
 30
0
 40
5.223381167348307
 50
91.24257530829969
 51
123.1417694052001
  0
ARC
  8
0
 62
7
 10
641.95099751
 20
197.3734017709
 30
0
 40
5.223366874051249
 50
91.24257277729943
 51
123.1418158909208
  0
ARC
  8
0
 62
7
 10
537.299197378
 20
197.3733859939
 30
0
 40
5.223382753119219
 50
91.24262255660031
 51
123.1417661110001
  0
ARC
  8
0
 62
7
 10
553.7536768103
 20
197.3734017709
 30
0
 40
5.223366874051249
 50
91.24257277729943
 51
123.1418158902996
  0
ARC
  8
0
 62
7
 10
537.0726428466001
 20
160.3177603313
 30
0
 40
5.223447857330053
 50
271.2426548719003
 51
303.1414057186996
  0
ARC
  8
0
 62
7
 10
545.2837133297528
 20
174.0839102193281
 30
0
 40
18.98881053817531
 50
270.3906072408103
 51
287.19727006121
  0
ARC
  8
0
 62
7
 10
658.178927833
 20
160.3177618234
 30
0
 40
5.223449443231904
 50
271.2427021201001
 51
303.1414024242997
  0
ARC
  8
0
 62
7
 10
649.9355167466
 20
174.0838964596
 30
0
 40
18.98879676419449
 50
270.390601101
 51
287.1972762004002
  0
ARC
  8
0
 62
7
 10
539.2390669545
 20
201.5955399348
 30
0
 40
1.600000000000105
 50
38.68218745350077
 51
141.3178125464992
  0
ARC
  8
0
 62
7
 10
537.2390683105
 20
212.5955409630001
 30
0
 40
2.000001356000163
 50
90.00002945574077
 51
180.0000294557432
  0
ARC
  8
0
 62
7
 10
575.7390669134001
 20
217.095541981
 30
0
 40
3.00000033142239
 50
14.14480472840074
 51
180.0000390790995
  0
ARC
  8
0
 62
7
 10
507.4104286897
 20
141.5955399348
 30
0
 40
20
 50
270
 51
342.9665898339001
  0
ARC
  8
0
 62
7
 10
685.7390669545
 20
157.8901551266
 30
0
 40
9.999999999999991
 50
299.8187173092002
 51
0
  0
ARC
  8
0
 62
7
 10
663.4455646142
 20
139.3499741615
 30
0
 40
5.000090454698832
 50
190.2450327904001
 51
299.8242605658008
  0
ARC
  8
0
 62
7
 10
657.011514987168
 20
52.72764911019939
 30
0
 40
5.002328027524268
 50
55.18794661929244
 51
179.7834669680916
  0
ARC
  8
0
 62
7
 10
685.7390669545
 20
26.8445641046
 30
0
 40
10
 50
0
 51
55.40771131250016
  0
ARC
  8
0
 62
7
 10
522.4609566287001
 20
121.0499221159
 30
0
 40
2.999732248067364
 50
242.924802932199
 51
4.117727917099166
  0
ARC
  8
0
 62
7
 10
507.7234877289
 20
92.0133202018
 30
0
 40
29.5627961085159
 50
63.11070457780005
 51
90.59781928511869
  0
ARC
  8
0
 62
7
 10
655.0696246844
 20
68.47136598260001
 30
0
 40
3.060412697349811
 50
54.47347314989957
 51
179.8485237352001
  0
ARC
  8
0
 62
7
 10
685.6906393782
 20
47.5167612859
 30
0
 40
10.04842795860517
 50
359.9561315650999
 51
68.91000397650011
  0
ARC
  8
0
 62
7
 10
685.6981975463036
 20
137.0996410241903
 30
0
 40
10.04087324267511
 50
287.821480198155
 51
0.06467799365554411
  0
ARC
  8
0
 62
7
 10
499.7390669545
 20
136.5955399348
 30
0
 40
15
 50
180
 51
270
  0
ARC
  8
0
 62
7
 10
499.7390669545
 20
44.7325621642
 30
0
 40
14.99999999999998
 50
64.97804313450017
 51
180
  0
ARC
  8
0
 62
7
 10
617.6076425998755
 20
51.06691767536441
 30
0
 40
34.55096091764719
 50
286.5207628001269
 51
306.8583777328267
  0
ARC
  8
0
 62
7
 10
536.2755667761001
 20
102.2994006478
 30
0
 40
0.3906235442755813
 50
106.6854420001019
 51
183.7699948291929
  0
ARC
  8
0
 62
7
 10
597.4888913118444
 20
118.1367542159287
 30
0
 40
104.3861542199417
 50
233.9393284777071
 51
247.3139406056071
  0
ARC
  8
0
 62
7
 10
597.9189521794402
 20
118.0623409522007
 30
0
 40
104.4714507279197
 50
253.3847576269062
 51
268.4860535736062
  0
ARC
  8
0
 62
7
 10
601.9562881102
 20
64.0641075186
 30
0
 40
3.992947089512236
 50
354.0577791756001
 51
38.02208170270028
  0
ARC
  8
0
 62
7
 10
601.796078636
 20
64.1214661181
 30
0
 40
3.268005070036088
 50
351.7181845878999
 51
35.5357890227003
  0
ARC
  8
0
 62
7
 10
601.5714548561
 20
63.2490534907
 30
0
 40
3.481796558352738
 50
326.9940344161
 51
6.624756539199963
  0
ARC
  8
0
 62
7
 10
678.7411943817
 20
142.0400057151
 30
0
 40
20.5304237022065
 50
190.0404359818
 51
239.2310183629
  0
ARC
  8
0
 62
7
 10
691.9718921261257
 20
123.4700142501049
 30
0
 40
63.17257280383617
 50
236.2204095945458
 51
251.8846306359458
  0
ARC
  8
0
 62
7
 10
574.1791352633001
 20
112.3411038292
 30
0
 40
5.178082238899341
 50
179.8011176871995
 51
229.7617174097001
  0
ARC
  8
0
 62
7
 10
574.248607761052
 20
113.0701200655632
 30
0
 40
5.794552577722782
 50
233.897331787412
 51
273.6101229113132
  0
ARC
  8
0
 62
7
 10
574.7455611116
 20
113.4301445054
 30
0
 40
6.14449834097848
 50
268.7682144038004
 51
307.7693462502001
  0
ARC
  8
0
 62
7
 10
574.6394283218558
 20
113.2275038448391
 30
0
 40
6.052894280975472
 50
309.7387284867284
 51
2.269439194727863
  0
ARC
  8
0
 62
7
 10
575.2984698405001
 20
113.8336732507
 30
0
 40
5.401552010202988
 50
356.1096351590005
 51
48.82839394220033
  0
ARC
  8
0
 62
7
 10
575.9562842200346
 20
114.2764067354322
 30
0
 40
4.639712160609263
 50
51.34475783354809
 51
90.99776631954947
  0
ARC
  8
0
 62
7
 10
575.7203771053
 20
113.4815139872
 30
0
 40
5.436114867075481
 50
88.36490321900025
 51
131.8590238722994
  0
ARC
  8
0
 62
7
 10
575.3533783055
 20
113.442567135
 30
0
 40
3.903372850243618
 50
90.77013196050072
 51
149.7940922310005
  0
ARC
  8
0
 62
7
 10
575.3400509988604
 20
114.8599857906284
 30
0
 40
2.485909696500688
 50
50.98645367652827
 51
90.90209064943107
  0
ARC
  8
0
 62
7
 10
574.0480380563402
 20
113.9472884305143
 30
0
 40
4.031328536216693
 50
353.1603253006591
 51
44.87275669195974
  0
ARC
  8
0
 62
7
 10
573.4421423710001
 20
113.0798544344
 30
0
 40
4.624783142204292
 50
314.3629295985995
 51
4.804289983800164
  0
ARC
  8
0
 62
7
 10
574.6563950987337
 20
112.1605488070572
 30
0
 40
3.12667105676992
 50
271.3444767520011
 51
310.230382246702
  0
ARC
  8
0
 62
7
 10
574.5951049277021
 20
112.2675941562673
 30
0
 40
3.235658630155393
 50
235.8835231451169
 51
272.3850623189192
  0
ARC
  8
0
 62
7
 10
574.9863374417
 20
112.1232366786
 30
0
 40
3.360059871472286
 50
175.9751267777995
 51
228.9628960791995
  0
ARC
  8
0
 62
7
 10
567.3160070206341
 20
125.3986714866838
 30
0
 40
42.0666199417164
 50
165.7732616507423
 51
185.6388240362422
  0
ARC
  8
0
 62
7
 10
594.2608427685129
 20
115.322270255136
 30
0
 40
9.526677681269197
 50
173.9290175366098
 51
225.1095498652098
  0
ARC
  8
0
 62
7
 10
591.1124063962
 20
112.8993032713
 30
0
 40
5.612278607487026
 50
230.4311468681995
 51
269.7798644921003
  0
ARC
  8
0
 62
7
 10
591.0906103085173
 20
112.8309153430193
 30
0
 40
5.543849260915552
 50
270.0024107928137
 51
309.8219029483128
  0
ARC
  8
0
 62
7
 10
587.5246723469005
 20
115.4614997152045
 30
0
 40
9.904137151362244
 50
315.9317331629795
 51
5.029698670579314
  0
ARC
  8
0
 62
7
 10
588.021246599247
 20
117.293850691209
 30
0
 40
9.418890825161554
 50
354.1254225712113
 51
45.34734578481101
  0
ARC
  8
0
 62
7
 10
591.0664916456
 20
119.6994961185
 30
0
 40
5.587621327817272
 50
50.23032106310034
 51
89.75029319240034
  0
ARC
  8
0
 62
7
 10
591.1035517309315
 20
119.7220392893561
 30
0
 40
5.565039601522879
 50
90.13083904085934
 51
129.8530775436592
  0
ARC
  8
0
 62
7
 10
586.6288460889313
 20
115.2342284226444
 30
0
 40
8.201850040773273
 50
316.5033508698244
 51
7.676407975224927
  0
ARC
  8
0
 62
7
 10
591.0704655461068
 20
111.3639195067801
 30
0
 40
2.329270115736664
 50
270.5012685403373
 51
310.3507987984374
  0
ARC
  8
0
 62
7
 10
591.1153612841721
 20
111.3843825895102
 30
0
 40
2.3497719697692
 50
229.8317704071176
 51
269.402160345016
  0
ARC
  8
0
 62
7
 10
596.0109607385911
 20
115.3790341593054
 30
0
 40
8.638947128517183
 50
173.6813623456876
 51
222.086224112187
  0
ARC
  8
0
 62
7
 10
595.818025633063
 20
117.2639420935166
 30
0
 40
8.445352223859382
 50
137.4175244690389
 51
186.3503814929395
  0
ARC
  8
0
 62
7
 10
591.1071490587674
 20
121.2050112144488
 30
0
 40
2.327599131584857
 50
90.40137631366454
 51
130.3646929321652
  0
ARC
  8
0
 62
7
 10
591.0661296214
 20
121.1917295042
 30
0
 40
2.340954187737431
 50
49.75282763639951
 51
89.39510502450101
  0
ARC
  8
0
 62
7
 10
586.3177541063046
 20
117.2457012224258
 30
0
 40
8.488991844088137
 50
353.8062502205944
 51
42.47908916959435
  0
ARC
  8
0
 62
7
 10
612.0321137159513
 20
117.1988966921404
 30
0
 40
2.147190060938212
 50
355.6966471358512
 51
44.16189573045116
  0
ARC
  8
0
 62
7
 10
611.9927548657288
 20
116.6193951282531
 30
0
 40
2.608222848219056
 50
52.72361893720861
 51
94.89802491501062
  0
ARC
  8
0
 62
7
 10
611.7959880035357
 20
116.1454271210693
 30
0
 40
3.07277565981068
 50
90.48350194389784
 51
148.8376597587008
  0
ARC
  8
0
 62
7
 10
607.1951911400344
 20
117.1719318881599
 30
0
 40
2.050375260158262
 50
15.95314683124231
 51
93.67393153824247
  0
ARC
  8
0
 62
7
 10
607.0896438526
 20
116.1455899296
 30
0
 40
3.072612076016451
 50
90.48179872780047
 51
148.8393629772002
  0
ARC
  8
0
 62
7
 10
606.9333430400208
 20
115.3902497522134
 30
0
 40
2.479825615840501
 50
135.6097729726727
 51
184.2537132353708
  0
ARC
  8
0
 62
7
 10
606.2707365533755
 20
115.9317256298021
 30
0
 40
1.629348426253874
 50
90.28110837102776
 51
132.915632549026
  0
ARC
  8
0
 62
7
 10
606.2739108443
 20
116.5212553176
 30
0
 40
1.039859104498934
 50
48.44617710629821
 51
90.61537896560057
  0
ARC
  8
0
 62
7
 10
604.9494566122032
 20
116.445033172697
 30
0
 40
2.187930630976938
 50
357.2504497910702
 51
22.98550202087259
  0
ARC
  8
0
 62
7
 10
611.7386603582619
 20
115.3906395946818
 30
0
 40
2.478790389305131
 50
135.5989572650512
 51
184.2645289460509
  0
ARC
  8
0
 62
7
 10
611.075723333229
 20
115.948267461853
 30
0
 40
1.616314636855062
 50
93.7861396341689
 51
133.2786297361743
  0
ARC
  8
0
 62
7
 10
611.0309889055
 20
116.393728318
 30
0
 40
1.168971195717205
 50
50.78449479699869
 51
93.04003510150056
  0
ARC
  8
0
 62
7
 10
610.3053661650711
 20
116.361233902478
 30
0
 40
1.739398830579214
 50
356.4280075305906
 51
32.64086724109172
  0
ARC
  8
0
 62
7
 10
539.7390684606648
 20
219.5955390560058
 30
0
 40
4.999999119735581
 50
270.0559358291187
 51
359.999982750463
  0
ARC
  8
0
 62
7
 10
643.7390669545
 20
221.0955399348
 30
0
 40
7
 50
0
 51
90
  0
ARC
  8
0
 62
7
 10
551.7390706649001
 20
221.0955368503001
 30
0
 40
7.000003084500877
 50
90.00003037002422
 51
180.0000303700247
  0
ARC
  8
0
 62
7
 10
597.5919586108942
 20
118.1072411235426
 30
0
 40
104.5154330348638
 50
271.4953357497185
 51
286.5896164769185
  0
ARC
  8
0
 62
7
 10
615.9289491466446
 20
51.72231508960263
 30
0
 40
36.0948085412204
 50
308.3665908928454
 51
1.626063246145355
  0
ARC
  8
0
 62
7
 10
555.970239905123
 20
127.2330530099925
 30
0
 40
30.64083974958393
 50
122.7081276587285
 51
163.8868671217286
  0
ARC
  8
0
 62
7
 10
869.1301466038999
 20
188.1961115947
 30
0
 40
14.39994081164944
 50
70.22693995491042
 51
89.51681152109987
  0
ARC
  8
0
 62
7
 10
878.6301472297004
 20
188.1961115947
 30
0
 40
14.39994081164943
 50
70.22693995489983
 51
89.51681152109987
  0
ARC
  8
0
 62
7
 10
973.7819414836
 20
188.196075187
 30
0
 40
14.39997724074833
 50
70.22696496624391
 51
89.51680206729996
  0
ARC
  8
0
 62
7
 10
983.2819421093998
 20
188.196075187
 30
0
 40
14.39997724074827
 50
70.22696496620009
 51
89.51680206729996
  0
ARC
  8
0
 62
7
 10
641.7244570986998
 20
197.3734017709
 30
0
 40
5.223366874051282
 50
56.85818410970041
 51
88.75742722270057
  0
ARC
  8
0
 62
7
 10
658.1789371465001
 20
197.3733874859
 30
0
 40
5.223381167348338
 50
56.85823059479986
 51
88.75742469170032
  0
CIRCLE
  8
0
 62
2
  6
DASHDOT
 10
926.3274822697
 20
92.0955399348
 30
0
 40
71.50000000000011
  0
CIRCLE
  8
0
 62
7
 10
545.4131651467
 20
442.325494461
 30
0
 40
9.500000000000091
  0
CIRCLE
  8
0
 62
7
 10
650.0649687623001
 20
442.325494461
 30
0
 40
9.500000000000091
  0
CIRCLE
  8
0
 62
7
 10
650.0649687623001
 20
337.6736908454
 30
0
 40
9.500000000000091
  0
CIRCLE
  8
0
 62
7
 10
545.4131651467
 20
337.6736908454
 30
0
 40
9.499999999999991
  0
CIRCLE
  8
0
 62
7
 10
597.7390669545
 20
389.9995926532
 30
0
 40
52.99999999999997
  0
CIRCLE
  8
0
 62
7
 10
977.1771850456
 20
142.3604156196
 30
0
 40
9.500000000000227
  0
CIRCLE
  8
0
 62
7
 10
977.1771850456
 20
41.8306642501
 30
0
 40
9.5
  0
CIRCLE
  8
0
 62
7
 10
875.4777794938
 20
142.3604156196
 30
0
 40
9.500000000000227
  0
CIRCLE
  8
0
 62
7
 10
875.4777794938
 20
41.8306642501
 30
0
 40
9.499999999999886
  0
CIRCLE
  8
0
 62
7
 10
926.3274822697
 20
92.0955399348
 30
0
 40
25
  0
CIRCLE
  8
0
 62
7
 10
926.3274822697
 20
92.0955399348
 30
0
 40
33
  0
CIRCLE
  8
0
 62
7
 10
926.3274822697
 20
92.0955399348
 30
0
 40
27
  0
CIRCLE
  8
0
 62
7
 10
926.3274822697
 20
92.0955399348
 30
0
 40
33.5
  0
CIRCLE
  8
0
 62
7
 10
926.3274822697
 20
92.0955399348
 30
0
 40
34
  0
CIRCLE
  8
0
 62
7
 10
926.3274822697
 20
92.0955399348
 30
0
 40
41.5
  0
CIRCLE
  8
0
 62
7
 10
926.3274822697
 20
92.0955399348
 30
0
 40
42
  0
CIRCLE
  8
0
 62
7
 10
926.3274822697
 20
92.0955399348
 30
0
 40
52
  0
CIRCLE
  8
0
 62
7
 10
926.3274822697
 20
92.0955399348
 30
0
 40
50
  0
CIRCLE
  8
0
 62
7
 10
926.3274822697
 20
92.0955399348
 30
0
 40
42.5
  0
CIRCLE
  8
0
 62
7
 10
575.7390669545
 20
216.5955399348
 30
0
 40
2.5
  0
CIRCLE
  8
0
 62
7
 10
521.6746685970001
 20
123.0298831732
 30
0
 40
1.250000000000114
  0
DIMENSION
  8
1
  6
CONTINUOUS
 62
2
  2
*D0
  3
DMST_1
 10
739.658520951495
 20
12.095541723
 30
0
 11
737.058520951495
 21
50.728398821587
 31
0
 12
0
 22
0
 32
0
 70
128
 13
725.7390669545
 23
92.0955399348
 33
0
 14
637.7390660604
 24
12.095541723
 34
0
 50
90
 53
0
  0
DIMENSION
  8
1
  6
CONTINUOUS
 62
2
  2
*D1
  3
DMST_1
 10
756.7390669545
 20
461.9995926532
 30
0
 11
754.1390669545
 21
389.9995926532
 31
0
 12
0
 22
0
 32
0
 70
129
 13
597.7390669545
 23
317.9995926532
 33
0
 14
597.7390669545
 24
461.9995926532
 34
0
 53
0
  0
DIMENSION
  8
1
  6
CONTINUOUS
 62
2
  2
*D2
  3
DMST_1
 10
756.7390669545
 20
12.095541723
 30
0
 11
754.1390669545
 21
120.5955380871
 31
0
 12
0
 22
0
 32
0
 70
128
 13
634.7390674313
 23
229.0955344512
 33
0
 14
637.7390660604
 24
12.095541723
 34
0
 50
90
 53
0
  0
DIMENSION
  8
1
  6
CONTINUOUS
 62
2
  2
*D3
  3
DMST_1
 10
597.7390669545
 20
-12.0823850705
 30
0
 11
655.2390679975999
 21
-9.482385070500001
 31
0
 12
0
 22
0
 32
0
 70
128
 13
712.7390690407
 23
42.0955391898
 33
0
 14
597.7390669545
 24
-0.9876316213
 34
0
 53
0
  0
DIMENSION
  8
1
  6
CONTINUOUS
 62
2
  2
*D4
  3
DMST_1
 10
712.7390690407
 20
-24.0823850706
 30
0
 11
597.7390669545
 21
-21.4823850706
 31
0
 12
0
 22
0
 32
0
 70
129
 13
467.7390717229
 23
42.0955391898
 33
0
 14
712.7390690407
 24
42.0955391898
 34
0
 53
0
  0
DIMENSION
  8
1
  6
CONTINUOUS
 62
2
  2
*D5
  3
DMST_1
 10
467.7390717229
 20
-12.0823850705
 30
0
 11
532.7390693387
 21
-9.482385070500001
 31
0
 12
0
 22
0
 32
0
 70
128
 13
597.7390669545
 23
-0.9876316213
 33
0
 14
467.7390717229
 24
42.0955391898
 34
0
 53
0
  0
ENDSEC
  0
EOF
