  0
SECTION
  2
HEADER
  9
$ACADVER
  1
AC1009
  9
$INSBASE
 10
0
 20
0
  9
$EXTMIN
 10
1521.50205771267
 20
20.73744419182945
  9
$EXTMAX
 10
1741.956941808895
 20
352.9248669012094
  9
$LIMMIN
 10
1521.50205771267
 20
20.73744419182945
  9
$LIMMAX
 10
1741.956941808895
 20
352.9248669012094
  9
$VIEWCTR
 10
10
 20
10
  9
$VIEWSIZE
 40
10
  9
$SNAPMODE
 70
0
  9
$SNAPUNIT
 10
1
 20
1
  9
$SNAPBASE
 10
0
 20
0
  9
$SNAPANG
 50
0
  9
$SNAPSTYLE
 70
0
  9
$SNAPISOPAIR
 70
0
  9
$GRIDMODE
 70
0
  9
$GRIDUNIT
 10
0
 20
0
  9
$ORTHOMODE
 70
0
  9
$REGENMODE
 70
1
  9
$FILLMODE
 70
1
  9
$QTEXTMODE
 70
0
  9
$DRAGMODE
 70
2
  9
$LTSCALE
 40
1
  9
$OSMODE
 70
0
  9
$ATTMODE
 70
1
  9
$TEXTSIZE
 40
3.5
  9
$TRACEWID
 40
0.5
  9
$TEXTSTYLE
  7
STANDARD
  9
$CLAYER
  8
0
  9
$CELTYPE
  6
BYLAYER
  9
$CECOLOR
 62
256
  9
$DIMSCALE
 40
1
  9
$DIMASZ
 40
0.18
  9
$DIMEXO
 40
0.0625
  9
$DIMDLI
 40
0.38
  9
$DIMRND
 40
0
  9
$DIMDLE
 40
0
  9
$DIMEXE
 40
0.18
  9
$DIMTP
 40
0
  9
$DIMTM
 40
0
  9
$DIMTXT
 40
0.18
  9
$DIMCEN
 40
0.09
  9
$DIMTSZ
 40
0
  9
$DIMTOL
 70
0
  9
$DIMLIM
 70
0
  9
$DIMTIH
 70
1
  9
$DIMTOH
 70
1
  9
$DIMSE1
 70
0
  9
$DIMSE2
 70
0
  9
$DIMTAD
 70
0
  9
$DIMZIN
 70
0
  9
$DIMBLK
  1

  9
$DIMASO
 70
1
  9
$DIMSHO
 70
1
  9
$DIMPOST
  1

  9
$DIMAPOST
  1

  9
$DIMALT
 70
0
  9
$DIMALTD
 70
2
  9
$DIMALTF
 40
25.4
  9
$DIMLFAC
 40
1
  9
$DIMTOFL
 70
0
  9
$DIMTVP
 40
0
  9
$DIMTIX
 70
0
  9
$DIMSOXD
 70
0
  9
$DIMSAH
 70
0
  9
$DIMBLK1
  1

  9
$DIMBLK2
  1

  9
$DIMSTYLE
  2
*UNNAMED
  9
$DIMCLRD
 70
0
  9
$DIMCLRE
 70
0
  9
$DIMCLRT
 70
0
  9
$DIMTFAC
 40
1
  9
$DIMGAP
 40
0.09
  9
$LUNITS
 70
2
  9
$LUPREC
 70
4
  9
$AXISMODE
 70
0
  9
$AXISUNIT
 10
0
 20
0
  9
$SKETCHINC
 40
0.1
  9
$FILLETRAD
 40
2
  9
$AUNITS
 70
0
  9
$AUPREC
 70
0
  9
$MENU
  1
ACAD
  9
$ELEVATION
 40
0
  9
$THICKNESS
 40
0
  9
$VIEWDIR
 10
0
 20
0
 30
1
  9
$LIMCHECK
 70
0
  9
$BLIPMODE
 70
1
  9
$CHAMFERA
 40
0
  9
$CHAMFERB
 40
0
  9
$FASTZOOM
 70
1
  9
$SKPOLY
 70
0
  9
$ANGBASE
 50
0
  9
$ANGDIR
 70
0
  9
$PDMODE
 70
0
  9
$PDSIZE
 40
0
  9
$PLINEWID
 40
0
  9
$COORDS
 70
2
  0
ENDSEC
  0
SECTION
  2
TABLES
  0
TABLE
  2
DIMSTYLE
 70
3
  0
DIMSTYLE
  2
DMST_1
 70
0
  3

  4

  5

  6

  7

 40
1
 41
3.2
 42
0.5
 43
7
 44
1.5
 45
0
 46
0
 47
0
 48
0
140
3.2
141
0
142
0
143
25.4
144
1
145
0
146
1
147
0.09
 71
0
 72
0
 73
0
 74
0
 75
0
 76
0
 77
1
 78
9
170
0
171
2
172
0
173
0
174
0
175
0
176
2
177
2
178
2
  0
DIMSTYLE
  2
DMST_2
 70
0
  3

  4

  5

  6

  7

 40
1
 41
3
 42
0.5
 43
7
 44
0.9999999999999998
 45
0
 46
0
 47
0
 48
0
140
3
141
0
142
0
143
25.4
144
1
145
0
146
1
147
0.09
 71
0
 72
0
 73
0
 74
0
 75
0
 76
0
 77
1
 78
9
170
0
171
2
172
0
173
0
174
0
175
0
176
2
177
2
178
2
  0
DIMSTYLE
  2
DMST_3
 70
0
  3

  4

  5

  6

  7

 40
1
 41
2.5
 42
0.5
 43
7
 44
0.9999999999999998
 45
0
 46
0
 47
0
 48
0
140
2.5
141
0
142
0
143
25.4
144
1
145
0
146
1
147
0.09
 71
0
 72
0
 73
0
 74
0
 75
0
 76
0
 77
1
 78
9
170
0
171
2
172
0
173
0
174
0
175
0
176
2
177
2
178
2
  0
ENDTAB
  0
TABLE
  2
LTYPE
 70
9
  0
LTYPE
  2
CONTINUOUS
 70
64
  3
Solid line
 72
65
 73
0
 40
0
  0
LTYPE
  2
BORDER
 70
64
  3
__ __ . __ __ .
 72
65
 73
6
 40
15.29810499319513
 49
4.370887140912894
 49
-2.185443570456447
 49
4.370887140912894
 49
-2.185443570456447
 49
0
 49
-2.185443570456447
  0
LTYPE
  2
CENTER
 70
64
  3
____ _ ____ _
 72
65
 73
4
 40
17.48354856365157
 49
10.92721785228223
 49
-2.185443570456447
 49
2.185443570456447
 49
-2.185443570456447
  0
LTYPE
  2
DASHDOT
 70
64
  3
__ . __ . __ .
 72
65
 73
4
 40
8.741774281825787
 49
4.370887140912894
 49
-2.185443570456447
 49
0
 49
-2.185443570456447
  0
LTYPE
  2
DASHED
 70
64
  3
__ __ __ __ __
 72
65
 73
2
 40
6.55633071136934
 49
4.370887140912894
 49
-2.185443570456447
  0
LTYPE
  2
DIVIDE
 70
64
  3
__ . . __ . . 
 72
65
 73
6
 40
10.92721785228223
 49
4.370887140912894
 49
-2.185443570456447
 49
0
 49
-2.185443570456447
 49
0
 49
-2.185443570456447
  0
LTYPE
  2
DOT
 70
64
  3
..............
 72
65
 73
4
 40
4.370887140912894
 49
0
 49
-2.185443570456447
 49
0
 49
-2.185443570456447
  0
LTYPE
  2
HIDDEN
 70
64
  3
_ _ _ _ _ _ _
 72
65
 73
2
 40
3.27816535568467
 49
2.185443570456447
 49
-1.092721785228223
  0
LTYPE
  2
PHANTOM
 70
64
  3
_____ _ _ _____ _ _ 
 72
65
 73
6
 40
21.85443570456447
 49
10.92721785228223
 49
-2.185443570456447
 49
2.185443570456447
 49
-2.185443570456447
 49
2.185443570456447
 49
-2.185443570456447
  0
ENDTAB
  0
TABLE
  2
LAYER
 70
3
  0
LAYER
  2
0
 70
0
 62
7
  6
CONTINUOUS
  0
LAYER
  2
1
 70
0
 62
7
  6
CONTINUOUS
  0
ENDTAB
  0
TABLE
  2
STYLE
 70
4
  0
STYLE
  2
STANDARD
 70
0
 40
0
 41
1
 50
0
 71
0
 42
3.5
  3
txt
  4

  0
STYLE
  2
SIMPLEX
 70
0
 40
0
 41
1
 50
0
 71
0
 42
3.5
  3
simplex
  4

  0
STYLE
  2
COMPLEX
 70
0
 40
0
 41
1
 50
0
 71
0
 42
3.5
  3
complex
  4

  0
STYLE
  2
ITALIC
 70
0
 40
0
 41
1
 50
0
 71
0
 42
3.5
  3
italic
  4

  0
ENDTAB
  0
TABLE
  2
VIEW
 70
0
  0
ENDTAB
  0
ENDSEC
  0
SECTION
  2
BLOCKS
  0
BLOCK
  8
1
  2
*D0
 70
1
 10
0
 20
0
 30
0
  0
LINE
  8
1
 62
2
 10
1531.315336403073
 20
111.8376182760281
 30
0
 11
1544.315336403073
 21
111.8376182760281
 31
0
  0
LINE
  8
1
 62
2
 10
1544.315336403073
 20
119.035160485254
 30
0
 11
1544.315336403073
 21
110.3376182760281
 31
0
  0
LINE
  8
1
 62
2
 10
1531.315336403073
 20
119.035160485254
 30
0
 11
1531.315336403073
 21
110.3376182760281
 31
0
  0
LINE
  8
1
 62
2
 10
1531.315336403073
 20
111.8376182760281
 30
0
 11
1534.515336403073
 21
112.7016182760281
 31
0
  0
LINE
  8
1
 62
2
 10
1531.315336403073
 20
111.8376182760281
 30
0
 11
1534.515336403073
 21
110.9736182760281
 31
0
  0
LINE
  8
1
 62
2
 10
1544.315336403073
 20
111.8376182760281
 30
0
 11
1541.115336403073
 21
110.9736182760281
 31
0
  0
LINE
  8
1
 62
2
 10
1544.315336403073
 20
111.8376182760281
 30
0
 11
1541.115336403073
 21
112.7016182760281
 31
0
  0
TEXT
  8
1
 62
2
 10
1535.466617695183
 20
112.8376182760281
 30
0
 40
3.2
  1
13
 41
0.9
 51
15
  0
ENDBLK
  8
0
  0
BLOCK
  8
1
  2
*D1
 70
1
 10
0
 20
0
 30
0
  0
LINE
  8
1
 62
2
 10
1740.956941808895
 20
252.2585782045571
 30
0
 11
1740.956941808895
 21
350.2585747102571
 31
0
  0
LINE
  8
1
 62
2
 10
1631.815341966374
 20
350.2585747102571
 30
0
 11
1741.956941808895
 21
350.2585747102571
 31
0
  0
LINE
  8
1
 62
2
 10
1631.815335606874
 20
252.2585782045571
 30
0
 11
1741.956941808895
 21
252.2585782045571
 31
0
  0
LINE
  8
1
 62
2
 10
1740.956941808895
 20
350.2585747102571
 30
0
 11
1741.766941808895
 21
347.2585747102571
 31
0
  0
LINE
  8
1
 62
2
 10
1740.956941808895
 20
350.2585747102571
 30
0
 11
1740.146941808895
 21
347.2585747102571
 31
0
  0
LINE
  8
1
 62
2
 10
1740.956941808895
 20
252.2585782045571
 30
0
 11
1740.146941808895
 21
255.2585782045571
 31
0
  0
LINE
  8
1
 62
2
 10
1740.956941808895
 20
252.2585782045571
 30
0
 11
1741.766941808895
 21
255.2585782045571
 31
0
  0
TEXT
  8
1
 62
2
 10
1740.156941808895
 20
298.6066526687604
 30
0
 40
3
  1
98
 50
90
 41
0.9
 51
15
  0
ENDBLK
  8
0
  0
BLOCK
  8
1
  2
*D2
 70
1
 10
0
 20
0
 30
0
  0
LINE
  8
1
 62
2
 10
1740.956941808895
 20
100.1596604852539
 30
0
 11
1740.956941808895
 21
211.5696626161539
 31
0
  0
LINE
  8
1
 62
2
 10
1613.013199173757
 20
211.5696626161539
 30
0
 11
1741.956941808895
 21
211.5696626161539
 31
0
  0
LINE
  8
1
 62
2
 10
1658.815336403073
 20
100.1596604852539
 30
0
 11
1741.956941808895
 21
100.1596604852539
 31
0
  0
LINE
  8
1
 62
2
 10
1740.956941808895
 20
211.5696626161539
 30
0
 11
1741.766941808895
 21
208.5696626161539
 31
0
  0
LINE
  8
1
 62
2
 10
1740.956941808895
 20
211.5696626161539
 30
0
 11
1740.146941808895
 21
208.5696626161539
 31
0
  0
LINE
  8
1
 62
2
 10
1740.956941808895
 20
100.1596604852539
 30
0
 11
1740.146941808895
 21
103.1596604852539
 31
0
  0
LINE
  8
1
 62
2
 10
1740.956941808895
 20
100.1596604852539
 30
0
 11
1741.766941808895
 21
103.1596604852539
 31
0
  0
TEXT
  8
1
 62
2
 10
1740.156941808895
 20
151.4127377620572
 30
0
 40
3
  1
(112)
 50
90
 41
0.9
 51
15
  0
ENDBLK
  8
0
  0
BLOCK
  8
1
  2
*D3
 70
1
 10
0
 20
0
 30
0
  0
LINE
  8
1
 62
2
 10
1729.827480345095
 20
100.1596604852539
 30
0
 11
1729.827480345095
 21
135.1596604852539
 31
0
  0
LINE
  8
1
 62
2
 10
1730.842020155581
 20
135.1596604852539
 30
0
 11
1728.827480345095
 21
135.1596604852539
 31
0
  0
LINE
  8
1
 62
2
 10
1658.815336403073
 20
100.1596604852539
 30
0
 11
1730.827480345095
 21
100.1596604852539
 31
0
  0
LINE
  8
1
 62
2
 10
1729.827480345095
 20
135.1596604852539
 30
0
 11
1730.502480345095
 21
132.6596604852539
 31
0
  0
LINE
  8
1
 62
2
 10
1729.827480345095
 20
135.1596604852539
 30
0
 11
1729.152480345095
 21
132.6596604852539
 31
0
  0
LINE
  8
1
 62
2
 10
1729.827480345095
 20
100.1596604852539
 30
0
 11
1729.152480345095
 21
102.6596604852539
 31
0
  0
LINE
  8
1
 62
2
 10
1729.827480345095
 20
100.1596604852539
 30
0
 11
1730.502480345095
 21
102.6596604852539
 31
0
  0
TEXT
  8
1
 62
2
 10
1729.027480345095
 20
116.6476195535561
 30
0
 40
2.5
  1
35
 50
90
 41
0.9
 51
15
  0
ENDBLK
  8
0
  0
BLOCK
  8
1
  2
*D4
 70
1
 10
0
 20
0
 30
0
  0
LINE
  8
1
 62
2
 10
1531.315336403073
 20
82.8842472262025
 30
0
 11
1721.315336403073
 21
82.8842472262025
 31
0
  0
LINE
  8
1
 62
2
 10
1721.315336403073
 20
119.035160485254
 30
0
 11
1721.315336403073
 21
81.8842472262025
 31
0
  0
LINE
  8
1
 62
2
 10
1531.315336403073
 20
119.035160485254
 30
0
 11
1531.315336403073
 21
81.8842472262025
 31
0
  0
LINE
  8
1
 62
2
 10
1531.315336403073
 20
82.8842472262025
 30
0
 11
1533.815336403073
 21
83.5592472262025
 31
0
  0
LINE
  8
1
 62
2
 10
1531.315336403073
 20
82.8842472262025
 30
0
 11
1533.815336403073
 21
82.20924722620251
 31
0
  0
LINE
  8
1
 62
2
 10
1721.315336403073
 20
82.8842472262025
 30
0
 11
1718.815336403073
 21
82.20924722620251
 31
0
  0
LINE
  8
1
 62
2
 10
1721.315336403073
 20
82.8842472262025
 30
0
 11
1718.815336403073
 21
83.5592472262025
 31
0
  0
TEXT
  8
1
 62
2
 10
1623.355399912534
 20
83.6842472262025
 30
0
 40
2.5
  1
190
 41
0.9
 51
15
  0
ENDBLK
  8
0
  0
ENDSEC
  0
SECTION
  2
ENTITIES
  0
POLYLINE
  8
0
 62
7
 66
1
  0
VERTEX
  8
0
 10
1610.315336683174
 20
239.200391695857
 30
0
  0
VERTEX
  8
0
 10
1610.269327485374
 20
239.2202176908571
 30
0
  0
VERTEX
  8
0
 10
1610.223377892174
 20
239.240427390657
 30
0
  0
VERTEX
  8
0
 10
1610.177489766274
 20
239.2610207954571
 30
0
  0
VERTEX
  8
0
 10
1610.131661244974
 20
239.2820016304571
 30
0
  0
VERTEX
  8
0
 10
1610.092823230974
 20
239.3001102665571
 30
0
  0
VERTEX
  8
0
 10
1610.054029920474
 20
239.318500162157
 30
0
  0
VERTEX
  8
0
 10
1610.015281313474
 20
239.3371750423571
 30
0
  0
VERTEX
  8
0
 10
1609.976577409874
 20
239.3561367699571
 30
0
  0
VERTEX
  8
0
 10
1609.937918209774
 20
239.3753834823571
 30
0
  0
VERTEX
  8
0
 10
1609.899303713274
 20
239.394920767257
 30
0
  0
VERTEX
  8
0
 10
1609.860735782774
 20
239.4147486248571
 30
0
  0
VERTEX
  8
0
 10
1609.822214418474
 20
239.4348689177571
 30
0
  0
VERTEX
  8
0
 10
1609.783737757574
 20
239.4552853712571
 30
0
  0
VERTEX
  8
0
 10
1609.745309525474
 20
239.475994260057
 30
0
  0
VERTEX
  8
0
 10
1609.706925996974
 20
239.497003034657
 30
0
  0
VERTEX
  8
0
 10
1609.668590897074
 20
239.518309832557
 30
0
  0
VERTEX
  8
0
 10
1609.626822942274
 20
239.5418965080571
 30
0
  0
VERTEX
  8
0
 10
1609.585112729474
 20
239.5658426741571
 30
0
  0
VERTEX
  8
0
 10
1609.543460258674
 20
239.5901520559571
 30
0
  0
VERTEX
  8
0
 10
1609.501863667174
 20
239.614826516257
 30
0
  0
VERTEX
  8
0
 10
1609.460326680374
 20
239.6398660549571
 30
0
  0
VERTEX
  8
0
 10
1609.418847435474
 20
239.665274397457
 30
0
  0
VERTEX
  8
0
 10
1609.377425932674
 20
239.6910534063571
 30
0
  0
VERTEX
  8
0
 10
1609.339508065374
 20
239.7150126108571
 30
0
  0
VERTEX
  8
0
 10
1609.301640489474
 20
239.7392866024571
 30
0
  0
VERTEX
  8
0
 10
1609.263823204974
 20
239.763877243757
 30
0
  0
VERTEX
  8
0
 10
1609.226054349374
 20
239.7887863973571
 30
0
  0
VERTEX
  8
0
 10
1609.188337647674
 20
239.8140140632571
 30
0
  0
VERTEX
  8
0
 10
1609.150673100174
 20
239.8395639667571
 30
0
  0
VERTEX
  8
0
 10
1609.109640890174
 20
239.8678072551571
 30
0
  0
VERTEX
  8
0
 10
1609.068672010074
 20
239.896436111057
 30
0
  0
VERTEX
  8
0
 10
1609.027762734674
 20
239.9254523972571
 30
0
  0
VERTEX
  8
0
 10
1608.986916789174
 20
239.9548523882571
 30
0
  0
VERTEX
  8
0
 10
1608.946130448374
 20
239.9846062818571
 30
0
  0
VERTEX
  8
0
 10
1608.905407437474
 20
240.014674962457
 30
0
  0
VERTEX
  8
0
 10
1608.864742168574
 20
240.045026765257
 30
0
  0
VERTEX
  8
0
 10
1608.817375102474
 20
240.080750436557
 30
0
  0
VERTEX
  8
0
 10
1608.770088130074
 20
240.116755367257
 30
0
  0
VERTEX
  8
0
 10
1608.722879388674
 20
240.152989403357
 30
0
  0
VERTEX
  8
0
 10
1608.675747015874
 20
240.189396665457
 30
0
  0
VERTEX
  8
0
 10
1608.628692874074
 20
240.225921274157
 30
0
  0
VERTEX
  8
0
 10
1608.581713238174
 20
240.262509212857
 30
0
  0
VERTEX
  8
0
 10
1608.529186644974
 20
240.303496719357
 30
0
  0
VERTEX
  8
0
 10
1608.476749458674
 20
240.344415307957
 30
0
  0
VERTEX
  8
0
 10
1608.424403542074
 20
240.3851923355571
 30
0
  0
VERTEX
  8
0
 10
1608.384490781774
 20
240.416184888257
 30
0
  0
VERTEX
  8
0
 10
1608.344628312974
 20
240.447015390757
 30
0
  0
VERTEX
  8
0
 10
1608.304816135574
 20
240.4776484528571
 30
0
  0
VERTEX
  8
0
 10
1608.265056112174
 20
240.5080486843571
 30
0
  0
VERTEX
  8
0
 10
1608.225342654974
 20
240.538182557557
 30
0
  0
VERTEX
  8
0
 10
1608.193474659074
 20
240.562177152357
 30
0
  0
VERTEX
  8
0
 10
1608.161636465574
 20
240.585959405657
 30
0
  0
VERTEX
  8
0
 10
1608.129828074374
 20
240.6095106909571
 30
0
  0
VERTEX
  8
0
 10
1608.098051348074
 20
240.6328161070571
 30
0
  0
VERTEX
  8
0
 10
1608.065727004174
 20
240.656270534757
 30
0
  0
VERTEX
  8
0
 10
1608.033432462574
 20
240.679432527157
 30
0
  0
VERTEX
  8
0
 10
1608.001169585974
 20
240.702281595257
 30
0
  0
VERTEX
  8
0
 10
1607.968936511674
 20
240.724800975057
 30
0
  0
VERTEX
  8
0
 10
1607.936733239674
 20
240.746968314957
 30
0
  0
VERTEX
  8
0
 10
1607.909920462774
 20
240.765158907557
 30
0
  0
VERTEX
  8
0
 10
1607.883126312274
 20
240.7830850044571
 30
0
  0
VERTEX
  8
0
 10
1607.856352650874
 20
240.8007317045571
 30
0
  0
VERTEX
  8
0
 10
1607.829599478674
 20
240.818087832057
 30
0
  0
VERTEX
  8
0
 10
1607.802864932774
 20
240.835145936357
 30
0
  0
VERTEX
  8
0
 10
1607.776149013474
 20
240.8518929788571
 30
0
  0
VERTEX
  8
0
 10
1607.753722765874
 20
240.8657138058571
 30
0
  0
VERTEX
  8
0
 10
1607.731311419374
 20
240.879299939657
 30
0
  0
VERTEX
  8
0
 10
1607.708911248874
 20
240.8926457921571
 30
0
  0
VERTEX
  8
0
 10
1607.686525979474
 20
240.905745775457
 30
0
  0
VERTEX
  8
0
 10
1607.663745829274
 20
240.918825269657
 30
0
  0
VERTEX
  8
0
 10
1607.640978717574
 20
240.931634680357
 30
0
  0
VERTEX
  8
0
 10
1607.618224644474
 20
240.9441684195571
 30
0
  0
VERTEX
  8
0
 10
1607.595485472474
 20
240.9564208993571
 30
0
  0
VERTEX
  8
0
 10
1607.572757476374
 20
240.968382806557
 30
0
  0
VERTEX
  8
0
 10
1607.549994089974
 20
240.9800746301571
 30
0
  0
VERTEX
  8
0
 10
1607.527241879474
 20
240.991462842557
 30
0
  0
VERTEX
  8
0
 10
1607.504502707474
 20
241.002539993257
 30
0
  0
VERTEX
  8
0
 10
1607.481776574074
 20
241.0132986316571
 30
0
  0
VERTEX
  8
0
 10
1607.459063479074
 20
241.023733169757
 30
0
  0
VERTEX
  8
0
 10
1607.436361559974
 20
241.0338342944571
 30
0
  0
VERTEX
  8
0
 10
1607.413670816774
 20
241.043598280257
 30
0
  0
VERTEX
  8
0
 10
1607.391447597574
 20
241.052833274957
 30
0
  0
VERTEX
  8
0
 10
1607.369233691474
 20
241.0617274055571
 30
0
  0
VERTEX
  8
0
 10
1607.347032823974
 20
241.070278809457
 30
0
  0
VERTEX
  8
0
 10
1607.324843132274
 20
241.0784800359571
 30
0
  0
VERTEX
  8
0
 10
1607.306022965674
 20
241.0851576188571
 30
0
  0
VERTEX
  8
0
 10
1607.287210249674
 20
241.0915744313571
 30
0
  0
VERTEX
  8
0
 10
1607.268406846874
 20
241.097724885657
 30
0
  0
VERTEX
  8
0
 10
1607.249609032074
 20
241.103607119057
 30
0
  0
VERTEX
  8
0
 10
1607.230820530474
 20
241.1092155436571
 30
0
  0
VERTEX
  8
0
 10
1607.212039479374
 20
241.1145482966571
 30
0
  0
VERTEX
  8
0
 10
1607.194338762574
 20
241.119318530857
 30
0
  0
VERTEX
  8
0
 10
1607.176643633674
 20
241.123835445357
 30
0
  0
VERTEX
  8
0
 10
1607.158955955274
 20
241.128095314857
 30
0
  0
VERTEX
  8
0
 10
1607.141273864874
 20
241.132096276657
 30
0
  0
VERTEX
  8
0
 10
1607.123599225074
 20
241.135834605457
 30
0
  0
VERTEX
  8
0
 10
1607.104859152274
 20
241.139507741657
 30
0
  0
VERTEX
  8
0
 10
1607.086126529974
 20
241.142877266757
 30
0
  0
VERTEX
  8
0
 10
1607.067399495674
 20
241.1459413180571
 30
0
  0
VERTEX
  8
0
 10
1607.048681774574
 20
241.148692444857
 30
0
  0
VERTEX
  8
0
 10
1607.029969641374
 20
241.1511269221571
 30
0
  0
VERTEX
  8
0
 10
1607.011263096074
 20
241.1532447496571
 30
0
  0
VERTEX
  8
0
 10
1606.992565864074
 20
241.155038476957
 30
0
  0
VERTEX
  8
0
 10
1606.973872357374
 20
241.156504378657
 30
0
  0
VERTEX
  8
0
 10
1606.955188163874
 20
241.1576405921571
 30
0
  0
VERTEX
  8
0
 10
1606.936507695674
 20
241.158439666957
 30
0
  0
VERTEX
  8
0
 10
1606.917834678074
 20
241.158901602957
 30
0
  0
VERTEX
  8
0
 10
1606.899169111074
 20
241.159020812257
 30
0
  0
VERTEX
  8
0
 10
1606.881356635474
 20
241.1588103333571
 30
0
  0
VERTEX
  8
0
 10
1606.863549747874
 20
241.158279479457
 30
0
  0
VERTEX
  8
0
 10
1606.845748448174
 20
241.1574282506571
 30
0
  0
VERTEX
  8
0
 10
1606.827952736374
 20
241.156249196257
 30
0
  0
VERTEX
  8
0
 10
1606.810162612574
 20
241.154740453657
 30
0
  0
VERTEX
  8
0
 10
1606.792378076674
 20
241.152898297657
 30
0
  0
VERTEX
  8
0
 10
1606.774597266074
 20
241.1507208654571
 30
0
  0
VERTEX
  8
0
 10
1606.756823906074
 20
241.148202569257
 30
0
  0
VERTEX
  8
0
 10
1606.739233085274
 20
241.145371348557
 30
0
  0
VERTEX
  8
0
 10
1606.721647852474
 20
241.142210439757
 30
0
  0
VERTEX
  8
0
 10
1606.704066344874
 20
241.138721705457
 30
0
  0
VERTEX
  8
0
 10
1606.686490425274
 20
241.1349125960571
 30
0
  0
VERTEX
  8
0
 10
1606.668920093574
 20
241.130784974457
 30
0
  0
VERTEX
  8
0
 10
1606.651351624474
 20
241.126348153657
 30
0
  0
VERTEX
  8
0
 10
1606.633788743374
 20
241.1216039964571
 30
0
  0
VERTEX
  8
0
 10
1606.616581627474
 20
241.1166642615571
 30
0
  0
VERTEX
  8
0
 10
1606.599376374274
 20
241.1114395419571
 30
0
  0
VERTEX
  8
0
 10
1606.582176708974
 20
241.105937288157
 30
0
  0
VERTEX
  8
0
 10
1606.564978906274
 20
241.100159362857
 30
0
  0
VERTEX
  8
0
 10
1606.547473767174
 20
241.0940014580571
 30
0
  0
VERTEX
  8
0
 10
1606.529970490674
 20
241.087567881657
 30
0
  0
VERTEX
  8
0
 10
1606.512470939574
 20
241.0808660844571
 30
0
  0
VERTEX
  8
0
 10
1606.494975113674
 20
241.073901654257
 30
0
  0
VERTEX
  8
0
 10
1606.477481150374
 20
241.0666764536571
 30
0
  0
VERTEX
  8
0
 10
1606.457960629274
 20
241.0583169022571
 30
0
  0
VERTEX
  8
0
 10
1606.438443833374
 20
241.049646289057
 30
0
  0
VERTEX
  8
0
 10
1606.418928900174
 20
241.040675790057
 30
0
  0
VERTEX
  8
0
 10
1606.399417692174
 20
241.031412855757
 30
0
  0
VERTEX
  8
0
 10
1606.379910209574
 20
241.021861211357
 30
0
  0
VERTEX
  8
0
 10
1606.360404589574
 20
241.0120301702571
 30
0
  0
VERTEX
  8
0
 10
1606.340900832174
 20
241.001927183057
 30
0
  0
VERTEX
  8
0
 10
1606.321398937474
 20
240.991559700157
 30
0
  0
VERTEX
  8
0
 10
1606.299559423074
 20
240.979640633757
 30
0
  0
VERTEX
  8
0
 10
1606.277721771374
 20
240.9674086431571
 30
0
  0
VERTEX
  8
0
 10
1606.255887844974
 20
240.954873041257
 30
0
  0
VERTEX
  8
0
 10
1606.234053918474
 20
240.942045004157
 30
0
  0
VERTEX
  8
0
 10
1606.211825111274
 20
240.9286917010571
 30
0
  0
VERTEX
  8
0
 10
1606.189598166774
 20
240.915055275857
 30
0
  0
VERTEX
  8
0
 10
1606.167371222174
 20
240.901146904557
 30
0
  0
VERTEX
  8
0
 10
1606.145144277574
 20
240.886975900257
 30
0
  0
VERTEX
  8
0
 10
1606.122919195674
 20
240.872555301557
 30
0
  0
VERTEX
  8
0
 10
1606.096931570574
 20
240.8553891638571
 30
0
  0
VERTEX
  8
0
 10
1606.070943945474
 20
240.837911964357
 30
0
  0
VERTEX
  8
0
 10
1606.044956320274
 20
240.8201386043571
 30
0
  0
VERTEX
  8
0
 10
1606.018966832574
 20
240.802089572857
 30
0
  0
VERTEX
  8
0
 10
1605.992975482174
 20
240.783777908457
 30
0
  0
VERTEX
  8
0
 10
1605.966982269074
 20
240.765224100057
 30
0
  0
VERTEX
  8
0
 10
1605.933897965974
 20
240.741283521957
 30
0
  0
VERTEX
  8
0
 10
1605.900806212174
 20
240.717011393057
 30
0
  0
VERTEX
  8
0
 10
1605.867708870574
 20
240.692443103557
 30
0
  0
VERTEX
  8
0
 10
1605.834604078274
 20
240.667614043657
 30
0
  0
VERTEX
  8
0
 10
1605.801491835474
 20
240.642555878457
 30
0
  0
VERTEX
  8
0
 10
1605.768370279474
 20
240.617307723457
 30
0
  0
VERTEX
  8
0
 10
1605.718669318974
 20
240.579153300257
 30
0
  0
VERTEX
  8
0
 10
1605.668942281374
 20
240.5407641837571
 30
0
  0
VERTEX
  8
0
 10
1605.619187304174
 20
240.5022595832571
 30
0
  0
VERTEX
  8
0
 10
1605.569400661974
 20
240.463760570657
 30
0
  0
VERTEX
  8
0
 10
1605.533170351174
 20
240.435830206657
 30
0
  0
VERTEX
  8
0
 10
1605.496921413974
 20
240.408009738657
 30
0
  0
VERTEX
  8
0
 10
1605.460650124974
 20
240.380343870257
 30
0
  0
VERTEX
  8
0
 10
1605.424358346874
 20
240.3528810301571
 30
0
  0
VERTEX
  8
0
 10
1605.388042354374
 20
240.3256621966571
 30
0
  0
VERTEX
  8
0
 10
1605.351702147474
 20
240.298737660957
 30
0
  0
VERTEX
  8
0
 10
1605.315335863574
 20
240.2721502641571
 30
0
  0
SEQEND
  8
0
  0
POLYLINE
  8
0
 62
7
 66
1
  0
VERTEX
  8
0
 10
1609.624218964374
 20
306.372807250357
 30
0
  0
VERTEX
  8
0
 10
1609.742232435774
 20
306.4118929961571
 30
0
  0
VERTEX
  8
0
 10
1609.900734224674
 20
306.4221524456571
 30
0
  0
SEQEND
  8
0
  0
POLYLINE
  8
0
 62
7
 66
1
  0
VERTEX
  8
0
 10
1609.548806050174
 20
306.1707735815571
 30
0
  0
VERTEX
  8
0
 10
1609.563092538474
 20
306.266371981257
 30
0
  0
VERTEX
  8
0
 10
1609.624218964374
 20
306.372807250357
 30
0
  0
SEQEND
  8
0
  0
POLYLINE
  8
0
 62
7
 66
1
  0
VERTEX
  8
0
 10
1609.674493619574
 20
305.853293166457
 30
0
  0
VERTEX
  8
0
 10
1609.590564691774
 20
305.9812531629571
 30
0
  0
VERTEX
  8
0
 10
1609.548806050174
 20
306.1707735815571
 30
0
  0
SEQEND
  8
0
  0
POLYLINE
  8
0
 62
7
 66
1
  0
VERTEX
  8
0
 10
1609.071188443666
 20
306.4016707995934
 30
0
  0
VERTEX
  8
0
 10
1609.159287833974
 20
306.0182266691571
 30
0
  0
VERTEX
  8
0
 10
1609.498529532374
 20
305.651263223057
 30
0
  0
SEQEND
  8
0
  0
POLYLINE
  8
0
 62
7
 66
1
  0
VERTEX
  8
0
 10
1609.071188443674
 20
307.7581793824571
 30
0
  0
VERTEX
  8
0
 10
1609.159287833974
 20
307.374735251957
 30
0
  0
VERTEX
  8
0
 10
1609.498529532374
 20
307.007768080557
 30
0
  0
SEQEND
  8
0
  0
POLYLINE
  8
0
 62
7
 66
1
  0
VERTEX
  8
0
 10
1609.222014271983
 20
308.2776897409918
 30
0
  0
VERTEX
  8
0
 10
1609.110285365374
 20
308.063995913657
 30
0
  0
VERTEX
  8
0
 10
1609.071188443674
 20
307.7581793824571
 30
0
  0
SEQEND
  8
0
  0
POLYLINE
  8
0
 62
7
 66
1
  0
VERTEX
  8
0
 10
1609.624218964374
 20
307.7581793824571
 30
0
  0
VERTEX
  8
0
 10
1609.749882319374
 20
307.816826627557
 30
0
  0
VERTEX
  8
0
 10
1609.925872483674
 20
307.836384401657
 30
0
  0
SEQEND
  8
0
  0
POLYLINE
  8
0
 62
7
 66
1
  0
VERTEX
  8
0
 10
1609.548806050174
 20
307.5272821644571
 30
0
  0
VERTEX
  8
0
 10
1609.561220580174
 20
307.6354906717571
 30
0
  0
VERTEX
  8
0
 10
1609.624218964374
 20
307.7581793824571
 30
0
  0
SEQEND
  8
0
  0
POLYLINE
  8
0
 62
7
 66
1
  0
VERTEX
  8
0
 10
1609.674493619574
 20
307.238665298557
 30
0
  0
VERTEX
  8
0
 10
1609.593967744474
 20
307.3545590797571
 30
0
  0
VERTEX
  8
0
 10
1609.548806050174
 20
307.5272821644571
 30
0
  0
SEQEND
  8
0
  0
POLYLINE
  8
0
 62
7
 66
1
  0
VERTEX
  8
0
 10
1610.028323554774
 20
308.978148625257
 30
0
  0
VERTEX
  8
0
 10
1609.923246153974
 20
308.900401816757
 30
0
  0
VERTEX
  8
0
 10
1609.757450246574
 20
308.8793911794571
 30
0
  0
SEQEND
  8
0
  0
POLYLINE
  8
0
 62
7
 66
1
  0
VERTEX
  8
0
 10
1610.087576159674
 20
309.186630771457
 30
0
  0
VERTEX
  8
0
 10
1610.077998438274
 20
309.0901792803571
 30
0
  0
VERTEX
  8
0
 10
1610.028323554774
 20
308.978148625257
 30
0
  0
SEQEND
  8
0
  0
POLYLINE
  8
0
 62
7
 66
1
  0
VERTEX
  8
0
 10
1610.011393973049
 20
309.3951129177685
 30
0
  0
VERTEX
  8
0
 10
1610.062091448674
 20
309.309807495257
 30
0
  0
VERTEX
  8
0
 10
1610.087576159674
 20
309.186630771457
 30
0
  0
SEQEND
  8
0
  0
POLYLINE
  8
0
 62
7
 66
1
  0
VERTEX
  8
0
 10
1609.249564656374
 20
309.3731672326571
 30
0
  0
VERTEX
  8
0
 10
1609.302519657974
 20
309.2635393897571
 30
0
  0
VERTEX
  8
0
 10
1609.325748705674
 20
309.109822736157
 30
0
  0
SEQEND
  8
0
  0
POLYLINE
  8
0
 62
7
 66
1
  0
VERTEX
  8
0
 10
1608.800933533674
 20
309.362196252657
 30
0
  0
VERTEX
  8
0
 10
1608.896036469774
 20
309.434414730457
 30
0
  0
VERTEX
  8
0
 10
1609.046411537874
 20
309.4609499732571
 30
0
  0
SEQEND
  8
0
  0
POLYLINE
  8
0
 62
7
 66
1
  0
VERTEX
  8
0
 10
1608.750144788374
 20
309.197605476757
 30
0
  0
VERTEX
  8
0
 10
1608.759001666074
 20
309.2740558842571
 30
0
  0
VERTEX
  8
0
 10
1608.800933533674
 20
309.362196252657
 30
0
  0
SEQEND
  8
0
  0
POLYLINE
  8
0
 62
7
 66
1
  0
VERTEX
  8
0
 10
1608.800933533674
 20
309.0330109754571
 30
0
  0
VERTEX
  8
0
 10
1608.764947229374
 20
309.1009118417571
 30
0
  0
VERTEX
  8
0
 10
1608.750144788374
 20
309.197605476757
 30
0
  0
SEQEND
  8
0
  0
POLYLINE
  8
0
 62
7
 66
1
  0
VERTEX
  8
0
 10
1609.054875397474
 20
308.912311569757
 30
0
  0
VERTEX
  8
0
 10
1608.930301689874
 20
308.938083128057
 30
0
  0
VERTEX
  8
0
 10
1608.800933533674
 20
309.0330109754571
 30
0
  0
SEQEND
  8
0
  0
POLYLINE
  8
0
 62
7
 66
1
  0
VERTEX
  8
0
 10
1609.469649219274
 20
309.109822736157
 30
0
  0
VERTEX
  8
0
 10
1609.474248090174
 20
309.230727032757
 30
0
  0
VERTEX
  8
0
 10
1609.528901824174
 20
309.3731672326571
 30
0
  0
SEQEND
  8
0
  0
POLYLINE
  8
0
 62
7
 66
1
  0
VERTEX
  8
0
 10
1608.699356043174
 20
308.857445494257
 30
0
  0
VERTEX
  8
0
 10
1608.833939605774
 20
308.735434786457
 30
0
  0
VERTEX
  8
0
 10
1609.054875397474
 20
308.6709090331571
 30
0
  0
SEQEND
  8
0
  0
POLYLINE
  8
0
 62
7
 66
1
  0
VERTEX
  8
0
 10
1608.597778552574
 20
309.197605476757
 30
0
  0
VERTEX
  8
0
 10
1608.614924201174
 20
309.0397872785571
 30
0
  0
VERTEX
  8
0
 10
1608.699356043174
 20
308.857445494257
 30
0
  0
SEQEND
  8
0
  0
POLYLINE
  8
0
 62
7
 66
1
  0
VERTEX
  8
0
 10
1608.699356043174
 20
309.548732713757
 30
0
  0
VERTEX
  8
0
 10
1608.625653037174
 20
309.403427765757
 30
0
  0
VERTEX
  8
0
 10
1608.597778552574
 20
309.197605476757
 30
0
  0
SEQEND
  8
0
  0
POLYLINE
  8
0
 62
7
 66
1
  0
VERTEX
  8
0
 10
1609.012552374374
 20
309.702352509857
 30
0
  0
VERTEX
  8
0
 10
1608.856909745674
 20
309.6729078153571
 30
0
  0
VERTEX
  8
0
 10
1608.699356043174
 20
309.548732713757
 30
0
  0
SEQEND
  8
0
  0
POLYLINE
  8
0
 62
7
 66
1
  0
VERTEX
  8
0
 10
1609.283423819974
 20
309.5816531041571
 30
0
  0
VERTEX
  8
0
 10
1609.179886826674
 20
309.667290077557
 30
0
  0
VERTEX
  8
0
 10
1609.012552374374
 20
309.702352509857
 30
0
  0
SEQEND
  8
0
  0
POLYLINE
  8
0
 62
7
 66
1
  0
VERTEX
  8
0
 10
1609.393467032674
 20
309.3731672326571
 30
0
  0
VERTEX
  8
0
 10
1609.355685138474
 20
309.470300451857
 30
0
  0
VERTEX
  8
0
 10
1609.283423819974
 20
309.5816531041571
 30
0
  0
SEQEND
  8
0
  0
POLYLINE
  8
0
 62
7
 66
1
  0
VERTEX
  8
0
 10
1609.486578801074
 20
309.592624084057
 30
0
  0
VERTEX
  8
0
 10
1609.434383758674
 20
309.501052723257
 30
0
  0
VERTEX
  8
0
 10
1609.393467032674
 20
309.3731672326571
 30
0
  0
SEQEND
  8
0
  0
POLYLINE
  8
0
 62
7
 66
1
  0
VERTEX
  8
0
 10
1609.774379828374
 20
309.746243880157
 30
0
  0
VERTEX
  8
0
 10
1609.630168252974
 20
309.713897184457
 30
0
  0
VERTEX
  8
0
 10
1609.486578801074
 20
309.592624084057
 30
0
  0
SEQEND
  8
0
  0
POLYLINE
  8
0
 62
7
 66
1
  0
VERTEX
  8
0
 10
1610.129899182674
 20
309.5706783989571
 30
0
  0
VERTEX
  8
0
 10
1609.995494434074
 20
309.690528438457
 30
0
  0
VERTEX
  8
0
 10
1609.774379828374
 20
309.746243880157
 30
0
  0
SEQEND
  8
0
  0
POLYLINE
  8
0
 62
7
 66
1
  0
VERTEX
  8
0
 10
1610.247778543574
 20
309.186630771457
 30
0
  0
VERTEX
  8
0
 10
1610.227352776874
 20
309.365079627357
 30
0
  0
VERTEX
  8
0
 10
1610.129899182674
 20
309.5706783989571
 30
0
  0
SEQEND
  8
0
  0
POLYLINE
  8
0
 62
7
 66
1
  0
VERTEX
  8
0
 10
1610.138364904877
 20
308.7916084387952
 30
0
  0
VERTEX
  8
0
 10
1610.218803235674
 20
308.9554951349571
 30
0
  0
VERTEX
  8
0
 10
1610.247778543574
 20
309.186630771457
 30
0
  0
SEQEND
  8
0
  0
POLYLINE
  8
0
 62
7
 66
1
  0
VERTEX
  8
0
 10
1586.306693801074
 20
305.2585766473571
 30
0
  0
VERTEX
  8
0
 10
1585.932615050474
 20
305.439625755857
 30
0
  0
VERTEX
  8
0
 10
1585.611182102351
 20
305.3969451049438
 30
0
  0
SEQEND
  8
0
  0
POLYLINE
  8
0
 62
7
 66
1
  0
VERTEX
  8
0
 10
1586.306693801074
 20
297.2585753360571
 30
0
  0
VERTEX
  8
0
 10
1585.932615050474
 20
297.077526227557
 30
0
  0
VERTEX
  8
0
 10
1585.611182102374
 20
297.120206878557
 30
0
  0
SEQEND
  8
0
  0
POLYLINE
  8
0
 62
7
 66
1
  0
VERTEX
  8
0
 10
1586.306694620257
 20
192.5720064346539
 30
0
  0
VERTEX
  8
0
 10
1585.932615869557
 20
191.551753730054
 30
0
  0
VERTEX
  8
0
 10
1585.611182921457
 20
190.7412330065539
 30
0
  0
SEQEND
  8
0
  0
LINE
  8
1
 62
2
 10
1666.815336403073
 20
26.08119419182945
 30
0
 11
1667.065336403073
 21
26.36244419182945
 31
0
  0
LINE
  8
1
 62
2
 10
1666.815336403073
 20
27.76869419182945
 30
0
 11
1665.315336403073
 21
27.76869419182945
 31
0
  0
LINE
  8
1
 62
2
 10
1670.565336403073
 20
21.29994419182945
 30
0
 11
1672.815336403073
 21
21.29994419182945
 31
0
  0
LINE
  8
1
 62
2
 10
1668.065336403073
 20
21.29994419182945
 30
0
 11
1670.565336403073
 21
21.29994419182945
 31
0
  0
LINE
  8
1
 62
2
 10
1670.565336403073
 20
29.45619419182945
 30
0
 11
1670.565336403073
 21
21.29994419182945
 31
0
  0
LINE
  8
1
 62
2
 10
1668.815336403073
 20
26.08119419182945
 30
0
 11
1672.315336403073
 21
26.08119419182945
 31
0
  0
LINE
  8
1
 62
2
 10
1667.315336403073
 20
25.79994419182945
 30
0
 11
1668.565336403073
 21
24.39369419182945
 31
0
  0
LINE
  8
1
 62
2
 10
1666.815336403073
 20
27.76869419182945
 30
0
 11
1666.815336403073
 21
29.45619419182945
 31
0
  0
LINE
  8
1
 62
2
 10
1668.065336403073
 20
27.76869419182945
 30
0
 11
1666.815336403073
 21
27.76869419182945
 31
0
  0
LINE
  8
1
 62
2
 10
1667.065336403073
 20
26.36244419182945
 30
0
 11
1668.065336403073
 21
27.76869419182945
 31
0
  0
LINE
  8
1
 62
2
 10
1665.815336403073
 20
24.95619419182945
 30
0
 11
1666.815336403073
 21
26.08119419182945
 31
0
  0
LINE
  8
1
 62
2
 10
1664.815336403073
 20
24.11244419182945
 30
0
 11
1665.815336403073
 21
24.95619419182945
 31
0
  0
LINE
  8
1
 62
2
 10
1666.815336403073
 20
21.01869419182945
 30
0
 11
1666.815336403073
 21
26.08119419182945
 31
0
  0
LINE
  8
1
 62
2
 10
1659.815336403073
 20
24.11244419182945
 30
0
 11
1657.315336403073
 21
21.01869419182945
 31
0
  0
LINE
  8
1
 62
2
 10
1662.065336403073
 20
21.58119419182945
 30
0
 11
1661.065336403073
 21
22.70619419182945
 31
0
  0
LINE
  8
1
 62
2
 10
1662.815336403073
 20
20.73744419182945
 30
0
 11
1662.065336403073
 21
21.58119419182945
 31
0
  0
LINE
  8
1
 62
2
 10
1656.565336403073
 20
21.01869419182945
 30
0
 11
1662.065336403073
 21
21.58119419182945
 31
0
  0
LINE
  8
1
 62
2
 10
1657.065336403073
 20
24.39369419182945
 30
0
 11
1662.815336403073
 21
24.39369419182945
 31
0
  0
LINE
  8
1
 62
2
 10
1658.065336403073
 20
25.79994419182945
 30
0
 11
1661.565336403073
 21
25.79994419182945
 31
0
  0
LINE
  8
1
 62
2
 10
1659.815336403073
 20
29.45619419182945
 30
0
 11
1663.815336403073
 21
25.23744419182945
 31
0
  0
LINE
  8
1
 62
2
 10
1659.815336403073
 20
29.45619419182945
 30
0
 11
1655.815336403073
 21
25.23744419182945
 31
0
  0
LINE
  8
1
 62
2
 10
1649.065336403073
 20
25.51869419182945
 30
0
 11
1647.315336403073
 21
25.51869419182945
 31
0
  0
LINE
  8
1
 62
2
 10
1649.065336403073
 20
22.42494419182945
 30
0
 11
1650.815336403073
 21
22.98744419182945
 31
0
  0
LINE
  8
1
 62
2
 10
1654.065336403073
 20
21.01869419182945
 30
0
 11
1654.815336403073
 21
21.86244419182945
 31
0
  0
LINE
  8
1
 62
2
 10
1653.065336403073
 20
22.14369419182945
 30
0
 11
1654.065336403073
 21
21.01869419182945
 31
0
  0
LINE
  8
1
 62
2
 10
1652.065336403073
 20
24.11244419182945
 30
0
 11
1653.065336403073
 21
22.14369419182945
 31
0
  0
LINE
  8
1
 62
2
 10
1651.565336403073
 20
26.36244419182945
 30
0
 11
1652.065336403073
 21
24.11244419182945
 31
0
  0
LINE
  8
1
 62
2
 10
1651.315336403073
 20
29.73744419182945
 30
0
 11
1651.565336403073
 21
26.36244419182945
 31
0
  0
LINE
  8
1
 62
2
 10
1652.815336403073
 20
28.61244419182945
 30
0
 11
1652.065336403073
 21
29.45619419182945
 31
0
  0
LINE
  8
1
 62
2
 10
1646.815336403073
 20
27.76869419182945
 30
0
 11
1654.065336403073
 21
27.76869419182945
 31
0
  0
LINE
  8
1
 62
2
 10
1649.065336403073
 20
25.51869419182945
 30
0
 11
1649.065336403073
 21
22.42494419182945
 31
0
  0
LINE
  8
1
 62
2
 10
1650.815336403073
 20
25.51869419182945
 30
0
 11
1649.065336403073
 21
25.51869419182945
 31
0
  0
LINE
  8
1
 62
2
 10
1647.315336403073
 20
21.86244419182945
 30
0
 11
1649.065336403073
 21
22.42494419182945
 31
0
  0
LINE
  8
1
 62
2
 10
1639.565336403073
 20
27.20619419182945
 30
0
 11
1639.565336403073
 21
29.73744419182945
 31
0
  0
LINE
  8
1
 62
2
 10
1639.565336403073
 20
27.20619419182945
 30
0
 11
1638.315336403073
 21
27.20619419182945
 31
0
  0
LINE
  8
1
 62
2
 10
1644.565336403073
 20
22.98744419182945
 30
0
 11
1645.565336403073
 21
21.01869419182945
 31
0
  0
LINE
  8
1
 62
2
 10
1643.315336403073
 20
25.51869419182945
 30
0
 11
1644.565336403073
 21
22.98744419182945
 31
0
  0
LINE
  8
1
 62
2
 10
1642.565336403073
 20
23.54994419182945
 30
0
 11
1643.315336403073
 21
25.51869419182945
 31
0
  0
LINE
  8
1
 62
2
 10
1641.565336403073
 20
22.14369419182945
 30
0
 11
1642.565336403073
 21
23.54994419182945
 31
0
  0
LINE
  8
1
 62
2
 10
1640.815336403073
 20
21.01869419182945
 30
0
 11
1641.565336403073
 21
22.14369419182945
 31
0
  0
LINE
  8
1
 62
2
 10
1643.315336403073
 20
29.73744419182945
 30
0
 11
1643.315336403073
 21
20.73744419182945
 31
0
  0
LINE
  8
1
 62
2
 10
1645.565336403073
 20
25.51869419182945
 30
0
 11
1641.315336403073
 21
25.51869419182945
 31
0
  0
LINE
  8
1
 62
2
 10
1642.065336403073
 20
27.48744419182945
 30
0
 11
1645.315336403073
 21
27.48744419182945
 31
0
  0
LINE
  8
1
 62
2
 10
1642.065336403073
 20
27.48744419182945
 30
0
 11
1642.315336403073
 21
28.89369419182945
 31
0
  0
LINE
  8
1
 62
2
 10
1641.315336403073
 20
26.08119419182945
 30
0
 11
1642.065336403073
 21
27.48744419182945
 31
0
  0
LINE
  8
1
 62
2
 10
1639.565336403073
 20
27.20619419182945
 30
0
 11
1640.815336403073
 21
24.95619419182945
 31
0
  0
LINE
  8
1
 62
2
 10
1638.065336403073
 20
23.26869419182945
 30
0
 11
1639.565336403073
 21
27.20619419182945
 31
0
  0
LINE
  8
1
 62
2
 10
1640.815336403073
 20
27.20619419182945
 30
0
 11
1639.565336403073
 21
27.20619419182945
 31
0
  0
LINE
  8
1
 62
2
 10
1639.565336403073
 20
21.01869419182945
 30
0
 11
1639.565336403073
 21
27.20619419182945
 31
0
  0
LINE
  8
1
 62
2
 10
1629.565336403073
 20
26.36244419182945
 30
0
 11
1629.565336403073
 21
27.76869419182945
 31
0
  0
LINE
  8
1
 62
2
 10
1632.065336403073
 20
27.76869419182945
 30
0
 11
1632.065336403073
 21
26.36244419182945
 31
0
  0
LINE
  8
1
 62
2
 10
1629.565336403073
 20
27.76869419182945
 30
0
 11
1629.565336403073
 21
29.17494419182945
 31
0
  0
LINE
  8
1
 62
2
 10
1636.065336403073
 20
26.36244419182945
 30
0
 11
1636.065336403073
 21
27.76869419182945
 31
0
  0
LINE
  8
1
 62
2
 10
1633.565336403073
 20
27.76869419182945
 30
0
 11
1633.565336403073
 21
26.36244419182945
 31
0
  0
LINE
  8
1
 62
2
 10
1636.065336403073
 20
27.76869419182945
 30
0
 11
1636.065336403073
 21
29.17494419182945
 31
0
  0
LINE
  8
1
 62
2
 10
1629.565336403073
 20
21.29994419182945
 30
0
 11
1629.565336403073
 21
21.01869419182945
 31
0
  0
LINE
  8
1
 62
2
 10
1633.565336403073
 20
27.76869419182945
 30
0
 11
1636.065336403073
 21
27.76869419182945
 31
0
  0
LINE
  8
1
 62
2
 10
1633.565336403073
 20
26.36244419182945
 30
0
 11
1636.065336403073
 21
26.36244419182945
 31
0
  0
LINE
  8
1
 62
2
 10
1633.565336403073
 20
29.17494419182945
 30
0
 11
1633.565336403073
 21
27.76869419182945
 31
0
  0
LINE
  8
1
 62
2
 10
1636.065336403073
 20
29.17494419182945
 30
0
 11
1633.565336403073
 21
29.17494419182945
 31
0
  0
LINE
  8
1
 62
2
 10
1636.065336403073
 20
21.29994419182945
 30
0
 11
1636.065336403073
 21
26.36244419182945
 31
0
  0
LINE
  8
1
 62
2
 10
1635.815336403073
 20
21.01869419182945
 30
0
 11
1636.065336403073
 21
21.29994419182945
 31
0
  0
LINE
  8
1
 62
2
 10
1635.065336403073
 20
21.01869419182945
 30
0
 11
1635.815336403073
 21
21.01869419182945
 31
0
  0
LINE
  8
1
 62
2
 10
1632.065336403073
 20
27.76869419182945
 30
0
 11
1629.565336403073
 21
27.76869419182945
 31
0
  0
LINE
  8
1
 62
2
 10
1632.065336403073
 20
26.36244419182945
 30
0
 11
1629.565336403073
 21
26.36244419182945
 31
0
  0
LINE
  8
1
 62
2
 10
1632.065336403073
 20
29.17494419182945
 30
0
 11
1632.065336403073
 21
27.76869419182945
 31
0
  0
LINE
  8
1
 62
2
 10
1629.565336403073
 20
29.17494419182945
 30
0
 11
1632.065336403073
 21
29.17494419182945
 31
0
  0
LINE
  8
1
 62
2
 10
1629.565336403073
 20
21.29994419182945
 30
0
 11
1629.565336403073
 21
26.36244419182945
 31
0
  0
LINE
  8
1
 62
2
 10
1623.815336403073
 20
21.01869419182945
 30
0
 11
1626.815336403073
 21
21.01869419182945
 31
0
  0
LINE
  8
1
 62
2
 10
1623.815336403073
 20
26.36244419182945
 30
0
 11
1625.565336403073
 21
26.36244419182945
 31
0
  0
LINE
  8
1
 62
2
 10
1626.815336403073
 20
26.08119419182945
 30
0
 11
1627.815336403073
 21
25.23744419182945
 31
0
  0
LINE
  8
1
 62
2
 10
1625.065336403073
 20
28.04994419182945
 30
0
 11
1626.815336403073
 21
26.08119419182945
 31
0
  0
LINE
  8
1
 62
2
 10
1623.815336403073
 20
29.73744419182945
 30
0
 11
1625.065336403073
 21
28.04994419182945
 31
0
  0
LINE
  8
1
 62
2
 10
1622.565336403073
 20
28.04994419182945
 30
0
 11
1623.815336403073
 21
29.73744419182945
 31
0
  0
LINE
  8
1
 62
2
 10
1620.815336403073
 20
26.08119419182945
 30
0
 11
1622.565336403073
 21
28.04994419182945
 31
0
  0
LINE
  8
1
 62
2
 10
1619.815336403073
 20
25.23744419182945
 30
0
 11
1620.815336403073
 21
26.08119419182945
 31
0
  0
LINE
  8
1
 62
2
 10
1625.065336403073
 20
22.14369419182945
 30
0
 11
1625.565336403073
 21
23.54994419182945
 31
0
  0
LINE
  8
1
 62
2
 10
1622.065336403073
 20
23.54994419182945
 30
0
 11
1622.565336403073
 21
22.14369419182945
 31
0
  0
LINE
  8
1
 62
2
 10
1626.315336403073
 20
24.67494419182945
 30
0
 11
1621.315336403073
 21
24.67494419182945
 31
0
  0
LINE
  8
1
 62
2
 10
1622.065336403073
 20
26.36244419182945
 30
0
 11
1623.815336403073
 21
26.36244419182945
 31
0
  0
LINE
  8
1
 62
2
 10
1623.815336403073
 20
21.01869419182945
 30
0
 11
1623.815336403073
 21
26.36244419182945
 31
0
  0
LINE
  8
1
 62
2
 10
1620.565336403073
 20
21.01869419182945
 30
0
 11
1623.815336403073
 21
21.01869419182945
 31
0
  0
LINE
  8
1
 62
2
 10
1617.065336403073
 20
23.54994419182945
 30
0
 11
1618.315336403073
 21
25.23744419182945
 31
0
  0
LINE
  8
1
 62
2
 10
1615.065336403073
 20
22.42494419182945
 30
0
 11
1617.065336403073
 21
23.54994419182945
 31
0
  0
LINE
  8
1
 62
2
 10
1615.065336403073
 20
27.48744419182945
 30
0
 11
1615.065336403073
 21
22.42494419182945
 31
0
  0
LINE
  8
1
 62
2
 10
1613.065336403073
 20
25.23744419182945
 30
0
 11
1613.315336403073
 21
27.48744419182945
 31
0
  0
LINE
  8
1
 62
2
 10
1612.565336403073
 20
23.54994419182945
 30
0
 11
1613.065336403073
 21
25.23744419182945
 31
0
  0
LINE
  8
1
 62
2
 10
1611.815336403073
 20
22.14369419182945
 30
0
 11
1612.565336403073
 21
23.54994419182945
 31
0
  0
LINE
  8
1
 62
2
 10
1603.315336403073
 20
24.39369419182945
 30
0
 11
1603.315336403073
 21
22.70619419182945
 31
0
  0
LINE
  8
1
 62
2
 10
1606.065336403073
 20
21.58119419182945
 30
0
 11
1607.565336403073
 21
21.86244419182945
 31
0
  0
LINE
  8
1
 62
2
 10
1603.565336403073
 20
21.86244419182945
 30
0
 11
1606.065336403073
 21
21.58119419182945
 31
0
  0
LINE
  8
1
 62
2
 10
1603.315336403073
 20
22.70619419182945
 30
0
 11
1603.565336403073
 21
21.86244419182945
 31
0
  0
LINE
  8
1
 62
2
 10
1603.315336403073
 20
27.48744419182945
 30
0
 11
1603.315336403073
 21
24.39369419182945
 31
0
  0
LINE
  8
1
 62
2
 10
1608.065336403073
 20
28.04994419182945
 30
0
 11
1608.815336403073
 21
27.20619419182945
 31
0
  0
LINE
  8
1
 62
2
 10
1608.315336403073
 20
26.64369419182945
 30
0
 11
1607.565336403073
 21
27.48744419182945
 31
0
  0
LINE
  8
1
 62
2
 10
1605.565336403073
 20
25.23744419182945
 30
0
 11
1607.065336403073
 21
26.08119419182945
 31
0
  0
LINE
  8
1
 62
2
 10
1603.315336403073
 20
24.39369419182945
 30
0
 11
1605.565336403073
 21
25.23744419182945
 31
0
  0
LINE
  8
1
 62
2
 10
1597.815336403073
 20
23.54994419182945
 30
0
 11
1599.315336403073
 21
21.86244419182945
 31
0
  0
LINE
  8
1
 62
2
 10
1596.565336403073
 20
24.67494419182945
 30
0
 11
1597.815336403073
 21
23.54994419182945
 31
0
  0
LINE
  8
1
 62
2
 10
1599.565336403073
 20
28.61244419182945
 30
0
 11
1600.315336403073
 21
27.76869419182945
 31
0
  0
LINE
  8
1
 62
2
 10
1599.065336403073
 20
28.04994419182945
 30
0
 11
1599.815336403073
 21
27.20619419182945
 31
0
  0
LINE
  8
1
 62
2
 10
1598.065336403073
 20
27.48744419182945
 30
0
 11
1594.815336403073
 21
27.48744419182945
 31
0
  0
LINE
  8
1
 62
2
 10
1597.315336403073
 20
25.79994419182945
 30
0
 11
1598.065336403073
 21
27.48744419182945
 31
0
  0
LINE
  8
1
 62
2
 10
1595.565336403073
 20
23.26869419182945
 30
0
 11
1597.315336403073
 21
25.79994419182945
 31
0
  0
LINE
  8
1
 62
2
 10
1593.815336403073
 20
21.86244419182945
 30
0
 11
1595.565336403073
 21
23.26869419182945
 31
0
  0
LINE
  8
1
 62
2
 10
1590.815336403073
 20
27.20619419182945
 30
0
 11
1588.565336403073
 21
24.67494419182945
 31
0
  0
LINE
  8
1
 62
2
 10
1585.065336403073
 20
27.20619419182945
 30
0
 11
1590.815336403073
 21
27.20619419182945
 31
0
  0
LINE
  8
1
 62
2
 10
1587.815336403073
 20
24.67494419182945
 30
0
 11
1588.065336403073
 21
26.08119419182945
 31
0
  0
LINE
  8
1
 62
2
 10
1587.315336403073
 20
22.98744419182945
 30
0
 11
1587.815336403073
 21
24.67494419182945
 31
0
  0
LINE
  8
1
 62
2
 10
1586.315336403073
 20
21.29994419182945
 30
0
 11
1587.315336403073
 21
22.98744419182945
 31
0
  0
LINE
  8
1
 62
2
 10
1692.240336403073
 20
48.54994419182945
 30
0
 11
1692.740336403073
 21
47.70619419182945
 31
0
  0
LINE
  8
1
 62
2
 10
1691.490336403073
 20
49.39369419182945
 30
0
 11
1692.240336403073
 21
48.54994419182945
 31
0
  0
LINE
  8
1
 62
2
 10
1690.490336403073
 20
50.23744419182945
 30
0
 11
1691.490336403073
 21
49.39369419182945
 31
0
  0
LINE
  8
1
 62
2
 10
1689.990336403073
 20
51.36244419182945
 30
0
 11
1689.240336403073
 21
52.76869419182945
 31
0
  0
LINE
  8
1
 62
2
 10
1691.240336403073
 20
51.64369419182945
 30
0
 11
1690.740336403073
 21
53.04994419182945
 31
0
  0
LINE
  8
1
 62
2
 10
1692.740336403073
 20
51.08119419182945
 30
0
 11
1693.490336403073
 21
52.76869419182945
 31
0
  0
LINE
  8
1
 62
2
 10
1691.240336403073
 20
48.83119419182945
 30
0
 11
1692.740336403073
 21
51.08119419182945
 31
0
  0
LINE
  8
1
 62
2
 10
1690.490336403073
 20
47.98744419182945
 30
0
 11
1691.240336403073
 21
48.83119419182945
 31
0
  0
LINE
  8
1
 62
2
 10
1689.240336403073
 20
47.14369419182945
 30
0
 11
1690.490336403073
 21
47.98744419182945
 31
0
  0
LINE
  8
1
 62
2
 10
1687.990336403073
 20
54.17494419182945
 30
0
 11
1687.990336403073
 21
46.01869419182945
 31
0
  0
LINE
  8
1
 62
2
 10
1694.490336403073
 20
54.17494419182945
 30
0
 11
1687.990336403073
 21
54.17494419182945
 31
0
  0
LINE
  8
1
 62
2
 10
1694.490336403073
 20
46.01869419182945
 30
0
 11
1694.490336403073
 21
54.17494419182945
 31
0
  0
LINE
  8
1
 62
2
 10
1687.990336403073
 20
46.01869419182945
 30
0
 11
1694.490336403073
 21
46.01869419182945
 31
0
  0
LINE
  8
1
 62
2
 10
1682.990336403073
 20
49.95619419182945
 30
0
 11
1685.990336403073
 21
49.95619419182945
 31
0
  0
LINE
  8
1
 62
2
 10
1684.240336403073
 20
48.26869419182945
 30
0
 11
1685.740336403073
 21
45.73744419182945
 31
0
  0
LINE
  8
1
 62
2
 10
1680.740336403073
 20
46.01869419182945
 30
0
 11
1684.990336403073
 21
46.86244419182945
 31
0
  0
LINE
  8
1
 62
2
 10
1682.990336403073
 20
49.95619419182945
 30
0
 11
1681.740336403073
 21
46.29994419182945
 31
0
  0
LINE
  8
1
 62
2
 10
1680.240336403073
 20
49.95619419182945
 30
0
 11
1682.990336403073
 21
49.95619419182945
 31
0
  0
LINE
  8
1
 62
2
 10
1683.240336403073
 20
54.45619419182945
 30
0
 11
1683.240336403073
 21
49.95619419182945
 31
0
  0
LINE
  8
1
 62
2
 10
1680.990336403073
 20
52.20619419182945
 30
0
 11
1685.740336403073
 21
52.20619419182945
 31
0
  0
LINE
  8
1
 62
2
 10
1678.990336403073
 20
54.17494419182945
 30
0
 11
1679.740336403073
 21
53.04994419182945
 31
0
  0
LINE
  8
1
 62
2
 10
1678.990336403073
 20
50.79994419182945
 30
0
 11
1678.240336403073
 21
51.64369419182945
 31
0
  0
LINE
  8
1
 62
2
 10
1678.490336403073
 20
45.73744419182945
 30
0
 11
1679.740336403073
 21
49.39369419182945
 31
0
  0
LINE
  8
1
 62
2
 10
1672.740336403073
 20
49.11244419182945
 30
0
 11
1671.740336403073
 21
50.51869419182945
 31
0
  0
LINE
  8
1
 62
2
 10
1674.740336403073
 20
46.01869419182945
 30
0
 11
1673.490336403073
 21
46.01869419182945
 31
0
  0
LINE
  8
1
 62
2
 10
1674.740336403073
 20
54.17494419182945
 30
0
 11
1674.740336403073
 21
46.01869419182945
 31
0
  0
LINE
  8
1
 62
2
 10
1669.990336403073
 20
51.92494419182945
 30
0
 11
1676.740336403073
 21
51.92494419182945
 31
0
  0
LINE
  8
1
 62
2
 10
1661.240336403073
 20
47.70619419182945
 30
0
 11
1661.240336403073
 21
50.51869419182945
 31
0
  0
LINE
  8
1
 62
2
 10
1662.740336403073
 20
46.29994419182945
 30
0
 11
1661.240336403073
 21
46.29994419182945
 31
0
  0
LINE
  8
1
 62
2
 10
1662.740336403073
 20
50.51869419182945
 30
0
 11
1663.990336403073
 21
50.51869419182945
 31
0
  0
LINE
  8
1
 62
2
 10
1662.490336403073
 20
53.33119419182945
 30
0
 11
1661.490336403073
 21
53.33119419182945
 31
0
  0
LINE
  8
1
 62
2
 10
1664.740336403073
 20
52.20619419182945
 30
0
 11
1664.740336403073
 21
50.51869419182945
 31
0
  0
LINE
  8
1
 62
2
 10
1667.240336403073
 20
50.51869419182945
 30
0
 11
1667.240336403073
 21
53.89369419182945
 31
0
  0
LINE
  8
1
 62
2
 10
1664.740336403073
 20
50.51869419182945
 30
0
 11
1664.740336403073
 21
48.83119419182945
 31
0
  0
LINE
  8
1
 62
2
 10
1665.490336403073
 20
48.83119419182945
 30
0
 11
1666.240336403073
 21
48.83119419182945
 31
0
  0
LINE
  8
1
 62
2
 10
1666.240336403073
 20
48.83119419182945
 30
0
 11
1667.240336403073
 21
48.83119419182945
 31
0
  0
LINE
  8
1
 62
2
 10
1667.990336403073
 20
45.73744419182945
 30
0
 11
1668.240336403073
 21
46.29994419182945
 31
0
  0
LINE
  8
1
 62
2
 10
1666.990336403073
 20
45.73744419182945
 30
0
 11
1667.990336403073
 21
45.73744419182945
 31
0
  0
LINE
  8
1
 62
2
 10
1666.240336403073
 20
46.29994419182945
 30
0
 11
1666.990336403073
 21
45.73744419182945
 31
0
  0
LINE
  8
1
 62
2
 10
1666.240336403073
 20
48.83119419182945
 30
0
 11
1666.240336403073
 21
46.29994419182945
 31
0
  0
LINE
  8
1
 62
2
 10
1664.740336403073
 20
46.58119419182945
 30
0
 11
1663.990336403073
 21
45.73744419182945
 31
0
  0
LINE
  8
1
 62
2
 10
1665.240336403073
 20
47.98744419182945
 30
0
 11
1664.740336403073
 21
46.58119419182945
 31
0
  0
LINE
  8
1
 62
2
 10
1665.490336403073
 20
48.83119419182945
 30
0
 11
1665.240336403073
 21
47.98744419182945
 31
0
  0
LINE
  8
1
 62
2
 10
1667.240336403073
 20
50.51869419182945
 30
0
 11
1664.740336403073
 21
50.51869419182945
 31
0
  0
LINE
  8
1
 62
2
 10
1664.740336403073
 20
52.20619419182945
 30
0
 11
1667.240336403073
 21
52.20619419182945
 31
0
  0
LINE
  8
1
 62
2
 10
1667.240336403073
 20
53.89369419182945
 30
0
 11
1664.740336403073
 21
53.89369419182945
 31
0
  0
LINE
  8
1
 62
2
 10
1667.240336403073
 20
48.83119419182945
 30
0
 11
1667.240336403073
 21
50.51869419182945
 31
0
  0
LINE
  8
1
 62
2
 10
1664.740336403073
 20
48.83119419182945
 30
0
 11
1665.490336403073
 21
48.83119419182945
 31
0
  0
LINE
  8
1
 62
2
 10
1664.740336403073
 20
53.89369419182945
 30
0
 11
1664.740336403073
 21
52.20619419182945
 31
0
  0
LINE
  8
1
 62
2
 10
1661.240336403073
 20
53.33119419182945
 30
0
 11
1661.740336403073
 21
54.45619419182945
 31
0
  0
LINE
  8
1
 62
2
 10
1660.490336403073
 20
52.48744419182945
 30
0
 11
1661.240336403073
 21
53.33119419182945
 31
0
  0
LINE
  8
1
 62
2
 10
1663.990336403073
 20
53.33119419182945
 30
0
 11
1662.490336403073
 21
53.33119419182945
 31
0
  0
LINE
  8
1
 62
2
 10
1661.490336403073
 20
50.79994419182945
 30
0
 11
1662.490336403073
 21
53.33119419182945
 31
0
  0
LINE
  8
1
 62
2
 10
1660.240336403073
 20
49.11244419182945
 30
0
 11
1661.490336403073
 21
50.79994419182945
 31
0
  0
LINE
  8
1
 62
2
 10
1664.240336403073
 20
51.92494419182945
 30
0
 11
1660.490336403073
 21
51.92494419182945
 31
0
  0
LINE
  8
1
 62
2
 10
1662.740336403073
 20
50.51869419182945
 30
0
 11
1662.990336403073
 21
51.08119419182945
 31
0
  0
LINE
  8
1
 62
2
 10
1662.740336403073
 20
46.29994419182945
 30
0
 11
1662.740336403073
 21
50.51869419182945
 31
0
  0
LINE
  8
1
 62
2
 10
1663.990336403073
 20
46.29994419182945
 30
0
 11
1662.740336403073
 21
46.29994419182945
 31
0
  0
LINE
  8
1
 62
2
 10
1661.240336403073
 20
47.70619419182945
 30
0
 11
1663.990336403073
 21
47.70619419182945
 31
0
  0
LINE
  8
1
 62
2
 10
1663.990336403073
 20
49.11244419182945
 30
0
 11
1661.240336403073
 21
49.11244419182945
 31
0
  0
LINE
  8
1
 62
2
 10
1661.240336403073
 20
50.51869419182945
 30
0
 11
1662.740336403073
 21
50.51869419182945
 31
0
  0
LINE
  8
1
 62
2
 10
1661.240336403073
 20
45.73744419182945
 30
0
 11
1661.240336403073
 21
47.70619419182945
 31
0
  0
LINE
  8
1
 62
2
 10
1657.990336403073
 20
50.51869419182945
 30
0
 11
1659.240336403073
 21
49.11244419182945
 31
0
  0
LINE
  8
1
 62
2
 10
1655.990336403073
 20
52.48744419182945
 30
0
 11
1657.990336403073
 21
50.51869419182945
 31
0
  0
LINE
  8
1
 62
2
 10
1656.490336403073
 20
54.73744419182945
 30
0
 11
1656.490336403073
 21
45.73744419182945
 31
0
  0
LINE
  8
1
 62
2
 10
1652.240336403073
 20
51.08119419182945
 30
0
 11
1653.990336403073
 21
49.67494419182945
 31
0
  0
LINE
  8
1
 62
2
 10
1652.240336403073
 20
51.36244419182945
 30
0
 11
1651.240336403073
 21
49.95619419182945
 31
0
  0
LINE
  8
1
 62
2
 10
1652.990336403073
 20
53.04994419182945
 30
0
 11
1652.240336403073
 21
51.36244419182945
 31
0
  0
LINE
  8
1
 62
2
 10
1653.490336403073
 20
54.73744419182945
 30
0
 11
1652.990336403073
 21
53.04994419182945
 31
0
  0
LINE
  8
1
 62
2
 10
1655.240336403073
 20
52.76869419182945
 30
0
 11
1652.990336403073
 21
52.76869419182945
 31
0
  0
LINE
  8
1
 62
2
 10
1654.740336403073
 20
51.08119419182945
 30
0
 11
1655.240336403073
 21
52.76869419182945
 31
0
  0
LINE
  8
1
 62
2
 10
1654.240336403073
 20
49.95619419182945
 30
0
 11
1654.740336403073
 21
51.08119419182945
 31
0
  0
LINE
  8
1
 62
2
 10
1653.240336403073
 20
48.26869419182945
 30
0
 11
1654.240336403073
 21
49.95619419182945
 31
0
  0
LINE
  8
1
 62
2
 10
1651.740336403073
 20
46.29994419182945
 30
0
 11
1653.240336403073
 21
48.26869419182945
 31
0
  0
LINE
  8
1
 62
2
 10
1636.390336403073
 20
52.03744419182944
 30
0
 11
1638.190336403073
 21
52.03744419182944
 31
0
  0
LINE
  8
1
 62
2
 10
1636.390336403073
 20
52.03744419182944
 30
0
 11
1636.390336403073
 21
45.73744419182945
 31
0
  0
LINE
  8
1
 62
2
 10
1639.540336403073
 20
50.91244419182944
 30
0
 11
1639.540336403073
 21
45.73744419182945
 31
0
  0
LINE
  8
1
 62
2
 10
1639.315336403073
 20
51.36244419182945
 30
0
 11
1639.540336403073
 21
50.91244419182944
 31
0
  0
LINE
  8
1
 62
2
 10
1638.865336403073
 20
51.81244419182945
 30
0
 11
1639.315336403073
 21
51.36244419182945
 31
0
  0
LINE
  8
1
 62
2
 10
1638.190336403073
 20
52.03744419182944
 30
0
 11
1638.865336403073
 21
51.81244419182945
 31
0
  0
LINE
  8
1
 62
2
 10
1633.240336403073
 20
52.03744419182944
 30
0
 11
1636.390336403073
 21
52.03744419182944
 31
0
  0
LINE
  8
1
 62
2
 10
1633.240336403073
 20
45.73744419182945
 30
0
 11
1633.240336403073
 21
52.03744419182944
 31
0
  0
LINE
  8
1
 62
2
 10
1627.390336403073
 20
52.03744419182944
 30
0
 11
1629.190336403073
 21
52.03744419182944
 31
0
  0
LINE
  8
1
 62
2
 10
1627.390336403073
 20
52.03744419182944
 30
0
 11
1627.390336403073
 21
45.73744419182945
 31
0
  0
LINE
  8
1
 62
2
 10
1630.540336403073
 20
50.91244419182944
 30
0
 11
1630.540336403073
 21
45.73744419182945
 31
0
  0
LINE
  8
1
 62
2
 10
1630.315336403073
 20
51.36244419182945
 30
0
 11
1630.540336403073
 21
50.91244419182944
 31
0
  0
LINE
  8
1
 62
2
 10
1629.865336403073
 20
51.81244419182945
 30
0
 11
1630.315336403073
 21
51.36244419182945
 31
0
  0
LINE
  8
1
 62
2
 10
1629.190336403073
 20
52.03744419182944
 30
0
 11
1629.865336403073
 21
51.81244419182945
 31
0
  0
LINE
  8
1
 62
2
 10
1624.240336403073
 20
52.03744419182944
 30
0
 11
1627.390336403073
 21
52.03744419182944
 31
0
  0
LINE
  8
1
 62
2
 10
1624.240336403073
 20
45.73744419182945
 30
0
 11
1624.240336403073
 21
52.03744419182944
 31
0
  0
LINE
  8
1
 62
2
 10
1621.540336403073
 20
51.36244419182945
 30
0
 11
1621.540336403073
 21
49.11244419182945
 31
0
  0
LINE
  8
1
 62
2
 10
1621.315336403073
 20
52.71244419182945
 30
0
 11
1621.540336403073
 21
51.36244419182945
 31
0
  0
LINE
  8
1
 62
2
 10
1620.865336403073
 20
53.61244419182945
 30
0
 11
1621.315336403073
 21
52.71244419182945
 31
0
  0
LINE
  8
1
 62
2
 10
1620.415336403073
 20
54.06244419182945
 30
0
 11
1620.865336403073
 21
53.61244419182945
 31
0
  0
LINE
  8
1
 62
2
 10
1619.740336403073
 20
54.51244419182945
 30
0
 11
1620.415336403073
 21
54.06244419182945
 31
0
  0
LINE
  8
1
 62
2
 10
1619.065336403073
 20
54.73744419182945
 30
0
 11
1619.740336403073
 21
54.51244419182945
 31
0
  0
LINE
  8
1
 62
2
 10
1618.615336403073
 20
54.73744419182945
 30
0
 11
1619.065336403073
 21
54.73744419182945
 31
0
  0
LINE
  8
1
 62
2
 10
1617.940336403073
 20
54.51244419182945
 30
0
 11
1618.615336403073
 21
54.73744419182945
 31
0
  0
LINE
  8
1
 62
2
 10
1617.265336403073
 20
54.06244419182945
 30
0
 11
1617.940336403073
 21
54.51244419182945
 31
0
  0
LINE
  8
1
 62
2
 10
1616.815336403073
 20
53.61244419182945
 30
0
 11
1617.265336403073
 21
54.06244419182945
 31
0
  0
LINE
  8
1
 62
2
 10
1616.365336403073
 20
52.71244419182945
 30
0
 11
1616.815336403073
 21
53.61244419182945
 31
0
  0
LINE
  8
1
 62
2
 10
1616.140336403073
 20
51.36244419182945
 30
0
 11
1616.365336403073
 21
52.71244419182945
 31
0
  0
LINE
  8
1
 62
2
 10
1616.140336403073
 20
49.11244419182945
 30
0
 11
1616.140336403073
 21
51.36244419182945
 31
0
  0
LINE
  8
1
 62
2
 10
1616.365336403073
 20
47.76244419182945
 30
0
 11
1616.140336403073
 21
49.11244419182945
 31
0
  0
LINE
  8
1
 62
2
 10
1616.815336403073
 20
46.86244419182945
 30
0
 11
1616.365336403073
 21
47.76244419182945
 31
0
  0
LINE
  8
1
 62
2
 10
1617.265336403073
 20
46.41244419182944
 30
0
 11
1616.815336403073
 21
46.86244419182945
 31
0
  0
LINE
  8
1
 62
2
 10
1617.940336403073
 20
45.96244419182945
 30
0
 11
1617.265336403073
 21
46.41244419182944
 31
0
  0
LINE
  8
1
 62
2
 10
1618.615336403073
 20
45.73744419182945
 30
0
 11
1617.940336403073
 21
45.96244419182945
 31
0
  0
LINE
  8
1
 62
2
 10
1619.065336403073
 20
45.73744419182945
 30
0
 11
1618.615336403073
 21
45.73744419182945
 31
0
  0
LINE
  8
1
 62
2
 10
1619.740336403073
 20
45.96244419182945
 30
0
 11
1619.065336403073
 21
45.73744419182945
 31
0
  0
LINE
  8
1
 62
2
 10
1620.415336403073
 20
46.41244419182944
 30
0
 11
1619.740336403073
 21
45.96244419182945
 31
0
  0
LINE
  8
1
 62
2
 10
1620.865336403073
 20
46.86244419182945
 30
0
 11
1620.415336403073
 21
46.41244419182944
 31
0
  0
LINE
  8
1
 62
2
 10
1621.315336403073
 20
47.76244419182945
 30
0
 11
1620.865336403073
 21
46.86244419182945
 31
0
  0
LINE
  8
1
 62
2
 10
1621.540336403073
 20
49.11244419182945
 30
0
 11
1621.315336403073
 21
47.76244419182945
 31
0
  0
LINE
  8
1
 62
2
 10
1608.040336403073
 20
45.73744419182945
 30
0
 11
1613.440336403073
 21
45.73744419182945
 31
0
  0
LINE
  8
1
 62
2
 10
1612.990336403073
 20
51.58744419182945
 30
0
 11
1608.040336403073
 21
45.73744419182945
 31
0
  0
LINE
  8
1
 62
2
 10
1613.440336403073
 20
52.48744419182945
 30
0
 11
1612.990336403073
 21
51.58744419182945
 31
0
  0
LINE
  8
1
 62
2
 10
1613.440336403073
 20
53.38744419182945
 30
0
 11
1613.440336403073
 21
52.48744419182945
 31
0
  0
LINE
  8
1
 62
2
 10
1612.990336403073
 20
54.06244419182945
 30
0
 11
1613.440336403073
 21
53.38744419182945
 31
0
  0
LINE
  8
1
 62
2
 10
1612.315336403073
 20
54.51244419182945
 30
0
 11
1612.990336403073
 21
54.06244419182945
 31
0
  0
LINE
  8
1
 62
2
 10
1611.415336403073
 20
54.73744419182945
 30
0
 11
1612.315336403073
 21
54.51244419182945
 31
0
  0
LINE
  8
1
 62
2
 10
1610.065336403073
 20
54.73744419182945
 30
0
 11
1611.415336403073
 21
54.73744419182945
 31
0
  0
LINE
  8
1
 62
2
 10
1609.165336403073
 20
54.51244419182945
 30
0
 11
1610.065336403073
 21
54.73744419182945
 31
0
  0
LINE
  8
1
 62
2
 10
1608.490336403073
 20
54.06244419182945
 30
0
 11
1609.165336403073
 21
54.51244419182945
 31
0
  0
LINE
  8
1
 62
2
 10
1608.040336403073
 20
53.38744419182945
 30
0
 11
1608.490336403073
 21
54.06244419182945
 31
0
  0
LINE
  8
1
 62
2
 10
1602.040336403073
 20
54.17494419182945
 30
0
 11
1599.540336403073
 21
54.17494419182945
 31
0
  0
LINE
  8
1
 62
2
 10
1603.290336403073
 20
46.01869419182945
 30
0
 11
1606.790336403073
 21
46.01869419182945
 31
0
  0
LINE
  8
1
 62
2
 10
1603.290336403073
 20
49.39369419182945
 30
0
 11
1603.290336403073
 21
46.01869419182945
 31
0
  0
LINE
  8
1
 62
2
 10
1606.290336403073
 20
49.39369419182945
 30
0
 11
1605.540336403073
 21
49.39369419182945
 31
0
  0
LINE
  8
1
 62
2
 10
1606.290336403073
 20
54.45619419182945
 30
0
 11
1606.290336403073
 21
49.39369419182945
 31
0
  0
LINE
  8
1
 62
2
 10
1604.540336403073
 20
50.51869419182945
 30
0
 11
1604.540336403073
 21
54.17494419182945
 31
0
  0
LINE
  8
1
 62
2
 10
1602.040336403073
 20
54.17494419182945
 30
0
 11
1602.040336403073
 21
49.39369419182945
 31
0
  0
LINE
  8
1
 62
2
 10
1599.290336403073
 20
52.20619419182945
 30
0
 11
1603.540336403073
 21
52.20619419182945
 31
0
  0
LINE
  8
1
 62
2
 10
1603.290336403073
 20
54.17494419182945
 30
0
 11
1602.040336403073
 21
54.17494419182945
 31
0
  0
LINE
  8
1
 62
2
 10
1600.790336403073
 20
52.20619419182945
 30
0
 11
1600.790336403073
 21
54.17494419182945
 31
0
  0
LINE
  8
1
 62
2
 10
1600.290336403073
 20
50.23744419182945
 30
0
 11
1600.790336403073
 21
52.20619419182945
 31
0
  0
LINE
  8
1
 62
2
 10
1599.540336403073
 20
49.11244419182945
 30
0
 11
1600.290336403073
 21
50.23744419182945
 31
0
  0
LINE
  8
1
 62
2
 10
1605.790336403073
 20
47.98744419182945
 30
0
 11
1600.290336403073
 21
47.98744419182945
 31
0
  0
LINE
  8
1
 62
2
 10
1599.540336403073
 20
46.01869419182945
 30
0
 11
1603.290336403073
 21
46.01869419182945
 31
0
  0
LINE
  8
1
 62
2
 10
1592.740336403073
 20
54.73744419182945
 30
0
 11
1596.340336403073
 21
45.73744419182945
 31
0
  0
LINE
  8
1
 62
2
 10
1589.140336403073
 20
45.73744419182945
 30
0
 11
1592.740336403073
 21
54.73744419182945
 31
0
  0
LINE
  8
1
 62
2
 10
1590.265336403073
 20
48.43744419182945
 30
0
 11
1595.215336403073
 21
48.43744419182945
 31
0
  0
LINE
  8
1
 62
2
 10
1586.215336403073
 20
52.93744419182945
 30
0
 11
1586.440336403073
 21
52.03744419182944
 31
0
  0
LINE
  8
1
 62
2
 10
1585.765336403073
 20
53.61244419182945
 30
0
 11
1586.215336403073
 21
52.93744419182945
 31
0
  0
LINE
  8
1
 62
2
 10
1585.315336403073
 20
54.06244419182945
 30
0
 11
1585.765336403073
 21
53.61244419182945
 31
0
  0
LINE
  8
1
 62
2
 10
1584.640336403073
 20
54.51244419182945
 30
0
 11
1585.315336403073
 21
54.06244419182945
 31
0
  0
LINE
  8
1
 62
2
 10
1583.740336403073
 20
54.73744419182945
 30
0
 11
1584.640336403073
 21
54.51244419182945
 31
0
  0
LINE
  8
1
 62
2
 10
1580.140336403073
 20
54.73744419182945
 30
0
 11
1583.740336403073
 21
54.73744419182945
 31
0
  0
LINE
  8
1
 62
2
 10
1580.140336403073
 20
45.73744419182945
 30
0
 11
1580.140336403073
 21
54.73744419182945
 31
0
  0
LINE
  8
1
 62
2
 10
1583.740336403073
 20
45.73744419182945
 30
0
 11
1580.140336403073
 21
45.73744419182945
 31
0
  0
LINE
  8
1
 62
2
 10
1584.640336403073
 20
45.96244419182945
 30
0
 11
1583.740336403073
 21
45.73744419182945
 31
0
  0
LINE
  8
1
 62
2
 10
1585.315336403073
 20
46.41244419182944
 30
0
 11
1584.640336403073
 21
45.96244419182945
 31
0
  0
LINE
  8
1
 62
2
 10
1585.765336403073
 20
46.86244419182945
 30
0
 11
1585.315336403073
 21
46.41244419182944
 31
0
  0
LINE
  8
1
 62
2
 10
1586.215336403073
 20
47.53744419182944
 30
0
 11
1585.765336403073
 21
46.86244419182945
 31
0
  0
LINE
  8
1
 62
2
 10
1586.440336403073
 20
48.43744419182945
 30
0
 11
1586.215336403073
 21
47.53744419182944
 31
0
  0
LINE
  8
1
 62
2
 10
1586.440336403073
 20
52.03744419182944
 30
0
 11
1586.440336403073
 21
48.43744419182945
 31
0
  0
LINE
  8
1
 62
2
 10
1571.140336403073
 20
48.43744419182945
 30
0
 11
1571.140336403073
 21
54.73744419182945
 31
0
  0
LINE
  8
1
 62
2
 10
1571.140336403073
 20
45.73744419182945
 30
0
 11
1571.140336403073
 21
48.43744419182945
 31
0
  0
LINE
  8
1
 62
2
 10
1572.940336403073
 20
50.23744419182945
 30
0
 11
1577.440336403073
 21
45.73744419182945
 31
0
  0
LINE
  8
1
 62
2
 10
1577.440336403073
 20
54.73744419182945
 30
0
 11
1572.940336403073
 21
50.23744419182945
 31
0
  0
LINE
  8
1
 62
2
 10
1572.940336403073
 20
50.23744419182945
 30
0
 11
1571.140336403073
 21
48.43744419182945
 31
0
  0
LINE
  8
1
 62
2
 10
1568.440336403073
 20
50.68744419182945
 30
0
 11
1566.190336403073
 21
50.68744419182945
 31
0
  0
LINE
  8
1
 62
2
 10
1568.440336403073
 20
45.73744419182945
 30
0
 11
1568.440336403073
 21
50.68744419182945
 31
0
  0
LINE
  8
1
 62
2
 10
1564.615336403073
 20
45.73744419182945
 30
0
 11
1568.440336403073
 21
45.73744419182945
 31
0
  0
LINE
  8
1
 62
2
 10
1563.940336403073
 20
45.96244419182945
 30
0
 11
1564.615336403073
 21
45.73744419182945
 31
0
  0
LINE
  8
1
 62
2
 10
1563.040336403073
 20
46.41244419182944
 30
0
 11
1563.940336403073
 21
45.96244419182945
 31
0
  0
LINE
  8
1
 62
2
 10
1562.590336403073
 20
46.86244419182945
 30
0
 11
1563.040336403073
 21
46.41244419182944
 31
0
  0
LINE
  8
1
 62
2
 10
1562.365336403073
 20
47.53744419182944
 30
0
 11
1562.590336403073
 21
46.86244419182945
 31
0
  0
LINE
  8
1
 62
2
 10
1562.140336403073
 20
48.43744419182945
 30
0
 11
1562.365336403073
 21
47.53744419182944
 31
0
  0
LINE
  8
1
 62
2
 10
1562.140336403073
 20
52.03744419182944
 30
0
 11
1562.140336403073
 21
48.43744419182945
 31
0
  0
LINE
  8
1
 62
2
 10
1562.365336403073
 20
52.93744419182945
 30
0
 11
1562.140336403073
 21
52.03744419182944
 31
0
  0
LINE
  8
1
 62
2
 10
1562.590336403073
 20
53.61244419182945
 30
0
 11
1562.365336403073
 21
52.93744419182945
 31
0
  0
LINE
  8
1
 62
2
 10
1563.040336403073
 20
54.06244419182945
 30
0
 11
1562.590336403073
 21
53.61244419182945
 31
0
  0
LINE
  8
1
 62
2
 10
1563.715336403073
 20
54.51244419182945
 30
0
 11
1563.040336403073
 21
54.06244419182945
 31
0
  0
LINE
  8
1
 62
2
 10
1564.615336403073
 20
54.73744419182945
 30
0
 11
1563.715336403073
 21
54.51244419182945
 31
0
  0
LINE
  8
1
 62
2
 10
1568.440336403073
 20
54.73744419182945
 30
0
 11
1564.615336403073
 21
54.73744419182945
 31
0
  0
LINE
  8
1
 62
7
 10
1586.446161219274
 20
305.2585766473571
 30
0
 11
1586.446173683358
 21
305.2585953178942
 31
0
  0
LINE
  8
1
 62
7
 10
1586.923911073574
 20
304.258578346157
 30
0
 11
1587.921294221048
 21
304.1862890878234
 31
0
  0
LINE
  8
1
 62
7
 10
1586.923911073574
 20
298.258577362657
 30
0
 11
1587.921294221098
 21
298.3308666208528
 31
0
  0
LINE
  8
0
 62
7
 10
1670.815336727457
 20
190.5696610365539
 30
0
 11
1670.815337174457
 21
190.7412330065539
 31
0
  0
LINE
  8
1
 62
7
 10
1643.136452478156
 20
137.9386783427676
 30
0
 11
1642.835916764374
 21
137.6072051290381
 31
0
  0
LINE
  8
1
 62
7
 10
1643.512122120383
 20
138.1596604852539
 30
0
 11
1643.136452478156
 21
137.9386783427676
 31
0
  0
LINE
  8
1
 62
7
 10
1643.812657834164
 20
138.1596604852539
 30
0
 11
1643.512122120383
 21
138.1596604852539
 31
0
  0
LINE
  8
1
 62
7
 10
1644.338595333281
 20
137.9386783427676
 30
0
 11
1643.812657834164
 21
138.1596604852539
 31
0
  0
LINE
  8
1
 62
7
 10
1644.789398903954
 20
137.4967140577949
 30
0
 11
1644.338595333281
 21
137.9386783427676
 31
0
  0
LINE
  8
1
 62
7
 10
1645.01480068929
 20
137.0547497728223
 30
0
 11
1644.789398903954
 21
137.4967140577949
 31
0
  0
LINE
  8
1
 62
7
 10
1645.240202474626
 20
136.3918033453633
 30
0
 11
1645.01480068929
 21
137.0547497728223
 31
0
  0
LINE
  8
1
 62
7
 10
1645.315336403071
 20
135.507874775418
 30
0
 11
1645.240202474626
 21
136.3918033453633
 31
0
  0
LINE
  8
1
 62
7
 10
1645.315336403071
 20
131.5301962106641
 30
0
 11
1645.315336403071
 21
135.507874775418
 31
0
  0
LINE
  8
1
 62
7
 10
1644.488863190172
 20
131.5301962106641
 30
0
 11
1645.315336403071
 21
131.5301962106641
 31
0
  0
LINE
  8
1
 62
7
 10
1644.488863190172
 20
135.6183658466611
 30
0
 11
1644.488863190172
 21
131.5301962106641
 31
0
  0
LINE
  8
1
 62
7
 10
1644.413729261727
 20
136.0603301316338
 30
0
 11
1644.488863190172
 21
135.6183658466611
 31
0
  0
LINE
  8
1
 62
7
 10
1644.188327476391
 20
136.6127854878496
 30
0
 11
1644.413729261727
 21
136.0603301316338
 31
0
  0
LINE
  8
1
 62
7
 10
1643.962925691055
 20
136.9442587015791
 30
0
 11
1644.188327476391
 21
136.6127854878496
 31
0
  0
LINE
  8
1
 62
7
 10
1643.587256048828
 20
137.0547497728223
 30
0
 11
1643.962925691055
 21
136.9442587015791
 31
0
  0
LINE
  8
1
 62
7
 10
1643.286720335047
 20
136.9442587015791
 30
0
 11
1643.587256048828
 21
137.0547497728223
 31
0
  0
LINE
  8
1
 62
7
 10
1642.986184621265
 20
136.6127854878496
 30
0
 11
1643.286720335047
 21
136.9442587015791
 31
0
  0
LINE
  8
1
 62
7
 10
1642.835916764374
 20
136.0603301316338
 30
0
 11
1642.986184621265
 21
136.6127854878496
 31
0
  0
LINE
  8
1
 62
7
 10
1642.835916764374
 20
131.5301962106641
 30
0
 11
1642.835916764374
 21
136.0603301316338
 31
0
  0
LINE
  8
1
 62
7
 10
1642.009443551475
 20
131.5301962106641
 30
0
 11
1642.835916764374
 21
131.5301962106641
 31
0
  0
LINE
  8
1
 62
7
 10
1642.009443551475
 20
135.6183658466611
 30
0
 11
1642.009443551475
 21
131.5301962106641
 31
0
  0
LINE
  8
1
 62
7
 10
1641.93430962303
 20
136.0603301316338
 30
0
 11
1642.009443551475
 21
135.6183658466611
 31
0
  0
LINE
  8
1
 62
7
 10
1641.708907837694
 20
136.6127854878496
 30
0
 11
1641.93430962303
 21
136.0603301316338
 31
0
  0
LINE
  8
1
 62
7
 10
1641.483506052358
 20
136.9442587015791
 30
0
 11
1641.708907837694
 21
136.6127854878496
 31
0
  0
LINE
  8
1
 62
7
 10
1641.107836410131
 20
137.0547497728223
 30
0
 11
1641.483506052358
 21
136.9442587015791
 31
0
  0
LINE
  8
1
 62
7
 10
1640.80730069635
 20
136.9442587015791
 30
0
 11
1641.107836410131
 21
137.0547497728223
 31
0
  0
LINE
  8
1
 62
7
 10
1640.506764982569
 20
136.6127854878496
 30
0
 11
1640.80730069635
 21
136.9442587015791
 31
0
  0
LINE
  8
1
 62
7
 10
1640.356497125678
 20
136.0603301316338
 30
0
 11
1640.506764982569
 21
136.6127854878496
 31
0
  0
LINE
  8
1
 62
7
 10
1640.356497125678
 20
131.5301962106641
 30
0
 11
1640.356497125678
 21
136.0603301316338
 31
0
  0
LINE
  8
1
 62
7
 10
1639.530023912779
 20
131.5301962106641
 30
0
 11
1640.356497125678
 21
131.5301962106641
 31
0
  0
LINE
  8
1
 62
7
 10
1639.530023912779
 20
138.0491694140108
 30
0
 11
1639.530023912779
 21
131.5301962106641
 31
0
  0
LINE
  8
1
 62
7
 10
1640.356497125678
 20
138.0491694140108
 30
0
 11
1639.530023912779
 21
138.0491694140108
 31
0
  0
LINE
  8
1
 62
7
 10
1640.356497125678
 20
137.4967140577949
 30
0
 11
1640.356497125678
 21
138.0491694140108
 31
0
  0
LINE
  8
1
 62
7
 10
1640.581898911014
 20
137.9386783427676
 30
0
 11
1640.356497125678
 21
137.4967140577949
 31
0
  0
LINE
  8
1
 62
7
 10
1641.032702481686
 20
138.1596604852539
 30
0
 11
1640.581898911014
 21
137.9386783427676
 31
0
  0
LINE
  8
1
 62
7
 10
1641.333238195467
 20
138.1596604852539
 30
0
 11
1641.032702481686
 21
138.1596604852539
 31
0
  0
LINE
  8
1
 62
7
 10
1641.859175694585
 20
137.9386783427676
 30
0
 11
1641.333238195467
 21
138.1596604852539
 31
0
  0
LINE
  8
1
 62
7
 10
1642.309979265257
 20
137.4967140577949
 30
0
 11
1641.859175694585
 21
137.9386783427676
 31
0
  0
LINE
  8
1
 62
7
 10
1642.610514979038
 20
137.0547497728223
 30
0
 11
1642.309979265257
 21
137.4967140577949
 31
0
  0
LINE
  8
1
 62
7
 10
1642.835916764374
 20
137.6072051290381
 30
0
 11
1642.610514979038
 21
137.0547497728223
 31
0
  0
LINE
  8
1
 62
7
 10
1636.148997132738
 20
137.9386783427676
 30
0
 11
1635.848461418957
 21
137.6072051290381
 31
0
  0
LINE
  8
1
 62
7
 10
1636.524666774965
 20
138.1596604852539
 30
0
 11
1636.148997132738
 21
137.9386783427676
 31
0
  0
LINE
  8
1
 62
7
 10
1636.825202488746
 20
138.1596604852539
 30
0
 11
1636.524666774965
 21
138.1596604852539
 31
0
  0
LINE
  8
1
 62
7
 10
1637.351139987864
 20
137.9386783427676
 30
0
 11
1636.825202488746
 21
138.1596604852539
 31
0
  0
LINE
  8
1
 62
7
 10
1637.801943558536
 20
137.4967140577949
 30
0
 11
1637.351139987864
 21
137.9386783427676
 31
0
  0
LINE
  8
1
 62
7
 10
1638.027345343872
 20
137.0547497728223
 30
0
 11
1637.801943558536
 21
137.4967140577949
 31
0
  0
LINE
  8
1
 62
7
 10
1638.252747129208
 20
136.3918033453633
 30
0
 11
1638.027345343872
 21
137.0547497728223
 31
0
  0
LINE
  8
1
 62
7
 10
1638.327881057653
 20
135.507874775418
 30
0
 11
1638.252747129208
 21
136.3918033453633
 31
0
  0
LINE
  8
1
 62
7
 10
1638.327881057653
 20
131.5301962106641
 30
0
 11
1638.327881057653
 21
135.507874775418
 31
0
  0
LINE
  8
1
 62
7
 10
1637.501407844755
 20
131.5301962106641
 30
0
 11
1638.327881057653
 21
131.5301962106641
 31
0
  0
LINE
  8
1
 62
7
 10
1637.501407844755
 20
135.6183658466611
 30
0
 11
1637.501407844755
 21
131.5301962106641
 31
0
  0
LINE
  8
1
 62
7
 10
1637.426273916309
 20
136.0603301316338
 30
0
 11
1637.501407844755
 21
135.6183658466611
 31
0
  0
LINE
  8
1
 62
7
 10
1637.200872130973
 20
136.6127854878496
 30
0
 11
1637.426273916309
 21
136.0603301316338
 31
0
  0
LINE
  8
1
 62
7
 10
1636.975470345637
 20
136.9442587015791
 30
0
 11
1637.200872130973
 21
136.6127854878496
 31
0
  0
LINE
  8
1
 62
7
 10
1636.59980070341
 20
137.0547497728223
 30
0
 11
1636.975470345637
 21
136.9442587015791
 31
0
  0
LINE
  8
1
 62
7
 10
1636.299264989629
 20
136.9442587015791
 30
0
 11
1636.59980070341
 21
137.0547497728223
 31
0
  0
LINE
  8
1
 62
7
 10
1635.998729275847
 20
136.6127854878496
 30
0
 11
1636.299264989629
 21
136.9442587015791
 31
0
  0
LINE
  8
1
 62
7
 10
1635.848461418957
 20
136.0603301316338
 30
0
 11
1635.998729275847
 21
136.6127854878496
 31
0
  0
LINE
  8
1
 62
7
 10
1635.848461418957
 20
131.5301962106641
 30
0
 11
1635.848461418957
 21
136.0603301316338
 31
0
  0
LINE
  8
1
 62
7
 10
1635.021988206058
 20
131.5301962106641
 30
0
 11
1635.848461418957
 21
131.5301962106641
 31
0
  0
LINE
  8
1
 62
7
 10
1635.021988206058
 20
135.6183658466611
 30
0
 11
1635.021988206058
 21
131.5301962106641
 31
0
  0
LINE
  8
1
 62
7
 10
1634.946854277613
 20
136.0603301316338
 30
0
 11
1635.021988206058
 21
135.6183658466611
 31
0
  0
LINE
  8
1
 62
7
 10
1634.721452492277
 20
136.6127854878496
 30
0
 11
1634.946854277613
 21
136.0603301316338
 31
0
  0
LINE
  8
1
 62
7
 10
1634.49605070694
 20
136.9442587015791
 30
0
 11
1634.721452492277
 21
136.6127854878496
 31
0
  0
LINE
  8
1
 62
7
 10
1634.120381064714
 20
137.0547497728223
 30
0
 11
1634.49605070694
 21
136.9442587015791
 31
0
  0
LINE
  8
1
 62
7
 10
1633.819845350932
 20
136.9442587015791
 30
0
 11
1634.120381064714
 21
137.0547497728223
 31
0
  0
LINE
  8
1
 62
7
 10
1633.519309637151
 20
136.6127854878496
 30
0
 11
1633.819845350932
 21
136.9442587015791
 31
0
  0
LINE
  8
1
 62
7
 10
1633.36904178026
 20
136.0603301316338
 30
0
 11
1633.519309637151
 21
136.6127854878496
 31
0
  0
LINE
  8
1
 62
7
 10
1633.36904178026
 20
131.5301962106641
 30
0
 11
1633.36904178026
 21
136.0603301316338
 31
0
  0
LINE
  8
1
 62
7
 10
1632.542568567361
 20
131.5301962106641
 30
0
 11
1633.36904178026
 21
131.5301962106641
 31
0
  0
LINE
  8
1
 62
7
 10
1632.542568567361
 20
138.0491694140108
 30
0
 11
1632.542568567361
 21
131.5301962106641
 31
0
  0
LINE
  8
1
 62
7
 10
1633.36904178026
 20
138.0491694140108
 30
0
 11
1632.542568567361
 21
138.0491694140108
 31
0
  0
LINE
  8
1
 62
7
 10
1633.36904178026
 20
137.4967140577949
 30
0
 11
1633.36904178026
 21
138.0491694140108
 31
0
  0
LINE
  8
1
 62
7
 10
1633.594443565596
 20
137.9386783427676
 30
0
 11
1633.36904178026
 21
137.4967140577949
 31
0
  0
LINE
  8
1
 62
7
 10
1634.045247136268
 20
138.1596604852539
 30
0
 11
1633.594443565596
 21
137.9386783427676
 31
0
  0
LINE
  8
1
 62
7
 10
1634.34578285005
 20
138.1596604852539
 30
0
 11
1634.045247136268
 21
138.1596604852539
 31
0
  0
LINE
  8
1
 62
7
 10
1634.871720349167
 20
137.9386783427676
 30
0
 11
1634.34578285005
 21
138.1596604852539
 31
0
  0
LINE
  8
1
 62
7
 10
1635.322523919839
 20
137.4967140577949
 30
0
 11
1634.871720349167
 21
137.9386783427676
 31
0
  0
LINE
  8
1
 62
7
 10
1635.623059633621
 20
137.0547497728223
 30
0
 11
1635.322523919839
 21
137.4967140577949
 31
0
  0
LINE
  8
1
 62
7
 10
1635.848461418957
 20
137.6072051290381
 30
0
 11
1635.623059633621
 21
137.0547497728223
 31
0
  0
LINE
  8
1
 62
7
 10
1619.682112914193
 20
124.2231728784707
 30
0
 11
1611.460251320847
 21
124.2231728784707
 31
0
  0
LINE
  8
1
 62
7
 10
1619.682112914193
 20
125.9468335898641
 30
0
 11
1619.682112914193
 21
124.2231728784707
 31
0
  0
LINE
  8
1
 62
7
 10
1613.632063817203
 20
125.9468335898641
 30
0
 11
1619.682112914193
 21
125.9468335898641
 31
0
  0
LINE
  8
1
 62
7
 10
1613.942322745254
 20
126.9810300167001
 30
0
 11
1613.632063817203
 21
125.9468335898641
 31
0
  0
LINE
  8
1
 62
7
 10
1614.71797006538
 20
128.1875925146754
 30
0
 11
1613.942322745254
 21
126.9810300167001
 31
0
  0
LINE
  8
1
 62
7
 10
1615.803876313558
 20
129.5665210837901
 30
0
 11
1614.71797006538
 21
128.1875925146754
 31
0
  0
LINE
  8
1
 62
7
 10
1616.889782561736
 20
130.6007175106261
 30
0
 11
1615.803876313558
 21
129.5665210837901
 31
0
  0
LINE
  8
1
 62
7
 10
1618.130818273939
 20
131.8072800086015
 30
0
 11
1616.889782561736
 21
130.6007175106261
 31
0
  0
LINE
  8
1
 62
7
 10
1618.44107720199
 20
132.1520121508801
 30
0
 11
1618.130818273939
 21
131.8072800086015
 31
0
  0
LINE
  8
1
 62
7
 10
1619.061595058092
 20
133.1862085777161
 30
0
 11
1618.44107720199
 21
132.1520121508801
 31
0
  0
LINE
  8
1
 62
7
 10
1619.216724522117
 20
134.0480389334128
 30
0
 11
1619.061595058092
 21
133.1862085777161
 31
0
  0
LINE
  8
1
 62
7
 10
1619.216724522117
 20
134.7375032179702
 30
0
 11
1619.216724522117
 21
134.0480389334128
 31
0
  0
LINE
  8
1
 62
7
 10
1619.061595058092
 20
135.5993335736668
 30
0
 11
1619.216724522117
 21
134.7375032179702
 31
0
  0
LINE
  8
1
 62
7
 10
1618.44107720199
 20
136.6335300005028
 30
0
 11
1619.061595058092
 21
135.5993335736668
 31
0
  0
LINE
  8
1
 62
7
 10
1617.820559345888
 20
137.3229942850602
 30
0
 11
1618.44107720199
 21
136.6335300005028
 31
0
  0
LINE
  8
1
 62
7
 10
1616.889782561736
 20
137.8400924984782
 30
0
 11
1617.820559345888
 21
137.3229942850602
 31
0
  0
LINE
  8
1
 62
7
 10
1616.114135241609
 20
138.0124585696175
 30
0
 11
1616.889782561736
 21
137.8400924984782
 31
0
  0
LINE
  8
1
 62
7
 10
1615.183358457457
 20
138.0124585696175
 30
0
 11
1616.114135241609
 21
138.0124585696175
 31
0
  0
LINE
  8
1
 62
7
 10
1614.40771113733
 20
137.8400924984782
 30
0
 11
1615.183358457457
 21
138.0124585696175
 31
0
  0
LINE
  8
1
 62
7
 10
1613.476934353177
 20
137.3229942850602
 30
0
 11
1614.40771113733
 21
137.8400924984782
 31
0
  0
LINE
  8
1
 62
7
 10
1612.856416497076
 20
136.6335300005028
 30
0
 11
1613.476934353177
 21
137.3229942850602
 31
0
  0
LINE
  8
1
 62
7
 10
1612.235898640974
 20
135.5993335736668
 30
0
 11
1612.856416497076
 21
136.6335300005028
 31
0
  0
LINE
  8
1
 62
7
 10
1612.080769176949
 20
134.7375032179702
 30
0
 11
1612.235898640974
 21
135.5993335736668
 31
0
  0
LINE
  8
1
 62
7
 10
1612.080769176949
 20
134.0480389334128
 30
0
 11
1612.080769176949
 21
134.7375032179702
 31
0
  0
LINE
  8
1
 62
7
 10
1613.787193281228
 20
134.0480389334128
 30
0
 11
1612.080769176949
 21
134.0480389334128
 31
0
  0
LINE
  8
1
 62
7
 10
1613.787193281228
 20
134.7375032179702
 30
0
 11
1613.787193281228
 21
134.0480389334128
 31
0
  0
LINE
  8
1
 62
7
 10
1613.942322745254
 20
135.2546014313882
 30
0
 11
1613.787193281228
 21
134.7375032179702
 31
0
  0
LINE
  8
1
 62
7
 10
1614.252581673304
 20
135.7716996448062
 30
0
 11
1613.942322745254
 21
135.2546014313882
 31
0
  0
LINE
  8
1
 62
7
 10
1614.71797006538
 20
136.1164317870848
 30
0
 11
1614.252581673304
 21
135.7716996448062
 31
0
  0
LINE
  8
1
 62
7
 10
1615.338487921482
 20
136.2887978582242
 30
0
 11
1614.71797006538
 21
136.1164317870848
 31
0
  0
LINE
  8
1
 62
7
 10
1615.959005777584
 20
136.2887978582242
 30
0
 11
1615.338487921482
 21
136.2887978582242
 31
0
  0
LINE
  8
1
 62
7
 10
1616.579523633685
 20
136.1164317870848
 30
0
 11
1615.959005777584
 21
136.2887978582242
 31
0
  0
LINE
  8
1
 62
7
 10
1617.044912025762
 20
135.7716996448062
 30
0
 11
1616.579523633685
 21
136.1164317870848
 31
0
  0
LINE
  8
1
 62
7
 10
1617.355170953812
 20
135.2546014313882
 30
0
 11
1617.044912025762
 21
135.7716996448062
 31
0
  0
LINE
  8
1
 62
7
 10
1617.510300417838
 20
134.7375032179702
 30
0
 11
1617.355170953812
 21
135.2546014313882
 31
0
  0
LINE
  8
1
 62
7
 10
1617.510300417838
 20
134.0480389334128
 30
0
 11
1617.510300417838
 21
134.7375032179702
 31
0
  0
LINE
  8
1
 62
7
 10
1617.355170953812
 20
133.5309407199948
 30
0
 11
1617.510300417838
 21
134.0480389334128
 31
0
  0
LINE
  8
1
 62
7
 10
1617.044912025762
 20
133.0138425065768
 30
0
 11
1617.355170953812
 21
133.5309407199948
 31
0
  0
LINE
  8
1
 62
7
 10
1615.959005777584
 20
131.8072800086015
 30
0
 11
1617.044912025762
 21
133.0138425065768
 31
0
  0
LINE
  8
1
 62
7
 10
1615.028228993431
 20
130.7730835817654
 30
0
 11
1615.959005777584
 21
131.8072800086015
 31
0
  0
LINE
  8
1
 62
7
 10
1614.097452209279
 20
129.9112532260688
 30
0
 11
1615.028228993431
 21
130.7730835817654
 31
0
  0
LINE
  8
1
 62
7
 10
1613.166675425126
 20
128.7046907280934
 30
0
 11
1614.097452209279
 21
129.9112532260688
 31
0
  0
LINE
  8
1
 62
7
 10
1612.391028104999
 20
127.6704943012574
 30
0
 11
1613.166675425126
 21
128.7046907280934
 31
0
  0
LINE
  8
1
 62
7
 10
1611.770510248898
 20
126.4639318032821
 30
0
 11
1612.391028104999
 21
127.6704943012574
 31
0
  0
LINE
  8
1
 62
7
 10
1611.460251320847
 20
125.2573693053067
 30
0
 11
1611.770510248898
 21
126.4639318032821
 31
0
  0
LINE
  8
1
 62
7
 10
1611.460251320847
 20
124.2231728784707
 30
0
 11
1611.460251320847
 21
125.2573693053067
 31
0
  0
LINE
  8
1
 62
7
 10
1628.295391738581
 20
124.7402710918887
 30
0
 11
1628.760780130658
 21
125.0850032341674
 31
0
  0
LINE
  8
1
 62
7
 10
1627.519744418454
 20
124.39553894961
 30
0
 11
1628.295391738581
 21
124.7402710918887
 31
0
  0
LINE
  8
1
 62
7
 10
1626.899226562353
 20
124.2231728784707
 30
0
 11
1627.519744418454
 21
124.39553894961
 31
0
  0
LINE
  8
1
 62
7
 10
1625.813320314175
 20
124.2231728784707
 30
0
 11
1626.899226562353
 21
124.2231728784707
 31
0
  0
LINE
  8
1
 62
7
 10
1625.192802458073
 20
124.39553894961
 30
0
 11
1625.813320314175
 21
124.2231728784707
 31
0
  0
LINE
  8
1
 62
7
 10
1624.417155137946
 20
124.7402710918887
 30
0
 11
1625.192802458073
 21
124.39553894961
 31
0
  0
LINE
  8
1
 62
7
 10
1623.95176674587
 20
125.0850032341674
 30
0
 11
1624.417155137946
 21
124.7402710918887
 31
0
  0
LINE
  8
1
 62
7
 10
1623.486378353794
 20
125.6021014475854
 30
0
 11
1623.95176674587
 21
125.0850032341674
 31
0
  0
LINE
  8
1
 62
7
 10
1623.020989961718
 20
126.2915657321427
 30
0
 11
1623.486378353794
 21
125.6021014475854
 31
0
  0
LINE
  8
1
 62
7
 10
1622.710731033667
 20
126.9810300167001
 30
0
 11
1623.020989961718
 21
126.2915657321427
 31
0
  0
LINE
  8
1
 62
7
 10
1622.400472105616
 20
127.8428603723967
 30
0
 11
1622.710731033667
 21
126.9810300167001
 31
0
  0
LINE
  8
1
 62
7
 10
1622.245342641591
 20
128.8770567992328
 30
0
 11
1622.400472105616
 21
127.8428603723967
 31
0
  0
LINE
  8
1
 62
7
 10
1622.090213177565
 20
130.4283514394868
 30
0
 11
1622.245342641591
 21
128.8770567992328
 31
0
  0
LINE
  8
1
 62
7
 10
1622.090213177565
 20
131.8072800086015
 30
0
 11
1622.090213177565
 21
130.4283514394868
 31
0
  0
LINE
  8
1
 62
7
 10
1622.245342641591
 20
133.3585746488555
 30
0
 11
1622.090213177565
 21
131.8072800086015
 31
0
  0
LINE
  8
1
 62
7
 10
1622.400472105616
 20
134.3927710756915
 30
0
 11
1622.245342641591
 21
133.3585746488555
 31
0
  0
LINE
  8
1
 62
7
 10
1622.710731033667
 20
135.2546014313882
 30
0
 11
1622.400472105616
 21
134.3927710756915
 31
0
  0
LINE
  8
1
 62
7
 10
1623.020989961718
 20
135.9440657159455
 30
0
 11
1622.710731033667
 21
135.2546014313882
 31
0
  0
LINE
  8
1
 62
7
 10
1623.486378353794
 20
136.6335300005028
 30
0
 11
1623.020989961718
 21
135.9440657159455
 31
0
  0
LINE
  8
1
 62
7
 10
1623.95176674587
 20
137.1506282139208
 30
0
 11
1623.486378353794
 21
136.6335300005028
 31
0
  0
LINE
  8
1
 62
7
 10
1624.417155137946
 20
137.4953603561995
 30
0
 11
1623.95176674587
 21
137.1506282139208
 31
0
  0
LINE
  8
1
 62
7
 10
1625.192802458073
 20
137.8400924984782
 30
0
 11
1624.417155137946
 21
137.4953603561995
 31
0
  0
LINE
  8
1
 62
7
 10
1625.813320314175
 20
138.0124585696175
 30
0
 11
1625.192802458073
 21
137.8400924984782
 31
0
  0
LINE
  8
1
 62
7
 10
1626.899226562353
 20
138.0124585696175
 30
0
 11
1625.813320314175
 21
138.0124585696175
 31
0
  0
LINE
  8
1
 62
7
 10
1627.519744418454
 20
137.8400924984782
 30
0
 11
1626.899226562353
 21
138.0124585696175
 31
0
  0
LINE
  8
1
 62
7
 10
1628.295391738581
 20
137.4953603561995
 30
0
 11
1627.519744418454
 21
137.8400924984782
 31
0
  0
LINE
  8
1
 62
7
 10
1628.760780130658
 20
137.1506282139208
 30
0
 11
1628.295391738581
 21
137.4953603561995
 31
0
  0
LINE
  8
1
 62
7
 10
1629.226168522734
 20
136.6335300005028
 30
0
 11
1628.760780130658
 21
137.1506282139208
 31
0
  0
LINE
  8
1
 62
7
 10
1629.69155691481
 20
135.9440657159455
 30
0
 11
1629.226168522734
 21
136.6335300005028
 31
0
  0
LINE
  8
1
 62
7
 10
1630.001815842861
 20
135.2546014313882
 30
0
 11
1629.69155691481
 21
135.9440657159455
 31
0
  0
LINE
  8
1
 62
7
 10
1630.312074770912
 20
134.3927710756915
 30
0
 11
1630.001815842861
 21
135.2546014313882
 31
0
  0
LINE
  8
1
 62
7
 10
1630.467204234937
 20
133.3585746488555
 30
0
 11
1630.312074770912
 21
134.3927710756915
 31
0
  0
LINE
  8
1
 62
7
 10
1630.622333698962
 20
131.8072800086015
 30
0
 11
1630.467204234937
 21
133.3585746488555
 31
0
  0
LINE
  8
1
 62
7
 10
1630.622333698962
 20
130.4283514394868
 30
0
 11
1630.622333698962
 21
131.8072800086015
 31
0
  0
LINE
  8
1
 62
7
 10
1630.467204234937
 20
128.8770567992328
 30
0
 11
1630.622333698962
 21
130.4283514394868
 31
0
  0
LINE
  8
1
 62
7
 10
1630.312074770912
 20
127.8428603723967
 30
0
 11
1630.467204234937
 21
128.8770567992328
 31
0
  0
LINE
  8
1
 62
7
 10
1630.001815842861
 20
126.9810300167001
 30
0
 11
1630.312074770912
 21
127.8428603723967
 31
0
  0
LINE
  8
1
 62
7
 10
1629.69155691481
 20
126.2915657321427
 30
0
 11
1630.001815842861
 21
126.9810300167001
 31
0
  0
LINE
  8
1
 62
7
 10
1629.226168522734
 20
125.6021014475854
 30
0
 11
1629.69155691481
 21
126.2915657321427
 31
0
  0
LINE
  8
1
 62
7
 10
1628.760780130658
 20
125.0850032341674
 30
0
 11
1629.226168522734
 21
125.6021014475854
 31
0
  0
LINE
  8
1
 62
7
 10
1625.192802458073
 20
126.2915657321427
 30
0
 11
1625.813320314175
 21
125.9468335898641
 31
0
  0
LINE
  8
1
 62
7
 10
1624.572284601972
 20
126.8086639455607
 30
0
 11
1625.192802458073
 21
126.2915657321427
 31
0
  0
LINE
  8
1
 62
7
 10
1624.262025673921
 20
127.3257621589787
 30
0
 11
1624.572284601972
 21
126.8086639455607
 31
0
  0
LINE
  8
1
 62
7
 10
1623.95176674587
 20
128.1875925146754
 30
0
 11
1624.262025673921
 21
127.3257621589787
 31
0
  0
LINE
  8
1
 62
7
 10
1623.796637281845
 20
130.0836192972081
 30
0
 11
1623.95176674587
 21
128.1875925146754
 31
0
  0
LINE
  8
1
 62
7
 10
1623.796637281845
 20
132.1520121508801
 30
0
 11
1623.796637281845
 21
130.0836192972081
 31
0
  0
LINE
  8
1
 62
7
 10
1623.95176674587
 20
134.0480389334128
 30
0
 11
1623.796637281845
 21
132.1520121508801
 31
0
  0
LINE
  8
1
 62
7
 10
1624.262025673921
 20
134.9098692891095
 30
0
 11
1623.95176674587
 21
134.0480389334128
 31
0
  0
LINE
  8
1
 62
7
 10
1624.572284601972
 20
135.4269675025275
 30
0
 11
1624.262025673921
 21
134.9098692891095
 31
0
  0
LINE
  8
1
 62
7
 10
1625.192802458073
 20
135.9440657159455
 30
0
 11
1624.572284601972
 21
135.4269675025275
 31
0
  0
LINE
  8
1
 62
7
 10
1625.813320314175
 20
136.2887978582242
 30
0
 11
1625.192802458073
 21
135.9440657159455
 31
0
  0
LINE
  8
1
 62
7
 10
1626.899226562353
 20
136.2887978582242
 30
0
 11
1625.813320314175
 21
136.2887978582242
 31
0
  0
LINE
  8
1
 62
7
 10
1627.519744418454
 20
135.9440657159455
 30
0
 11
1626.899226562353
 21
136.2887978582242
 31
0
  0
LINE
  8
1
 62
7
 10
1628.140262274556
 20
135.4269675025275
 30
0
 11
1627.519744418454
 21
135.9440657159455
 31
0
  0
LINE
  8
1
 62
7
 10
1628.450521202607
 20
134.9098692891095
 30
0
 11
1628.140262274556
 21
135.4269675025275
 31
0
  0
LINE
  8
1
 62
7
 10
1628.760780130658
 20
134.0480389334128
 30
0
 11
1628.450521202607
 21
134.9098692891095
 31
0
  0
LINE
  8
1
 62
7
 10
1628.915909594683
 20
132.1520121508801
 30
0
 11
1628.760780130658
 21
134.0480389334128
 31
0
  0
LINE
  8
1
 62
7
 10
1628.915909594683
 20
130.0836192972081
 30
0
 11
1628.915909594683
 21
132.1520121508801
 31
0
  0
LINE
  8
1
 62
7
 10
1628.760780130658
 20
128.1875925146754
 30
0
 11
1628.915909594683
 21
130.0836192972081
 31
0
  0
LINE
  8
1
 62
7
 10
1628.450521202607
 20
127.3257621589787
 30
0
 11
1628.760780130658
 21
128.1875925146754
 31
0
  0
LINE
  8
1
 62
7
 10
1628.140262274556
 20
126.8086639455607
 30
0
 11
1628.450521202607
 21
127.3257621589787
 31
0
  0
LINE
  8
1
 62
7
 10
1627.519744418454
 20
126.2915657321427
 30
0
 11
1628.140262274556
 21
126.8086639455607
 31
0
  0
LINE
  8
1
 62
7
 10
1626.899226562353
 20
125.9468335898641
 30
0
 11
1627.519744418454
 21
126.2915657321427
 31
0
  0
LINE
  8
1
 62
7
 10
1625.813320314175
 20
125.9468335898641
 30
0
 11
1626.899226562353
 21
125.9468335898641
 31
0
  0
LINE
  8
1
 62
2
 10
1562.561392423944
 20
96.72028760363308
 30
0
 11
1562.325690163548
 21
96.32254003921565
 31
0
  0
LINE
  8
1
 62
2
 10
1562.797094684339
 20
97.38320021099547
 30
0
 11
1562.561392423944
 21
96.72028760363308
 31
0
  0
LINE
  8
1
 62
2
 10
1562.797094684339
 20
99.50452055455511
 30
0
 11
1562.797094684339
 21
97.38320021099547
 31
0
  0
LINE
  8
1
 62
2
 10
1562.561392423944
 20
100.1674331619175
 30
0
 11
1562.797094684339
 21
99.50452055455511
 31
0
  0
LINE
  8
1
 62
2
 10
1562.325690163548
 20
100.5651807263349
 30
0
 11
1562.561392423944
 21
100.1674331619175
 31
0
  0
LINE
  8
1
 62
2
 10
1559.497263038802
 20
96.45512256068813
 30
0
 11
1559.143709648209
 21
96.45512256068813
 31
0
  0
LINE
  8
1
 62
2
 10
1559.615114169
 20
96.72028760363308
 30
0
 11
1559.497263038802
 21
96.45512256068813
 31
0
  0
LINE
  8
1
 62
2
 10
1559.615114169
 20
98.9741904686652
 30
0
 11
1559.615114169
 21
96.72028760363308
 31
0
  0
LINE
  8
1
 62
2
 10
1558.790156257616
 20
98.9741904686652
 30
0
 11
1560.204369819989
 21
98.9741904686652
 31
0
  0
LINE
  8
1
 62
2
 10
1558.908007387813
 20
100.034850640445
 30
0
 11
1559.968667559593
 21
100.034850640445
 31
0
  0
LINE
  8
1
 62
2
 10
1558.318751736825
 20
98.57644290424777
 30
0
 11
1558.318751736825
 21
96.45512256068813
 31
0
  0
LINE
  8
1
 62
2
 10
1558.083049476429
 20
98.17869533983034
 30
0
 11
1557.729496085836
 21
97.78094777541291
 31
0
  0
LINE
  8
1
 62
2
 10
1558.436602867022
 20
98.84160794719273
 30
0
 11
1558.083049476429
 21
98.17869533983034
 31
0
  0
LINE
  8
1
 62
2
 10
1558.790156257616
 20
99.50452055455511
 30
0
 11
1558.436602867022
 21
98.84160794719273
 31
0
  0
LINE
  8
1
 62
2
 10
1558.55445399722
 20
100.30001568339
 30
0
 11
1557.965198346231
 21
99.37193803308264
 31
0
  0
LINE
  8
1
 62
2
 10
1557.258091565045
 20
99.37193803308264
 30
0
 11
1557.729496085836
 21
98.31127786130281
 31
0
  0
LINE
  8
1
 62
2
 10
1556.668835914056
 20
97.91353029688538
 30
0
 11
1556.550984783858
 21
97.64836525394043
 31
0
  0
LINE
  8
1
 62
2
 10
1556.904538174452
 20
98.31127786130281
 30
0
 11
1556.668835914056
 21
97.91353029688538
 31
0
  0
LINE
  8
1
 62
2
 10
1557.258091565045
 20
99.37193803308264
 30
0
 11
1556.904538174452
 21
98.31127786130281
 31
0
  0
LINE
  8
1
 62
2
 10
1557.258091565045
 20
100.4325982048625
 30
0
 11
1557.258091565045
 21
96.45512256068813
 31
0
  0
LINE
  8
1
 62
2
 10
1556.668835914056
 20
99.37193803308264
 30
0
 11
1557.847347216034
 21
99.37193803308264
 31
0
  0
LINE
  8
1
 62
2
 10
1552.544046357135
 20
96.32254003921565
 30
0
 11
1555.608175742276
 21
96.32254003921565
 31
0
  0
LINE
  8
1
 62
2
 10
1552.661897487333
 20
97.11803516805053
 30
0
 11
1552.544046357135
 21
96.32254003921565
 31
0
  0
LINE
  8
1
 62
2
 10
1552.77974861753
 20
97.38320021099547
 30
0
 11
1552.661897487333
 21
97.11803516805053
 31
0
  0
LINE
  8
1
 62
2
 10
1553.133302008123
 20
97.64836525394043
 30
0
 11
1552.77974861753
 21
97.38320021099547
 31
0
  0
LINE
  8
1
 62
2
 10
1555.018920091288
 20
97.91353029688538
 30
0
 11
1553.133302008123
 21
97.64836525394043
 31
0
  0
LINE
  8
1
 62
2
 10
1555.490324612079
 20
98.17869533983034
 30
0
 11
1555.018920091288
 21
97.91353029688538
 31
0
  0
LINE
  8
1
 62
2
 10
1555.608175742276
 20
98.4438603827753
 30
0
 11
1555.490324612079
 21
98.17869533983034
 31
0
  0
LINE
  8
1
 62
2
 10
1555.608175742276
 20
99.10677299013769
 30
0
 11
1555.608175742276
 21
98.4438603827753
 31
0
  0
LINE
  8
1
 62
2
 10
1555.490324612079
 20
99.37193803308264
 30
0
 11
1555.608175742276
 21
99.10677299013769
 31
0
  0
LINE
  8
1
 62
2
 10
1555.018920091288
 20
99.6371030760276
 30
0
 11
1555.490324612079
 21
99.37193803308264
 31
0
  0
LINE
  8
1
 62
2
 10
1554.547515570496
 20
99.76968559750007
 30
0
 11
1555.018920091288
 21
99.6371030760276
 31
0
  0
LINE
  8
1
 62
2
 10
1553.722557659112
 20
99.76968559750007
 30
0
 11
1554.547515570496
 21
99.76968559750007
 31
0
  0
LINE
  8
1
 62
2
 10
1553.251153138321
 20
99.6371030760276
 30
0
 11
1553.722557659112
 21
99.76968559750007
 31
0
  0
LINE
  8
1
 62
2
 10
1552.77974861753
 20
99.37193803308264
 30
0
 11
1553.251153138321
 21
99.6371030760276
 31
0
  0
LINE
  8
1
 62
2
 10
1552.661897487333
 20
99.10677299013769
 30
0
 11
1552.77974861753
 21
99.37193803308264
 31
0
  0
LINE
  8
1
 62
2
 10
1550.422726013575
 20
99.10677299013769
 30
0
 11
1551.129832794762
 21
98.31127786130281
 31
0
  0
LINE
  8
1
 62
2
 10
1551.601237315553
 20
100.034850640445
 30
0
 11
1548.06570340962
 21
100.034850640445
 31
0
  0
LINE
  8
1
 62
2
 10
1549.833470362586
 20
96.32254003921565
 30
0
 11
1549.833470362586
 21
100.034850640445
 31
0
  0
LINE
  8
1
 62
2
 10
1544.88372289428
 20
97.11803516805053
 30
0
 11
1546.769340977445
 21
97.11803516805053
 31
0
  0
LINE
  8
1
 62
2
 10
1546.769340977445
 20
96.45512256068813
 30
0
 11
1546.769340977445
 21
97.78094777541291
 31
0
  0
LINE
  8
1
 62
2
 10
1544.88372289428
 20
96.45512256068813
 30
0
 11
1546.769340977445
 21
96.45512256068813
 31
0
  0
LINE
  8
1
 62
2
 10
1544.88372289428
 20
97.78094777541291
 30
0
 11
1544.88372289428
 21
96.45512256068813
 31
0
  0
LINE
  8
1
 62
2
 10
1546.769340977445
 20
97.78094777541291
 30
0
 11
1544.88372289428
 21
97.78094777541291
 31
0
  0
LINE
  8
1
 62
2
 10
1546.887192107642
 20
98.9741904686652
 30
0
 11
1547.476447758631
 21
98.31127786130281
 31
0
  0
LINE
  8
1
 62
2
 10
1546.533638717049
 20
99.50452055455511
 30
0
 11
1546.887192107642
 21
98.9741904686652
 31
0
  0
LINE
  8
1
 62
2
 10
1546.533638717049
 20
100.1674331619175
 30
0
 11
1546.533638717049
 21
98.17869533983034
 31
0
  0
LINE
  8
1
 62
2
 10
1545.94438306606
 20
98.57644290424777
 30
0
 11
1546.533638717049
 21
99.50452055455511
 31
0
  0
LINE
  8
1
 62
2
 10
1545.590829675467
 20
98.31127786130281
 30
0
 11
1545.94438306606
 21
98.57644290424777
 31
0
  0
LINE
  8
1
 62
2
 10
1545.237276284874
 20
99.10677299013769
 30
0
 11
1545.590829675467
 21
98.70902542572026
 31
0
  0
LINE
  8
1
 62
2
 10
1544.648020633885
 20
98.84160794719273
 30
0
 11
1545.001574024478
 21
99.50452055455511
 31
0
  0
LINE
  8
1
 62
2
 10
1544.294467243292
 20
98.4438603827753
 30
0
 11
1544.648020633885
 21
98.84160794719273
 31
0
  0
LINE
  8
1
 62
2
 10
1545.001574024478
 20
100.1674331619175
 30
0
 11
1545.001574024478
 21
98.17869533983034
 31
0
  0
LINE
  8
1
 62
2
 10
1545.590829675467
 20
99.50452055455511
 30
0
 11
1544.412318373489
 21
99.50452055455511
 31
0
  0
LINE
  8
1
 62
2
 10
1547.240745498235
 20
99.50452055455511
 30
0
 11
1545.826531935862
 21
99.50452055455511
 31
0
  0
LINE
  8
1
 62
2
 10
1543.940913852698
 20
100.4325982048625
 30
0
 11
1547.240745498235
 21
100.4325982048625
 31
0
  0
LINE
  8
1
 62
2
 10
1543.940913852698
 20
98.17869533983034
 30
0
 11
1543.940913852698
 21
100.4325982048625
 31
0
  0
LINE
  8
1
 62
2
 10
1543.823062722501
 20
96.98545264657804
 30
0
 11
1543.940913852698
 21
98.17869533983034
 31
0
  0
LINE
  8
1
 62
2
 10
1543.705211592303
 20
96.58770508216061
 30
0
 11
1543.823062722501
 21
96.98545264657804
 31
0
  0
LINE
  8
1
 62
2
 10
1542.408849160127
 20
97.78094777541291
 30
0
 11
1542.526700290325
 21
98.04611281835787
 31
0
  0
LINE
  8
1
 62
2
 10
1541.819593509139
 20
97.78094777541291
 30
0
 11
1542.408849160127
 21
97.78094777541291
 31
0
  0
LINE
  8
1
 62
2
 10
1541.701742378941
 20
98.04611281835787
 30
0
 11
1541.819593509139
 21
97.78094777541291
 31
0
  0
LINE
  8
1
 62
2
 10
1541.701742378941
 20
100.1674331619175
 30
0
 11
1541.701742378941
 21
98.04611281835787
 31
0
  0
LINE
  8
1
 62
2
 10
1539.580422035381
 20
100.1674331619175
 30
0
 11
1543.115955941314
 21
100.1674331619175
 31
0
  0
LINE
  8
1
 62
2
 10
1540.876784467557
 20
98.70902542572026
 30
0
 11
1540.876784467557
 21
100.1674331619175
 31
0
  0
LINE
  8
1
 62
2
 10
1540.523231076963
 20
97.91353029688538
 30
0
 11
1540.876784467557
 21
98.70902542572026
 31
0
  0
LINE
  8
1
 62
2
 10
1540.16967768637
 20
97.51578273246795
 30
0
 11
1540.523231076963
 21
97.91353029688538
 31
0
  0
LINE
  8
1
 62
2
 10
1542.762402550721
 20
96.58770508216061
 30
0
 11
1539.933975425975
 21
96.58770508216061
 31
0
  0
LINE
  8
1
 62
2
 10
1542.762402550721
 20
99.10677299013769
 30
0
 11
1542.762402550721
 21
96.58770508216061
 31
0
  0
LINE
  8
1
 62
2
 10
1539.933975425975
 20
99.10677299013769
 30
0
 11
1542.762402550721
 21
99.10677299013769
 31
0
  0
LINE
  8
1
 62
2
 10
1539.933975425975
 20
96.58770508216061
 30
0
 11
1539.933975425975
 21
99.10677299013769
 31
0
  0
LINE
  8
1
 62
2
 10
1537.105548301228
 20
96.72028760363308
 30
0
 11
1537.341250561624
 21
96.32254003921565
 31
0
  0
LINE
  8
1
 62
2
 10
1536.869846040833
 20
97.38320021099547
 30
0
 11
1537.105548301228
 21
96.72028760363308
 31
0
  0
LINE
  8
1
 62
2
 10
1536.869846040833
 20
99.50452055455511
 30
0
 11
1536.869846040833
 21
97.38320021099547
 31
0
  0
LINE
  8
1
 62
2
 10
1537.105548301228
 20
100.1674331619175
 30
0
 11
1536.869846040833
 21
99.50452055455511
 31
0
  0
LINE
  8
1
 62
2
 10
1537.341250561624
 20
100.5651807263349
 30
0
 11
1537.105548301228
 21
100.1674331619175
 31
0
  0
LINE
  8
1
 62
2
 10
1558.168236068965
 20
83.56475158140667
 30
0
 11
1561.138084549949
 21
83.56475158140667
 31
0
  0
LINE
  8
1
 62
2
 10
1558.168236068965
 20
87.80739226852596
 30
0
 11
1558.168236068965
 21
83.56475158140667
 31
0
  0
LINE
  8
1
 62
2
 10
1561.138084549949
 20
87.80739226852596
 30
0
 11
1558.168236068965
 21
87.80739226852596
 31
0
  0
LINE
  8
1
 62
2
 10
1560.713820481237
 20
85.89820395932227
 30
0
 11
1558.168236068965
 21
85.89820395932227
 31
0
  0
LINE
  8
1
 62
2
 10
1568.138070877411
 20
90.12543894956669
 30
0
 11
1567.66666635662
 21
90.39060399251164
 31
0
  0
LINE
  8
1
 62
2
 10
1568.373773137807
 20
90.25802147103916
 30
0
 11
1568.138070877411
 21
90.12543894956669
 31
0
  0
LINE
  8
1
 62
2
 10
1568.7273265284
 20
90.92093407840156
 30
0
 11
1568.373773137807
 21
90.25802147103916
 31
0
  0
LINE
  8
1
 62
2
 10
1568.963028788796
 20
91.71642920723642
 30
0
 11
1568.7273265284
 21
90.92093407840156
 31
0
  0
LINE
  8
1
 62
2
 10
1567.313112966027
 20
91.71642920723642
 30
0
 11
1568.963028788796
 21
91.71642920723642
 31
0
  0
LINE
  8
1
 62
2
 10
1567.548815226422
 20
92.51192433607129
 30
0
 11
1567.195261835829
 21
91.1860991213465
 31
0
  0
LINE
  8
1
 62
2
 10
1566.252452794247
 20
92.51192433607129
 30
0
 11
1569.670135569982
 21
92.51192433607129
 31
0
  0
LINE
  8
1
 62
2
 10
1568.963028788796
 20
94.10291459374102
 30
0
 11
1567.077410705631
 21
94.10291459374102
 31
0
  0
LINE
  8
1
 62
2
 10
1568.963028788796
 20
93.17483694343368
 30
0
 11
1568.963028788796
 21
94.10291459374102
 31
0
  0
LINE
  8
1
 62
2
 10
1567.077410705631
 20
93.17483694343368
 30
0
 11
1568.963028788796
 21
93.17483694343368
 31
0
  0
LINE
  8
1
 62
2
 10
1567.077410705631
 20
94.10291459374102
 30
0
 11
1567.077410705631
 21
93.17483694343368
 31
0
  0
LINE
  8
1
 62
2
 10
1565.427494882863
 20
90.39060399251164
 30
0
 11
1565.427494882863
 21
90.78835155692907
 31
0
  0
LINE
  8
1
 62
2
 10
1563.777579060094
 20
90.39060399251164
 30
0
 11
1565.427494882863
 21
90.39060399251164
 31
0
  0
LINE
  8
1
 62
2
 10
1563.777579060094
 20
92.3793418145988
 30
0
 11
1563.777579060094
 21
90.39060399251164
 31
0
  0
LINE
  8
1
 62
2
 10
1565.07394149227
 20
92.3793418145988
 30
0
 11
1563.777579060094
 21
92.3793418145988
 31
0
  0
LINE
  8
1
 62
2
 10
1565.07394149227
 20
93.70516702932358
 30
0
 11
1565.07394149227
 21
92.3793418145988
 31
0
  0
LINE
  8
1
 62
2
 10
1563.777579060094
 20
93.70516702932358
 30
0
 11
1565.07394149227
 21
93.70516702932358
 31
0
  0
LINE
  8
1
 62
2
 10
1562.009812107128
 20
93.83774955079606
 30
0
 11
1563.070472278908
 21
93.83774955079606
 31
0
  0
LINE
  8
1
 62
2
 10
1561.89196097693
 20
93.17483694343368
 30
0
 11
1563.424025669501
 21
93.17483694343368
 31
0
  0
LINE
  8
1
 62
2
 10
1563.070472278908
 20
92.64450685754376
 30
0
 11
1562.127663237326
 21
92.64450685754376
 31
0
  0
LINE
  8
1
 62
2
 10
1562.127663237326
 20
91.98159425018137
 30
0
 11
1563.070472278908
 21
91.98159425018137
 31
0
  0
LINE
  8
1
 62
2
 10
1563.070472278908
 20
90.39060399251164
 30
0
 11
1562.127663237326
 21
90.39060399251164
 31
0
  0
LINE
  8
1
 62
2
 10
1563.070472278908
 20
91.45126416429146
 30
0
 11
1563.070472278908
 21
90.39060399251164
 31
0
  0
LINE
  8
1
 62
2
 10
1562.127663237326
 20
91.45126416429146
 30
0
 11
1563.070472278908
 21
91.45126416429146
 31
0
  0
LINE
  8
1
 62
2
 10
1562.127663237326
 20
90.39060399251164
 30
0
 11
1562.127663237326
 21
91.45126416429146
 31
0
  0
LINE
  8
1
 62
2
 10
1560.713449674953
 20
94.36807963668598
 30
0
 11
1560.713449674953
 21
90.12543894956669
 31
0
  0
LINE
  8
1
 62
2
 10
1560.124194023964
 20
93.5725845078511
 30
0
 11
1559.77064063337
 21
94.10291459374102
 31
0
  0
LINE
  8
1
 62
2
 10
1560.124194023964
 20
92.51192433607129
 30
0
 11
1559.77064063337
 21
93.04225442196119
 31
0
  0
LINE
  8
1
 62
2
 10
1559.417087242777
 20
91.58384668576395
 30
0
 11
1561.420556456139
 21
91.98159425018137
 31
0
  0
LINE
  8
1
 62
2
 10
1558.945682721986
 20
92.24675929312633
 30
0
 11
1559.181384982382
 21
91.71642920723642
 31
0
  0
LINE
  8
1
 62
2
 10
1558.592129331393
 20
94.23549711521349
 30
0
 11
1558.592129331393
 21
90.25802147103916
 31
0
  0
LINE
  8
1
 62
2
 10
1558.945682721986
 20
93.44000198637863
 30
0
 11
1559.181384982382
 21
93.97033207226853
 31
0
  0
LINE
  8
1
 62
2
 10
1557.885022550206
 20
93.83774955079606
 30
0
 11
1558.2385759408
 21
93.30741946490615
 31
0
  0
LINE
  8
1
 62
2
 10
1559.417087242777
 20
92.77708937901625
 30
0
 11
1557.767171420009
 21
92.77708937901625
 31
0
  0
LINE
  8
1
 62
2
 10
1558.120724810602
 20
91.58384668576395
 30
0
 11
1558.592129331393
 21
92.77708937901625
 31
0
  0
LINE
  8
1
 62
2
 10
1557.767171420009
 20
90.92093407840156
 30
0
 11
1558.120724810602
 21
91.58384668576395
 31
0
  0
LINE
  8
1
 62
2
 10
1556.470808987833
 20
90.39060399251164
 30
0
 11
1556.11725559724
 21
90.39060399251164
 31
0
  0
LINE
  8
1
 62
2
 10
1556.352957857635
 20
94.23549711521349
 30
0
 11
1556.470808987833
 21
90.39060399251164
 31
0
  0
LINE
  8
1
 62
2
 10
1557.060064638822
 20
93.04225442196119
 30
0
 11
1555.292297685856
 21
93.04225442196119
 31
0
  0
LINE
  8
1
 62
2
 10
1555.763702206647
 20
91.71642920723642
 30
0
 11
1556.352957857635
 21
92.90967190048872
 31
0
  0
LINE
  8
1
 62
2
 10
1555.05659542546
 20
90.92093407840156
 30
0
 11
1555.763702206647
 21
91.71642920723642
 31
0
  0
LINE
  8
1
 62
2
 10
1554.349488644273
 20
93.04225442196119
 30
0
 11
1554.938744295262
 21
92.11417677165385
 31
0
  0
LINE
  8
1
 62
2
 10
1553.99593525368
 20
92.24675929312633
 30
0
 11
1554.349488644273
 21
93.04225442196119
 31
0
  0
LINE
  8
1
 62
2
 10
1553.524530732889
 20
91.45126416429146
 30
0
 11
1553.99593525368
 21
92.24675929312633
 31
0
  0
LINE
  8
1
 62
2
 10
1554.938744295262
 20
93.17483694343368
 30
0
 11
1553.642381863087
 21
93.17483694343368
 31
0
  0
LINE
  8
1
 62
2
 10
1554.349488644273
 20
90.12543894956669
 30
0
 11
1554.349488644273
 21
94.36807963668598
 31
0
  0
LINE
  8
1
 62
2
 10
1551.967164676161
 20
104.7278109170747
 30
0
 11
1555.738400842489
 21
104.7278109170747
 31
0
  0
LINE
  8
1
 62
2
 10
1552.674271457347
 20
105.6558885673821
 30
0
 11
1552.674271457347
 21
104.7278109170747
 31
0
  0
LINE
  8
1
 62
2
 10
1552.674271457347
 20
105.7884710888545
 30
0
 11
1555.031294061303
 21
105.7884710888545
 31
0
  0
LINE
  8
1
 62
2
 10
1553.852782759325
 20
106.8491312606344
 30
0
 11
1553.852782759325
 21
103.2694031808775
 31
0
  0
LINE
  8
1
 62
2
 10
1552.792122587545
 20
106.8491312606344
 30
0
 11
1555.1491451915
 21
106.8491312606344
 31
0
  0
LINE
  8
1
 62
2
 10
1552.55642032715
 20
106.5839662176894
 30
0
 11
1552.202866936556
 21
106.186218653272
 31
0
  0
LINE
  8
1
 62
2
 10
1552.909973717743
 20
107.1142963035793
 30
0
 11
1552.55642032715
 21
106.5839662176894
 31
0
  0
LINE
  8
1
 62
2
 10
1553.145675978138
 20
107.5120438679968
 30
0
 11
1552.909973717743
 21
107.1142963035793
 31
0
  0
LINE
  8
1
 62
2
 10
1547.960226249437
 20
103.6671507452949
 30
0
 11
1547.842375119239
 21
103.5345682238224
 31
0
  0
LINE
  8
1
 62
2
 10
1548.549481900426
 20
106.8491312606344
 30
0
 11
1548.195928509833
 21
107.3794613465243
 31
0
  0
LINE
  8
1
 62
2
 10
1549.256588681612
 20
106.7165487391619
 30
0
 11
1549.020886421217
 21
106.3188011747445
 31
0
  0
LINE
  8
1
 62
2
 10
1549.492290942008
 20
107.3794613465243
 30
0
 11
1549.256588681612
 21
106.7165487391619
 31
0
  0
LINE
  8
1
 62
2
 10
1551.024355634579
 20
106.7165487391619
 30
0
 11
1549.256588681612
 21
106.7165487391619
 31
0
  0
LINE
  8
1
 62
2
 10
1550.081546592997
 20
105.7884710888545
 30
0
 11
1550.081546592997
 21
107.5120438679968
 31
0
  0
LINE
  8
1
 62
2
 10
1551.260057894974
 20
105.7884710888545
 30
0
 11
1549.020886421217
 21
105.7884710888545
 31
0
  0
LINE
  8
1
 62
2
 10
1549.492290942008
 20
104.1974808311848
 30
0
 11
1550.788653374183
 21
104.1974808311848
 31
0
  0
LINE
  8
1
 62
2
 10
1549.492290942008
 20
105.2581410029646
 30
0
 11
1549.492290942008
 21
104.1974808311848
 31
0
  0
LINE
  8
1
 62
2
 10
1550.788653374183
 20
105.2581410029646
 30
0
 11
1549.492290942008
 21
105.2581410029646
 31
0
  0
LINE
  8
1
 62
2
 10
1550.788653374183
 20
104.1974808311848
 30
0
 11
1550.788653374183
 21
105.2581410029646
 31
0
  0
LINE
  8
1
 62
2
 10
1549.020886421217
 20
103.5345682238224
 30
0
 11
1551.377909025172
 21
103.5345682238224
 31
0
  0
LINE
  8
1
 62
2
 10
1548.785184160821
 20
103.6671507452949
 30
0
 11
1549.020886421217
 21
103.5345682238224
 31
0
  0
LINE
  8
1
 62
2
 10
1548.549481900426
 20
104.1974808311848
 30
0
 11
1548.785184160821
 21
103.6671507452949
 31
0
  0
LINE
  8
1
 62
2
 10
1548.549481900426
 20
105.6558885673821
 30
0
 11
1547.842375119239
 21
105.6558885673821
 31
0
  0
LINE
  8
1
 62
2
 10
1548.549481900426
 20
104.1974808311848
 30
0
 11
1548.549481900426
 21
105.6558885673821
 31
0
  0
LINE
  8
1
 62
2
 10
1547.960226249437
 20
103.6671507452949
 30
0
 11
1548.549481900426
 21
104.1974808311848
 31
0
  0
LINE
  8
1
 62
2
 10
1546.310310426669
 20
103.7997332667674
 30
0
 11
1546.074608166273
 21
104.4626458741298
 31
0
  0
LINE
  8
1
 62
2
 10
1546.78171494746
 20
103.2694031808775
 30
0
 11
1546.310310426669
 21
103.2694031808775
 31
0
  0
LINE
  8
1
 62
2
 10
1546.78171494746
 20
105.3907235244371
 30
0
 11
1546.78171494746
 21
103.2694031808775
 31
0
  0
LINE
  8
1
 62
2
 10
1547.017417207855
 20
106.186218653272
 30
0
 11
1545.367501385087
 21
106.186218653272
 31
0
  0
LINE
  8
1
 62
2
 10
1545.249650254889
 20
106.8491312606344
 30
0
 11
1547.017417207855
 21
106.8491312606344
 31
0
  0
LINE
  8
1
 62
2
 10
1545.956757036075
 20
105.6558885673821
 30
0
 11
1546.074608166273
 21
107.2468788250518
 31
0
  0
LINE
  8
1
 62
2
 10
1545.603203645482
 20
104.3300633526573
 30
0
 11
1545.956757036075
 21
105.6558885673821
 31
0
  0
LINE
  8
1
 62
2
 10
1545.131799124691
 20
103.5345682238224
 30
0
 11
1545.603203645482
 21
104.3300633526573
 31
0
  0
LINE
  8
1
 62
2
 10
1547.253119468251
 20
104.8603934385472
 30
0
 11
1545.249650254889
 21
104.8603934385472
 31
0
  0
LINE
  8
1
 62
2
 10
1545.131799124691
 20
105.6558885673821
 30
0
 11
1547.253119468251
 21
105.6558885673821
 31
0
  0
LINE
  8
1
 62
2
 10
1544.424692343504
 20
103.6671507452949
 30
0
 11
1544.424692343504
 21
105.7884710888545
 31
0
  0
LINE
  8
1
 62
2
 10
1543.835436692516
 20
104.7278109170747
 30
0
 11
1544.071138952911
 21
104.0648983097123
 31
0
  0
LINE
  8
1
 62
2
 10
1543.953287822714
 20
106.3188011747445
 30
0
 11
1543.481883301922
 21
105.3907235244371
 31
0
  0
LINE
  8
1
 62
2
 10
1544.424692343504
 20
107.2468788250518
 30
0
 11
1543.953287822714
 21
106.3188011747445
 31
0
  0
LINE
  8
1
 62
2
 10
1545.131799124691
 20
106.4513836962169
 30
0
 11
1544.424692343504
 21
107.2468788250518
 31
0
  0
LINE
  8
1
 62
2
 10
1543.953287822714
 20
105.7884710888545
 30
0
 11
1545.013947994493
 21
105.7884710888545
 31
0
  0
LINE
  8
1
 62
2
 10
1545.013947994493
 20
105.1255584814922
 30
0
 11
1543.835436692516
 21
105.1255584814922
 31
0
  0
LINE
  8
1
 62
2
 10
1544.778245734098
 20
104.0648983097123
 30
0
 11
1544.896096864296
 21
104.7278109170747
 31
0
  0
LINE
  8
1
 62
2
 10
1543.717585562318
 20
103.4019857023499
 30
0
 11
1545.013947994493
 21
103.9323157882399
 31
0
  0
LINE
  8
1
 62
2
 10
1569.43553967438
 20
177.2432826573851
 30
0
 11
1569.43553967438
 21
175.5462263825374
 31
0
  0
LINE
  8
1
 62
2
 10
1567.526351365176
 20
176.3947545199612
 30
0
 11
1570.071935777447
 21
176.3947545199612
 31
0
  0
LINE
  8
1
 62
2
 10
1569.43553967438
 20
179.7888670696567
 30
0
 11
1567.526351365176
 21
176.3947545199612
 31
0
  0
LINE
  8
1
 62
2
 10
1566.25355915904
 20
179.7888670696567
 30
0
 11
1566.25355915904
 21
175.5462263825374
 31
0
  0
LINE
  8
1
 62
2
 10
1564.980766952904
 20
178.5160748635209
 30
0
 11
1566.25355915904
 21
179.7888670696567
 31
0
  0
LINE
  8
1
 62
2
 10
1562.623744348949
 20
179.5237020267117
 30
0
 11
1562.623744348949
 21
175.8113914254823
 31
0
  0
LINE
  8
1
 62
2
 10
1564.15580904152
 20
175.8113914254823
 30
0
 11
1564.15580904152
 21
178.5956243764043
 31
0
  0
LINE
  8
1
 62
2
 10
1561.091679656378
 20
175.8113914254823
 30
0
 11
1564.15580904152
 21
175.8113914254823
 31
0
  0
LINE
  8
1
 62
2
 10
1561.091679656378
 20
178.5956243764043
 30
0
 11
1561.091679656378
 21
175.8113914254823
 31
0
  0
LINE
  8
1
 62
2
 10
1549.282996410563
 20
178.1978768119869
 30
0
 11
1549.282996410563
 21
177.1372166402071
 31
0
  0
LINE
  8
1
 62
2
 10
1549.176930393385
 20
178.8342729150548
 30
0
 11
1549.282996410563
 21
178.1978768119869
 31
0
  0
LINE
  8
1
 62
2
 10
1548.964798359029
 20
179.2585369837667
 30
0
 11
1549.176930393385
 21
178.8342729150548
 31
0
  0
LINE
  8
1
 62
2
 10
1548.752666324673
 20
179.4706690181227
 30
0
 11
1548.964798359029
 21
179.2585369837667
 31
0
  0
LINE
  8
1
 62
2
 10
1548.434468273139
 20
179.6828010524787
 30
0
 11
1548.752666324673
 21
179.4706690181227
 31
0
  0
LINE
  8
1
 62
2
 10
1548.116270221605
 20
179.7888670696567
 30
0
 11
1548.434468273139
 21
179.6828010524787
 31
0
  0
LINE
  8
1
 62
2
 10
1547.904138187249
 20
179.7888670696567
 30
0
 11
1548.116270221605
 21
179.7888670696567
 31
0
  0
LINE
  8
1
 62
2
 10
1547.585940135715
 20
179.6828010524787
 30
0
 11
1547.904138187249
 21
179.7888670696567
 31
0
  0
LINE
  8
1
 62
2
 10
1547.267742084181
 20
179.4706690181227
 30
0
 11
1547.585940135715
 21
179.6828010524787
 31
0
  0
LINE
  8
1
 62
2
 10
1547.055610049825
 20
179.2585369837667
 30
0
 11
1547.267742084181
 21
179.4706690181227
 31
0
  0
LINE
  8
1
 62
2
 10
1546.843478015469
 20
178.8342729150548
 30
0
 11
1547.055610049825
 21
179.2585369837667
 31
0
  0
LINE
  8
1
 62
2
 10
1546.737411998291
 20
178.1978768119869
 30
0
 11
1546.843478015469
 21
178.8342729150548
 31
0
  0
LINE
  8
1
 62
2
 10
1546.737411998291
 20
177.1372166402071
 30
0
 11
1546.737411998291
 21
178.1978768119869
 31
0
  0
LINE
  8
1
 62
2
 10
1546.843478015469
 20
176.5008205371392
 30
0
 11
1546.737411998291
 21
177.1372166402071
 31
0
  0
LINE
  8
1
 62
2
 10
1547.055610049825
 20
176.0765564684273
 30
0
 11
1546.843478015469
 21
176.5008205371392
 31
0
  0
LINE
  8
1
 62
2
 10
1547.267742084181
 20
175.8644244340713
 30
0
 11
1547.055610049825
 21
176.0765564684273
 31
0
  0
LINE
  8
1
 62
2
 10
1547.585940135715
 20
175.6522923997154
 30
0
 11
1547.267742084181
 21
175.8644244340713
 31
0
  0
LINE
  8
1
 62
2
 10
1547.904138187249
 20
175.5462263825374
 30
0
 11
1547.585940135715
 21
175.6522923997154
 31
0
  0
LINE
  8
1
 62
2
 10
1548.116270221605
 20
175.5462263825374
 30
0
 11
1547.904138187249
 21
175.5462263825374
 31
0
  0
LINE
  8
1
 62
2
 10
1548.434468273139
 20
175.6522923997154
 30
0
 11
1548.116270221605
 21
175.5462263825374
 31
0
  0
LINE
  8
1
 62
2
 10
1548.752666324673
 20
175.8644244340713
 30
0
 11
1548.434468273139
 21
175.6522923997154
 31
0
  0
LINE
  8
1
 62
2
 10
1548.964798359029
 20
176.0765564684273
 30
0
 11
1548.752666324673
 21
175.8644244340713
 31
0
  0
LINE
  8
1
 62
2
 10
1549.176930393385
 20
176.5008205371392
 30
0
 11
1548.964798359029
 21
176.0765564684273
 31
0
  0
LINE
  8
1
 62
2
 10
1549.282996410563
 20
177.1372166402071
 30
0
 11
1549.176930393385
 21
176.5008205371392
 31
0
  0
LINE
  8
1
 62
2
 10
1545.464619792155
 20
175.5462263825374
 30
0
 11
1545.358553774978
 21
175.5462263825374
 31
0
  0
LINE
  8
1
 62
2
 10
1545.464619792155
 20
175.6522923997154
 30
0
 11
1545.464619792155
 21
175.5462263825374
 31
0
  0
LINE
  8
1
 62
2
 10
1545.358553774978
 20
175.6522923997154
 30
0
 11
1545.464619792155
 21
175.6522923997154
 31
0
  0
LINE
  8
1
 62
2
 10
1545.358553774978
 20
175.5462263825374
 30
0
 11
1545.358553774978
 21
175.6522923997154
 31
0
  0
LINE
  8
1
 62
2
 10
1543.13116741424
 20
175.5462263825374
 30
0
 11
1541.54017715657
 21
175.5462263825374
 31
0
  0
LINE
  8
1
 62
2
 10
1543.449365465774
 20
175.6522923997154
 30
0
 11
1543.13116741424
 21
175.5462263825374
 31
0
  0
LINE
  8
1
 62
2
 10
1543.767563517308
 20
175.8644244340713
 30
0
 11
1543.449365465774
 21
175.6522923997154
 31
0
  0
LINE
  8
1
 62
2
 10
1543.979695551664
 20
176.1826224856052
 30
0
 11
1543.767563517308
 21
175.8644244340713
 31
0
  0
LINE
  8
1
 62
2
 10
1544.085761568842
 20
176.6068865543172
 30
0
 11
1543.979695551664
 21
176.1826224856052
 31
0
  0
LINE
  8
1
 62
2
 10
1544.085761568842
 20
177.1372166402071
 30
0
 11
1544.085761568842
 21
176.6068865543172
 31
0
  0
LINE
  8
1
 62
2
 10
1543.979695551664
 20
177.561480708919
 30
0
 11
1544.085761568842
 21
177.1372166402071
 31
0
  0
LINE
  8
1
 62
2
 10
1543.873629534486
 20
177.773612743275
 30
0
 11
1543.979695551664
 21
177.561480708919
 31
0
  0
LINE
  8
1
 62
2
 10
1543.66149750013
 20
177.9857447776309
 30
0
 11
1543.873629534486
 21
177.773612743275
 31
0
  0
LINE
  8
1
 62
2
 10
1543.237233431418
 20
178.0918107948089
 30
0
 11
1543.66149750013
 21
177.9857447776309
 31
0
  0
LINE
  8
1
 62
2
 10
1543.555431482952
 20
178.1978768119869
 30
0
 11
1543.237233431418
 21
178.0918107948089
 31
0
  0
LINE
  8
1
 62
2
 10
1543.767563517308
 20
178.3039428291649
 30
0
 11
1543.555431482952
 21
178.1978768119869
 31
0
  0
LINE
  8
1
 62
2
 10
1543.979695551664
 20
178.5160748635209
 30
0
 11
1543.767563517308
 21
178.3039428291649
 31
0
  0
LINE
  8
1
 62
2
 10
1544.085761568842
 20
178.8342729150548
 30
0
 11
1543.979695551664
 21
178.5160748635209
 31
0
  0
LINE
  8
1
 62
2
 10
1544.085761568842
 20
179.1524709665887
 30
0
 11
1544.085761568842
 21
178.8342729150548
 31
0
  0
LINE
  8
1
 62
2
 10
1543.979695551664
 20
179.4706690181227
 30
0
 11
1544.085761568842
 21
179.1524709665887
 31
0
  0
LINE
  8
1
 62
2
 10
1543.66149750013
 20
179.6828010524787
 30
0
 11
1543.979695551664
 21
179.4706690181227
 31
0
  0
LINE
  8
1
 62
2
 10
1543.13116741424
 20
179.7888670696567
 30
0
 11
1543.66149750013
 21
179.6828010524787
 31
0
  0
LINE
  8
1
 62
2
 10
1541.54017715657
 20
179.7888670696567
 30
0
 11
1543.13116741424
 21
179.7888670696567
 31
0
  0
LINE
  8
1
 62
2
 10
1542.176573259638
 20
178.0918107948089
 30
0
 11
1543.237233431418
 21
178.0918107948089
 31
0
  0
LINE
  8
1
 62
2
 10
1539.312790795833
 20
175.5462263825374
 30
0
 11
1537.721800538163
 21
175.5462263825374
 31
0
  0
LINE
  8
1
 62
2
 10
1539.630988847367
 20
175.6522923997154
 30
0
 11
1539.312790795833
 21
175.5462263825374
 31
0
  0
LINE
  8
1
 62
2
 10
1539.949186898901
 20
175.8644244340713
 30
0
 11
1539.630988847367
 21
175.6522923997154
 31
0
  0
LINE
  8
1
 62
2
 10
1540.161318933256
 20
176.1826224856052
 30
0
 11
1539.949186898901
 21
175.8644244340713
 31
0
  0
LINE
  8
1
 62
2
 10
1540.267384950435
 20
176.6068865543172
 30
0
 11
1540.161318933256
 21
176.1826224856052
 31
0
  0
LINE
  8
1
 62
2
 10
1540.267384950435
 20
177.1372166402071
 30
0
 11
1540.267384950435
 21
176.6068865543172
 31
0
  0
LINE
  8
1
 62
2
 10
1540.161318933256
 20
177.561480708919
 30
0
 11
1540.267384950435
 21
177.1372166402071
 31
0
  0
LINE
  8
1
 62
2
 10
1540.055252916078
 20
177.773612743275
 30
0
 11
1540.161318933256
 21
177.561480708919
 31
0
  0
LINE
  8
1
 62
2
 10
1539.843120881722
 20
177.9857447776309
 30
0
 11
1540.055252916078
 21
177.773612743275
 31
0
  0
LINE
  8
1
 62
2
 10
1539.418856813011
 20
178.0918107948089
 30
0
 11
1539.843120881722
 21
177.9857447776309
 31
0
  0
LINE
  8
1
 62
2
 10
1539.737054864545
 20
178.1978768119869
 30
0
 11
1539.418856813011
 21
178.0918107948089
 31
0
  0
LINE
  8
1
 62
2
 10
1539.949186898901
 20
178.3039428291649
 30
0
 11
1539.737054864545
 21
178.1978768119869
 31
0
  0
LINE
  8
1
 62
2
 10
1540.161318933256
 20
178.5160748635209
 30
0
 11
1539.949186898901
 21
178.3039428291649
 31
0
  0
LINE
  8
1
 62
2
 10
1540.267384950435
 20
178.8342729150548
 30
0
 11
1540.161318933256
 21
178.5160748635209
 31
0
  0
LINE
  8
1
 62
2
 10
1540.267384950435
 20
179.1524709665887
 30
0
 11
1540.267384950435
 21
178.8342729150548
 31
0
  0
LINE
  8
1
 62
2
 10
1540.161318933256
 20
179.4706690181227
 30
0
 11
1540.267384950435
 21
179.1524709665887
 31
0
  0
LINE
  8
1
 62
2
 10
1539.843120881722
 20
179.6828010524787
 30
0
 11
1540.161318933256
 21
179.4706690181227
 31
0
  0
LINE
  8
1
 62
2
 10
1539.312790795833
 20
179.7888670696567
 30
0
 11
1539.843120881722
 21
179.6828010524787
 31
0
  0
LINE
  8
1
 62
2
 10
1537.721800538163
 20
179.7888670696567
 30
0
 11
1539.312790795833
 21
179.7888670696567
 31
0
  0
LINE
  8
1
 62
2
 10
1538.358196641231
 20
178.0918107948089
 30
0
 11
1539.418856813011
 21
178.0918107948089
 31
0
  0
LINE
  8
1
 62
2
 10
1532.324218775106
 20
178.8607894193493
 30
0
 11
1533.502730077083
 21
178.8607894193493
 31
0
  0
LINE
  8
1
 62
2
 10
1532.324218775106
 20
178.1978768119869
 30
0
 11
1533.502730077083
 21
178.1978768119869
 31
0
  0
LINE
  8
1
 62
2
 10
1532.324218775106
 20
179.5237020267117
 30
0
 11
1532.324218775106
 21
178.1978768119869
 31
0
  0
LINE
  8
1
 62
2
 10
1533.502730077083
 20
179.5237020267117
 30
0
 11
1532.324218775106
 21
179.5237020267117
 31
0
  0
LINE
  8
1
 62
2
 10
1533.502730077083
 20
175.8113914254823
 30
0
 11
1533.502730077083
 21
179.5237020267117
 31
0
  0
LINE
  8
1
 62
2
 10
1533.384878946886
 20
175.6788089040098
 30
0
 11
1533.502730077083
 21
175.8113914254823
 31
0
  0
LINE
  8
1
 62
2
 10
1533.031325556292
 20
175.6788089040098
 30
0
 11
1533.384878946886
 21
175.6788089040098
 31
0
  0
LINE
  8
1
 62
2
 10
1531.617111993919
 20
178.8607894193493
 30
0
 11
1530.438600691942
 21
178.8607894193493
 31
0
  0
LINE
  8
1
 62
2
 10
1531.617111993919
 20
178.1978768119869
 30
0
 11
1530.438600691942
 21
178.1978768119869
 31
0
  0
LINE
  8
1
 62
2
 10
1531.617111993919
 20
179.5237020267117
 30
0
 11
1531.617111993919
 21
178.1978768119869
 31
0
  0
LINE
  8
1
 62
2
 10
1530.438600691942
 20
179.5237020267117
 30
0
 11
1531.617111993919
 21
179.5237020267117
 31
0
  0
LINE
  8
1
 62
2
 10
1530.438600691942
 20
175.6788089040098
 30
0
 11
1530.438600691942
 21
179.5237020267117
 31
0
  0
LINE
  8
1
 62
2
 10
1529.142238259766
 20
178.0652942905144
 30
0
 11
1529.613642780557
 21
177.667546726097
 31
0
  0
LINE
  8
1
 62
2
 10
1528.317280348382
 20
178.9933719408218
 30
0
 11
1529.142238259766
 21
178.0652942905144
 31
0
  0
LINE
  8
1
 62
2
 10
1527.728024697393
 20
179.7888670696567
 30
0
 11
1528.317280348382
 21
178.9933719408218
 31
0
  0
LINE
  8
1
 62
2
 10
1527.138769046404
 20
178.9933719408218
 30
0
 11
1527.728024697393
 21
179.7888670696567
 31
0
  0
LINE
  8
1
 62
2
 10
1526.31381113502
 20
178.0652942905144
 30
0
 11
1527.138769046404
 21
178.9933719408218
 31
0
  0
LINE
  8
1
 62
2
 10
1525.842406614229
 20
177.667546726097
 30
0
 11
1526.31381113502
 21
178.0652942905144
 31
0
  0
LINE
  8
1
 62
2
 10
1528.317280348382
 20
176.2091389898997
 30
0
 11
1528.552982608777
 21
176.8720515972621
 31
0
  0
LINE
  8
1
 62
2
 10
1526.903066786009
 20
176.8720515972621
 30
0
 11
1527.138769046404
 21
176.2091389898997
 31
0
  0
LINE
  8
1
 62
2
 10
1528.906535999371
 20
177.402381683152
 30
0
 11
1526.549513395415
 21
177.402381683152
 31
0
  0
LINE
  8
1
 62
2
 10
1526.903066786009
 20
178.1978768119869
 30
0
 11
1528.552982608777
 21
178.1978768119869
 31
0
  0
LINE
  8
1
 62
2
 10
1527.728024697393
 20
175.6788089040098
 30
0
 11
1527.728024697393
 21
178.1978768119869
 31
0
  0
LINE
  8
1
 62
2
 10
1526.195960004822
 20
175.6788089040098
 30
0
 11
1529.142238259766
 21
175.6788089040098
 31
0
  0
LINE
  8
1
 62
2
 10
1569.859803743091
 20
186.7888670696567
 30
0
 11
1569.859803743091
 21
182.5462263825374
 31
0
  0
LINE
  8
1
 62
2
 10
1568.587011536956
 20
185.5160748635209
 30
0
 11
1569.859803743091
 21
186.7888670696567
 31
0
  0
LINE
  8
1
 62
2
 10
1567.31421933082
 20
186.7888670696567
 30
0
 11
1567.31421933082
 21
182.5462263825374
 31
0
  0
LINE
  8
1
 62
2
 10
1566.041427124684
 20
185.5160748635209
 30
0
 11
1567.31421933082
 21
186.7888670696567
 31
0
  0
LINE
  8
1
 62
2
 10
1563.684404520729
 20
186.5237020267117
 30
0
 11
1563.684404520729
 21
182.8113914254823
 31
0
  0
LINE
  8
1
 62
2
 10
1565.2164692133
 20
182.8113914254823
 30
0
 11
1565.2164692133
 21
185.5956243764043
 31
0
  0
LINE
  8
1
 62
2
 10
1562.152339828158
 20
182.8113914254823
 30
0
 11
1565.2164692133
 21
182.8113914254823
 31
0
  0
LINE
  8
1
 62
2
 10
1562.152339828158
 20
185.5956243764043
 30
0
 11
1562.152339828158
 21
182.8113914254823
 31
0
  0
LINE
  8
1
 62
2
 10
1555.859089475598
 20
182.9704904512493
 30
0
 11
1554.904495320996
 21
182.5462263825374
 31
0
  0
LINE
  8
1
 62
2
 10
1556.601551595844
 20
183.6068865543172
 30
0
 11
1555.859089475598
 21
182.9704904512493
 31
0
  0
LINE
  8
1
 62
2
 10
1556.919749647378
 20
184.0311506230291
 30
0
 11
1556.601551595844
 21
183.6068865543172
 31
0
  0
LINE
  8
1
 62
2
 10
1557.025815664556
 20
184.455414691741
 30
0
 11
1556.919749647378
 21
184.0311506230291
 31
0
  0
LINE
  8
1
 62
2
 10
1557.131881681734
 20
184.9857447776309
 30
0
 11
1557.025815664556
 21
184.455414691741
 31
0
  0
LINE
  8
1
 62
2
 10
1557.131881681734
 20
185.7282068978768
 30
0
 11
1557.131881681734
 21
184.9857447776309
 31
0
  0
LINE
  8
1
 62
2
 10
1557.025815664556
 20
186.1524709665887
 30
0
 11
1557.131881681734
 21
185.7282068978768
 31
0
  0
LINE
  8
1
 62
2
 10
1556.8136836302
 20
186.4706690181227
 30
0
 11
1557.025815664556
 21
186.1524709665887
 31
0
  0
LINE
  8
1
 62
2
 10
1556.495485578666
 20
186.6828010524787
 30
0
 11
1556.8136836302
 21
186.4706690181227
 31
0
  0
LINE
  8
1
 62
2
 10
1556.177287527132
 20
186.7888670696567
 30
0
 11
1556.495485578666
 21
186.6828010524787
 31
0
  0
LINE
  8
1
 62
2
 10
1555.540891424064
 20
186.7888670696567
 30
0
 11
1556.177287527132
 21
186.7888670696567
 31
0
  0
LINE
  8
1
 62
2
 10
1555.22269337253
 20
186.6828010524787
 30
0
 11
1555.540891424064
 21
186.7888670696567
 31
0
  0
LINE
  8
1
 62
2
 10
1554.904495320996
 20
186.4706690181227
 30
0
 11
1555.22269337253
 21
186.6828010524787
 31
0
  0
LINE
  8
1
 62
2
 10
1554.69236328664
 20
186.1524709665887
 30
0
 11
1554.904495320996
 21
186.4706690181227
 31
0
  0
LINE
  8
1
 62
2
 10
1554.586297269462
 20
185.7282068978768
 30
0
 11
1554.69236328664
 21
186.1524709665887
 31
0
  0
LINE
  8
1
 62
2
 10
1554.586297269462
 20
185.5160748635209
 30
0
 11
1554.586297269462
 21
185.7282068978768
 31
0
  0
LINE
  8
1
 62
2
 10
1554.69236328664
 20
185.0918107948089
 30
0
 11
1554.586297269462
 21
185.5160748635209
 31
0
  0
LINE
  8
1
 62
2
 10
1554.904495320996
 20
184.773612743275
 30
0
 11
1554.69236328664
 21
185.0918107948089
 31
0
  0
LINE
  8
1
 62
2
 10
1555.22269337253
 20
184.561480708919
 30
0
 11
1554.904495320996
 21
184.773612743275
 31
0
  0
LINE
  8
1
 62
2
 10
1555.540891424064
 20
184.455414691741
 30
0
 11
1555.22269337253
 21
184.561480708919
 31
0
  0
LINE
  8
1
 62
2
 10
1557.025815664556
 20
184.455414691741
 30
0
 11
1555.540891424064
 21
184.455414691741
 31
0
  0
LINE
  8
1
 62
2
 10
1552.677108960258
 20
184.2432826573851
 30
0
 11
1552.677108960258
 21
182.5462263825374
 31
0
  0
LINE
  8
1
 62
2
 10
1550.767920651055
 20
183.3947545199612
 30
0
 11
1553.313505063326
 21
183.3947545199612
 31
0
  0
LINE
  8
1
 62
2
 10
1552.677108960258
 20
186.7888670696567
 30
0
 11
1550.767920651055
 21
183.3947545199612
 31
0
  0
LINE
  8
1
 62
2
 10
1546.949544032647
 20
182.5462263825374
 30
0
 11
1549.495128444919
 21
182.5462263825374
 31
0
  0
LINE
  8
1
 62
2
 10
1549.282996410563
 20
185.3039428291649
 30
0
 11
1546.949544032647
 21
182.5462263825374
 31
0
  0
LINE
  8
1
 62
2
 10
1549.495128444919
 20
185.7282068978768
 30
0
 11
1549.282996410563
 21
185.3039428291649
 31
0
  0
LINE
  8
1
 62
2
 10
1549.495128444919
 20
186.1524709665887
 30
0
 11
1549.495128444919
 21
185.7282068978768
 31
0
  0
LINE
  8
1
 62
2
 10
1549.282996410563
 20
186.4706690181227
 30
0
 11
1549.495128444919
 21
186.1524709665887
 31
0
  0
LINE
  8
1
 62
2
 10
1548.964798359029
 20
186.6828010524787
 30
0
 11
1549.282996410563
 21
186.4706690181227
 31
0
  0
LINE
  8
1
 62
2
 10
1548.540534290317
 20
186.7888670696567
 30
0
 11
1548.964798359029
 21
186.6828010524787
 31
0
  0
LINE
  8
1
 62
2
 10
1547.904138187249
 20
186.7888670696567
 30
0
 11
1548.540534290317
 21
186.7888670696567
 31
0
  0
LINE
  8
1
 62
2
 10
1547.479874118537
 20
186.6828010524787
 30
0
 11
1547.904138187249
 21
186.7888670696567
 31
0
  0
LINE
  8
1
 62
2
 10
1547.161676067003
 20
186.4706690181227
 30
0
 11
1547.479874118537
 21
186.6828010524787
 31
0
  0
LINE
  8
1
 62
2
 10
1546.949544032647
 20
186.1524709665887
 30
0
 11
1547.161676067003
 21
186.4706690181227
 31
0
  0
LINE
  8
1
 62
2
 10
1545.676751826512
 20
182.5462263825374
 30
0
 11
1545.570685809334
 21
182.5462263825374
 31
0
  0
LINE
  8
1
 62
2
 10
1545.676751826512
 20
182.6522923997154
 30
0
 11
1545.676751826512
 21
182.5462263825374
 31
0
  0
LINE
  8
1
 62
2
 10
1545.570685809334
 20
182.6522923997154
 30
0
 11
1545.676751826512
 21
182.6522923997154
 31
0
  0
LINE
  8
1
 62
2
 10
1545.570685809334
 20
182.5462263825374
 30
0
 11
1545.570685809334
 21
182.6522923997154
 31
0
  0
LINE
  8
1
 62
2
 10
1543.343299448596
 20
182.5462263825374
 30
0
 11
1541.752309190926
 21
182.5462263825374
 31
0
  0
LINE
  8
1
 62
2
 10
1543.66149750013
 20
182.6522923997154
 30
0
 11
1543.343299448596
 21
182.5462263825374
 31
0
  0
LINE
  8
1
 62
2
 10
1543.979695551664
 20
182.8644244340713
 30
0
 11
1543.66149750013
 21
182.6522923997154
 31
0
  0
LINE
  8
1
 62
2
 10
1544.19182758602
 20
183.1826224856052
 30
0
 11
1543.979695551664
 21
182.8644244340713
 31
0
  0
LINE
  8
1
 62
2
 10
1544.297893603198
 20
183.6068865543172
 30
0
 11
1544.19182758602
 21
183.1826224856052
 31
0
  0
LINE
  8
1
 62
2
 10
1544.297893603198
 20
184.1372166402071
 30
0
 11
1544.297893603198
 21
183.6068865543172
 31
0
  0
LINE
  8
1
 62
2
 10
1544.19182758602
 20
184.561480708919
 30
0
 11
1544.297893603198
 21
184.1372166402071
 31
0
  0
LINE
  8
1
 62
2
 10
1544.085761568842
 20
184.773612743275
 30
0
 11
1544.19182758602
 21
184.561480708919
 31
0
  0
LINE
  8
1
 62
2
 10
1543.873629534486
 20
184.9857447776309
 30
0
 11
1544.085761568842
 21
184.773612743275
 31
0
  0
LINE
  8
1
 62
2
 10
1543.449365465774
 20
185.0918107948089
 30
0
 11
1543.873629534486
 21
184.9857447776309
 31
0
  0
LINE
  8
1
 62
2
 10
1543.767563517308
 20
185.1978768119869
 30
0
 11
1543.449365465774
 21
185.0918107948089
 31
0
  0
LINE
  8
1
 62
2
 10
1543.979695551664
 20
185.3039428291649
 30
0
 11
1543.767563517308
 21
185.1978768119869
 31
0
  0
LINE
  8
1
 62
2
 10
1544.19182758602
 20
185.5160748635209
 30
0
 11
1543.979695551664
 21
185.3039428291649
 31
0
  0
LINE
  8
1
 62
2
 10
1544.297893603198
 20
185.8342729150548
 30
0
 11
1544.19182758602
 21
185.5160748635209
 31
0
  0
LINE
  8
1
 62
2
 10
1544.297893603198
 20
186.1524709665887
 30
0
 11
1544.297893603198
 21
185.8342729150548
 31
0
  0
LINE
  8
1
 62
2
 10
1544.19182758602
 20
186.4706690181227
 30
0
 11
1544.297893603198
 21
186.1524709665887
 31
0
  0
LINE
  8
1
 62
2
 10
1543.873629534486
 20
186.6828010524787
 30
0
 11
1544.19182758602
 21
186.4706690181227
 31
0
  0
LINE
  8
1
 62
2
 10
1543.343299448596
 20
186.7888670696567
 30
0
 11
1543.873629534486
 21
186.6828010524787
 31
0
  0
LINE
  8
1
 62
2
 10
1541.752309190926
 20
186.7888670696567
 30
0
 11
1543.343299448596
 21
186.7888670696567
 31
0
  0
LINE
  8
1
 62
2
 10
1542.388705293994
 20
185.0918107948089
 30
0
 11
1543.449365465774
 21
185.0918107948089
 31
0
  0
LINE
  8
1
 62
2
 10
1539.524922830189
 20
182.5462263825374
 30
0
 11
1537.933932572519
 21
182.5462263825374
 31
0
  0
LINE
  8
1
 62
2
 10
1539.843120881723
 20
182.6522923997154
 30
0
 11
1539.524922830189
 21
182.5462263825374
 31
0
  0
LINE
  8
1
 62
2
 10
1540.161318933257
 20
182.8644244340713
 30
0
 11
1539.843120881723
 21
182.6522923997154
 31
0
  0
LINE
  8
1
 62
2
 10
1540.373450967612
 20
183.1826224856052
 30
0
 11
1540.161318933257
 21
182.8644244340713
 31
0
  0
LINE
  8
1
 62
2
 10
1540.479516984791
 20
183.6068865543172
 30
0
 11
1540.373450967612
 21
183.1826224856052
 31
0
  0
LINE
  8
1
 62
2
 10
1540.479516984791
 20
184.1372166402071
 30
0
 11
1540.479516984791
 21
183.6068865543172
 31
0
  0
LINE
  8
1
 62
2
 10
1540.373450967612
 20
184.561480708919
 30
0
 11
1540.479516984791
 21
184.1372166402071
 31
0
  0
LINE
  8
1
 62
2
 10
1540.267384950435
 20
184.773612743275
 30
0
 11
1540.373450967612
 21
184.561480708919
 31
0
  0
LINE
  8
1
 62
2
 10
1540.055252916078
 20
184.9857447776309
 30
0
 11
1540.267384950435
 21
184.773612743275
 31
0
  0
LINE
  8
1
 62
2
 10
1539.630988847367
 20
185.0918107948089
 30
0
 11
1540.055252916078
 21
184.9857447776309
 31
0
  0
LINE
  8
1
 62
2
 10
1539.949186898901
 20
185.1978768119869
 30
0
 11
1539.630988847367
 21
185.0918107948089
 31
0
  0
LINE
  8
1
 62
2
 10
1540.161318933257
 20
185.3039428291649
 30
0
 11
1539.949186898901
 21
185.1978768119869
 31
0
  0
LINE
  8
1
 62
2
 10
1540.373450967612
 20
185.5160748635209
 30
0
 11
1540.161318933257
 21
185.3039428291649
 31
0
  0
LINE
  8
1
 62
2
 10
1540.479516984791
 20
185.8342729150548
 30
0
 11
1540.373450967612
 21
185.5160748635209
 31
0
  0
LINE
  8
1
 62
2
 10
1540.479516984791
 20
186.1524709665887
 30
0
 11
1540.479516984791
 21
185.8342729150548
 31
0
  0
LINE
  8
1
 62
2
 10
1540.373450967612
 20
186.4706690181227
 30
0
 11
1540.479516984791
 21
186.1524709665887
 31
0
  0
LINE
  8
1
 62
2
 10
1540.055252916078
 20
186.6828010524787
 30
0
 11
1540.373450967612
 21
186.4706690181227
 31
0
  0
LINE
  8
1
 62
2
 10
1539.524922830189
 20
186.7888670696567
 30
0
 11
1540.055252916078
 21
186.6828010524787
 31
0
  0
LINE
  8
1
 62
2
 10
1537.933932572519
 20
186.7888670696567
 30
0
 11
1539.524922830189
 21
186.7888670696567
 31
0
  0
LINE
  8
1
 62
2
 10
1538.570328675587
 20
185.0918107948089
 30
0
 11
1539.630988847367
 21
185.0918107948089
 31
0
  0
LINE
  8
1
 62
2
 10
1533.479159851044
 20
183.8720515972621
 30
0
 11
1534.068415502032
 21
183.2091389898997
 31
0
  0
LINE
  8
1
 62
2
 10
1533.007755330253
 20
184.667546726097
 30
0
 11
1533.479159851044
 21
183.8720515972621
 31
0
  0
LINE
  8
1
 62
2
 10
1532.654201939659
 20
185.5956243764043
 30
0
 11
1533.007755330253
 21
184.667546726097
 31
0
  0
LINE
  8
1
 62
2
 10
1533.714862111439
 20
185.7282068978768
 30
0
 11
1532.889904200055
 21
185.0652942905144
 31
0
  0
LINE
  8
1
 62
2
 10
1532.300648549066
 20
182.5462263825374
 30
0
 11
1531.947095158473
 21
182.6788089040098
 31
0
  0
LINE
  8
1
 62
2
 10
1532.300648549066
 20
186.6562845481842
 30
0
 11
1532.300648549066
 21
182.5462263825374
 31
0
  0
LINE
  8
1
 62
2
 10
1531.711392898077
 20
185.3304593334594
 30
0
 11
1530.5328815961
 21
185.3304593334594
 31
0
  0
LINE
  8
1
 62
2
 10
1531.475690637682
 20
184.5349642046245
 30
0
 11
1531.711392898077
 21
185.3304593334594
 31
0
  0
LINE
  8
1
 62
2
 10
1531.004286116891
 20
183.7394690757897
 30
0
 11
1531.475690637682
 21
184.5349642046245
 31
0
  0
LINE
  8
1
 62
2
 10
1530.5328815961
 20
183.2091389898997
 30
0
 11
1531.004286116891
 21
183.7394690757897
 31
0
  0
LINE
  8
1
 62
2
 10
1527.822305601551
 20
186.7888670696567
 30
0
 11
1527.822305601551
 21
182.6788089040098
 31
0
  0
LINE
  8
1
 62
2
 10
1529.236519163924
 20
185.1978768119869
 30
0
 11
1527.822305601551
 21
185.1978768119869
 31
0
  0
LINE
  8
1
 62
2
 10
1526.054538648585
 20
182.6788089040098
 30
0
 11
1529.825774814913
 21
182.6788089040098
 31
0
  0
LINE
  8
1
 62
2
  6
DASHDOT
 10
1580.5328790204
 20
135.1596604852539
 30
0
 11
1606.88046123663
 21
135.1596604852539
 31
0
  0
LINE
  8
1
 62
2
  6
DASHDOT
 10
1628.315336403073
 20
120.945928965919
 30
0
 11
1628.315336403073
 21
95.01733928469187
 31
0
  0
LINE
  8
1
 62
2
  6
DASHDOT
 10
1648.9047518708
 20
135.1596604852539
 30
0
 11
1731.34202015558
 21
135.1596604852539
 31
0
  0
LINE
  8
1
 62
7
 10
1611.315336403074
 20
152.409660485254
 30
0
 11
1639.315336403073
 21
152.409660485254
 31
0
  0
LINE
  8
1
 62
7
 10
1611.315336403074
 20
153.9096604852539
 30
0
 11
1611.315336403074
 21
152.409660485254
 31
0
  0
LINE
  8
1
 62
7
 10
1639.315336403073
 20
156.659660485254
 30
0
 11
1645.315336403073
 21
153.1596604852539
 31
0
  0
LINE
  8
1
 62
7
 10
1639.315336403073
 20
149.6596604852539
 30
0
 11
1645.315336403073
 21
153.1596604852539
 31
0
  0
LINE
  8
1
 62
7
 10
1639.315336403073
 20
156.659660485254
 30
0
 11
1639.315336403073
 21
153.9096604852539
 31
0
  0
LINE
  8
1
 62
7
 10
1639.315336403073
 20
152.409660485254
 30
0
 11
1639.315336403073
 21
149.6596604852539
 31
0
  0
LINE
  8
1
 62
7
 10
1612.903049643344
 20
153.9096604852539
 30
0
 11
1611.315336403074
 21
156.659660485254
 31
0
  0
LINE
  8
1
 62
7
 10
1611.315336403074
 20
156.659660485254
 30
0
 11
1628.315336403073
 21
156.659660485254
 31
0
  0
LINE
  8
1
 62
7
 10
1628.315336403073
 20
156.659660485254
 30
0
 11
1629.903049643345
 21
153.9096604852539
 31
0
  0
LINE
  8
1
 62
7
 10
1639.315336403073
 20
153.9096604852539
 30
0
 11
1611.315336403074
 21
153.9096604852539
 31
0
  0
LINE
  8
1
 62
7
 10
1611.315336403074
 20
149.6596604852539
 30
0
 11
1612.903049643344
 21
152.409660485254
 31
0
  0
LINE
  8
1
 62
7
 10
1628.315336403073
 20
149.6596604852539
 30
0
 11
1611.315336403074
 21
149.6596604852539
 31
0
  0
LINE
  8
1
 62
7
 10
1629.903049643345
 20
152.409660485254
 30
0
 11
1628.315336403073
 21
149.6596604852539
 31
0
  0
LINE
  8
1
 62
2
 10
1589.397836403073
 20
173.1596604852539
 30
0
 11
1589.397836403073
 21
174.0696604852538
 31
0
  0
LINE
  8
1
 62
7
 10
1668.315336403073
 20
173.1596604852539
 30
0
 11
1588.315336403073
 21
173.1596604852539
 31
0
  0
LINE
  8
1
 62
2
 10
1667.232836403073
 20
174.0696604852538
 30
0
 11
1667.232836403073
 21
173.1596604852539
 31
0
  0
LINE
  8
1
 62
2
  6
DASHDOT
 10
1526.458578164818
 20
135.1596604852539
 30
0
 11
1561.18731424323
 21
135.1596604852539
 31
0
  0
LINE
  8
1
 62
7
 10
1588.315336403073
 20
173.1596604852539
 30
0
 11
1588.315336403073
 21
174.0696604852538
 31
0
  0
LINE
  8
1
 62
7
 10
1590.315336403073
 20
171.1596604852539
 30
0
 11
1590.315336403073
 21
166.8199145230983
 31
0
  0
LINE
  8
1
 62
7
 10
1666.315336403073
 20
171.1596604852539
 30
0
 11
1666.315336403073
 21
166.8199145230983
 31
0
  0
LINE
  8
1
 62
7
 10
1672.876312012829
 20
156.2084409730587
 30
0
 11
1706.297775083927
 21
148.6886117820623
 31
0
  0
LINE
  8
1
 62
7
 10
1721.315336403073
 20
150.7841604852537
 30
0
 11
1720.315336403073
 21
151.7841604852538
 31
0
  0
LINE
  8
1
 62
7
 10
1709.315336403073
 20
151.7841604852538
 30
0
 11
1708.315336403073
 21
150.7841604852538
 31
0
  0
LINE
  8
1
 62
2
 10
1708.315336403073
 20
150.7841604852538
 30
0
 11
1721.315336403073
 21
150.7841604852537
 31
0
  0
LINE
  8
1
 62
7
 10
1673.315336403073
 20
165.1596604852539
 30
0
 11
1667.200187744902
 21
165.1596604852539
 31
0
  0
LINE
  8
1
 62
7
 10
1676.315336403073
 20
157.8346604852541
 30
0
 11
1676.315336403073
 21
162.1596604852539
 31
0
  0
LINE
  8
1
 62
7
 10
1668.315336403073
 20
173.1596604852539
 30
0
 11
1668.315336403073
 21
174.0696604852538
 31
0
  0
LINE
  8
1
 62
7
 10
1674.960737908975
 20
120.352329650927
 30
0
 11
1706.207385887043
 21
122.0413376497418
 31
0
  0
LINE
  8
1
 62
7
 10
1698.315336403073
 20
121.6147403803379
 30
0
 11
1661.310405826253
 21
105.4170322689511
 31
0
  0
LINE
  8
1
 62
7
 10
1658.315336403073
 20
100.8366116133639
 30
0
 11
1658.315336403073
 21
100.1596604852539
 31
0
  0
LINE
  8
1
 62
7
 10
1721.315336403073
 20
119.535160485254
 30
0
 11
1721.315336403073
 21
150.7841604852537
 31
0
  0
LINE
  8
1
 62
7
 10
1709.315336403073
 20
118.535160485254
 30
0
 11
1720.315336403073
 21
118.535160485254
 31
0
  0
LINE
  8
1
 62
7
 10
1721.315336403073
 20
119.535160485254
 30
0
 11
1720.315336403073
 21
118.535160485254
 31
0
  0
LINE
  8
1
 62
7
 10
1709.315336403073
 20
118.535160485254
 30
0
 11
1708.315336403073
 21
119.535160485254
 31
0
  0
LINE
  8
1
 62
2
 10
1708.315336403073
 20
119.535160485254
 30
0
 11
1721.315336403073
 21
119.535160485254
 31
0
  0
LINE
  8
1
 62
7
 10
1543.315336403073
 20
151.7841604852538
 30
0
 11
1544.315336403073
 21
150.7841604852538
 31
0
  0
LINE
  8
1
 62
7
 10
1532.315336403073
 20
151.7841604852538
 30
0
 11
1531.315336403073
 21
150.7841604852538
 31
0
  0
LINE
  8
1
 62
2
 10
1531.315336403073
 20
150.7841604852538
 30
0
 11
1544.315336403073
 21
150.7841604852538
 31
0
  0
LINE
  8
1
 62
7
 10
1546.332897722219
 20
148.6886117820623
 30
0
 11
1580.961497769942
 21
153.2015887342641
 31
0
  0
LINE
  8
1
 62
7
 10
1531.315336403073
 20
150.7841604852538
 30
0
 11
1531.315336403073
 21
119.535160485254
 31
0
  0
LINE
  8
1
 62
7
 10
1532.315336403073
 20
118.535160485254
 30
0
 11
1543.315336403073
 21
118.535160485254
 31
0
  0
LINE
  8
1
 62
7
 10
1544.315336403073
 20
119.535160485254
 30
0
 11
1544.315336403073
 21
150.7841604852538
 31
0
  0
LINE
  8
1
 62
7
 10
1543.315336403073
 20
118.535160485254
 30
0
 11
1544.315336403073
 21
119.535160485254
 31
0
  0
LINE
  8
1
 62
7
 10
1531.315336403073
 20
119.535160485254
 30
0
 11
1532.315336403073
 21
118.535160485254
 31
0
  0
LINE
  8
1
 62
2
 10
1531.315336403073
 20
119.535160485254
 30
0
 11
1544.315336403073
 21
119.535160485254
 31
0
  0
LINE
  8
1
 62
7
 10
1546.315336403073
 20
122.1596604852539
 30
0
 11
1551.567670109505
 21
122.1596604852539
 31
0
  0
LINE
  8
1
 62
7
 10
1598.315336403073
 20
101.3084059320081
 30
0
 11
1598.315336403073
 21
100.1596604852539
 31
0
  0
LINE
  8
1
 62
7
 10
1626.815336403073
 20
100.1596604852539
 30
0
 11
1626.815336403073
 21
101.1685637320743
 31
0
  0
LINE
  8
1
 62
7
 10
1658.315336403073
 20
100.1596604852539
 30
0
 11
1598.315336403073
 21
100.1596604852539
 31
0
  0
LINE
  8
1
 62
7
 10
1629.815336403073
 20
101.16848827894
 30
0
 11
1629.815336403073
 21
100.1596604852539
 31
0
  0
LINE
  8
1
 62
7
 10
1720.315336403073
 20
151.7841604852538
 30
0
 11
1709.315336403073
 21
151.7841604852538
 31
0
  0
LINE
  8
1
 62
7
 10
1543.315336403073
 20
151.7841604852538
 30
0
 11
1532.315336403073
 21
151.7841604852538
 31
0
  0
LINE
  8
1
 62
2
  6
DASHDOT
 10
1675.160150228302
 20
162.1596604852539
 30
0
 11
1671.523609963624
 21
162.1596604852539
 31
0
  0
LINE
  8
1
 62
2
  6
DASHDOT
 10
1673.315336403073
 20
164.0182952123701
 30
0
 11
1673.315336403073
 21
160.2250075224911
 31
0
  0
LINE
  8
1
 62
2
 10
1532.315336403073
 20
151.7841604852538
 30
0
 11
1532.315336403073
 21
118.535160485254
 31
0
  0
LINE
  8
1
 62
2
 10
1543.315336403073
 20
151.7841604852538
 30
0
 11
1543.315336403073
 21
118.535160485254
 31
0
  0
LINE
  8
1
 62
7
 10
1708.315336403073
 20
150.7841604852538
 30
0
 11
1708.315336403073
 21
119.535160485254
 31
0
  0
LINE
  8
1
 62
2
 10
1709.315336403073
 20
151.7841604852538
 30
0
 11
1709.315336403073
 21
118.535160485254
 31
0
  0
LINE
  8
1
 62
2
 10
1720.315336403073
 20
151.7841604852538
 30
0
 11
1720.315336403073
 21
118.535160485254
 31
0
  0
LINE
  8
1
 62
2
 10
1593.291196253398
 20
171.1596604852539
 30
0
 11
1662.807945867228
 21
171.1596604852539
 31
0
  0
LINE
  8
1
 62
2
  6
DASHDOT
 10
1628.315336403073
 20
210.5495134629095
 30
0
 11
1628.315336403073
 21
141.546071433653
 31
0
  0
LINE
  8
1
 62
7
 10
1579.253523251018
 20
131.6596604852539
 30
0
 11
1574.631449065114
 21
131.6596604852539
 31
0
  0
LINE
  8
1
 62
7
 10
1574.631449065114
 20
131.6596604852539
 30
0
 11
1574.631449065114
 21
138.5893069408821
 31
0
  0
LINE
  8
1
 62
7
 10
1574.631449065114
 20
138.5893069408821
 30
0
 11
1579.173832316778
 21
138.5893069408821
 31
0
  0
LINE
  8
1
 62
7
 10
1579.173832316778
 20
138.5893069408821
 30
0
 11
1579.173832316778
 21
137.7231011339286
 31
0
  0
LINE
  8
1
 62
7
 10
1579.173832316778
 20
137.7231011339286
 30
0
 11
1575.508049341751
 21
137.7231011339286
 31
0
  0
LINE
  8
1
 62
7
 10
1575.508049341751
 20
137.7231011339286
 30
0
 11
1575.508049341751
 21
135.6442071972401
 31
0
  0
LINE
  8
1
 62
7
 10
1575.508049341751
 20
135.6442071972401
 30
0
 11
1578.855068579819
 21
135.6442071972401
 31
0
  0
LINE
  8
1
 62
7
 10
1578.855068579819
 20
135.6442071972401
 30
0
 11
1578.855068579819
 21
134.7780013902866
 31
0
  0
LINE
  8
1
 62
7
 10
1578.855068579819
 20
134.7780013902866
 30
0
 11
1575.508049341751
 21
134.7780013902866
 31
0
  0
LINE
  8
1
 62
7
 10
1575.508049341751
 20
134.7780013902866
 30
0
 11
1575.508049341751
 21
132.5258662922074
 31
0
  0
LINE
  8
1
 62
7
 10
1575.508049341751
 20
132.5258662922074
 30
0
 11
1579.253523251018
 21
132.5258662922074
 31
0
  0
LINE
  8
1
 62
7
 10
1579.253523251018
 20
132.5258662922074
 30
0
 11
1579.253523251018
 21
131.6596604852539
 31
0
  0
LINE
  8
0
 62
7
 10
1610.315336683174
 20
239.200391695857
 30
0
 11
1610.315336683174
 21
280.258576274857
 31
0
  0
LINE
  8
0
 62
7
 10
1605.315335863574
 20
280.258576274857
 30
0
 11
1605.315335863574
 21
240.2721502641571
 31
0
  0
LINE
  8
0
 62
7
 10
1612.513198354674
 20
307.036631629857
 30
0
 11
1612.513198354674
 21
306.4221524456571
 31
0
  0
LINE
  8
0
 62
7
 10
1612.513198354674
 20
306.4221524456571
 30
0
 11
1609.900734224674
 21
306.4221524456571
 31
0
  0
LINE
  8
0
 62
7
 10
1610.227524140274
 20
305.651263223057
 30
0
 11
1612.513198354674
 21
305.651263223057
 31
0
  0
LINE
  8
0
 62
7
 10
1612.513198354674
 20
305.651263223057
 30
0
 11
1612.513198354674
 21
305.036784038857
 31
0
  0
LINE
  8
0
 62
7
 10
1612.513198354674
 20
305.036784038857
 30
0
 11
1609.071188443674
 21
305.036784038857
 31
0
  0
LINE
  8
0
 62
7
 10
1609.071188443674
 20
305.036784038857
 30
0
 11
1609.071188443674
 21
305.651263223057
 31
0
  0
LINE
  8
0
 62
7
 10
1609.071188443674
 20
305.651263223057
 30
0
 11
1609.498529532374
 21
305.651263223057
 31
0
  0
LINE
  8
0
 62
7
 10
1609.699631878474
 20
308.450863585857
 30
0
 11
1612.513198354674
 21
308.450863585857
 31
0
  0
LINE
  8
0
 62
7
 10
1612.513198354674
 20
308.450863585857
 30
0
 11
1612.513198354674
 21
307.836384401657
 31
0
  0
LINE
  8
0
 62
7
 10
1612.513198354674
 20
307.836384401657
 30
0
 11
1609.925872483674
 21
307.836384401657
 31
0
  0
LINE
  8
0
 62
7
 10
1610.227524140274
 20
307.036631629857
 30
0
 11
1612.513198354674
 21
307.036631629857
 31
0
  0
LINE
  8
0
 62
7
 10
1609.054875397474
 20
308.912311569757
 30
0
 11
1609.054875397474
 21
308.6709090331571
 31
0
  0
LINE
  8
0
 62
7
 10
1609.469649219274
 20
309.109822736157
 30
0
 11
1609.325748705674
 21
309.109822736157
 31
0
  0
LINE
  8
0
 62
7
 10
1609.75745024657
 20
308.6270176628289
 30
0
 11
1609.757450246574
 21
308.8793911794571
 31
0
  0
LINE
  8
0
 62
7
 10
1606.815335178174
 20
298.1867798427571
 30
0
 11
1602.815336385174
 21
291.2585762152571
 31
0
  0
LINE
  8
0
 62
7
 10
1613.315337040274
 20
320.2585772434571
 30
0
 11
1610.252937243874
 21
320.2585772434571
 31
0
  0
LINE
  8
0
 62
7
 10
1606.815335178174
 20
316.424325929057
 30
0
 11
1606.815335178174
 21
298.1867798427571
 31
0
  0
LINE
  8
0
 62
7
 10
1614.315336407474
 20
281.2585756420571
 30
0
 11
1614.315336407474
 21
319.258575216857
 31
0
  0
LINE
  8
0
 62
7
 10
1603.815337342274
 20
280.258576274857
 30
0
 11
1613.315337040274
 21
280.258576274857
 31
0
  0
LINE
  8
0
 62
7
 10
1602.815336385174
 20
291.2585762152571
 30
0
 11
1602.815336385174
 21
281.258577231957
 31
0
  0
LINE
  8
0
 62
7
 10
1602.315335371874
 20
304.258578346157
 30
0
 11
1602.315335371874
 21
298.258577362657
 31
0
  0
LINE
  8
0
 62
7
 10
1603.815336549074
 20
304.258578346157
 30
0
 11
1603.815336549074
 21
298.258577362657
 31
0
  0
LINE
  8
0
 62
7
 10
1602.315335371874
 20
304.258578346157
 30
0
 11
1604.415335529874
 21
304.258578346157
 31
0
  0
LINE
  8
0
 62
7
 10
1602.315335371874
 20
298.258577362657
 30
0
 11
1604.415335529874
 21
298.258577362657
 31
0
  0
LINE
  8
0
 62
7
 10
1604.315335699674
 20
304.258578346157
 30
0
 11
1604.315335699674
 21
298.258577362657
 31
0
  0
LINE
  8
0
 62
7
 10
1606.469034054674
 20
306.258574948657
 30
0
 11
1606.815335178174
 21
306.258574948657
 31
0
  0
LINE
  8
0
 62
7
 10
1614.315336407474
 20
319.258575216857
 30
0
 11
1614.315336407474
 21
321.2585755446571
 31
0
  0
LINE
  8
0
 62
7
 10
1619.937592171127
 20
324.2762437604304
 30
0
 11
1618.909784526278
 21
327.1001220183234
 31
0
  0
LINE
  8
0
 62
7
 10
1617.791542090829
 20
275.85188962212
 30
0
 11
1619.130934425974
 21
279.085467458757
 31
0
  0
LINE
  8
0
 62
7
 10
1624.906305411599
 20
277.0020607868421
 30
0
 11
1624.766422273007
 21
276.0067404070854
 31
0
  0
LINE
  8
0
 62
7
 10
1635.717054200674
 20
276.8564325580571
 30
0
 11
1635.832408746163
 21
276.577942893834
 31
0
  0
LINE
  8
0
 62
7
 10
1640.451806434787
 20
278.4913600245251
 30
0
 11
1640.336452820674
 21
278.769849688757
 31
0
  0
LINE
  8
0
 62
7
 10
1653.50138845423
 20
297.2694978872642
 30
0
 11
1652.508658970051
 21
297.4267313870095
 31
0
  0
LINE
  8
0
 62
7
 10
1626.092864969168
 20
326.6615428785327
 30
0
 11
1626.180465191115
 21
325.6602692287886
 31
0
  0
LINE
  8
0
 62
7
 10
1652.676045132166
 20
303.8189900089573
 30
0
 11
1653.675644495878
 21
303.9240510026334
 31
0
  0
LINE
  8
0
 62
7
 10
1637.516735693112
 20
277.4765593725959
 30
0
 11
1637.213289341193
 21
278.2091419093933
 31
0
  0
LINE
  8
0
 62
7
 10
1637.321527788236
 20
278.4704532696528
 30
0
 11
1637.691078820035
 21
278.6235266931174
 31
0
  0
LINE
  8
0
 62
7
 10
1601.915336051374
 20
304.258578335257
 30
0
 11
1601.915336051374
 21
298.258580007657
 31
0
  0
LINE
  8
0
 62
7
 10
1602.415339709674
 20
297.758576349357
 30
0
 11
1603.915331871474
 21
297.758576349357
 31
0
  0
LINE
  8
0
 62
7
 10
1604.415335529874
 20
298.258580007657
 30
0
 11
1604.415335529874
 21
304.258578335257
 31
0
  0
LINE
  8
0
 62
7
 10
1603.915338231074
 20
304.758575634057
 30
0
 11
1602.415333350174
 21
304.758575634057
 31
0
  0
LINE
  8
0
 62
7
 10
1615.565337078074
 20
323.3422272661571
 30
0
 11
1615.415336401543
 21
323.6020290116115
 31
0
  0
LINE
  8
0
 62
7
 10
1612.788508483555
 20
321.8633726993829
 30
0
 11
1612.969053746558
 21
321.6237806538783
 31
0
  0
LINE
  8
0
 62
7
 10
1606.815335178174
 20
304.758575634057
 30
0
 11
1604.801823222462
 21
313.480061368111
 31
0
  0
LINE
  8
0
 62
7
 10
1618.231646552623
 20
279.36664556459
 30
0
 11
1615.064915435008
 21
278.6355488938519
 31
0
  0
LINE
  8
0
 62
7
 10
1613.327341922874
 20
322.258577571257
 30
0
 11
1613.857082294774
 21
322.258577571257
 31
0
  0
LINE
  8
0
 62
7
 10
1614.615336829174
 20
322.489679655157
 30
0
 11
1614.615336829174
 21
322.258577307357
 31
0
  0
LINE
  8
0
 62
7
 10
1582.815336832174
 20
304.258578346157
 30
0
 11
1582.815336832174
 21
298.258577362657
 31
0
  0
LINE
  8
0
 62
7
 10
1579.315337189774
 20
298.2585765820571
 30
0
 11
1579.315337189774
 21
304.258578407257
 31
0
  0
LINE
  8
0
 62
7
 10
1586.923911073574
 20
304.258578346157
 30
0
 11
1579.315337189774
 21
304.258578407257
 31
0
  0
LINE
  8
0
 62
7
 10
1579.315337189774
 20
298.258577362657
 30
0
 11
1586.923911073574
 21
298.258577362657
 31
0
  0
LINE
  8
0
 62
7
 10
1580.315335552174
 20
305.2585766473571
 30
0
 11
1585.103648552074
 21
305.2585766473571
 31
0
  0
LINE
  8
0
 62
7
 10
1585.103648552074
 20
305.2585766473571
 30
0
 11
1585.611182102351
 21
305.3969451049438
 31
0
  0
LINE
  8
0
 62
7
 10
1586.306693801074
 20
305.2585766473571
 30
0
 11
1587.117641070274
 21
305.2585766473571
 31
0
  0
LINE
  8
0
 62
7
 10
1587.117641070274
 20
305.2585766473571
 30
0
 11
1587.462427863274
 21
305.319894925657
 31
0
  0
LINE
  8
0
 62
7
 10
1587.117641070274
 20
297.2585753360571
 30
0
 11
1587.462427863241
 21
297.1972570577592
 31
0
  0
LINE
  8
0
 62
7
 10
1586.306693801074
 20
297.2585753360571
 30
0
 11
1587.117641070274
 21
297.2585753360571
 31
0
  0
LINE
  8
0
 62
7
 10
1585.103648552074
 20
297.2585753360571
 30
0
 11
1585.611182102374
 21
297.120206878557
 31
0
  0
LINE
  8
0
 62
7
 10
1580.315338435874
 20
297.2585753360571
 30
0
 11
1585.103648552074
 21
297.2585753360571
 31
0
  0
LINE
  8
0
 62
7
 10
1671.527022892074
 20
305.2585766473571
 30
0
 11
1676.315333669774
 21
305.2585766473571
 31
0
  0
LINE
  8
0
 62
7
 10
1625.315330781674
 20
350.2585747102571
 30
0
 11
1631.315341966374
 21
350.2585747102571
 31
0
  0
LINE
  8
0
 62
7
 10
1632.315336563974
 20
258.0468916846571
 30
0
 11
1632.315336563974
 21
253.2585791616571
 31
0
  0
LINE
  8
0
 62
7
 10
1624.315336183974
 20
344.4702677369571
 30
0
 11
1624.315336183974
 21
349.2585801126571
 31
0
  0
LINE
  8
0
 62
7
 10
1624.315336183974
 20
253.2585791616571
 30
0
 11
1624.315336183974
 21
258.0468916846571
 31
0
  0
LINE
  8
0
 62
7
 10
1631.315335606874
 20
252.2585782045571
 30
0
 11
1625.315337141074
 21
252.2585782045571
 31
0
  0
LINE
  8
0
 62
7
 10
1677.315334626774
 20
304.258575690257
 30
0
 11
1677.315334626774
 21
298.258576293157
 31
0
  0
LINE
  8
0
 62
7
 10
1632.315336563974
 20
349.2585801126571
 30
0
 11
1632.315336563974
 21
344.4702677369571
 31
0
  0
LINE
  8
0
 62
7
 10
1676.315333669774
 20
297.2585753360571
 30
0
 11
1671.527015910874
 21
297.2585753360571
 31
0
  0
LINE
  8
1
 62
2
 10
1619.750969747022
 20
315.806985434542
 30
0
 11
1621.781265851163
 21
317.837281538683
 31
0
  0
LINE
  8
1
 62
2
 10
1619.523179070896
 20
314.1922004989184
 30
0
 11
1623.315125215764
 21
317.9841466437863
 31
0
  0
LINE
  8
1
 62
2
 10
1620.141703537973
 20
313.5736760318506
 30
0
 11
1623.933649682841
 21
317.3656221767185
 31
0
  0
LINE
  8
1
 62
2
 10
1621.662949566279
 20
313.8575192839422
 30
0
 11
1623.69324567042
 21
315.8878153880833
 31
0
  0
LINE
  8
1
 62
2
 10
1637.016015184712
 20
288.421051292001
 30
0
 11
1639.046311288853
 21
290.4513473961421
 31
0
  0
LINE
  8
1
 62
2
 10
1636.788224508586
 20
286.8062663563775
 30
0
 11
1640.580170653454
 21
290.5982125012454
 31
0
  0
LINE
  8
1
 62
2
 10
1637.406748975663
 20
286.1877418893097
 30
0
 11
1641.198695120531
 21
289.9796880341776
 31
0
  0
LINE
  8
1
 62
2
 10
1638.927995003969
 20
286.4715851414013
 30
0
 11
1640.95829110811
 21
288.5018812455423
 31
0
  0
LINE
  8
0
 62
7
 10
1670.815337174457
 20
174.069660660354
 30
0
 11
1670.815337174457
 21
176.5696606044539
 31
0
  0
LINE
  8
0
 62
7
 10
1585.815336727457
 20
176.5696608160539
 30
0
 11
1585.815336280457
 21
174.069660660354
 31
0
  0
LINE
  8
0
 62
7
 10
1668.815336846657
 20
193.5696615283539
 30
0
 11
1668.815336846657
 21
198.5696604852539
 31
0
  0
LINE
  8
0
 62
7
 10
1666.315335505557
 20
198.5696604852539
 30
0
 11
1666.315335505557
 21
199.5696606491539
 31
0
  0
LINE
  8
0
 62
7
 10
1590.315337949357
 20
199.5696606491539
 30
0
 11
1590.315337949357
 21
198.5696604852539
 31
0
  0
LINE
  8
0
 62
7
 10
1602.815337204257
 20
211.0696616028539
 30
0
 11
1614.315336295357
 21
211.0696616028539
 31
0
  0
LINE
  8
0
 62
7
 10
1602.815337204257
 20
210.0696595762539
 30
0
 11
1614.315336295357
 21
210.0696595762539
 31
0
  0
LINE
  8
0
 62
7
 10
1609.071189262857
 20
211.5696626161539
 30
0
 11
1609.071189262857
 21
211.0696616028539
 31
0
  0
LINE
  8
0
 62
7
 10
1612.513199173757
 20
211.5696626161539
 30
0
 11
1609.071189262857
 21
211.5696626161539
 31
0
  0
LINE
  8
0
 62
7
 10
1612.513199173757
 20
211.5696626161539
 30
0
 11
1612.513199173757
 21
211.0696616028539
 31
0
  0
LINE
  8
0
 62
7
 10
1608.699356862257
 20
211.5696626161539
 30
0
 11
1608.699356862257
 21
211.0696616028539
 31
0
  0
LINE
  8
0
 62
7
 10
1609.054876216657
 20
211.5696626161539
 30
0
 11
1609.054876216657
 21
211.0696616028539
 31
0
  0
LINE
  8
0
 62
7
 10
1608.597779371657
 20
211.5696626161539
 30
0
 11
1608.597779371657
 21
211.0696616028539
 31
0
  0
LINE
  8
0
 62
7
 10
1609.054876216657
 20
211.5696626161539
 30
0
 11
1608.597779371657
 21
211.5696626161539
 31
0
  0
LINE
  8
0
 62
7
 10
1613.315336727457
 20
201.0696608160539
 30
0
 11
1603.815337368257
 21
201.0696599636539
 31
0
  0
LINE
  8
0
 62
7
 10
1603.815337368257
 20
201.0696599636539
 30
0
 11
1603.815337368257
 21
211.0696616028539
 31
0
  0
LINE
  8
0
 62
7
 10
1602.815337204257
 20
202.0686842916225
 30
0
 11
1602.815337204257
 21
211.0696616028539
 31
0
  0
LINE
  8
0
 62
7
 10
1614.315336727457
 20
202.0696608160539
 30
0
 11
1602.815337204257
 21
202.0696619902539
 31
0
  0
LINE
  8
0
 62
7
 10
1614.315336295357
 20
211.0696616028539
 30
0
 11
1614.315336295357
 21
199.5696606491539
 31
0
  0
LINE
  8
0
 62
7
 10
1606.815335997357
 20
199.5696606491539
 30
0
 11
1606.815335997357
 21
201.0696599636539
 31
0
  0
LINE
  8
0
 62
7
 10
1632.315336727457
 20
188.5696608160539
 30
0
 11
1632.315336727457
 21
178.5696608160539
 31
0
  0
LINE
  8
0
 62
7
 10
1624.315336537457
 20
178.5696609322539
 30
0
 11
1624.315336537457
 21
188.5696607087539
 31
0
  0
LINE
  8
0
 62
7
 10
1631.315336727457
 20
177.5696608160539
 30
0
 11
1625.315336701357
 21
177.5696607683539
 31
0
  0
LINE
  8
0
 62
7
 10
1625.315336701357
 20
189.5696608726539
 30
0
 11
1631.315336727457
 21
189.5696608160539
 31
0
  0
LINE
  8
0
 62
7
 10
1586.097020381057
 20
190.7412330065539
 30
0
 11
1586.097020381057
 21
178.5696609322539
 31
0
  0
LINE
  8
0
 62
7
 10
1670.533653073857
 20
178.5696609324123
 30
0
 11
1670.533653073857
 21
188.5696607084351
 31
0
  0
LINE
  8
0
 62
7
 10
1585.815336280457
 20
174.069660660354
 30
0
 11
1670.815337174457
 21
174.069660660354
 31
0
  0
LINE
  8
0
 62
7
 10
1588.110357248157
 20
196.5696601577841
 30
0
 11
1588.110357248157
 21
193.5696615283539
 31
0
  0
LINE
  8
0
 62
7
 10
1587.815336727457
 20
198.5696604852539
 30
0
 11
1668.815336846657
 21
198.5696604852539
 31
0
  0
LINE
  8
0
 62
7
 10
1590.315337949357
 20
199.5696606491539
 30
0
 11
1666.315335505557
 21
199.5696606491539
 31
0
  0
LINE
  8
0
 62
7
 10
1585.611182921457
 20
190.7412330065539
 30
0
 11
1586.097020381057
 21
190.7412330065539
 31
0
  0
LINE
  8
0
 62
7
 10
1585.103649371257
 20
189.5615676794539
 30
0
 11
1585.103666461288
 21
189.5616074019839
 31
0
  0
LINE
  8
0
 62
7
 10
1587.117641889457
 20
195.1899337027539
 30
0
 11
1587.462428682457
 21
196.5696601574539
 31
0
  0
LINE
  8
0
 62
7
 10
1671.815000275339
 20
189.5696608726539
 30
0
 11
1676.315337144657
 21
189.5696608726539
 31
0
  0
LINE
  8
0
 62
7
 10
1676.315336727457
 20
177.5696608160539
 30
0
 11
1671.815027858607
 21
177.5696607683539
 31
0
  0
LINE
  8
0
 62
7
 10
1677.315335445957
 20
188.5712617526807
 30
0
 11
1677.315335445957
 21
178.5712617526807
 31
0
  0
LINE
  8
0
 62
7
 10
1582.817197614284
 20
197.5696603213539
 30
0
 11
1587.677955352611
 21
197.5696603213539
 31
0
  0
LINE
  8
0
 62
7
 10
1579.315338008957
 20
194.066665736925
 30
0
 11
1579.315338008957
 21
178.5712617528228
 31
0
  0
LINE
  8
0
 62
7
 10
1587.815336608257
 20
198.5696604852539
 30
0
 11
1587.921295040257
 21
198.5696604852539
 31
0
  0
LINE
  8
0
 62
7
 10
1613.315337062757
 20
199.5696606491539
 30
0
 11
1613.315337062757
 21
211.0696616028539
 31
0
  0
LINE
  8
0
 62
7
 10
1610.252944477757
 20
201.0696599636539
 30
0
 11
1610.252944477757
 21
199.5696606491539
 31
0
  0
LINE
  8
0
 62
7
 10
1609.544615917757
 20
199.5696606491539
 30
0
 11
1609.544615917757
 21
201.0696599636539
 31
0
  0
LINE
  8
0
 62
7
 10
1607.011414789557
 20
201.0696599636539
 30
0
 11
1607.011414789557
 21
199.5696606491539
 31
0
  0
LINE
  8
0
 62
7
 10
1670.815337174457
 20
190.7412330065539
 30
0
 11
1586.097020381057
 21
190.7412330065539
 31
0
  0
LINE
  8
0
 62
7
 10
1585.916526340791
 20
176.5696606044898
 30
0
 11
1585.815336727457
 21
176.5696608160539
 31
0
  0
LINE
  8
0
 62
7
 10
1670.714147114086
 20
190.5696610365522
 30
0
 11
1670.815336727457
 21
190.5696610365539
 31
0
  0
LINE
  8
0
 62
7
 10
1670.815337174457
 20
176.5696606044539
 30
0
 11
1670.714147114101
 21
176.5696606044539
 31
0
  0
LINE
  8
0
 62
7
 10
1586.777142904527
 20
191.6840425134521
 30
0
 11
1670.148670060792
 21
191.6840427328591
 31
0
  0
LINE
  8
0
 62
7
 10
1588.110357248157
 20
193.5696615283539
 30
0
 11
1668.815336846657
 21
193.5696615283539
 31
0
  0
LINE
  8
1
 62
7
 10
1574.801846717213
 20
278.8664431607469
 30
0
 11
1575.091243609272
 21
279.8236523535919
 31
0
  0
LINE
  8
1
 62
7
 10
1578.630683488593
 20
277.7088555925122
 30
0
 11
1574.801846717213
 21
278.8664431607469
 31
0
  0
LINE
  8
1
 62
7
 10
1578.630683488593
 20
277.7088555925122
 30
0
 11
1574.801846717213
 21
278.8664431607469
 31
0
  0
LINE
  8
1
 62
7
 10
1578.920080380651
 20
278.666064785357
 30
0
 11
1578.630683488593
 21
277.7088555925122
 31
0
  0
LINE
  8
1
 62
7
 10
1563.315336403074
 20
282.339205865451
 30
0
 11
1563.604733295133
 21
283.296415058296
 31
0
  0
LINE
  8
1
 62
7
 10
1567.144173174453
 20
281.1816182972162
 30
0
 11
1563.315336403074
 21
282.339205865451
 31
0
  0
LINE
  8
1
 62
7
 10
1567.433570066512
 20
282.1388274900613
 30
0
 11
1567.144173174453
 21
281.1816182972162
 31
0
  0
LINE
  8
1
 62
7
 10
1569.058591560143
 20
280.6028245130989
 30
0
 11
1569.347988452202
 21
281.5600337059439
 31
0
  0
LINE
  8
1
 62
7
 10
1572.887428331523
 20
279.4452369448642
 30
0
 11
1569.058591560143
 21
280.6028245130989
 31
0
  0
LINE
  8
1
 62
7
 10
1573.176825223581
 20
280.402446137709
 30
0
 11
1572.887428331523
 21
279.4452369448642
 31
0
  0
LINE
  8
1
 62
7
 10
1705.658240263201
 20
287.3091221465086
 30
0
 11
1665.325114614796
 21
274.977788390019
 31
0
  0
LINE
  8
1
 62
7
 10
1665.325114614796
 20
327.539363593495
 30
0
 11
1705.658240263201
 21
315.2080298370054
 31
0
  0
LINE
  8
1
 62
2
 10
1709.315336403074
 20
284.6340759917571
 30
0
 11
1709.315336403074
 21
317.8830759917572
 31
0
  0
LINE
  8
1
 62
2
 10
1720.315336403074
 20
284.6340759917571
 30
0
 11
1720.315336403074
 21
317.8830759917572
 31
0
  0
LINE
  8
1
 62
2
 10
1708.315336403074
 20
285.6340759917571
 30
0
 11
1721.315336403074
 21
285.6340759917571
 31
0
  0
LINE
  8
1
 62
2
 10
1708.315336403074
 20
316.8830759917572
 30
0
 11
1721.315336403074
 21
316.8830759917572
 31
0
  0
LINE
  8
1
 62
7
 10
1709.315336403074
 20
284.6340759917571
 30
0
 11
1708.315336403074
 21
285.6340759917571
 31
0
  0
LINE
  8
1
 62
7
 10
1720.315336403074
 20
284.6340759917571
 30
0
 11
1721.315336403074
 21
285.6340759917571
 31
0
  0
LINE
  8
1
 62
7
 10
1709.315336403074
 20
317.8830759917572
 30
0
 11
1708.315336403074
 21
316.8830759917572
 31
0
  0
LINE
  8
1
 62
7
 10
1720.315336403074
 20
317.8830759917572
 30
0
 11
1721.315336403074
 21
316.8830759917572
 31
0
  0
LINE
  8
1
 62
7
 10
1708.315336403074
 20
285.6340759917571
 30
0
 11
1708.315336403074
 21
316.8830759917572
 31
0
  0
LINE
  8
1
 62
7
 10
1721.315336403074
 20
285.6340759917571
 30
0
 11
1721.315336403074
 21
316.8830759917572
 31
0
  0
LINE
  8
1
 62
7
 10
1720.315336403074
 20
284.6340759917571
 30
0
 11
1709.315336403074
 21
284.6340759917571
 31
0
  0
LINE
  8
1
 62
7
 10
1709.315336403074
 20
317.8830759917572
 30
0
 11
1720.315336403074
 21
317.8830759917572
 31
0
  0
LINE
  8
1
 62
7
 10
1546.894130187191
 20
314.1685533064086
 30
0
 11
1591.339702615696
 21
327.6059613701062
 31
0
  0
LINE
  8
1
 62
7
 10
1591.339702615696
 20
274.9111906134079
 30
0
 11
1546.894130187191
 21
288.3485986771053
 31
0
  0
LINE
  8
1
 62
7
 10
1544.315336403074
 20
316.8830759917572
 30
0
 11
1544.315336403074
 21
285.6340759917571
 31
0
  0
LINE
  8
1
 62
2
 10
1532.315336403074
 20
284.6340759917571
 30
0
 11
1532.315336403074
 21
317.8830759917572
 31
0
  0
LINE
  8
1
 62
2
 10
1543.315336403074
 20
284.6340759917571
 30
0
 11
1543.315336403074
 21
317.8830759917572
 31
0
  0
LINE
  8
1
 62
2
 10
1531.315336403074
 20
285.6340759917571
 30
0
 11
1544.315336403074
 21
285.6340759917571
 31
0
  0
LINE
  8
1
 62
2
 10
1531.315336403074
 20
316.8830759917572
 30
0
 11
1544.315336403074
 21
316.8830759917572
 31
0
  0
LINE
  8
1
 62
7
 10
1532.315336403074
 20
284.6340759917571
 30
0
 11
1531.315336403074
 21
285.6340759917571
 31
0
  0
LINE
  8
1
 62
7
 10
1543.315336403074
 20
284.6340759917571
 30
0
 11
1544.315336403074
 21
285.6340759917571
 31
0
  0
LINE
  8
1
 62
7
 10
1532.315336403074
 20
317.8830759917572
 30
0
 11
1531.315336403074
 21
316.8830759917572
 31
0
  0
LINE
  8
1
 62
7
 10
1544.315336403074
 20
316.8830759917572
 30
0
 11
1543.315336403074
 21
317.8830759917572
 31
0
  0
LINE
  8
1
 62
7
 10
1543.315336403074
 20
317.8830759917572
 30
0
 11
1544.315336403074
 21
316.8830759917572
 31
0
  0
LINE
  8
1
 62
7
 10
1531.315336403074
 20
285.6340759917571
 30
0
 11
1531.315336403074
 21
316.8830759917572
 31
0
  0
LINE
  8
1
 62
7
 10
1543.315336403074
 20
284.6340759917571
 30
0
 11
1532.315336403074
 21
284.6340759917571
 31
0
  0
LINE
  8
1
 62
7
 10
1532.315336403074
 20
317.8830759917572
 30
0
 11
1543.315336403074
 21
317.8830759917572
 31
0
  0
LINE
  8
1
 62
2
  6
DASHDOT
 10
1628.315336403074
 20
352.9248669012094
 30
0
 11
1628.315336403074
 21
249.6819489380496
 31
0
  0
LINE
  8
1
 62
2
  6
DASHDOT
 10
1525.67359373824
 20
301.258575991757
 30
0
 11
1725.023823669733
 21
301.258575991757
 31
0
  0
LINE
  8
1
 62
2
  6
DIVIDE
 10
1563.315336403073
 20
131.6596604852539
 30
0
 11
1563.315336403073
 21
138.5893069408821
 31
0
  0
LINE
  8
1
 62
2
  6
DIVIDE
 10
1573.356394117278
 20
131.6596604852539
 30
0
 11
1563.315336403073
 21
131.6596604852539
 31
0
  0
LINE
  8
1
 62
2
  6
DIVIDE
 10
1573.356394117278
 20
138.5893069408821
 30
0
 11
1573.356394117278
 21
131.6596604852539
 31
0
  0
LINE
  8
1
 62
2
  6
DIVIDE
 10
1563.315336403073
 20
138.5893069408821
 30
0
 11
1573.356394117278
 21
138.5893069408821
 31
0
  0
LINE
  8
1
 62
7
 10
1604.836623021774
 20
280.258576274857
 30
0
 11
1605.315335863574
 21
279.735333175357
 31
0
  0
LINE
  8
0
 62
7
 10
1584.815027858607
 20
177.5696607683539
 30
0
 11
1580.315336727457
 21
177.5696608160539
 31
0
  0
LINE
  8
0
 62
7
 10
1585.103666461288
 20
189.5616074019839
 30
0
 11
1585.611182921457
 21
190.7412330065539
 31
0
  0
ARC
  8
0
 62
7
 10
1609.660790161077
 20
306.4396615989995
 30
0
 40
0.5908244121689148
 50
105.9402199898166
 51
183.6867387572837
  0
ARC
  8
1
 62
7
 10
1584.78277487098
 20
296.1481043294156
 30
0
 40
1.999999999999646
 50
4.301165942276142
 51
33.72629424218034
  0
ARC
  8
1
 62
7
 10
1584.78277487098
 20
306.3690476540985
 30
0
 40
2.000000000000228
 50
326.2737057578197
 51
355.6988340469268
  0
ARC
  8
0
 62
7
 10
1676.759468666457
 20
178.1233774580539
 30
0
 40
6.241790506941562
 50
175.8998950400483
 51
194.4137107549592
  0
ARC
  8
0
 62
7
 10
1671.815336727457
 20
190.5696608160539
 30
0
 40
1.000000000000024
 50
179.9999873662807
 51
269.9807227132631
  0
ARC
  8
1
 62
2
 10
1804.322771158406
 20
151.3080490782991
 30
0
 40
137.0000000000008
 50
186.4450800691777
 51
192.5768406894268
  0
ARC
  8
1
 62
2
 10
1702.067724422922
 20
138.7943960142554
 30
0
 40
34.00000000000134
 50
152.5468897722508
 51
184.8332452797249
  0
ARC
  8
1
 62
2
 10
1320.496535780445
 20
119.5393314599549
 30
0
 40
272.0000000000009
 50
358.659735760884
 51
4.24069682097567
  0
ARC
  8
1
 62
2
 10
1577.760442996939
 20
140.1430773624985
 30
0
 40
14.0000000000006
 50
357.9930900950575
 51
57.0051873670641
  0
ARC
  8
1
 62
7
 10
1628.315336403073
 20
452.1596604852539
 30
0
 40
349.9999999999999
 50
267.1128543774419
 51
269.564656414084
  0
ARC
  8
1
 62
7
 10
1628.238420938835
 20
127.0701202036995
 30
0
 40
25.0339102128879
 50
264.0790096332673
 51
275.8920715193676
  0
ARC
  8
1
 62
7
 10
1588.315336403073
 20
166.8199145230983
 30
0
 40
2.000000000000189
 50
299.9999999999969
 51
0
  0
ARC
  8
1
 62
7
 10
1593.315336403073
 20
158.1596604852539
 30
0
 40
7.999999999999821
 50
120.0000000000008
 51
180
  0
ARC
  8
1
 62
7
 10
1706.318008761593
 20
150.6885094290151
 30
0
 40
1.999999999999813
 50
269.4203379444567
 51
357.0377728150177
  0
ARC
  8
1
 62
7
 10
1673.315336403073
 20
158.1596604852539
 30
0
 40
2
 50
180
 51
257.3196165081791
  0
ARC
  8
1
 62
7
 10
1668.315336403073
 20
166.8199145230983
 30
0
 40
2
 50
180
 51
240.0000000000031
  0
ARC
  8
1
 62
7
 10
1679.315336403073
 20
157.8346604852541
 30
0
 40
3
 50
180
 51
257.319616508179
  0
ARC
  8
1
 62
7
 10
1663.315336403073
 20
158.1596604852539
 30
0
 40
8
 50
0
 51
59.99999999999925
  0
ARC
  8
1
 62
7
 10
1663.315336403073
 20
100.8366116133639
 30
0
 40
4.999999999999775
 50
113.6398397960249
 51
180
  0
ARC
  8
1
 62
7
 10
1675.23061419905
 20
115.3596182845399
 30
0
 40
4.999999999999557
 50
93.09405805891726
 51
162.511549408639
  0
ARC
  8
1
 62
7
 10
1706.315336403073
 20
120.0442531031858
 30
0
 40
2
 50
0
 51
93.09405805891151
  0
ARC
  8
1
 62
7
 10
1651.386175543907
 20
122.8724569771448
 30
0
 40
19.99999999999998
 50
279.4805069406067
 51
342.5115494086386
  0
ARC
  8
1
 62
7
 10
1546.312664044553
 20
150.6885094290151
 30
0
 40
2.000000000000043
 50
182.962227184982
 51
270.5796620555433
  0
ARC
  8
1
 62
7
 10
1580.315336403073
 20
158.1596604852539
 30
0
 40
4.999999999999728
 50
277.425230595267
 51
0
  0
ARC
  8
1
 62
7
 10
1593.32681188842
 20
100.767904487499
 30
0
 40
5.017720463000053
 50
6.183815136601003
 51
53.402732685386
  0
ARC
  8
1
 62
7
 10
1625.121877080827
 20
245.3819676567932
 30
0
 40
143.5059523081091
 50
239.1660588036238
 51
264.226699940898
  0
ARC
  8
1
 62
7
 10
1628.315336403073
 20
455.1596604852539
 30
0
 40
353.0000000000001
 50
270.4046345747501
 51
274.2833309031395
  0
ARC
  8
0
 62
7
 10
1610.166100750578
 20
306.3410640312741
 30
0
 40
0.6925301349532754
 50
224.7755710885991
 51
275.0884884499633
  0
ARC
  8
0
 62
7
 10
1609.645099737113
 20
307.8560372220147
 30
0
 40
0.5973208162815513
 50
84.76191342704917
 51
135.0971918981166
  0
ARC
  8
0
 62
7
 10
1610.166104735378
 20
307.7264343517646
 30
0
 40
0.6925316876859625
 50
224.7752324897706
 51
275.0881460289215
  0
ARC
  8
0
 62
7
 10
1609.788236602349
 20
309.1971613659969
 30
0
 40
0.2983019090562048
 50
41.57460110814794
 51
95.92377947419679
  0
ARC
  8
0
 62
7
 10
1609.758265184564
 20
309.2156003126354
 30
0
 40
0.2782712442462957
 50
90.16779518303294
 51
145.5119035576713
  0
ARC
  8
0
 62
7
 10
1609.064240407557
 20
309.2232436891536
 30
0
 40
0.238373962706233
 50
38.972153617998
 51
94.28936865831919
  0
ARC
  8
0
 62
7
 10
1609.790403729774
 20
309.073826331157
 30
0
 40
0.4480222295248535
 50
265.7819009890047
 51
320.9558240064782
  0
ARC
  8
0
 62
7
 10
1603.815337342274
 20
281.258577231957
 30
0
 40
1.000000957099928
 50
180
 51
270
  0
ARC
  8
0
 62
7
 10
1628.315301412574
 20
301.258586756557
 30
0
 40
26.49996770376189
 50
135.0990667976088
 51
143.506280790977
  0
ARC
  8
0
 62
7
 10
1613.315337040274
 20
281.2585756420571
 30
0
 40
0.9999993672001324
 50
270
 51
0
  0
ARC
  8
0
 62
7
 10
1607.815342357581
 20
316.4243266161464
 30
0
 40
1.000007179407394
 50
143.5063342522586
 51
180.0000393670416
  0
ARC
  8
0
 62
7
 10
1610.252937243874
 20
319.258597509557
 30
0
 40
0.9999797339001475
 50
90
 51
135.0990667976145
  0
ARC
  8
0
 62
7
 10
1613.321339414233
 20
321.2645805628578
 30
0
 40
0.9940151320857937
 50
359.6538641309057
 51
89.65400878645832
  0
ARC
  8
0
 62
7
 10
1628.315334058874
 20
301.258575838057
 30
0
 40
25.50000202576835
 50
5.999998055900192
 51
94.99999430060046
  0
ARC
  8
0
 62
7
 10
1625.682358872574
 20
325.616690508757
 30
0
 40
0.500009009363099
 50
276.169335642074
 51
5.000007297670896
  0
ARC
  8
0
 62
7
 10
1620.407431553674
 20
324.4472513128571
 30
0
 40
0.4999926283247416
 50
200.0000002469747
 51
288.8306495971543
  0
ARC
  8
0
 62
7
 10
1628.315335289974
 20
301.2585779617571
 30
0
 40
27.00000090451231
 50
247.5000034568995
 51
109.9999958469998
  0
ARC
  8
0
 62
7
 10
1628.315327234174
 20
301.258536487557
 30
0
 40
23.9999596127793
 50
247.4999975121464
 51
260.8306225048847
  0
ARC
  8
0
 62
7
 10
1624.411170981174
 20
277.0716473838571
 30
0
 40
0.5000003986762298
 50
352.0000010356753
 51
80.83062250488329
  0
ARC
  8
0
 62
7
 10
1628.315256477374
 20
301.2587692117571
 30
0
 40
25.80020864194019
 50
286.9394028664993
 51
298.0605962456413
  0
ARC
  8
0
 62
7
 10
1628.315324255274
 20
301.2585822416571
 30
0
 40
25.50001223176908
 50
294.7470558411297
 51
350.9999918504055
  0
ARC
  8
0
 62
7
 10
1652.728308416874
 20
303.321732707757
 30
0
 40
0.4999962745115825
 50
95.99993576209343
 51
184.830654672744
  0
ARC
  8
0
 62
7
 10
1652.586876444074
 20
297.920575210157
 30
0
 40
0.4999996948539658
 50
172.1693222845548
 51
260.9999664434718
  0
ARC
  8
0
 62
7
 10
1628.315290054774
 20
301.2587374163571
 30
0
 40
23.99983191791141
 50
96.16933564211122
 51
108.8306495971619
  0
ARC
  8
0
 62
7
 10
1628.315336026074
 20
301.258603574957
 30
0
 40
25.50002710342913
 50
262.0000092879999
 51
291.1517197091906
  0
ARC
  8
0
 62
7
 10
1628.315512791174
 20
301.258578834057
 30
0
 40
23.99982401399123
 50
352.169322284552
 51
4.830654672748767
  0
ARC
  8
0
 62
7
 10
1628.315336472674
 20
301.2585754842571
 30
0
 40
27.49999881252133
 50
247.4999989936782
 51
109.9999964770567
  0
ARC
  8
0
 62
7
 10
1638.073763375074
 20
277.6996467081571
 30
0
 40
1.00000084763725
 50
23.62348475128304
 51
112.5000495075546
  0
ARC
  8
0
 62
7
 10
1637.398064246674
 20
278.2856783652571
 30
0
 40
0.1999989869091393
 50
112.5000495074721
 51
202.5000487071542
  0
ARC
  8
0
 62
7
 10
1628.315336870574
 20
301.2585754141571
 30
0
 40
30.49999938043447
 50
233.8313563654002
 51
1.084999795084249e-006
  0
ARC
  8
0
 62
7
 10
1628.315335479772
 20
301.2585780872414
 30
0
 40
30.50000077123589
 50
359.999996063477
 51
213.2730487205774
  0
ARC
  8
0
 62
7
 10
1602.415333350174
 20
304.258578335257
 30
0
 40
0.4999972987999968
 50
90
 51
180
  0
ARC
  8
0
 62
7
 10
1602.415339709674
 20
298.258580007657
 30
0
 40
0.500003658300102
 50
180
 51
270
  0
ARC
  8
0
 62
7
 10
1603.915331871474
 20
298.258580007657
 30
0
 40
0.5000036582999883
 50
270
 51
0
  0
ARC
  8
0
 62
7
 10
1603.915338231074
 20
304.258578335257
 30
0
 40
0.4999972988000536
 50
0
 51
90
  0
ARC
  8
0
 62
7
 10
1628.314827766974
 20
301.259304279457
 30
0
 40
25.79911289063358
 50
119.9998331087203
 51
127.0000710823144
  0
ARC
  8
0
 62
7
 10
1628.315385282574
 20
301.258658275457
 30
0
 40
26.50009513749724
 50
232.4153501742001
 51
238.0994924973633
  0
ARC
  8
0
 62
7
 10
1614.839964946374
 20
279.609917593357
 30
0
 40
0.9999985424213893
 50
238.0994924973618
 51
282.9999860146792
  0
ARC
  8
0
 62
7
 10
1618.344121257974
 20
278.879463549357
 30
0
 40
0.4999968753091736
 50
65.98428514033948
 51
102.9999860146357
  0
ARC
  8
0
 62
7
 10
1628.315486452074
 20
301.258498073757
 30
0
 40
26.50016920386629
 50
143.5063645835641
 51
152.5361984834628
  0
ARC
  8
0
 62
7
 10
1628.31529280969
 20
301.2585933374252
 30
0
 40
25.49995897677125
 50
126.9999455917166
 51
131.8324307991166
  0
ARC
  8
0
 62
7
 10
1628.315796715474
 20
301.257605841657
 30
0
 40
25.50107300547664
 50
110.0002221359995
 51
119.9998005824998
  0
ARC
  8
0
 62
7
 10
1628.316882384772
 20
301.2621280035577
 30
0
 40
24.0038728713556
 50
245.9842851403153
 51
247.4998486674849
  0
ARC
  8
0
 62
7
 10
1615.115352700074
 20
322.489679655157
 30
0
 40
0.5000158708452355
 50
121.8703006465509
 51
180
  0
ARC
  8
0
 62
7
 10
1613.857082294774
 20
322.0585819471571
 30
0
 40
0.1999956241624656
 50
23.57782403765393
 51
90
  0
ARC
  8
0
 62
7
 10
1614.315336965774
 20
322.258577307357
 30
0
 40
0.2999998634118263
 50
203.5778240377675
 51
0
  0
ARC
  8
0
 62
7
 10
1628.316816120274
 20
301.2561161347571
 30
0
 40
25.50287283179555
 50
120.000110581101
 51
121.8703006465396
  0
ARC
  8
0
 62
7
 10
1628.315335347674
 20
301.2585780399571
 30
0
 40
37.99999989501544
 50
270.0000015914009
 51
232.7522199611005
  0
ARC
  8
0
 62
7
 10
1628.315329671274
 20
301.258569511157
 30
0
 40
37.9999913662551
 50
241.7262913717006
 51
270.0000101501006
  0
ARC
  8
0
 62
7
 10
1628.315345088474
 20
301.258603930857
 30
0
 40
31.50002751440113
 50
235.1501116390001
 51
269.9999842019995
  0
ARC
  8
0
 62
7
 10
1628.315335706674
 20
301.258576476157
 30
0
 40
31.50000005969668
 50
270.0000012668008
 51
215.9505698716002
  0
ARC
  8
0
 62
7
 10
1628.315334952374
 20
301.258577820257
 30
0
 40
31.00000039052308
 50
270.0000026812
 51
214.6560388191995
  0
ARC
  8
0
 62
7
 10
1628.315339084574
 20
301.258589513157
 30
0
 40
31.00001208348843
 50
234.5040778260996
 51
269.9999950440005
  0
ARC
  8
0
 62
7
 10
1587.117636614774
 20
296.2585723452571
 30
0
 40
1.000004997239342
 50
6.920234159395353
 51
69.83105184751358
  0
ARC
  8
0
 62
7
 10
1587.117637545039
 20
306.2585783529733
 30
0
 40
1.000003470127323
 50
290.1689235112803
 51
353.0800444070122
  0
ARC
  8
0
 62
7
 10
1628.315747589074
 20
301.258577854357
 30
0
 40
40.50041179993573
 50
175.8545622105999
 51
184.1454377893999
  0
ARC
  8
0
 62
7
 10
1628.315342897674
 20
301.258581396157
 30
0
 40
40.50000842339228
 50
184.1454841735
 51
235.3959943820993
  0
ARC
  8
0
 62
7
 10
1628.315335465674
 20
301.2585792196571
 30
0
 40
40.50000065610708
 50
243.612202422
 51
175.8545219904
  0
ARC
  8
0
 62
7
 10
1580.315335491074
 20
304.2585783461568
 30
0
 40
0.9999983012002662
 50
89.99999649921728
 51
179.9999964992107
  0
ARC
  8
0
 62
7
 10
1580.315338435874
 20
298.2585765820571
 30
0
 40
1.000001246100055
 50
180
 51
270
  0
ARC
  8
0
 62
7
 10
1585.103648216668
 20
296.258575641054
 30
0
 40
0.9999995173023247
 50
6.600304964289884
 51
59.50028143251581
  0
ARC
  8
0
 62
7
 10
1585.103633400074
 20
306.2585854094571
 30
0
 40
1.000014849662184
 50
300.5001863582033
 51
353.3996818554894
  0
ARC
  8
0
 62
7
 10
1628.315335851374
 20
301.258577697457
 30
0
 40
42.50000016022868
 50
244.9423859206005
 51
173.3996818554881
  0
ARC
  8
0
 62
7
 10
1628.315328031374
 20
301.258570660257
 30
0
 40
42.49999154707294
 50
186.6003049641582
 51
237.2362429634996
  0
ARC
  8
0
 62
7
 10
1671.527022892074
 20
306.258574863157
 30
0
 40
0.9999982157933346
 50
186.600177416395
 51
270
  0
ARC
  8
0
 62
7
 10
1633.315332941874
 20
258.0468916846571
 30
0
 40
0.9999963778607376
 50
96.60013730931684
 51
180
  0
ARC
  8
0
 62
7
 10
1623.315332503074
 20
344.4702677369571
 30
0
 40
1.000003680921264
 50
276.6005101183355
 51
0
  0
ARC
  8
0
 62
7
 10
1633.315340244874
 20
344.4702677369571
 30
0
 40
1.000003680900136
 50
180
 51
263.3994898817292
  0
ARC
  8
0
 62
7
 10
1671.527015910874
 20
296.2585844720571
 30
0
 40
0.9999908639999831
 50
90
 51
173.3999830123041
  0
ARC
  8
0
 62
7
 10
1623.315339806174
 20
258.0468916846571
 30
0
 40
0.9999963778000165
 50
0
 51
83.39986269068317
  0
ARC
  8
0
 62
7
 10
1631.315341966374
 20
349.2585801126571
 30
0
 40
0.9999945975998799
 50
0
 51
90
  0
ARC
  8
0
 62
7
 10
1676.315333669774
 20
298.258576293157
 30
0
 40
1.000000957099871
 50
270
 51
0
  0
ARC
  8
0
 62
7
 10
1625.315330781674
 20
349.2585801126571
 30
0
 40
0.9999945975999935
 50
90
 51
180
  0
ARC
  8
0
 62
7
 10
1625.315337141074
 20
253.2585791616571
 30
0
 40
1.000000957099928
 50
180
 51
270
  0
ARC
  8
0
 62
7
 10
1631.315335606874
 20
253.2585791616571
 30
0
 40
1.000000957100014
 50
270
 51
0
  0
ARC
  8
0
 62
7
 10
1676.315333669774
 20
304.258575690257
 30
0
 40
1.000000957000111
 50
0
 51
90
  0
ARC
  8
0
 62
7
 10
1628.31533606993
 20
301.258575029023
 30
0
 40
29.99999916783408
 50
359.9976769579115
 51
211.788329195384
  0
ARC
  8
0
 62
7
 10
1628.315335939574
 20
301.2585754635571
 30
0
 40
29.99999929820838
 50
233.1301031241992
 51
359.9976761280226
  0
ARC
  8
0
 62
7
 10
1628.315331456374
 20
301.258575163757
 30
0
 40
41.8333296132006
 50
186.8099871796441
 51
236.6466560001993
  0
ARC
  8
0
 62
7
 10
1669.815336466801
 20
190.7412330328269
 30
0
 40
1.000000707656
 50
359.9999984946691
 51
70.5287778605191
  0
ARC
  8
0
 62
7
 10
1670.815336787063
 20
193.569660731759
 30
0
 40
1.9999999404062
 50
179.9999771792367
 51
250.5287769509644
  0
ARC
  8
0
 62
7
 10
1584.815336727457
 20
176.5696608160539
 30
0
 40
1
 50
0
 51
90.01769688180772
  0
ARC
  8
0
 62
7
 10
1586.815336727457
 20
198.5696608160539
 30
0
 40
1
 50
270
 51
359.9999810465566
  0
ARC
  8
0
 62
7
 10
1671.815336727457
 20
176.5696608160539
 30
0
 40
1
 50
90.01769688180772
 51
180
  0
ARC
  8
0
 62
7
 10
1603.814361902344
 20
202.0686841855099
 30
0
 40
0.9990246980869471
 50
179.9999939142608
 51
270.0559446516756
  0
ARC
  8
0
 62
7
 10
1613.315336727457
 20
202.0696608160539
 30
0
 40
1
 50
270
 51
0
  0
ARC
  8
0
 62
7
 10
1631.315336727457
 20
188.5696608160539
 30
0
 40
1
 50
0
 51
90
  0
ARC
  8
0
 62
7
 10
1631.315336727457
 20
178.5696608160539
 30
0
 40
1
 50
270
 51
0
  0
ARC
  8
0
 62
7
 10
1625.315336701357
 20
188.5696607087536
 30
0
 40
1.000000163900324
 50
90
 51
180
  0
ARC
  8
0
 62
7
 10
1625.315336701357
 20
178.5696609322539
 30
0
 40
1.00000016390004
 50
180
 51
270
  0
ARC
  8
0
 62
7
 10
1580.698194565714
 20
178.0487441072686
 30
0
 40
5.423898461712916
 50
344.1751534532992
 51
5.511240749399539
  0
ARC
  8
0
 62
7
 10
1676.799161545957
 20
189.012362019454
 30
0
 40
6.281128948265116
 50
165.6447697727012
 51
184.0416244339372
  0
ARC
  8
0
 62
7
 10
1587.099105293862
 20
190.7350681206774
 30
0
 40
1.002103875997152
 50
108.7407413228659
 51
179.6475174096901
  0
ARC
  8
0
 62
7
 10
1586.110435831826
 20
193.569562961573
 30
0
 40
1.999921418724141
 50
289.4732444063508
 51
0.002823841223857626
  0
ARC
  8
0
 62
7
 10
1582.151719215157
 20
197.0153199103539
 30
0
 40
5.97528073176265
 50
355.7226853157218
 51
15.07768464090083
  0
ARC
  8
0
 62
7
 10
1550.900284495457
 20
204.9730020093539
 30
0
 40
37.51541738840767
 50
347.0560934103999
 51
348.6184709130493
  0
ARC
  8
0
 62
7
 10
1550.915336727457
 20
204.9696608160539
 30
0
 40
37.49999999999951
 50
319.2296740860963
 51
335.7397834637449
  0
ARC
  8
0
 62
7
 10
1550.915336727457
 20
204.9696608160539
 30
0
 40
37.49999999999962
 50
340.6945519111997
 51
344.8828964310997
  0
ARC
  8
0
 62
7
 10
1580.315336727457
 20
178.5696608160539
 30
0
 40
1
 50
179.9082730406915
 51
270
  0
ARC
  8
0
 62
7
 10
1676.316935283479
 20
188.571261989247
 30
0
 40
0.9984001624780201
 50
359.9999864240297
 51
90.09171337518652
  0
ARC
  8
0
 62
7
 10
1676.315336727457
 20
178.5696608160539
 30
0
 40
1
 50
270
 51
0.09172695116629329
  0
ARC
  8
0
 62
7
 10
1582.815336727457
 20
194.0696608160539
 30
0
 40
3.5
 50
89.96953686675391
 51
180.0490301183823
  0
ARC
  8
1
 62
7
 10
1628.315336403074
 20
301.258575991757
 30
0
 40
43.00000000000054
 50
245.2534758240238
 51
354.5470054324684
  0
ARC
  8
1
 62
7
 10
1586.998749234816
 20
260.5530527207346
 30
0
 40
14.99999999999981
 50
62.76802725491082
 51
73.17814771957556
  0
ARC
  8
1
 62
7
 10
1706.326396665264
 20
285.4240314265742
 30
0
 40
2.000000000000787
 50
6.028450356627897
 51
109.5164935796126
  0
ARC
  8
1
 62
7
 10
1669.710774674708
 20
260.6332428817471
 30
0
 40
14.9999999999996
 50
117.3430704076113
 51
135.5379427463836
  0
ARC
  8
1
 62
7
 10
1669.710774674708
 20
341.883909101767
 30
0
 40
14.99999999999985
 50
242.6569295923892
 51
252.9996625293682
  0
ARC
  8
1
 62
7
 10
1706.326396665264
 20
317.0931205569398
 30
0
 40
2.00000000000014
 50
250.4835064203869
 51
353.9715496433802
  0
ARC
  8
1
 62
7
 10
1546.315336403074
 20
286.4341802914155
 30
0
 40
1.999999999999901
 50
73.17814771958852
 51
180
  0
ARC
  8
1
 62
7
 10
1546.315336403074
 20
316.0829716920985
 30
0
 40
2
 50
180
 51
286.821852280411
  0
ARC
  8
1
 62
7
 10
1628.315336403074
 20
301.258575991757
 30
0
 40
42.99999999999956
 50
5.452997936504027
 51
174.5133118326956
  0
ARC
  8
1
 62
7
 10
1669.710774674708
 20
341.883909101767
 30
0
 40
14.99999999999991
 50
224.4620572536167
 51
242.6569295923892
  0
ARC
  8
1
 62
7
 10
1669.710774674708
 20
260.6332428817471
 30
0
 40
14.99999999999975
 50
107.0003374706319
 51
117.3430704076113
  0
ARC
  8
1
 62
7
 10
1586.998749234816
 20
260.5530527207346
 30
0
 40
14.99999999999937
 50
44.57315491615257
 51
62.76802725491082
  0
ARC
  8
1
 62
7
 10
1586.998749234816
 20
341.9640992627795
 30
0
 40
14.99999999999986
 50
286.8218522804244
 51
315.4268450838472
  0
ARC
  8
1
 62
7
 10
1628.315336403074
 20
301.258575991757
 30
0
 40
42.99999999999955
 50
185.4866881673314
 51
237.663973151643
  0
ARC
  8
0
 62
7
 10
1628.315335003574
 20
301.2585769864571
 30
0
 40
41.8333331155909
 50
244.5147422556995
 51
173.1900136236658
  0
CIRCLE
  8
1
 62
7
 10
1673.315336403073
 20
162.1596604852539
 30
0
 40
1
  0
CIRCLE
  8
0
 62
7
 10
1607.815336727457
 20
206.0696608160539
 30
0
 40
2.5
  0
CIRCLE
  8
0
 62
7
 10
1607.815336727457
 20
206.0696608160539
 30
0
 40
2.600000000000136
  0
CIRCLE
  8
0
 62
7
 10
1607.815336727457
 20
206.0696608160539
 30
0
 40
3.100000000000136
  0
CIRCLE
  8
0
 62
7
 10
1582.815336727457
 20
194.0696608160539
 30
0
 40
1.350000000000136
  0
CIRCLE
  8
1
 62
1
 10
1537.728989903958
 20
151.7841604852538
 30
0
 40
0.0009999999999763531
  0
ARC
  8
1
 62
7
 10
1630.815336403073
 20
101.16848827894
 30
0
 40
1.000000000000204
 50
90.40463457476112
 51
180
  0
ARC
  8
1
 62
7
 10
1625.731489634934
 20
101.0853516385519
 30
0
 40
1.087036369821038
 50
4.390258260470925
 51
93.98216521227978
  0
ARC
  8
1
 62
7
 10
1673.315336403073
 20
162.1596604852539
 30
0
 40
3
 50
0
 51
90
  0
ARC
  8
1
 62
7
 10
1546.315336403073
 20
120.1596604852539
 30
0
 40
2
 50
90
 51
180
  0
ARC
  8
1
 62
7
 10
1588.315336403073
 20
171.1596604852539
 30
0
 40
2
 50
0
 51
90
  0
ARC
  8
1
 62
7
 10
1668.315336403073
 20
171.1596604852539
 30
0
 40
2
 50
90
 51
180
  0
LINE
  8
1
 62
2
 10
1571.46959115538
 20
181.906085028755
 30
0
 11
1521.50205771267
 21
182.034039050919
 31
0
  0
LINE
  8
1
 62
2
 10
1521.50205771267
 20
182.034039050919
 30
0
 11
1537.728989903958
 21
152.109452791387
 31
0
  0
LINE
  8
1
 62
2
 10
1535.449841467104
 20
154.5137575401164
 30
0
 11
1537.728989903958
 21
152.109452791387
 31
0
  0
LINE
  8
1
 62
2
 10
1536.957341833011
 20
155.3312160006535
 30
0
 11
1537.728989903958
 21
152.109452791387
 31
0
  0
LINE
  8
1
 62
2
 10
1539.169533581936
 20
101.9188743962343
 30
0
 11
1558.104012528866
 21
101.9188743962343
 31
0
  0
LINE
  8
1
 62
2
 10
1558.104012528866
 20
101.9188743962343
 30
0
 11
1568.44518118552
 21
131.4934762590577
 31
0
  0
LINE
  8
1
 62
2
 10
1568.213775800464
 20
128.3962803538416
 30
0
 11
1568.44518118552
 21
131.4934762590577
 31
0
  0
LINE
  8
1
 62
2
 10
1566.696180290881
 20
128.9269286171715
 30
0
 11
1568.44518118552
 21
131.4934762590577
 31
0
  0
LINE
  8
1
 62
2
 10
1551.356353848736
 20
89.16415499575913
 30
0
 11
1572.263930295686
 21
89.16415499575913
 31
0
  0
LINE
  8
1
 62
2
 10
1572.263930295686
 20
89.16415499575913
 30
0
 11
1576.964179854265
 21
131.0761697832226
 31
0
  0
LINE
  8
1
 62
2
 10
1577.428678731357
 20
128.005272240044
 30
0
 11
1576.964179854265
 21
131.0761697832226
 31
0
  0
LINE
  8
1
 62
2
 10
1575.830998910267
 20
128.1844450598646
 30
0
 11
1576.964179854265
 21
131.0761697832226
 31
0
  0
DIMENSION
  8
1
  6
CONTINUOUS
 62
2
  2
*D0
  3
DMST_1
 10
1544.315336403073
 20
111.8376182760281
 30
0
 11
1537.815336403073
 21
114.4376182760281
 31
0
 12
0
 22
0
 32
0
 70
1
 13
1531.315336403073
 23
119.535160485254
 33
0
 14
1544.315336403073
 24
119.535160485254
 34
0
 53
0
  0
DIMENSION
  8
1
  6
CONTINUOUS
 62
2
  2
*D1
  3
DMST_2
 10
1740.956941808895
 20
350.2585747102571
 30
0
 11
1738.656941808895
 21
301.2585764574071
 31
0
 12
0
 22
0
 32
0
 70
0
 13
1631.315335606874
 23
252.2585782045571
 33
0
 14
1631.315341966374
 24
350.2585747102571
 34
0
 50
90
 53
0
  0
DIMENSION
  8
1
  6
CONTINUOUS
 62
2
  2
*D2
  3
DMST_2
 10
1740.956941808895
 20
100.1596604852539
 30
0
 11
1738.656941808895
 21
155.8646615507039
 31
0
 12
0
 22
0
 32
0
 70
0
  1
(112)
 13
1612.513199173757
 23
211.5696626161539
 33
0
 14
1658.315336403073
 24
100.1596604852539
 34
0
 50
90
 53
0
  0
DIMENSION
  8
1
  6
CONTINUOUS
 62
2
  2
*D3
  3
DMST_3
 10
1729.827480345095
 20
135.1596604852539
 30
0
 11
1727.777480345095
 21
118.857556044095
 31
0
 12
0
 22
0
 32
0
 70
0
 13
1658.315336403073
 23
100.1596604852539
 33
0
 14
1731.34202015558
 24
135.1596604852539
 34
0
 50
90
 53
0
  0
DIMENSION
  8
1
  6
CONTINUOUS
 62
2
  2
*D4
  3
DMST_3
 10
1721.315336403073
 20
82.8842472262025
 30
0
 11
1626.315336403073
 21
84.9342472262025
 31
0
 12
0
 22
0
 32
0
 70
0
 13
1531.315336403073
 23
119.535160485254
 33
0
 14
1721.315336403073
 24
119.535160485254
 34
0
 53
0
  0
ENDSEC
  0
EOF
