  0
SECTION
  2
HEADER
  9
$ACADVER
  1
AC1009
  9
$INSBASE
 10
0
 20
0
  9
$EXTMIN
 10
304.892456537163
 20
283.350661943425
  9
$EXTMAX
 10
544.9213203435596
 20
615.7568428444954
  9
$LIMMIN
 10
304.892456537163
 20
283.350661943425
  9
$LIMMAX
 10
544.9213203435596
 20
615.7568428444954
  9
$VIEWCTR
 10
10
 20
10
  9
$VIEWSIZE
 40
10
  9
$SNAPMODE
 70
0
  9
$SNAPUNIT
 10
1
 20
1
  9
$SNAPBASE
 10
0
 20
0
  9
$SNAPANG
 50
0
  9
$SNAPSTYLE
 70
0
  9
$SNAPISOPAIR
 70
0
  9
$GRIDMODE
 70
0
  9
$GRIDUNIT
 10
0
 20
0
  9
$ORTHOMODE
 70
0
  9
$REGENMODE
 70
1
  9
$FILLMODE
 70
1
  9
$QTEXTMODE
 70
0
  9
$DRAGMODE
 70
2
  9
$LTSCALE
 40
1
  9
$OSMODE
 70
0
  9
$ATTMODE
 70
1
  9
$TEXTSIZE
 40
3.5
  9
$TRACEWID
 40
0.5
  9
$TEXTSTYLE
  7
STANDARD
  9
$CLAYER
  8
0
  9
$CELTYPE
  6
BYLAYER
  9
$CECOLOR
 62
256
  9
$DIMSCALE
 40
1
  9
$DIMASZ
 40
0.18
  9
$DIMEXO
 40
0.0625
  9
$DIMDLI
 40
0.38
  9
$DIMRND
 40
0
  9
$DIMDLE
 40
0
  9
$DIMEXE
 40
0.18
  9
$DIMTP
 40
0
  9
$DIMTM
 40
0
  9
$DIMTXT
 40
0.18
  9
$DIMCEN
 40
0.09
  9
$DIMTSZ
 40
0
  9
$DIMTOL
 70
0
  9
$DIMLIM
 70
0
  9
$DIMTIH
 70
1
  9
$DIMTOH
 70
1
  9
$DIMSE1
 70
0
  9
$DIMSE2
 70
0
  9
$DIMTAD
 70
0
  9
$DIMZIN
 70
0
  9
$DIMBLK
  1

  9
$DIMASO
 70
1
  9
$DIMSHO
 70
1
  9
$DIMPOST
  1

  9
$DIMAPOST
  1

  9
$DIMALT
 70
0
  9
$DIMALTD
 70
2
  9
$DIMALTF
 40
25.4
  9
$DIMLFAC
 40
1
  9
$DIMTOFL
 70
0
  9
$DIMTVP
 40
0
  9
$DIMTIX
 70
0
  9
$DIMSOXD
 70
0
  9
$DIMSAH
 70
0
  9
$DIMBLK1
  1

  9
$DIMBLK2
  1

  9
$DIMSTYLE
  2
*UNNAMED
  9
$DIMCLRD
 70
0
  9
$DIMCLRE
 70
0
  9
$DIMCLRT
 70
0
  9
$DIMTFAC
 40
1
  9
$DIMGAP
 40
0.09
  9
$LUNITS
 70
2
  9
$LUPREC
 70
4
  9
$AXISMODE
 70
0
  9
$AXISUNIT
 10
0
 20
0
  9
$SKETCHINC
 40
0.1
  9
$FILLETRAD
 40
2
  9
$AUNITS
 70
0
  9
$AUPREC
 70
0
  9
$MENU
  1
ACAD
  9
$ELEVATION
 40
0
  9
$THICKNESS
 40
0
  9
$VIEWDIR
 10
0
 20
0
 30
1
  9
$LIMCHECK
 70
0
  9
$BLIPMODE
 70
1
  9
$CHAMFERA
 40
0
  9
$CHAMFERB
 40
0
  9
$FASTZOOM
 70
1
  9
$SKPOLY
 70
0
  9
$ANGBASE
 50
0
  9
$ANGDIR
 70
0
  9
$PDMODE
 70
0
  9
$PDSIZE
 40
0
  9
$PLINEWID
 40
0
  9
$COORDS
 70
2
  0
ENDSEC
  0
SECTION
  2
TABLES
  0
TABLE
  2
DIMSTYLE
 70
3
  0
DIMSTYLE
  2
DMST_1
 70
0
  3

  4

  5

  6

  7

 40
1
 41
3.200000000000001
 42
0.5
 43
7
 44
1.5
 45
0
 46
0
 47
0
 48
0
140
3.200000000000001
141
0
142
0
143
25.4
144
1
145
0
146
1
147
0.09
 71
0
 72
0
 73
0
 74
0
 75
0
 76
0
 77
1
 78
9
170
0
171
2
172
0
173
0
174
0
175
0
176
2
177
2
178
2
  0
DIMSTYLE
  2
DMST_2
 70
0
  3

  4

  5

  6

  7

 40
1
 41
3
 42
0.5
 43
7
 44
0.9999999999999999
 45
0
 46
0
 47
0
 48
0
140
3
141
0
142
0
143
25.4
144
1
145
0
146
1
147
0.09
 71
0
 72
0
 73
0
 74
0
 75
0
 76
0
 77
1
 78
9
170
0
171
2
172
0
173
0
174
0
175
0
176
2
177
2
178
2
  0
DIMSTYLE
  2
DMST_3
 70
0
  3

  4

  5

  6

  7

 40
1
 41
3
 42
0.5
 43
7
 44
0.9999999999999999
 45
0
 46
0
 47
0
 48
0
140
3
141
0
142
0
143
25.4
144
1
145
0
146
1
147
0.09
 71
0
 72
0
 73
1
 74
1
 75
0
 76
0
 77
1
 78
9
170
0
171
2
172
1
173
0
174
0
175
0
176
2
177
2
178
2
  0
ENDTAB
  0
TABLE
  2
LTYPE
 70
9
  0
LTYPE
  2
CONTINUOUS
 70
64
  3
Solid line
 72
65
 73
0
 40
0
  0
LTYPE
  2
BORDER
 70
64
  3
__ __ . __ __ .
 72
65
 73
6
 40
15.30817938360192
 49
4.373765538171979
 49
-2.186882769085989
 49
4.373765538171979
 49
-2.186882769085989
 49
0
 49
-2.186882769085989
  0
LTYPE
  2
CENTER
 70
64
  3
____ _ ____ _
 72
65
 73
4
 40
17.49506215268792
 49
10.93441384542995
 49
-2.186882769085989
 49
2.186882769085989
 49
-2.186882769085989
  0
LTYPE
  2
DASHDOT
 70
64
  3
__ . __ . __ .
 72
65
 73
4
 40
8.747531076343957
 49
4.373765538171979
 49
-2.186882769085989
 49
0
 49
-2.186882769085989
  0
LTYPE
  2
DASHED
 70
64
  3
__ __ __ __ __
 72
65
 73
2
 40
6.560648307257968
 49
4.373765538171979
 49
-2.186882769085989
  0
LTYPE
  2
DIVIDE
 70
64
  3
__ . . __ . . 
 72
65
 73
6
 40
10.93441384542995
 49
4.373765538171979
 49
-2.186882769085989
 49
0
 49
-2.186882769085989
 49
0
 49
-2.186882769085989
  0
LTYPE
  2
DOT
 70
64
  3
..............
 72
65
 73
4
 40
4.373765538171979
 49
0
 49
-2.186882769085989
 49
0
 49
-2.186882769085989
  0
LTYPE
  2
HIDDEN
 70
64
  3
_ _ _ _ _ _ _
 72
65
 73
2
 40
3.280324153628984
 49
2.186882769085989
 49
-1.093441384542995
  0
LTYPE
  2
PHANTOM
 70
64
  3
_____ _ _ _____ _ _ 
 72
65
 73
6
 40
21.8688276908599
 49
10.93441384542995
 49
-2.186882769085989
 49
2.186882769085989
 49
-2.186882769085989
 49
2.186882769085989
 49
-2.186882769085989
  0
ENDTAB
  0
TABLE
  2
LAYER
 70
3
  0
LAYER
  2
0
 70
0
 62
7
  6
CONTINUOUS
  0
LAYER
  2
1
 70
0
 62
7
  6
CONTINUOUS
  0
ENDTAB
  0
TABLE
  2
STYLE
 70
4
  0
STYLE
  2
STANDARD
 70
0
 40
0
 41
1
 50
0
 71
0
 42
3.5
  3
txt
  4

  0
STYLE
  2
SIMPLEX
 70
0
 40
0
 41
1
 50
0
 71
0
 42
3.5
  3
simplex
  4

  0
STYLE
  2
COMPLEX
 70
0
 40
0
 41
1
 50
0
 71
0
 42
3.5
  3
complex
  4

  0
STYLE
  2
ITALIC
 70
0
 40
0
 41
1
 50
0
 71
0
 42
3.5
  3
italic
  4

  0
ENDTAB
  0
TABLE
  2
VIEW
 70
0
  0
ENDTAB
  0
ENDSEC
  0
SECTION
  2
BLOCKS
  0
BLOCK
  8
1
  2
*D0
 70
1
 10
0
 20
0
 30
0
  0
LINE
  8
1
 62
2
 10
518.8690200571667
 20
427.6870917992225
 30
0
 11
533.8783849413487
 21
427.6870917992225
 31
0
  0
LINE
  8
1
 62
2
 10
518.8690200571667
 20
416.7728782368495
 30
0
 11
518.8690200571667
 21
429.1870917992225
 31
0
  0
LINE
  8
1
 62
2
 10
533.8783849413487
 20
416.7728782368524
 30
0
 11
533.8783849413487
 21
429.1870917992225
 31
0
  0
LINE
  8
1
 62
2
 10
518.8690200571667
 20
427.6870917992225
 30
0
 11
522.0690200571668
 21
428.5510917992224
 31
0
  0
LINE
  8
1
 62
2
 10
518.8690200571667
 20
427.6870917992225
 30
0
 11
522.0690200571668
 21
426.8230917992225
 31
0
  0
LINE
  8
1
 62
2
 10
533.8783849413487
 20
427.6870917992225
 30
0
 11
530.6783849413487
 21
426.8230917992225
 31
0
  0
LINE
  8
1
 62
2
 10
533.8783849413487
 20
427.6870917992225
 30
0
 11
530.6783849413487
 21
428.5510917992224
 31
0
  0
TEXT
  8
1
 62
2
 10
524.0249837913678
 20
428.6870917992225
 30
0
 40
3.200000000000001
  1
15
 41
0.9
 51
15
  0
ENDBLK
  8
0
  0
BLOCK
  8
1
  2
*D1
 70
1
 10
0
 20
0
 30
0
  0
LINE
  8
1
 62
2
 10
543.9213203435596
 20
508.9248216488085
 30
0
 11
543.9213203435596
 21
606.9248181545084
 31
0
  0
LINE
  8
1
 62
2
 10
427.378384938354
 20
508.9248216488085
 30
0
 11
544.9213203435596
 21
508.9248216488085
 31
0
  0
LINE
  8
1
 62
2
 10
427.378384938354
 20
606.9248181545084
 30
0
 11
544.9213203435596
 21
606.9248181545084
 31
0
  0
LINE
  8
1
 62
2
 10
543.9213203435596
 20
606.9248181545084
 30
0
 11
544.7313203435596
 21
603.9248181545084
 31
0
  0
LINE
  8
1
 62
2
 10
543.9213203435596
 20
606.9248181545084
 30
0
 11
543.1113203435597
 21
603.9248181545084
 31
0
  0
LINE
  8
1
 62
2
 10
543.9213203435596
 20
508.9248216488085
 30
0
 11
543.1113203435597
 21
511.9248216488085
 31
0
  0
LINE
  8
1
 62
2
 10
543.9213203435596
 20
508.9248216488085
 30
0
 11
544.7313203435596
 21
511.9248216488085
 31
0
  0
TEXT
  8
1
 62
2
 10
543.1213203435597
 20
555.2728961130117
 30
0
 40
3
  1
98
 50
90
 41
0.9
 51
15
  0
ENDBLK
  8
0
  0
BLOCK
  8
1
  2
*D2
 70
1
 10
0
 20
0
 30
0
  0
LINE
  8
1
 62
2
 10
543.9213203435596
 20
362.7728782368495
 30
0
 11
543.9213203435596
 21
474.1828803677498
 31
0
  0
LINE
  8
1
 62
2
 10
454.3783849413539
 20
362.7728782368495
 30
0
 11
544.9213203435596
 21
362.7728782368495
 31
0
  0
LINE
  8
1
 62
2
 10
408.5762477120379
 20
474.1828803677498
 30
0
 11
544.9213203435596
 21
474.1828803677498
 31
0
  0
LINE
  8
1
 62
2
 10
543.9213203435596
 20
474.1828803677498
 30
0
 11
544.7313203435596
 21
471.1828803677498
 31
0
  0
LINE
  8
1
 62
2
 10
543.9213203435596
 20
474.1828803677498
 30
0
 11
543.1113203435597
 21
471.1828803677498
 31
0
  0
LINE
  8
1
 62
2
 10
543.9213203435596
 20
362.7728782368495
 30
0
 11
543.1113203435597
 21
365.7728782368495
 31
0
  0
LINE
  8
1
 62
2
 10
543.9213203435596
 20
362.7728782368495
 30
0
 11
544.7313203435596
 21
365.7728782368495
 31
0
  0
TEXT
  8
1
 62
2
 10
543.1213203435597
 20
414.0259555136529
 30
0
 40
3
  1
(112)
 50
90
 41
0.9
 51
15
  0
ENDBLK
  8
0
  0
BLOCK
  8
1
  2
*D3
 70
1
 10
0
 20
0
 30
0
  0
LINE
  8
1
 62
2
 10
508.1667219509896
 20
362.7728782368495
 30
0
 11
508.1667219509896
 21
397.7728782368495
 31
0
  0
LINE
  8
1
 62
2
 10
454.3783849413538
 20
362.7728782368495
 30
0
 11
509.1667219509896
 21
362.7728782368495
 31
0
  0
LINE
  8
1
 62
2
 10
538.3924565371628
 20
397.7728782368495
 30
0
 11
507.1667219509896
 21
397.7728782368495
 31
0
  0
LINE
  8
1
 62
2
 10
508.1667219509896
 20
397.7728782368495
 30
0
 11
508.9767219509896
 21
394.7728782368495
 31
0
  0
LINE
  8
1
 62
2
 10
508.1667219509896
 20
397.7728782368495
 30
0
 11
507.3567219509896
 21
394.7728782368495
 31
0
  0
LINE
  8
1
 62
2
 10
508.1667219509896
 20
362.7728782368495
 30
0
 11
507.3567219509896
 21
365.7728782368495
 31
0
  0
LINE
  8
1
 62
2
 10
508.1667219509896
 20
362.7728782368495
 30
0
 11
508.9767219509896
 21
365.7728782368495
 31
0
  0
TEXT
  8
1
 62
2
 10
507.3667219509896
 20
369.2511686349203
 30
0
 40
3
  1
35
 50
90
 41
0.9
 51
15
  0
ENDBLK
  8
0
  0
BLOCK
  8
1
  2
*D4
 70
1
 10
0
 20
0
 30
0
  0
LINE
  8
1
 62
2
 10
308.8783849413538
 20
370.2182163310372
 30
0
 11
323.8792171087209
 21
370.2182163310372
 31
0
  0
LINE
  8
1
 62
2
 10
308.8783849413538
 20
378.7728782368496
 30
0
 11
308.8783849413538
 21
368.7182163310372
 31
0
  0
LINE
  8
1
 62
2
 10
323.8792171087209
 20
378.7728782368496
 30
0
 11
323.8792171087209
 21
368.7182163310372
 31
0
  0
LINE
  8
1
 62
2
 10
308.8783849413538
 20
370.2182163310372
 30
0
 11
312.0783849413538
 21
371.0822163310372
 31
0
  0
LINE
  8
1
 62
2
 10
308.8783849413538
 20
370.2182163310372
 30
0
 11
312.0783849413538
 21
369.3542163310372
 31
0
  0
LINE
  8
1
 62
2
 10
323.8792171087209
 20
370.2182163310372
 30
0
 11
320.6792171087209
 21
369.3542163310372
 31
0
  0
LINE
  8
1
 62
2
 10
323.8792171087209
 20
370.2182163310372
 30
0
 11
320.6792171087209
 21
371.0822163310372
 31
0
  0
TEXT
  8
1
 62
2
 10
314.0300823171476
 20
371.2182163310372
 30
0
 40
3.200000000000001
  1
15
 41
0.9
 51
15
  0
ENDBLK
  8
0
  0
BLOCK
  8
1
  2
*D5
 70
1
 10
0
 20
0
 30
0
  0
LINE
  8
1
 62
2
 10
308.8783849413539
 20
344.5973766531678
 30
0
 11
533.8783849413538
 21
344.5973766531678
 31
0
  0
LINE
  8
1
 62
2
 10
308.8783849413539
 20
378.7728782368496
 30
0
 11
308.8783849413539
 21
343.5973766531678
 31
0
  0
LINE
  8
1
 62
2
 10
533.8783849413538
 20
378.7728782368496
 30
0
 11
533.8783849413538
 21
343.5973766531678
 31
0
  0
LINE
  8
1
 62
2
 10
308.8783849413539
 20
344.5973766531678
 30
0
 11
311.8783849413539
 21
345.4073766531678
 31
0
  0
LINE
  8
1
 62
2
 10
308.8783849413539
 20
344.5973766531678
 30
0
 11
311.8783849413539
 21
343.7873766531678
 31
0
  0
LINE
  8
1
 62
2
 10
533.8783849413538
 20
344.5973766531678
 30
0
 11
530.8783849413538
 21
343.7873766531678
 31
0
  0
LINE
  8
1
 62
2
 10
533.8783849413538
 20
344.5973766531678
 30
0
 11
530.8783849413538
 21
345.4073766531678
 31
0
  0
TEXT
  8
1
 62
2
 10
416.3240937365813
 20
346.0437521289886
 30
0
 40
3
  1
225
 41
0.9
 51
15
  0
ENDBLK
  8
0
  0
BLOCK
  8
1
  2
*D6
 70
1
 10
0
 20
0
 30
0
  0
LINE
  8
1
 62
2
 10
316.3788010250376
 20
417.2728782368495
 30
0
 11
329.861606133725
 21
438.3849479562421
 31
0
  0
LINE
  8
1
 62
2
 10
329.861606133725
 20
438.3849479562421
 30
0
 11
367.461606133725
 21
438.3849479562421
 31
0
  0
LINE
  8
1
 62
2
 10
316.3788548484812
 20
417.272962516366
 30
0
 11
317.3108940754636
 21
420.2373179065589
 31
0
  0
LINE
  8
1
 62
2
 10
316.3788548484812
 20
417.272962516366
 30
0
 11
318.6762222434291
 21
419.3653781186378
 31
0
  0
TEXT
  8
1
 62
2
 10
333.861606133725
 20
439.1849479562421
 30
0
 40
3
  1
              
 41
0.9
  0
ENDBLK
  8
0
  0
ENDSEC
  0
SECTION
  2
ENTITIES
  0
POLYLINE
  8
0
 62
7
 66
1
  0
VERTEX
  8
0
 10
382.0092097575538
 20
553.9248187803084
 30
0
  0
VERTEX
  8
0
 10
382.0722267682538
 20
553.9065574073084
 30
0
  0
VERTEX
  8
0
 10
382.1329378242539
 20
553.8524363898084
 30
0
  0
VERTEX
  8
0
 10
382.1891338283537
 20
553.7644338571083
 30
0
  0
VERTEX
  8
0
 10
382.2387584204539
 20
553.6457647346083
 30
0
  0
VERTEX
  8
0
 10
382.2799936587539
 20
553.5007652604085
 30
0
  0
VERTEX
  8
0
 10
382.3113419766539
 20
553.3347253465083
 30
0
  0
VERTEX
  8
0
 10
382.3316559846539
 20
553.1537172162084
 30
0
  0
VERTEX
  8
0
 10
382.3401906246538
 20
552.9643458091084
 30
0
  0
SEQEND
  8
0
  0
POLYLINE
  8
0
 62
7
 66
1
  0
VERTEX
  8
0
 10
382.0092097575538
 20
561.9248200916084
 30
0
  0
VERTEX
  8
0
 10
382.0722267682538
 20
561.9430814647083
 30
0
  0
VERTEX
  8
0
 10
382.1329378242539
 20
561.9972024821084
 30
0
  0
VERTEX
  8
0
 10
382.1891338283537
 20
562.0852050148083
 30
0
  0
VERTEX
  8
0
 10
382.2387584204539
 20
562.2038741373085
 30
0
  0
VERTEX
  8
0
 10
382.2799936587539
 20
562.3488773369085
 30
0
  0
VERTEX
  8
0
 10
382.3113419766539
 20
562.5149135255083
 30
0
  0
VERTEX
  8
0
 10
382.3316559846539
 20
562.6959253811085
 30
0
  0
VERTEX
  8
0
 10
382.3401906246538
 20
562.8852930628084
 30
0
  0
SEQEND
  8
0
  0
POLYLINE
  8
0
 62
7
 66
1
  0
VERTEX
  8
0
 10
381.1742306406538
 20
553.7864503228084
 30
0
  0
VERTEX
  8
0
 10
381.4956635887538
 20
553.7437696718083
 30
0
  0
VERTEX
  8
0
 10
381.8697423393539
 20
553.9248187803084
 30
0
  0
SEQEND
  8
0
  0
POLYLINE
  8
0
 62
7
 66
1
  0
VERTEX
  8
0
 10
381.1742306406538
 20
562.0631885492085
 30
0
  0
VERTEX
  8
0
 10
381.4956635887538
 20
562.1058692001084
 30
0
  0
VERTEX
  8
0
 10
381.8697423393539
 20
561.9248200916084
 30
0
  0
SEQEND
  8
0
  0
POLYLINE
  8
0
 62
7
 66
1
  0
VERTEX
  8
0
 10
382.4869596118537
 20
560.9248217904083
 30
0
  0
VERTEX
  8
0
 10
382.6815389747538
 20
560.9107178413085
 30
0
  0
VERTEX
  8
0
 10
382.8686416799538
 20
560.8971577846085
 30
0
  0
VERTEX
  8
0
 10
383.0410779173539
 20
560.8846594357085
 30
0
  0
VERTEX
  8
0
 10
383.1922166700537
 20
560.8737033569083
 30
0
  0
VERTEX
  8
0
 10
383.3162539357538
 20
560.8647142314084
 30
0
  0
VERTEX
  8
0
 10
383.4084213430537
 20
560.8580347859084
 30
0
  0
VERTEX
  8
0
 10
383.4651798660538
 20
560.8539183401083
 30
0
  0
VERTEX
  8
0
 10
383.4843427593539
 20
560.8525325321084
 30
0
  0
SEQEND
  8
0
  0
POLYLINE
  8
0
 62
7
 66
1
  0
VERTEX
  8
0
 10
382.4869596118537
 20
554.9248208069083
 30
0
  0
VERTEX
  8
0
 10
382.6815389747538
 20
554.9389247560084
 30
0
  0
VERTEX
  8
0
 10
382.8686416799538
 20
554.9524848126084
 30
0
  0
VERTEX
  8
0
 10
383.0410779173539
 20
554.9649831616084
 30
0
  0
VERTEX
  8
0
 10
383.1922166700537
 20
554.9759355151084
 30
0
  0
VERTEX
  8
0
 10
383.3162539357538
 20
554.9849246406084
 30
0
  0
VERTEX
  8
0
 10
383.4084213430537
 20
554.9916078114084
 30
0
  0
VERTEX
  8
0
 10
383.4651798660538
 20
554.9957205318085
 30
0
  0
VERTEX
  8
0
 10
383.4843427593539
 20
554.9971100651084
 30
0
  0
SEQEND
  8
0
  0
POLYLINE
  8
0
 62
7
 66
1
  0
VERTEX
  8
0
 10
400.8783844018539
 20
536.4015766196084
 30
0
  0
VERTEX
  8
0
 10
400.4693233127538
 20
536.8472051584083
 30
0
  0
VERTEX
  8
0
 10
400.3996715600537
 20
536.9248197191083
 30
0
  0
SEQEND
  8
0
  0
POLYLINE
  8
0
 62
7
 66
1
  0
VERTEX
  8
0
 10
405.8108270818537
 20
565.8528742157083
 30
0
  0
VERTEX
  8
0
 10
405.7818517739538
 20
565.6217385792085
 30
0
  0
VERTEX
  8
0
 10
405.7014134431537
 20
565.4578518831085
 30
0
  0
SEQEND
  8
0
  0
POLYLINE
  8
0
 62
7
 66
1
  0
VERTEX
  8
0
 10
405.6929477209538
 20
566.2369218432084
 30
0
  0
VERTEX
  8
0
 10
405.7904013151539
 20
566.0313230716083
 30
0
  0
VERTEX
  8
0
 10
405.8108270818537
 20
565.8528742157083
 30
0
  0
SEQEND
  8
0
  0
POLYLINE
  8
0
 62
7
 66
1
  0
VERTEX
  8
0
 10
405.3374283666539
 20
566.4124873244084
 30
0
  0
VERTEX
  8
0
 10
405.5585429723539
 20
566.3567718827084
 30
0
  0
VERTEX
  8
0
 10
405.6929477209538
 20
566.2369218432084
 30
0
  0
SEQEND
  8
0
  0
POLYLINE
  8
0
 62
7
 66
1
  0
VERTEX
  8
0
 10
405.0496273393538
 20
566.2588675283083
 30
0
  0
VERTEX
  8
0
 10
405.1932167912539
 20
566.3801406287083
 30
0
  0
VERTEX
  8
0
 10
405.3374283666539
 20
566.4124873244084
 30
0
  0
SEQEND
  8
0
  0
POLYLINE
  8
0
 62
7
 66
1
  0
VERTEX
  8
0
 10
404.9565155709537
 20
566.0394106769085
 30
0
  0
VERTEX
  8
0
 10
404.9974322969537
 20
566.1672961675083
 30
0
  0
VERTEX
  8
0
 10
405.0496273393538
 20
566.2588675283083
 30
0
  0
SEQEND
  8
0
  0
POLYLINE
  8
0
 62
7
 66
1
  0
VERTEX
  8
0
 10
404.8464723582537
 20
566.2478965484085
 30
0
  0
VERTEX
  8
0
 10
404.9187336767537
 20
566.1365438961084
 30
0
  0
VERTEX
  8
0
 10
404.9565155709537
 20
566.0394106769085
 30
0
  0
SEQEND
  8
0
  0
POLYLINE
  8
0
 62
7
 66
1
  0
VERTEX
  8
0
 10
404.5756009126538
 20
566.3685959541083
 30
0
  0
VERTEX
  8
0
 10
404.7429353649538
 20
566.3335335218084
 30
0
  0
VERTEX
  8
0
 10
404.8464723582537
 20
566.2478965484085
 30
0
  0
SEQEND
  8
0
  0
POLYLINE
  8
0
 62
7
 66
1
  0
VERTEX
  8
0
 10
404.2624045814538
 20
566.2149761580083
 30
0
  0
VERTEX
  8
0
 10
404.4199582839539
 20
566.3391512596085
 30
0
  0
VERTEX
  8
0
 10
404.5756009126538
 20
566.3685959541083
 30
0
  0
SEQEND
  8
0
  0
POLYLINE
  8
0
 62
7
 66
1
  0
VERTEX
  8
0
 10
404.1608270908538
 20
565.8638489210084
 30
0
  0
VERTEX
  8
0
 10
404.1887015754539
 20
566.0696712100083
 30
0
  0
VERTEX
  8
0
 10
404.2624045814538
 20
566.2149761580083
 30
0
  0
SEQEND
  8
0
  0
POLYLINE
  8
0
 62
7
 66
1
  0
VERTEX
  8
0
 10
404.2624045814538
 20
565.5236889385083
 30
0
  0
VERTEX
  8
0
 10
404.1779727394539
 20
565.7060307228085
 30
0
  0
VERTEX
  8
0
 10
404.1608270908538
 20
565.8638489210084
 30
0
  0
SEQEND
  8
0
  0
POLYLINE
  8
0
 62
7
 66
1
  0
VERTEX
  8
0
 10
404.6179239357538
 20
565.3371524774084
 30
0
  0
VERTEX
  8
0
 10
404.3969881440539
 20
565.4016782307083
 30
0
  0
VERTEX
  8
0
 10
404.2624045814538
 20
565.5236889385083
 30
0
  0
SEQEND
  8
0
  0
POLYLINE
  8
0
 62
7
 66
1
  0
VERTEX
  8
0
 10
405.0919503624538
 20
566.0394106769085
 30
0
  0
VERTEX
  8
0
 10
405.0372966284537
 20
565.8969704770084
 30
0
  0
VERTEX
  8
0
 10
405.0326977575539
 20
565.7760661804084
 30
0
  0
SEQEND
  8
0
  0
POLYLINE
  8
0
 62
7
 66
1
  0
VERTEX
  8
0
 10
404.3639820719538
 20
565.6992544197085
 30
0
  0
VERTEX
  8
0
 10
404.4933502281539
 20
565.6043265723083
 30
0
  0
VERTEX
  8
0
 10
404.6179239357538
 20
565.5785550140083
 30
0
  0
SEQEND
  8
0
  0
POLYLINE
  8
0
 62
7
 66
1
  0
VERTEX
  8
0
 10
404.3131933266537
 20
565.8638489210084
 30
0
  0
VERTEX
  8
0
 10
404.3279957676538
 20
565.7671552860085
 30
0
  0
VERTEX
  8
0
 10
404.3639820719538
 20
565.6992544197085
 30
0
  0
SEQEND
  8
0
  0
POLYLINE
  8
0
 62
7
 66
1
  0
VERTEX
  8
0
 10
404.3639820719538
 20
566.0284396969083
 30
0
  0
VERTEX
  8
0
 10
404.3220502043538
 20
565.9402993285084
 30
0
  0
VERTEX
  8
0
 10
404.3131933266537
 20
565.8638489210084
 30
0
  0
SEQEND
  8
0
  0
POLYLINE
  8
0
 62
7
 66
1
  0
VERTEX
  8
0
 10
404.6094600761539
 20
566.1271934175084
 30
0
  0
VERTEX
  8
0
 10
404.4590850080537
 20
566.1006581747083
 30
0
  0
VERTEX
  8
0
 10
404.3639820719538
 20
566.0284396969083
 30
0
  0
SEQEND
  8
0
  0
POLYLINE
  8
0
 62
7
 66
1
  0
VERTEX
  8
0
 10
404.8887972439538
 20
565.7760661804084
 30
0
  0
VERTEX
  8
0
 10
404.8655681962538
 20
565.9297828340084
 30
0
  0
VERTEX
  8
0
 10
404.8126131946539
 20
566.0394106769085
 30
0
  0
SEQEND
  8
0
  0
POLYLINE
  8
0
 62
7
 66
1
  0
VERTEX
  8
0
 10
405.6506246979537
 20
565.8528742157083
 30
0
  0
VERTEX
  8
0
 10
405.6251399869537
 20
565.9760509395084
 30
0
  0
VERTEX
  8
0
 10
405.5744425112538
 20
566.0613563620084
 30
0
  0
SEQEND
  8
0
  0
POLYLINE
  8
0
 62
7
 66
1
  0
VERTEX
  8
0
 10
405.5913720930539
 20
565.6443920695083
 30
0
  0
VERTEX
  8
0
 10
405.6410469765539
 20
565.7564227246085
 30
0
  0
VERTEX
  8
0
 10
405.6506246979537
 20
565.8528742157083
 30
0
  0
SEQEND
  8
0
  0
POLYLINE
  8
0
 62
7
 66
1
  0
VERTEX
  8
0
 10
405.3204987848538
 20
565.5456346237085
 30
0
  0
VERTEX
  8
0
 10
405.4862946922539
 20
565.5666452610083
 30
0
  0
VERTEX
  8
0
 10
405.5913720930539
 20
565.6443920695083
 30
0
  0
SEQEND
  8
0
  0
POLYLINE
  8
0
 62
7
 66
1
  0
VERTEX
  8
0
 10
405.1118545884539
 20
564.1935256087085
 30
0
  0
VERTEX
  8
0
 10
405.1570162827538
 20
564.0208025240085
 30
0
  0
VERTEX
  8
0
 10
405.2375421578537
 20
563.9049087428084
 30
0
  0
SEQEND
  8
0
  0
POLYLINE
  8
0
 62
7
 66
1
  0
VERTEX
  8
0
 10
405.1872675026538
 20
564.4244228267085
 30
0
  0
VERTEX
  8
0
 10
405.1242691184538
 20
564.3017341160085
 30
0
  0
VERTEX
  8
0
 10
405.1118545884539
 20
564.1935256087085
 30
0
  0
SEQEND
  8
0
  0
POLYLINE
  8
0
 62
7
 66
1
  0
VERTEX
  8
0
 10
405.4889210219538
 20
564.5026278459084
 30
0
  0
VERTEX
  8
0
 10
405.3129308576537
 20
564.4830700718084
 30
0
  0
VERTEX
  8
0
 10
405.1872675026538
 20
564.4244228267085
 30
0
  0
SEQEND
  8
0
  0
POLYLINE
  8
0
 62
7
 66
1
  0
VERTEX
  8
0
 10
404.6342369819537
 20
564.4244228267085
 30
0
  0
VERTEX
  8
0
 10
404.6733339036538
 20
564.7302393579083
 30
0
  0
VERTEX
  8
0
 10
404.7850628102539
 20
564.9439331852084
 30
0
  0
SEQEND
  8
0
  0
POLYLINE
  8
0
 62
7
 66
1
  0
VERTEX
  8
0
 10
405.0615780706539
 20
563.6740115248083
 30
0
  0
VERTEX
  8
0
 10
404.7223363722538
 20
564.0409786962084
 30
0
  0
VERTEX
  8
0
 10
404.6342369819537
 20
564.4244228267085
 30
0
  0
SEQEND
  8
0
  0
POLYLINE
  8
0
 62
7
 66
1
  0
VERTEX
  8
0
 10
405.0615780706539
 20
562.3175066673084
 30
0
  0
VERTEX
  8
0
 10
404.7223363722538
 20
562.6844701134085
 30
0
  0
VERTEX
  8
0
 10
404.6342369819537
 20
563.0679142438085
 30
0
  0
SEQEND
  8
0
  0
POLYLINE
  8
0
 62
7
 66
1
  0
VERTEX
  8
0
 10
405.1118545884539
 20
562.8370170258085
 30
0
  0
VERTEX
  8
0
 10
405.1536132300539
 20
562.6474966072085
 30
0
  0
VERTEX
  8
0
 10
405.2375421578537
 20
562.5195366107083
 30
0
  0
SEQEND
  8
0
  0
POLYLINE
  8
0
 62
7
 66
1
  0
VERTEX
  8
0
 10
405.1872675026538
 20
563.0390506946084
 30
0
  0
VERTEX
  8
0
 10
405.1261410767538
 20
562.9326154255084
 30
0
  0
VERTEX
  8
0
 10
405.1118545884539
 20
562.8370170258085
 30
0
  0
SEQEND
  8
0
  0
POLYLINE
  8
0
 62
7
 66
1
  0
VERTEX
  8
0
 10
405.4637827629537
 20
563.0883958899085
 30
0
  0
VERTEX
  8
0
 10
405.3052809740537
 20
563.0781364404085
 30
0
  0
VERTEX
  8
0
 10
405.1872675026538
 20
563.0390506946084
 30
0
  0
SEQEND
  8
0
  0
POLYLINE
  8
0
 62
7
 66
1
  0
VERTEX
  8
0
 10
400.8783844018539
 20
496.9383937084083
 30
0
  0
VERTEX
  8
0
 10
400.9147506857539
 20
496.9649811052084
 30
0
  0
VERTEX
  8
0
 10
400.9510908926538
 20
496.9919056409084
 30
0
  0
VERTEX
  8
0
 10
400.9874068851538
 20
497.0191244744084
 30
0
  0
VERTEX
  8
0
 10
401.0236986632539
 20
497.0465873145084
 30
0
  0
VERTEX
  8
0
 10
401.0599699522538
 20
497.0742531829084
 30
0
  0
VERTEX
  8
0
 10
401.0962188894538
 20
497.1020736509084
 30
0
  0
VERTEX
  8
0
 10
401.1324492002538
 20
497.1300040149084
 30
0
  0
VERTEX
  8
0
 10
401.1822358424537
 20
497.1685030275085
 30
0
  0
VERTEX
  8
0
 10
401.2319908196538
 20
497.2070076280085
 30
0
  0
VERTEX
  8
0
 10
401.2817178572537
 20
497.2453967445082
 30
0
  0
VERTEX
  8
0
 10
401.3314188177538
 20
497.2835511677084
 30
0
  0
VERTEX
  8
0
 10
401.3645403737539
 20
497.3087993227082
 30
0
  0
VERTEX
  8
0
 10
401.3976526165538
 20
497.3338574879084
 30
0
  0
VERTEX
  8
0
 10
401.4307574088538
 20
497.3586865478084
 30
0
  0
VERTEX
  8
0
 10
401.4638547504538
 20
497.3832548373082
 30
0
  0
VERTEX
  8
0
 10
401.4969465042537
 20
497.4075269662084
 30
0
  0
VERTEX
  8
0
 10
401.5300308073537
 20
497.4314675443084
 30
0
  0
VERTEX
  8
0
 10
401.5560240204538
 20
497.4500213527084
 30
0
  0
VERTEX
  8
0
 10
401.5820153708539
 20
497.4683330171084
 30
0
  0
VERTEX
  8
0
 10
401.6080048585538
 20
497.4863820486085
 30
0
  0
VERTEX
  8
0
 10
401.6339924837538
 20
497.5041554086084
 30
0
  0
VERTEX
  8
0
 10
401.6599801088539
 20
497.5216326081085
 30
0
  0
VERTEX
  8
0
 10
401.6859677339539
 20
497.5387987458084
 30
0
  0
VERTEX
  8
0
 10
401.7081928158538
 20
497.5532193445084
 30
0
  0
VERTEX
  8
0
 10
401.7304197604539
 20
497.5673903488084
 30
0
  0
VERTEX
  8
0
 10
401.7526467050537
 20
497.5812987201082
 30
0
  0
VERTEX
  8
0
 10
401.7748736495539
 20
497.5949351453085
 30
0
  0
VERTEX
  8
0
 10
401.7971024567539
 20
497.6082884484084
 30
0
  0
VERTEX
  8
0
 10
401.8189363832539
 20
497.6211164855084
 30
0
  0
VERTEX
  8
0
 10
401.8407703096538
 20
497.6336520874085
 30
0
  0
VERTEX
  8
0
 10
401.8626079613538
 20
497.6458840780082
 30
0
  0
VERTEX
  8
0
 10
401.8844474757538
 20
497.6578031444084
 30
0
  0
VERTEX
  8
0
 10
401.9039493704537
 20
497.6681706273084
 30
0
  0
VERTEX
  8
0
 10
401.9234531278539
 20
497.6782736145084
 30
0
  0
VERTEX
  8
0
 10
401.9429587478539
 20
497.6881046556082
 30
0
  0
VERTEX
  8
0
 10
401.9624662304537
 20
497.6976563000084
 30
0
  0
VERTEX
  8
0
 10
401.9819774384538
 20
497.7069192343084
 30
0
  0
VERTEX
  8
0
 10
402.0014923716539
 20
497.7158897333084
 30
0
  0
VERTEX
  8
0
 10
402.0210091675539
 20
497.7245603465084
 30
0
  0
VERTEX
  8
0
 10
402.0405296886538
 20
497.7329198979085
 30
0
  0
VERTEX
  8
0
 10
402.0580236519538
 20
497.7401450985084
 30
0
  0
VERTEX
  8
0
 10
402.0755194778539
 20
497.7471095287085
 30
0
  0
VERTEX
  8
0
 10
402.0930190289539
 20
497.7538113259084
 30
0
  0
VERTEX
  8
0
 10
402.1105223054539
 20
497.7602449023084
 30
0
  0
VERTEX
  8
0
 10
402.1280274445539
 20
497.7664028071084
 30
0
  0
VERTEX
  8
0
 10
402.1452252472537
 20
497.7721807324083
 30
0
  0
VERTEX
  8
0
 10
402.1624249125538
 20
497.7776829862085
 30
0
  0
VERTEX
  8
0
 10
402.1796301657539
 20
497.7829077058084
 30
0
  0
VERTEX
  8
0
 10
402.1968372816538
 20
497.7878474407085
 30
0
  0
VERTEX
  8
0
 10
402.2144001627539
 20
497.7925915979084
 30
0
  0
VERTEX
  8
0
 10
402.2319686318537
 20
497.7970284187084
 30
0
  0
VERTEX
  8
0
 10
402.2495389635539
 20
497.8011560403085
 30
0
  0
VERTEX
  8
0
 10
402.2671148831539
 20
497.8049651497084
 30
0
  0
VERTEX
  8
0
 10
402.2846963907538
 20
497.8084538840084
 30
0
  0
VERTEX
  8
0
 10
402.3022816235538
 20
497.8116147928084
 30
0
  0
VERTEX
  8
0
 10
402.3198724443539
 20
497.8144460135084
 30
0
  0
VERTEX
  8
0
 10
402.3376458043537
 20
497.8169643097083
 30
0
  0
VERTEX
  8
0
 10
402.3554266149537
 20
497.8191417419084
 30
0
  0
VERTEX
  8
0
 10
402.3732111508538
 20
497.8209838979084
 30
0
  0
VERTEX
  8
0
 10
402.3910012746538
 20
497.8224926405084
 30
0
  0
VERTEX
  8
0
 10
402.4087969864538
 20
497.8236716949083
 30
0
  0
VERTEX
  8
0
 10
402.4265982861538
 20
497.8245229237083
 30
0
  0
VERTEX
  8
0
 10
402.4444051737539
 20
497.8250537776085
 30
0
  0
VERTEX
  8
0
 10
402.4622176493537
 20
497.8252642565084
 30
0
  0
VERTEX
  8
0
 10
402.4808832163539
 20
497.8251450472084
 30
0
  0
VERTEX
  8
0
 10
402.4995562339537
 20
497.8246831112083
 30
0
  0
VERTEX
  8
0
 10
402.5182367021538
 20
497.8238840364085
 30
0
  0
VERTEX
  8
0
 10
402.5369208956537
 20
497.8227478229084
 30
0
  0
VERTEX
  8
0
 10
402.5556144023539
 20
497.8212819212084
 30
0
  0
VERTEX
  8
0
 10
402.5743116343537
 20
497.8194881939085
 30
0
  0
VERTEX
  8
0
 10
402.5930181796538
 20
497.8173703664085
 30
0
  0
VERTEX
  8
0
 10
402.6117303128539
 20
497.8149358891084
 30
0
  0
VERTEX
  8
0
 10
402.6304480339538
 20
497.8121847623085
 30
0
  0
VERTEX
  8
0
 10
402.6491750682538
 20
497.8091207110084
 30
0
  0
VERTEX
  8
0
 10
402.6679076905538
 20
497.8057511859084
 30
0
  0
VERTEX
  8
0
 10
402.6866477633539
 20
497.8020780497084
 30
0
  0
VERTEX
  8
0
 10
402.7043224031538
 20
497.7983397209084
 30
0
  0
VERTEX
  8
0
 10
402.7220044935538
 20
497.7943387591084
 30
0
  0
VERTEX
  8
0
 10
402.7396921719538
 20
497.7900788896084
 30
0
  0
VERTEX
  8
0
 10
402.7573873008539
 20
497.7855619751082
 30
0
  0
VERTEX
  8
0
 10
402.7750880176537
 20
497.7807917409083
 30
0
  0
VERTEX
  8
0
 10
402.7938690687537
 20
497.7754589879085
 30
0
  0
VERTEX
  8
0
 10
402.8126575703537
 20
497.7698505633082
 30
0
  0
VERTEX
  8
0
 10
402.8314553851538
 20
497.7639683299084
 30
0
  0
VERTEX
  8
0
 10
402.8502587879538
 20
497.7578178756085
 30
0
  0
VERTEX
  8
0
 10
402.8690715039538
 20
497.7514010631085
 30
0
  0
VERTEX
  8
0
 10
402.8878916705539
 20
497.7447234802085
 30
0
  0
VERTEX
  8
0
 10
402.9100813622537
 20
497.7365222537084
 30
0
  0
VERTEX
  8
0
 10
402.9322822297538
 20
497.7279708498085
 30
0
  0
VERTEX
  8
0
 10
402.9544961358537
 20
497.7190767192084
 30
0
  0
VERTEX
  8
0
 10
402.9767193550537
 20
497.7098417245084
 30
0
  0
VERTEX
  8
0
 10
402.9994100982539
 20
497.7000777387084
 30
0
  0
VERTEX
  8
0
 10
403.0221120173538
 20
497.6899766140083
 30
0
  0
VERTEX
  8
0
 10
403.0448251123539
 20
497.6795420759084
 30
0
  0
VERTEX
  8
0
 10
403.0675512457539
 20
497.6687834375082
 30
0
  0
VERTEX
  8
0
 10
403.0902904177539
 20
497.6577062868084
 30
0
  0
VERTEX
  8
0
 10
403.1130426282538
 20
497.6463180744084
 30
0
  0
VERTEX
  8
0
 10
403.1358060146537
 20
497.6346262508084
 30
0
  0
VERTEX
  8
0
 10
403.1585340107537
 20
497.6226643436085
 30
0
  0
VERTEX
  8
0
 10
403.1812731827537
 20
497.6104118638083
 30
0
  0
VERTEX
  8
0
 10
403.2040272558538
 20
497.5978781246084
 30
0
  0
VERTEX
  8
0
 10
403.2267943675537
 20
497.5850687139082
 30
0
  0
VERTEX
  8
0
 10
403.2495745177538
 20
497.5719892197084
 30
0
  0
VERTEX
  8
0
 10
403.2719597871538
 20
497.5588892364085
 30
0
  0
VERTEX
  8
0
 10
403.2943599576537
 20
497.5455433839084
 30
0
  0
VERTEX
  8
0
 10
403.3167713041539
 20
497.5319572501085
 30
0
  0
VERTEX
  8
0
 10
403.3391975517538
 20
497.5181364231084
 30
0
  0
VERTEX
  8
0
 10
403.3659134710537
 20
497.5013893806084
 30
0
  0
VERTEX
  8
0
 10
403.3926480169538
 20
497.4843312763084
 30
0
  0
VERTEX
  8
0
 10
403.4194011891538
 20
497.4669751488084
 30
0
  0
VERTEX
  8
0
 10
403.4461748505539
 20
497.4493284487085
 30
0
  0
VERTEX
  8
0
 10
403.4729690010537
 20
497.4314023518083
 30
0
  0
VERTEX
  8
0
 10
403.4997817779537
 20
497.4132117592084
 30
0
  0
VERTEX
  8
0
 10
403.5319850499537
 20
497.3910444193083
 30
0
  0
VERTEX
  8
0
 10
403.5642181242537
 20
497.3685250395084
 30
0
  0
VERTEX
  8
0
 10
403.5964810008538
 20
497.3456759714084
 30
0
  0
VERTEX
  8
0
 10
403.6287755424539
 20
497.3225139790084
 30
0
  0
VERTEX
  8
0
 10
403.6610998863538
 20
497.2990595513085
 30
0
  0
VERTEX
  8
0
 10
403.6928766126538
 20
497.2757541352084
 30
0
  0
VERTEX
  8
0
 10
403.7246850038538
 20
497.2522028499084
 30
0
  0
VERTEX
  8
0
 10
403.7565231973537
 20
497.2284205966084
 30
0
  0
VERTEX
  8
0
 10
403.7883911932537
 20
497.2044260018084
 30
0
  0
VERTEX
  8
0
 10
403.8281046504538
 20
497.1742921286084
 30
0
  0
VERTEX
  8
0
 10
403.8678646738537
 20
497.1438918971085
 30
0
  0
VERTEX
  8
0
 10
403.9076768512538
 20
497.1132588350084
 30
0
  0
VERTEX
  8
0
 10
403.9475393200539
 20
497.0824283325084
 30
0
  0
VERTEX
  8
0
 10
403.9874520803539
 20
497.0514357798085
 30
0
  0
VERTEX
  8
0
 10
404.0397979969538
 20
497.0106587522084
 30
0
  0
VERTEX
  8
0
 10
404.0922351832539
 20
496.9697401636084
 30
0
  0
VERTEX
  8
0
 10
404.1447617764538
 20
496.9287526571084
 30
0
  0
VERTEX
  8
0
 10
404.1917414123537
 20
496.8921647184084
 30
0
  0
VERTEX
  8
0
 10
404.2387955541539
 20
496.8556401097084
 30
0
  0
VERTEX
  8
0
 10
404.2859279269538
 20
496.8192328476084
 30
0
  0
VERTEX
  8
0
 10
404.3331366683539
 20
496.7829988115084
 30
0
  0
VERTEX
  8
0
 10
404.3804236407538
 20
496.7469938808084
 30
0
  0
VERTEX
  8
0
 10
404.4277907068537
 20
496.7112702095084
 30
0
  0
VERTEX
  8
0
 10
404.4684559757538
 20
496.6809184067084
 30
0
  0
VERTEX
  8
0
 10
404.5091789866539
 20
496.6508497261085
 30
0
  0
VERTEX
  8
0
 10
404.5499653274538
 20
496.6210958325084
 30
0
  0
VERTEX
  8
0
 10
404.5908112729538
 20
496.5916958415085
 30
0
  0
VERTEX
  8
0
 10
404.6317205483537
 20
496.5626795553084
 30
0
  0
VERTEX
  8
0
 10
404.6726894284537
 20
496.5340506994085
 30
0
  0
VERTEX
  8
0
 10
404.7137216384537
 20
496.5058074110085
 30
0
  0
VERTEX
  8
0
 10
404.7513861859538
 20
496.4802575075084
 30
0
  0
VERTEX
  8
0
 10
404.7891028876538
 20
496.4550298416083
 30
0
  0
VERTEX
  8
0
 10
404.8268717432538
 20
496.4301206880083
 30
0
  0
VERTEX
  8
0
 10
404.8646890277539
 20
496.4055300467085
 30
0
  0
VERTEX
  8
0
 10
404.9025566036539
 20
496.3812560551085
 30
0
  0
VERTEX
  8
0
 10
404.9404744709538
 20
496.3572968506085
 30
0
  0
VERTEX
  8
0
 10
404.9818959737538
 20
496.3315178417084
 30
0
  0
VERTEX
  8
0
 10
405.0233752186538
 20
496.3061094992085
 30
0
  0
VERTEX
  8
0
 10
405.0649122054537
 20
496.2810699605084
 30
0
  0
VERTEX
  8
0
 10
405.1065087969539
 20
496.2563955002084
 30
0
  0
VERTEX
  8
0
 10
405.1481612677538
 20
496.2320861184085
 30
0
  0
VERTEX
  8
0
 10
405.1898714805537
 20
496.2081399523084
 30
0
  0
VERTEX
  8
0
 10
405.2316394353538
 20
496.1845532768083
 30
0
  0
VERTEX
  8
0
 10
405.2699745352538
 20
496.1632464789084
 30
0
  0
VERTEX
  8
0
 10
405.3083580637539
 20
496.1422377043083
 30
0
  0
VERTEX
  8
0
 10
405.3467862958539
 20
496.1215288155084
 30
0
  0
VERTEX
  8
0
 10
405.3852629567538
 20
496.1011123620083
 30
0
  0
VERTEX
  8
0
 10
405.4237843210539
 20
496.0809920691085
 30
0
  0
VERTEX
  8
0
 10
405.4623522515539
 20
496.0611642115082
 30
0
  0
VERTEX
  8
0
 10
405.5009667480537
 20
496.0416269266084
 30
0
  0
VERTEX
  8
0
 10
405.5396259481537
 20
496.0223802142083
 30
0
  0
VERTEX
  8
0
 10
405.5783298517537
 20
496.0034184866084
 30
0
  0
VERTEX
  8
0
 10
405.6170784587538
 20
495.9847436064082
 30
0
  0
VERTEX
  8
0
 10
405.6558717692539
 20
495.9663537108085
 30
0
  0
VERTEX
  8
0
 10
405.6947097832539
 20
495.9482450747084
 30
0
  0
VERTEX
  8
0
 10
405.7405383045538
 20
495.9272642397085
 30
0
  0
VERTEX
  8
0
 10
405.7864264304538
 20
495.9066708349084
 30
0
  0
VERTEX
  8
0
 10
405.8323760236539
 20
495.8864611351085
 30
0
  0
VERTEX
  8
0
 10
405.8783852214539
 20
495.8666351401084
 30
0
  0
SEQEND
  8
0
  0
POLYLINE
  8
0
 62
7
 66
1
  0
VERTEX
  8
0
 10
381.1742314597379
 20
453.3544507581498
 30
0
  0
VERTEX
  8
0
 10
381.4956644078379
 20
454.1649714816498
 30
0
  0
VERTEX
  8
0
 10
381.869743158538
 20
455.1852241862497
 30
0
  0
SEQEND
  8
0
  0
LINE
  8
1
 62
2
 10
486.9033849413539
 20
311.163161943425
 30
0
 11
487.4033849413539
 21
310.319411943425
 31
0
  0
LINE
  8
1
 62
2
 10
486.1533849413539
 20
312.006911943425
 30
0
 11
486.9033849413539
 21
311.163161943425
 31
0
  0
LINE
  8
1
 62
2
 10
485.1533849413539
 20
312.850661943425
 30
0
 11
486.1533849413539
 21
312.006911943425
 31
0
  0
LINE
  8
1
 62
2
 10
484.6533849413539
 20
313.975661943425
 30
0
 11
483.9033849413539
 21
315.381911943425
 31
0
  0
LINE
  8
1
 62
2
 10
485.9033849413539
 20
314.256911943425
 30
0
 11
485.4033849413539
 21
315.663161943425
 31
0
  0
LINE
  8
1
 62
2
 10
487.4033849413539
 20
313.694411943425
 30
0
 11
488.1533849413539
 21
315.381911943425
 31
0
  0
LINE
  8
1
 62
2
 10
485.9033849413539
 20
311.444411943425
 30
0
 11
487.4033849413539
 21
313.694411943425
 31
0
  0
LINE
  8
1
 62
2
 10
485.1533849413539
 20
310.600661943425
 30
0
 11
485.9033849413539
 21
311.444411943425
 31
0
  0
LINE
  8
1
 62
2
 10
483.9033849413539
 20
309.756911943425
 30
0
 11
485.1533849413539
 21
310.600661943425
 31
0
  0
LINE
  8
1
 62
2
 10
482.6533849413539
 20
316.788161943425
 30
0
 11
482.6533849413539
 21
308.631911943425
 31
0
  0
LINE
  8
1
 62
2
 10
489.1533849413539
 20
316.788161943425
 30
0
 11
482.6533849413539
 21
316.788161943425
 31
0
  0
LINE
  8
1
 62
2
 10
489.1533849413539
 20
308.631911943425
 30
0
 11
489.1533849413539
 21
316.788161943425
 31
0
  0
LINE
  8
1
 62
2
 10
482.6533849413539
 20
308.631911943425
 30
0
 11
489.1533849413539
 21
308.631911943425
 31
0
  0
LINE
  8
1
 62
2
 10
477.6533849413539
 20
312.569411943425
 30
0
 11
480.6533849413539
 21
312.569411943425
 31
0
  0
LINE
  8
1
 62
2
 10
478.9033849413539
 20
310.881911943425
 30
0
 11
480.4033849413539
 21
308.350661943425
 31
0
  0
LINE
  8
1
 62
2
 10
475.4033849413539
 20
308.631911943425
 30
0
 11
479.6533849413539
 21
309.475661943425
 31
0
  0
LINE
  8
1
 62
2
 10
477.6533849413539
 20
312.569411943425
 30
0
 11
476.4033849413539
 21
308.913161943425
 31
0
  0
LINE
  8
1
 62
2
 10
474.9033849413539
 20
312.569411943425
 30
0
 11
477.6533849413539
 21
312.569411943425
 31
0
  0
LINE
  8
1
 62
2
 10
477.9033849413539
 20
317.069411943425
 30
0
 11
477.9033849413539
 21
312.569411943425
 31
0
  0
LINE
  8
1
 62
2
 10
475.6533849413539
 20
314.819411943425
 30
0
 11
480.4033849413539
 21
314.819411943425
 31
0
  0
LINE
  8
1
 62
2
 10
473.6533849413539
 20
316.788161943425
 30
0
 11
474.4033849413539
 21
315.663161943425
 31
0
  0
LINE
  8
1
 62
2
 10
473.6533849413539
 20
313.413161943425
 30
0
 11
472.9033849413539
 21
314.256911943425
 31
0
  0
LINE
  8
1
 62
2
 10
473.1533849413539
 20
308.350661943425
 30
0
 11
474.4033849413539
 21
312.006911943425
 31
0
  0
LINE
  8
1
 62
2
 10
467.4033849413539
 20
311.725661943425
 30
0
 11
466.4033849413539
 21
313.131911943425
 31
0
  0
LINE
  8
1
 62
2
 10
469.4033849413539
 20
308.631911943425
 30
0
 11
468.1533849413539
 21
308.631911943425
 31
0
  0
LINE
  8
1
 62
2
 10
469.4033849413539
 20
316.788161943425
 30
0
 11
469.4033849413539
 21
308.631911943425
 31
0
  0
LINE
  8
1
 62
2
 10
464.6533849413539
 20
314.538161943425
 30
0
 11
471.4033849413539
 21
314.538161943425
 31
0
  0
LINE
  8
1
 62
2
 10
455.9033849413539
 20
310.319411943425
 30
0
 11
455.9033849413539
 21
313.131911943425
 31
0
  0
LINE
  8
1
 62
2
 10
457.4033849413539
 20
308.913161943425
 30
0
 11
455.9033849413539
 21
308.913161943425
 31
0
  0
LINE
  8
1
 62
2
 10
457.4033849413539
 20
313.131911943425
 30
0
 11
458.6533849413539
 21
313.131911943425
 31
0
  0
LINE
  8
1
 62
2
 10
457.1533849413539
 20
315.944411943425
 30
0
 11
456.1533849413539
 21
315.944411943425
 31
0
  0
LINE
  8
1
 62
2
 10
459.4033849413539
 20
314.819411943425
 30
0
 11
459.4033849413539
 21
313.131911943425
 31
0
  0
LINE
  8
1
 62
2
 10
461.9033849413539
 20
313.131911943425
 30
0
 11
461.9033849413539
 21
316.506911943425
 31
0
  0
LINE
  8
1
 62
2
 10
459.4033849413539
 20
313.131911943425
 30
0
 11
459.4033849413539
 21
311.444411943425
 31
0
  0
LINE
  8
1
 62
2
 10
460.1533849413539
 20
311.444411943425
 30
0
 11
460.9033849413539
 21
311.444411943425
 31
0
  0
LINE
  8
1
 62
2
 10
460.9033849413539
 20
311.444411943425
 30
0
 11
461.9033849413539
 21
311.444411943425
 31
0
  0
LINE
  8
1
 62
2
 10
462.6533849413539
 20
308.350661943425
 30
0
 11
462.9033849413539
 21
308.913161943425
 31
0
  0
LINE
  8
1
 62
2
 10
461.6533849413539
 20
308.350661943425
 30
0
 11
462.6533849413539
 21
308.350661943425
 31
0
  0
LINE
  8
1
 62
2
 10
460.9033849413539
 20
308.913161943425
 30
0
 11
461.6533849413539
 21
308.350661943425
 31
0
  0
LINE
  8
1
 62
2
 10
460.9033849413539
 20
311.444411943425
 30
0
 11
460.9033849413539
 21
308.913161943425
 31
0
  0
LINE
  8
1
 62
2
 10
459.4033849413539
 20
309.194411943425
 30
0
 11
458.6533849413539
 21
308.350661943425
 31
0
  0
LINE
  8
1
 62
2
 10
459.9033849413539
 20
310.600661943425
 30
0
 11
459.4033849413539
 21
309.194411943425
 31
0
  0
LINE
  8
1
 62
2
 10
460.1533849413539
 20
311.444411943425
 30
0
 11
459.9033849413539
 21
310.600661943425
 31
0
  0
LINE
  8
1
 62
2
 10
461.9033849413539
 20
313.131911943425
 30
0
 11
459.4033849413539
 21
313.131911943425
 31
0
  0
LINE
  8
1
 62
2
 10
459.4033849413539
 20
314.819411943425
 30
0
 11
461.9033849413539
 21
314.819411943425
 31
0
  0
LINE
  8
1
 62
2
 10
461.9033849413539
 20
316.506911943425
 30
0
 11
459.4033849413539
 21
316.506911943425
 31
0
  0
LINE
  8
1
 62
2
 10
461.9033849413539
 20
311.444411943425
 30
0
 11
461.9033849413539
 21
313.131911943425
 31
0
  0
LINE
  8
1
 62
2
 10
459.4033849413539
 20
311.444411943425
 30
0
 11
460.1533849413539
 21
311.444411943425
 31
0
  0
LINE
  8
1
 62
2
 10
459.4033849413539
 20
316.506911943425
 30
0
 11
459.4033849413539
 21
314.819411943425
 31
0
  0
LINE
  8
1
 62
2
 10
455.9033849413539
 20
315.944411943425
 30
0
 11
456.4033849413539
 21
317.069411943425
 31
0
  0
LINE
  8
1
 62
2
 10
455.1533849413539
 20
315.100661943425
 30
0
 11
455.9033849413539
 21
315.944411943425
 31
0
  0
LINE
  8
1
 62
2
 10
458.6533849413539
 20
315.944411943425
 30
0
 11
457.1533849413539
 21
315.944411943425
 31
0
  0
LINE
  8
1
 62
2
 10
456.1533849413539
 20
313.413161943425
 30
0
 11
457.1533849413539
 21
315.944411943425
 31
0
  0
LINE
  8
1
 62
2
 10
454.9033849413539
 20
311.725661943425
 30
0
 11
456.1533849413539
 21
313.413161943425
 31
0
  0
LINE
  8
1
 62
2
 10
458.9033849413539
 20
314.538161943425
 30
0
 11
455.1533849413539
 21
314.538161943425
 31
0
  0
LINE
  8
1
 62
2
 10
457.4033849413539
 20
313.131911943425
 30
0
 11
457.6533849413539
 21
313.694411943425
 31
0
  0
LINE
  8
1
 62
2
 10
457.4033849413539
 20
308.913161943425
 30
0
 11
457.4033849413539
 21
313.131911943425
 31
0
  0
LINE
  8
1
 62
2
 10
458.6533849413539
 20
308.913161943425
 30
0
 11
457.4033849413539
 21
308.913161943425
 31
0
  0
LINE
  8
1
 62
2
 10
455.9033849413539
 20
310.319411943425
 30
0
 11
458.6533849413539
 21
310.319411943425
 31
0
  0
LINE
  8
1
 62
2
 10
458.6533849413539
 20
311.725661943425
 30
0
 11
455.9033849413539
 21
311.725661943425
 31
0
  0
LINE
  8
1
 62
2
 10
455.9033849413539
 20
313.131911943425
 30
0
 11
457.4033849413539
 21
313.131911943425
 31
0
  0
LINE
  8
1
 62
2
 10
455.9033849413539
 20
308.350661943425
 30
0
 11
455.9033849413539
 21
310.319411943425
 31
0
  0
LINE
  8
1
 62
2
 10
452.6533849413539
 20
313.131911943425
 30
0
 11
453.9033849413539
 21
311.725661943425
 31
0
  0
LINE
  8
1
 62
2
 10
450.6533849413539
 20
315.100661943425
 30
0
 11
452.6533849413539
 21
313.131911943425
 31
0
  0
LINE
  8
1
 62
2
 10
451.1533849413539
 20
317.350661943425
 30
0
 11
451.1533849413539
 21
308.350661943425
 31
0
  0
LINE
  8
1
 62
2
 10
446.9033849413539
 20
313.694411943425
 30
0
 11
448.6533849413539
 21
312.288161943425
 31
0
  0
LINE
  8
1
 62
2
 10
446.9033849413539
 20
313.975661943425
 30
0
 11
445.9033849413539
 21
312.569411943425
 31
0
  0
LINE
  8
1
 62
2
 10
447.6533849413539
 20
315.663161943425
 30
0
 11
446.9033849413539
 21
313.975661943425
 31
0
  0
LINE
  8
1
 62
2
 10
448.1533849413539
 20
317.350661943425
 30
0
 11
447.6533849413539
 21
315.663161943425
 31
0
  0
LINE
  8
1
 62
2
 10
449.9033849413539
 20
315.381911943425
 30
0
 11
447.6533849413539
 21
315.381911943425
 31
0
  0
LINE
  8
1
 62
2
 10
449.4033849413539
 20
313.694411943425
 30
0
 11
449.9033849413539
 21
315.381911943425
 31
0
  0
LINE
  8
1
 62
2
 10
448.9033849413539
 20
312.569411943425
 30
0
 11
449.4033849413539
 21
313.694411943425
 31
0
  0
LINE
  8
1
 62
2
 10
447.9033849413539
 20
310.881911943425
 30
0
 11
448.9033849413539
 21
312.569411943425
 31
0
  0
LINE
  8
1
 62
2
 10
446.4033849413539
 20
308.913161943425
 30
0
 11
447.9033849413539
 21
310.881911943425
 31
0
  0
LINE
  8
1
 62
2
 10
431.0533849413539
 20
314.650661943425
 30
0
 11
432.8533849413539
 21
314.650661943425
 31
0
  0
LINE
  8
1
 62
2
 10
431.0533849413539
 20
314.650661943425
 30
0
 11
431.0533849413539
 21
308.350661943425
 31
0
  0
LINE
  8
1
 62
2
 10
434.2033849413539
 20
313.525661943425
 30
0
 11
434.2033849413539
 21
308.350661943425
 31
0
  0
LINE
  8
1
 62
2
 10
433.9783849413539
 20
313.975661943425
 30
0
 11
434.2033849413539
 21
313.525661943425
 31
0
  0
LINE
  8
1
 62
2
 10
433.5283849413539
 20
314.425661943425
 30
0
 11
433.9783849413539
 21
313.975661943425
 31
0
  0
LINE
  8
1
 62
2
 10
432.8533849413539
 20
314.650661943425
 30
0
 11
433.5283849413539
 21
314.425661943425
 31
0
  0
LINE
  8
1
 62
2
 10
427.9033849413539
 20
314.650661943425
 30
0
 11
431.0533849413539
 21
314.650661943425
 31
0
  0
LINE
  8
1
 62
2
 10
427.9033849413539
 20
308.350661943425
 30
0
 11
427.9033849413539
 21
314.650661943425
 31
0
  0
LINE
  8
1
 62
2
 10
422.0533849413538
 20
314.650661943425
 30
0
 11
423.8533849413539
 21
314.650661943425
 31
0
  0
LINE
  8
1
 62
2
 10
422.0533849413538
 20
314.650661943425
 30
0
 11
422.0533849413538
 21
308.350661943425
 31
0
  0
LINE
  8
1
 62
2
 10
425.2033849413539
 20
313.525661943425
 30
0
 11
425.2033849413539
 21
308.350661943425
 31
0
  0
LINE
  8
1
 62
2
 10
424.9783849413539
 20
313.975661943425
 30
0
 11
425.2033849413539
 21
313.525661943425
 31
0
  0
LINE
  8
1
 62
2
 10
424.5283849413539
 20
314.425661943425
 30
0
 11
424.9783849413539
 21
313.975661943425
 31
0
  0
LINE
  8
1
 62
2
 10
423.8533849413539
 20
314.650661943425
 30
0
 11
424.5283849413539
 21
314.425661943425
 31
0
  0
LINE
  8
1
 62
2
 10
418.9033849413539
 20
314.650661943425
 30
0
 11
422.0533849413538
 21
314.650661943425
 31
0
  0
LINE
  8
1
 62
2
 10
418.9033849413539
 20
308.350661943425
 30
0
 11
418.9033849413539
 21
314.650661943425
 31
0
  0
LINE
  8
1
 62
2
 10
414.1783849413539
 20
308.350661943425
 30
0
 11
410.8033849413539
 21
308.350661943425
 31
0
  0
LINE
  8
1
 62
2
 10
414.8533849413539
 20
308.575661943425
 30
0
 11
414.1783849413539
 21
308.350661943425
 31
0
  0
LINE
  8
1
 62
2
 10
415.5283849413539
 20
309.025661943425
 30
0
 11
414.8533849413539
 21
308.575661943425
 31
0
  0
LINE
  8
1
 62
2
 10
415.9783849413539
 20
309.700661943425
 30
0
 11
415.5283849413539
 21
309.025661943425
 31
0
  0
LINE
  8
1
 62
2
 10
416.2033849413539
 20
310.600661943425
 30
0
 11
415.9783849413539
 21
309.700661943425
 31
0
  0
LINE
  8
1
 62
2
 10
416.2033849413539
 20
311.950661943425
 30
0
 11
416.2033849413539
 21
310.600661943425
 31
0
  0
LINE
  8
1
 62
2
 10
415.9783849413539
 20
312.850661943425
 30
0
 11
416.2033849413539
 21
311.950661943425
 31
0
  0
LINE
  8
1
 62
2
 10
415.3033849413539
 20
313.525661943425
 30
0
 11
415.9783849413539
 21
312.850661943425
 31
0
  0
LINE
  8
1
 62
2
 10
414.1783849413539
 20
313.750661943425
 30
0
 11
415.3033849413539
 21
313.525661943425
 31
0
  0
LINE
  8
1
 62
2
 10
410.8033849413539
 20
313.750661943425
 30
0
 11
414.1783849413539
 21
313.750661943425
 31
0
  0
LINE
  8
1
 62
2
 10
410.8033849413539
 20
317.350661943425
 30
0
 11
410.8033849413539
 21
313.750661943425
 31
0
  0
LINE
  8
1
 62
2
 10
415.7533849413539
 20
317.350661943425
 30
0
 11
410.8033849413539
 21
317.350661943425
 31
0
  0
LINE
  8
1
 62
2
 10
402.7033849413539
 20
308.350661943425
 30
0
 11
408.1033849413539
 21
308.350661943425
 31
0
  0
LINE
  8
1
 62
2
 10
407.6533849413539
 20
314.200661943425
 30
0
 11
402.7033849413539
 21
308.350661943425
 31
0
  0
LINE
  8
1
 62
2
 10
408.1033849413539
 20
315.100661943425
 30
0
 11
407.6533849413539
 21
314.200661943425
 31
0
  0
LINE
  8
1
 62
2
 10
408.1033849413539
 20
316.000661943425
 30
0
 11
408.1033849413539
 21
315.100661943425
 31
0
  0
LINE
  8
1
 62
2
 10
407.6533849413539
 20
316.675661943425
 30
0
 11
408.1033849413539
 21
316.000661943425
 31
0
  0
LINE
  8
1
 62
2
 10
406.9783849413539
 20
317.125661943425
 30
0
 11
407.6533849413539
 21
316.675661943425
 31
0
  0
LINE
  8
1
 62
2
 10
406.0783849413539
 20
317.350661943425
 30
0
 11
406.9783849413539
 21
317.125661943425
 31
0
  0
LINE
  8
1
 62
2
 10
404.7283849413539
 20
317.350661943425
 30
0
 11
406.0783849413539
 21
317.350661943425
 31
0
  0
LINE
  8
1
 62
2
 10
403.8283849413539
 20
317.125661943425
 30
0
 11
404.7283849413539
 21
317.350661943425
 31
0
  0
LINE
  8
1
 62
2
 10
403.1533849413539
 20
316.675661943425
 30
0
 11
403.8283849413539
 21
317.125661943425
 31
0
  0
LINE
  8
1
 62
2
 10
402.7033849413539
 20
316.000661943425
 30
0
 11
403.1533849413539
 21
316.675661943425
 31
0
  0
LINE
  8
1
 62
2
 10
396.7033849413539
 20
316.788161943425
 30
0
 11
394.2033849413539
 21
316.788161943425
 31
0
  0
LINE
  8
1
 62
2
 10
397.9533849413539
 20
308.631911943425
 30
0
 11
401.4533849413539
 21
308.631911943425
 31
0
  0
LINE
  8
1
 62
2
 10
397.9533849413539
 20
312.006911943425
 30
0
 11
397.9533849413539
 21
308.631911943425
 31
0
  0
LINE
  8
1
 62
2
 10
400.9533849413539
 20
312.006911943425
 30
0
 11
400.2033849413539
 21
312.006911943425
 31
0
  0
LINE
  8
1
 62
2
 10
400.9533849413539
 20
317.069411943425
 30
0
 11
400.9533849413539
 21
312.006911943425
 31
0
  0
LINE
  8
1
 62
2
 10
399.2033849413539
 20
313.131911943425
 30
0
 11
399.2033849413539
 21
316.788161943425
 31
0
  0
LINE
  8
1
 62
2
 10
396.7033849413539
 20
316.788161943425
 30
0
 11
396.7033849413539
 21
312.006911943425
 31
0
  0
LINE
  8
1
 62
2
 10
393.9533849413539
 20
314.819411943425
 30
0
 11
398.2033849413539
 21
314.819411943425
 31
0
  0
LINE
  8
1
 62
2
 10
397.9533849413539
 20
316.788161943425
 30
0
 11
396.7033849413539
 21
316.788161943425
 31
0
  0
LINE
  8
1
 62
2
 10
395.4533849413539
 20
314.819411943425
 30
0
 11
395.4533849413539
 21
316.788161943425
 31
0
  0
LINE
  8
1
 62
2
 10
394.9533849413539
 20
312.850661943425
 30
0
 11
395.4533849413539
 21
314.819411943425
 31
0
  0
LINE
  8
1
 62
2
 10
394.2033849413539
 20
311.725661943425
 30
0
 11
394.9533849413539
 21
312.850661943425
 31
0
  0
LINE
  8
1
 62
2
 10
400.4533849413539
 20
310.600661943425
 30
0
 11
394.9533849413539
 21
310.600661943425
 31
0
  0
LINE
  8
1
 62
2
 10
394.2033849413539
 20
308.631911943425
 30
0
 11
397.9533849413539
 21
308.631911943425
 31
0
  0
LINE
  8
1
 62
2
 10
385.6033849413539
 20
308.350661943425
 30
0
 11
385.6033849413539
 21
317.350661943425
 31
0
  0
LINE
  8
1
 62
2
 10
391.0033849413538
 20
308.350661943425
 30
0
 11
385.6033849413539
 21
308.350661943425
 31
0
  0
LINE
  8
1
 62
2
 10
382.6783849413538
 20
315.550661943425
 30
0
 11
382.9033849413539
 21
314.650661943425
 31
0
  0
LINE
  8
1
 62
2
 10
382.2283849413539
 20
316.225661943425
 30
0
 11
382.6783849413538
 21
315.550661943425
 31
0
  0
LINE
  8
1
 62
2
 10
381.7783849413539
 20
316.675661943425
 30
0
 11
382.2283849413539
 21
316.225661943425
 31
0
  0
LINE
  8
1
 62
2
 10
381.1033849413539
 20
317.125661943425
 30
0
 11
381.7783849413539
 21
316.675661943425
 31
0
  0
LINE
  8
1
 62
2
 10
380.2033849413539
 20
317.350661943425
 30
0
 11
381.1033849413539
 21
317.125661943425
 31
0
  0
LINE
  8
1
 62
2
 10
376.6033849413539
 20
317.350661943425
 30
0
 11
380.2033849413539
 21
317.350661943425
 31
0
  0
LINE
  8
1
 62
2
 10
376.6033849413539
 20
308.350661943425
 30
0
 11
376.6033849413539
 21
317.350661943425
 31
0
  0
LINE
  8
1
 62
2
 10
380.2033849413539
 20
308.350661943425
 30
0
 11
376.6033849413539
 21
308.350661943425
 31
0
  0
LINE
  8
1
 62
2
 10
381.1033849413539
 20
308.575661943425
 30
0
 11
380.2033849413539
 21
308.350661943425
 31
0
  0
LINE
  8
1
 62
2
 10
381.7783849413539
 20
309.025661943425
 30
0
 11
381.1033849413539
 21
308.575661943425
 31
0
  0
LINE
  8
1
 62
2
 10
382.2283849413539
 20
309.475661943425
 30
0
 11
381.7783849413539
 21
309.025661943425
 31
0
  0
LINE
  8
1
 62
2
 10
382.6783849413538
 20
310.150661943425
 30
0
 11
382.2283849413539
 21
309.475661943425
 31
0
  0
LINE
  8
1
 62
2
 10
382.9033849413539
 20
311.050661943425
 30
0
 11
382.6783849413538
 21
310.150661943425
 31
0
  0
LINE
  8
1
 62
2
 10
382.9033849413539
 20
314.650661943425
 30
0
 11
382.9033849413539
 21
311.050661943425
 31
0
  0
LINE
  8
1
 62
2
 10
367.6033849413539
 20
311.050661943425
 30
0
 11
367.6033849413539
 21
317.350661943425
 31
0
  0
LINE
  8
1
 62
2
 10
367.6033849413539
 20
308.350661943425
 30
0
 11
367.6033849413539
 21
311.050661943425
 31
0
  0
LINE
  8
1
 62
2
 10
369.4033849413539
 20
312.850661943425
 30
0
 11
373.9033849413539
 21
308.350661943425
 31
0
  0
LINE
  8
1
 62
2
 10
373.9033849413539
 20
317.350661943425
 30
0
 11
369.4033849413539
 21
312.850661943425
 31
0
  0
LINE
  8
1
 62
2
 10
369.4033849413539
 20
312.850661943425
 30
0
 11
367.6033849413539
 21
311.050661943425
 31
0
  0
LINE
  8
1
 62
2
 10
364.9033849413539
 20
313.300661943425
 30
0
 11
362.6533849413539
 21
313.300661943425
 31
0
  0
LINE
  8
1
 62
2
 10
364.9033849413539
 20
308.350661943425
 30
0
 11
364.9033849413539
 21
313.300661943425
 31
0
  0
LINE
  8
1
 62
2
 10
361.0783849413539
 20
308.350661943425
 30
0
 11
364.9033849413539
 21
308.350661943425
 31
0
  0
LINE
  8
1
 62
2
 10
360.4033849413539
 20
308.575661943425
 30
0
 11
361.0783849413539
 21
308.350661943425
 31
0
  0
LINE
  8
1
 62
2
 10
359.5033849413538
 20
309.025661943425
 30
0
 11
360.4033849413539
 21
308.575661943425
 31
0
  0
LINE
  8
1
 62
2
 10
359.0533849413538
 20
309.475661943425
 30
0
 11
359.5033849413538
 21
309.025661943425
 31
0
  0
LINE
  8
1
 62
2
 10
358.8283849413539
 20
310.150661943425
 30
0
 11
359.0533849413538
 21
309.475661943425
 31
0
  0
LINE
  8
1
 62
2
 10
358.6033849413539
 20
311.050661943425
 30
0
 11
358.8283849413539
 21
310.150661943425
 31
0
  0
LINE
  8
1
 62
2
 10
358.6033849413539
 20
314.650661943425
 30
0
 11
358.6033849413539
 21
311.050661943425
 31
0
  0
LINE
  8
1
 62
2
 10
358.8283849413539
 20
315.550661943425
 30
0
 11
358.6033849413539
 21
314.650661943425
 31
0
  0
LINE
  8
1
 62
2
 10
359.0533849413538
 20
316.225661943425
 30
0
 11
358.8283849413539
 21
315.550661943425
 31
0
  0
LINE
  8
1
 62
2
 10
359.5033849413538
 20
316.675661943425
 30
0
 11
359.0533849413538
 21
316.225661943425
 31
0
  0
LINE
  8
1
 62
2
 10
360.1783849413538
 20
317.125661943425
 30
0
 11
359.5033849413538
 21
316.675661943425
 31
0
  0
LINE
  8
1
 62
2
 10
361.0783849413539
 20
317.350661943425
 30
0
 11
360.1783849413538
 21
317.125661943425
 31
0
  0
LINE
  8
1
 62
2
 10
364.9033849413539
 20
317.350661943425
 30
0
 11
361.0783849413539
 21
317.350661943425
 31
0
  0
LINE
  8
1
 62
2
 10
462.3783849413539
 20
288.694411943425
 30
0
 11
462.6283849413539
 21
288.975661943425
 31
0
  0
LINE
  8
1
 62
2
 10
462.3783849413539
 20
290.381911943425
 30
0
 11
460.8783849413539
 21
290.381911943425
 31
0
  0
LINE
  8
1
 62
2
 10
466.1283849413539
 20
283.913161943425
 30
0
 11
468.3783849413539
 21
283.913161943425
 31
0
  0
LINE
  8
1
 62
2
 10
463.6283849413539
 20
283.913161943425
 30
0
 11
466.1283849413539
 21
283.913161943425
 31
0
  0
LINE
  8
1
 62
2
 10
466.1283849413539
 20
292.069411943425
 30
0
 11
466.1283849413539
 21
283.913161943425
 31
0
  0
LINE
  8
1
 62
2
 10
464.3783849413539
 20
288.694411943425
 30
0
 11
467.8783849413539
 21
288.694411943425
 31
0
  0
LINE
  8
1
 62
2
 10
462.8783849413539
 20
288.413161943425
 30
0
 11
464.1283849413539
 21
287.006911943425
 31
0
  0
LINE
  8
1
 62
2
 10
462.3783849413539
 20
290.381911943425
 30
0
 11
462.3783849413539
 21
292.069411943425
 31
0
  0
LINE
  8
1
 62
2
 10
463.6283849413539
 20
290.381911943425
 30
0
 11
462.3783849413539
 21
290.381911943425
 31
0
  0
LINE
  8
1
 62
2
 10
462.6283849413539
 20
288.975661943425
 30
0
 11
463.6283849413539
 21
290.381911943425
 31
0
  0
LINE
  8
1
 62
2
 10
461.3783849413539
 20
287.569411943425
 30
0
 11
462.3783849413539
 21
288.694411943425
 31
0
  0
LINE
  8
1
 62
2
 10
460.3783849413539
 20
286.725661943425
 30
0
 11
461.3783849413539
 21
287.569411943425
 31
0
  0
LINE
  8
1
 62
2
 10
462.3783849413539
 20
283.631911943425
 30
0
 11
462.3783849413539
 21
288.694411943425
 31
0
  0
LINE
  8
1
 62
2
 10
455.3783849413539
 20
286.725661943425
 30
0
 11
452.8783849413539
 21
283.631911943425
 31
0
  0
LINE
  8
1
 62
2
 10
457.6283849413539
 20
284.194411943425
 30
0
 11
456.6283849413539
 21
285.319411943425
 31
0
  0
LINE
  8
1
 62
2
 10
458.3783849413539
 20
283.350661943425
 30
0
 11
457.6283849413539
 21
284.194411943425
 31
0
  0
LINE
  8
1
 62
2
 10
452.1283849413539
 20
283.631911943425
 30
0
 11
457.6283849413539
 21
284.194411943425
 31
0
  0
LINE
  8
1
 62
2
 10
452.6283849413539
 20
287.006911943425
 30
0
 11
458.3783849413539
 21
287.006911943425
 31
0
  0
LINE
  8
1
 62
2
 10
453.6283849413539
 20
288.413161943425
 30
0
 11
457.1283849413539
 21
288.413161943425
 31
0
  0
LINE
  8
1
 62
2
 10
455.3783849413539
 20
292.069411943425
 30
0
 11
459.3783849413539
 21
287.850661943425
 31
0
  0
LINE
  8
1
 62
2
 10
455.3783849413539
 20
292.069411943425
 30
0
 11
451.3783849413539
 21
287.850661943425
 31
0
  0
LINE
  8
1
 62
2
 10
444.6283849413539
 20
288.131911943425
 30
0
 11
442.8783849413539
 21
288.131911943425
 31
0
  0
LINE
  8
1
 62
2
 10
444.6283849413539
 20
285.038161943425
 30
0
 11
446.3783849413539
 21
285.600661943425
 31
0
  0
LINE
  8
1
 62
2
 10
449.6283849413539
 20
283.631911943425
 30
0
 11
450.3783849413539
 21
284.475661943425
 31
0
  0
LINE
  8
1
 62
2
 10
448.6283849413539
 20
284.756911943425
 30
0
 11
449.6283849413539
 21
283.631911943425
 31
0
  0
LINE
  8
1
 62
2
 10
447.6283849413539
 20
286.725661943425
 30
0
 11
448.6283849413539
 21
284.756911943425
 31
0
  0
LINE
  8
1
 62
2
 10
447.1283849413539
 20
288.975661943425
 30
0
 11
447.6283849413539
 21
286.725661943425
 31
0
  0
LINE
  8
1
 62
2
 10
446.8783849413539
 20
292.350661943425
 30
0
 11
447.1283849413539
 21
288.975661943425
 31
0
  0
LINE
  8
1
 62
2
 10
448.3783849413539
 20
291.225661943425
 30
0
 11
447.6283849413539
 21
292.069411943425
 31
0
  0
LINE
  8
1
 62
2
 10
442.3783849413539
 20
290.381911943425
 30
0
 11
449.6283849413539
 21
290.381911943425
 31
0
  0
LINE
  8
1
 62
2
 10
444.6283849413539
 20
288.131911943425
 30
0
 11
444.6283849413539
 21
285.038161943425
 31
0
  0
LINE
  8
1
 62
2
 10
446.3783849413539
 20
288.131911943425
 30
0
 11
444.6283849413539
 21
288.131911943425
 31
0
  0
LINE
  8
1
 62
2
 10
442.8783849413539
 20
284.475661943425
 30
0
 11
444.6283849413539
 21
285.038161943425
 31
0
  0
LINE
  8
1
 62
2
 10
435.1283849413539
 20
289.819411943425
 30
0
 11
435.1283849413539
 21
292.350661943425
 31
0
  0
LINE
  8
1
 62
2
 10
435.1283849413539
 20
289.819411943425
 30
0
 11
433.8783849413539
 21
289.819411943425
 31
0
  0
LINE
  8
1
 62
2
 10
440.1283849413539
 20
285.600661943425
 30
0
 11
441.1283849413539
 21
283.631911943425
 31
0
  0
LINE
  8
1
 62
2
 10
438.8783849413539
 20
288.131911943425
 30
0
 11
440.1283849413539
 21
285.600661943425
 31
0
  0
LINE
  8
1
 62
2
 10
438.1283849413539
 20
286.163161943425
 30
0
 11
438.8783849413539
 21
288.131911943425
 31
0
  0
LINE
  8
1
 62
2
 10
437.1283849413539
 20
284.756911943425
 30
0
 11
438.1283849413539
 21
286.163161943425
 31
0
  0
LINE
  8
1
 62
2
 10
436.3783849413539
 20
283.631911943425
 30
0
 11
437.1283849413539
 21
284.756911943425
 31
0
  0
LINE
  8
1
 62
2
 10
438.8783849413539
 20
292.350661943425
 30
0
 11
438.8783849413539
 21
283.350661943425
 31
0
  0
LINE
  8
1
 62
2
 10
441.1283849413539
 20
288.131911943425
 30
0
 11
436.8783849413539
 21
288.131911943425
 31
0
  0
LINE
  8
1
 62
2
 10
437.6283849413539
 20
290.100661943425
 30
0
 11
440.8783849413539
 21
290.100661943425
 31
0
  0
LINE
  8
1
 62
2
 10
437.6283849413539
 20
290.100661943425
 30
0
 11
437.8783849413539
 21
291.506911943425
 31
0
  0
LINE
  8
1
 62
2
 10
436.8783849413539
 20
288.694411943425
 30
0
 11
437.6283849413539
 21
290.100661943425
 31
0
  0
LINE
  8
1
 62
2
 10
435.1283849413539
 20
289.819411943425
 30
0
 11
436.3783849413539
 21
287.569411943425
 31
0
  0
LINE
  8
1
 62
2
 10
433.6283849413539
 20
285.881911943425
 30
0
 11
435.1283849413539
 21
289.819411943425
 31
0
  0
LINE
  8
1
 62
2
 10
436.3783849413539
 20
289.819411943425
 30
0
 11
435.1283849413539
 21
289.819411943425
 31
0
  0
LINE
  8
1
 62
2
 10
435.1283849413539
 20
283.631911943425
 30
0
 11
435.1283849413539
 21
289.819411943425
 31
0
  0
LINE
  8
1
 62
2
 10
425.1283849413539
 20
288.975661943425
 30
0
 11
425.1283849413539
 21
290.381911943425
 31
0
  0
LINE
  8
1
 62
2
 10
427.6283849413539
 20
290.381911943425
 30
0
 11
427.6283849413539
 21
288.975661943425
 31
0
  0
LINE
  8
1
 62
2
 10
425.1283849413539
 20
290.381911943425
 30
0
 11
425.1283849413539
 21
291.788161943425
 31
0
  0
LINE
  8
1
 62
2
 10
431.6283849413539
 20
288.975661943425
 30
0
 11
431.6283849413539
 21
290.381911943425
 31
0
  0
LINE
  8
1
 62
2
 10
429.1283849413539
 20
290.381911943425
 30
0
 11
429.1283849413539
 21
288.975661943425
 31
0
  0
LINE
  8
1
 62
2
 10
431.6283849413539
 20
290.381911943425
 30
0
 11
431.6283849413539
 21
291.788161943425
 31
0
  0
LINE
  8
1
 62
2
 10
425.1283849413539
 20
283.913161943425
 30
0
 11
425.1283849413539
 21
283.631911943425
 31
0
  0
LINE
  8
1
 62
2
 10
429.1283849413539
 20
290.381911943425
 30
0
 11
431.6283849413539
 21
290.381911943425
 31
0
  0
LINE
  8
1
 62
2
 10
429.1283849413539
 20
288.975661943425
 30
0
 11
431.6283849413539
 21
288.975661943425
 31
0
  0
LINE
  8
1
 62
2
 10
429.1283849413539
 20
291.788161943425
 30
0
 11
429.1283849413539
 21
290.381911943425
 31
0
  0
LINE
  8
1
 62
2
 10
431.6283849413539
 20
291.788161943425
 30
0
 11
429.1283849413539
 21
291.788161943425
 31
0
  0
LINE
  8
1
 62
2
 10
431.6283849413539
 20
283.913161943425
 30
0
 11
431.6283849413539
 21
288.975661943425
 31
0
  0
LINE
  8
1
 62
2
 10
431.3783849413539
 20
283.631911943425
 30
0
 11
431.6283849413539
 21
283.913161943425
 31
0
  0
LINE
  8
1
 62
2
 10
430.6283849413539
 20
283.631911943425
 30
0
 11
431.3783849413539
 21
283.631911943425
 31
0
  0
LINE
  8
1
 62
2
 10
427.6283849413539
 20
290.381911943425
 30
0
 11
425.1283849413539
 21
290.381911943425
 31
0
  0
LINE
  8
1
 62
2
 10
427.6283849413539
 20
288.975661943425
 30
0
 11
425.1283849413539
 21
288.975661943425
 31
0
  0
LINE
  8
1
 62
2
 10
427.6283849413539
 20
291.788161943425
 30
0
 11
427.6283849413539
 21
290.381911943425
 31
0
  0
LINE
  8
1
 62
2
 10
425.1283849413539
 20
291.788161943425
 30
0
 11
427.6283849413539
 21
291.788161943425
 31
0
  0
LINE
  8
1
 62
2
 10
425.1283849413539
 20
283.913161943425
 30
0
 11
425.1283849413539
 21
288.975661943425
 31
0
  0
LINE
  8
1
 62
2
 10
419.3783849413539
 20
283.631911943425
 30
0
 11
422.3783849413539
 21
283.631911943425
 31
0
  0
LINE
  8
1
 62
2
 10
419.3783849413539
 20
288.975661943425
 30
0
 11
421.1283849413539
 21
288.975661943425
 31
0
  0
LINE
  8
1
 62
2
 10
422.3783849413539
 20
288.694411943425
 30
0
 11
423.3783849413539
 21
287.850661943425
 31
0
  0
LINE
  8
1
 62
2
 10
420.6283849413539
 20
290.663161943425
 30
0
 11
422.3783849413539
 21
288.694411943425
 31
0
  0
LINE
  8
1
 62
2
 10
419.3783849413539
 20
292.350661943425
 30
0
 11
420.6283849413539
 21
290.663161943425
 31
0
  0
LINE
  8
1
 62
2
 10
418.1283849413539
 20
290.663161943425
 30
0
 11
419.3783849413539
 21
292.350661943425
 31
0
  0
LINE
  8
1
 62
2
 10
416.3783849413539
 20
288.694411943425
 30
0
 11
418.1283849413539
 21
290.663161943425
 31
0
  0
LINE
  8
1
 62
2
 10
415.3783849413539
 20
287.850661943425
 30
0
 11
416.3783849413539
 21
288.694411943425
 31
0
  0
LINE
  8
1
 62
2
 10
420.6283849413539
 20
284.756911943425
 30
0
 11
421.1283849413539
 21
286.163161943425
 31
0
  0
LINE
  8
1
 62
2
 10
417.6283849413539
 20
286.163161943425
 30
0
 11
418.1283849413539
 21
284.756911943425
 31
0
  0
LINE
  8
1
 62
2
 10
421.8783849413539
 20
287.288161943425
 30
0
 11
416.8783849413539
 21
287.288161943425
 31
0
  0
LINE
  8
1
 62
2
 10
417.6283849413539
 20
288.975661943425
 30
0
 11
419.3783849413539
 21
288.975661943425
 31
0
  0
LINE
  8
1
 62
2
 10
419.3783849413539
 20
283.631911943425
 30
0
 11
419.3783849413539
 21
288.975661943425
 31
0
  0
LINE
  8
1
 62
2
 10
416.1283849413539
 20
283.631911943425
 30
0
 11
419.3783849413539
 21
283.631911943425
 31
0
  0
LINE
  8
1
 62
2
 10
412.6283849413539
 20
286.163161943425
 30
0
 11
413.8783849413539
 21
287.850661943425
 31
0
  0
LINE
  8
1
 62
2
 10
410.6283849413539
 20
285.038161943425
 30
0
 11
412.6283849413539
 21
286.163161943425
 31
0
  0
LINE
  8
1
 62
2
 10
410.6283849413539
 20
290.100661943425
 30
0
 11
410.6283849413539
 21
285.038161943425
 31
0
  0
LINE
  8
1
 62
2
 10
408.6283849413539
 20
287.850661943425
 30
0
 11
408.8783849413539
 21
290.100661943425
 31
0
  0
LINE
  8
1
 62
2
 10
408.1283849413539
 20
286.163161943425
 30
0
 11
408.6283849413539
 21
287.850661943425
 31
0
  0
LINE
  8
1
 62
2
 10
407.3783849413539
 20
284.756911943425
 30
0
 11
408.1283849413539
 21
286.163161943425
 31
0
  0
LINE
  8
1
 62
2
 10
398.8783849413539
 20
287.006911943425
 30
0
 11
398.8783849413539
 21
285.319411943425
 31
0
  0
LINE
  8
1
 62
2
 10
401.6283849413539
 20
284.194411943425
 30
0
 11
403.1283849413539
 21
284.475661943425
 31
0
  0
LINE
  8
1
 62
2
 10
399.1283849413539
 20
284.475661943425
 30
0
 11
401.6283849413539
 21
284.194411943425
 31
0
  0
LINE
  8
1
 62
2
 10
398.8783849413539
 20
285.319411943425
 30
0
 11
399.1283849413539
 21
284.475661943425
 31
0
  0
LINE
  8
1
 62
2
 10
398.8783849413539
 20
290.100661943425
 30
0
 11
398.8783849413539
 21
287.006911943425
 31
0
  0
LINE
  8
1
 62
2
 10
403.6283849413539
 20
290.663161943425
 30
0
 11
404.3783849413539
 21
289.819411943425
 31
0
  0
LINE
  8
1
 62
2
 10
403.8783849413539
 20
289.256911943425
 30
0
 11
403.1283849413539
 21
290.100661943425
 31
0
  0
LINE
  8
1
 62
2
 10
401.1283849413539
 20
287.850661943425
 30
0
 11
402.6283849413539
 21
288.694411943425
 31
0
  0
LINE
  8
1
 62
2
 10
398.8783849413539
 20
287.006911943425
 30
0
 11
401.1283849413539
 21
287.850661943425
 31
0
  0
LINE
  8
1
 62
2
 10
393.3783849413539
 20
286.163161943425
 30
0
 11
394.8783849413539
 21
284.475661943425
 31
0
  0
LINE
  8
1
 62
2
 10
392.1283849413539
 20
287.288161943425
 30
0
 11
393.3783849413539
 21
286.163161943425
 31
0
  0
LINE
  8
1
 62
2
 10
395.1283849413539
 20
291.225661943425
 30
0
 11
395.8783849413539
 21
290.381911943425
 31
0
  0
LINE
  8
1
 62
2
 10
394.6283849413539
 20
290.663161943425
 30
0
 11
395.3783849413539
 21
289.819411943425
 31
0
  0
LINE
  8
1
 62
2
 10
393.6283849413539
 20
290.100661943425
 30
0
 11
390.3783849413539
 21
290.100661943425
 31
0
  0
LINE
  8
1
 62
2
 10
392.8783849413539
 20
288.413161943425
 30
0
 11
393.6283849413539
 21
290.100661943425
 31
0
  0
LINE
  8
1
 62
2
 10
391.1283849413539
 20
285.881911943425
 30
0
 11
392.8783849413539
 21
288.413161943425
 31
0
  0
LINE
  8
1
 62
2
 10
389.3783849413539
 20
284.475661943425
 30
0
 11
391.1283849413539
 21
285.881911943425
 31
0
  0
LINE
  8
1
 62
2
 10
386.3783849413539
 20
289.819411943425
 30
0
 11
384.1283849413539
 21
287.288161943425
 31
0
  0
LINE
  8
1
 62
2
 10
380.6283849413539
 20
289.819411943425
 30
0
 11
386.3783849413539
 21
289.819411943425
 31
0
  0
LINE
  8
1
 62
2
 10
383.3783849413539
 20
287.288161943425
 30
0
 11
383.6283849413539
 21
288.694411943425
 31
0
  0
LINE
  8
1
 62
2
 10
382.8783849413539
 20
285.600661943425
 30
0
 11
383.3783849413539
 21
287.288161943425
 31
0
  0
LINE
  8
1
 62
2
 10
381.8783849413539
 20
283.913161943425
 30
0
 11
382.8783849413539
 21
285.600661943425
 31
0
  0
LINE
  8
1
 62
2
  6
DIVIDE
 10
358.8783849413539
 20
394.2728782368495
 30
0
 11
358.8783849413539
 21
401.2025246924778
 31
0
  0
LINE
  8
1
 62
2
  6
DIVIDE
 10
368.9194426555591
 20
394.2728782368495
 30
0
 11
358.8783849413539
 21
394.2728782368495
 31
0
  0
LINE
  8
1
 62
2
  6
DIVIDE
 10
368.9194426555591
 20
401.2025246924778
 30
0
 11
368.9194426555591
 21
394.2728782368495
 31
0
  0
LINE
  8
1
 62
2
  6
DIVIDE
 10
358.8783849413539
 20
401.2025246924778
 30
0
 11
368.9194426555591
 21
401.2025246924778
 31
0
  0
LINE
  8
1
 62
2
  6
DASHDOT
 10
423.8783849413539
 20
609.5911103454608
 30
0
 11
423.8783849413539
 21
506.348192382301
 31
0
  0
LINE
  8
1
 62
2
  6
DASHDOT
 10
305.9315907953752
 20
557.9248194360084
 30
0
 11
536.2676483627608
 21
557.9248194360084
 31
0
  0
LINE
  8
1
 62
7
 10
327.4544458863629
 20
542.6248505272134
 30
0
 11
386.2695736500793
 21
531.1170010314739
 31
0
  0
LINE
  8
1
 62
7
 10
368.8783849413538
 20
533.5008232297905
 30
0
 11
369.0704052563568
 21
534.4822141807505
 31
0
  0
LINE
  8
1
 62
7
 10
364.9528211375139
 20
534.2689044898024
 30
0
 11
368.8783849413538
 21
533.5008232297905
 31
0
  0
LINE
  8
1
 62
7
 10
365.1448414525167
 20
535.2502954407623
 30
0
 11
364.9528211375139
 21
534.2689044898024
 31
0
  0
LINE
  8
1
 62
7
 10
362.8039487451939
 20
534.6893558433336
 30
0
 11
362.9959690601968
 21
535.6707467942936
 31
0
  0
LINE
  8
1
 62
7
 10
358.8783849413539
 20
535.4574371033455
 30
0
 11
362.8039487451939
 21
534.6893558433336
 31
0
  0
LINE
  8
1
 62
7
 10
359.0704052563568
 20
536.4388280543054
 30
0
 11
358.8783849413539
 21
535.4574371033455
 31
0
  0
LINE
  8
1
 62
2
 10
309.455735210543
 20
536.9698194360084
 30
0
 11
309.455735210543
 21
578.8798194360085
 31
0
  0
LINE
  8
1
 62
2
 10
323.301866839532
 20
578.8798194360085
 30
0
 11
323.301866839532
 21
536.9698194360084
 31
0
  0
LINE
  8
1
 62
2
 10
519.4188720891099
 20
578.8798194360085
 30
0
 11
519.4188720891099
 21
536.9698194360084
 31
0
  0
LINE
  8
1
 62
2
 10
533.3010346721638
 20
536.9698194360084
 30
0
 11
533.3010346721638
 21
578.8798194360085
 31
0
  0
LINE
  8
1
 62
7
 10
515.301359554668
 20
541.6666351137324
 30
0
 11
461.484908633087
 21
531.1185280035134
 31
0
  0
LINE
  8
1
 62
7
 10
461.484908633087
 20
584.7311108685034
 30
0
 11
515.301359554668
 21
574.1830037582845
 31
0
  0
LINE
  8
1
 62
7
 10
518.8783849413538
 20
577.3798194360084
 30
0
 11
518.8783849413538
 21
538.4698194360085
 31
0
  0
LINE
  8
1
 62
7
 10
323.8783849413539
 20
538.4698194360085
 30
0
 11
323.8783849413539
 21
577.3798194360084
 31
0
  0
LINE
  8
1
 62
7
 10
386.2695736500793
 20
584.7326378405429
 30
0
 11
327.4544458863629
 21
573.2247883448034
 31
0
  0
LINE
  8
1
 62
7
 10
533.8783849413538
 20
538.4698194360085
 30
0
 11
533.8783849413538
 21
577.3798194360084
 31
0
  0
LINE
  8
1
 62
7
 10
519.4188720891099
 20
578.8798194360085
 30
0
 11
533.3010346721638
 21
578.8798194360085
 31
0
  0
LINE
  8
1
 62
7
 10
519.4188720891099
 20
536.9698194360084
 30
0
 11
533.3010346721638
 21
536.9698194360084
 31
0
  0
LINE
  8
1
 62
7
 10
533.8783849413538
 20
538.4698194360085
 30
0
 11
533.3010346721638
 21
536.9698194360084
 31
0
  0
LINE
  8
1
 62
7
 10
533.8783849413538
 20
577.3798194360084
 30
0
 11
533.3010346721638
 21
578.8798194360085
 31
0
  0
LINE
  8
1
 62
7
 10
519.4188720891099
 20
578.8798194360085
 30
0
 11
518.8783849413538
 21
577.3798194360084
 31
0
  0
LINE
  8
1
 62
7
 10
519.4188720891099
 20
536.9698194360084
 30
0
 11
518.8783849413538
 21
538.4698194360085
 31
0
  0
LINE
  8
1
 62
2
 10
518.8783849413538
 20
577.3798194360084
 30
0
 11
533.8783849413538
 21
577.3798194360084
 31
0
  0
LINE
  8
1
 62
2
 10
518.8783849413538
 20
538.4698194360085
 30
0
 11
533.8783849413538
 21
538.4698194360085
 31
0
  0
LINE
  8
1
 62
7
 10
308.8783849413539
 20
577.3798194360084
 30
0
 11
308.8783849413539
 21
538.4698194360085
 31
0
  0
LINE
  8
1
 62
7
 10
309.455735210543
 20
578.8798194360085
 30
0
 11
323.301866839532
 21
578.8798194360085
 31
0
  0
LINE
  8
1
 62
7
 10
309.455735210543
 20
536.9698194360084
 30
0
 11
323.301866839532
 21
536.9698194360084
 31
0
  0
LINE
  8
1
 62
7
 10
323.301866839532
 20
578.8798194360085
 30
0
 11
323.8783849413539
 21
577.3798194360084
 31
0
  0
LINE
  8
1
 62
7
 10
308.8783849413539
 20
577.3798194360084
 30
0
 11
309.455735210543
 21
578.8798194360085
 31
0
  0
LINE
  8
1
 62
7
 10
308.8783849413539
 20
538.4698194360085
 30
0
 11
309.455735210543
 21
536.9698194360084
 31
0
  0
LINE
  8
1
 62
7
 10
323.301866839532
 20
536.9698194360084
 30
0
 11
323.8783849413539
 21
538.4698194360085
 31
0
  0
LINE
  8
1
 62
2
 10
308.8783849413539
 20
577.3798194360084
 30
0
 11
323.8783849413539
 21
577.3798194360084
 31
0
  0
LINE
  8
1
 62
2
 10
308.8783849413539
 20
538.4698194360085
 30
0
 11
323.8783849413539
 21
538.4698194360085
 31
0
  0
LINE
  8
1
 62
7
 10
374.9528211375136
 20
532.3122906162474
 30
0
 11
375.1448414525167
 21
533.2936815672074
 31
0
  0
LINE
  8
1
 62
7
 10
371.0272573336738
 20
533.0803718762593
 30
0
 11
374.9528211375136
 21
532.3122906162474
 31
0
  0
LINE
  8
1
 62
7
 10
371.2192776486766
 20
534.0617628272192
 30
0
 11
371.0272573336738
 21
533.0803718762593
 31
0
  0
LINE
  8
1
 62
7
 10
518.8690229635118
 20
379.2728428337218
 30
0
 11
519.4188720891099
 21
378.2728782368495
 31
0
  0
LINE
  8
1
 62
7
 10
519.4188720891099
 20
378.2728782368495
 30
0
 11
533.3010346721638
 21
378.2728782368495
 31
0
  0
LINE
  8
1
 62
7
 10
469.2074161856999
 20
379.6274481579511
 30
0
 11
515.7990955081993
 21
382.0911789059458
 31
0
  0
LINE
  8
1
 62
7
 10
533.8783849413538
 20
379.2728782368495
 30
0
 11
533.8783849413487
 21
416.2728782368524
 31
0
  0
LINE
  8
1
 62
2
  6
DASHDOT
 10
442.783842936279
 20
397.7728782368495
 30
0
 11
538.892456537163
 21
397.7728782368495
 31
0
  0
LINE
  8
1
 62
2
 10
460.1283849413538
 20
434.7728782368495
 30
0
 11
387.6283849413541
 21
434.7728782368495
 31
0
  0
LINE
  8
1
 62
2
 10
384.9783849413536
 20
436.6828782368497
 30
0
 11
384.9783849413537
 21
435.4432075456986
 31
0
  0
LINE
  8
1
 62
7
 10
383.8783849413537
 20
436.6828782368497
 30
0
 11
383.8783849413538
 21
435.7728782368495
 31
0
  0
LINE
  8
1
 62
7
 10
463.8783849413537
 20
436.6828782368497
 30
0
 11
463.8783849413538
 21
435.7728782368495
 31
0
  0
LINE
  8
1
 62
2
 10
462.7783849413538
 20
435.4432075456986
 30
0
 11
462.7783849413538
 21
436.6828782368497
 31
0
  0
LINE
  8
1
 62
7
 10
309.455735210543
 20
378.2728782368495
 30
0
 11
323.301866839532
 21
378.2728782368495
 31
0
  0
LINE
  8
1
 62
2
 10
309.455735210543
 20
417.2728782368495
 30
0
 11
309.455735210543
 21
378.2728782368495
 31
0
  0
LINE
  8
1
 62
7
 10
474.3612439460969
 20
421.1089689866565
 30
0
 11
467.9261400171958
 21
422.2351121742144
 31
0
  0
LINE
  8
1
 62
2
  6
DASHDOT
 10
304.892456537163
 20
397.7728782368495
 30
0
 11
356.298061713998
 21
397.7728782368495
 31
0
  0
LINE
  8
1
 62
2
  6
DASHDOT
 10
423.8783849413539
 20
360.2369297886422
 30
0
 11
423.8783849413539
 21
384.943560368365
 31
0
  0
LINE
  8
1
 62
2
  6
DASHDOT
 10
467.401051187566
 20
426.2728782368495
 30
0
 11
467.8783849413539
 21
426.2728782368495
 31
0
  0
LINE
  8
1
 62
7
 10
376.937496971268
 20
418.1376183708704
 30
0
 11
327.158219703125
 21
413.4879510072043
 31
0
  0
LINE
  8
1
 62
7
 10
403.6243626875768
 20
365.2600901226273
 30
0
 11
411.9510583555499
 21
364.976167445402
 31
0
  0
LINE
  8
1
 62
7
 10
453.8783849413539
 20
362.7728782368495
 30
0
 11
393.8783849413539
 21
362.7728782368495
 31
0
  0
LINE
  8
1
 62
7
 10
533.8783849413538
 20
416.2728782368495
 30
0
 11
533.3010346721638
 21
417.2728782368495
 31
0
  0
LINE
  8
1
 62
7
 10
309.455735210543
 20
417.2728782368495
 30
0
 11
323.301866839532
 21
417.2728782368495
 31
0
  0
LINE
  8
1
 62
7
 10
308.8783849413539
 20
379.2728782368495
 30
0
 11
309.455735210543
 21
378.2728782368495
 31
0
  0
LINE
  8
1
 62
7
 10
393.8783849413539
 20
363.921623683604
 30
0
 11
393.8783849413539
 21
362.7728782368495
 31
0
  0
LINE
  8
1
 62
7
 10
425.3783849413539
 20
363.7817060305358
 30
0
 11
425.3783849413539
 21
362.7728782368495
 31
0
  0
LINE
  8
1
 62
2
 10
308.8783849413539
 20
416.2728782368495
 30
0
 11
323.8792171087209
 21
416.2728782368495
 31
0
  0
LINE
  8
1
 62
2
 10
308.8783849413539
 20
379.2728782368495
 30
0
 11
323.8792171087209
 21
379.2728782368495
 31
0
  0
LINE
  8
1
 62
2
 10
518.8690200571667
 20
379.2728782368495
 30
0
 11
533.8783849413538
 21
379.2728782368495
 31
0
  0
LINE
  8
1
 62
7
 10
385.8783849413539
 20
433.7728782368495
 30
0
 11
385.8783849413539
 21
429.433132274694
 31
0
  0
LINE
  8
1
 62
7
 10
468.8783849413539
 20
429.2728782368495
 30
0
 11
461.8783849413539
 21
429.2728782368495
 31
0
  0
LINE
  8
1
 62
7
 10
471.8783849413539
 20
424.0640603881237
 30
0
 11
471.8783849413539
 21
426.2728782368495
 31
0
  0
LINE
  8
1
 62
2
  6
DASHDOT
 10
467.8783849413539
 20
426.2728782368495
 30
0
 11
470.4161019499149
 21
426.2728782368495
 31
0
  0
LINE
  8
1
 62
2
  6
DASHDOT
 10
468.8783849413539
 20
424.7713991006866
 30
0
 11
468.8783849413539
 21
427.6842447524473
 31
0
  0
LINE
  8
1
 62
7
 10
456.894732435393
 20
368.1338199691962
 30
0
 11
503.8783849413538
 21
381.4608212629385
 31
0
  0
LINE
  8
1
 62
7
 10
308.8783849413539
 20
379.2728782368495
 30
0
 11
309.455735210543
 21
378.2728782368495
 31
0
  0
LINE
  8
1
 62
7
 10
533.3010346721638
 20
378.2728782368495
 30
0
 11
533.8783849413538
 21
379.2728782368495
 31
0
  0
LINE
  8
1
 62
7
 10
309.455735210543
 20
417.2728782368495
 30
0
 11
308.8783849413539
 21
416.2728782368495
 31
0
  0
LINE
  8
1
 62
7
 10
308.8783849413539
 20
416.2728782368495
 30
0
 11
308.8783849413539
 21
379.2728782368495
 31
0
  0
LINE
  8
1
 62
7
 10
422.3783849413539
 20
362.7728782368495
 30
0
 11
422.3783849413539
 21
363.7817814836698
 31
0
  0
LINE
  8
1
 62
7
 10
323.301866839532
 20
378.2728782368495
 30
0
 11
323.8792171087209
 21
379.2728782368495
 31
0
  0
LINE
  8
1
 62
7
 10
323.301866839532
 20
378.2728782368495
 30
0
 11
323.8792171087209
 21
379.2728782368495
 31
0
  0
LINE
  8
1
 62
7
 10
308.8783849413539
 20
379.2728782368495
 30
0
 11
309.455735210543
 21
378.2728782368495
 31
0
  0
LINE
  8
1
 62
7
 10
308.8783849413539
 20
379.2728782368495
 30
0
 11
309.455735210543
 21
378.2728782368495
 31
0
  0
LINE
  8
1
 62
7
 10
323.8792171087209
 20
416.2728782368495
 30
0
 11
323.301866839532
 21
417.2728782368495
 31
0
  0
LINE
  8
1
 62
7
 10
461.8783849413537
 20
429.433132274694
 30
0
 11
461.8783849413539
 21
433.7728782368495
 31
0
  0
LINE
  8
1
 62
7
 10
323.8792171087209
 20
379.2728782368495
 30
0
 11
323.8792171087209
 21
416.2728782368495
 31
0
  0
LINE
  8
1
 62
2
 10
323.301866839532
 20
378.2728782368495
 30
0
 11
323.301866839532
 21
417.2728782368495
 31
0
  0
LINE
  8
1
 62
2
 10
533.3010346721638
 20
417.2728782368495
 30
0
 11
533.3010346721638
 21
378.2728782368495
 31
0
  0
LINE
  8
1
 62
7
 10
519.4188720891099
 20
417.2728782368495
 30
0
 11
533.3010346721638
 21
417.2728782368495
 31
0
  0
LINE
  8
1
 62
7
 10
518.8690200571667
 20
416.2728782368495
 30
0
 11
533.8783849413538
 21
416.2728782368495
 31
0
  0
LINE
  8
1
 62
7
 10
515.5625192255169
 20
413.4879510072043
 30
0
 11
474.3327395032649
 21
421.1140991924648
 31
0
  0
LINE
  8
1
 62
7
 10
519.4188720891099
 20
417.2728782368495
 30
0
 11
518.8690200571667
 21
416.2728782368495
 31
0
  0
LINE
  8
1
 62
7
 10
518.8690200571667
 20
416.2728782368495
 30
0
 11
518.8690200571667
 21
379.2728782368495
 31
0
  0
LINE
  8
1
 62
2
 10
519.4188720891099
 20
417.2728782368495
 30
0
 11
519.4188720891099
 21
378.2728782368495
 31
0
  0
LINE
  8
1
 62
7
 10
383.8783849413538
 20
435.7728782368495
 30
0
 11
463.8783849413538
 21
435.7728782368495
 31
0
  0
LINE
  8
1
 62
7
 10
426.8783849413539
 20
399.0671338721347
 30
0
 11
426.8783849413539
 21
400.7728782368495
 31
0
  0
LINE
  8
1
 62
7
  6
DIVIDE
 10
417.8783849413539
 20
400.7728782368495
 30
0
 11
417.8783849413539
 21
393.4364846134171
 31
0
  0
LINE
  8
1
 62
7
 10
434.8783849413539
 20
415.0228782368495
 30
0
 11
406.8783849413539
 21
415.0228782368495
 31
0
  0
LINE
  8
1
 62
7
 10
406.8783849413539
 20
416.5228782368495
 30
0
 11
434.8783849413539
 21
416.5228782368495
 31
0
  0
LINE
  8
1
 62
7
 10
406.8783849413539
 20
415.0228782368495
 30
0
 11
406.8783849413539
 21
416.5228782368495
 31
0
  0
LINE
  8
1
 62
7
 10
408.8783849413539
 20
416.5228782368495
 30
0
 11
406.8783849413539
 21
419.2728782368495
 31
0
  0
LINE
  8
1
 62
7
 10
406.8783849413539
 20
419.2728782368495
 30
0
 11
423.8783849413539
 21
419.2728782368495
 31
0
  0
LINE
  8
1
 62
7
 10
423.8783849413539
 20
419.2728782368495
 30
0
 11
425.8783849413539
 21
416.5228782368495
 31
0
  0
LINE
  8
1
 62
7
 10
434.8783849413539
 20
416.5228782368495
 30
0
 11
434.8783849413539
 21
419.2728782368495
 31
0
  0
LINE
  8
1
 62
7
 10
434.8783849413539
 20
419.2728782368495
 30
0
 11
440.8783849413539
 21
415.7728782368495
 31
0
  0
LINE
  8
1
 62
7
 10
406.8783849413539
 20
412.2728782368495
 30
0
 11
408.8783849413539
 21
415.0228782368495
 31
0
  0
LINE
  8
1
 62
7
 10
423.8783849413539
 20
412.2728782368495
 30
0
 11
406.8783849413539
 21
412.2728782368495
 31
0
  0
LINE
  8
1
 62
7
 10
425.8783849413539
 20
415.0228782368495
 30
0
 11
423.8783849413539
 21
412.2728782368495
 31
0
  0
LINE
  8
1
 62
7
 10
434.8783849413539
 20
412.2728782368495
 30
0
 11
434.8783849413539
 21
415.0228782368495
 31
0
  0
LINE
  8
1
 62
7
 10
440.8783849413539
 20
415.7728782368495
 30
0
 11
434.8783849413539
 21
412.2728782368495
 31
0
  0
LINE
  8
1
 62
7
 10
417.8783849413539
 20
393.4364846134171
 30
0
 11
423.1660635158761
 21
393.4364846134171
 31
0
  0
LINE
  8
1
 62
7
 10
419.6329756384859
 20
390.6569812502846
 30
0
 11
417.8783849413539
 21
390.467598099868
 31
0
  0
LINE
  8
1
 62
7
 10
423.4359094161961
 20
394.9139977355025
 30
0
 11
419.807790854255
 21
394.9139977355025
 31
0
  0
LINE
  8
1
 62
7
 10
419.807790854255
 20
394.9139977355025
 30
0
 11
419.807790854255
 21
399.0671338721347
 31
0
  0
LINE
  8
1
 62
7
 10
419.807790854255
 20
399.0671338721347
 30
0
 11
426.8783849413539
 21
399.0671338721347
 31
0
  0
LINE
  8
1
 62
7
 10
417.8783849413539
 20
393.4364846134171
 30
0
 11
417.8783849413539
 21
400.7728782368495
 31
0
  0
LINE
  8
1
 62
7
 10
417.8783849413539
 20
400.7728782368495
 30
0
 11
426.8783849413539
 21
400.7728782368495
 31
0
  0
LINE
  8
1
 62
2
  6
DASHDOT
 10
423.8783849413539
 20
403.802265440446
 30
0
 11
423.8783849413539
 21
469.517257962602
 31
0
  0
LINE
  8
1
 62
2
  6
DASHDOT
 10
376.237839051357
 20
397.7728782368495
 30
0
 11
405.426790213877
 21
397.7728782368495
 31
0
  0
LINE
  8
1
 62
7
 10
374.8165717892987
 20
394.2728782368496
 30
0
 11
370.1944976033947
 21
394.2728782368496
 31
0
  0
LINE
  8
1
 62
7
 10
370.1944976033947
 20
394.2728782368496
 30
0
 11
370.1944976033947
 21
401.2025246924778
 31
0
  0
LINE
  8
1
 62
7
 10
370.1944976033947
 20
401.2025246924778
 30
0
 11
374.7368808550589
 21
401.2025246924778
 31
0
  0
LINE
  8
1
 62
7
 10
374.7368808550589
 20
401.2025246924778
 30
0
 11
374.7368808550589
 21
400.3363188855242
 31
0
  0
LINE
  8
1
 62
7
 10
374.7368808550589
 20
400.3363188855242
 30
0
 11
371.0710978800316
 21
400.3363188855242
 31
0
  0
LINE
  8
1
 62
7
 10
371.0710978800316
 20
400.3363188855242
 30
0
 11
371.0710978800316
 21
398.2574249488358
 31
0
  0
LINE
  8
1
 62
7
 10
371.0710978800316
 20
398.2574249488358
 30
0
 11
374.4181171181
 21
398.2574249488358
 31
0
  0
LINE
  8
1
 62
7
 10
374.4181171181
 20
398.2574249488358
 30
0
 11
374.4181171181
 21
397.3912191418822
 31
0
  0
LINE
  8
1
 62
7
 10
374.4181171181
 20
397.3912191418822
 30
0
 11
371.0710978800316
 21
397.3912191418822
 31
0
  0
LINE
  8
1
 62
7
 10
371.0710978800316
 20
397.3912191418822
 30
0
 11
371.0710978800316
 21
395.1390840438031
 31
0
  0
LINE
  8
1
 62
7
 10
371.0710978800316
 20
395.1390840438031
 30
0
 11
374.8165717892987
 21
395.1390840438031
 31
0
  0
LINE
  8
1
 62
7
 10
374.8165717892987
 20
395.1390840438031
 30
0
 11
374.8165717892987
 21
394.2728782368496
 31
0
  0
LINE
  8
1
 62
2
 10
434.4910435422489
 20
543.1378285856526
 30
0
 11
436.5213396463898
 21
545.1681246897936
 31
0
  0
LINE
  8
1
 62
2
 10
432.9697975139429
 20
542.853985333561
 30
0
 11
436.7617436588109
 21
546.645931478429
 31
0
  0
LINE
  8
1
 62
2
 10
432.3512730468657
 20
543.4725098006288
 30
0
 11
436.1432191917338
 21
547.2644559454968
 31
0
  0
LINE
  8
1
 62
2
 10
432.5790637229918
 20
545.0872947362523
 30
0
 11
434.6093598271328
 21
547.1175908403934
 31
0
  0
LINE
  8
1
 62
2
 10
417.2259981045588
 20
570.5237627281936
 30
0
 11
419.2562942086998
 21
572.5540588323347
 31
0
  0
LINE
  8
1
 62
2
 10
415.7047520762528
 20
570.2399194761019
 30
0
 11
419.4966982211208
 21
574.0318656209698
 31
0
  0
LINE
  8
1
 62
2
 10
415.0862276091759
 20
570.8584439431697
 30
0
 11
418.8781737540439
 21
574.6503900880376
 31
0
  0
LINE
  8
1
 62
2
 10
415.3140182853019
 20
572.4732288787934
 30
0
 11
417.3443143894427
 21
574.5035249829343
 31
0
  0
LINE
  8
1
 62
2
  6
DASHDOT
 10
423.8783849413538
 20
615.7568428444954
 30
0
 11
423.8783849413538
 21
498.9427986529113
 31
0
  0
LINE
  8
0
 62
7
 10
471.8783848638537
 20
553.9248187803084
 30
0
 11
467.0900718028537
 21
553.9248187803084
 31
0
  0
LINE
  8
0
 62
7
 10
427.8783851022537
 20
605.9248235785083
 30
0
 11
427.8783851022537
 21
601.1365067922084
 31
0
  0
LINE
  8
0
 62
7
 10
472.8783831650538
 20
560.9248217904083
 30
0
 11
472.8783831650538
 21
554.9248208069083
 31
0
  0
LINE
  8
0
 62
7
 10
426.8783849383539
 20
508.9248216488085
 30
0
 11
420.8783848861539
 21
508.9248216488085
 31
0
  0
LINE
  8
0
 62
7
 10
419.8783847222539
 20
509.9248199501084
 30
0
 11
419.8783847222539
 21
514.7131330111083
 31
0
  0
LINE
  8
0
 62
7
 10
419.8783847222539
 20
601.1365067922084
 30
0
 11
419.8783847222539
 21
605.9248235785083
 31
0
  0
LINE
  8
0
 62
7
 10
427.8783851022537
 20
514.7131330111083
 30
0
 11
427.8783851022537
 21
509.9248199501084
 31
0
  0
LINE
  8
0
 62
7
 10
420.8783848861539
 20
606.9248181545084
 30
0
 11
426.8783849383539
 21
606.9248181545084
 31
0
  0
LINE
  8
0
 62
7
 10
467.0900718028537
 20
561.9248200916084
 30
0
 11
471.8783848638537
 21
561.9248200916084
 31
0
  0
LINE
  8
0
 62
7
 10
375.8783840293538
 20
553.9248187803084
 30
0
 11
380.6666970903538
 21
553.9248187803084
 31
0
  0
LINE
  8
0
 62
7
 10
380.6666970903538
 20
553.9248187803084
 30
0
 11
381.1742306406538
 21
553.7864503228084
 31
0
  0
LINE
  8
0
 62
7
 10
381.8697423393539
 20
553.9248187803084
 30
0
 11
382.6806896085537
 21
553.9248187803084
 31
0
  0
LINE
  8
0
 62
7
 10
382.6806896085537
 20
553.9248187803084
 30
0
 11
383.0254764015537
 21
553.8635005020083
 31
0
  0
LINE
  8
0
 62
7
 10
382.6806896085537
 20
561.9248200916084
 30
0
 11
383.0254764015537
 21
561.9861383699083
 31
0
  0
LINE
  8
0
 62
7
 10
381.8697423393539
 20
561.9248200916084
 30
0
 11
382.6806896085537
 21
561.9248200916084
 31
0
  0
LINE
  8
0
 62
7
 10
380.6666970903538
 20
561.9248200916084
 30
0
 11
381.1742306406538
 21
562.0631885492085
 31
0
  0
LINE
  8
0
 62
7
 10
375.8783840293538
 20
561.9248200916084
 30
0
 11
380.6666970903538
 21
561.9248200916084
 31
0
  0
LINE
  8
0
 62
7
 10
374.8783857280538
 20
554.9248208069083
 30
0
 11
378.3783853704537
 21
554.9248208069083
 31
0
  0
LINE
  8
0
 62
7
 10
378.3783853704537
 20
560.9248217904083
 30
0
 11
374.8783857280538
 21
560.9248217904083
 31
0
  0
LINE
  8
0
 62
7
 10
374.8783857280538
 20
554.9248208069083
 30
0
 11
374.8783857280538
 21
560.9248217904083
 31
0
  0
LINE
  8
0
 62
7
 10
382.4869596118537
 20
560.9248217904083
 30
0
 11
378.3783853704537
 21
560.9248217904083
 31
0
  0
LINE
  8
0
 62
7
 10
378.3783853704537
 20
560.9248217904083
 30
0
 11
378.3783853704537
 21
554.9248208069083
 31
0
  0
LINE
  8
0
 62
7
 10
378.3783853704537
 20
554.9248208069083
 30
0
 11
382.4869596118537
 21
554.9248208069083
 31
0
  0
LINE
  8
0
 62
7
 10
410.1783853674539
 20
579.1559305750084
 30
0
 11
410.1783853674539
 21
578.9248210155083
 31
0
  0
LINE
  8
0
 62
7
 10
408.8903904611537
 20
578.9248210155083
 30
0
 11
409.4201276729538
 21
578.9248210155083
 31
0
  0
LINE
  8
0
 62
7
 10
413.7946922982538
 20
536.0328883641083
 30
0
 11
410.6279655079538
 21
535.3017926924083
 31
0
  0
LINE
  8
0
 62
7
 10
402.3783837164539
 20
561.4248190783084
 30
0
 11
400.3648717607538
 21
570.1463048123085
 31
0
  0
LINE
  8
0
 62
7
 10
408.3515570218539
 20
578.5296161436085
 30
0
 11
408.5321022848538
 21
578.2900240981085
 31
0
  0
LINE
  8
0
 62
7
 10
411.1283856163537
 20
580.0084707104085
 30
0
 11
410.9783849398538
 21
580.2682724558083
 31
0
  0
LINE
  8
0
 62
7
 10
399.4783849174539
 20
561.4248190783084
 30
0
 11
397.9783837402537
 21
561.4248190783084
 31
0
  0
LINE
  8
0
 62
7
 10
399.9783840681538
 20
554.9248208069083
 30
0
 11
399.9783840681538
 21
560.9248217904083
 31
0
  0
LINE
  8
0
 62
7
 10
397.9783837402537
 20
554.4248197936083
 30
0
 11
399.4783849174539
 21
554.4248197936083
 31
0
  0
LINE
  8
0
 62
7
 10
397.4783845896537
 20
560.9248217904083
 30
0
 11
397.4783845896537
 21
554.9248208069083
 31
0
  0
LINE
  8
0
 62
7
 10
432.8845773542539
 20
535.1366971396083
 30
0
 11
433.2541298771538
 21
535.2897711807084
 31
0
  0
LINE
  8
0
 62
7
 10
433.0797834972537
 20
534.1428045892083
 30
0
 11
432.7763381133538
 21
534.8753847890083
 31
0
  0
LINE
  8
0
 62
7
 10
448.2390970642538
 20
560.4852338099083
 30
0
 11
449.2386930341538
 21
560.5902944468085
 31
0
  0
LINE
  8
0
 62
7
 10
421.6559135074537
 20
583.3277863227085
 30
0
 11
421.7435139416538
 21
582.3265102469084
 31
0
  0
LINE
  8
0
 62
7
 10
449.0644369925539
 20
553.9357413315084
 30
0
 11
448.0717085952537
 21
554.0929746591085
 31
0
  0
LINE
  8
0
 62
7
 10
436.0148549730537
 20
535.1576034688084
 30
0
 11
435.8995013589537
 21
535.4360931330084
 31
0
  0
LINE
  8
0
 62
7
 10
431.2801027389539
 20
533.5226760023085
 30
0
 11
431.3954572843538
 21
533.2441863381084
 31
0
  0
LINE
  8
0
 62
7
 10
420.4693540650538
 20
533.6683050506083
 30
0
 11
420.3294708112539
 21
532.6729838513085
 31
0
  0
LINE
  8
0
 62
7
 10
413.3545906291083
 20
532.5181330663713
 30
0
 11
414.6939829642537
 21
535.7517109030084
 31
0
  0
LINE
  8
0
 62
7
 10
415.5006368363538
 20
580.9424978458084
 30
0
 11
414.4728330645572
 21
583.7663654625748
 31
0
  0
LINE
  8
0
 62
7
 10
409.8783849457537
 20
575.9248186611084
 30
0
 11
409.8783849457537
 21
577.9248189889084
 31
0
  0
LINE
  8
0
 62
7
 10
402.0320825929538
 20
562.9248183929083
 30
0
 11
402.3783837164539
 21
562.9248183929083
 31
0
  0
LINE
  8
0
 62
7
 10
399.8783842379539
 20
554.9248208069083
 30
0
 11
399.9783840681538
 21
554.9248208069083
 31
0
  0
LINE
  8
0
 62
7
 10
399.8783842379539
 20
560.9248217904083
 30
0
 11
399.9783840681538
 21
560.9248217904083
 31
0
  0
LINE
  8
0
 62
7
 10
399.3783850873537
 20
554.9248208069083
 30
0
 11
399.8783842379539
 21
554.9248208069083
 31
0
  0
LINE
  8
0
 62
7
 10
399.3783850873537
 20
560.9248217904083
 30
0
 11
399.8783842379539
 21
560.9248217904083
 31
0
  0
LINE
  8
0
 62
7
 10
399.8783842379539
 20
560.9248217904083
 30
0
 11
399.8783842379539
 21
554.9248208069083
 31
0
  0
LINE
  8
0
 62
7
 10
397.8783839101537
 20
554.9248208069083
 30
0
 11
399.3783850873537
 21
554.9248208069083
 31
0
  0
LINE
  8
0
 62
7
 10
397.8783839101537
 20
560.9248217904083
 30
0
 11
399.3783850873537
 21
560.9248217904083
 31
0
  0
LINE
  8
0
 62
7
 10
399.3783850873537
 20
560.9248217904083
 30
0
 11
399.3783850873537
 21
554.9248208069083
 31
0
  0
LINE
  8
0
 62
7
 10
397.8783839101537
 20
560.9248217904083
 30
0
 11
397.8783839101537
 21
554.9248208069083
 31
0
  0
LINE
  8
0
 62
7
 10
398.3783849234538
 20
547.9248196595084
 30
0
 11
398.3783849234538
 21
537.9248198830084
 31
0
  0
LINE
  8
0
 62
7
 10
399.3783850873537
 20
536.9248197191083
 30
0
 11
408.8783857131538
 21
536.9248197191083
 31
0
  0
LINE
  8
0
 62
7
 10
409.8783849457537
 20
537.9248198830084
 30
0
 11
409.8783849457537
 21
575.9248186611084
 31
0
  0
LINE
  8
0
 62
7
 10
402.3783837164539
 20
573.0905693733083
 30
0
 11
402.3783837164539
 21
554.8530232870085
 31
0
  0
LINE
  8
0
 62
7
 10
408.8783857131538
 20
576.9248206877085
 30
0
 11
405.8159921968538
 21
576.9248206877085
 31
0
  0
LINE
  8
0
 62
7
 10
402.3783837164539
 20
554.8530232870085
 30
0
 11
398.3783849234538
 21
547.9248196595084
 31
0
  0
LINE
  8
0
 62
7
 10
405.3204987848538
 20
565.2932611071083
 30
0
 11
405.3204987848538
 21
565.5456346237085
 31
0
  0
LINE
  8
0
 62
7
 10
405.0326977575539
 20
565.7760661804084
 30
0
 11
404.8887972439538
 21
565.7760661804084
 31
0
  0
LINE
  8
0
 62
7
 10
404.6179239357538
 20
565.5785550140083
 30
0
 11
404.6179239357538
 21
565.3371524774084
 31
0
  0
LINE
  8
0
 62
7
 10
405.7905726785538
 20
563.7028750741083
 30
0
 11
408.0762468929538
 21
563.7028750741083
 31
0
  0
LINE
  8
0
 62
7
 10
408.0762468929538
 20
564.5026278459084
 30
0
 11
405.4889210219538
 21
564.5026278459084
 31
0
  0
LINE
  8
0
 62
7
 10
408.0762468929538
 20
565.1171070301084
 30
0
 11
408.0762468929538
 21
564.5026278459084
 31
0
  0
LINE
  8
0
 62
7
 10
405.2626804167539
 20
565.1171070301084
 30
0
 11
408.0762468929538
 21
565.1171070301084
 31
0
  0
LINE
  8
0
 62
7
 10
404.6342369819537
 20
562.3175066673084
 30
0
 11
405.0615780706539
 21
562.3175066673084
 31
0
  0
LINE
  8
0
 62
7
 10
404.6342369819537
 20
561.7030274831084
 30
0
 11
404.6342369819537
 21
562.3175066673084
 31
0
  0
LINE
  8
0
 62
7
 10
408.0762468929538
 20
561.7030274831084
 30
0
 11
404.6342369819537
 21
561.7030274831084
 31
0
  0
LINE
  8
0
 62
7
 10
408.0762468929538
 20
562.3175066673084
 30
0
 11
408.0762468929538
 21
561.7030274831084
 31
0
  0
LINE
  8
0
 62
7
 10
405.7905726785538
 20
562.3175066673084
 30
0
 11
408.0762468929538
 21
562.3175066673084
 31
0
  0
LINE
  8
0
 62
7
 10
408.0762468929538
 20
563.0883958899085
 30
0
 11
405.4637827629537
 21
563.0883958899085
 31
0
  0
LINE
  8
0
 62
7
 10
408.0762468929538
 20
563.7028750741083
 30
0
 11
408.0762468929538
 21
563.0883958899085
 31
0
  0
LINE
  8
0
 62
7
 10
400.8783844018539
 20
536.9248197191083
 30
0
 11
400.8783844018539
 21
496.9383937084083
 31
0
  0
LINE
  8
0
 62
7
 10
405.8783852214539
 20
495.8666351401084
 30
0
 11
405.8783852214539
 21
536.9248197191083
 31
0
  0
LINE
  8
0
 62
7
 10
383.673405786438
 20
456.1828792799498
 30
0
 11
464.3783853849379
 21
456.1828792799498
 31
0
  0
LINE
  8
0
 62
7
 10
382.3401914438379
 20
454.2972602654498
 30
0
 11
465.7117189368379
 21
454.2972602654498
 31
0
  0
LINE
  8
0
 62
7
 10
466.2771956524379
 20
453.1828787881498
 30
0
 11
466.378385712738
 21
453.1828787881498
 31
0
  0
LINE
  8
0
 62
7
 10
381.4795748790378
 20
439.1828783560497
 30
0
 11
381.3783848187379
 21
439.1828783560497
 31
0
  0
LINE
  8
0
 62
7
 10
402.5744633278379
 20
463.6828777152497
 30
0
 11
402.5744633278379
 21
462.1828784007498
 31
0
  0
LINE
  8
0
 62
7
 10
405.107664456038
 20
462.1828784007498
 30
0
 11
405.107664456038
 21
463.6828777152497
 31
0
  0
LINE
  8
0
 62
7
 10
405.8159930160379
 20
463.6828777152497
 30
0
 11
405.8159930160379
 21
462.1828784007498
 31
0
  0
LINE
  8
0
 62
7
 10
408.8783856010379
 20
462.1828784007498
 30
0
 11
408.8783856010379
 21
463.6828777152497
 31
0
  0
LINE
  8
0
 62
7
 10
383.3783851465379
 20
461.1828782368498
 30
0
 11
383.484343578538
 21
461.1828782368498
 31
0
  0
LINE
  8
0
 62
7
 10
374.8783865472379
 20
456.6828784305499
 30
0
 11
374.8783865472379
 21
441.181277630952
 31
0
  0
LINE
  8
0
 62
7
 10
378.3783861896379
 20
460.1828780729497
 30
0
 11
382.4869604310379
 21
460.1828780729497
 31
0
  0
LINE
  8
0
 62
7
 10
472.878383984238
 20
451.1828784603497
 30
0
 11
472.878383984238
 21
441.1828786838498
 31
0
  0
LINE
  8
0
 62
7
 10
471.878385682938
 20
440.1828785199498
 30
0
 11
467.3780763967038
 21
440.1828785199498
 31
0
  0
LINE
  8
0
 62
7
 10
467.3780488137892
 20
452.1828786242498
 30
0
 11
471.8783856829379
 21
452.1828786242498
 31
0
  0
LINE
  8
0
 62
7
 10
382.6806904277379
 20
457.8031514543499
 30
0
 11
383.0254772207379
 21
459.1828779090498
 31
0
  0
LINE
  8
0
 62
7
 10
380.666697909538
 20
452.1747854310498
 30
0
 11
381.1742314597379
 21
453.3544507581498
 31
0
  0
LINE
  8
0
 62
7
 10
383.2410038909379
 20
460.1828780729497
 30
0
 11
382.4869604310379
 21
460.1828780729497
 31
0
  0
LINE
  8
0
 62
7
 10
381.1742314597379
 20
453.3544507581498
 30
0
 11
381.660068919338
 21
453.3544507581498
 31
0
  0
LINE
  8
0
 62
7
 10
385.8783864876378
 20
462.1828784007498
 30
0
 11
461.8783840438379
 21
462.1828784007498
 31
0
  0
LINE
  8
0
 62
7
 10
383.484343578538
 20
461.1828782368498
 30
0
 11
464.3783853849379
 21
461.1828782368498
 31
0
  0
LINE
  8
0
 62
7
 10
383.673405786438
 20
459.1828779090498
 30
0
 11
383.673405786438
 21
456.1828792799498
 31
0
  0
LINE
  8
0
 62
7
 10
381.3783848187379
 20
436.6828784119498
 30
0
 11
423.8783852657379
 21
436.6828784119498
 31
0
  0
LINE
  8
0
 62
7
 10
423.8783852657379
 20
436.6828784119498
 30
0
 11
466.378385712738
 21
436.6828784119498
 31
0
  0
LINE
  8
0
 62
7
 10
466.0967016121381
 20
441.1828786838498
 30
0
 11
466.096701612138
 21
451.1828784603497
 31
0
  0
LINE
  8
0
 62
7
 10
381.660068919338
 20
453.3544507581498
 30
0
 11
381.660068919338
 21
441.1828786838498
 31
0
  0
LINE
  8
0
 62
7
 10
420.8783852396379
 20
452.1828786242498
 30
0
 11
426.8783852918378
 21
452.1828786242498
 31
0
  0
LINE
  8
0
 62
7
 10
426.8783852918378
 20
440.1828785199498
 30
0
 11
420.8783852396379
 21
440.1828785199498
 31
0
  0
LINE
  8
0
 62
7
 10
419.8783850757379
 20
441.1828786838498
 30
0
 11
419.8783850757379
 21
451.1828784603497
 31
0
  0
LINE
  8
0
 62
7
 10
427.8783854557379
 20
451.1828784603497
 30
0
 11
427.8783854557379
 21
441.1828786838498
 31
0
  0
LINE
  8
0
 62
7
 10
402.3783845356379
 20
462.1828784007498
 30
0
 11
402.3783845356379
 21
463.6828777152497
 31
0
  0
LINE
  8
0
 62
7
 10
409.8783848336379
 20
464.6828797418498
 30
0
 11
409.8783848336379
 21
462.1828784007498
 31
0
  0
LINE
  8
0
 62
7
 10
409.8783848336379
 20
464.6828797418498
 30
0
 11
408.8783856010379
 21
464.6828797418498
 31
0
  0
LINE
  8
0
 62
7
 10
409.8783848336379
 20
472.6828773278498
 30
0
 11
409.8783848336379
 21
464.6828797418498
 31
0
  0
LINE
  8
0
 62
7
 10
398.3783857425379
 20
464.6828797418498
 30
0
 11
398.3783857425379
 21
472.6828773278498
 31
0
  0
LINE
  8
0
 62
7
 10
399.3783859065379
 20
464.6828797418498
 30
0
 11
398.3783857425379
 21
464.6828797418498
 31
0
  0
LINE
  8
0
 62
7
 10
408.8783856010379
 20
463.6828777152497
 30
0
 11
408.8783856010379
 21
464.6828797418498
 31
0
  0
LINE
  8
0
 62
7
 10
399.3783859065379
 20
463.6828777152497
 30
0
 11
399.3783859065379
 21
464.6828797418498
 31
0
  0
LINE
  8
0
 62
7
 10
408.8783856010379
 20
463.6828777152497
 30
0
 11
399.3783859065379
 21
463.6828777152497
 31
0
  0
LINE
  8
0
 62
7
 10
399.3783859065379
 20
464.6828797418498
 30
0
 11
408.8783856010379
 21
464.6828797418498
 31
0
  0
LINE
  8
0
 62
7
 10
408.8783856010379
 20
464.6828797418498
 30
0
 11
408.8783856010379
 21
472.6828773278498
 31
0
  0
LINE
  8
0
 62
7
 10
399.3783859065379
 20
472.6828773278498
 30
0
 11
399.3783859065379
 21
464.6828797418498
 31
0
  0
LINE
  8
0
 62
7
 10
404.2624054005379
 20
474.1828803677498
 30
0
 11
404.160827909938
 21
474.1828803677498
 31
0
  0
LINE
  8
0
 62
7
 10
404.160827909938
 20
474.1828803677498
 30
0
 11
404.160827909938
 21
473.6828793544498
 31
0
  0
LINE
  8
0
 62
7
 10
404.617924754938
 20
474.1828803677498
 30
0
 11
404.2624054005379
 21
474.1828803677498
 31
0
  0
LINE
  8
0
 62
7
 10
404.617924754938
 20
474.1828803677498
 30
0
 11
404.617924754938
 21
473.6828793544498
 31
0
  0
LINE
  8
0
 62
7
 10
404.2624054005379
 20
474.1828803677498
 30
0
 11
404.2624054005379
 21
473.6828793544498
 31
0
  0
LINE
  8
0
 62
7
 10
408.0762477120379
 20
474.1828803677498
 30
0
 11
408.0762477120379
 21
473.6828793544498
 31
0
  0
LINE
  8
0
 62
7
 10
408.0762477120379
 20
474.1828803677498
 30
0
 11
404.6342378011378
 21
474.1828803677498
 31
0
  0
LINE
  8
0
 62
7
 10
404.6342378011378
 20
474.1828803677498
 30
0
 11
404.6342378011378
 21
473.6828793544498
 31
0
  0
LINE
  8
0
 62
7
 10
399.3783859065379
 20
472.6828773278498
 30
0
 11
408.8783856010379
 21
472.6828773278498
 31
0
  0
LINE
  8
0
 62
7
 10
399.3783859065379
 20
473.6828793544498
 30
0
 11
408.8783856010379
 21
473.6828793544498
 31
0
  0
LINE
  8
0
 62
7
 10
399.3783859065379
 20
472.6828773278498
 30
0
 11
398.3783857425379
 21
472.6828773278498
 31
0
  0
LINE
  8
0
 62
7
 10
398.3783857425379
 20
473.6828793544498
 30
0
 11
399.3783859065379
 21
473.6828793544498
 31
0
  0
LINE
  8
0
 62
7
 10
398.3783857425379
 20
472.6828773278498
 30
0
 11
398.3783857425379
 21
473.6828793544498
 31
0
  0
LINE
  8
0
 62
7
 10
399.3783859065379
 20
473.6828793544498
 30
0
 11
399.3783859065379
 21
472.6828773278498
 31
0
  0
LINE
  8
0
 62
7
 10
409.8783848336379
 20
472.6828773278498
 30
0
 11
408.8783856010379
 21
472.6828773278498
 31
0
  0
LINE
  8
0
 62
7
 10
409.8783848336379
 20
473.6828793544498
 30
0
 11
409.8783848336379
 21
472.6828773278498
 31
0
  0
LINE
  8
0
 62
7
 10
408.8783856010379
 20
473.6828793544498
 30
0
 11
409.8783848336379
 21
473.6828793544498
 31
0
  0
LINE
  8
0
 62
7
 10
408.8783856010379
 20
472.6828773278498
 30
0
 11
408.8783856010379
 21
473.6828793544498
 31
0
  0
LINE
  8
0
 62
7
 10
385.8783864876378
 20
462.1828784007498
 30
0
 11
385.8783864876378
 21
461.1828782368498
 31
0
  0
LINE
  8
0
 62
7
 10
461.8783840438379
 20
461.1828782368498
 30
0
 11
461.8783840438379
 21
462.1828784007498
 31
0
  0
LINE
  8
0
 62
7
 10
464.3783853849379
 20
456.1828792799498
 30
0
 11
464.3783853849379
 21
461.1828782368498
 31
0
  0
LINE
  8
0
 62
7
 10
381.3783848187379
 20
439.1828783560497
 30
0
 11
381.3783848187379
 21
436.6828784119498
 31
0
  0
LINE
  8
0
 62
7
 10
466.378385712738
 20
436.6828784119498
 30
0
 11
466.378385712738
 21
439.1828783560497
 31
0
  0
LINE
  8
0
 62
7
 10
466.378385712738
 20
453.1828787881498
 30
0
 11
466.378385712738
 21
453.3544507581498
 31
0
  0
LINE
  8
1
 62
2
 10
318.203746994272
 20
350.4268439627116
 30
0
 11
317.9680447338764
 21
350.0290963982942
 31
0
  0
LINE
  8
1
 62
2
 10
317.9680447338764
 20
350.0290963982942
 30
0
 11
317.7323424734809
 21
349.3661837909318
 31
0
  0
LINE
  8
1
 62
2
 10
317.7323424734809
 20
349.3661837909318
 30
0
 11
317.7323424734809
 21
347.2448634473722
 31
0
  0
LINE
  8
1
 62
2
 10
317.7323424734809
 20
347.2448634473722
 30
0
 11
317.9680447338764
 21
346.5819508400098
 31
0
  0
LINE
  8
1
 62
2
 10
317.9680447338764
 20
346.5819508400098
 30
0
 11
318.203746994272
 21
346.1842032755923
 31
0
  0
LINE
  8
1
 62
2
 10
320.7964718586226
 20
346.4493683185373
 30
0
 11
320.7964718586226
 21
348.9684362265144
 31
0
  0
LINE
  8
1
 62
2
 10
320.7964718586226
 20
348.9684362265144
 30
0
 11
323.6248989833688
 21
348.9684362265144
 31
0
  0
LINE
  8
1
 62
2
 10
323.6248989833688
 20
348.9684362265144
 30
0
 11
323.6248989833688
 21
346.4493683185373
 31
0
  0
LINE
  8
1
 62
2
 10
323.6248989833688
 20
346.4493683185373
 30
0
 11
320.7964718586226
 21
346.4493683185373
 31
0
  0
LINE
  8
1
 62
2
 10
321.0321741190181
 20
347.3774459688446
 30
0
 11
321.3857275096114
 21
347.775193533262
 31
0
  0
LINE
  8
1
 62
2
 10
321.3857275096114
 20
347.775193533262
 30
0
 11
321.7392809002047
 21
348.5706886620969
 31
0
  0
LINE
  8
1
 62
2
 10
321.7392809002047
 20
348.5706886620969
 30
0
 11
321.7392809002047
 21
350.0290963982942
 31
0
  0
LINE
  8
1
 62
2
 10
320.4429184680294
 20
350.0290963982942
 30
0
 11
323.9784523739621
 21
350.0290963982942
 31
0
  0
LINE
  8
1
 62
2
 10
322.564238811589
 20
350.0290963982942
 30
0
 11
322.564238811589
 21
347.9077760547345
 31
0
  0
LINE
  8
1
 62
2
 10
322.564238811589
 20
347.9077760547345
 30
0
 11
322.6820899417867
 21
347.6426110117896
 31
0
  0
LINE
  8
1
 62
2
 10
322.6820899417867
 20
347.6426110117896
 30
0
 11
323.2713455927755
 21
347.6426110117896
 31
0
  0
LINE
  8
1
 62
2
 10
323.2713455927755
 20
347.6426110117896
 30
0
 11
323.3891967229733
 21
347.9077760547345
 31
0
  0
LINE
  8
1
 62
2
 10
324.5677080249509
 20
346.4493683185373
 30
0
 11
324.6855591551487
 21
346.8471158829547
 31
0
  0
LINE
  8
1
 62
2
 10
324.6855591551487
 20
346.8471158829547
 30
0
 11
324.8034102853464
 21
348.040358576207
 31
0
  0
LINE
  8
1
 62
2
 10
324.8034102853464
 20
348.040358576207
 30
0
 11
324.8034102853464
 21
350.2942614412391
 31
0
  0
LINE
  8
1
 62
2
 10
324.8034102853464
 20
350.2942614412391
 30
0
 11
328.1032419308837
 21
350.2942614412391
 31
0
  0
LINE
  8
1
 62
2
 10
328.1032419308837
 20
349.3661837909318
 30
0
 11
326.6890283685106
 21
349.3661837909318
 31
0
  0
LINE
  8
1
 62
2
 10
326.453326108115
 20
349.3661837909318
 30
0
 11
325.2748148061374
 21
349.3661837909318
 31
0
  0
LINE
  8
1
 62
2
 10
325.8640704571262
 20
350.0290963982942
 30
0
 11
325.8640704571262
 21
348.040358576207
 31
0
  0
LINE
  8
1
 62
2
 10
325.1569636759397
 20
348.305523619152
 30
0
 11
325.5105170665329
 21
348.7032711835694
 31
0
  0
LINE
  8
1
 62
2
 10
325.5105170665329
 20
348.7032711835694
 30
0
 11
325.8640704571262
 21
349.3661837909318
 31
0
  0
LINE
  8
1
 62
2
 10
326.0997727175217
 20
348.9684362265144
 30
0
 11
326.453326108115
 21
348.5706886620969
 31
0
  0
LINE
  8
1
 62
2
 10
326.453326108115
 20
348.1729410976795
 30
0
 11
326.8068794987083
 21
348.4381061406244
 31
0
  0
LINE
  8
1
 62
2
 10
326.8068794987083
 20
348.4381061406244
 30
0
 11
327.3961351496971
 21
349.3661837909318
 31
0
  0
LINE
  8
1
 62
2
 10
327.3961351496971
 20
350.0290963982942
 30
0
 11
327.3961351496971
 21
348.040358576207
 31
0
  0
LINE
  8
1
 62
2
 10
327.3961351496971
 20
349.3661837909318
 30
0
 11
327.7496885402904
 21
348.8358537050419
 31
0
  0
LINE
  8
1
 62
2
 10
327.7496885402904
 20
348.8358537050419
 30
0
 11
328.3389441912792
 21
348.1729410976795
 31
0
  0
LINE
  8
1
 62
2
 10
327.6318374100926
 20
347.6426110117896
 30
0
 11
325.7462193269285
 21
347.6426110117896
 31
0
  0
LINE
  8
1
 62
2
 10
325.7462193269285
 20
347.6426110117896
 30
0
 11
325.7462193269285
 21
346.3167857970648
 31
0
  0
LINE
  8
1
 62
2
 10
325.7462193269285
 20
346.3167857970648
 30
0
 11
327.6318374100926
 21
346.3167857970648
 31
0
  0
LINE
  8
1
 62
2
 10
327.6318374100926
 20
346.3167857970648
 30
0
 11
327.6318374100926
 21
347.6426110117896
 31
0
  0
LINE
  8
1
 62
2
 10
325.7462193269285
 20
346.9796984044272
 30
0
 11
327.6318374100926
 21
346.9796984044272
 31
0
  0
LINE
  8
1
 62
2
 10
330.6959667952343
 20
346.1842032755923
 30
0
 11
330.6959667952343
 21
349.8965138768217
 31
0
  0
LINE
  8
1
 62
2
 10
332.4637337482006
 20
349.8965138768217
 30
0
 11
328.9281998422679
 21
349.8965138768217
 31
0
  0
LINE
  8
1
 62
2
 10
331.2852224462231
 20
348.9684362265144
 30
0
 11
331.9923292274096
 21
348.1729410976795
 31
0
  0
LINE
  8
1
 62
2
 10
333.5243939199805
 20
348.9684362265144
 30
0
 11
333.6422450501783
 21
349.2336012694593
 31
0
  0
LINE
  8
1
 62
2
 10
333.6422450501783
 20
349.2336012694593
 30
0
 11
334.1136495709693
 21
349.4987663124043
 31
0
  0
LINE
  8
1
 62
2
 10
334.1136495709693
 20
349.4987663124043
 30
0
 11
334.5850540917603
 21
349.6313488338768
 31
0
  0
LINE
  8
1
 62
2
 10
334.5850540917603
 20
349.6313488338768
 30
0
 11
335.4100120031446
 21
349.6313488338768
 31
0
  0
LINE
  8
1
 62
2
 10
335.4100120031446
 20
349.6313488338768
 30
0
 11
335.8814165239357
 21
349.4987663124043
 31
0
  0
LINE
  8
1
 62
2
 10
335.8814165239357
 20
349.4987663124043
 30
0
 11
336.3528210447267
 21
349.2336012694593
 31
0
  0
LINE
  8
1
 62
2
 10
336.3528210447267
 20
349.2336012694593
 30
0
 11
336.4706721749245
 21
348.9684362265144
 31
0
  0
LINE
  8
1
 62
2
 10
336.4706721749245
 20
348.9684362265144
 30
0
 11
336.4706721749245
 21
348.305523619152
 31
0
  0
LINE
  8
1
 62
2
 10
336.4706721749245
 20
348.305523619152
 30
0
 11
336.3528210447267
 21
348.040358576207
 31
0
  0
LINE
  8
1
 62
2
 10
336.3528210447267
 20
348.040358576207
 30
0
 11
335.8814165239357
 21
347.775193533262
 31
0
  0
LINE
  8
1
 62
2
 10
335.8814165239357
 20
347.775193533262
 30
0
 11
333.9957984407715
 21
347.5100284903171
 31
0
  0
LINE
  8
1
 62
2
 10
333.9957984407715
 20
347.5100284903171
 30
0
 11
333.6422450501783
 21
347.2448634473722
 31
0
  0
LINE
  8
1
 62
2
 10
333.6422450501783
 20
347.2448634473722
 30
0
 11
333.5243939199805
 21
346.9796984044272
 31
0
  0
LINE
  8
1
 62
2
 10
333.5243939199805
 20
346.9796984044272
 30
0
 11
333.4065427897828
 21
346.1842032755923
 31
0
  0
LINE
  8
1
 62
2
 10
333.4065427897828
 20
346.1842032755923
 30
0
 11
336.4706721749245
 21
346.1842032755923
 31
0
  0
LINE
  8
1
 62
2
 10
337.5313323467042
 20
349.2336012694593
 30
0
 11
338.7098436486818
 21
349.2336012694593
 31
0
  0
LINE
  8
1
 62
2
 10
338.1205879976931
 20
350.2942614412391
 30
0
 11
338.1205879976931
 21
346.3167857970648
 31
0
  0
LINE
  8
1
 62
2
 10
338.1205879976931
 20
349.2336012694593
 30
0
 11
337.7670346070998
 21
348.1729410976795
 31
0
  0
LINE
  8
1
 62
2
 10
337.7670346070998
 20
348.1729410976795
 30
0
 11
337.5313323467042
 21
347.775193533262
 31
0
  0
LINE
  8
1
 62
2
 10
337.5313323467042
 20
347.775193533262
 30
0
 11
337.4134812165065
 21
347.5100284903171
 31
0
  0
LINE
  8
1
 62
2
 10
338.1205879976931
 20
349.2336012694593
 30
0
 11
338.5919925184841
 21
348.1729410976795
 31
0
  0
LINE
  8
1
 62
2
 10
339.4169504298684
 20
350.1616789197666
 30
0
 11
338.8276947788796
 21
349.2336012694593
 31
0
  0
LINE
  8
1
 62
2
 10
339.6526526902639
 20
349.3661837909318
 30
0
 11
338.9455459090773
 21
348.040358576207
 31
0
  0
LINE
  8
1
 62
2
 10
338.9455459090773
 20
348.040358576207
 30
0
 11
338.5919925184841
 21
347.6426110117896
 31
0
  0
LINE
  8
1
 62
2
 10
339.1812481694728
 20
348.4381061406244
 30
0
 11
339.1812481694728
 21
346.3167857970648
 31
0
  0
LINE
  8
1
 62
2
 10
339.7705038204617
 20
349.8965138768217
 30
0
 11
340.8311639922415
 21
349.8965138768217
 31
0
  0
LINE
  8
1
 62
2
 10
339.6526526902639
 20
348.8358537050419
 30
0
 11
341.066866252637
 21
348.8358537050419
 31
0
  0
LINE
  8
1
 62
2
 10
340.4776106016482
 20
348.8358537050419
 30
0
 11
340.4776106016482
 21
346.5819508400098
 31
0
  0
LINE
  8
1
 62
2
 10
340.4776106016482
 20
346.5819508400098
 30
0
 11
340.3597594714505
 21
346.3167857970648
 31
0
  0
LINE
  8
1
 62
2
 10
340.3597594714505
 20
346.3167857970648
 30
0
 11
340.0062060808572
 21
346.3167857970648
 31
0
  0
LINE
  8
1
 62
2
 10
343.1881865961966
 20
350.4268439627116
 30
0
 11
343.4238888565921
 21
350.0290963982942
 31
0
  0
LINE
  8
1
 62
2
 10
343.4238888565921
 20
350.0290963982942
 30
0
 11
343.6595911169877
 21
349.3661837909318
 31
0
  0
LINE
  8
1
 62
2
 10
343.6595911169877
 20
349.3661837909318
 30
0
 11
343.6595911169877
 21
347.2448634473722
 31
0
  0
LINE
  8
1
 62
2
 10
343.6595911169877
 20
347.2448634473722
 30
0
 11
343.4238888565921
 21
346.5819508400098
 31
0
  0
LINE
  8
1
 62
2
 10
343.4238888565921
 20
346.5819508400098
 30
0
 11
343.1881865961966
 21
346.1842032755923
 31
0
  0
LINE
  8
1
 62
2
 10
358.2768690195175
 20
348.5114217109181
 30
0
 11
355.7312846072459
 21
348.5114217109181
 31
0
  0
LINE
  8
1
 62
2
 10
358.7011330882294
 20
350.4206100201217
 30
0
 11
355.7312846072459
 21
350.4206100201217
 31
0
  0
LINE
  8
1
 62
2
 10
355.7312846072459
 20
350.4206100201217
 30
0
 11
355.7312846072459
 21
346.1779693330025
 31
0
  0
LINE
  8
1
 62
2
 10
355.7312846072459
 20
346.1779693330025
 30
0
 11
358.7011330882294
 21
346.1779693330025
 31
0
  0
LINE
  8
1
 62
2
 10
351.9125371825547
 20
352.7386567011623
 30
0
 11
351.9125371825547
 21
356.9812973882816
 31
0
  0
LINE
  8
1
 62
2
 10
352.5017928335435
 20
355.7880546950293
 30
0
 11
351.2054304013682
 21
355.7880546950293
 31
0
  0
LINE
  8
1
 62
2
 10
351.0875792711705
 20
354.0644819158871
 30
0
 11
351.5589837919615
 21
354.859977044722
 31
0
  0
LINE
  8
1
 62
2
 10
351.5589837919615
 20
354.859977044722
 30
0
 11
351.9125371825547
 21
355.6554721735568
 31
0
  0
LINE
  8
1
 62
2
 10
351.9125371825547
 20
355.6554721735568
 30
0
 11
352.5017928335435
 21
354.7273945232495
 31
0
  0
LINE
  8
1
 62
2
 10
352.6196439637413
 20
353.5341518299972
 30
0
 11
353.3267507449278
 21
354.329646958832
 31
0
  0
LINE
  8
1
 62
2
 10
353.3267507449278
 20
354.329646958832
 30
0
 11
353.9160063959166
 21
355.5228896520844
 31
0
  0
LINE
  8
1
 62
2
 10
354.6231131771032
 20
355.6554721735568
 30
0
 11
352.8553462241368
 21
355.6554721735568
 31
0
  0
LINE
  8
1
 62
2
 10
353.9160063959166
 20
356.8487148668091
 30
0
 11
354.0338575261144
 21
353.0038217441073
 31
0
  0
LINE
  8
1
 62
2
 10
354.0338575261144
 20
353.0038217441073
 30
0
 11
353.6803041355211
 21
353.0038217441073
 31
0
  0
LINE
  8
1
 62
2
 10
355.3302199582898
 20
353.5341518299972
 30
0
 11
355.6837733488831
 21
354.1970644373596
 31
0
  0
LINE
  8
1
 62
2
 10
355.6837733488831
 20
354.1970644373596
 30
0
 11
356.1551778696741
 21
355.3903071306119
 31
0
  0
LINE
  8
1
 62
2
 10
356.9801357810584
 20
355.3903071306119
 30
0
 11
355.3302199582898
 21
355.3903071306119
 31
0
  0
LINE
  8
1
 62
2
 10
355.4480710884875
 20
356.4509673023917
 30
0
 11
355.8016244790808
 21
355.9206372165018
 31
0
  0
LINE
  8
1
 62
2
 10
356.5087312602673
 20
356.0532197379743
 30
0
 11
356.7444335206628
 21
356.5835498238642
 31
0
  0
LINE
  8
1
 62
2
 10
356.1551778696741
 20
356.8487148668091
 30
0
 11
356.1551778696741
 21
352.8712392226348
 31
0
  0
LINE
  8
1
 62
2
 10
356.5087312602673
 20
354.859977044722
 30
0
 11
356.7444335206628
 21
354.329646958832
 31
0
  0
LINE
  8
1
 62
2
 10
356.9801357810584
 20
354.1970644373596
 30
0
 11
358.9836049944203
 21
354.594812001777
 31
0
  0
LINE
  8
1
 62
2
 10
357.6872425622449
 20
355.1251420876669
 30
0
 11
357.3336891716517
 21
355.6554721735568
 31
0
  0
LINE
  8
1
 62
2
 10
357.6872425622449
 20
356.1858022594468
 30
0
 11
357.3336891716517
 21
356.7161323453366
 31
0
  0
LINE
  8
1
 62
2
 10
358.2764982132337
 20
356.9812973882816
 30
0
 11
358.2764982132337
 21
352.7386567011623
 31
0
  0
LINE
  8
1
 62
2
 10
359.6907117756068
 20
353.0038217441073
 30
0
 11
359.6907117756068
 21
354.0644819158871
 31
0
  0
LINE
  8
1
 62
2
 10
359.6907117756068
 20
354.0644819158871
 30
0
 11
360.6335208171889
 21
354.0644819158871
 31
0
  0
LINE
  8
1
 62
2
 10
360.6335208171889
 20
354.0644819158871
 30
0
 11
360.6335208171889
 21
353.0038217441073
 31
0
  0
LINE
  8
1
 62
2
 10
360.6335208171889
 20
353.0038217441073
 30
0
 11
359.6907117756068
 21
353.0038217441073
 31
0
  0
LINE
  8
1
 62
2
 10
359.6907117756068
 20
354.594812001777
 30
0
 11
360.6335208171889
 21
354.594812001777
 31
0
  0
LINE
  8
1
 62
2
 10
360.6335208171889
 20
355.2577246091394
 30
0
 11
359.6907117756068
 21
355.2577246091394
 31
0
  0
LINE
  8
1
 62
2
 10
359.4550095152113
 20
355.7880546950293
 30
0
 11
360.9870742077821
 21
355.7880546950293
 31
0
  0
LINE
  8
1
 62
2
 10
359.572860645409
 20
356.4509673023917
 30
0
 11
360.6335208171889
 21
356.4509673023917
 31
0
  0
LINE
  8
1
 62
2
 10
361.3406275983754
 20
356.3183847809192
 30
0
 11
362.6369900305508
 21
356.3183847809192
 31
0
  0
LINE
  8
1
 62
2
 10
362.6369900305508
 20
356.3183847809192
 30
0
 11
362.6369900305508
 21
354.9925595661944
 31
0
  0
LINE
  8
1
 62
2
 10
362.6369900305508
 20
354.9925595661944
 30
0
 11
361.3406275983754
 21
354.9925595661944
 31
0
  0
LINE
  8
1
 62
2
 10
361.3406275983754
 20
354.9925595661944
 30
0
 11
361.3406275983754
 21
353.0038217441073
 31
0
  0
LINE
  8
1
 62
2
 10
361.3406275983754
 20
353.0038217441073
 30
0
 11
362.990543421144
 21
353.0038217441073
 31
0
  0
LINE
  8
1
 62
2
 10
362.990543421144
 20
353.0038217441073
 30
0
 11
362.990543421144
 21
353.4015693085247
 31
0
  0
LINE
  8
1
 62
2
 10
364.6404592439126
 20
356.7161323453366
 30
0
 11
364.6404592439126
 21
355.7880546950293
 31
0
  0
LINE
  8
1
 62
2
 10
364.6404592439126
 20
355.7880546950293
 30
0
 11
366.5260773270767
 21
355.7880546950293
 31
0
  0
LINE
  8
1
 62
2
 10
366.5260773270767
 20
355.7880546950293
 30
0
 11
366.5260773270767
 21
356.7161323453366
 31
0
  0
LINE
  8
1
 62
2
 10
366.5260773270767
 20
356.7161323453366
 30
0
 11
364.6404592439126
 21
356.7161323453366
 31
0
  0
LINE
  8
1
 62
2
 10
363.8155013325283
 20
355.1251420876669
 30
0
 11
367.2331841082633
 21
355.1251420876669
 31
0
  0
LINE
  8
1
 62
2
 10
365.1118637647036
 20
355.1251420876669
 30
0
 11
364.7583103741104
 21
353.7993168729421
 31
0
  0
LINE
  8
1
 62
2
 10
364.8761615043081
 20
354.329646958832
 30
0
 11
366.5260773270767
 21
354.329646958832
 31
0
  0
LINE
  8
1
 62
2
 10
366.5260773270767
 20
354.329646958832
 30
0
 11
366.2903750666812
 21
353.5341518299972
 31
0
  0
LINE
  8
1
 62
2
 10
366.2903750666812
 20
353.5341518299972
 30
0
 11
365.9368216760879
 21
352.8712392226348
 31
0
  0
LINE
  8
1
 62
2
 10
365.9368216760879
 20
352.8712392226348
 30
0
 11
365.7011194156924
 21
352.7386567011623
 31
0
  0
LINE
  8
1
 62
2
 10
365.7011194156924
 20
352.7386567011623
 30
0
 11
365.2297148949014
 21
353.0038217441073
 31
0
  0
LINE
  8
1
 62
2
 10
323.9784523739621
 20
353.2604840534704
 30
0
 11
325.2748148061374
 21
353.7908141393603
 31
0
  0
LINE
  8
1
 62
2
 10
325.0391125457419
 20
353.9233966608328
 30
0
 11
325.1569636759397
 21
354.5863092681952
 31
0
  0
LINE
  8
1
 62
2
 10
325.2748148061374
 20
354.9840568326126
 30
0
 11
324.0963035041598
 21
354.9840568326126
 31
0
  0
LINE
  8
1
 62
2
 10
324.2141546343576
 20
355.646969439975
 30
0
 11
325.2748148061374
 21
355.646969439975
 31
0
  0
LINE
  8
1
 62
2
 10
325.3926659363352
 20
356.3098820473374
 30
0
 11
324.6855591551486
 21
357.1053771761722
 31
0
  0
LINE
  8
1
 62
2
 10
324.6855591551486
 20
357.1053771761722
 30
0
 11
323.7427501135666
 21
355.2492218755576
 31
0
  0
LINE
  8
1
 62
2
 10
324.0963035041598
 20
354.5863092681952
 30
0
 11
324.3320057645553
 21
353.9233966608328
 31
0
  0
LINE
  8
1
 62
2
 10
324.6855591551486
 20
353.5256490964154
 30
0
 11
324.6855591551486
 21
355.646969439975
 31
0
  0
LINE
  8
1
 62
2
 10
325.3926659363352
 20
355.5143869185025
 30
0
 11
327.5139862798948
 21
355.5143869185025
 31
0
  0
LINE
  8
1
 62
2
 10
327.5139862798948
 20
354.7188917896676
 30
0
 11
325.5105170665329
 21
354.7188917896676
 31
0
  0
LINE
  8
1
 62
2
 10
325.3926659363352
 20
353.3930665749429
 30
0
 11
325.8640704571262
 21
354.1885617037777
 31
0
  0
LINE
  8
1
 62
2
 10
325.8640704571262
 20
354.1885617037777
 30
0
 11
326.2176238477195
 21
355.5143869185025
 31
0
  0
LINE
  8
1
 62
2
 10
326.2176238477195
 20
355.5143869185025
 30
0
 11
326.3354749779172
 21
357.1053771761722
 31
0
  0
LINE
  8
1
 62
2
 10
325.5105170665329
 20
356.7076296117548
 30
0
 11
327.2782840194993
 21
356.7076296117548
 31
0
  0
LINE
  8
1
 62
2
 10
327.2782840194993
 20
356.0447170043924
 30
0
 11
325.6283681967307
 21
356.0447170043924
 31
0
  0
LINE
  8
1
 62
2
 10
327.0425817591038
 20
355.2492218755576
 30
0
 11
327.0425817591038
 21
353.1279015319979
 31
0
  0
LINE
  8
1
 62
2
 10
327.0425817591038
 20
353.1279015319979
 30
0
 11
326.5711772383128
 21
353.1279015319979
 31
0
  0
LINE
  8
1
 62
2
 10
326.5711772383128
 20
353.6582316178878
 30
0
 11
326.3354749779172
 21
354.3211442252502
 31
0
  0
LINE
  8
1
 62
2
 10
328.2210930610814
 20
353.5256490964154
 30
0
 11
328.8103487120702
 21
354.0559791823052
 31
0
  0
LINE
  8
1
 62
2
 10
328.8103487120702
 20
354.0559791823052
 30
0
 11
328.8103487120702
 21
355.5143869185025
 31
0
  0
LINE
  8
1
 62
2
 10
328.8103487120702
 20
355.5143869185025
 30
0
 11
328.1032419308837
 21
355.5143869185025
 31
0
  0
LINE
  8
1
 62
2
 10
328.8103487120702
 20
354.0559791823052
 30
0
 11
329.0460509724657
 21
353.5256490964154
 31
0
  0
LINE
  8
1
 62
2
 10
329.0460509724657
 20
353.5256490964154
 30
0
 11
329.2817532328612
 21
353.3930665749429
 31
0
  0
LINE
  8
1
 62
2
 10
329.2817532328612
 20
353.3930665749429
 30
0
 11
331.6387758368164
 21
353.3930665749429
 31
0
  0
LINE
  8
1
 62
2
 10
331.0495201858276
 20
354.0559791823052
 30
0
 11
331.0495201858276
 21
355.1166393540851
 31
0
  0
LINE
  8
1
 62
2
 10
331.0495201858276
 20
355.1166393540851
 30
0
 11
329.7531577536523
 21
355.1166393540851
 31
0
  0
LINE
  8
1
 62
2
 10
329.7531577536523
 20
355.1166393540851
 30
0
 11
329.7531577536523
 21
354.0559791823052
 31
0
  0
LINE
  8
1
 62
2
 10
329.7531577536523
 20
354.0559791823052
 30
0
 11
331.0495201858276
 21
354.0559791823052
 31
0
  0
LINE
  8
1
 62
2
 10
331.5209247066186
 20
355.646969439975
 30
0
 11
329.2817532328612
 21
355.646969439975
 31
0
  0
LINE
  8
1
 62
2
 10
330.342413404641
 20
355.646969439975
 30
0
 11
330.342413404641
 21
357.3705422191172
 31
0
  0
LINE
  8
1
 62
2
 10
331.2852224462231
 20
356.5750470902823
 30
0
 11
329.5174554932567
 21
356.5750470902823
 31
0
  0
LINE
  8
1
 62
2
 10
329.7531577536523
 20
357.2379596976447
 30
0
 11
329.5174554932567
 21
356.5750470902823
 31
0
  0
LINE
  8
1
 62
2
 10
329.5174554932567
 20
356.5750470902823
 30
0
 11
329.2817532328612
 21
356.1772995258649
 31
0
  0
LINE
  8
1
 62
2
 10
328.8103487120702
 20
356.7076296117548
 30
0
 11
328.4567953214769
 21
357.2379596976447
 31
0
  0
LINE
  8
1
 62
2
 10
328.2210930610814
 20
353.5256490964154
 30
0
 11
328.1032419308837
 21
353.3930665749429
 31
0
  0
LINE
  8
1
 62
2
 10
333.4065427897828
 20
357.3705422191172
 30
0
 11
333.1708405293872
 21
356.9727946546998
 31
0
  0
LINE
  8
1
 62
2
 10
333.1708405293872
 20
356.9727946546998
 30
0
 11
332.8172871387939
 21
356.4424645688098
 31
0
  0
LINE
  8
1
 62
2
 10
332.8172871387939
 20
356.4424645688098
 30
0
 11
332.4637337482006
 21
356.0447170043924
 31
0
  0
LINE
  8
1
 62
2
 10
333.0529893991895
 20
356.7076296117548
 30
0
 11
335.4100120031446
 21
356.7076296117548
 31
0
  0
LINE
  8
1
 62
2
 10
334.1136495709692
 20
356.7076296117548
 30
0
 11
334.1136495709692
 21
353.1279015319979
 31
0
  0
LINE
  8
1
 62
2
 10
332.9351382689917
 20
355.646969439975
 30
0
 11
335.2921608729469
 21
355.646969439975
 31
0
  0
LINE
  8
1
 62
2
 10
332.9351382689917
 20
355.5143869185025
 30
0
 11
332.9351382689917
 21
354.5863092681952
 31
0
  0
LINE
  8
1
 62
2
 10
332.2280314878051
 20
354.5863092681952
 30
0
 11
335.9992676541334
 21
354.5863092681952
 31
0
  0
LINE
  8
1
 62
2
 10
327.8356314669895
 20
431.9912549114142
 30
0
 11
330.5854911716039
 21
431.9912549114142
 31
0
  0
LINE
  8
1
 62
2
 10
329.265558513389
 20
431.9912549114142
 30
0
 11
329.265558513389
 21
434.3423849588595
 31
0
  0
LINE
  8
1
 62
2
 10
328.4955977960969
 20
434.3423849588595
 30
0
 11
330.035519230681
 21
434.3423849588595
 31
0
  0
LINE
  8
1
 62
2
 10
330.3655023952347
 20
433.5999228386136
 30
0
 11
328.1656146315432
 21
433.5999228386136
 31
0
  0
LINE
  8
1
 62
2
 10
328.4955977960969
 20
433.104948091783
 30
0
 11
328.7155865724661
 21
432.4862296582448
 31
0
  0
LINE
  8
1
 62
2
 10
329.8155304543118
 20
432.4862296582448
 30
0
 11
330.035519230681
 21
433.104948091783
 31
0
  0
LINE
  8
1
 62
2
 10
327.5056483024358
 20
433.8474102120289
 30
0
 11
327.9456258551741
 21
434.2186412721518
 31
0
  0
LINE
  8
1
 62
2
 10
327.9456258551741
 20
434.2186412721518
 30
0
 11
328.7155865724661
 21
435.0848470791054
 31
0
  0
LINE
  8
1
 62
2
 10
328.7155865724661
 20
435.0848470791054
 30
0
 11
329.265558513389
 21
435.8273091993513
 31
0
  0
LINE
  8
1
 62
2
 10
329.265558513389
 20
435.8273091993513
 30
0
 11
329.8155304543118
 21
435.0848470791054
 31
0
  0
LINE
  8
1
 62
2
 10
329.8155304543118
 20
435.0848470791054
 30
0
 11
330.5854911716039
 21
434.2186412721518
 31
0
  0
LINE
  8
1
 62
2
 10
330.5854911716039
 20
434.2186412721518
 30
0
 11
331.0254687243422
 21
433.8474102120289
 31
0
  0
LINE
  8
1
 62
2
 10
331.7954294416342
 20
431.9912549114142
 30
0
 11
331.7954294416342
 21
435.5798218259359
 31
0
  0
LINE
  8
1
 62
2
 10
331.7954294416342
 20
435.5798218259359
 30
0
 11
332.8953733234799
 21
435.5798218259359
 31
0
  0
LINE
  8
1
 62
2
 10
332.8953733234799
 20
435.5798218259359
 30
0
 11
332.8953733234799
 21
434.3423849588595
 31
0
  0
LINE
  8
1
 62
2
 10
332.8953733234799
 20
434.3423849588595
 30
0
 11
331.7954294416342
 21
434.3423849588595
 31
0
  0
LINE
  8
1
 62
2
 10
332.8953733234799
 20
434.9611033923977
 30
0
 11
331.7954294416342
 21
434.9611033923977
 31
0
  0
LINE
  8
1
 62
2
 10
334.2153059816948
 20
431.9912549114142
 30
0
 11
334.5452891462485
 21
431.9912549114142
 31
0
  0
LINE
  8
1
 62
2
 10
334.5452891462485
 20
431.9912549114142
 30
0
 11
334.6552835344331
 21
432.1149985981219
 31
0
  0
LINE
  8
1
 62
2
 10
334.6552835344331
 20
432.1149985981219
 30
0
 11
334.6552835344331
 21
435.5798218259359
 31
0
  0
LINE
  8
1
 62
2
 10
334.6552835344331
 20
435.5798218259359
 30
0
 11
333.5553396525874
 21
435.5798218259359
 31
0
  0
LINE
  8
1
 62
2
 10
333.5553396525874
 20
435.5798218259359
 30
0
 11
333.5553396525874
 21
434.3423849588595
 31
0
  0
LINE
  8
1
 62
2
 10
333.5553396525874
 20
434.3423849588595
 30
0
 11
334.6552835344331
 21
434.3423849588595
 31
0
  0
LINE
  8
1
 62
2
 10
333.5553396525874
 20
434.9611033923977
 30
0
 11
334.6552835344331
 21
434.9611033923977
 31
0
  0
LINE
  8
1
 62
2
 10
339.1870523276376
 20
434.2433900094933
 30
0
 11
340.1770018212987
 21
434.2433900094933
 31
0
  0
LINE
  8
1
 62
2
 10
338.5930826314408
 20
435.8273091993513
 30
0
 11
340.0780068719326
 21
435.8273091993513
 31
0
  0
LINE
  8
1
 62
2
 10
340.0780068719326
 20
435.8273091993513
 30
0
 11
340.5729816187632
 21
435.7283142499851
 31
0
  0
LINE
  8
1
 62
2
 10
340.5729816187632
 20
435.7283142499851
 30
0
 11
340.8699664668615
 21
435.5303243512529
 31
0
  0
LINE
  8
1
 62
2
 10
340.8699664668615
 20
435.5303243512529
 30
0
 11
340.9689614162276
 21
435.2333395031545
 31
0
  0
LINE
  8
1
 62
2
 10
340.9689614162276
 20
435.2333395031545
 30
0
 11
340.9689614162276
 21
434.9363546550562
 31
0
  0
LINE
  8
1
 62
2
 10
340.9689614162276
 20
434.9363546550562
 30
0
 11
340.8699664668615
 21
434.6393698069578
 31
0
  0
LINE
  8
1
 62
2
 10
340.8699664668615
 20
434.6393698069578
 30
0
 11
340.6719765681293
 21
434.4413799082256
 31
0
  0
LINE
  8
1
 62
2
 10
340.6719765681293
 20
434.4413799082256
 30
0
 11
340.4739866693971
 21
434.3423849588595
 31
0
  0
LINE
  8
1
 62
2
 10
340.4739866693971
 20
434.3423849588595
 30
0
 11
340.1770018212987
 21
434.2433900094933
 31
0
  0
LINE
  8
1
 62
2
 10
340.1770018212987
 20
434.2433900094933
 30
0
 11
340.5729816187632
 21
434.1443950601272
 31
0
  0
LINE
  8
1
 62
2
 10
340.5729816187632
 20
434.1443950601272
 30
0
 11
340.7709715174954
 21
433.946405161395
 31
0
  0
LINE
  8
1
 62
2
 10
340.7709715174954
 20
433.946405161395
 30
0
 11
340.8699664668615
 21
433.7484152626628
 31
0
  0
LINE
  8
1
 62
2
 10
340.8699664668615
 20
433.7484152626628
 30
0
 11
340.9689614162276
 21
433.3524354651983
 31
0
  0
LINE
  8
1
 62
2
 10
340.9689614162276
 20
433.3524354651983
 30
0
 11
340.9689614162276
 21
432.8574607183678
 31
0
  0
LINE
  8
1
 62
2
 10
340.9689614162276
 20
432.8574607183678
 30
0
 11
340.8699664668615
 21
432.4614809209033
 31
0
  0
LINE
  8
1
 62
2
 10
340.8699664668615
 20
432.4614809209033
 30
0
 11
340.6719765681293
 21
432.1644960728049
 31
0
  0
LINE
  8
1
 62
2
 10
340.6719765681293
 20
432.1644960728049
 30
0
 11
340.374991720031
 21
431.9665061740727
 31
0
  0
LINE
  8
1
 62
2
 10
340.374991720031
 20
431.9665061740727
 30
0
 11
340.0780068719326
 21
431.8675112247066
 31
0
  0
LINE
  8
1
 62
2
 10
340.0780068719326
 20
431.8675112247066
 30
0
 11
338.5930826314408
 21
431.8675112247066
 31
0
  0
LINE
  8
1
 62
2
 10
344.4337846440417
 20
433.6494203132967
 30
0
 11
343.047855352916
 21
433.6494203132967
 31
0
  0
LINE
  8
1
 62
2
 10
343.047855352916
 20
433.6494203132967
 30
0
 11
342.7508705048177
 21
433.7484152626628
 31
0
  0
LINE
  8
1
 62
2
 10
342.7508705048177
 20
433.7484152626628
 30
0
 11
342.4538856567194
 21
433.946405161395
 31
0
  0
LINE
  8
1
 62
2
 10
342.4538856567194
 20
433.946405161395
 30
0
 11
342.2558957579871
 21
434.2433900094933
 31
0
  0
LINE
  8
1
 62
2
 10
342.2558957579871
 20
434.2433900094933
 30
0
 11
342.156900808621
 21
434.6393698069578
 31
0
  0
LINE
  8
1
 62
2
 10
342.156900808621
 20
434.6393698069578
 30
0
 11
342.156900808621
 21
434.8373597056901
 31
0
  0
LINE
  8
1
 62
2
 10
342.156900808621
 20
434.8373597056901
 30
0
 11
342.2558957579871
 21
435.2333395031545
 31
0
  0
LINE
  8
1
 62
2
 10
342.2558957579871
 20
435.2333395031545
 30
0
 11
342.4538856567194
 21
435.5303243512529
 31
0
  0
LINE
  8
1
 62
2
 10
342.4538856567194
 20
435.5303243512529
 30
0
 11
342.7508705048177
 21
435.7283142499851
 31
0
  0
LINE
  8
1
 62
2
 10
342.7508705048177
 20
435.7283142499851
 30
0
 11
343.047855352916
 21
435.8273091993513
 31
0
  0
LINE
  8
1
 62
2
 10
343.047855352916
 20
435.8273091993513
 30
0
 11
343.6418250491128
 21
435.8273091993513
 31
0
  0
LINE
  8
1
 62
2
 10
343.6418250491128
 20
435.8273091993513
 30
0
 11
343.9388098972111
 21
435.7283142499851
 31
0
  0
LINE
  8
1
 62
2
 10
343.9388098972111
 20
435.7283142499851
 30
0
 11
344.2357947453095
 21
435.5303243512529
 31
0
  0
LINE
  8
1
 62
2
 10
344.2357947453095
 20
435.5303243512529
 30
0
 11
344.4337846440417
 21
435.2333395031545
 31
0
  0
LINE
  8
1
 62
2
 10
344.4337846440417
 20
435.2333395031545
 30
0
 11
344.5327795934078
 21
434.8373597056901
 31
0
  0
LINE
  8
1
 62
2
 10
344.5327795934078
 20
434.8373597056901
 30
0
 11
344.5327795934078
 21
434.1443950601272
 31
0
  0
LINE
  8
1
 62
2
 10
344.5327795934078
 20
434.1443950601272
 30
0
 11
344.4337846440417
 21
433.6494203132967
 31
0
  0
LINE
  8
1
 62
2
 10
344.4337846440417
 20
433.6494203132967
 30
0
 11
344.3347896946756
 21
433.2534405158322
 31
0
  0
LINE
  8
1
 62
2
 10
344.3347896946756
 20
433.2534405158322
 30
0
 11
344.0378048465772
 21
432.8574607183678
 31
0
  0
LINE
  8
1
 62
2
 10
344.0378048465772
 20
432.8574607183678
 30
0
 11
343.3448402010144
 21
432.263491022171
 31
0
  0
LINE
  8
1
 62
2
 10
343.3448402010144
 20
432.263491022171
 30
0
 11
342.4538856567194
 21
431.8675112247066
 31
0
  0
LINE
  8
1
 62
2
 10
345.7207189858012
 20
431.8675112247066
 30
0
 11
345.7207189858012
 21
431.9665061740727
 31
0
  0
LINE
  8
1
 62
2
 10
345.7207189858012
 20
431.9665061740727
 30
0
 11
345.8197139351673
 21
431.9665061740727
 31
0
  0
LINE
  8
1
 62
2
 10
345.8197139351673
 20
431.9665061740727
 30
0
 11
345.8197139351673
 21
431.8675112247066
 31
0
  0
LINE
  8
1
 62
2
 10
345.8197139351673
 20
431.8675112247066
 30
0
 11
345.7207189858012
 21
431.8675112247066
 31
0
  0
LINE
  8
1
 62
2
 10
349.3835321123475
 20
433.3524354651983
 30
0
 11
349.2845371629814
 21
432.7584657690016
 31
0
  0
LINE
  8
1
 62
2
 10
349.2845371629814
 20
432.7584657690016
 30
0
 11
349.0865472642492
 21
432.3624859715371
 31
0
  0
LINE
  8
1
 62
2
 10
349.0865472642492
 20
432.3624859715371
 30
0
 11
348.8885573655169
 21
432.1644960728049
 31
0
  0
LINE
  8
1
 62
2
 10
348.8885573655169
 20
432.1644960728049
 30
0
 11
348.5915725174186
 21
431.9665061740727
 31
0
  0
LINE
  8
1
 62
2
 10
348.5915725174186
 20
431.9665061740727
 30
0
 11
348.2945876693202
 21
431.8675112247066
 31
0
  0
LINE
  8
1
 62
2
 10
348.2945876693202
 20
431.8675112247066
 30
0
 11
348.096597770588
 21
431.8675112247066
 31
0
  0
LINE
  8
1
 62
2
 10
348.096597770588
 20
431.8675112247066
 30
0
 11
347.7996129224896
 21
431.9665061740727
 31
0
  0
LINE
  8
1
 62
2
 10
347.7996129224896
 20
431.9665061740727
 30
0
 11
347.5026280743913
 21
432.1644960728049
 31
0
  0
LINE
  8
1
 62
2
 10
347.5026280743913
 20
432.1644960728049
 30
0
 11
347.3046381756591
 21
432.3624859715371
 31
0
  0
LINE
  8
1
 62
2
 10
347.3046381756591
 20
432.3624859715371
 30
0
 11
347.1066482769268
 21
432.7584657690016
 31
0
  0
LINE
  8
1
 62
2
 10
347.1066482769268
 20
432.7584657690016
 30
0
 11
347.0076533275607
 21
433.3524354651983
 31
0
  0
LINE
  8
1
 62
2
 10
347.0076533275607
 20
433.3524354651983
 30
0
 11
347.0076533275607
 21
434.3423849588595
 31
0
  0
LINE
  8
1
 62
2
 10
347.0076533275607
 20
434.3423849588595
 30
0
 11
347.1066482769268
 21
434.9363546550562
 31
0
  0
LINE
  8
1
 62
2
 10
347.1066482769268
 20
434.9363546550562
 30
0
 11
347.3046381756591
 21
435.3323344525206
 31
0
  0
LINE
  8
1
 62
2
 10
347.3046381756591
 20
435.3323344525206
 30
0
 11
347.5026280743913
 21
435.5303243512529
 31
0
  0
LINE
  8
1
 62
2
 10
347.5026280743913
 20
435.5303243512529
 30
0
 11
347.7996129224896
 21
435.7283142499851
 31
0
  0
LINE
  8
1
 62
2
 10
347.7996129224896
 20
435.7283142499851
 30
0
 11
348.096597770588
 21
435.8273091993513
 31
0
  0
LINE
  8
1
 62
2
 10
348.096597770588
 20
435.8273091993513
 30
0
 11
348.2945876693202
 21
435.8273091993513
 31
0
  0
LINE
  8
1
 62
2
 10
348.2945876693202
 20
435.8273091993513
 30
0
 11
348.5915725174186
 21
435.7283142499851
 31
0
  0
LINE
  8
1
 62
2
 10
348.5915725174186
 20
435.7283142499851
 30
0
 11
348.8885573655169
 21
435.5303243512529
 31
0
  0
LINE
  8
1
 62
2
 10
348.8885573655169
 20
435.5303243512529
 30
0
 11
349.0865472642492
 21
435.3323344525206
 31
0
  0
LINE
  8
1
 62
2
 10
349.0865472642492
 20
435.3323344525206
 30
0
 11
349.2845371629814
 21
434.9363546550562
 31
0
  0
LINE
  8
1
 62
2
 10
349.2845371629814
 20
434.9363546550562
 30
0
 11
349.3835321123475
 21
434.3423849588595
 31
0
  0
LINE
  8
1
 62
2
 10
349.3835321123475
 20
434.3423849588595
 30
0
 11
349.3835321123475
 21
433.3524354651983
 31
0
  0
LINE
  8
1
 62
2
 10
357.2371314287261
 20
434.7136160189824
 30
0
 11
357.2371314287261
 21
432.1149985981219
 31
0
  0
LINE
  8
1
 62
2
 10
357.2371314287261
 20
432.1149985981219
 30
0
 11
360.096985521525
 21
432.1149985981219
 31
0
  0
LINE
  8
1
 62
2
 10
360.096985521525
 20
432.1149985981219
 30
0
 11
360.096985521525
 21
434.7136160189824
 31
0
  0
LINE
  8
1
 62
2
 10
358.6670584751256
 20
435.5798218259359
 30
0
 11
358.6670584751256
 21
432.1149985981219
 31
0
  0
LINE
  8
1
 62
2
 10
360.866946238817
 20
434.6393698069578
 30
0
 11
362.0548856312104
 21
435.8273091993513
 31
0
  0
LINE
  8
1
 62
2
 10
362.0548856312104
 20
435.8273091993513
 30
0
 11
362.0548856312104
 21
431.8675112247066
 31
0
  0
LINE
  8
1
 62
2
 10
365.024734112194
 20
435.8273091993513
 30
0
 11
363.2428250236039
 21
432.6594708196355
 31
0
  0
LINE
  8
1
 62
2
 10
363.2428250236039
 20
432.6594708196355
 30
0
 11
365.6187038083907
 21
432.6594708196355
 31
0
  0
LINE
  8
1
 62
2
 10
365.024734112194
 20
433.4514304145644
 30
0
 11
365.024734112194
 21
431.8675112247066
 31
0
  0
LINE
  8
1
 62
2
 10
327.9527818707393
 20
439.450112999187
 30
0
 11
331.4726022926457
 21
439.450112999187
 31
0
  0
LINE
  8
1
 62
2
 10
330.9226303517228
 20
441.8012430466322
 30
0
 11
329.6026976935079
 21
441.8012430466322
 31
0
  0
LINE
  8
1
 62
2
 10
329.6026976935079
 20
443.2861672871239
 30
0
 11
329.6026976935079
 21
439.450112999187
 31
0
  0
LINE
  8
1
 62
2
 10
332.1325686217531
 20
439.9450877460175
 30
0
 11
332.5725461744914
 21
440.4400624928481
 31
0
  0
LINE
  8
1
 62
2
 10
332.5725461744914
 20
440.4400624928481
 30
0
 11
333.0125237272297
 21
441.182524613094
 31
0
  0
LINE
  8
1
 62
2
 10
333.0125237272297
 20
441.182524613094
 30
0
 11
333.2325125035989
 21
441.9249867333398
 31
0
  0
LINE
  8
1
 62
2
 10
333.2325125035989
 20
441.9249867333398
 30
0
 11
332.1325686217531
 21
441.9249867333398
 31
0
  0
LINE
  8
1
 62
2
 10
333.7824844445218
 20
443.1624236004163
 30
0
 11
333.7824844445218
 21
439.3263693124793
 31
0
  0
LINE
  8
1
 62
2
 10
333.7824844445218
 20
439.3263693124793
 30
0
 11
333.452501279968
 21
439.450112999187
 31
0
  0
LINE
  8
1
 62
2
 10
335.1024171027366
 20
442.2962177934628
 30
0
 11
334.3324563854446
 21
441.6774993599246
 31
0
  0
LINE
  8
1
 62
2
 10
334.1124676090755
 20
442.1724741067552
 30
0
 11
334.4424507736292
 21
441.3062682998016
 31
0
  0
LINE
  8
1
 62
2
 10
334.4424507736292
 20
441.3062682998016
 30
0
 11
334.8824283263675
 21
440.5638061795557
 31
0
  0
LINE
  8
1
 62
2
 10
334.8824283263675
 20
440.5638061795557
 30
0
 11
335.4324002672904
 21
439.9450877460175
 31
0
  0
LINE
  8
1
 62
2
 10
340.8221252883345
 20
443.2861672871239
 30
0
 11
339.0402161997444
 21
440.1183289074082
 31
0
  0
LINE
  8
1
 62
2
 10
339.0402161997444
 20
440.1183289074082
 30
0
 11
341.4160949845312
 21
440.1183289074082
 31
0
  0
LINE
  8
1
 62
2
 10
340.8221252883345
 20
440.9102885023372
 30
0
 11
340.8221252883345
 21
439.3263693124793
 31
0
  0
LINE
  8
1
 62
2
 10
342.6040343769246
 20
442.0982278947305
 30
0
 11
343.791973769318
 21
443.2861672871239
 31
0
  0
LINE
  8
1
 62
2
 10
343.791973769318
 20
443.2861672871239
 30
0
 11
343.791973769318
 21
439.3263693124793
 31
0
  0
LINE
  8
1
 62
2
 10
344.9799131617114
 20
439.3263693124793
 30
0
 11
344.9799131617114
 21
439.4253642618454
 31
0
  0
LINE
  8
1
 62
2
 10
344.9799131617114
 20
439.4253642618454
 30
0
 11
345.0789081110775
 21
439.4253642618454
 31
0
  0
LINE
  8
1
 62
2
 10
345.0789081110775
 20
439.4253642618454
 30
0
 11
345.0789081110775
 21
439.3263693124793
 31
0
  0
LINE
  8
1
 62
2
 10
345.0789081110775
 20
439.3263693124793
 30
0
 11
344.9799131617114
 21
439.3263693124793
 31
0
  0
LINE
  8
1
 62
2
 10
348.5437313388916
 20
441.1082784010694
 30
0
 11
347.1578020477659
 21
441.1082784010694
 31
0
  0
LINE
  8
1
 62
2
 10
347.1578020477659
 20
441.1082784010694
 30
0
 11
346.8608171996676
 21
441.2072733504355
 31
0
  0
LINE
  8
1
 62
2
 10
346.8608171996676
 20
441.2072733504355
 30
0
 11
346.5638323515693
 21
441.4052632491678
 31
0
  0
LINE
  8
1
 62
2
 10
346.5638323515693
 20
441.4052632491678
 30
0
 11
346.365842452837
 21
441.7022480972661
 31
0
  0
LINE
  8
1
 62
2
 10
346.365842452837
 20
441.7022480972661
 30
0
 11
346.2668475034709
 21
442.0982278947305
 31
0
  0
LINE
  8
1
 62
2
 10
346.2668475034709
 20
442.0982278947305
 30
0
 11
346.2668475034709
 21
442.2962177934628
 31
0
  0
LINE
  8
1
 62
2
 10
346.2668475034709
 20
442.2962177934628
 30
0
 11
346.365842452837
 21
442.6921975909273
 31
0
  0
LINE
  8
1
 62
2
 10
346.365842452837
 20
442.6921975909273
 30
0
 11
346.5638323515693
 21
442.9891824390256
 31
0
  0
LINE
  8
1
 62
2
 10
346.5638323515693
 20
442.9891824390256
 30
0
 11
346.8608171996676
 21
443.1871723377578
 31
0
  0
LINE
  8
1
 62
2
 10
346.8608171996676
 20
443.1871723377578
 30
0
 11
347.1578020477659
 21
443.2861672871239
 31
0
  0
LINE
  8
1
 62
2
 10
347.1578020477659
 20
443.2861672871239
 30
0
 11
347.7517717439627
 21
443.2861672871239
 31
0
  0
LINE
  8
1
 62
2
 10
347.7517717439627
 20
443.2861672871239
 30
0
 11
348.048756592061
 21
443.1871723377578
 31
0
  0
LINE
  8
1
 62
2
 10
348.048756592061
 20
443.1871723377578
 30
0
 11
348.3457414401594
 21
442.9891824390256
 31
0
  0
LINE
  8
1
 62
2
 10
348.3457414401594
 20
442.9891824390256
 30
0
 11
348.5437313388916
 21
442.6921975909273
 31
0
  0
LINE
  8
1
 62
2
 10
348.5437313388916
 20
442.6921975909273
 30
0
 11
348.6427262882577
 21
442.2962177934628
 31
0
  0
LINE
  8
1
 62
2
 10
348.6427262882577
 20
442.2962177934628
 30
0
 11
348.6427262882577
 21
441.6032531479
 31
0
  0
LINE
  8
1
 62
2
 10
348.6427262882577
 20
441.6032531479
 30
0
 11
348.5437313388916
 21
441.1082784010694
 31
0
  0
LINE
  8
1
 62
2
 10
348.5437313388916
 20
441.1082784010694
 30
0
 11
348.4447363895255
 21
440.712298603605
 31
0
  0
LINE
  8
1
 62
2
 10
348.4447363895255
 20
440.712298603605
 30
0
 11
348.1477515414271
 21
440.3163188061405
 31
0
  0
LINE
  8
1
 62
2
 10
348.1477515414271
 20
440.3163188061405
 30
0
 11
347.4547868958643
 21
439.7223491099438
 31
0
  0
LINE
  8
1
 62
2
 10
347.4547868958643
 20
439.7223491099438
 30
0
 11
346.5638323515693
 21
439.3263693124793
 31
0
  0
LINE
  8
1
 62
2
 10
349.8306656806511
 20
442.0982278947305
 30
0
 11
351.0186050730445
 21
443.2861672871239
 31
0
  0
LINE
  8
1
 62
2
 10
351.0186050730445
 20
443.2861672871239
 30
0
 11
351.0186050730445
 21
439.3263693124793
 31
0
  0
LINE
  8
1
 62
2
 10
354.5824232502246
 20
440.8112935529711
 30
0
 11
354.4834283008585
 21
440.2173238567743
 31
0
  0
LINE
  8
1
 62
2
 10
354.4834283008585
 20
440.2173238567743
 30
0
 11
354.2854384021263
 21
439.8213440593099
 31
0
  0
LINE
  8
1
 62
2
 10
354.2854384021263
 20
439.8213440593099
 30
0
 11
354.0874485033941
 21
439.6233541605777
 31
0
  0
LINE
  8
1
 62
2
 10
354.0874485033941
 20
439.6233541605777
 30
0
 11
353.7904636552957
 21
439.4253642618454
 31
0
  0
LINE
  8
1
 62
2
 10
353.7904636552957
 20
439.4253642618454
 30
0
 11
353.4934788071973
 21
439.3263693124793
 31
0
  0
LINE
  8
1
 62
2
 10
353.4934788071973
 20
439.3263693124793
 30
0
 11
353.2954889084651
 21
439.3263693124793
 31
0
  0
LINE
  8
1
 62
2
 10
353.2954889084651
 20
439.3263693124793
 30
0
 11
352.9985040603668
 21
439.4253642618454
 31
0
  0
LINE
  8
1
 62
2
 10
352.9985040603668
 20
439.4253642618454
 30
0
 11
352.7015192122684
 21
439.6233541605777
 31
0
  0
LINE
  8
1
 62
2
 10
352.7015192122684
 20
439.6233541605777
 30
0
 11
352.5035293135362
 21
439.8213440593099
 31
0
  0
LINE
  8
1
 62
2
 10
352.5035293135362
 20
439.8213440593099
 30
0
 11
352.305539414804
 21
440.2173238567743
 31
0
  0
LINE
  8
1
 62
2
 10
352.305539414804
 20
440.2173238567743
 30
0
 11
352.2065444654378
 21
440.8112935529711
 31
0
  0
LINE
  8
1
 62
2
 10
352.2065444654378
 20
440.8112935529711
 30
0
 11
352.2065444654378
 21
441.8012430466322
 31
0
  0
LINE
  8
1
 62
2
 10
352.2065444654378
 20
441.8012430466322
 30
0
 11
352.305539414804
 21
442.3952127428289
 31
0
  0
LINE
  8
1
 62
2
 10
352.305539414804
 20
442.3952127428289
 30
0
 11
352.5035293135362
 21
442.7911925402934
 31
0
  0
LINE
  8
1
 62
2
 10
352.5035293135362
 20
442.7911925402934
 30
0
 11
352.7015192122684
 21
442.9891824390256
 31
0
  0
LINE
  8
1
 62
2
 10
352.7015192122684
 20
442.9891824390256
 30
0
 11
352.9985040603668
 21
443.1871723377578
 31
0
  0
LINE
  8
1
 62
2
 10
352.9985040603668
 20
443.1871723377578
 30
0
 11
353.2954889084651
 21
443.2861672871239
 31
0
  0
LINE
  8
1
 62
2
 10
353.2954889084651
 20
443.2861672871239
 30
0
 11
353.4934788071973
 21
443.2861672871239
 31
0
  0
LINE
  8
1
 62
2
 10
353.4934788071973
 20
443.2861672871239
 30
0
 11
353.7904636552957
 21
443.1871723377578
 31
0
  0
LINE
  8
1
 62
2
 10
353.7904636552957
 20
443.1871723377578
 30
0
 11
354.0874485033941
 21
442.9891824390256
 31
0
  0
LINE
  8
1
 62
2
 10
354.0874485033941
 20
442.9891824390256
 30
0
 11
354.2854384021263
 21
442.7911925402934
 31
0
  0
LINE
  8
1
 62
2
 10
354.2854384021263
 20
442.7911925402934
 30
0
 11
354.4834283008585
 21
442.3952127428289
 31
0
  0
LINE
  8
1
 62
2
 10
354.4834283008585
 20
442.3952127428289
 30
0
 11
354.5824232502246
 21
441.8012430466322
 31
0
  0
LINE
  8
1
 62
2
 10
354.5824232502246
 20
441.8012430466322
 30
0
 11
354.5824232502246
 21
440.8112935529711
 31
0
  0
LINE
  8
1
 62
2
 10
356.1003458071718
 20
442.1724741067552
 30
0
 11
356.1003458071718
 21
439.5738566858946
 31
0
  0
LINE
  8
1
 62
2
 10
356.1003458071718
 20
439.5738566858946
 30
0
 11
358.9601998999707
 21
439.5738566858946
 31
0
  0
LINE
  8
1
 62
2
 10
358.9601998999707
 20
439.5738566858946
 30
0
 11
358.9601998999707
 21
442.1724741067552
 31
0
  0
LINE
  8
1
 62
2
 10
357.5302728535713
 20
443.0386799137087
 30
0
 11
357.5302728535713
 21
439.5738566858946
 31
0
  0
LINE
  8
1
 62
2
 10
359.7301606172627
 20
442.0982278947305
 30
0
 11
360.9181000096561
 21
443.2861672871239
 31
0
  0
LINE
  8
1
 62
2
 10
360.9181000096561
 20
443.2861672871239
 30
0
 11
360.9181000096561
 21
439.3263693124793
 31
0
  0
LINE
  8
1
 62
2
 10
362.1060394020495
 20
442.0982278947305
 30
0
 11
363.2939787944429
 21
443.2861672871239
 31
0
  0
LINE
  8
1
 62
2
 10
363.2939787944429
 20
443.2861672871239
 30
0
 11
363.2939787944429
 21
439.3263693124793
 31
0
  0
LINE
  8
1
 62
7
 10
431.7340300441243
 20
400.1645661505161
 30
0
 11
431.5415202229463
 21
399.5812030560372
 31
0
  0
LINE
  8
1
 62
7
 10
431.5415202229463
 20
399.5812030560372
 30
0
 11
431.2848404613756
 21
400.0478935316203
 31
0
  0
LINE
  8
1
 62
7
 10
431.2848404613756
 20
400.0478935316203
 30
0
 11
430.8998208190195
 21
400.5145840072034
 31
0
  0
LINE
  8
1
 62
7
 10
430.8998208190195
 20
400.5145840072034
 30
0
 11
430.4506312362707
 21
400.747929244995
 31
0
  0
LINE
  8
1
 62
7
 10
430.4506312362707
 20
400.747929244995
 30
0
 11
430.1939514747
 21
400.747929244995
 31
0
  0
LINE
  8
1
 62
7
 10
430.1939514747
 20
400.747929244995
 30
0
 11
429.8089318323439
 21
400.5145840072034
 31
0
  0
LINE
  8
1
 62
7
 10
429.8089318323439
 20
400.5145840072034
 30
0
 11
429.6164220111659
 21
400.0478935316203
 31
0
  0
LINE
  8
1
 62
7
 10
429.6164220111659
 20
400.0478935316203
 30
0
 11
429.6164220111659
 21
400.6312566260992
 31
0
  0
LINE
  8
1
 62
7
 10
429.6164220111659
 20
400.6312566260992
 30
0
 11
428.9105526668465
 21
400.6312566260992
 31
0
  0
LINE
  8
1
 62
7
 10
428.9105526668465
 20
400.6312566260992
 30
0
 11
428.9105526668465
 21
393.7475721112481
 31
0
  0
LINE
  8
1
 62
7
 10
428.9105526668465
 20
393.7475721112481
 30
0
 11
429.6164220111659
 21
393.7475721112481
 31
0
  0
LINE
  8
1
 62
7
 10
429.6164220111659
 20
393.7475721112481
 30
0
 11
429.6164220111659
 21
398.5311494859751
 31
0
  0
LINE
  8
1
 62
7
 10
429.6164220111659
 20
398.5311494859751
 30
0
 11
429.7447618919513
 21
399.114512580454
 31
0
  0
LINE
  8
1
 62
7
 10
429.7447618919513
 20
399.114512580454
 30
0
 11
430.001441653522
 21
399.4645304371414
 31
0
  0
LINE
  8
1
 62
7
 10
430.001441653522
 20
399.4645304371414
 30
0
 11
430.2581214150927
 21
399.5812030560372
 31
0
  0
LINE
  8
1
 62
7
 10
430.2581214150927
 20
399.5812030560372
 30
0
 11
430.5789711170561
 21
399.4645304371414
 31
0
  0
LINE
  8
1
 62
7
 10
430.5789711170561
 20
399.4645304371414
 30
0
 11
430.7714809382342
 21
399.114512580454
 31
0
  0
LINE
  8
1
 62
7
 10
430.7714809382342
 20
399.114512580454
 30
0
 11
430.9639907594122
 21
398.5311494859751
 31
0
  0
LINE
  8
1
 62
7
 10
430.9639907594122
 20
398.5311494859751
 30
0
 11
431.0281606998049
 21
398.064459010392
 31
0
  0
LINE
  8
1
 62
7
 10
431.0281606998049
 20
398.064459010392
 30
0
 11
431.0281606998049
 21
393.7475721112481
 31
0
  0
LINE
  8
1
 62
7
 10
431.0281606998049
 20
393.7475721112481
 30
0
 11
431.7340300441243
 21
393.7475721112481
 31
0
  0
LINE
  8
1
 62
7
 10
431.7340300441243
 20
393.7475721112481
 30
0
 11
431.7340300441243
 21
398.5311494859751
 31
0
  0
LINE
  8
1
 62
7
 10
431.7340300441243
 20
398.5311494859751
 30
0
 11
431.8623699249097
 21
399.114512580454
 31
0
  0
LINE
  8
1
 62
7
 10
431.8623699249097
 20
399.114512580454
 30
0
 11
432.1190496864804
 21
399.4645304371414
 31
0
  0
LINE
  8
1
 62
7
 10
432.1190496864804
 20
399.4645304371414
 30
0
 11
432.3757294480511
 21
399.5812030560372
 31
0
  0
LINE
  8
1
 62
7
 10
432.3757294480511
 20
399.5812030560372
 30
0
 11
432.6965791500145
 21
399.4645304371414
 31
0
  0
LINE
  8
1
 62
7
 10
432.6965791500145
 20
399.4645304371414
 30
0
 11
432.8890889711926
 21
399.114512580454
 31
0
  0
LINE
  8
1
 62
7
 10
432.8890889711926
 20
399.114512580454
 30
0
 11
433.0815987923706
 21
398.5311494859751
 31
0
  0
LINE
  8
1
 62
7
 10
433.0815987923706
 20
398.5311494859751
 30
0
 11
433.1457687327633
 21
398.064459010392
 31
0
  0
LINE
  8
1
 62
7
 10
433.1457687327633
 20
398.064459010392
 30
0
 11
433.1457687327633
 21
393.7475721112481
 31
0
  0
LINE
  8
1
 62
7
 10
433.1457687327633
 20
393.7475721112481
 30
0
 11
433.8516380770828
 21
393.7475721112481
 31
0
  0
LINE
  8
1
 62
7
 10
433.8516380770828
 20
393.7475721112481
 30
0
 11
433.8516380770828
 21
397.9477863914962
 31
0
  0
LINE
  8
1
 62
7
 10
433.8516380770828
 20
397.9477863914962
 30
0
 11
433.7874681366901
 21
398.8811673426625
 31
0
  0
LINE
  8
1
 62
7
 10
433.7874681366901
 20
398.8811673426625
 30
0
 11
433.594958315512
 21
399.5812030560372
 31
0
  0
LINE
  8
1
 62
7
 10
433.594958315512
 20
399.5812030560372
 30
0
 11
433.402448494334
 21
400.0478935316203
 31
0
  0
LINE
  8
1
 62
7
 10
433.402448494334
 20
400.0478935316203
 30
0
 11
433.0174288519779
 21
400.5145840072034
 31
0
  0
LINE
  8
1
 62
7
 10
433.0174288519779
 20
400.5145840072034
 30
0
 11
432.5682392692292
 21
400.747929244995
 31
0
  0
LINE
  8
1
 62
7
 10
432.5682392692292
 20
400.747929244995
 30
0
 11
432.3115595076584
 21
400.747929244995
 31
0
  0
LINE
  8
1
 62
7
 10
432.3115595076584
 20
400.747929244995
 30
0
 11
431.9907098056951
 21
400.5145840072034
 31
0
  0
LINE
  8
1
 62
7
 10
431.9907098056951
 20
400.5145840072034
 30
0
 11
431.7340300441243
 21
400.1645661505161
 31
0
  0
LINE
  8
1
 62
7
 10
438.6975337791307
 20
400.1645661505161
 30
0
 11
438.5050239579527
 21
399.5812030560372
 31
0
  0
LINE
  8
1
 62
7
 10
438.5050239579527
 20
399.5812030560372
 30
0
 11
438.248344196382
 21
400.0478935316203
 31
0
  0
LINE
  8
1
 62
7
 10
438.248344196382
 20
400.0478935316203
 30
0
 11
437.8633245540259
 21
400.5145840072034
 31
0
  0
LINE
  8
1
 62
7
 10
437.8633245540259
 20
400.5145840072034
 30
0
 11
437.4141349712771
 21
400.747929244995
 31
0
  0
LINE
  8
1
 62
7
 10
437.4141349712771
 20
400.747929244995
 30
0
 11
437.1574552097064
 21
400.747929244995
 31
0
  0
LINE
  8
1
 62
7
 10
437.1574552097064
 20
400.747929244995
 30
0
 11
436.7724355673503
 21
400.5145840072034
 31
0
  0
LINE
  8
1
 62
7
 10
436.7724355673503
 20
400.5145840072034
 30
0
 11
436.5799257461723
 21
400.0478935316203
 31
0
  0
LINE
  8
1
 62
7
 10
436.5799257461723
 20
400.0478935316203
 30
0
 11
436.5799257461723
 21
400.6312566260992
 31
0
  0
LINE
  8
1
 62
7
 10
436.5799257461723
 20
400.6312566260992
 30
0
 11
435.8740564018528
 21
400.6312566260992
 31
0
  0
LINE
  8
1
 62
7
 10
435.8740564018528
 20
400.6312566260992
 30
0
 11
435.8740564018528
 21
393.7475721112481
 31
0
  0
LINE
  8
1
 62
7
 10
435.8740564018528
 20
393.7475721112481
 30
0
 11
436.5799257461723
 21
393.7475721112481
 31
0
  0
LINE
  8
1
 62
7
 10
436.5799257461723
 20
393.7475721112481
 30
0
 11
436.5799257461723
 21
398.5311494859751
 31
0
  0
LINE
  8
1
 62
7
 10
436.5799257461723
 20
398.5311494859751
 30
0
 11
436.7082656269577
 21
399.114512580454
 31
0
  0
LINE
  8
1
 62
7
 10
436.7082656269577
 20
399.114512580454
 30
0
 11
436.9649453885284
 21
399.4645304371414
 31
0
  0
LINE
  8
1
 62
7
 10
436.9649453885284
 20
399.4645304371414
 30
0
 11
437.2216251500991
 21
399.5812030560372
 31
0
  0
LINE
  8
1
 62
7
 10
437.2216251500991
 20
399.5812030560372
 30
0
 11
437.5424748520625
 21
399.4645304371414
 31
0
  0
LINE
  8
1
 62
7
 10
437.5424748520625
 20
399.4645304371414
 30
0
 11
437.7349846732406
 21
399.114512580454
 31
0
  0
LINE
  8
1
 62
7
 10
437.7349846732406
 20
399.114512580454
 30
0
 11
437.9274944944186
 21
398.5311494859751
 31
0
  0
LINE
  8
1
 62
7
 10
437.9274944944186
 20
398.5311494859751
 30
0
 11
437.9916644348112
 21
398.064459010392
 31
0
  0
LINE
  8
1
 62
7
 10
437.9916644348112
 20
398.064459010392
 30
0
 11
437.9916644348112
 21
393.7475721112481
 31
0
  0
LINE
  8
1
 62
7
 10
437.9916644348112
 20
393.7475721112481
 30
0
 11
438.6975337791307
 21
393.7475721112481
 31
0
  0
LINE
  8
1
 62
7
 10
438.6975337791307
 20
393.7475721112481
 30
0
 11
438.6975337791307
 21
398.5311494859751
 31
0
  0
LINE
  8
1
 62
7
 10
438.6975337791307
 20
398.5311494859751
 30
0
 11
438.8258736599161
 21
399.114512580454
 31
0
  0
LINE
  8
1
 62
7
 10
438.8258736599161
 20
399.114512580454
 30
0
 11
439.0825534214868
 21
399.4645304371414
 31
0
  0
LINE
  8
1
 62
7
 10
439.0825534214868
 20
399.4645304371414
 30
0
 11
439.3392331830575
 21
399.5812030560372
 31
0
  0
LINE
  8
1
 62
7
 10
439.3392331830575
 20
399.5812030560372
 30
0
 11
439.6600828850209
 21
399.4645304371414
 31
0
  0
LINE
  8
1
 62
7
 10
439.6600828850209
 20
399.4645304371414
 30
0
 11
439.852592706199
 21
399.114512580454
 31
0
  0
LINE
  8
1
 62
7
 10
439.852592706199
 20
399.114512580454
 30
0
 11
440.045102527377
 21
398.5311494859751
 31
0
  0
LINE
  8
1
 62
7
 10
440.045102527377
 20
398.5311494859751
 30
0
 11
440.1092724677696
 21
398.064459010392
 31
0
  0
LINE
  8
1
 62
7
 10
440.1092724677696
 20
398.064459010392
 30
0
 11
440.1092724677696
 21
393.7475721112481
 31
0
  0
LINE
  8
1
 62
7
 10
440.1092724677696
 20
393.7475721112481
 30
0
 11
440.8151418120892
 21
393.7475721112481
 31
0
  0
LINE
  8
1
 62
7
 10
440.8151418120892
 20
393.7475721112481
 30
0
 11
440.8151418120892
 21
397.9477863914962
 31
0
  0
LINE
  8
1
 62
7
 10
440.8151418120892
 20
397.9477863914962
 30
0
 11
440.7509718716964
 21
398.8811673426625
 31
0
  0
LINE
  8
1
 62
7
 10
440.7509718716964
 20
398.8811673426625
 30
0
 11
440.5584620505184
 21
399.5812030560372
 31
0
  0
LINE
  8
1
 62
7
 10
440.5584620505184
 20
399.5812030560372
 30
0
 11
440.3659522293404
 21
400.0478935316203
 31
0
  0
LINE
  8
1
 62
7
 10
440.3659522293404
 20
400.0478935316203
 30
0
 11
439.9809325869843
 21
400.5145840072034
 31
0
  0
LINE
  8
1
 62
7
 10
439.9809325869843
 20
400.5145840072034
 30
0
 11
439.5317430042356
 21
400.747929244995
 31
0
  0
LINE
  8
1
 62
7
 10
439.5317430042356
 20
400.747929244995
 30
0
 11
439.2750632426648
 21
400.747929244995
 31
0
  0
LINE
  8
1
 62
7
 10
439.2750632426648
 20
400.747929244995
 30
0
 11
438.9542135407015
 21
400.5145840072034
 31
0
  0
LINE
  8
1
 62
7
 10
438.9542135407015
 20
400.5145840072034
 30
0
 11
438.6975337791307
 21
400.1645661505161
 31
0
  0
LINE
  8
1
 62
7
 10
406.9237706534889
 20
386.8313882307571
 30
0
 11
406.9237706534889
 21
387.8761384999602
 31
0
  0
LINE
  8
1
 62
7
 10
406.9237706534889
 20
387.8761384999602
 30
0
 11
407.2615732405313
 21
389.0950138140306
 31
0
  0
LINE
  8
1
 62
7
 10
407.2615732405313
 20
389.0950138140306
 30
0
 11
407.937178414616
 21
390.3138891281009
 31
0
  0
LINE
  8
1
 62
7
 10
407.937178414616
 20
390.3138891281009
 30
0
 11
408.7816848822218
 21
391.358639397304
 31
0
  0
LINE
  8
1
 62
7
 10
408.7816848822218
 20
391.358639397304
 30
0
 11
409.7950926433488
 21
392.5775147113743
 31
0
  0
LINE
  8
1
 62
7
 10
409.7950926433488
 20
392.5775147113743
 30
0
 11
410.8085004044759
 21
393.4481399357102
 31
0
  0
LINE
  8
1
 62
7
 10
410.8085004044759
 20
393.4481399357102
 30
0
 11
411.8219081656029
 21
394.4928902049134
 31
0
  0
LINE
  8
1
 62
7
 10
411.8219081656029
 20
394.4928902049134
 30
0
 11
413.0042172202511
 21
395.7117655189837
 31
0
  0
LINE
  8
1
 62
7
 10
413.0042172202511
 20
395.7117655189837
 30
0
 11
413.3420198072935
 21
396.2341406535853
 31
0
  0
LINE
  8
1
 62
7
 10
413.3420198072935
 20
396.2341406535853
 30
0
 11
413.5109211008146
 21
396.7565157881868
 31
0
  0
LINE
  8
1
 62
7
 10
413.5109211008146
 20
396.7565157881868
 30
0
 11
413.5109211008146
 21
397.4530159676555
 31
0
  0
LINE
  8
1
 62
7
 10
413.5109211008146
 20
397.4530159676555
 30
0
 11
413.3420198072935
 21
397.9753911022571
 31
0
  0
LINE
  8
1
 62
7
 10
413.3420198072935
 20
397.9753911022571
 30
0
 11
413.0042172202511
 21
398.4977662368587
 31
0
  0
LINE
  8
1
 62
7
 10
413.0042172202511
 20
398.4977662368587
 30
0
 11
412.4975133396876
 21
398.846016326593
 31
0
  0
LINE
  8
1
 62
7
 10
412.4975133396876
 20
398.846016326593
 30
0
 11
411.8219081656029
 21
399.0201413714602
 31
0
  0
LINE
  8
1
 62
7
 10
411.8219081656029
 20
399.0201413714602
 30
0
 11
411.1463029915182
 21
399.0201413714602
 31
0
  0
LINE
  8
1
 62
7
 10
411.1463029915182
 20
399.0201413714602
 30
0
 11
410.4706978174335
 21
398.846016326593
 31
0
  0
LINE
  8
1
 62
7
 10
410.4706978174335
 20
398.846016326593
 30
0
 11
409.96399393687
 21
398.4977662368587
 31
0
  0
LINE
  8
1
 62
7
 10
409.96399393687
 20
398.4977662368587
 30
0
 11
409.6261913498277
 21
397.9753911022571
 31
0
  0
LINE
  8
1
 62
7
 10
409.6261913498277
 20
397.9753911022571
 30
0
 11
409.4572900563065
 21
397.4530159676555
 31
0
  0
LINE
  8
1
 62
7
 10
409.4572900563065
 20
397.4530159676555
 30
0
 11
409.4572900563065
 21
396.7565157881868
 31
0
  0
LINE
  8
1
 62
7
 10
409.4572900563065
 20
396.7565157881868
 30
0
 11
407.5993758275736
 21
396.7565157881868
 31
0
  0
LINE
  8
1
 62
7
 10
407.5993758275736
 20
396.7565157881868
 30
0
 11
407.5993758275736
 21
397.4530159676555
 31
0
  0
LINE
  8
1
 62
7
 10
407.5993758275736
 20
397.4530159676555
 30
0
 11
407.7682771210948
 21
398.3236411919915
 31
0
  0
LINE
  8
1
 62
7
 10
407.7682771210948
 20
398.3236411919915
 30
0
 11
408.4438822951795
 21
399.3683914611946
 31
0
  0
LINE
  8
1
 62
7
 10
408.4438822951795
 20
399.3683914611946
 30
0
 11
409.1194874692642
 21
400.0648916406634
 31
0
  0
LINE
  8
1
 62
7
 10
409.1194874692642
 20
400.0648916406634
 30
0
 11
410.1328952303912
 21
400.5872667752649
 31
0
  0
LINE
  8
1
 62
7
 10
410.1328952303912
 20
400.5872667752649
 30
0
 11
410.977401697997
 21
400.7613918201321
 31
0
  0
LINE
  8
1
 62
7
 10
410.977401697997
 20
400.7613918201321
 30
0
 11
411.9908094591241
 21
400.7613918201321
 31
0
  0
LINE
  8
1
 62
7
 10
411.9908094591241
 20
400.7613918201321
 30
0
 11
412.83531592673
 21
400.5872667752649
 31
0
  0
LINE
  8
1
 62
7
 10
412.83531592673
 20
400.5872667752649
 30
0
 11
413.848723687857
 21
400.0648916406634
 31
0
  0
LINE
  8
1
 62
7
 10
413.848723687857
 20
400.0648916406634
 30
0
 11
414.5243288619417
 21
399.3683914611946
 31
0
  0
LINE
  8
1
 62
7
 10
414.5243288619417
 20
399.3683914611946
 30
0
 11
415.1999340360263
 21
398.3236411919915
 31
0
  0
LINE
  8
1
 62
7
 10
415.1999340360263
 20
398.3236411919915
 30
0
 11
415.3688353295475
 21
397.4530159676555
 31
0
  0
LINE
  8
1
 62
7
 10
415.3688353295475
 20
397.4530159676555
 30
0
 11
415.3688353295475
 21
396.7565157881868
 31
0
  0
LINE
  8
1
 62
7
 10
415.3688353295475
 20
396.7565157881868
 30
0
 11
415.1999340360263
 21
395.8858905638509
 31
0
  0
LINE
  8
1
 62
7
 10
415.1999340360263
 20
395.8858905638509
 30
0
 11
414.5243288619417
 21
394.8411402946477
 31
0
  0
LINE
  8
1
 62
7
 10
414.5243288619417
 20
394.8411402946477
 30
0
 11
414.1865262748993
 21
394.4928902049134
 31
0
  0
LINE
  8
1
 62
7
 10
414.1865262748993
 20
394.4928902049134
 30
0
 11
412.83531592673
 21
393.274014890843
 31
0
  0
LINE
  8
1
 62
7
 10
412.83531592673
 20
393.274014890843
 30
0
 11
411.6530068720817
 21
392.2292646216399
 31
0
  0
LINE
  8
1
 62
7
 10
411.6530068720817
 20
392.2292646216399
 30
0
 11
410.4706978174335
 21
390.8362642627024
 31
0
  0
LINE
  8
1
 62
7
 10
410.4706978174335
 20
390.8362642627024
 30
0
 11
409.6261913498277
 21
389.6173889486321
 31
0
  0
LINE
  8
1
 62
7
 10
409.6261913498277
 20
389.6173889486321
 30
0
 11
409.2883887627854
 21
388.572638679429
 31
0
  0
LINE
  8
1
 62
7
 10
409.2883887627854
 20
388.572638679429
 30
0
 11
415.875539210111
 21
388.572638679429
 31
0
  0
LINE
  8
1
 62
7
 10
415.875539210111
 20
388.572638679429
 30
0
 11
415.875539210111
 21
386.8313882307571
 31
0
  0
LINE
  8
1
 62
7
 10
415.875539210111
 20
386.8313882307571
 30
0
 11
406.9237706534889
 21
386.8313882307571
 31
0
  0
LINE
  8
1
 62
7
 10
466.2771956523799
 20
439.1828783560559
 30
0
 11
466.378385712738
 21
439.1828783560497
 31
0
  0
LINE
  8
0
 62
7
 10
380.3780763967037
 20
440.1828785199498
 30
0
 11
375.8783848485379
 21
440.1828785199498
 31
0
  0
ARC
  8
1
 62
7
 10
423.8798646585538
 20
557.9223595790085
 30
0
 40
43.00193028047625
 50
168.7728227268566
 51
174.5106844962352
  0
ARC
  8
1
 62
7
 10
423.8798646585538
 20
557.9223595790085
 30
0
 40
43.00198392485695
 50
185.4828608027607
 51
191.2207475462803
  0
ARC
  8
1
 62
7
 10
423.8778763052538
 20
557.9255477237084
 30
0
 40
43.00067525434375
 50
345.4529001153707
 51
354.5459037415895
  0
ARC
  8
1
 62
7
 10
423.8799309230519
 20
557.928371447809
 30
0
 40
42.99799588748903
 50
5.448577990033678
 51
14.54226677148024
  0
ARC
  8
1
 62
7
 10
423.8783849413539
 20
557.9248194360084
 30
0
 40
42.99999999999995
 50
14.54633081162907
 51
84.66244315058513
  0
ARC
  8
1
 62
7
 10
423.8783849413539
 20
557.9248194360084
 30
0
 40
42.99999999999987
 50
191.2243462192369
 51
264.662443150585
  0
ARC
  8
1
 62
7
 10
515.8783849413539
 20
538.722651128871
 30
0
 40
2.999999999999886
 50
0
 51
101.0894803555154
  0
ARC
  8
1
 62
7
 10
464.3700355665164
 20
516.3986080792067
 30
0
 40
14.99999999999996
 50
101.0894803555145
 51
134.2773181517003
  0
ARC
  8
1
 62
7
 10
423.8783849413539
 20
557.9248194360084
 30
0
 40
42.9999999999999
 50
95.33755684941487
 51
168.7756537807631
  0
ARC
  8
1
 62
7
 10
464.3700355665164
 20
599.4510307928101
 30
0
 40
15.00000000000001
 50
225.7226818483
 51
258.9105196444857
  0
ARC
  8
1
 62
7
 10
515.8783849413539
 20
577.1269877431457
 30
0
 40
2.999999999999913
 50
258.9105196444842
 51
0
  0
ARC
  8
1
 62
7
 10
326.8783849413539
 20
539.6806776743333
 30
0
 40
3.000000000000156
 50
78.92928899411396
 51
180
  0
ARC
  8
1
 62
7
 10
423.8783849413539
 20
557.9248194360084
 30
0
 40
43.00000000000001
 50
275.3375568494149
 51
345.4536691883709
  0
ARC
  8
1
 62
7
 10
383.3892689250349
 20
516.3961367670739
 30
0
 40
15.00000000000002
 50
45.72617887014572
 51
78.92928899411652
  0
ARC
  8
1
 62
7
 10
383.3892689250349
 20
599.4535021049427
 30
0
 40
14.99999999999985
 50
281.0707110058837
 51
314.2738211298549
  0
ARC
  8
1
 62
7
 10
326.8783849413539
 20
576.1689611976834
 30
0
 40
3
 50
180
 51
281.0707110058865
  0
ARC
  8
1
 62
7
 10
254.6110537645781
 20
394.3578114981723
 30
0
 40
137
 50
353.6747122774171
 51
4.160700482237295
  0
ARC
  8
1
 62
7
 10
505.7531090182988
 20
401.0068184844142
 30
0
 40
43.99999999999972
 50
175.2963545202532
 51
205.455335319852
  0
ARC
  8
1
 62
7
 10
500.8107299270839
 20
401.9586358393473
 30
0
 40
38.9999999999996
 50
151.1263247147809
 51
176.0945946171472
  0
ARC
  8
1
 62
7
 10
374.3757697359974
 20
402.2335579379694
 30
0
 40
17.0000000000011
 50
6.974155103505476
 51
66.11578954213623
  0
ARC
  8
1
 62
7
 10
376.100900527633
 20
423.0671321796042
 30
0
 40
4.999999999999957
 50
279.6319932573301
 51
353.6545960172256
  0
ARC
  8
1
 62
7
 10
326.8792171087209
 20
379.2728782368495
 30
0
 40
3.000000000000573
 50
65.73016935626613
 51
180
  0
ARC
  8
1
 62
7
 10
459.8783849413539
 20
362.9282635413326
 30
0
 40
5.999999999999893
 50
119.8199061988087
 51
181.4839862698327
  0
ARC
  8
1
 62
7
 10
446.949224082188
 20
385.4856747287406
 30
0
 40
19.99999999999984
 50
299.819906198815
 51
334.2751389910167
  0
ARC
  8
1
 62
7
 10
402.379420786865
 20
538.2556106416971
 30
0
 40
172.9999999999996
 50
244.5775152941965
 51
270.4123152156275
  0
ARC
  8
1
 62
7
 10
423.8783849413539
 20
717.7728782368497
 30
0
 40
353.0000000000002
 50
270
 51
274.2833309031395
  0
ARC
  8
1
 62
7
 10
446.949224082188
 20
385.4856747287406
 30
0
 40
19.99999999999945
 50
279.4805069406063
 51
299.819906198815
  0
ARC
  8
1
 62
7
 10
388.9095702692388
 20
363.3640568677225
 30
0
 40
4.999999999999811
 50
6.402561678028239
 51
25.12344945025957
  0
ARC
  8
1
 62
7
 10
423.8783849413539
 20
714.7728782368497
 30
0
 40
350.0000000000002
 50
268.0470919588313
 51
270
  0
ARC
  8
1
 62
7
 10
383.8783849413539
 20
429.433132274694
 30
0
 40
1.999999999999918
 50
300.0000000000013
 51
0
  0
ARC
  8
1
 62
7
 10
388.8783849413539
 20
420.7728782368495
 30
0
 40
8.000000000000165
 50
119.9999999999993
 51
167.4256965937821
  0
ARC
  8
1
 62
7
 10
463.8783849413539
 20
429.433132274694
 30
0
 40
2.000000000000171
 50
180
 51
239.9999999999986
  0
ARC
  8
1
 62
7
 10
458.8783849413539
 20
420.7728782368495
 30
0
 40
8.00000000000006
 50
20.07375449334791
 51
60.00000000000068
  0
ARC
  8
1
 62
7
 10
468.2709006806999
 20
424.2051731085256
 30
0
 40
1.999999999999797
 50
200.0737544933498
 51
260.0737544933576
  0
ARC
  8
1
 62
7
 10
474.8783849413539
 20
424.0640603881237
 30
0
 40
3.00000000000014
 50
259.5206107033679
 51
260.0737544933444
  0
ARC
  8
1
 62
7
 10
421.3783849413539
 20
363.7817814836698
 30
0
 40
1
 50
0
 51
89.59190695181171
  0
ARC
  8
1
 62
7
 10
426.3783849413539
 20
363.7817060305358
 30
0
 40
1.000000000000206
 50
90.40463457477415
 51
180
  0
ARC
  8
1
 62
7
 10
326.8758105212685
 20
416.4782691439313
 30
0
 40
3.003624061835181
 50
183.9210042225475
 51
275.3950793433063
  0
ARC
  8
1
 62
7
 10
515.7644668268133
 20
416.6035239055061
 30
0
 40
3.122111035549854
 50
266.2913462088009
 51
353.9207177171588
  0
ARC
  8
1
 62
7
 10
474.8783849413539
 20
424.0640603881237
 30
0
 40
3
 50
180
 51
259.5206107033679
  0
ARC
  8
1
 62
7
 10
423.4359094161961
 20
391.5389977355025
 30
0
 40
3.374999999999785
 50
358.1244947343119
 51
90
  0
ARC
  8
1
 62
7
 10
423.1660635158761
 20
391.1864846134171
 30
0
 40
2.249999999999993
 50
10.06068979215062
 51
90
  0
ARC
  8
1
 62
7
 10
422.5961803343097
 20
391.1892313172588
 30
0
 40
2.812500000000367
 50
260.6214524487997
 51
7.977046467635814
  0
ARC
  8
0
 62
7
 10
423.8783835418539
 20
557.9248204307085
 30
0
 40
41.83333311559094
 50
244.5147422556995
 51
173.1900136196001
  0
ARC
  8
0
 62
7
 10
423.8783799946538
 20
557.9248186080083
 30
0
 40
41.83332961320001
 50
186.8099871832997
 51
236.6466560001992
  0
ARC
  8
0
 62
7
 10
423.8783844778537
 20
557.9248189078085
 30
0
 40
29.99999929820831
 50
233.1301031241994
 51
1.008699923448534e-006
  0
ARC
  8
0
 62
7
 10
423.8783847242539
 20
557.9248180657085
 30
0
 40
29.99999905177279
 50
2.616999910110659e-006
 51
211.7883284169998
  0
ARC
  8
0
 62
7
 10
471.8783822080538
 20
560.9248191345083
 30
0
 40
1.000000957092427
 50
0.000152167204656672
 51
89.99984783281488
  0
ARC
  8
0
 62
7
 10
426.8783841451538
 20
509.9248226059086
 30
0
 40
1.000000957087851
 50
270.0000454453079
 51
359.9998478328833
  0
ARC
  8
0
 62
7
 10
420.8783856793538
 20
509.9248226059086
 30
0
 40
1.000000957087653
 50
180.0001521671167
 51
269.9999545546856
  0
ARC
  8
0
 62
7
 10
420.8783793199538
 20
605.9248235569085
 30
0
 40
0.9999945976306056
 50
89.99968107381255
 51
179.9999987602003
  0
ARC
  8
0
 62
7
 10
471.8783822080538
 20
554.9248197374084
 30
0
 40
1.000000957087994
 50
270.0001521670744
 51
6.127629574147456e-005
  0
ARC
  8
0
 62
7
 10
426.8783905046539
 20
605.9248235569085
 30
0
 40
0.9999945976309734
 50
1.239799736686651e-006
 51
90.0003189261907
  0
ARC
  8
0
 62
7
 10
418.8783883444539
 20
514.7131351289085
 30
0
 40
0.9999963778602392
 50
359.9998786579972
 51
83.39986269068639
  0
ARC
  8
0
 62
7
 10
467.0900644491538
 20
552.9248279163085
 30
0
 40
0.9999908640970525
 50
89.99957866240303
 51
173.3999830123029
  0
ARC
  8
0
 62
7
 10
428.8783887831539
 20
601.1365111812085
 30
0
 40
1.000003680921647
 50
180.0002514670115
 51
263.3994898817191
  0
ARC
  8
0
 62
7
 10
418.8783810413538
 20
601.1365111812085
 30
0
 40
1.000003680921208
 50
276.6005101183359
 51
359.9997485329885
  0
ARC
  8
0
 62
7
 10
428.8783814801537
 20
514.7131351289085
 30
0
 40
0.9999963778607313
 50
96.6001373093136
 51
180.0001213420029
  0
ARC
  8
0
 62
7
 10
467.0900714303538
 20
562.9248183074083
 30
0
 40
0.9999982157932781
 50
186.6001774163954
 51
270.0000213435748
  0
ARC
  8
0
 62
7
 10
423.8783765696539
 20
557.9248141045084
 30
0
 40
42.49999154707258
 50
186.6003011051002
 51
237.2362429634996
  0
ARC
  8
0
 62
7
 10
423.8783843896537
 20
557.9248211417083
 30
0
 40
42.5000001602286
 50
244.9423859206005
 51
173.3996902621999
  0
ARC
  8
0
 62
7
 10
380.6666819383538
 20
562.9248288537085
 30
0
 40
1.000014849662204
 50
300.5001863581989
 51
353.3993245767973
  0
ARC
  8
0
 62
7
 10
380.6666967549538
 20
552.9248190853084
 30
0
 40
0.9999995172833661
 50
6.600468976599194
 51
59.50028143239899
  0
ARC
  8
0
 62
7
 10
375.8783869741538
 20
554.9248200263085
 30
0
 40
1.000001246023166
 50
179.9999552785021
 51
269.9998312780592
  0
ARC
  8
0
 62
7
 10
375.8783840904538
 20
560.9248217293084
 30
0
 40
0.9999983623224598
 50
90.0000034981998
 51
179.9999965017969
  0
ARC
  8
0
 62
7
 10
423.8783840039538
 20
557.9248226639085
 30
0
 40
40.50000065610701
 50
243.6122024220001
 51
175.8545219904
  0
ARC
  8
0
 62
7
 10
423.8783914359539
 20
557.9248248404083
 30
0
 40
40.50000842339222
 50
184.1454841735001
 51
235.3959943820992
  0
ARC
  8
0
 62
7
 10
423.8787961273537
 20
557.9248212986083
 30
0
 40
40.5004117999358
 50
175.8545622105998
 51
184.1454377893999
  0
ARC
  8
0
 62
7
 10
382.6806860833539
 20
562.9248217972083
 30
0
 40
1.00000347009062
 50
290.1689235119973
 51
353.0800444077016
  0
ARC
  8
0
 62
7
 10
382.6806851530538
 20
552.9248157895084
 30
0
 40
1.000004997239398
 50
6.920234159394961
 51
69.83105184751358
  0
ARC
  8
0
 62
7
 10
423.8783876228537
 20
557.9248329574084
 30
0
 40
31.0000120834885
 50
234.5040778260994
 51
269.9999950440005
  0
ARC
  8
0
 62
7
 10
423.8783834906539
 20
557.9248212645084
 30
0
 40
31.00000039052319
 50
270.0000026811999
 51
214.6560388191996
  0
ARC
  8
0
 62
7
 10
423.8783842449537
 20
557.9248199204083
 30
0
 40
31.50000005969663
 50
270.000001266801
 51
215.9505698716002
  0
ARC
  8
0
 62
7
 10
423.8783936267539
 20
557.9248473751084
 30
0
 40
31.50002751440112
 50
235.1501116389999
 51
269.9999842019993
  0
ARC
  8
0
 62
7
 10
423.8783782095538
 20
557.9248129554084
 30
0
 40
37.99999136625515
 50
241.7262913717007
 51
270.0000101501004
  0
ARC
  8
0
 62
7
 10
423.8783838859537
 20
557.9248214842085
 30
0
 40
37.99999989501544
 50
270.0000015914008
 51
232.7522199611005
  0
ARC
  8
0
 62
7
 10
423.8798646585538
 20
557.9223595790085
 30
0
 40
25.50287283179544
 50
120.0001105811008
 51
121.8703230210013
  0
ARC
  8
0
 62
7
 10
409.8783855040537
 20
578.9248207516083
 30
0
 40
0.2999998634160681
 50
203.5779371309214
 51
5.040522827221411e-005
  0
ARC
  8
0
 62
7
 10
409.4201308330539
 20
578.7248253914084
 30
0
 40
0.1999956241436205
 50
23.57765439583521
 51
90.00090533413025
  0
ARC
  8
0
 62
7
 10
410.6784012383538
 20
579.1559230994083
 30
0
 40
0.5000158708679903
 50
121.8714418363521
 51
179.9991433854765
  0
ARC
  8
0
 62
7
 10
423.8799309230519
 20
557.928371447809
 30
0
 40
24.00387287135579
 50
245.9842851087035
 51
247.4998359453055
  0
ARC
  8
0
 62
7
 10
423.8788452537539
 20
557.9238492859083
 30
0
 40
25.50107300547671
 50
110.0002221359996
 51
119.9998005824997
  0
ARC
  8
0
 62
7
 10
423.8783413474538
 20
557.9248367823084
 30
0
 40
25.49995897595622
 50
126.9999455917996
 51
131.8324307991998
  0
ARC
  8
0
 62
7
 10
423.8785349903538
 20
557.9247415180083
 30
0
 40
26.50016920386537
 50
143.5062875178996
 51
152.5361984834006
  0
ARC
  8
0
 62
7
 10
413.9071697962538
 20
535.5457069936083
 30
0
 40
0.4999968753117859
 50
65.98428666209219
 51
103.0003144512186
  0
ARC
  8
0
 62
7
 10
410.4030134846539
 20
536.2761610376083
 30
0
 40
0.999998542460807
 50
238.0994915248919
 51
283.0000762574864
  0
ARC
  8
0
 62
7
 10
423.8784338208537
 20
557.9249017197083
 30
0
 40
26.50009513749717
 50
232.4153501742003
 51
238.0994924605999
  0
ARC
  8
0
 62
7
 10
423.8778763052538
 20
557.9255477237084
 30
0
 40
25.79911289063374
 50
119.9998331085997
 51
127.0000710821999
  0
ARC
  8
0
 62
7
 10
399.4783867693537
 20
560.9248217795084
 30
0
 40
0.4999972988080118
 50
1.239408908034521e-006
 51
90.00021220475841
  0
ARC
  8
0
 62
7
 10
399.4783804097539
 20
554.9248234519083
 30
0
 40
0.500003658317124
 50
270.0005165378292
 51
359.9996969054993
  0
ARC
  8
0
 62
7
 10
397.9783882479538
 20
554.9248234519083
 30
0
 40
0.5000036583169887
 50
180.0003030945007
 51
269.9994834621642
  0
ARC
  8
0
 62
7
 10
397.9783818884538
 20
560.9248217795084
 30
0
 40
0.4999972988079167
 50
89.99978779520902
 51
179.9999987605911
  0
ARC
  8
0
 62
7
 10
423.8783840180537
 20
557.9248215315083
 30
0
 40
30.50000077124606
 50
359.9999960635
 51
213.2730487206
  0
ARC
  8
0
 62
7
 10
423.8783854088537
 20
557.9248188584085
 30
0
 40
30.49999938043442
 50
233.8313563654002
 51
1.084999688301036e-006
  0
ARC
  8
0
 62
7
 10
423.8781754499539
 20
557.9253750296084
 30
0
 40
25.50059307958953
 50
286.8738163050998
 51
291.1517297168997
  0
ARC
  8
0
 62
7
 10
423.8776882594538
 20
557.9262244942084
 30
0
 40
25.5015685565375
 50
294.7471369974995
 51
298.1261639855997
  0
ARC
  8
0
 62
7
 10
432.9611127849539
 20
534.9519218095085
 30
0
 40
0.1999989869133583
 50
112.499730803141
 51
202.5002237950311
  0
ARC
  8
0
 62
7
 10
433.6368119133537
 20
534.3658901524084
 30
0
 40
1.000000847559765
 50
23.62351790039248
 51
112.4998932974954
  0
ARC
  8
0
 62
7
 10
423.8783850109539
 20
557.9248189285084
 30
0
 40
27.49999881252148
 50
247.4999989936774
 51
109.9999964770577
  0
ARC
  8
0
 62
7
 10
423.8785613294537
 20
557.9248222783083
 30
0
 40
23.99982401399165
 50
352.1693235503004
 51
4.830646714200396
  0
ARC
  8
0
 62
7
 10
423.8783845643538
 20
557.9248470192083
 30
0
 40
25.50002710342901
 50
262.0000092880001
 51
286.873711042001
  0
ARC
  8
0
 62
7
 10
423.8783385930539
 20
557.9249808606085
 30
0
 40
23.99983191791045
 50
96.16931502199998
 51
108.8306371991004
  0
ARC
  8
0
 62
7
 10
448.1499249823539
 20
554.5868186544083
 30
0
 40
0.4999996948617128
 50
172.1692615232894
 51
261.0000925505472
  0
ARC
  8
0
 62
7
 10
448.2913569551537
 20
559.9879761520083
 30
0
 40
0.4999962745074054
 50
95.99954471376933
 51
184.831036677987
  0
ARC
  8
0
 62
7
 10
423.8783727935538
 20
557.9248256859084
 30
0
 40
25.50001223176919
 50
298.1262891825995
 51
350.9999918503997
  0
ARC
  8
0
 62
7
 10
423.8783050156538
 20
557.9250126560085
 30
0
 40
25.80020864194019
 50
286.9394028664993
 51
298.0605962456991
  0
ARC
  8
0
 62
7
 10
419.9742195194539
 20
533.7378908281085
 30
0
 40
0.5000003986840899
 50
352.0000958684981
 51
80.83053581267403
  0
ARC
  8
0
 62
7
 10
423.8783757724538
 20
557.9247799318084
 30
0
 40
23.9999596127798
 50
247.4999847879995
 51
260.8306243109002
  0
ARC
  8
0
 62
7
 10
423.8783838282537
 20
557.9248214060085
 30
0
 40
27.00000090451231
 50
247.5000034568995
 51
109.9999958469996
  0
ARC
  8
0
 62
7
 10
415.9704800919539
 20
581.1134947571084
 30
0
 40
0.4999926284157484
 50
199.9987025893919
 51
288.8312447095893
  0
ARC
  8
0
 62
7
 10
421.2454074108538
 20
582.2829339530083
 30
0
 40
0.5000090093553218
 50
276.1703253874999
 51
4.999728231297541
  0
ARC
  8
0
 62
7
 10
423.8783825971538
 20
557.9248192823084
 30
0
 40
25.5000020257684
 50
5.999998055900178
 51
94.99999430060072
  0
ARC
  8
0
 62
7
 10
408.8783855785538
 20
577.9248216483084
 30
0
 40
0.9999993672194709
 50
359.9998476309975
 51
89.99999228649885
  0
ARC
  8
0
 62
7
 10
405.8159857821538
 20
575.9248409538084
 30
0
 40
0.9999797338635947
 50
89.99963245507311
 51
135.0997291172818
  0
ARC
  8
0
 62
7
 10
403.3783908959537
 20
573.0905700604083
 30
0
 40
1.000007179475901
 50
143.5063342559118
 51
180.0000393706991
  0
ARC
  8
0
 62
7
 10
408.8783855785538
 20
537.9248190863084
 30
0
 40
0.9999993672138408
 50
270.0000077134002
 51
4.564750274723513e-005
  0
ARC
  8
0
 62
7
 10
408.8783855785538
 20
575.9248213205085
 30
0
 40
0.9999993672194709
 50
359.9998476309975
 51
89.99999228649885
  0
ARC
  8
0
 62
7
 10
423.8783499508538
 20
557.9248302008084
 30
0
 40
26.49996770376643
 50
135.0990917903001
 51
143.5062037248996
  0
ARC
  8
0
 62
7
 10
399.3783858805538
 20
537.9248206762084
 30
0
 40
1.000000957082223
 50
180.0000454452037
 51
269.9999545548126
  0
ARC
  8
0
 62
7
 10
405.3534522680537
 20
565.7400697754083
 30
0
 40
0.4480222295247319
 50
265.7819009890181
 51
320.9558240064874
  0
ARC
  8
0
 62
7
 10
404.6272889458539
 20
565.8894871334085
 30
0
 40
0.2383739626945239
 50
38.97215361879859
 51
94.28936865905051
  0
ARC
  8
0
 62
7
 10
405.3213137228537
 20
565.8818437568084
 30
0
 40
0.278271244324598
 50
90.16779518503392
 51
145.5119035596493
  0
ARC
  8
0
 62
7
 10
405.3512851406537
 20
565.8634048103085
 30
0
 40
0.2983019089975524
 50
41.57460110267078
 51
95.92377946877618
  0
ARC
  8
0
 62
7
 10
405.7291532737538
 20
564.3926777960085
 30
0
 40
0.6925316876840721
 50
224.7752324838639
 51
275.0881460230403
  0
ARC
  8
0
 62
7
 10
405.2081482753537
 20
564.5222806662084
 30
0
 40
0.5973208162948138
 50
84.76191342051871
 51
135.0971918915562
  0
ARC
  8
0
 62
7
 10
405.2238386993537
 20
563.1059050433084
 30
0
 40
0.5908244121690033
 50
105.9402199953464
 51
183.6867387602999
  0
ARC
  8
0
 62
7
 10
405.7291492889539
 20
563.0073074755084
 30
0
 40
0.6925301349552051
 50
224.7755710818024
 51
275.0884884431328
  0
ARC
  8
0
 62
7
 10
378.3783852657379
 20
456.6828785676498
 30
0
 40
3.5
 50
90
 51
180
  0
ARC
  8
0
 62
7
 10
471.8783852657379
 20
441.1828785676498
 30
0
 40
1
 50
270
 51
0
  0
ARC
  8
0
 62
7
 10
471.8783852657379
 20
451.1828785676498
 30
0
 40
1
 50
0
 51
90
  0
ARC
  8
0
 62
7
 10
375.8783852657379
 20
441.1828785676498
 30
0
 40
1
 50
180
 51
270
  0
ARC
  8
0
 62
7
 10
346.484104018338
 20
467.5781177242499
 30
0
 40
37.49256072224589
 50
319.2294757831001
 51
321.6285635889
  0
ARC
  8
0
 62
7
 10
346.478385265738
 20
467.5828785676497
 30
0
 40
37.49999999999957
 50
340.6945519111997
 51
344.8828964310997
  0
ARC
  8
0
 62
7
 10
346.478385265738
 20
467.5828785676497
 30
0
 40
37.49999999999938
 50
321.6282848528996
 51
335.7397166507999
  0
ARC
  8
0
 62
7
 10
346.463333033738
 20
467.5862197609498
 30
0
 40
37.51541738840773
 50
347.0560934103999
 51
348.6184709130998
  0
ARC
  8
0
 62
7
 10
377.714767753438
 20
459.6285376619497
 30
0
 40
5.975280731763069
 50
355.7226853116998
 51
15.07768464090229
  0
ARC
  8
0
 62
7
 10
381.673484370938
 20
456.1827807126497
 30
0
 40
1.999921417957717
 50
289.473244421195
 51
0.00282385540115241
  0
ARC
  8
0
 62
7
 10
382.662153832138
 20
453.3482858722497
 30
0
 40
1.002103876017282
 50
108.7407412615023
 51
179.6475174089919
  0
ARC
  8
0
 62
7
 10
472.322517204738
 20
440.7365952096499
 30
0
 40
6.241790506941675
 50
175.8998950412013
 51
194.4137107549012
  0
ARC
  8
0
 62
7
 10
472.362210084238
 20
451.6255797710498
 30
0
 40
6.281128948265042
 50
165.6447697726997
 51
184.0416244312001
  0
ARC
  8
0
 62
7
 10
376.261243103838
 20
440.6619618588497
 30
0
 40
5.423898461859812
 50
344.1751534539019
 51
5.511240750001474
  0
ARC
  8
0
 62
7
 10
420.8783852657379
 20
441.1828785676498
 30
0
 40
1
 50
180
 51
270
  0
ARC
  8
0
 62
7
 10
420.8783852657379
 20
451.1828785676498
 30
0
 40
1
 50
90
 51
180
  0
ARC
  8
0
 62
7
 10
426.8783852657379
 20
441.1828785676498
 30
0
 40
1
 50
270
 51
0
  0
ARC
  8
0
 62
7
 10
426.8783852657379
 20
451.1828785676498
 30
0
 40
1
 50
0
 51
90
  0
ARC
  8
0
 62
7
 10
408.8783852657379
 20
464.6828785676498
 30
0
 40
1
 50
270
 51
0
  0
ARC
  8
0
 62
7
 10
399.3783852657379
 20
464.6828785676498
 30
0
 40
1
 50
180
 51
270
  0
ARC
  8
0
 62
7
 10
467.378385265738
 20
439.1828785676498
 30
0
 40
1
 50
89.9823031076367
 51
180
  0
ARC
  8
0
 62
7
 10
467.3783852657379
 20
453.1828785676498
 30
0
 40
1
 50
180
 51
270.0192772770315
  0
ARC
  8
0
 62
7
 10
382.3783852657379
 20
461.1828785676498
 30
0
 40
1
 50
270
 51
0
  0
ARC
  8
0
 62
7
 10
380.3783852657379
 20
439.1828785676498
 30
0
 40
1
 50
0
 51
90.0176968923633
  0
ARC
  8
0
 62
7
 10
466.3783852657379
 20
456.1828785676498
 30
0
 40
2
 50
180
 51
250.5287793655005
  0
ARC
  8
0
 62
7
 10
465.3783852657379
 20
453.3544514428498
 30
0
 40
1
 50
0
 51
70.52877936552746
  0
CIRCLE
  8
1
 62
7
 10
316.3788010250376
 20
417.2728782368495
 30
0
 40
9.999999991805453e-005
  0
CIRCLE
  8
1
 62
7
 10
468.8783849413539
 20
426.2728782368495
 30
0
 40
1
  0
CIRCLE
  8
0
 62
7
 10
378.3783852657379
 20
456.6828785676498
 30
0
 40
1.35000000000008
  0
CIRCLE
  8
0
 62
7
 10
403.3783852657379
 20
468.6828785676498
 30
0
 40
3.10000000000008
  0
CIRCLE
  8
0
 62
7
 10
403.3783852657379
 20
468.6828785676498
 30
0
 40
2.60000000000008
  0
CIRCLE
  8
0
 62
7
 10
403.3783852657379
 20
468.6828785676498
 30
0
 40
2.5
  0
POLYLINE
  8
1
 62
7
 66
1
  0
VERTEX
  8
1
 10
419.807790854255
 20
387.4889678732258
 30
0
 42
0.06252953199531897
  0
VERTEX
  8
1
 10
420.7339721720423
 20
387.0533839982361
 30
0
 42
0.0396967792380566
  0
VERTEX
  8
1
 10
421.6777649839324
 20
386.8292274723871
 30
0
 42
0.04281793838473551
  0
VERTEX
  8
1
 10
422.570397423192
 20
386.7723066915098
 30
0
 42
0.04955366171852729
  0
VERTEX
  8
1
 10
423.4483179620983
 20
386.8793140513692
 30
0
 42
0.05749837801291616
  0
VERTEX
  8
1
 10
424.2905774504771
 20
387.1733532334823
 30
0
 42
0.05295707665798436
  0
VERTEX
  8
1
 10
425.0631104661881
 20
387.6533505229846
 30
0
 42
0.05048995255475661
  0
VERTEX
  8
1
 10
425.7223723211092
 20
388.2824079027546
 30
0
 42
0.05424811633518582
  0
VERTEX
  8
1
 10
426.274276672222
 20
389.0918316484848
 30
0
 42
0.05364305115592011
  0
VERTEX
  8
1
 10
426.640152203897
 20
390.0014241911503
 30
0
 42
0.05226734987109798
  0
VERTEX
  8
1
 10
426.8035771015175
 20
390.9483531520063
 30
0
  0
VERTEX
  8
1
 10
426.8091014249929
 20
391.4285410843007
 30
0
  0
SEQEND
  8
1
  0
POLYLINE
  8
1
 62
7
 66
1
  0
VERTEX
  8
1
 10
422.1378650021836
 20
388.4143253177085
 30
0
 42
-0.0308552594641661
  0
VERTEX
  8
1
 10
421.8618696395416
 20
388.4426551838768
 30
0
 42
-0.05061138585040426
  0
VERTEX
  8
1
 10
421.4113037710172
 20
388.5664759946269
 30
0
 42
-0.04491045513920421
  0
VERTEX
  8
1
 10
420.9861513763761
 20
388.7763218165811
 30
0
 42
-0.04087430038672033
  0
VERTEX
  8
1
 10
420.5975948592489
 20
389.0590799399072
 30
0
 42
-0.03895715976750852
  0
VERTEX
  8
1
 10
420.2568166232661
 20
389.401637654773
 30
0
 42
-0.03928427775654556
  0
VERTEX
  8
1
 10
419.9749990720576
 20
389.7908822513459
 30
0
 42
-0.0419224635644763
  0
VERTEX
  8
1
 10
419.763324609254
 20
390.2137010197939
 30
0
 42
-0.04687019939451986
  0
VERTEX
  8
1
 10
419.6329756384859
 20
390.6569812502846
 30
0
  0
SEQEND
  8
1
  0
POLYLINE
  8
1
 62
7
 66
1
  0
VERTEX
  8
1
 10
419.807790854255
 20
387.4889678732258
 30
0
 42
-0.005088325560055136
  0
VERTEX
  8
1
 10
419.451710915756
 20
387.807988662045
 30
0
 42
-0.01106010150606712
  0
VERTEX
  8
1
 10
419.096783611463
 20
388.1471358600639
 30
0
 42
-0.01730743667767189
  0
VERTEX
  8
1
 10
418.7589663828769
 20
388.5085441377444
 30
0
 42
-0.02432463219032009
  0
VERTEX
  8
1
 10
418.4542166714985
 20
388.894348165548
 30
0
 42
-0.03231747833664823
  0
VERTEX
  8
1
 10
418.1984919188287
 20
389.3066826139361
 30
0
 42
-0.04089149747552185
  0
VERTEX
  8
1
 10
418.0077495663686
 20
389.7476821533705
 30
0
 42
-0.04860134914231448
  0
VERTEX
  8
1
 10
417.8979470556185
 20
390.2194814543124
 30
0
  0
VERTEX
  8
1
 10
417.8783849413539
 20
390.467598099868
 30
0
  0
SEQEND
  8
1
  0
ARC
  8
1
 62
7
 10
515.8353575825562
 20
379.0495212288128
 30
0
 40
3.041873824289765
 50
4.210872096718183
 51
90.68303721635758
  0
ARC
  8
1
 62
7
 10
383.8783849413538
 20
433.7728782368495
 30
0
 40
2.000000000000114
 50
0
 51
90
  0
ARC
  8
1
 62
7
 10
463.8783849413537
 20
433.7728782368495
 30
0
 40
2.00000000000002
 50
123.3670129692282
 51
180
  0
ARC
  8
1
 62
7
 10
463.8783849413537
 20
433.7728782368495
 30
0
 40
2
 50
90
 51
123.3670129692282
  0
ARC
  8
1
 62
7
 10
469.4714433077829
 20
374.6344240563864
 30
0
 40
5.000000000000127
 50
93.02693579188899
 51
154.275138991017
  0
ARC
  8
1
 62
7
 10
468.8783849413539
 20
426.2728782368495
 30
0
 40
3
 50
0
 51
90
  0
LINE
  8
1
 62
2
 10
348.9194023870169
 20
351.7773727473548
 30
0
 11
369.826978833967
 21
351.7773727473548
 31
0
  0
LINE
  8
1
 62
2
 10
369.826978833967
 20
351.7773727473548
 30
0
 11
372.5272283925457
 21
393.6893875348184
 31
0
  0
LINE
  8
1
 62
2
 10
373.1365328642169
 20
390.6439123685559
 30
0
 11
372.5272283925457
 21
393.6893875348184
 31
0
  0
LINE
  8
1
 62
2
 10
371.5321639605211
 20
390.7472764384048
 30
0
 11
372.5272283925457
 21
393.6893875348184
 31
0
  0
LINE
  8
1
 62
2
 10
319.4304003935799
 20
351.7773727473548
 30
0
 11
338.3648793405097
 21
351.7773727473548
 31
0
  0
LINE
  8
1
 62
2
 10
338.3648793405097
 20
351.7773727473548
 30
0
 11
364.008229723801
 21
394.1066940106534
 31
0
  0
LINE
  8
1
 62
2
 10
363.1413290083083
 20
391.1243033459352
 30
0
 11
364.008229723801
 21
394.1066940106534
 31
0
  0
LINE
  8
1
 62
2
 10
361.7662763492663
 20
391.9573182887442
 30
0
 11
364.008229723801
 21
394.1066940106534
 31
0
  0
DIMENSION
  8
1
  6
CONTINUOUS
 62
2
  2
*D0
  3
DMST_1
 10
518.8690200571667
 20
427.6870917992225
 30
0
 11
526.3737024992577
 21
430.2870917992225
 31
0
 12
0
 22
0
 32
0
 70
1
  1
15
 13
533.8783849413487
 23
416.2728782368524
 33
0
 14
518.8690200571667
 24
416.2728782368495
 34
0
 53
0
  0
DIMENSION
  8
1
  6
CONTINUOUS
 62
2
  2
*D1
  3
DMST_2
 10
543.9213203435596
 20
508.9248216488085
 30
0
 11
541.6213203435597
 21
557.9248199016583
 31
0
 12
0
 22
0
 32
0
 70
0
 13
426.8783849383539
 23
606.9248181545084
 33
0
 14
426.8783849383539
 24
508.9248216488085
 34
0
 50
90
 53
0
  0
DIMENSION
  8
1
  6
CONTINUOUS
 62
2
  2
*D2
  3
DMST_2
 10
543.9213203435596
 20
362.7728782368495
 30
0
 11
541.6213203435597
 21
418.4778793022996
 31
0
 12
0
 22
0
 32
0
 70
0
  1
(112)
 13
408.0762477120379
 23
474.1828803677498
 33
0
 14
453.8783849413539
 24
362.7728782368495
 34
0
 50
90
 53
0
  0
DIMENSION
  8
1
  6
CONTINUOUS
 62
2
  2
*D3
  3
DMST_2
 10
508.1667219509896
 20
362.7728782368495
 30
0
 11
505.8667219509896
 21
371.903092423567
 31
0
 12
0
 22
0
 32
0
 70
0
 13
538.892456537163
 23
397.7728782368495
 33
0
 14
453.8783849413539
 24
362.7728782368495
 34
0
 50
90
 53
0
  0
DIMENSION
  8
1
  6
CONTINUOUS
 62
2
  2
*D4
  3
DMST_1
 10
323.8792171087209
 20
370.2182163310372
 30
0
 11
316.3788010250374
 21
372.8182163310372
 31
0
 12
0
 22
0
 32
0
 70
1
 13
308.8783849413539
 23
379.2728782368495
 33
0
 14
323.8792171087209
 24
379.2728782368495
 34
0
 53
0
  0
DIMENSION
  8
1
  6
CONTINUOUS
 62
2
  2
*D5
  3
DMST_2
 10
308.8783849413539
 20
344.5973766531678
 30
0
 11
420.326017525228
 21
347.5437521289886
 31
0
 12
0
 22
0
 32
0
 70
0
  1
225
 13
533.8783849413538
 23
379.2728782368495
 33
0
 14
308.8783849413539
 24
379.2728782368495
 34
0
 53
0
  0
DIMENSION
  8
1
  6
CONTINUOUS
 62
2
  2
*D6
  3
DMST_3
 10
316.3788010250376
 20
417.2728782368495
 30
0
 11
350.661606133725
 21
440.6849479562421
 31
0
 12
0
 22
0
 32
0
 70
4
  1
              
 15
316.3788548484812
 25
417.272962516366
 35
0
 40
0
 53
0
  0
ENDSEC
  0
EOF
