  0
SECTION
  2
HEADER
  9
$ACADVER
  1
AC1009
  9
$INSBASE
 10
0
 20
0
  9
$EXTMIN
 10
143.1413811414361
 20
52.97720573639708
  9
$EXTMAX
 10
914.5770403504898
 20
756.0691825718993
  9
$LIMMIN
 10
143.1413811414361
 20
52.97720573639708
  9
$LIMMAX
 10
914.5770403504898
 20
756.0691825718993
  9
$VIEWCTR
 10
10
 20
10
  9
$VIEWSIZE
 40
10
  9
$SNAPMODE
 70
0
  9
$SNAPUNIT
 10
1
 20
1
  9
$SNAPBASE
 10
0
 20
0
  9
$SNAPANG
 50
0
  9
$SNAPSTYLE
 70
0
  9
$SNAPISOPAIR
 70
0
  9
$GRIDMODE
 70
0
  9
$GRIDUNIT
 10
0
 20
0
  9
$ORTHOMODE
 70
0
  9
$REGENMODE
 70
1
  9
$FILLMODE
 70
1
  9
$QTEXTMODE
 70
0
  9
$DRAGMODE
 70
2
  9
$LTSCALE
 40
1
  9
$OSMODE
 70
0
  9
$ATTMODE
 70
1
  9
$TEXTSIZE
 40
3.5
  9
$TRACEWID
 40
0.5
  9
$TEXTSTYLE
  7
STANDARD
  9
$CLAYER
  8
0
  9
$CELTYPE
  6
BYLAYER
  9
$CECOLOR
 62
256
  9
$DIMSCALE
 40
1
  9
$DIMASZ
 40
0.18
  9
$DIMEXO
 40
0.0625
  9
$DIMDLI
 40
0.38
  9
$DIMRND
 40
0
  9
$DIMDLE
 40
0
  9
$DIMEXE
 40
0.18
  9
$DIMTP
 40
0
  9
$DIMTM
 40
0
  9
$DIMTXT
 40
0.18
  9
$DIMCEN
 40
0.09
  9
$DIMTSZ
 40
0
  9
$DIMTOL
 70
0
  9
$DIMLIM
 70
0
  9
$DIMTIH
 70
1
  9
$DIMTOH
 70
1
  9
$DIMSE1
 70
0
  9
$DIMSE2
 70
0
  9
$DIMTAD
 70
0
  9
$DIMZIN
 70
0
  9
$DIMBLK
  1

  9
$DIMASO
 70
1
  9
$DIMSHO
 70
1
  9
$DIMPOST
  1

  9
$DIMAPOST
  1

  9
$DIMALT
 70
0
  9
$DIMALTD
 70
2
  9
$DIMALTF
 40
25.4
  9
$DIMLFAC
 40
1
  9
$DIMTOFL
 70
0
  9
$DIMTVP
 40
0
  9
$DIMTIX
 70
0
  9
$DIMSOXD
 70
0
  9
$DIMSAH
 70
0
  9
$DIMBLK1
  1

  9
$DIMBLK2
  1

  9
$DIMSTYLE
  2
*UNNAMED
  9
$DIMCLRD
 70
0
  9
$DIMCLRE
 70
0
  9
$DIMCLRT
 70
0
  9
$DIMTFAC
 40
1
  9
$DIMGAP
 40
0.09
  9
$LUNITS
 70
2
  9
$LUPREC
 70
4
  9
$AXISMODE
 70
0
  9
$AXISUNIT
 10
0
 20
0
  9
$SKETCHINC
 40
0.1
  9
$FILLETRAD
 40
2
  9
$AUNITS
 70
0
  9
$AUPREC
 70
0
  9
$MENU
  1
ACAD
  9
$ELEVATION
 40
0
  9
$THICKNESS
 40
0
  9
$VIEWDIR
 10
0
 20
0
 30
1
  9
$LIMCHECK
 70
0
  9
$BLIPMODE
 70
1
  9
$CHAMFERA
 40
0
  9
$CHAMFERB
 40
0
  9
$FASTZOOM
 70
1
  9
$SKPOLY
 70
0
  9
$ANGBASE
 50
0
  9
$ANGDIR
 70
0
  9
$PDMODE
 70
0
  9
$PDSIZE
 40
0
  9
$PLINEWID
 40
0
  9
$COORDS
 70
2
  0
ENDSEC
  0
SECTION
  2
TABLES
  0
TABLE
  2
DIMSTYLE
 70
2
  0
DIMSTYLE
  2
DMST_1
 70
0
  3

  4

  5

  6

  7

 40
1
 41
3
 42
1
 43
7
 44
1
 45
0
 46
0
 47
0
 48
0
140
3
141
0
142
0
143
25.4
144
1
145
0
146
1
147
0.09
 71
0
 72
0
 73
0
 74
0
 75
0
 76
0
 77
1
 78
1
170
0
171
2
172
0
173
0
174
0
175
0
176
2
177
2
178
2
  0
DIMSTYLE
  2
DMST_2
 70
0
  3

  4

  5

  6

  7

 40
1
 41
3
 42
1
 43
7
 44
1
 45
0
 46
0
 47
0
 48
0
140
3
141
0
142
0
143
25.4
144
1
145
0
146
1
147
0.09
 71
0
 72
0
 73
0
 74
0
 75
0
 76
0
 77
1
 78
1
170
0
171
2
172
1
173
0
174
0
175
0
176
2
177
2
178
2
  0
ENDTAB
  0
TABLE
  2
LTYPE
 70
9
  0
LTYPE
  2
CONTINUOUS
 70
64
  3
Solid line
 72
65
 73
0
 40
0
  0
LTYPE
  2
BORDER
 70
64
  3
__ __ . __ __ .
 72
65
 73
6
 40
35.52664220041694
 49
10.15046920011913
 49
-5.075234600059564
 49
10.15046920011913
 49
-5.075234600059564
 49
0
 49
-5.075234600059564
  0
LTYPE
  2
CENTER
 70
64
  3
____ _ ____ _
 72
65
 73
4
 40
40.60187680047651
 49
25.37617300029782
 49
-5.075234600059564
 49
5.075234600059564
 49
-5.075234600059564
  0
LTYPE
  2
DASHDOT
 70
64
  3
__ . __ . __ .
 72
65
 73
4
 40
20.30093840023826
 49
10.15046920011913
 49
-5.075234600059564
 49
0
 49
-5.075234600059564
  0
LTYPE
  2
DASHED
 70
64
  3
__ __ __ __ __
 72
65
 73
2
 40
15.22570380017869
 49
10.15046920011913
 49
-5.075234600059564
  0
LTYPE
  2
DIVIDE
 70
64
  3
__ . . __ . . 
 72
65
 73
6
 40
25.37617300029782
 49
10.15046920011913
 49
-5.075234600059564
 49
0
 49
-5.075234600059564
 49
0
 49
-5.075234600059564
  0
LTYPE
  2
DOT
 70
64
  3
..............
 72
65
 73
4
 40
10.15046920011913
 49
0
 49
-5.075234600059564
 49
0
 49
-5.075234600059564
  0
LTYPE
  2
HIDDEN
 70
64
  3
_ _ _ _ _ _ _
 72
65
 73
2
 40
7.612851900089346
 49
5.075234600059564
 49
-2.537617300029782
  0
LTYPE
  2
PHANTOM
 70
64
  3
_____ _ _ _____ _ _ 
 72
65
 73
6
 40
50.75234600059564
 49
25.37617300029782
 49
-5.075234600059564
 49
5.075234600059564
 49
-5.075234600059564
 49
5.075234600059564
 49
-5.075234600059564
  0
ENDTAB
  0
TABLE
  2
LAYER
 70
3
  0
LAYER
  2
0
 70
0
 62
7
  6
CONTINUOUS
  0
LAYER
  2
1
 70
0
 62
7
  6
CONTINUOUS
  0
ENDTAB
  0
TABLE
  2
STYLE
 70
4
  0
STYLE
  2
STANDARD
 70
0
 40
0
 41
1
 50
0
 71
0
 42
3.5
  3
txt
  4

  0
STYLE
  2
SIMPLEX
 70
0
 40
0
 41
1
 50
0
 71
0
 42
3.5
  3
simplex
  4

  0
STYLE
  2
COMPLEX
 70
0
 40
0
 41
1
 50
0
 71
0
 42
3.5
  3
complex
  4

  0
STYLE
  2
ITALIC
 70
0
 40
0
 41
1
 50
0
 71
0
 42
3.5
  3
italic
  4

  0
ENDTAB
  0
TABLE
  2
VIEW
 70
0
  0
ENDTAB
  0
ENDSEC
  0
SECTION
  2
BLOCKS
  0
BLOCK
  8
1
  2
*D0
 70
1
 10
0
 20
0
 30
0
  0
LINE
  8
1
 62
2
 10
460.308997376692
 20
555.0691800092093
 30
0
 11
460.308997376692
 21
741.0691825718993
 31
0
  0
LINE
  8
1
 62
2
 10
427.1413851546565
 20
741.0691825718993
 30
0
 11
461.308997376692
 21
741.0691825718993
 31
0
  0
LINE
  8
1
 62
2
 10
427.1413851546565
 20
555.0691800092093
 30
0
 11
461.308997376692
 21
555.0691800092093
 31
0
  0
SOLID
  8
1
 62
2
 10
460.308997376692
 20
555.0691800092093
 30
0
 11
459.918997376692
 21
558.0691800092093
 31
0
 12
460.698997376692
 22
558.0691800092093
 32
0
 13
460.698997376692
 23
558.0691800092093
 33
0
  0
SOLID
  8
1
 62
2
 10
460.308997376692
 20
741.0691825718993
 30
0
 11
460.698997376692
 21
738.0691825718993
 31
0
 12
459.918997376692
 22
738.0691825718993
 32
0
 13
459.918997376692
 23
738.0691825718993
 33
0
  0
TEXT
  8
1
 62
2
 10
459.308997376692
 20
644.6546908194914
 30
0
 40
3
  1
186
 50
90
 41
0.8910000000000001
 51
10
  0
ENDBLK
  8
0
  0
BLOCK
  8
1
  2
*D1
 70
1
 10
0
 20
0
 30
0
  0
LINE
  8
1
 62
2
 10
460.308997376692
 20
195.8908245700457
 30
0
 11
460.308997376692
 21
295.8908250668459
 31
0
  0
LINE
  8
1
 62
2
 10
352.1413866449814
 20
195.8908245700457
 30
0
 11
461.308997376692
 21
195.8908245700457
 31
0
  0
LINE
  8
1
 62
2
 10
444.1413891878863
 20
295.8908250668459
 30
0
 11
461.308997376692
 21
295.8908250668459
 31
0
  0
SOLID
  8
1
 62
2
 10
460.308997376692
 20
195.8908245700457
 30
0
 11
459.918997376692
 21
198.8908245700457
 31
0
 12
460.698997376692
 22
198.8908245700457
 32
0
 13
460.698997376692
 23
198.8908245700457
 33
0
  0
SOLID
  8
1
 62
2
 10
460.308997376692
 20
295.8908250668459
 30
0
 11
460.698997376692
 21
292.8908250668459
 31
0
 12
459.918997376692
 22
292.8908250668459
 32
0
 13
459.918997376692
 23
292.8908250668459
 33
0
  0
TEXT
  8
1
 62
2
 10
459.308997376692
 20
242.4763343473831
 30
0
 40
3
  1
100
 50
90
 41
0.8910000000000001
 51
10
  0
ENDBLK
  8
0
  0
BLOCK
  8
1
  2
*D2
 70
1
 10
0
 20
0
 30
0
  0
LINE
  8
1
 62
2
 10
480.308997376692
 20
195.8908245700457
 30
0
 11
480.308997376692
 21
462.2408304713589
 31
0
  0
LINE
  8
1
 62
2
 10
352.1413866449814
 20
195.8908245700457
 30
0
 11
481.308997376692
 21
195.8908245700457
 31
0
  0
LINE
  8
1
 62
2
 10
339.1413865057364
 20
462.2408304713589
 30
0
 11
481.308997376692
 21
462.2408304713589
 31
0
  0
SOLID
  8
1
 62
2
 10
480.308997376692
 20
195.8908245700457
 30
0
 11
479.918997376692
 21
198.8908245700457
 31
0
 12
480.698997376692
 22
198.8908245700457
 32
0
 13
480.698997376692
 23
198.8908245700457
 33
0
  0
SOLID
  8
1
 62
2
 10
480.308997376692
 20
462.2408304713589
 30
0
 11
480.698997376692
 21
459.2408304713589
 31
0
 12
479.918997376692
 22
459.2408304713589
 32
0
 13
479.918997376692
 23
459.2408304713589
 33
0
  0
TEXT
  8
1
 62
2
 10
479.308997376692
 20
325.2013370496396
 30
0
 40
3
  1
267
 50
90
 41
0.8910000000000001
 51
10
  0
ENDBLK
  8
0
  0
BLOCK
  8
1
  2
*D3
 70
1
 10
0
 20
0
 30
0
  0
LINE
  8
1
 62
2
 10
158.1413811414361
 20
154.3778463835322
 30
0
 11
301.141386396431
 21
154.3778463835322
 31
0
  0
LINE
  8
1
 62
2
 10
158.1413811414361
 20
154.3778463835322
 30
0
 11
301.141386396431
 21
154.3778463835322
 31
0
  0
LINE
  8
1
 62
2
 10
158.1413811414361
 20
238.8908238945058
 30
0
 11
158.1413811414361
 21
153.3778463835322
 31
0
  0
LINE
  8
1
 62
2
 10
301.141386396431
 20
179.8908245700457
 30
0
 11
301.141386396431
 21
153.3778463835322
 31
0
  0
SOLID
  8
1
 62
2
 10
301.141386396431
 20
154.3778463835322
 30
0
 11
298.141386396431
 21
153.9878463835322
 31
0
 12
298.141386396431
 22
154.7678463835322
 32
0
 13
298.141386396431
 23
154.7678463835322
 33
0
  0
SOLID
  8
1
 62
2
 10
158.1413811414361
 20
154.3778463835322
 30
0
 11
161.1413811414361
 21
154.7678463835322
 31
0
 12
161.1413811414361
 22
153.9878463835322
 32
0
 13
161.1413811414361
 23
153.9878463835322
 33
0
  0
TEXT
  8
1
 62
2
 10
226.2268932978709
 20
155.3778463835322
 30
0
 40
3
  1
143
 41
0.8910000000000001
 51
10
  0
ENDBLK
  8
0
  0
BLOCK
  8
1
  2
*D4
 70
1
 10
0
 20
0
 30
0
  0
LINE
  8
1
 62
2
 10
301.141386396431
 20
154.3778463835322
 30
0
 11
428.1413891878862
 21
154.3778463835322
 31
0
  0
LINE
  8
1
 62
2
 10
301.141386396431
 20
154.3778463835322
 30
0
 11
428.1413891878862
 21
154.3778463835322
 31
0
  0
LINE
  8
1
 62
2
 10
301.141386396431
 20
179.8908245700457
 30
0
 11
301.141386396431
 21
153.3778463835322
 31
0
  0
LINE
  8
1
 62
2
 10
428.1413891878862
 20
238.8908238945058
 30
0
 11
428.1413891878862
 21
153.3778463835322
 31
0
  0
SOLID
  8
1
 62
2
 10
428.1413891878862
 20
154.3778463835322
 30
0
 11
425.1413891878862
 21
153.9878463835322
 31
0
 12
425.1413891878862
 22
154.7678463835322
 32
0
 13
425.1413891878862
 23
154.7678463835322
 33
0
  0
SOLID
  8
1
 62
2
 10
301.141386396431
 20
154.3778463835322
 30
0
 11
304.141386396431
 21
154.7678463835322
 31
0
 12
304.141386396431
 22
153.9878463835322
 32
0
 13
304.141386396431
 23
153.9878463835322
 33
0
  0
TEXT
  8
1
 62
2
 10
361.2268973210959
 20
155.3778463835322
 30
0
 40
3
  1
127
 41
0.8910000000000001
 51
10
  0
ENDBLK
  8
0
  0
BLOCK
  8
1
  2
*D5
 70
1
 10
0
 20
0
 30
0
  0
LINE
  8
1
 62
2
 10
158.1413811414361
 20
134.3778463835322
 30
0
 11
428.1413891878862
 21
134.3778463835322
 31
0
  0
LINE
  8
1
 62
2
 10
158.1413811414361
 20
134.3778463835322
 30
0
 11
428.1413891878862
 21
134.3778463835322
 31
0
  0
LINE
  8
1
 62
2
 10
158.1413811414361
 20
238.8908238945058
 30
0
 11
158.1413811414361
 21
133.3778463835322
 31
0
  0
LINE
  8
1
 62
2
 10
428.1413891878862
 20
238.8908238945058
 30
0
 11
428.1413891878862
 21
133.3778463835322
 31
0
  0
SOLID
  8
1
 62
2
 10
428.1413891878862
 20
134.3778463835322
 30
0
 11
425.1413891878862
 21
133.9878463835322
 31
0
 12
425.1413891878862
 22
134.7678463835322
 32
0
 13
425.1413891878862
 23
134.7678463835322
 33
0
  0
SOLID
  8
1
 62
2
 10
158.1413811414361
 20
134.3778463835322
 30
0
 11
161.1413811414361
 21
134.7678463835322
 31
0
 12
161.1413811414361
 22
133.9878463835322
 32
0
 13
161.1413811414361
 23
133.9878463835322
 33
0
  0
TEXT
  8
1
 62
2
 10
297.2768959253683
 20
135.3778463835322
 30
0
 40
3
  1
270
 41
0.8910000000000001
 51
10
  0
ENDBLK
  8
0
  0
BLOCK
  8
1
  2
*D6
 70
1
 10
0
 20
0
 30
0
  0
LINE
  8
1
 62
2
 10
694.7495779042586
 20
267.5048549044972
 30
0
 11
853.1224194391488
 21
360.6337473204145
 31
0
  0
SOLID
  8
1
 62
2
 10
791.2946271948351
 20
324.2767952291945
 30
0
 11
788.9062870715972
 21
322.419934583984
 31
0
 12
788.5109110546936
 22
323.0923018982232
 32
0
 13
788.5109110546936
 23
323.0923018982232
 33
0
  0
SOLID
  8
1
 62
2
 10
694.7495779042586
 20
267.5048549044972
 30
0
 11
697.1379180274965
 21
269.3617155497078
 31
0
 12
697.5332940444001
 22
268.6893482354685
 32
0
 13
697.5332940444001
 23
268.6893482354685
 33
0
  0
TEXT
  8
1
 62
2
 10
847.5046899402555
 20
358.4904017371379
 30
0
 40
3
  1
112
 50
30.45705016336797
 41
0.8910000000000001
 51
10
  0
TEXT
  8
1
 62
2
 10
843.9454696497398
 20
356.3974529694859
 30
0
 40
3
  1
%%c
 50
30.45705016336797
 41
0.8910000000000001
 51
10
  0
ENDBLK
  8
0
  0
BLOCK
  8
1
  2
*D7
 70
1
 10
0
 20
0
 30
0
  0
LINE
  8
1
 62
2
 10
679.747932548604
 20
265.9512306586227
 30
0
 11
858.6998828468766
 21
350.6263644519378
 31
0
  0
SOLID
  8
1
 62
2
 10
806.2962725504896
 20
325.8304194750691
 30
0
 11
803.751328694011
 21
324.1947664656041
 31
0
 12
803.4177160672906
 22
324.8998215097622
 32
0
 13
803.4177160672906
 23
324.8998215097622
 33
0
  0
SOLID
  8
1
 62
2
 10
679.747932548604
 20
265.9512306586227
 30
0
 11
682.2928764050826
 21
267.5868836680877
 31
0
 12
682.626489031803
 22
266.8818286239297
 32
0
 13
682.626489031803
 23
266.8818286239297
 33
0
  0
TEXT
  8
1
 62
2
 10
852.0993442745365
 20
348.6094680086459
 30
0
 40
3
  1
140
 50
25.3222231913423
 41
0.8910000000000001
 51
10
  0
TEXT
  8
1
 62
2
 10
848.3670893508466
 20
346.8434677807219
 30
0
 40
3
  1
%%c
 50
25.3222231913423
 41
0.8910000000000001
 51
10
  0
ENDBLK
  8
0
  0
BLOCK
  8
1
  2
*D8
 70
1
 10
0
 20
0
 30
0
  0
LINE
  8
1
 62
2
 10
672.4489496036114
 20
270.5051997741557
 30
0
 11
862.599853818588
 21
338.9037253036236
 31
0
  0
SOLID
  8
1
 62
2
 10
813.5952554954823
 20
321.2764503595359
 30
0
 11
810.9043346024326
 21
319.8940449387752
 31
0
 12
810.6403240967657
 22
320.6280057367048
 32
0
 13
810.6403240967657
 23
320.6280057367048
 33
0
  0
SOLID
  8
1
 62
2
 10
672.4489496036114
 20
270.5051997741557
 30
0
 11
675.1398704966611
 21
271.8876051949164
 31
0
 12
675.403881002328
 22
271.1536443969868
 32
0
 13
675.403881002328
 23
271.1536443969868
 33
0
  0
TEXT
  8
1
 62
2
 10
855.8354758609015
 20
337.5332613115843
 30
0
 40
3
  1
150
 50
19.78399048298321
 41
0.8910000000000001
 51
10
  0
TEXT
  8
1
 62
2
 10
851.9502064417751
 20
336.1357044572002
 30
0
 40
3
  1
%%c
 50
19.78399048298321
 41
0.8910000000000001
 51
10
  0
ENDBLK
  8
0
  0
BLOCK
  8
1
  2
*D9
 70
1
 10
0
 20
0
 30
0
  0
LINE
  8
1
 62
2
 10
652.8187442056859
 20
273.2555876783531
 30
0
 11
865.2028873218833
 21
326.5503383977305
 31
0
  0
SOLID
  8
1
 62
2
 10
833.2254608934079
 20
318.5260624553386
 30
0
 11
830.4105970756565
 21
317.4176213484167
 31
0
 12
830.2207531472863
 22
318.1741656517202
 32
0
 13
830.2207531472863
 23
318.1741656517202
 33
0
  0
SOLID
  8
1
 62
2
 10
652.8187442056859
 20
273.2555876783531
 30
0
 11
655.6336080234373
 21
274.364028785275
 31
0
 12
655.8234519518076
 22
273.6074844819715
 32
0
 13
655.8234519518076
 23
273.6074844819715
 33
0
  0
TEXT
  8
1
 62
2
 10
858.3358737866226
 20
325.8581636983522
 30
0
 40
3
  1
186
 50
14.08668710749863
 41
0.8910000000000001
 51
10
  0
TEXT
  8
1
 62
2
 10
854.3310571068615
 20
324.8532124647383
 30
0
 40
3
  1
%%c
 50
14.08668710749863
 41
0.8910000000000001
 51
10
  0
ENDBLK
  8
0
  0
ENDSEC
  0
SECTION
  2
ENTITIES
  0
POLYLINE
  8
0
 62
7
 66
1
  0
VERTEX
  8
0
 10
651.1046184641475
 20
328.0133771424083
 30
0
  0
VERTEX
  8
0
 10
651.1160327533337
 20
328.084828209798
 30
0
  0
VERTEX
  8
0
 10
651.3098074515085
 20
328.6213594142681
 30
0
  0
VERTEX
  8
0
 10
651.4377339191376
 20
328.6956901309293
 30
0
  0
SEQEND
  8
0
  0
POLYLINE
  8
0
 62
7
 66
1
  0
VERTEX
  8
0
 10
652.3361547210118
 20
327.4901042461068
 30
0
  0
VERTEX
  8
0
 10
652.1900115839637
 20
327.8845677810876
 30
0
  0
VERTEX
  8
0
 10
652.0839078667179
 20
327.9849308261908
 30
0
  0
VERTEX
  8
0
 10
651.9743321790063
 20
328.0133771424083
 30
0
  0
SEQEND
  8
0
  0
POLYLINE
  8
0
 62
7
 66
1
  0
VERTEX
  8
0
 10
650.6984873196823
 20
328.0133771424083
 30
0
  0
VERTEX
  8
0
 10
650.6810380601553
 20
322.0494258526599
 30
0
  0
VERTEX
  8
0
 10
651.0549826966401
 20
316.0717096150486
 30
0
  0
SEQEND
  8
0
  0
POLYLINE
  8
0
 62
7
 66
1
  0
VERTEX
  8
0
 10
651.7323447744104
 20
326.356338231871
 30
0
  0
VERTEX
  8
0
 10
651.7718701040178
 20
326.3437579266959
 30
0
  0
VERTEX
  8
0
 10
651.8104194076352
 20
326.3018148836125
 30
0
  0
VERTEX
  8
0
 10
651.8707914616355
 20
326.1253627852655
 30
0
  0
VERTEX
  8
0
 10
651.877675797967
 20
326.09470178357
 30
0
  0
SEQEND
  8
0
  0
POLYLINE
  8
0
 62
7
 66
1
  0
VERTEX
  8
0
 10
653.3626584525134
 20
345.890825315096
 30
0
  0
VERTEX
  8
0
 10
655.8239949811602
 20
348.4219290798495
 30
0
  0
VERTEX
  8
0
 10
659.4754350883829
 20
350.8908242224209
 30
0
  0
SEQEND
  8
0
  0
POLYLINE
  8
0
 62
7
 66
1
  0
VERTEX
  8
0
 10
659.4754350883829
 20
350.8908242224209
 30
0
  0
VERTEX
  8
0
 10
657.4965683520429
 20
353.3611871293777
 30
0
  0
VERTEX
  8
0
 10
656.3751442248847
 20
355.8908231297458
 30
0
  0
SEQEND
  8
0
  0
POLYLINE
  8
0
 62
7
 66
1
  0
VERTEX
  8
0
 10
829.6690608742099
 20
355.8908231297458
 30
0
  0
VERTEX
  8
0
 10
828.5612489574162
 20
353.3828459669629
 30
0
  0
VERTEX
  8
0
 10
826.5687700107112
 20
350.8908242224209
 30
0
  0
SEQEND
  8
0
  0
POLYLINE
  8
0
 62
7
 66
1
  0
VERTEX
  8
0
 10
832.6815466465807
 20
345.890825315096
 30
0
  0
VERTEX
  8
0
 10
830.2202101179339
 20
348.4219290798495
 30
0
  0
VERTEX
  8
0
 10
826.5687700107112
 20
350.8908242224209
 30
0
  0
SEQEND
  8
0
  0
POLYLINE
  8
0
 62
7
 66
1
  0
VERTEX
  8
0
 10
655.7317642447763
 20
327.7135397051873
 30
0
  0
VERTEX
  8
0
 10
655.5079562564999
 20
327.9597776663407
 30
0
  0
VERTEX
  8
0
 10
655.2906600756589
 20
328.0133771424083
 30
0
  0
SEQEND
  8
0
  0
POLYLINE
  8
0
 62
7
 66
1
  0
VERTEX
  8
0
 10
655.2906600756589
 20
328.0133771424083
 30
0
  0
VERTEX
  8
0
 10
654.7541288708896
 20
327.6868256486526
 30
0
  0
VERTEX
  8
0
 10
654.3303920048991
 20
326.8177787605862
 30
0
  0
VERTEX
  8
0
 10
654.2403591899936
 20
326.5307637726381
 30
0
  0
SEQEND
  8
0
  0
POLYLINE
  8
0
 62
7
 66
1
  0
VERTEX
  8
0
 10
653.6556599821026
 20
328.0133771424083
 30
0
  0
VERTEX
  8
0
 10
653.4034503809082
 20
322.0586384952683
 30
0
  0
VERTEX
  8
0
 10
653.4487722621577
 20
320.5067477650862
 30
0
  0
SEQEND
  8
0
  0
POLYLINE
  8
0
 62
7
 66
1
  0
VERTEX
  8
0
 10
654.8652468288854
 20
326.356338231871
 30
0
  0
VERTEX
  8
0
 10
654.9526421383168
 20
326.3315706395168
 30
0
  0
VERTEX
  8
0
 10
655.0711659733395
 20
326.1827434309956
 30
0
  0
VERTEX
  8
0
 10
655.1100505530528
 20
326.09470178357
 30
0
  0
SEQEND
  8
0
  0
POLYLINE
  8
0
 62
7
 66
1
  0
VERTEX
  8
0
 10
661.1853060656952
 20
350.8908242224209
 30
0
  0
VERTEX
  8
0
 10
659.1481459873346
 20
353.3595070234945
 30
0
  0
VERTEX
  8
0
 10
657.9905418407354
 20
355.8908231297458
 30
0
  0
SEQEND
  8
0
  0
POLYLINE
  8
0
 62
7
 66
1
  0
VERTEX
  8
0
 10
654.9215061625262
 20
345.890825315096
 30
0
  0
VERTEX
  8
0
 10
657.4459342070461
 20
348.4233782178347
 30
0
  0
VERTEX
  8
0
 10
661.1853060656952
 20
350.8908242224209
 30
0
  0
SEQEND
  8
0
  0
POLYLINE
  8
0
 62
7
 66
1
  0
VERTEX
  8
0
 10
831.1226989365675
 20
345.890825315096
 30
0
  0
VERTEX
  8
0
 10
828.5982708920481
 20
348.4233782178347
 30
0
  0
VERTEX
  8
0
 10
824.8588990333985
 20
350.8908242224209
 30
0
  0
SEQEND
  8
0
  0
POLYLINE
  8
0
 62
7
 66
1
  0
VERTEX
  8
0
 10
828.0536632583587
 20
355.8908231297458
 30
0
  0
VERTEX
  8
0
 10
826.9108410635124
 20
353.382331876768
 30
0
  0
VERTEX
  8
0
 10
824.8588990333985
 20
350.8908242224209
 30
0
  0
SEQEND
  8
0
  0
POLYLINE
  8
0
 62
7
 66
1
  0
VERTEX
  8
0
 10
662.0221031157819
 20
426.5908308493411
 30
0
  0
VERTEX
  8
0
 10
662.0423835961803
 20
426.5991009936591
 30
0
  0
VERTEX
  8
0
 10
664.8492184447944
 20
427.7030386084915
 30
0
  0
SEQEND
  8
0
  0
POLYLINE
  8
0
 62
7
 66
1
  0
VERTEX
  8
0
 10
821.1949866542993
 20
427.7030386084915
 30
0
  0
VERTEX
  8
0
 10
823.5114689964855
 20
426.7990447726727
 30
0
  0
VERTEX
  8
0
 10
824.0018215029138
 20
426.5991009936591
 30
0
  0
VERTEX
  8
0
 10
824.0221019833123
 20
426.5908308493411
 30
0
  0
SEQEND
  8
0
  0
POLYLINE
  8
0
 62
7
 66
1
  0
VERTEX
  8
0
 10
712.9144072394668
 20
426.5908308493411
 30
0
  0
VERTEX
  8
0
 10
712.9245344407666
 20
426.5991009936591
 30
0
  0
VERTEX
  8
0
 10
714.0354402113296
 20
427.7030386084915
 30
0
  0
SEQEND
  8
0
  0
POLYLINE
  8
0
 62
7
 66
1
  0
VERTEX
  8
0
 10
714.0354402113296
 20
427.7030386084915
 30
0
  0
VERTEX
  8
0
 10
714.2961732765391
 20
428.1455583881951
 30
0
  0
VERTEX
  8
0
 10
714.4625503276859
 20
428.5044677532295
 30
0
  0
VERTEX
  8
0
 10
714.5151197612638
 20
428.5908199812714
 30
0
  0
SEQEND
  8
0
  0
POLYLINE
  8
0
 62
7
 66
1
  0
VERTEX
  8
0
 10
771.5290853378303
 20
428.5908199812714
 30
0
  0
VERTEX
  8
0
 10
771.5816547714078
 20
428.5044677532295
 30
0
  0
VERTEX
  8
0
 10
771.7452415798828
 20
428.1513102362381
 30
0
  0
VERTEX
  8
0
 10
772.0087648877645
 20
427.7030386084915
 30
0
  0
SEQEND
  8
0
  0
POLYLINE
  8
0
 62
7
 66
1
  0
VERTEX
  8
0
 10
702.5221028328144
 20
437.7423233343514
 30
0
  0
VERTEX
  8
0
 10
700.1949438087347
 20
438.3579350006351
 30
0
  0
VERTEX
  8
0
 10
697.7721044296056
 20
438.5908252464213
 30
0
  0
SEQEND
  8
0
  0
POLYLINE
  8
0
 62
7
 66
1
  0
VERTEX
  8
0
 10
712.0221033640321
 20
437.7423233343514
 30
0
  0
VERTEX
  8
0
 10
709.6949443402521
 20
438.3579350006351
 30
0
  0
VERTEX
  8
0
 10
707.2721012357231
 20
438.5908252464213
 30
0
  0
SEQEND
  8
0
  0
POLYLINE
  8
0
 62
7
 66
1
  0
VERTEX
  8
0
 10
671.5220999218993
 20
437.7423233343514
 30
0
  0
VERTEX
  8
0
 10
668.0647697889483
 20
438.5235316032898
 30
0
  0
VERTEX
  8
0
 10
666.7721015189907
 20
438.5908252464213
 30
0
  0
SEQEND
  8
0
  0
POLYLINE
  8
0
 62
7
 66
1
  0
VERTEX
  8
0
 10
666.7721015189907
 20
438.5908252464213
 30
0
  0
VERTEX
  8
0
 10
663.222413989957
 20
438.1020820653769
 30
0
  0
VERTEX
  8
0
 10
662.0221031157819
 20
437.7423233343514
 30
0
  0
SEQEND
  8
0
  0
POLYLINE
  8
0
 62
7
 66
1
  0
VERTEX
  8
0
 10
662.0221031157819
 20
437.7423233343514
 30
0
  0
VERTEX
  8
0
 10
659.6949440920023
 20
438.3579350006351
 30
0
  0
VERTEX
  8
0
 10
657.2721047128732
 20
438.5908252464213
 30
0
  0
SEQEND
  8
0
  0
POLYLINE
  8
0
 62
7
 66
1
  0
VERTEX
  8
0
 10
833.5220987894293
 20
437.7423233343514
 30
0
  0
VERTEX
  8
0
 10
832.3217879155548
 20
438.1020820653769
 30
0
  0
VERTEX
  8
0
 10
828.7721003862214
 20
438.5908252464213
 30
0
  0
SEQEND
  8
0
  0
POLYLINE
  8
0
 62
7
 66
1
  0
VERTEX
  8
0
 10
828.7721003862214
 20
438.5908252464213
 30
0
  0
VERTEX
  8
0
 10
827.4794395667639
 20
438.5235316032898
 30
0
  0
VERTEX
  8
0
 10
824.0221019833123
 20
437.7423233343514
 30
0
  0
SEQEND
  8
0
  0
POLYLINE
  8
0
 62
7
 66
1
  0
VERTEX
  8
0
 10
824.0221019833123
 20
437.7423233343514
 30
0
  0
VERTEX
  8
0
 10
821.6949429592326
 20
438.3579350006351
 30
0
  0
VERTEX
  8
0
 10
819.2721035801035
 20
438.5908252464213
 30
0
  0
SEQEND
  8
0
  0
POLYLINE
  8
0
 62
7
 66
1
  0
VERTEX
  8
0
 10
778.7721038633706
 20
438.5908252464213
 30
0
  0
VERTEX
  8
0
 10
777.4794355931133
 20
438.5235316032898
 30
0
  0
VERTEX
  8
0
 10
774.0221017350616
 20
437.7423233343514
 30
0
  0
SEQEND
  8
0
  0
POLYLINE
  8
0
 62
7
 66
1
  0
VERTEX
  8
0
 10
783.5221022662793
 20
437.7423233343514
 30
0
  0
VERTEX
  8
0
 10
782.3217913924048
 20
438.1020820653769
 30
0
  0
VERTEX
  8
0
 10
778.7721038633706
 20
438.5908252464213
 30
0
  0
SEQEND
  8
0
  0
POLYLINE
  8
0
 62
7
 66
1
  0
VERTEX
  8
0
 10
793.0221027977971
 20
437.7423233343514
 30
0
  0
VERTEX
  8
0
 10
790.6949437737173
 20
438.3579350006351
 30
0
  0
VERTEX
  8
0
 10
788.2721006694881
 20
438.5908252464213
 30
0
  0
SEQEND
  8
0
  0
POLYLINE
  8
0
 62
7
 66
1
  0
VERTEX
  8
0
 10
774.0221017350616
 20
387.739331677831
 30
0
  0
VERTEX
  8
0
 10
776.3492607588421
 20
387.1237125610467
 30
0
  0
VERTEX
  8
0
 10
778.7721038633706
 20
386.8908223149609
 30
0
  0
SEQEND
  8
0
  0
POLYLINE
  8
0
 62
7
 66
1
  0
VERTEX
  8
0
 10
783.5221022662793
 20
387.739331677831
 30
0
  0
VERTEX
  8
0
 10
785.849261290359
 20
387.1237125610467
 30
0
  0
VERTEX
  8
0
 10
788.2721006694881
 20
386.8908223149609
 30
0
  0
SEQEND
  8
0
  0
POLYLINE
  8
0
 62
7
 66
1
  0
VERTEX
  8
0
 10
814.5221051771944
 20
387.739331677831
 30
0
  0
VERTEX
  8
0
 10
815.7224160510698
 20
387.3795580455051
 30
0
  0
VERTEX
  8
0
 10
819.2721035801035
 20
386.8908223149609
 30
0
  0
SEQEND
  8
0
  0
POLYLINE
  8
0
 62
7
 66
1
  0
VERTEX
  8
0
 10
819.2721035801035
 20
386.8908223149609
 30
0
  0
VERTEX
  8
0
 10
820.5647643995605
 20
386.9581159583921
 30
0
  0
VERTEX
  8
0
 10
824.0221019833123
 20
387.739331677831
 30
0
  0
SEQEND
  8
0
  0
POLYLINE
  8
0
 62
7
 66
1
  0
VERTEX
  8
0
 10
824.0221019833123
 20
387.739331677831
 30
0
  0
VERTEX
  8
0
 10
826.3492610070919
 20
387.1237125610467
 30
0
  0
VERTEX
  8
0
 10
828.7721003862214
 20
386.8908223149609
 30
0
  0
SEQEND
  8
0
  0
POLYLINE
  8
0
 62
7
 66
1
  0
VERTEX
  8
0
 10
652.5221063096644
 20
387.739331677831
 30
0
  0
VERTEX
  8
0
 10
655.9794364426159
 20
386.9581159583921
 30
0
  0
VERTEX
  8
0
 10
657.2721047128732
 20
386.8908223149609
 30
0
  0
SEQEND
  8
0
  0
POLYLINE
  8
0
 62
7
 66
1
  0
VERTEX
  8
0
 10
657.2721047128732
 20
386.8908223149609
 30
0
  0
VERTEX
  8
0
 10
660.8217922419069
 20
387.3795580455051
 30
0
  0
VERTEX
  8
0
 10
662.0221031157819
 20
387.739331677831
 30
0
  0
SEQEND
  8
0
  0
POLYLINE
  8
0
 62
7
 66
1
  0
VERTEX
  8
0
 10
662.0221031157819
 20
387.739331677831
 30
0
  0
VERTEX
  8
0
 10
664.3492621398616
 20
387.1237125610467
 30
0
  0
VERTEX
  8
0
 10
666.7721015189907
 20
386.8908223149609
 30
0
  0
SEQEND
  8
0
  0
POLYLINE
  8
0
 62
7
 66
1
  0
VERTEX
  8
0
 10
707.2721012357231
 20
386.8908223149609
 30
0
  0
VERTEX
  8
0
 10
710.8217924901567
 20
387.3795580455051
 30
0
  0
VERTEX
  8
0
 10
712.0221033640321
 20
387.739331677831
 30
0
  0
SEQEND
  8
0
  0
POLYLINE
  8
0
 62
7
 66
1
  0
VERTEX
  8
0
 10
702.5221028328144
 20
387.739331677831
 30
0
  0
VERTEX
  8
0
 10
705.9794366908657
 20
386.9581159583921
 30
0
  0
VERTEX
  8
0
 10
707.2721012357231
 20
386.8908223149609
 30
0
  0
SEQEND
  8
0
  0
POLYLINE
  8
0
 62
7
 66
1
  0
VERTEX
  8
0
 10
693.0221023012971
 20
387.739331677831
 30
0
  0
VERTEX
  8
0
 10
695.3492613253768
 20
387.1237125610467
 30
0
  0
VERTEX
  8
0
 10
697.7721044296056
 20
386.8908223149609
 30
0
  0
SEQEND
  8
0
  0
POLYLINE
  8
0
 62
7
 66
1
  0
VERTEX
  8
0
 10
678.9542179063612
 20
386.5599569352478
 30
0
  0
VERTEX
  8
0
 10
678.9234470089671
 20
386.2362441125641
 30
0
  0
VERTEX
  8
0
 10
678.8968037329316
 20
386.0613268337018
 30
0
  0
VERTEX
  8
0
 10
678.8225810498691
 20
385.7140105719525
 30
0
  0
VERTEX
  8
0
 10
678.6042492381382
 20
385.0632843197175
 30
0
  0
VERTEX
  8
0
 10
678.3648844377165
 20
384.615407572667
 30
0
  0
VERTEX
  8
0
 10
678.289529266365
 20
384.5092144485223
 30
0
  0
VERTEX
  8
0
 10
678.3435906785282
 20
384.5722761620953
 30
0
  0
VERTEX
  8
0
 10
678.3800314678658
 20
384.6107584103132
 30
0
  0
VERTEX
  8
0
 10
678.2850663686093
 20
384.529353367622
 30
0
  0
VERTEX
  8
0
 10
677.9761578494788
 20
384.2975732583248
 30
0
  0
VERTEX
  8
0
 10
677.8221468993086
 20
384.1957610752364
 30
0
  0
SEQEND
  8
0
  0
POLYLINE
  8
0
 62
7
 66
1
  0
VERTEX
  8
0
 10
808.2126332153791
 20
384.1991212870028
 30
0
  0
VERTEX
  8
0
 10
807.8511310484712
 20
384.4568517686424
 30
0
  0
VERTEX
  8
0
 10
807.6775995772948
 20
384.5984202492357
 30
0
  0
VERTEX
  8
0
 10
807.6915470640563
 20
384.5822301376969
 30
0
  0
VERTEX
  8
0
 10
807.763772991839
 20
384.497591542938
 30
0
  0
VERTEX
  8
0
 10
807.7274216093999
 20
384.54566268836
 30
0
  0
VERTEX
  8
0
 10
807.6783446353877
 20
384.6168902383523
 30
0
  0
VERTEX
  8
0
 10
807.4542460743139
 20
385.0311052625373
 30
0
  0
VERTEX
  8
0
 10
807.2261391010804
 20
385.6959950681315
 30
0
  0
VERTEX
  8
0
 10
807.1659086080783
 20
385.9633069961759
 30
0
  0
VERTEX
  8
0
 10
807.1237904765969
 20
386.2107556766171
 30
0
  0
VERTEX
  8
0
 10
807.0900244455322
 20
386.5611117750366
 30
0
  0
SEQEND
  8
0
  0
POLYLINE
  8
0
 62
7
 66
1
  0
VERTEX
  8
0
 10
679.0221001455873
 20
388.0374219540693
 30
0
  0
VERTEX
  8
0
 10
678.9956729364496
 20
386.64227094883
 30
0
  0
VERTEX
  8
0
 10
678.9515729503876
 20
386.0598292670168
 30
0
  0
SEQEND
  8
0
  0
POLYLINE
  8
0
 62
7
 66
1
  0
VERTEX
  8
0
 10
834.9864656877815
 20
315.9002643066518
 30
0
  0
VERTEX
  8
0
 10
835.3950555236218
 20
320.9702241648818
 30
0
  0
VERTEX
  8
0
 10
835.5179006951014
 20
326.4795466193471
 30
0
  0
SEQEND
  8
0
  0
POLYLINE
  8
0
 62
7
 66
1
  0
VERTEX
  8
0
 10
654.4252006421573
 20
352.8965726531936
 30
0
  0
VERTEX
  8
0
 10
653.6982996545792
 20
350.4318498355809
 30
0
  0
VERTEX
  8
0
 10
653.3390177606482
 20
348.8983788031158
 30
0
  0
SEQEND
  8
0
  0
POLYLINE
  8
0
 62
7
 66
1
  0
VERTEX
  8
0
 10
832.7051873384455
 20
348.8983788031158
 30
0
  0
VERTEX
  8
0
 10
832.345905444515
 20
350.4318498355809
 30
0
  0
VERTEX
  8
0
 10
831.6183115529441
 20
352.8989233112705
 30
0
  0
SEQEND
  8
0
  0
POLYLINE
  8
0
 62
7
 66
1
  0
VERTEX
  8
0
 10
659.4196451416376
 20
362.5303073798826
 30
0
  0
VERTEX
  8
0
 10
658.15617569649
 20
359.5720096796734
 30
0
  0
VERTEX
  8
0
 10
656.8761659627069
 20
355.8908231297458
 30
0
  0
SEQEND
  8
0
  0
POLYLINE
  8
0
 62
7
 66
1
  0
VERTEX
  8
0
 10
833.4812323551357
 20
335.8908237753456
 30
0
  0
VERTEX
  8
0
 10
832.6861734571346
 20
341.8839925169039
 30
0
  0
VERTEX
  8
0
 10
831.8770478628728
 20
345.890825315096
 30
0
  0
SEQEND
  8
0
  0
POLYLINE
  8
0
 62
7
 66
1
  0
VERTEX
  8
0
 10
829.1680391363877
 20
355.8908231297458
 30
0
  0
VERTEX
  8
0
 10
827.8880294026046
 20
359.5720096796734
 30
0
  0
VERTEX
  8
0
 10
826.6245599574565
 20
362.5303073798826
 30
0
  0
SEQEND
  8
0
  0
POLYLINE
  8
0
 62
7
 66
1
  0
VERTEX
  8
0
 10
311.4659156662572
 20
556.2216879583591
 30
0
  0
VERTEX
  8
0
 10
310.1088995260391
 20
556.0636685960287
 30
0
  0
VERTEX
  8
0
 10
308.9231596592192
 20
555.9251772055047
 30
0
  0
VERTEX
  8
0
 10
308.4425455270941
 20
555.8701099647522
 30
0
  0
SEQEND
  8
0
  0
POLYLINE
  8
0
 62
7
 66
1
  0
VERTEX
  8
0
 10
309.2565298310071
 20
555.9240596182156
 30
0
  0
VERTEX
  8
0
 10
309.5464384386271
 20
555.9540407542179
 30
0
  0
VERTEX
  8
0
 10
310.1931842180018
 20
556.0209991215527
 30
0
  0
VERTEX
  8
0
 10
310.5356482890991
 20
556.0561062570039
 30
0
  0
SEQEND
  8
0
  0
POLYLINE
  8
0
 62
7
 66
1
  0
VERTEX
  8
0
 10
329.9549903757682
 20
560.15712929406
 30
0
  0
VERTEX
  8
0
 10
330.1009360723181
 20
560.1826326313069
 30
0
  0
VERTEX
  8
0
 10
330.1405955124244
 20
560.1781771840513
 30
0
  0
VERTEX
  8
0
 10
330.1520265656106
 20
560.1651610199804
 30
0
  0
SEQEND
  8
0
  0
POLYLINE
  8
0
 62
7
 66
1
  0
VERTEX
  8
0
 10
335.5365964996147
 20
562.1816531877464
 30
0
  0
VERTEX
  8
0
 10
335.7812661135843
 20
562.2475535726919
 30
0
  0
VERTEX
  8
0
 10
335.8339268167608
 20
562.2501910781659
 30
0
  0
VERTEX
  8
0
 10
335.8499157624021
 20
562.2382999515837
 30
0
  0
SEQEND
  8
0
  0
POLYLINE
  8
0
 62
7
 66
1
  0
VERTEX
  8
0
 10
292.6774878068197
 20
556.2579126807993
 30
0
  0
VERTEX
  8
0
 10
287.0059801843661
 20
556.8166093625484
 30
0
  0
VERTEX
  8
0
 10
281.6413861878639
 20
557.6852203917185
 30
0
  0
SEQEND
  8
0
  0
POLYLINE
  8
0
 62
7
 66
1
  0
VERTEX
  8
0
 10
275.067094517379
 20
559.6044228790513
 30
0
  0
VERTEX
  8
0
 10
274.9653940932897
 20
559.4933123718554
 30
0
  0
VERTEX
  8
0
 10
274.8077360839559
 20
559.4994292985946
 30
0
  0
SEQEND
  8
0
  0
POLYLINE
  8
0
 62
7
 66
1
  0
VERTEX
  8
0
 10
265.798559308462
 20
562.2614489053538
 30
0
  0
VERTEX
  8
0
 10
266.6075917704245
 20
561.863975335403
 30
0
  0
VERTEX
  8
0
 10
267.8050751488274
 20
561.4054517090583
 30
0
  0
SEQEND
  8
0
  0
POLYLINE
  8
0
 62
7
 66
1
  0
VERTEX
  8
0
 10
309.6005799444895
 20
558.8038952550048
 30
0
  0
VERTEX
  8
0
 10
317.2533673601586
 20
560.8710737221675
 30
0
  0
VERTEX
  8
0
 10
326.1413865205566
 20
564.5225138293902
 30
0
  0
SEQEND
  8
0
  0
POLYLINE
  8
0
 62
7
 66
1
  0
VERTEX
  8
0
 10
326.1413865205566
 20
564.5225138293902
 30
0
  0
VERTEX
  8
0
 10
317.2480811733115
 20
562.5436470930501
 30
0
  0
VERTEX
  8
0
 10
312.0479401152745
 20
561.9032920489124
 30
0
  0
SEQEND
  8
0
  0
POLYLINE
  8
0
 62
7
 66
1
  0
VERTEX
  8
0
 10
312.046576659088
 20
734.2369778805776
 30
0
  0
VERTEX
  8
0
 10
317.1701033974862
 20
733.608327698423
 30
0
  0
VERTEX
  8
0
 10
326.1413865205566
 20
731.6158487514183
 30
0
  0
SEQEND
  8
0
  0
POLYLINE
  8
0
 62
7
 66
1
  0
VERTEX
  8
0
 10
309.9121138619937
 20
737.2503130192401
 30
0
  0
VERTEX
  8
0
 10
317.2533673601586
 20
735.2672888589411
 30
0
  0
VERTEX
  8
0
 10
326.1413865205566
 20
731.6158487514183
 30
0
  0
SEQEND
  8
0
  0
POLYLINE
  8
0
 62
7
 66
1
  0
VERTEX
  8
0
 10
311.4659156662572
 20
557.7337683745366
 30
0
  0
VERTEX
  8
0
 10
310.1085931207419
 20
557.5728060326353
 30
0
  0
VERTEX
  8
0
 10
308.9226190265247
 20
557.4316026307386
 30
0
  0
VERTEX
  8
0
 10
308.4425455270941
 20
557.3754774075958
 30
0
  0
SEQEND
  8
0
  0
POLYLINE
  8
0
 62
7
 66
1
  0
VERTEX
  8
0
 10
265.8598924871528
 20
563.7595594826701
 30
0
  0
VERTEX
  8
0
 10
263.6983486924275
 20
564.6571458195524
 30
0
  0
VERTEX
  8
0
 10
263.3805739823849
 20
564.8367346125685
 30
0
  0
SEQEND
  8
0
  0
POLYLINE
  8
0
 62
7
 66
1
  0
VERTEX
  8
0
 10
292.6774878068197
 20
557.7667595449086
 30
0
  0
VERTEX
  8
0
 10
287.0056113805701
 20
558.3334357984788
 30
0
  0
VERTEX
  8
0
 10
281.6413861878639
 20
559.2158005990125
 30
0
  0
SEQEND
  8
0
  0
POLYLINE
  8
0
 62
7
 66
1
  0
VERTEX
  8
0
 10
326.1413865205566
 20
566.2323848064027
 30
0
  0
VERTEX
  8
0
 10
317.2541273192512
 20
564.1952247283418
 30
0
  0
VERTEX
  8
0
 10
313.3334763173027
 20
563.6971757720896
 30
0
  0
SEQEND
  8
0
  0
POLYLINE
  8
0
 62
7
 66
1
  0
VERTEX
  8
0
 10
313.3315093640224
 20
732.4439286226914
 30
0
  0
VERTEX
  8
0
 10
317.1719567293678
 20
731.9579198045196
 30
0
  0
VERTEX
  8
0
 10
326.1413865205566
 20
729.9059777744062
 30
0
  0
SEQEND
  8
0
  0
POLYLINE
  8
0
 62
7
 66
1
  0
VERTEX
  8
0
 10
223.5514208105876
 20
648.0560233962849
 30
0
  0
VERTEX
  8
0
 10
223.4819963013772
 20
648.3639858606255
 30
0
  0
VERTEX
  8
0
 10
223.3462169219263
 20
648.5728389039502
 30
0
  0
SEQEND
  8
0
  0
POLYLINE
  8
0
 62
7
 66
1
  0
VERTEX
  8
0
 10
221.7302158086811
 20
646.2927704594029
 30
0
  0
VERTEX
  8
0
 10
220.3501671302918
 20
646.5030146657139
 30
0
  0
VERTEX
  8
0
 10
219.4472983319622
 20
647.1135951529479
 30
0
  0
SEQEND
  8
0
  0
POLYLINE
  8
0
 62
7
 66
1
  0
VERTEX
  8
0
 10
223.3462169219263
 20
647.5088070058216
 30
0
  0
VERTEX
  8
0
 10
223.5108151467905
 20
647.7975728222525
 30
0
  0
VERTEX
  8
0
 10
223.5514208105876
 20
648.0560233962849
 30
0
  0
SEQEND
  8
0
  0
POLYLINE
  8
0
 62
7
 66
1
  0
VERTEX
  8
0
 10
219.7294518163587
 20
648.5728389039502
 30
0
  0
VERTEX
  8
0
 10
219.600586575539
 20
648.3136983710249
 30
0
  0
VERTEX
  8
0
 10
219.5755526248879
 20
648.0864243075832
 30
0
  0
SEQEND
  8
0
  0
POLYLINE
  8
0
 62
7
 66
1
  0
VERTEX
  8
0
 10
219.3703412857265
 20
648.9984516867219
 30
0
  0
VERTEX
  8
0
 10
220.119437552584
 20
649.5123333591162
 30
0
  0
VERTEX
  8
0
 10
220.8324357570007
 20
649.6064699306814
 30
0
  0
SEQEND
  8
0
  0
POLYLINE
  8
0
 62
7
 66
1
  0
VERTEX
  8
0
 10
220.8324357570007
 20
648.9376498272261
 30
0
  0
VERTEX
  8
0
 10
220.1734691624477
 20
648.8398377330975
 30
0
  0
VERTEX
  8
0
 10
219.7294518163587
 20
648.5728389039502
 30
0
  0
SEQEND
  8
0
  0
POLYLINE
  8
0
 62
7
 66
1
  0
VERTEX
  8
0
 10
224.0881829832549
 20
648.0560233962849
 30
0
  0
VERTEX
  8
0
 10
223.9776536210527
 20
647.4607302140992
 30
0
  0
VERTEX
  8
0
 10
223.7309723508035
 20
647.0527933519522
 30
0
  0
SEQEND
  8
0
  0
POLYLINE
  8
0
 62
7
 66
1
  0
VERTEX
  8
0
 10
223.7309723508035
 20
649.0592534295176
 30
0
  0
VERTEX
  8
0
 10
224.0210905057213
 20
648.5282684545934
 30
0
  0
VERTEX
  8
0
 10
224.0881829832549
 20
648.0560233962849
 30
0
  0
SEQEND
  8
0
  0
POLYLINE
  8
0
 62
7
 66
1
  0
VERTEX
  8
0
 10
219.0881878013299
 20
648.0864243075832
 30
0
  0
VERTEX
  8
0
 10
219.1653087603634
 20
648.6246541408357
 30
0
  0
VERTEX
  8
0
 10
219.3703412857265
 20
648.9984516867219
 30
0
  0
SEQEND
  8
0
  0
POLYLINE
  8
0
 62
7
 66
1
  0
VERTEX
  8
0
 10
219.5755526248879
 20
648.0864243075832
 30
0
  0
VERTEX
  8
0
 10
219.6323185979238
 20
647.7970785809578
 30
0
  0
VERTEX
  8
0
 10
219.7551041651038
 20
647.6000097076155
 30
0
  0
SEQEND
  8
0
  0
POLYLINE
  8
0
 62
7
 66
1
  0
VERTEX
  8
0
 10
219.4472983319622
 20
647.1135951529479
 30
0
  0
VERTEX
  8
0
 10
219.1576421128395
 20
647.6272054906451
 30
0
  0
VERTEX
  8
0
 10
219.0881878013299
 20
648.0864243075832
 30
0
  0
SEQEND
  8
0
  0
POLYLINE
  8
0
 62
7
 66
1
  0
VERTEX
  8
0
 10
222.1662759350486
 20
649.6368708602793
 30
0
  0
VERTEX
  8
0
 10
223.1036036684366
 20
649.4579647268567
 30
0
  0
VERTEX
  8
0
 10
223.7309723508035
 20
649.0592534295176
 30
0
  0
SEQEND
  8
0
  0
POLYLINE
  8
0
 62
7
 66
1
  0
VERTEX
  8
0
 10
219.4216459832167
 20
651.5703688001697
 30
0
  0
VERTEX
  8
0
 10
219.1442534198725
 20
652.1204023193056
 30
0
  0
VERTEX
  8
0
 10
219.0881878013299
 20
652.6039999433008
 30
0
  0
SEQEND
  8
0
  0
POLYLINE
  8
0
 62
7
 66
1
  0
VERTEX
  8
0
 10
219.0881878013299
 20
652.6039999433008
 30
0
  0
VERTEX
  8
0
 10
219.1853135689646
 20
653.197814470501
 30
0
  0
VERTEX
  8
0
 10
219.4216459832167
 20
653.6072299237337
 30
0
  0
SEQEND
  8
0
  0
POLYLINE
  8
0
 62
7
 66
1
  0
VERTEX
  8
0
 10
224.0881829832549
 20
652.6039999433008
 30
0
  0
VERTEX
  8
0
 10
223.994477031986
 20
651.9931720151697
 30
0
  0
VERTEX
  8
0
 10
223.7566246992485
 20
651.5703688001697
 30
0
  0
SEQEND
  8
0
  0
POLYLINE
  8
0
 62
7
 66
1
  0
VERTEX
  8
0
 10
223.7566246992485
 20
653.6072299237337
 30
0
  0
VERTEX
  8
0
 10
224.030776260325
 20
653.0740635876307
 30
0
  0
VERTEX
  8
0
 10
224.0881829832549
 20
652.6039999433008
 30
0
  0
SEQEND
  8
0
  0
POLYLINE
  8
0
 62
7
 66
1
  0
VERTEX
  8
0
 10
219.5755526248879
 20
652.6039999433008
 30
0
  0
VERTEX
  8
0
 10
219.6507960378401
 20
652.2423166339943
 30
0
  0
VERTEX
  8
0
 10
219.806408862594
 20
651.9959813498415
 30
0
  0
SEQEND
  8
0
  0
POLYLINE
  8
0
 62
7
 66
1
  0
VERTEX
  8
0
 10
219.806408862594
 20
653.1816169084625
 30
0
  0
VERTEX
  8
0
 10
219.6247115552994
 20
652.8777528979811
 30
0
  0
VERTEX
  8
0
 10
219.5755526248879
 20
652.6039999433008
 30
0
  0
SEQEND
  8
0
  0
POLYLINE
  8
0
 62
7
 66
1
  0
VERTEX
  8
0
 10
223.6027180575782
 20
652.6039999433008
 30
0
  0
VERTEX
  8
0
 10
223.5242932469571
 20
652.9481837013811
 30
0
  0
VERTEX
  8
0
 10
223.3718618201713
 20
653.1816169084625
 30
0
  0
SEQEND
  8
0
  0
POLYLINE
  8
0
 62
7
 66
1
  0
VERTEX
  8
0
 10
223.3718618201713
 20
651.9959813498415
 30
0
  0
VERTEX
  8
0
 10
223.5563083913391
 20
652.3166580606555
 30
0
  0
VERTEX
  8
0
 10
223.6027180575782
 20
652.6039999433008
 30
0
  0
SEQEND
  8
0
  0
POLYLINE
  8
0
 62
7
 66
1
  0
VERTEX
  8
0
 10
225.9665935424926
 20
631.4033316215293
 30
0
  0
VERTEX
  8
0
 10
226.347526823208
 20
631.4877820889903
 30
0
  0
VERTEX
  8
0
 10
226.7138197134689
 20
631.568985966084
 30
0
  0
VERTEX
  8
0
 10
227.0513980665153
 20
631.6438251848401
 30
0
  0
VERTEX
  8
0
 10
227.3472829707755
 20
631.7094238210887
 30
0
  0
VERTEX
  8
0
 10
227.590112291163
 20
631.7632579904537
 30
0
  0
VERTEX
  8
0
 10
227.7705579009705
 20
631.8032601574562
 30
0
  0
VERTEX
  8
0
 10
227.8816684081664
 20
631.8278936393115
 30
0
  0
VERTEX
  8
0
 10
227.9191895316938
 20
631.8362103499287
 30
0
  0
SEQEND
  8
0
  0
POLYLINE
  8
0
 62
7
 66
1
  0
VERTEX
  8
0
 10
227.9191895316938
 20
664.3021522311794
 30
0
  0
VERTEX
  8
0
 10
227.8816684081664
 20
664.3104689417971
 30
0
  0
VERTEX
  8
0
 10
227.7705579009705
 20
664.3351024236524
 30
0
  0
VERTEX
  8
0
 10
227.590112291163
 20
664.3751045903548
 30
0
  0
VERTEX
  8
0
 10
227.3472829707755
 20
664.42893876002
 30
0
  0
VERTEX
  8
0
 10
227.0513980665153
 20
664.494537396268
 30
0
  0
VERTEX
  8
0
 10
226.7138197134689
 20
664.5693766150246
 30
0
  0
VERTEX
  8
0
 10
226.347526823208
 20
664.6505804921178
 30
0
  0
VERTEX
  8
0
 10
225.9665935424926
 20
664.7350309595793
 30
0
  0
SEQEND
  8
0
  0
POLYLINE
  8
0
 62
7
 66
1
  0
VERTEX
  8
0
 10
227.9191895316938
 20
631.8362103499287
 30
0
  0
VERTEX
  8
0
 10
227.956703204721
 20
631.844528922946
 30
0
  0
VERTEX
  8
0
 10
228.0678211627171
 20
631.8691605421016
 30
0
  0
VERTEX
  8
0
 10
228.2482593217244
 20
631.9091645715041
 30
0
  0
VERTEX
  8
0
 10
228.4910886421119
 20
631.9629968784691
 30
0
  0
VERTEX
  8
0
 10
228.7869735463721
 20
632.0285955147172
 30
0
  0
VERTEX
  8
0
 10
229.1245518994185
 20
632.1034347334737
 30
0
  0
VERTEX
  8
0
 10
229.4908447896794
 20
632.1846386105669
 30
0
  0
VERTEX
  8
0
 10
229.8717780703948
 20
632.2690890780284
 30
0
  0
SEQEND
  8
0
  0
POLYLINE
  8
0
 62
7
 66
1
  0
VERTEX
  8
0
 10
229.8717780703948
 20
663.8692735027801
 30
0
  0
VERTEX
  8
0
 10
229.4908447896794
 20
663.9537239705412
 30
0
  0
VERTEX
  8
0
 10
229.1245518994185
 20
664.0349278476349
 30
0
  0
VERTEX
  8
0
 10
228.7869735463721
 20
664.109767066391
 30
0
  0
VERTEX
  8
0
 10
228.4910886421119
 20
664.1753657023394
 30
0
  0
VERTEX
  8
0
 10
228.2482593217244
 20
664.2291980093044
 30
0
  0
VERTEX
  8
0
 10
228.0678211627171
 20
664.269202039007
 30
0
  0
VERTEX
  8
0
 10
227.956703204721
 20
664.2938336581626
 30
0
  0
VERTEX
  8
0
 10
227.9191895316938
 20
664.3021522311794
 30
0
  0
SEQEND
  8
0
  0
POLYLINE
  8
0
 62
7
 66
1
  0
VERTEX
  8
0
 10
239.9941553953292
 20
665.1941934734175
 30
0
  0
VERTEX
  8
0
 10
239.5132315984067
 20
665.3183350459838
 30
0
  0
VERTEX
  8
0
 10
239.0865294013458
 20
665.4284825657894
 30
0
  0
VERTEX
  8
0
 10
238.7622056313683
 20
665.5122010140578
 30
0
  0
VERTEX
  8
0
 10
238.5768351877098
 20
665.5600505047826
 30
0
  0
VERTEX
  8
0
 10
238.5414672820614
 20
665.5691811912918
 30
0
  0
SEQEND
  8
0
  0
POLYLINE
  8
0
 62
7
 66
1
  0
VERTEX
  8
0
 10
238.5414672820614
 20
630.5691813898168
 30
0
  0
VERTEX
  8
0
 10
238.6233342608482
 20
630.590313098907
 30
0
  0
VERTEX
  8
0
 10
238.8596815761
 20
630.6513240401007
 30
0
  0
VERTEX
  8
0
 10
239.2238957543812
 20
630.7453391905667
 30
0
  0
VERTEX
  8
0
 10
239.6749837016998
 20
630.8617805882097
 30
0
  0
VERTEX
  8
0
 10
239.9941553953292
 20
630.9441691076911
 30
0
  0
SEQEND
  8
0
  0
POLYLINE
  8
0
 62
7
 66
1
  0
VERTEX
  8
0
 10
379.5166878731727
 20
602.8191831706129
 30
0
  0
VERTEX
  8
0
 10
379.3216614772102
 20
602.4813924760686
 30
0
  0
VERTEX
  8
0
 10
378.0459581788844
 20
600.2718073379208
 30
0
  0
VERTEX
  8
0
 10
376.7742707435184
 20
598.0691810423039
 30
0
  0
SEQEND
  8
0
  0
POLYLINE
  8
0
 62
7
 66
1
  0
VERTEX
  8
0
 10
365.8046171268022
 20
598.0691810423039
 30
0
  0
VERTEX
  8
0
 10
364.4610315895504
 20
600.3963400660839
 30
0
  0
VERTEX
  8
0
 10
363.0622037228479
 20
602.8191831706129
 30
0
  0
SEQEND
  8
0
  0
POLYLINE
  8
0
 62
7
 66
1
  0
VERTEX
  8
0
 10
360.3197865931941
 20
607.5691815735215
 30
0
  0
VERTEX
  8
0
 10
361.6633758561454
 20
609.8963405976012
 30
0
  0
VERTEX
  8
0
 10
363.0622037228479
 20
612.3191799767303
 30
0
  0
SEQEND
  8
0
  0
POLYLINE
  8
0
 62
7
 66
1
  0
VERTEX
  8
0
 10
363.0622037228479
 20
602.8191831706129
 30
0
  0
VERTEX
  8
0
 10
362.8671773268854
 20
603.1569738651567
 30
0
  0
VERTEX
  8
0
 10
361.5914740288597
 20
605.3665590030048
 30
0
  0
VERTEX
  8
0
 10
360.3197865931941
 20
607.5691815735215
 30
0
  0
SEQEND
  8
0
  0
POLYLINE
  8
0
 62
7
 66
1
  0
VERTEX
  8
0
 10
363.0622037228479
 20
612.3191799767303
 30
0
  0
VERTEX
  8
0
 10
363.2572263931104
 20
612.6569743963744
 30
0
  0
VERTEX
  8
0
 10
364.5329296914363
 20
614.8665558094224
 30
0
  0
VERTEX
  8
0
 10
365.8046171268022
 20
617.0691821050393
 30
0
  0
SEQEND
  8
0
  0
POLYLINE
  8
0
 62
7
 66
1
  0
VERTEX
  8
0
 10
376.7742707435184
 20
617.0691821050393
 30
0
  0
VERTEX
  8
0
 10
378.1178562810699
 20
614.7420230812593
 30
0
  0
VERTEX
  8
0
 10
379.5166878731727
 20
612.3191799767303
 30
0
  0
SEQEND
  8
0
  0
POLYLINE
  8
0
 62
7
 66
1
  0
VERTEX
  8
0
 10
379.5166878731727
 20
612.3191799767303
 30
0
  0
VERTEX
  8
0
 10
379.711706818335
 20
611.9813892821865
 30
0
  0
VERTEX
  8
0
 10
380.9874101163612
 20
609.7718078694386
 30
0
  0
VERTEX
  8
0
 10
382.2590975520272
 20
607.5691815735215
 30
0
  0
SEQEND
  8
0
  0
POLYLINE
  8
0
 62
7
 66
1
  0
VERTEX
  8
0
 10
382.2590975520272
 20
607.5691815735215
 30
0
  0
VERTEX
  8
0
 10
380.9155120144753
 20
605.2420225497419
 30
0
  0
VERTEX
  8
0
 10
379.5166878731727
 20
602.8191831706129
 30
0
  0
SEQEND
  8
0
  0
POLYLINE
  8
0
 62
7
 66
1
  0
VERTEX
  8
0
 10
309.3686275403936
 20
562.31918345388
 30
0
  0
VERTEX
  8
0
 10
309.1736039386312
 20
561.9813890339362
 30
0
  0
VERTEX
  8
0
 10
307.8978997088054
 20
559.7718076211888
 30
0
  0
VERTEX
  8
0
 10
306.6262136705398
 20
557.5691850506717
 30
0
  0
SEQEND
  8
0
  0
POLYLINE
  8
0
 62
7
 66
1
  0
VERTEX
  8
0
 10
290.1717318485146
 20
567.0691818567891
 30
0
  0
VERTEX
  8
0
 10
291.515317386066
 20
569.3963408808688
 30
0
  0
VERTEX
  8
0
 10
292.914145252769
 20
571.8191802599979
 30
0
  0
SEQEND
  8
0
  0
POLYLINE
  8
0
 62
7
 66
1
  0
VERTEX
  8
0
 10
292.914145252769
 20
562.31918345388
 30
0
  0
VERTEX
  8
0
 10
292.1678243269837
 20
563.6118442733375
 30
0
  0
VERTEX
  8
0
 10
290.1717318485146
 20
567.0691818567891
 30
0
  0
SEQEND
  8
0
  0
POLYLINE
  8
0
 62
7
 66
1
  0
VERTEX
  8
0
 10
295.6565591226229
 20
557.5691850506717
 30
0
  0
VERTEX
  8
0
 10
294.9635587419082
 20
558.7694959245466
 30
0
  0
VERTEX
  8
0
 10
292.914145252769
 20
562.31918345388
 30
0
  0
SEQEND
  8
0
  0
POLYLINE
  8
0
 62
7
 66
1
  0
VERTEX
  8
0
 10
312.1110409443479
 20
567.0691818567891
 30
0
  0
VERTEX
  8
0
 10
310.7674554070966
 20
564.7420228327094
 30
0
  0
VERTEX
  8
0
 10
309.3686275403936
 20
562.31918345388
 30
0
  0
SEQEND
  8
0
  0
POLYLINE
  8
0
 62
7
 66
1
  0
VERTEX
  8
0
 10
306.6262136705398
 20
576.5691786629066
 30
0
  0
VERTEX
  8
0
 10
308.6223070802087
 20
573.1118485299555
 30
0
  0
VERTEX
  8
0
 10
309.3686275403936
 20
571.8191802599979
 30
0
  0
SEQEND
  8
0
  0
POLYLINE
  8
0
 62
7
 66
1
  0
VERTEX
  8
0
 10
292.914145252769
 20
571.8191802599979
 30
0
  0
VERTEX
  8
0
 10
293.1091688545314
 20
572.156974679642
 30
0
  0
VERTEX
  8
0
 10
294.3848730840571
 20
574.3665560923898
 30
0
  0
VERTEX
  8
0
 10
295.6565591226229
 20
576.5691786629066
 30
0
  0
SEQEND
  8
0
  0
POLYLINE
  8
0
 62
7
 66
1
  0
VERTEX
  8
0
 10
225.5085020493436
 20
598.0691810423039
 30
0
  0
VERTEX
  8
0
 10
224.1649165120923
 20
600.3963400660839
 30
0
  0
VERTEX
  8
0
 10
222.7660849199899
 20
602.8191831706129
 30
0
  0
SEQEND
  8
0
  0
POLYLINE
  8
0
 62
7
 66
1
  0
VERTEX
  8
0
 10
239.2205690703142
 20
602.8191831706129
 30
0
  0
VERTEX
  8
0
 10
237.1711565123753
 20
599.2694919161793
 30
0
  0
VERTEX
  8
0
 10
236.4781556660603
 20
598.0691810423039
 30
0
  0
SEQEND
  8
0
  0
POLYLINE
  8
0
 62
7
 66
1
  0
VERTEX
  8
0
 10
220.0236752411354
 20
607.5691815735215
 30
0
  0
VERTEX
  8
0
 10
220.7166760874509
 20
608.7694924476966
 30
0
  0
VERTEX
  8
0
 10
222.7660849199899
 20
612.3191799767303
 30
0
  0
SEQEND
  8
0
  0
POLYLINE
  8
0
 62
7
 66
1
  0
VERTEX
  8
0
 10
222.7660849199899
 20
602.8191831706129
 30
0
  0
VERTEX
  8
0
 10
222.5710659748272
 20
603.1569738651567
 30
0
  0
VERTEX
  8
0
 10
221.2953626765018
 20
605.3665590030048
 30
0
  0
VERTEX
  8
0
 10
220.0236752411354
 20
607.5691815735215
 30
0
  0
SEQEND
  8
0
  0
POLYLINE
  8
0
 62
7
 66
1
  0
VERTEX
  8
0
 10
236.4781556660603
 20
617.0691821050393
 30
0
  0
VERTEX
  8
0
 10
237.8217412036117
 20
614.7420230812593
 30
0
  0
VERTEX
  8
0
 10
239.2205690703142
 20
612.3191799767303
 30
0
  0
SEQEND
  8
0
  0
POLYLINE
  8
0
 62
7
 66
1
  0
VERTEX
  8
0
 10
239.2205690703142
 20
612.3191799767303
 30
0
  0
VERTEX
  8
0
 10
239.4155954659771
 20
611.9813892821865
 30
0
  0
VERTEX
  8
0
 10
240.6912987643029
 20
609.7718078694386
 30
0
  0
VERTEX
  8
0
 10
241.9629861996684
 20
607.5691815735215
 30
0
  0
SEQEND
  8
0
  0
POLYLINE
  8
0
 62
7
 66
1
  0
VERTEX
  8
0
 10
241.9629861996684
 20
607.5691815735215
 30
0
  0
VERTEX
  8
0
 10
239.9668899960996
 20
604.1118477154703
 30
0
  0
VERTEX
  8
0
 10
239.2205690703142
 20
602.8191831706129
 30
0
  0
SEQEND
  8
0
  0
POLYLINE
  8
0
 62
7
 66
1
  0
VERTEX
  8
0
 10
222.7660849199899
 20
612.3191799767303
 30
0
  0
VERTEX
  8
0
 10
223.512409570875
 20
613.6118482469876
 30
0
  0
VERTEX
  8
0
 10
225.5085020493436
 20
617.0691821050393
 30
0
  0
SEQEND
  8
0
  0
POLYLINE
  8
0
 62
7
 66
1
  0
VERTEX
  8
0
 10
225.5085020493436
 20
679.0691804757691
 30
0
  0
VERTEX
  8
0
 10
224.1649165120923
 20
681.3963394998489
 30
0
  0
VERTEX
  8
0
 10
222.7660849199899
 20
683.8191826043778
 30
0
  0
SEQEND
  8
0
  0
POLYLINE
  8
0
 62
7
 66
1
  0
VERTEX
  8
0
 10
239.2205690703142
 20
683.8191826043778
 30
0
  0
VERTEX
  8
0
 10
239.0255463997521
 20
683.4813881844341
 30
0
  0
VERTEX
  8
0
 10
237.7498431014262
 20
681.2718067716862
 30
0
  0
VERTEX
  8
0
 10
236.4781556660603
 20
679.0691804757691
 30
0
  0
SEQEND
  8
0
  0
POLYLINE
  8
0
 62
7
 66
1
  0
VERTEX
  8
0
 10
236.4781556660603
 20
698.0691815388043
 30
0
  0
VERTEX
  8
0
 10
237.8217412036117
 20
695.7420225147246
 30
0
  0
VERTEX
  8
0
 10
239.2205690703142
 20
693.3191794104957
 30
0
  0
SEQEND
  8
0
  0
POLYLINE
  8
0
 62
7
 66
1
  0
VERTEX
  8
0
 10
241.9629861996684
 20
688.5691810072869
 30
0
  0
VERTEX
  8
0
 10
240.6193969370172
 20
686.2420219832072
 30
0
  0
VERTEX
  8
0
 10
239.2205690703142
 20
683.8191826043778
 30
0
  0
SEQEND
  8
0
  0
POLYLINE
  8
0
 62
7
 66
1
  0
VERTEX
  8
0
 10
239.2205690703142
 20
693.3191794104957
 30
0
  0
VERTEX
  8
0
 10
239.4155954659771
 20
692.9813887159514
 30
0
  0
VERTEX
  8
0
 10
240.6912987643029
 20
690.7718035778037
 30
0
  0
VERTEX
  8
0
 10
241.9629861996684
 20
688.5691810072869
 30
0
  0
SEQEND
  8
0
  0
POLYLINE
  8
0
 62
7
 66
1
  0
VERTEX
  8
0
 10
222.7660849199899
 20
693.3191794104957
 30
0
  0
VERTEX
  8
0
 10
222.9611113159524
 20
693.6569701050396
 30
0
  0
VERTEX
  8
0
 10
224.2368146139781
 20
695.8665552428877
 30
0
  0
VERTEX
  8
0
 10
225.5085020493436
 20
698.0691815388043
 30
0
  0
SEQEND
  8
0
  0
POLYLINE
  8
0
 62
7
 66
1
  0
VERTEX
  8
0
 10
222.7660849199899
 20
683.8191826043778
 30
0
  0
VERTEX
  8
0
 10
222.5710659748272
 20
684.156973298622
 30
0
  0
VERTEX
  8
0
 10
221.2953626765018
 20
686.3665547113699
 30
0
  0
VERTEX
  8
0
 10
220.0236752411354
 20
688.5691810072869
 30
0
  0
SEQEND
  8
0
  0
POLYLINE
  8
0
 62
7
 66
1
  0
VERTEX
  8
0
 10
220.0236752411354
 20
688.5691810072869
 30
0
  0
VERTEX
  8
0
 10
221.3672607786873
 20
690.8963400313667
 30
0
  0
VERTEX
  8
0
 10
222.7660849199899
 20
693.3191794104957
 30
0
  0
SEQEND
  8
0
  0
POLYLINE
  8
0
 62
7
 66
1
  0
VERTEX
  8
0
 10
295.6565591226229
 20
719.5691839179015
 30
0
  0
VERTEX
  8
0
 10
293.6604657126543
 20
723.0265140508529
 30
0
  0
VERTEX
  8
0
 10
292.914145252769
 20
724.3191823211107
 30
0
  0
SEQEND
  8
0
  0
POLYLINE
  8
0
 62
7
 66
1
  0
VERTEX
  8
0
 10
309.3686275403936
 20
724.3191823211107
 30
0
  0
VERTEX
  8
0
 10
309.1736039386312
 20
723.9813879014666
 30
0
  0
VERTEX
  8
0
 10
307.8978997088054
 20
721.7718064887188
 30
0
  0
VERTEX
  8
0
 10
306.6262136705398
 20
719.5691839179015
 30
0
  0
SEQEND
  8
0
  0
POLYLINE
  8
0
 62
7
 66
1
  0
VERTEX
  8
0
 10
312.1110409443479
 20
729.0691807243195
 30
0
  0
VERTEX
  8
0
 10
310.7674554070966
 20
726.7420217002398
 30
0
  0
VERTEX
  8
0
 10
309.3686275403936
 20
724.3191823211107
 30
0
  0
SEQEND
  8
0
  0
POLYLINE
  8
0
 62
7
 66
1
  0
VERTEX
  8
0
 10
309.3686275403936
 20
733.8191791272282
 30
0
  0
VERTEX
  8
0
 10
310.1149484658793
 20
732.5265183077706
 30
0
  0
VERTEX
  8
0
 10
312.1110409443479
 20
729.0691807243195
 30
0
  0
SEQEND
  8
0
  0
POLYLINE
  8
0
 62
7
 66
1
  0
VERTEX
  8
0
 10
290.1717318485146
 20
729.0691807243195
 30
0
  0
VERTEX
  8
0
 10
291.515317386066
 20
731.3963397480991
 30
0
  0
VERTEX
  8
0
 10
292.914145252769
 20
733.8191791272282
 30
0
  0
SEQEND
  8
0
  0
POLYLINE
  8
0
 62
7
 66
1
  0
VERTEX
  8
0
 10
306.6262136705398
 20
738.569177530437
 30
0
  0
VERTEX
  8
0
 10
307.3192140509548
 20
737.3688666562618
 30
0
  0
VERTEX
  8
0
 10
309.3686275403936
 20
733.8191791272282
 30
0
  0
SEQEND
  8
0
  0
POLYLINE
  8
0
 62
7
 66
1
  0
VERTEX
  8
0
 10
292.914145252769
 20
733.8191791272282
 30
0
  0
VERTEX
  8
0
 10
293.1091688545314
 20
734.1569735471719
 30
0
  0
VERTEX
  8
0
 10
294.3848730840571
 20
736.3665549599198
 30
0
  0
VERTEX
  8
0
 10
295.6565591226229
 20
738.569177530437
 30
0
  0
SEQEND
  8
0
  0
POLYLINE
  8
0
 62
7
 66
1
  0
VERTEX
  8
0
 10
365.8046171268022
 20
679.0691804757691
 30
0
  0
VERTEX
  8
0
 10
364.4610315895504
 20
681.3963394998489
 30
0
  0
VERTEX
  8
0
 10
363.0622037228479
 20
683.8191826043778
 30
0
  0
SEQEND
  8
0
  0
POLYLINE
  8
0
 62
7
 66
1
  0
VERTEX
  8
0
 10
379.5166878731727
 20
683.8191826043778
 30
0
  0
VERTEX
  8
0
 10
378.7703632219875
 20
682.526514334121
 30
0
  0
VERTEX
  8
0
 10
376.7742707435184
 20
679.0691804757691
 30
0
  0
SEQEND
  8
0
  0
POLYLINE
  8
0
 62
7
 66
1
  0
VERTEX
  8
0
 10
360.3197865931941
 20
688.5691810072869
 30
0
  0
VERTEX
  8
0
 10
362.3158827970631
 20
692.0265148656379
 30
0
  0
VERTEX
  8
0
 10
363.0622037228479
 20
693.3191794104957
 30
0
  0
SEQEND
  8
0
  0
POLYLINE
  8
0
 62
7
 66
1
  0
VERTEX
  8
0
 10
363.0622037228479
 20
683.8191826043778
 30
0
  0
VERTEX
  8
0
 10
362.8671773268854
 20
684.156973298622
 30
0
  0
VERTEX
  8
0
 10
361.5914740288597
 20
686.3665547113699
 30
0
  0
VERTEX
  8
0
 10
360.3197865931941
 20
688.5691810072869
 30
0
  0
SEQEND
  8
0
  0
POLYLINE
  8
0
 62
7
 66
1
  0
VERTEX
  8
0
 10
379.5166878731727
 20
693.3191794104957
 30
0
  0
VERTEX
  8
0
 10
379.711706818335
 20
692.9813887159514
 30
0
  0
VERTEX
  8
0
 10
380.9874101163612
 20
690.7718035778037
 30
0
  0
VERTEX
  8
0
 10
382.2590975520272
 20
688.5691810072869
 30
0
  0
SEQEND
  8
0
  0
POLYLINE
  8
0
 62
7
 66
1
  0
VERTEX
  8
0
 10
382.2590975520272
 20
688.5691810072869
 30
0
  0
VERTEX
  8
0
 10
381.5660967057117
 20
687.368870133412
 30
0
  0
VERTEX
  8
0
 10
379.5166878731727
 20
683.8191826043778
 30
0
  0
SEQEND
  8
0
  0
POLYLINE
  8
0
 62
7
 66
1
  0
VERTEX
  8
0
 10
376.7742707435184
 20
698.0691815388043
 30
0
  0
VERTEX
  8
0
 10
378.1178562810699
 20
695.7420225147246
 30
0
  0
VERTEX
  8
0
 10
379.5166878731727
 20
693.3191794104957
 30
0
  0
SEQEND
  8
0
  0
POLYLINE
  8
0
 62
7
 66
1
  0
VERTEX
  8
0
 10
363.0622037228479
 20
693.3191794104957
 30
0
  0
VERTEX
  8
0
 10
365.1116162807869
 20
696.8688706649293
 30
0
  0
VERTEX
  8
0
 10
365.8046171268022
 20
698.0691815388043
 30
0
  0
SEQEND
  8
0
  0
POLYLINE
  8
0
 62
7
 66
1
  0
VERTEX
  8
0
 10
332.8624564901822
 20
662.8247961771569
 30
0
  0
VERTEX
  8
0
 10
332.5104798904793
 20
662.7856796980461
 30
0
  0
VERTEX
  8
0
 10
332.2591513202763
 20
662.6683833463114
 30
0
  0
SEQEND
  8
0
  0
POLYLINE
  8
0
 62
7
 66
1
  0
VERTEX
  8
0
 10
332.8121836981816
 20
659.9963332244581
 30
0
  0
VERTEX
  8
0
 10
332.4951801234313
 20
659.9758106005618
 30
0
  0
VERTEX
  8
0
 10
332.2591513202763
 20
659.8976437662384
 30
0
  0
SEQEND
  8
0
  0
POLYLINE
  8
0
 62
7
 66
1
  0
VERTEX
  8
0
 10
332.2591513202763
 20
662.6683833463114
 30
0
  0
VERTEX
  8
0
 10
332.1331564158284
 20
662.423007790049
 30
0
  0
VERTEX
  8
0
 10
332.1083254934749
 20
662.2065935713993
 30
0
  0
SEQEND
  8
0
  0
POLYLINE
  8
0
 62
7
 66
1
  0
VERTEX
  8
0
 10
332.0077743213735
 20
661.1675663454219
 30
0
  0
VERTEX
  8
0
 10
331.3292909312143
 20
661.9014997496299
 30
0
  0
VERTEX
  8
0
 10
331.1530902898651
 20
662.6683833463114
 30
0
  0
SEQEND
  8
0
  0
POLYLINE
  8
0
 62
7
 66
1
  0
VERTEX
  8
0
 10
332.1083254934749
 20
662.2065935713993
 30
0
  0
VERTEX
  8
0
 10
332.1986488811774
 20
661.8611474055313
 30
0
  0
VERTEX
  8
0
 10
332.3597024923772
 20
661.6293561200339
 30
0
  0
SEQEND
  8
0
  0
POLYLINE
  8
0
 62
7
 66
1
  0
VERTEX
  8
0
 10
331.1530902898651
 20
662.6683833463114
 30
0
  0
VERTEX
  8
0
 10
331.2312822698884
 20
663.2800201278344
 30
0
  0
VERTEX
  8
0
 10
331.4547438061684
 20
663.7074096410886
 30
0
  0
SEQEND
  8
0
  0
POLYLINE
  8
0
 62
7
 66
1
  0
VERTEX
  8
0
 10
332.0077743213735
 20
658.4545510691753
 30
0
  0
VERTEX
  8
0
 10
331.3292909312143
 20
659.188484473684
 30
0
  0
VERTEX
  8
0
 10
331.1530902898651
 20
659.9553680700649
 30
0
  0
SEQEND
  8
0
  0
POLYLINE
  8
0
 62
7
 66
1
  0
VERTEX
  8
0
 10
332.1083254934749
 20
659.4935782954528
 30
0
  0
VERTEX
  8
0
 10
332.191844638545
 20
659.1145328052187
 30
0
  0
VERTEX
  8
0
 10
332.3597024923772
 20
658.858616540261
 30
0
  0
SEQEND
  8
0
  0
POLYLINE
  8
0
 62
7
 66
1
  0
VERTEX
  8
0
 10
332.2591513202763
 20
659.8976437662384
 30
0
  0
VERTEX
  8
0
 10
332.1368984696908
 20
659.6847685734535
 30
0
  0
VERTEX
  8
0
 10
332.1083254934749
 20
659.4935782954528
 30
0
  0
SEQEND
  8
0
  0
POLYLINE
  8
0
 62
7
 66
1
  0
VERTEX
  8
0
 10
331.1530902898651
 20
671.6683828692965
 30
0
  0
VERTEX
  8
0
 10
331.2312822698884
 20
672.2800196508194
 30
0
  0
VERTEX
  8
0
 10
331.4547438061684
 20
672.7074110267733
 30
0
  0
SEQEND
  8
0
  0
POLYLINE
  8
0
 62
7
 66
1
  0
VERTEX
  8
0
 10
332.0077743213735
 20
670.1675658684069
 30
0
  0
VERTEX
  8
0
 10
331.3292909312143
 20
670.9015002041153
 30
0
  0
VERTEX
  8
0
 10
331.1530902898651
 20
671.6683828692965
 30
0
  0
SEQEND
  8
0
  0
POLYLINE
  8
0
 62
7
 66
1
  0
VERTEX
  8
0
 10
332.0077743213735
 20
667.4545505924609
 30
0
  0
VERTEX
  8
0
 10
331.3292909312143
 20
668.1884849281689
 30
0
  0
VERTEX
  8
0
 10
331.1530902898651
 20
668.9553675933501
 30
0
  0
SEQEND
  8
0
  0
POLYLINE
  8
0
 62
7
 66
1
  0
VERTEX
  8
0
 10
332.1083254934749
 20
668.4935787499378
 30
0
  0
VERTEX
  8
0
 10
332.191844638545
 20
668.1145323285034
 30
0
  0
VERTEX
  8
0
 10
332.3597024923772
 20
667.858616063246
 30
0
  0
SEQEND
  8
0
  0
POLYLINE
  8
0
 62
7
 66
1
  0
VERTEX
  8
0
 10
332.2591513202763
 20
668.8976442207234
 30
0
  0
VERTEX
  8
0
 10
332.1368984696908
 20
668.6847680967387
 30
0
  0
VERTEX
  8
0
 10
332.1083254934749
 20
668.4935787499378
 30
0
  0
SEQEND
  8
0
  0
POLYLINE
  8
0
 62
7
 66
1
  0
VERTEX
  8
0
 10
332.8121836981816
 20
668.9963327477428
 30
0
  0
VERTEX
  8
0
 10
332.4951801234313
 20
668.9758101235468
 30
0
  0
VERTEX
  8
0
 10
332.2591513202763
 20
668.8976442207234
 30
0
  0
SEQEND
  8
0
  0
POLYLINE
  8
0
 62
7
 66
1
  0
VERTEX
  8
0
 10
332.1083254934749
 20
671.2065940258842
 30
0
  0
VERTEX
  8
0
 10
332.1986488811774
 20
670.861145997316
 30
0
  0
VERTEX
  8
0
 10
332.3597024923772
 20
670.6293565745189
 30
0
  0
SEQEND
  8
0
  0
POLYLINE
  8
0
 62
7
 66
1
  0
VERTEX
  8
0
 10
332.2591513202763
 20
671.6683828692965
 30
0
  0
VERTEX
  8
0
 10
332.1331564158284
 20
671.4230073130341
 30
0
  0
VERTEX
  8
0
 10
332.1083254934749
 20
671.2065940258842
 30
0
  0
SEQEND
  8
0
  0
POLYLINE
  8
0
 62
7
 66
1
  0
VERTEX
  8
0
 10
332.8624564901822
 20
671.8247966316424
 30
0
  0
VERTEX
  8
0
 10
332.5104798904793
 20
671.7856792213308
 30
0
  0
VERTEX
  8
0
 10
332.2591513202763
 20
671.6683828692965
 30
0
  0
SEQEND
  8
0
  0
POLYLINE
  8
0
 62
7
 66
1
  0
VERTEX
  8
0
 10
311.5498306232232
 20
556.1699809296727
 30
0
  0
VERTEX
  8
0
 10
313.0146436251705
 20
556.2916638105637
 30
0
  0
VERTEX
  8
0
 10
314.0264594684179
 20
556.4549060300417
 30
0
  0
SEQEND
  8
0
  0
POLYLINE
  8
0
 62
7
 66
1
  0
VERTEX
  8
0
 10
330.1713645474185
 20
560.1095722385328
 30
0
  0
VERTEX
  8
0
 10
331.5648391718744
 20
560.5188326268669
 30
0
  0
VERTEX
  8
0
 10
332.6446238673464
 20
560.938501475797
 30
0
  0
SEQEND
  8
0
  0
POLYLINE
  8
0
 62
7
 66
1
  0
VERTEX
  8
0
 10
310.9015295349639
 20
740.070842034618
 30
0
  0
VERTEX
  8
0
 10
310.5182595656722
 20
740.1158807938707
 30
0
  0
VERTEX
  8
0
 10
308.7126821564104
 20
740.2550501876879
 30
0
  0
SEQEND
  8
0
  0
POLYLINE
  8
0
 62
7
 66
1
  0
VERTEX
  8
0
 10
183.194211469636
 20
602.9228356466831
 30
0
  0
VERTEX
  8
0
 10
183.743319254181
 20
602.6668895794257
 30
0
  0
VERTEX
  8
0
 10
186.9308415146127
 20
601.1769187610287
 30
0
  0
VERTEX
  8
0
 10
189.4263836583198
 20
600.0041564086803
 30
0
  0
VERTEX
  8
0
 10
191.4418252944963
 20
599.058830477072
 30
0
  0
VERTEX
  8
0
 10
193.1464361615606
 20
598.2601282450071
 30
0
  0
VERTEX
  8
0
 10
194.7649630215808
 20
597.5024302828349
 30
0
  0
VERTEX
  8
0
 10
196.2987246268428
 20
596.785181522461
 30
0
  0
VERTEX
  8
0
 10
197.7453069895712
 20
596.1096969910716
 30
0
  0
VERTEX
  8
0
 10
200.4844235117578
 20
594.8337999776475
 30
0
  0
VERTEX
  8
0
 10
203.7595347967197
 20
593.3138331222483
 30
0
  0
VERTEX
  8
0
 10
207.5872779910912
 20
591.5448790415233
 30
0
  0
VERTEX
  8
0
 10
212.7253100782448
 20
589.1828177732903
 30
0
  0
VERTEX
  8
0
 10
217.4038201612641
 20
587.0414799527641
 30
0
  0
VERTEX
  8
0
 10
221.6248049954281
 20
585.114577290208
 30
0
  0
VERTEX
  8
0
 10
225.4512070854132
 20
583.3773999354669
 30
0
  0
VERTEX
  8
0
 10
228.7601067529392
 20
581.8874775460693
 30
0
  0
VERTEX
  8
0
 10
232.8808961804991
 20
580.208295510052
 30
0
  0
VERTEX
  8
0
 10
237.4404875474995
 20
578.7770985961708
 30
0
  0
VERTEX
  8
0
 10
241.7697702949884
 20
577.8965815394188
 30
0
  0
SEQEND
  8
0
  0
POLYLINE
  8
0
 62
7
 66
1
  0
VERTEX
  8
0
 10
241.6085620841898
 20
718.2089910366155
 30
0
  0
VERTEX
  8
0
 10
237.4404875474995
 20
717.3612639846376
 30
0
  0
VERTEX
  8
0
 10
232.8808961804991
 20
715.9300670707564
 30
0
  0
VERTEX
  8
0
 10
228.7601067529392
 20
714.2508850350394
 30
0
  0
VERTEX
  8
0
 10
225.4512070854132
 20
712.7609626453416
 30
0
  0
VERTEX
  8
0
 10
221.7461153477232
 20
711.0790313454511
 30
0
  0
VERTEX
  8
0
 10
217.6717653887015
 20
709.2193813478268
 30
0
  0
VERTEX
  8
0
 10
213.1703258024234
 20
707.1595156253918
 30
0
  0
VERTEX
  8
0
 10
208.232908046177
 20
704.891052274829
 30
0
  0
VERTEX
  8
0
 10
203.2803134574808
 20
702.6024909833657
 30
0
  0
VERTEX
  8
0
 10
199.8412894008472
 20
701.0053696412331
 30
0
  0
VERTEX
  8
0
 10
196.9583021686901
 20
699.6613072665866
 30
0
  0
VERTEX
  8
0
 10
193.908377229491
 20
698.2350128347568
 30
0
  0
VERTEX
  8
0
 10
192.258878306179
 20
697.4624472393323
 30
0
  0
VERTEX
  8
0
 10
190.4498475531516
 20
696.6144407904569
 30
0
  0
VERTEX
  8
0
 10
188.2157760819471
 20
695.5653282722799
 30
0
  0
VERTEX
  8
0
 10
186.1954096122192
 20
694.6163329300082
 30
0
  0
VERTEX
  8
0
 10
183.743319254181
 20
693.4714730016824
 30
0
  0
VERTEX
  8
0
 10
183.1926990016516
 20
693.2148191291324
 30
0
  0
SEQEND
  8
0
  0
POLYLINE
  8
0
 62
7
 66
1
  0
VERTEX
  8
0
 10
367.725928128714
 20
582.8909589837997
 30
0
  0
VERTEX
  8
0
 10
367.72530973062
 20
582.8531100346756
 30
0
  0
VERTEX
  8
0
 10
368.1198999255996
 20
582.9219682998917
 30
0
  0
VERTEX
  8
0
 10
368.7545105721949
 20
583.0627470187931
 30
0
  0
VERTEX
  8
0
 10
370.3807264312388
 20
583.4884880911634
 30
0
  0
VERTEX
  8
0
 10
371.3150515804562
 20
583.7984396913837
 30
0
  0
VERTEX
  8
0
 10
372.3400726465723
 20
584.169523304997
 30
0
  0
VERTEX
  8
0
 10
374.0882396075042
 20
584.8365514274703
 30
0
  0
VERTEX
  8
0
 10
376.0197728057144
 20
585.6055668214301
 30
0
  0
VERTEX
  8
0
 10
378.0392526563512
 20
586.4591016009501
 30
0
  0
VERTEX
  8
0
 10
380.1181359857972
 20
587.4187512733163
 30
0
  0
VERTEX
  8
0
 10
382.805582732098
 20
588.8535691691611
 30
0
  0
SEQEND
  8
0
  0
POLYLINE
  8
0
 62
7
 66
1
  0
VERTEX
  8
0
 10
382.9190774250699
 20
707.2456592376359
 30
0
  0
VERTEX
  8
0
 10
378.343653574427
 20
709.5365972643751
 30
0
  0
VERTEX
  8
0
 10
375.1697882279589
 20
710.8692304482358
 30
0
  0
VERTEX
  8
0
 10
372.406375362714
 20
711.9362057333353
 30
0
  0
VERTEX
  8
0
 10
370.0932979358943
 20
712.8198222316566
 30
0
  0
VERTEX
  8
0
 10
368.2444587306625
 20
713.5600970112021
 30
0
  0
VERTEX
  8
0
 10
367.51094907825
 20
713.8843686273806
 30
0
  0
VERTEX
  8
0
 10
366.9820770705044
 20
714.1410560273305
 30
0
  0
VERTEX
  8
0
 10
366.7378023375311
 20
714.2545358193027
 30
0
  0
VERTEX
  8
0
 10
366.7346358405623
 20
714.2375559463719
 30
0
  0
SEQEND
  8
0
  0
POLYLINE
  8
0
 62
7
 66
1
  0
VERTEX
  8
0
 10
208.0715657251797
 20
625.7980102996182
 30
0
  0
VERTEX
  8
0
 10
208.1707255011945
 20
625.4515955582599
 30
0
  0
VERTEX
  8
0
 10
208.589202257537
 20
624.0741638959446
 30
0
  0
VERTEX
  8
0
 10
209.0174020212828
 20
622.7438273533614
 30
0
  0
VERTEX
  8
0
 10
209.6939594363614
 20
620.7869863957028
 30
0
  0
VERTEX
  8
0
 10
210.4996428621569
 20
618.6429440146037
 30
0
  0
VERTEX
  8
0
 10
211.4600301421153
 20
616.2956926374238
 30
0
  0
VERTEX
  8
0
 10
212.8154323003494
 20
613.2831211835535
 30
0
  0
VERTEX
  8
0
 10
214.4423261620862
 20
610.0233506438397
 30
0
  0
VERTEX
  8
0
 10
217.4966320429419
 20
604.6683464757414
 30
0
  0
VERTEX
  8
0
 10
221.3620900756384
 20
598.9080977825695
 30
0
  0
VERTEX
  8
0
 10
225.8435099520154
 20
593.2379489597022
 30
0
  0
VERTEX
  8
0
 10
230.522824697727
 20
588.177712108876
 30
0
  0
VERTEX
  8
0
 10
235.0170521220764
 20
583.7804763419624
 30
0
  0
VERTEX
  8
0
 10
239.5498437513431
 20
579.6584426674147
 30
0
  0
VERTEX
  8
0
 10
244.9473423052189
 20
575.3746866924737
 30
0
  0
VERTEX
  8
0
 10
250.1927298074063
 20
571.7717871172688
 30
0
  0
VERTEX
  8
0
 10
255.4524857539507
 20
568.6510593110731
 30
0
  0
VERTEX
  8
0
 10
261.172113882026
 20
565.7618210419776
 30
0
  0
VERTEX
  8
0
 10
265.2695606407176
 20
564.0454680598298
 30
0
  0
SEQEND
  8
0
  0
POLYLINE
  8
0
 62
7
 66
1
  0
VERTEX
  8
0
 10
274.6823986931015
 20
560.7706398965649
 30
0
  0
VERTEX
  8
0
 10
275.6758274351316
 20
560.4736225040158
 30
0
  0
VERTEX
  8
0
 10
276.5440994628054
 20
560.2573843055641
 30
0
  0
SEQEND
  8
0
  0
POLYLINE
  8
0
 62
7
 66
1
  0
VERTEX
  8
0
 10
292.6774878068197
 20
557.4470998382842
 30
0
  0
VERTEX
  8
0
 10
293.1542588363834
 20
557.4010627012415
 30
0
  0
VERTEX
  8
0
 10
294.1194754895939
 20
557.3421211585276
 30
0
  0
SEQEND
  8
0
  0
POLYLINE
  8
0
 62
7
 66
1
  0
VERTEX
  8
0
 10
319.7391678700622
 20
558.9224041887271
 30
0
  0
VERTEX
  8
0
 10
324.2933706047163
 20
559.9407346333103
 30
0
  0
VERTEX
  8
0
 10
324.5757923101107
 20
560.0202993827199
 30
0
  0
SEQEND
  8
0
  0
POLYLINE
  8
0
 62
7
 66
1
  0
VERTEX
  8
0
 10
338.3667553906973
 20
564.8272425727625
 30
0
  0
VERTEX
  8
0
 10
340.133176273848
 20
565.5868069054166
 30
0
  0
VERTEX
  8
0
 10
344.7853969836281
 20
567.9369956737671
 30
0
  0
VERTEX
  8
0
 10
349.3966208737159
 20
570.3597009423977
 30
0
  0
VERTEX
  8
0
 10
354.4047222874599
 20
572.9675009828895
 30
0
  0
VERTEX
  8
0
 10
358.096231616785
 20
575.1001402507015
 30
0
  0
VERTEX
  8
0
 10
361.837145745719
 20
577.7334212766398
 30
0
  0
VERTEX
  8
0
 10
365.5355468618752
 20
580.8428540025477
 30
0
  0
VERTEX
  8
0
 10
365.7800451122464
 20
581.0843571198482
 30
0
  0
SEQEND
  8
0
  0
POLYLINE
  8
0
 62
7
 66
1
  0
VERTEX
  8
0
 10
366.3858443642278
 20
714.447282337688
 30
0
  0
VERTEX
  8
0
 10
361.9655676768432
 20
718.317329927839
 30
0
  0
VERTEX
  8
0
 10
356.2772729650562
 20
722.140319651958
 30
0
  0
VERTEX
  8
0
 10
350.9446056372365
 20
724.9664887569795
 30
0
  0
VERTEX
  8
0
 10
345.8815561925378
 20
727.6188283678287
 30
0
  0
VERTEX
  8
0
 10
340.5853743576552
 20
730.33230744257
 30
0
  0
VERTEX
  8
0
 10
335.0308324674395
 20
732.7474131190763
 30
0
  0
VERTEX
  8
0
 10
329.3943602684383
 20
734.7471712831086
 30
0
  0
VERTEX
  8
0
 10
320.8142065457821
 20
737.0149640814782
 30
0
  0
VERTEX
  8
0
 10
314.1317669046719
 20
738.115034845149
 30
0
  0
SEQEND
  8
0
  0
POLYLINE
  8
0
 62
7
 66
1
  0
VERTEX
  8
0
 10
291.4872165903455
 20
738.5742066721866
 30
0
  0
VERTEX
  8
0
 10
289.2417848467537
 20
738.3359669095537
 30
0
  0
VERTEX
  8
0
 10
286.8501233531154
 20
738.0112110054804
 30
0
  0
VERTEX
  8
0
 10
285.2684815233286
 20
737.7628980580473
 30
0
  0
VERTEX
  8
0
 10
283.3514564680743
 20
737.4256624315974
 30
0
  0
VERTEX
  8
0
 10
280.6409166475035
 20
736.8799148591199
 30
0
  0
VERTEX
  8
0
 10
277.1342375944421
 20
736.0511793369535
 30
0
  0
VERTEX
  8
0
 10
272.8345355141598
 20
734.839394568992
 30
0
  0
VERTEX
  8
0
 10
267.7569928275054
 20
733.1167980001062
 30
0
  0
VERTEX
  8
0
 10
262.2840273435793
 20
730.8820410760084
 30
0
  0
VERTEX
  8
0
 10
257.1636754838498
 20
728.4065186419027
 30
0
  0
VERTEX
  8
0
 10
252.4291184086876
 20
725.7567941847281
 30
0
  0
VERTEX
  8
0
 10
246.7201483361062
 20
722.0542654469125
 30
0
  0
VERTEX
  8
0
 10
241.6904253378764
 20
718.2788327783217
 30
0
  0
VERTEX
  8
0
 10
237.3076287958195
 20
714.53968443707
 30
0
  0
VERTEX
  8
0
 10
232.9867465777472
 20
710.4476766024238
 30
0
  0
VERTEX
  8
0
 10
229.0201841672554
 20
706.4973713585703
 30
0
  0
VERTEX
  8
0
 10
224.9198242318923
 20
701.9054295707913
 30
0
  0
VERTEX
  8
0
 10
220.9323927452076
 20
696.7248844708599
 30
0
  0
VERTEX
  8
0
 10
217.1334236929499
 20
690.9385587459472
 30
0
  0
VERTEX
  8
0
 10
214.8962080771769
 20
687.0086904444904
 30
0
  0
VERTEX
  8
0
 10
212.8281727929227
 20
682.8978438169318
 30
0
  0
VERTEX
  8
0
 10
211.0616028982738
 20
678.8745191585033
 30
0
  0
VERTEX
  8
0
 10
209.5805914030877
 20
674.999442426302
 30
0
  0
VERTEX
  8
0
 10
208.3572284328418
 20
671.3060741769957
 30
0
  0
VERTEX
  8
0
 10
208.1159711850389
 20
670.456536634036
 30
0
  0
SEQEND
  8
0
  0
POLYLINE
  8
0
 62
7
 66
1
  0
VERTEX
  8
0
 10
396.3732984806022
 20
347.0313266538649
 30
0
  0
VERTEX
  8
0
 10
400.3980350239165
 20
345.4704747377721
 30
0
  0
VERTEX
  8
0
 10
404.5851346178181
 20
344.2511946858857
 30
0
  0
SEQEND
  8
0
  0
POLYLINE
  8
0
 62
7
 66
1
  0
VERTEX
  8
0
 10
202.398373339943
 20
336.8810655316077
 30
0
  0
VERTEX
  8
0
 10
202.2922696226972
 20
344.8296018783388
 30
0
  0
VERTEX
  8
0
 10
202.2689269538289
 20
352.7828283656234
 30
0
  0
SEQEND
  8
0
  0
POLYLINE
  8
0
 62
7
 66
1
  0
VERTEX
  8
0
 10
202.3820491179051
 20
224.7612056983183
 30
0
  0
VERTEX
  8
0
 10
197.292676771968
 20
229.3614921363144
 30
0
  0
VERTEX
  8
0
 10
192.4548211235322
 20
234.2257153892882
 30
0
  0
VERTEX
  8
0
 10
187.5939059282252
 20
239.0705038030554
 30
0
  0
VERTEX
  8
0
 10
182.3213387083081
 20
243.4493291857519
 30
0
  0
SEQEND
  8
0
  0
POLYLINE
  8
0
 62
7
 66
1
  0
VERTEX
  8
0
 10
357.663531702184
 20
434.7408271681709
 30
0
  0
VERTEX
  8
0
 10
357.8097940484306
 20
434.3728429961269
 30
0
  0
VERTEX
  8
0
 10
358.0887288820597
 20
432.7408231349412
 30
0
  0
SEQEND
  8
0
  0
POLYLINE
  8
0
 62
7
 66
1
  0
VERTEX
  8
0
 10
241.9629861996684
 20
432.8593916735634
 30
0
  0
VERTEX
  8
0
 10
242.2512081821049
 20
432.7792532293595
 30
0
  0
VERTEX
  8
0
 10
242.6413876334284
 20
432.7408231349412
 30
0
  0
SEQEND
  8
0
  0
POLYLINE
  8
0
 62
7
 66
1
  0
VERTEX
  8
0
 10
249.3271437139058
 20
452.740818763941
 30
0
  0
VERTEX
  8
0
 10
249.8420309820906
 20
452.3257171206654
 30
0
  0
VERTEX
  8
0
 10
250.3757793949874
 20
451.1333858186111
 30
0
  0
VERTEX
  8
0
 10
250.8306969403677
 20
449.2775058147493
 30
0
  0
VERTEX
  8
0
 10
251.0911431584802
 20
447.0334505659437
 30
0
  0
VERTEX
  8
0
 10
251.1295993297983
 20
445.7408195487863
 30
0
  0
SEQEND
  8
0
  0
POLYLINE
  8
0
 62
7
 66
1
  0
VERTEX
  8
0
 10
307.6566438581024
 20
239.6808702606916
 30
0
  0
VERTEX
  8
0
 10
306.7008670902976
 20
239.095314236309
 30
0
  0
VERTEX
  8
0
 10
305.8251789411977
 20
238.9653090567006
 30
0
  0
SEQEND
  8
0
  0
POLYLINE
  8
0
 62
7
 66
1
  0
VERTEX
  8
0
 10
308.4107762516098
 20
242.4460228367196
 30
0
  0
VERTEX
  8
0
 10
308.2393328059131
 20
240.8159065988151
 30
0
  0
VERTEX
  8
0
 10
307.6566438581024
 20
239.6808702606916
 30
0
  0
SEQEND
  8
0
  0
POLYLINE
  8
0
 62
7
 66
1
  0
VERTEX
  8
0
 10
305.8251789411977
 20
245.9653082718554
 30
0
  0
VERTEX
  8
0
 10
306.8813373802047
 20
245.7811858008848
 30
0
  0
VERTEX
  8
0
 10
307.5848216586157
 20
245.3189070817778
 30
0
  0
SEQEND
  8
0
  0
POLYLINE
  8
0
 62
7
 66
1
  0
VERTEX
  8
0
 10
305.8251789411977
 20
239.6449584625482
 30
0
  0
VERTEX
  8
0
 10
306.52047503169
 20
239.8116130478923
 30
0
  0
VERTEX
  8
0
 10
306.9743331978809
 20
240.1477124603533
 30
0
  0
SEQEND
  8
0
  0
POLYLINE
  8
0
 62
7
 66
1
  0
VERTEX
  8
0
 10
306.9384223309378
 20
244.8161530839728
 30
0
  0
VERTEX
  8
0
 10
306.361142970173
 20
245.1939720221192
 30
0
  0
VERTEX
  8
0
 10
305.8251789411977
 20
245.2856588660077
 30
0
  0
SEQEND
  8
0
  0
POLYLINE
  8
0
 62
7
 66
1
  0
VERTEX
  8
0
 10
262.0992045178152
 20
325.5945107856394
 30
0
  0
VERTEX
  8
0
 10
262.2043918136703
 20
323.3945815997961
 30
0
  0
VERTEX
  8
0
 10
262.5758591320794
 20
321.2567232005357
 30
0
  0
VERTEX
  8
0
 10
263.0179914812873
 20
319.9386875662302
 30
0
  0
VERTEX
  8
0
 10
263.6723834193856
 20
318.7211360489267
 30
0
  0
VERTEX
  8
0
 10
264.8224624794596
 20
317.4914326348438
 30
0
  0
SEQEND
  8
0
  0
POLYLINE
  8
0
 62
7
 66
1
  0
VERTEX
  8
0
 10
281.3583740239753
 20
335.5983102587518
 30
0
  0
VERTEX
  8
0
 10
280.9699529098341
 20
330.2547613583404
 30
0
  0
VERTEX
  8
0
 10
280.5803005870059
 20
324.8942456232965
 30
0
  0
SEQEND
  8
0
  0
POLYLINE
  8
0
 62
7
 66
1
  0
VERTEX
  8
0
 10
308.1413865430861
 20
345.890825315096
 30
0
  0
VERTEX
  8
0
 10
317.2533673601586
 20
348.4219290798495
 30
0
  0
VERTEX
  8
0
 10
326.1413865205566
 20
350.8908242224209
 30
0
  0
SEQEND
  8
0
  0
POLYLINE
  8
0
 62
7
 66
1
  0
VERTEX
  8
0
 10
326.1413865205566
 20
350.8908242224209
 30
0
  0
VERTEX
  8
0
 10
317.2480811733115
 20
353.3611871293777
 30
0
  0
VERTEX
  8
0
 10
308.1413865430861
 20
355.8908231297458
 30
0
  0
SEQEND
  8
0
  0
POLYLINE
  8
0
 62
7
 66
1
  0
VERTEX
  8
0
 10
219.0039440872668
 20
421.5908207661162
 30
0
  0
VERTEX
  8
0
 10
219.0029829625762
 20
421.5969600446554
 30
0
  0
VERTEX
  8
0
 10
219.0846860285644
 20
422.1885063357784
 30
0
  0
SEQEND
  8
0
  0
POLYLINE
  8
0
 62
7
 66
1
  0
VERTEX
  8
0
 10
383.2040695808385
 20
422.1451588583089
 30
0
  0
VERTEX
  8
0
 10
383.279789830586
 20
421.5969600446554
 30
0
  0
VERTEX
  8
0
 10
383.2788287055957
 20
421.5908207661162
 30
0
  0
SEQEND
  8
0
  0
POLYLINE
  8
0
 62
7
 66
1
  0
VERTEX
  8
0
 10
363.0099788785667
 20
427.7030386084915
 30
0
  0
VERTEX
  8
0
 10
364.8526564534598
 20
426.7990447726727
 30
0
  0
VERTEX
  8
0
 10
365.2718857183947
 20
426.5991009936591
 30
0
  0
VERTEX
  8
0
 10
365.2894467366202
 20
426.5908308493411
 30
0
  0
SEQEND
  8
0
  0
POLYLINE
  8
0
 62
7
 66
1
  0
VERTEX
  8
0
 10
383.2788287055957
 20
421.5908207661162
 30
0
  0
VERTEX
  8
0
 10
383.2796035659883
 20
421.6024585730009
 30
0
  0
VERTEX
  8
0
 10
383.2267789503128
 20
421.8888439872556
 30
0
  0
SEQEND
  8
0
  0
POLYLINE
  8
0
 62
7
 66
1
  0
VERTEX
  8
0
 10
219.0559938428494
 20
421.8888439872556
 30
0
  0
VERTEX
  8
0
 10
219.0031692268742
 20
421.6024585730009
 30
0
  0
VERTEX
  8
0
 10
219.0039440872668
 20
421.5908207661162
 30
0
  0
SEQEND
  8
0
  0
POLYLINE
  8
0
 62
7
 66
1
  0
VERTEX
  8
0
 10
236.9933260562423
 20
426.5908308493411
 30
0
  0
VERTEX
  8
0
 10
237.0108870747674
 20
426.5991009936591
 30
0
  0
VERTEX
  8
0
 10
239.2727939145959
 20
427.7030386084915
 30
0
  0
SEQEND
  8
0
  0
POLYLINE
  8
0
 62
7
 66
1
  0
VERTEX
  8
0
 10
246.8852233980658
 20
432.7408231349412
 30
0
  0
VERTEX
  8
0
 10
246.9540295091827
 20
433.2514710227682
 30
0
  0
VERTEX
  8
0
 10
247.2183835566559
 20
433.8213659271058
 30
0
  0
VERTEX
  8
0
 10
247.614903452117
 20
434.2430389824165
 30
0
  0
VERTEX
  8
0
 10
248.0023932438674
 20
434.479982344263
 30
0
  0
VERTEX
  8
0
 10
248.3271454225408
 20
434.5994896557752
 30
0
  0
VERTEX
  8
0
 10
248.5619839952076
 20
434.6467263362063
 30
0
  0
VERTEX
  8
0
 10
248.6404833117274
 20
434.631124820761
 30
0
  0
VERTEX
  8
0
 10
248.5233639110913
 20
434.5278299722871
 30
0
  0
VERTEX
  8
0
 10
248.266043211748
 20
434.2964298423865
 30
0
  0
VERTEX
  8
0
 10
247.9954157752361
 20
433.954343888285
 30
0
  0
VERTEX
  8
0
 10
247.7754709130215
 20
433.5149235501506
 30
0
  0
VERTEX
  8
0
 10
247.6471681910964
 20
432.9619712659444
 30
0
  0
VERTEX
  8
0
 10
247.6360854526063
 20
432.7408231349412
 30
0
  0
SEQEND
  8
0
  0
POLYLINE
  8
0
 62
7
 66
1
  0
VERTEX
  8
0
 10
382.2590975520272
 20
437.7423233343514
 30
0
  0
VERTEX
  8
0
 10
380.9155120144753
 20
438.3579350006351
 30
0
  0
VERTEX
  8
0
 10
379.5166878731727
 20
438.5908252464213
 30
0
  0
SEQEND
  8
0
  0
POLYLINE
  8
0
 62
7
 66
1
  0
VERTEX
  8
0
 10
365.8046171268022
 20
437.7423233343514
 30
0
  0
VERTEX
  8
0
 10
364.4610315895504
 20
438.3579350006351
 30
0
  0
VERTEX
  8
0
 10
363.0622037228479
 20
438.5908252464213
 30
0
  0
SEQEND
  8
0
  0
POLYLINE
  8
0
 62
7
 66
1
  0
VERTEX
  8
0
 10
371.2894439353106
 20
438.5908252464213
 30
0
  0
VERTEX
  8
0
 10
369.7968020837395
 20
438.5235316032898
 30
0
  0
VERTEX
  8
0
 10
365.8046171268022
 20
437.7423233343514
 30
0
  0
SEQEND
  8
0
  0
POLYLINE
  8
0
 62
7
 66
1
  0
VERTEX
  8
0
 10
376.7742707435184
 20
437.7423233343514
 30
0
  0
VERTEX
  8
0
 10
375.3882690511884
 20
438.1020820653769
 30
0
  0
VERTEX
  8
0
 10
371.2894439353106
 20
438.5908252464213
 30
0
  0
SEQEND
  8
0
  0
POLYLINE
  8
0
 62
7
 66
1
  0
VERTEX
  8
0
 10
292.914145252769
 20
438.5908252464213
 30
0
  0
VERTEX
  8
0
 10
292.1678243269837
 20
438.5235316032898
 30
0
  0
VERTEX
  8
0
 10
290.1717318485146
 20
437.7423233343514
 30
0
  0
SEQEND
  8
0
  0
POLYLINE
  8
0
 62
7
 66
1
  0
VERTEX
  8
0
 10
312.1110409443479
 20
437.7423233343514
 30
0
  0
VERTEX
  8
0
 10
310.7674554070966
 20
438.3579350006351
 30
0
  0
VERTEX
  8
0
 10
309.3686275403936
 20
438.5908252464213
 30
0
  0
SEQEND
  8
0
  0
POLYLINE
  8
0
 62
7
 66
1
  0
VERTEX
  8
0
 10
295.6565591226229
 20
437.7423233343514
 30
0
  0
VERTEX
  8
0
 10
294.9635587419082
 20
438.1020820653769
 30
0
  0
VERTEX
  8
0
 10
292.914145252769
 20
438.5908252464213
 30
0
  0
SEQEND
  8
0
  0
POLYLINE
  8
0
 62
7
 66
1
  0
VERTEX
  8
0
 10
306.6262136705398
 20
437.7423233343514
 30
0
  0
VERTEX
  8
0
 10
303.9390418970368
 20
438.3579350006351
 30
0
  0
VERTEX
  8
0
 10
301.141386396431
 20
438.5908252464213
 30
0
  0
SEQEND
  8
0
  0
POLYLINE
  8
0
 62
7
 66
1
  0
VERTEX
  8
0
 10
241.9629861996684
 20
437.7423233343514
 30
0
  0
VERTEX
  8
0
 10
239.9668899960996
 20
438.5235316032898
 30
0
  0
VERTEX
  8
0
 10
239.2205690703142
 20
438.5908252464213
 30
0
  0
SEQEND
  8
0
  0
POLYLINE
  8
0
 62
7
 66
1
  0
VERTEX
  8
0
 10
225.5085020493436
 20
437.7423233343514
 30
0
  0
VERTEX
  8
0
 10
224.1649165120923
 20
438.3579350006351
 30
0
  0
VERTEX
  8
0
 10
222.7660849199899
 20
438.5908252464213
 30
0
  0
SEQEND
  8
0
  0
POLYLINE
  8
0
 62
7
 66
1
  0
VERTEX
  8
0
 10
239.2205690703142
 20
438.5908252464213
 30
0
  0
VERTEX
  8
0
 10
237.1711565123753
 20
438.1020820653769
 30
0
  0
VERTEX
  8
0
 10
236.4781556660603
 20
437.7423233343514
 30
0
  0
SEQEND
  8
0
  0
POLYLINE
  8
0
 62
7
 66
1
  0
VERTEX
  8
0
 10
236.4781556660603
 20
437.7423233343514
 30
0
  0
VERTEX
  8
0
 10
233.7909845912575
 20
438.3579350006351
 30
0
  0
VERTEX
  8
0
 10
230.993328857852
 20
438.5908252464213
 30
0
  0
SEQEND
  8
0
  0
POLYLINE
  8
0
 62
7
 66
1
  0
VERTEX
  8
0
 10
290.1717318485146
 20
387.739331677831
 30
0
  0
VERTEX
  8
0
 10
291.515317386066
 20
387.1237125610467
 30
0
  0
VERTEX
  8
0
 10
292.914145252769
 20
386.8908223149609
 30
0
  0
SEQEND
  8
0
  0
POLYLINE
  8
0
 62
7
 66
1
  0
VERTEX
  8
0
 10
309.3686275403936
 20
386.8908223149609
 30
0
  0
VERTEX
  8
0
 10
311.4180410295328
 20
387.3795580455051
 30
0
  0
VERTEX
  8
0
 10
312.1110409443479
 20
387.739331677831
 30
0
  0
SEQEND
  8
0
  0
POLYLINE
  8
0
 62
7
 66
1
  0
VERTEX
  8
0
 10
306.6262136705398
 20
387.739331677831
 30
0
  0
VERTEX
  8
0
 10
308.6223070802087
 20
386.9581159583921
 30
0
  0
VERTEX
  8
0
 10
309.3686275403936
 20
386.8908223149609
 30
0
  0
SEQEND
  8
0
  0
POLYLINE
  8
0
 62
7
 66
1
  0
VERTEX
  8
0
 10
295.6565591226229
 20
387.739331677831
 30
0
  0
VERTEX
  8
0
 10
298.3437308958262
 20
387.1237125610467
 30
0
  0
VERTEX
  8
0
 10
301.141386396431
 20
386.8908223149609
 30
0
  0
SEQEND
  8
0
  0
POLYLINE
  8
0
 62
7
 66
1
  0
VERTEX
  8
0
 10
220.0236752411354
 20
387.739331677831
 30
0
  0
VERTEX
  8
0
 10
221.3672607786873
 20
387.1237125610467
 30
0
  0
VERTEX
  8
0
 10
222.7660849199899
 20
386.8908223149609
 30
0
  0
SEQEND
  8
0
  0
POLYLINE
  8
0
 62
7
 66
1
  0
VERTEX
  8
0
 10
225.5085020493436
 20
387.739331677831
 30
0
  0
VERTEX
  8
0
 10
229.5006870062814
 20
386.9581159583921
 30
0
  0
VERTEX
  8
0
 10
230.993328857852
 20
386.8908223149609
 30
0
  0
SEQEND
  8
0
  0
POLYLINE
  8
0
 62
7
 66
1
  0
VERTEX
  8
0
 10
230.993328857852
 20
386.8908223149609
 30
0
  0
VERTEX
  8
0
 10
235.0921539737303
 20
387.3795580455051
 30
0
  0
VERTEX
  8
0
 10
236.4781556660603
 20
387.739331677831
 30
0
  0
SEQEND
  8
0
  0
POLYLINE
  8
0
 62
7
 66
1
  0
VERTEX
  8
0
 10
236.4781556660603
 20
387.739331677831
 30
0
  0
VERTEX
  8
0
 10
237.8217412036117
 20
387.1237125610467
 30
0
  0
VERTEX
  8
0
 10
239.2205690703142
 20
386.8908223149609
 30
0
  0
SEQEND
  8
0
  0
POLYLINE
  8
0
 62
7
 66
1
  0
VERTEX
  8
0
 10
360.3197865931941
 20
387.739331677831
 30
0
  0
VERTEX
  8
0
 10
361.0127874395091
 20
387.3795580455051
 30
0
  0
VERTEX
  8
0
 10
363.0622037228479
 20
386.8908223149609
 30
0
  0
SEQEND
  8
0
  0
POLYLINE
  8
0
 62
7
 66
1
  0
VERTEX
  8
0
 10
376.7742707435184
 20
387.739331677831
 30
0
  0
VERTEX
  8
0
 10
378.1178562810699
 20
387.1237125610467
 30
0
  0
VERTEX
  8
0
 10
379.5166878731727
 20
386.8908223149609
 30
0
  0
SEQEND
  8
0
  0
POLYLINE
  8
0
 62
7
 66
1
  0
VERTEX
  8
0
 10
363.0622037228479
 20
386.8908223149609
 30
0
  0
VERTEX
  8
0
 10
363.8085246483331
 20
386.9581159583921
 30
0
  0
VERTEX
  8
0
 10
365.8046171268022
 20
387.739331677831
 30
0
  0
SEQEND
  8
0
  0
POLYLINE
  8
0
 62
7
 66
1
  0
VERTEX
  8
0
 10
365.8046171268022
 20
387.739331677831
 30
0
  0
VERTEX
  8
0
 10
368.4917882019051
 20
387.1237125610467
 30
0
  0
VERTEX
  8
0
 10
371.2894439353106
 20
386.8908223149609
 30
0
  0
SEQEND
  8
0
  0
POLYLINE
  8
0
 62
7
 66
1
  0
VERTEX
  8
0
 10
282.0504305092998
 20
450.9739433951953
 30
0
  0
VERTEX
  8
0
 10
283.4013120275788
 20
445.6135785346503
 30
0
  0
VERTEX
  8
0
 10
284.7652991171278
 20
440.2012086218222
 30
0
  0
VERTEX
  8
0
 10
286.1413868808561
 20
434.7408271681709
 30
0
  0
SEQEND
  8
0
  0
POLYLINE
  8
0
 62
7
 66
1
  0
VERTEX
  8
0
 10
272.334167564831
 20
197.7113292174589
 30
0
  0
VERTEX
  8
0
 10
277.4833494458737
 20
197.1947879202906
 30
0
  0
VERTEX
  8
0
 10
285.5978549244562
 20
196.9566375645566
 30
0
  0
VERTEX
  8
0
 10
290.8077329596961
 20
197.0435038827935
 30
0
  0
VERTEX
  8
0
 10
295.9941547049691
 20
197.1495181931403
 30
0
  0
VERTEX
  8
0
 10
298.5224607765501
 20
197.2121999270178
 30
0
  0
SEQEND
  8
0
  0
POLYLINE
  8
0
 62
7
 66
1
  0
VERTEX
  8
0
 10
207.4140114490126
 20
324.7422357916069
 30
0
  0
VERTEX
  8
0
 10
209.6256422583399
 20
321.1923315014754
 30
0
  0
VERTEX
  8
0
 10
211.7919687853175
 20
317.7369048892049
 30
0
  0
VERTEX
  8
0
 10
213.9302523586737
 20
314.3790241417653
 30
0
  0
VERTEX
  8
0
 10
216.057754306237
 20
311.1217574446262
 30
0
  0
VERTEX
  8
0
 10
218.1917359561355
 20
307.9681729847574
 30
0
  0
VERTEX
  8
0
 10
220.3494586364989
 20
304.9213389479276
 30
0
  0
VERTEX
  8
0
 10
222.5481836757547
 20
301.9843235202068
 30
0
  0
VERTEX
  8
0
 10
224.8051724020313
 20
299.1601948882642
 30
0
  0
VERTEX
  8
0
 10
227.137686143458
 20
296.4520212381702
 30
0
  0
VERTEX
  8
0
 10
229.5629862281623
 20
293.8628707562933
 30
0
  0
VERTEX
  8
0
 10
232.098333984274
 20
291.3958116287038
 30
0
  0
VERTEX
  8
0
 10
234.7609907402205
 20
289.0539120414704
 30
0
  0
VERTEX
  8
0
 10
237.5682178238305
 20
286.8402401809634
 30
0
  0
VERTEX
  8
0
 10
240.5372765635332
 20
284.7578642335514
 30
0
  0
VERTEX
  8
0
 10
243.6854282874563
 20
282.8098523853053
 30
0
  0
VERTEX
  8
0
 10
247.0299343234285
 20
280.9992728225932
 30
0
  0
VERTEX
  8
0
 10
250.5880560001785
 20
279.3291937317852
 30
0
  0
VERTEX
  8
0
 10
254.3770546455351
 20
277.802683298651
 30
0
  0
VERTEX
  8
0
 10
258.414191587626
 20
276.4228097098601
 30
0
  0
VERTEX
  8
0
 10
262.7161990772854
 20
275.1926497557818
 30
0
  0
VERTEX
  8
0
 10
267.2755840721877
 20
274.1156742089818
 30
0
  0
VERTEX
  8
0
 10
272.0510877392433
 20
273.1959029824196
 30
0
  0
VERTEX
  8
0
 10
276.9989478734867
 20
272.4373967023556
 30
0
  0
VERTEX
  8
0
 10
282.0754022687518
 20
271.8442159944487
 30
0
  0
VERTEX
  8
0
 10
287.2366887197748
 20
271.4204214852592
 30
0
  0
VERTEX
  8
0
 10
292.4390450209887
 20
271.1700738004464
 30
0
  0
VERTEX
  8
0
 10
297.6387089662301
 20
271.0972335662698
 30
0
  0
VERTEX
  8
0
 10
302.791918350533
 20
271.20596140869
 30
0
  0
VERTEX
  8
0
 10
307.8549109680323
 20
271.5003179536651
 30
0
  0
VERTEX
  8
0
 10
312.786330670139
 20
271.9809905773898
 30
0
  0
VERTEX
  8
0
 10
317.5760893395525
 20
272.6048294141918
 30
0
  0
VERTEX
  8
0
 10
322.2359567327569
 20
273.2980402362048
 30
0
  0
VERTEX
  8
0
 10
326.7781506757299
 20
273.9862006314682
 30
0
  0
VERTEX
  8
0
 10
331.2148889935513
 20
274.5948881877205
 30
0
  0
VERTEX
  8
0
 10
335.5583895115985
 20
275.0496804924026
 30
0
  0
VERTEX
  8
0
 10
339.8208700555508
 20
275.2761551335523
 30
0
  0
VERTEX
  8
0
 10
344.0145484510865
 20
275.19988969861
 30
0
  0
VERTEX
  8
0
 10
348.1516425229845
 20
274.7464617753151
 30
0
  0
VERTEX
  8
0
 10
352.2443700969232
 20
273.8414489514065
 30
0
  0
VERTEX
  8
0
 10
356.3049489988814
 20
272.4104288146235
 30
0
  0
SEQEND
  8
0
  0
LINE
  8
1
 62
2
 10
521.9648277640607
 20
80.2232400660847
 30
0
 11
522.2426055418385
 21
80.5357400660847
 31
0
  0
LINE
  8
1
 62
2
 10
521.9648277640607
 20
82.0982400660847
 30
0
 11
520.2981610973941
 21
82.0982400660847
 31
0
  0
LINE
  8
1
 62
2
 10
526.1314944307275
 20
74.9107400660847
 30
0
 11
528.6314944307275
 21
74.9107400660847
 31
0
  0
LINE
  8
1
 62
2
 10
523.3537166529496
 20
74.9107400660847
 30
0
 11
526.1314944307275
 21
74.9107400660847
 31
0
  0
LINE
  8
1
 62
2
 10
526.1314944307275
 20
83.9732400660847
 30
0
 11
526.1314944307275
 21
74.9107400660847
 31
0
  0
LINE
  8
1
 62
2
 10
524.187049986283
 20
80.2232400660847
 30
0
 11
528.0759388751719
 21
80.2232400660847
 31
0
  0
LINE
  8
1
 62
2
 10
522.5203833196164
 20
79.9107400660847
 30
0
 11
523.9092722085052
 21
78.3482400660847
 31
0
  0
LINE
  8
1
 62
2
 10
521.9648277640607
 20
82.0982400660847
 30
0
 11
521.9648277640607
 21
83.9732400660847
 31
0
  0
LINE
  8
1
 62
2
 10
523.3537166529496
 20
82.0982400660847
 30
0
 11
521.9648277640607
 21
82.0982400660847
 31
0
  0
LINE
  8
1
 62
2
 10
522.2426055418385
 20
80.5357400660847
 30
0
 11
523.3537166529496
 21
82.0982400660847
 31
0
  0
LINE
  8
1
 62
2
 10
520.8537166529496
 20
78.9732400660847
 30
0
 11
521.9648277640607
 21
80.2232400660847
 31
0
  0
LINE
  8
1
 62
2
 10
519.7426055418385
 20
78.0357400660847
 30
0
 11
520.8537166529496
 21
78.9732400660847
 31
0
  0
LINE
  8
1
 62
2
 10
521.9648277640607
 20
74.5982400660847
 30
0
 11
521.9648277640607
 21
80.2232400660847
 31
0
  0
LINE
  8
1
 62
2
 10
514.187049986283
 20
78.0357400660847
 30
0
 11
511.4092722085052
 21
74.5982400660847
 31
0
  0
LINE
  8
1
 62
2
 10
516.687049986283
 20
75.2232400660847
 30
0
 11
515.5759388751719
 21
76.4732400660847
 31
0
  0
LINE
  8
1
 62
2
 10
517.5203833196164
 20
74.2857400660847
 30
0
 11
516.687049986283
 21
75.2232400660847
 31
0
  0
LINE
  8
1
 62
2
 10
510.5759388751719
 20
74.5982400660847
 30
0
 11
516.687049986283
 21
75.2232400660847
 31
0
  0
LINE
  8
1
 62
2
 10
511.1314944307275
 20
78.3482400660847
 30
0
 11
517.5203833196164
 21
78.3482400660847
 31
0
  0
LINE
  8
1
 62
2
 10
512.2426055418385
 20
79.9107400660847
 30
0
 11
516.1314944307275
 21
79.9107400660847
 31
0
  0
LINE
  8
1
 62
2
 10
514.187049986283
 20
83.9732400660847
 30
0
 11
518.6314944307275
 21
79.2857400660847
 31
0
  0
LINE
  8
1
 62
2
 10
514.187049986283
 20
83.9732400660847
 30
0
 11
509.7426055418385
 21
79.2857400660847
 31
0
  0
LINE
  8
1
 62
2
 10
502.2426055418385
 20
79.5982400660847
 30
0
 11
500.2981610973941
 21
79.5982400660847
 31
0
  0
LINE
  8
1
 62
2
 10
502.2426055418385
 20
76.1607400660847
 30
0
 11
504.187049986283
 21
76.7857400660847
 31
0
  0
LINE
  8
1
 62
2
 10
507.7981610973941
 20
74.5982400660847
 30
0
 11
508.6314944307275
 21
75.5357400660847
 31
0
  0
LINE
  8
1
 62
2
 10
506.687049986283
 20
75.8482400660847
 30
0
 11
507.7981610973941
 21
74.5982400660847
 31
0
  0
LINE
  8
1
 62
2
 10
505.5759388751719
 20
78.0357400660847
 30
0
 11
506.687049986283
 21
75.8482400660847
 31
0
  0
LINE
  8
1
 62
2
 10
505.0203833196163
 20
80.5357400660847
 30
0
 11
505.5759388751719
 21
78.0357400660847
 31
0
  0
LINE
  8
1
 62
2
 10
504.7426055418385
 20
84.2857400660847
 30
0
 11
505.0203833196163
 21
80.5357400660847
 31
0
  0
LINE
  8
1
 62
2
 10
506.4092722085052
 20
83.0357400660847
 30
0
 11
505.5759388751719
 21
83.9732400660847
 31
0
  0
LINE
  8
1
 62
2
 10
499.7426055418385
 20
82.0982400660847
 30
0
 11
507.7981610973941
 21
82.0982400660847
 31
0
  0
LINE
  8
1
 62
2
 10
502.2426055418385
 20
79.5982400660847
 30
0
 11
502.2426055418385
 21
76.1607400660847
 31
0
  0
LINE
  8
1
 62
2
 10
504.187049986283
 20
79.5982400660847
 30
0
 11
502.2426055418385
 21
79.5982400660847
 31
0
  0
LINE
  8
1
 62
2
 10
500.2981610973941
 20
75.5357400660847
 30
0
 11
502.2426055418385
 21
76.1607400660847
 31
0
  0
LINE
  8
1
 62
2
 10
491.687049986283
 20
81.4732400660847
 30
0
 11
491.687049986283
 21
84.2857400660847
 31
0
  0
LINE
  8
1
 62
2
 10
491.687049986283
 20
81.4732400660847
 30
0
 11
490.2981610973941
 21
81.4732400660847
 31
0
  0
LINE
  8
1
 62
2
 10
497.2426055418385
 20
76.7857400660847
 30
0
 11
498.3537166529496
 21
74.5982400660847
 31
0
  0
LINE
  8
1
 62
2
 10
495.8537166529496
 20
79.5982400660847
 30
0
 11
497.2426055418385
 21
76.7857400660847
 31
0
  0
LINE
  8
1
 62
2
 10
495.0203833196163
 20
77.4107400660847
 30
0
 11
495.8537166529496
 21
79.5982400660847
 31
0
  0
LINE
  8
1
 62
2
 10
493.9092722085052
 20
75.8482400660847
 30
0
 11
495.0203833196163
 21
77.4107400660847
 31
0
  0
LINE
  8
1
 62
2
 10
493.0759388751719
 20
74.5982400660847
 30
0
 11
493.9092722085052
 21
75.8482400660847
 31
0
  0
LINE
  8
1
 62
2
 10
495.8537166529496
 20
84.2857400660847
 30
0
 11
495.8537166529496
 21
74.2857400660847
 31
0
  0
LINE
  8
1
 62
2
 10
498.3537166529496
 20
79.5982400660847
 30
0
 11
493.6314944307275
 21
79.5982400660847
 31
0
  0
LINE
  8
1
 62
2
 10
494.4648277640608
 20
81.7857400660847
 30
0
 11
498.0759388751719
 21
81.7857400660847
 31
0
  0
LINE
  8
1
 62
2
 10
494.4648277640608
 20
81.7857400660847
 30
0
 11
494.7426055418385
 21
83.3482400660847
 31
0
  0
LINE
  8
1
 62
2
 10
493.6314944307275
 20
80.2232400660847
 30
0
 11
494.4648277640608
 21
81.7857400660847
 31
0
  0
LINE
  8
1
 62
2
 10
491.687049986283
 20
81.4732400660847
 30
0
 11
493.0759388751719
 21
78.9732400660847
 31
0
  0
LINE
  8
1
 62
2
 10
490.0203833196163
 20
77.0982400660847
 30
0
 11
491.687049986283
 21
81.4732400660847
 31
0
  0
LINE
  8
1
 62
2
 10
493.0759388751719
 20
81.4732400660847
 30
0
 11
491.687049986283
 21
81.4732400660847
 31
0
  0
LINE
  8
1
 62
2
 10
491.687049986283
 20
74.5982400660847
 30
0
 11
491.687049986283
 21
81.4732400660847
 31
0
  0
LINE
  8
1
 62
2
 10
480.5759388751719
 20
80.5357400660847
 30
0
 11
480.5759388751719
 21
82.0982400660847
 31
0
  0
LINE
  8
1
 62
2
 10
483.3537166529496
 20
82.0982400660847
 30
0
 11
483.3537166529496
 21
80.5357400660847
 31
0
  0
LINE
  8
1
 62
2
 10
480.5759388751719
 20
82.0982400660847
 30
0
 11
480.5759388751719
 21
83.6607400660847
 31
0
  0
LINE
  8
1
 62
2
 10
487.7981610973941
 20
80.5357400660847
 30
0
 11
487.7981610973941
 21
82.0982400660847
 31
0
  0
LINE
  8
1
 62
2
 10
485.0203833196163
 20
82.0982400660847
 30
0
 11
485.0203833196163
 21
80.5357400660847
 31
0
  0
LINE
  8
1
 62
2
 10
487.7981610973941
 20
82.0982400660847
 30
0
 11
487.7981610973941
 21
83.6607400660847
 31
0
  0
LINE
  8
1
 62
2
 10
480.5759388751719
 20
74.9107400660847
 30
0
 11
480.5759388751719
 21
74.5982400660847
 31
0
  0
LINE
  8
1
 62
2
 10
485.0203833196163
 20
82.0982400660847
 30
0
 11
487.7981610973941
 21
82.0982400660847
 31
0
  0
LINE
  8
1
 62
2
 10
485.0203833196163
 20
80.5357400660847
 30
0
 11
487.7981610973941
 21
80.5357400660847
 31
0
  0
LINE
  8
1
 62
2
 10
485.0203833196163
 20
83.6607400660847
 30
0
 11
485.0203833196163
 21
82.0982400660847
 31
0
  0
LINE
  8
1
 62
2
 10
487.7981610973941
 20
83.6607400660847
 30
0
 11
485.0203833196163
 21
83.6607400660847
 31
0
  0
LINE
  8
1
 62
2
 10
487.7981610973941
 20
74.9107400660847
 30
0
 11
487.7981610973941
 21
80.5357400660847
 31
0
  0
LINE
  8
1
 62
2
 10
487.5203833196163
 20
74.5982400660847
 30
0
 11
487.7981610973941
 21
74.9107400660847
 31
0
  0
LINE
  8
1
 62
2
 10
486.687049986283
 20
74.5982400660847
 30
0
 11
487.5203833196163
 21
74.5982400660847
 31
0
  0
LINE
  8
1
 62
2
 10
483.3537166529496
 20
82.0982400660847
 30
0
 11
480.5759388751719
 21
82.0982400660847
 31
0
  0
LINE
  8
1
 62
2
 10
483.3537166529496
 20
80.5357400660847
 30
0
 11
480.5759388751719
 21
80.5357400660847
 31
0
  0
LINE
  8
1
 62
2
 10
483.3537166529496
 20
83.6607400660847
 30
0
 11
483.3537166529496
 21
82.0982400660847
 31
0
  0
LINE
  8
1
 62
2
 10
480.5759388751719
 20
83.6607400660847
 30
0
 11
483.3537166529496
 21
83.6607400660847
 31
0
  0
LINE
  8
1
 62
2
 10
480.5759388751719
 20
74.9107400660847
 30
0
 11
480.5759388751719
 21
80.5357400660847
 31
0
  0
LINE
  8
1
 62
2
 10
474.187049986283
 20
74.5982400660847
 30
0
 11
477.5203833196163
 21
74.5982400660847
 31
0
  0
LINE
  8
1
 62
2
 10
474.187049986283
 20
80.5357400660847
 30
0
 11
476.1314944307275
 21
80.5357400660847
 31
0
  0
LINE
  8
1
 62
2
 10
477.5203833196163
 20
80.2232400660847
 30
0
 11
478.6314944307275
 21
79.2857400660847
 31
0
  0
LINE
  8
1
 62
2
 10
475.5759388751719
 20
82.4107400660847
 30
0
 11
477.5203833196163
 21
80.2232400660847
 31
0
  0
LINE
  8
1
 62
2
 10
474.187049986283
 20
84.2857400660847
 30
0
 11
475.5759388751719
 21
82.4107400660847
 31
0
  0
LINE
  8
1
 62
2
 10
472.7981610973941
 20
82.4107400660847
 30
0
 11
474.187049986283
 21
84.2857400660847
 31
0
  0
LINE
  8
1
 62
2
 10
470.8537166529496
 20
80.2232400660847
 30
0
 11
472.7981610973941
 21
82.4107400660847
 31
0
  0
LINE
  8
1
 62
2
 10
469.7426055418385
 20
79.2857400660847
 30
0
 11
470.8537166529496
 21
80.2232400660847
 31
0
  0
LINE
  8
1
 62
2
 10
475.5759388751719
 20
75.8482400660847
 30
0
 11
476.1314944307275
 21
77.4107400660847
 31
0
  0
LINE
  8
1
 62
2
 10
472.2426055418385
 20
77.4107400660847
 30
0
 11
472.7981610973941
 21
75.8482400660847
 31
0
  0
LINE
  8
1
 62
2
 10
476.9648277640608
 20
78.6607400660847
 30
0
 11
471.4092722085052
 21
78.6607400660847
 31
0
  0
LINE
  8
1
 62
2
 10
472.2426055418385
 20
80.5357400660847
 30
0
 11
474.187049986283
 21
80.5357400660847
 31
0
  0
LINE
  8
1
 62
2
 10
474.187049986283
 20
74.5982400660847
 30
0
 11
474.187049986283
 21
80.5357400660847
 31
0
  0
LINE
  8
1
 62
2
 10
470.5759388751719
 20
74.5982400660847
 30
0
 11
474.187049986283
 21
74.5982400660847
 31
0
  0
LINE
  8
1
 62
2
 10
466.687049986283
 20
77.4107400660847
 30
0
 11
468.0759388751719
 21
79.2857400660847
 31
0
  0
LINE
  8
1
 62
2
 10
464.4648277640608
 20
76.1607400660847
 30
0
 11
466.687049986283
 21
77.4107400660847
 31
0
  0
LINE
  8
1
 62
2
 10
464.4648277640608
 20
81.7857400660847
 30
0
 11
464.4648277640608
 21
76.1607400660847
 31
0
  0
LINE
  8
1
 62
2
 10
462.2426055418385
 20
79.2857400660847
 30
0
 11
462.5203833196163
 21
81.7857400660847
 31
0
  0
LINE
  8
1
 62
2
 10
461.687049986283
 20
77.4107400660847
 30
0
 11
462.2426055418385
 21
79.2857400660847
 31
0
  0
LINE
  8
1
 62
2
 10
460.8537166529496
 20
75.8482400660847
 30
0
 11
461.687049986283
 21
77.4107400660847
 31
0
  0
LINE
  8
1
 62
2
 10
451.4092722085052
 20
78.3482400660847
 30
0
 11
451.4092722085052
 21
76.4732400660847
 31
0
  0
LINE
  8
1
 62
2
 10
454.4648277640608
 20
75.2232400660847
 30
0
 11
456.1314944307275
 21
75.5357400660847
 31
0
  0
LINE
  8
1
 62
2
 10
451.687049986283
 20
75.5357400660847
 30
0
 11
454.4648277640608
 21
75.2232400660847
 31
0
  0
LINE
  8
1
 62
2
 10
451.4092722085052
 20
76.4732400660847
 30
0
 11
451.687049986283
 21
75.5357400660847
 31
0
  0
LINE
  8
1
 62
2
 10
451.4092722085052
 20
81.7857400660847
 30
0
 11
451.4092722085052
 21
78.3482400660847
 31
0
  0
LINE
  8
1
 62
2
 10
456.687049986283
 20
82.4107400660847
 30
0
 11
457.5203833196163
 21
81.4732400660847
 31
0
  0
LINE
  8
1
 62
2
 10
456.9648277640608
 20
80.8482400660847
 30
0
 11
456.1314944307275
 21
81.7857400660847
 31
0
  0
LINE
  8
1
 62
2
 10
453.9092722085052
 20
79.2857400660847
 30
0
 11
455.5759388751719
 21
80.2232400660847
 31
0
  0
LINE
  8
1
 62
2
 10
451.4092722085052
 20
78.3482400660847
 30
0
 11
453.9092722085052
 21
79.2857400660847
 31
0
  0
LINE
  8
1
 62
2
 10
445.2981610973941
 20
77.4107400660847
 30
0
 11
446.9648277640608
 21
75.5357400660847
 31
0
  0
LINE
  8
1
 62
2
 10
443.9092722085052
 20
78.6607400660847
 30
0
 11
445.2981610973941
 21
77.4107400660847
 31
0
  0
LINE
  8
1
 62
2
 10
447.2426055418385
 20
83.0357400660847
 30
0
 11
448.0759388751719
 21
82.0982400660847
 31
0
  0
LINE
  8
1
 62
2
 10
446.687049986283
 20
82.4107400660847
 30
0
 11
447.5203833196163
 21
81.4732400660847
 31
0
  0
LINE
  8
1
 62
2
 10
445.5759388751719
 20
81.7857400660847
 30
0
 11
441.9648277640608
 21
81.7857400660847
 31
0
  0
LINE
  8
1
 62
2
 10
444.7426055418385
 20
79.9107400660847
 30
0
 11
445.5759388751719
 21
81.7857400660847
 31
0
  0
LINE
  8
1
 62
2
 10
442.7981610973941
 20
77.0982400660847
 30
0
 11
444.7426055418385
 21
79.9107400660847
 31
0
  0
LINE
  8
1
 62
2
 10
440.8537166529496
 20
75.5357400660847
 30
0
 11
442.7981610973941
 21
77.0982400660847
 31
0
  0
LINE
  8
1
 62
2
 10
437.5203833196163
 20
81.4732400660847
 30
0
 11
435.0203833196163
 21
78.6607400660847
 31
0
  0
LINE
  8
1
 62
2
 10
431.1314944307275
 20
81.4732400660847
 30
0
 11
437.5203833196163
 21
81.4732400660847
 31
0
  0
LINE
  8
1
 62
2
 10
434.187049986283
 20
78.6607400660847
 30
0
 11
434.4648277640608
 21
80.2232400660847
 31
0
  0
LINE
  8
1
 62
2
 10
433.6314944307275
 20
76.7857400660847
 30
0
 11
434.187049986283
 21
78.6607400660847
 31
0
  0
LINE
  8
1
 62
2
 10
432.5203833196163
 20
74.9107400660847
 30
0
 11
433.6314944307275
 21
76.7857400660847
 31
0
  0
LINE
  8
1
 62
2
 10
303.5379128550085
 20
233.1207603661317
 30
0
 11
304.068832599542
 21
236.3908250668438
 31
0
  0
LINE
  8
1
 62
2
 10
305.2440749637613
 20
233.2934060917416
 30
0
 11
304.068832599542
 21
236.3908250668438
 31
0
  0
LINE
  8
1
 62
2
 10
310.5306439332321
 20
172.5323216923489
 30
0
 11
304.068832599542
 21
236.3908250668438
 31
0
  0
LINE
  8
1
 62
2
 10
399.7364189332321
 20
172.5323216923489
 30
0
 11
310.5306439332321
 21
172.5323216923489
 31
0
  0
LINE
  8
1
 62
2
 10
540.146443288902
 20
57.47720573639708
 30
0
 11
540.646443288902
 21
57.19595573639708
 31
0
  0
LINE
  8
1
 62
2
 10
535.646443288902
 20
57.47720573639708
 30
0
 11
540.146443288902
 21
57.47720573639708
 31
0
  0
LINE
  8
1
 62
2
 10
535.146443288902
 20
57.75845573639708
 30
0
 11
535.646443288902
 21
57.47720573639708
 31
0
  0
LINE
  8
1
 62
2
 10
528.646443288902
 20
58.32095573639708
 30
0
 11
530.646443288902
 21
56.07095573639708
 31
0
  0
LINE
  8
1
 62
2
 10
527.896443288902
 20
59.44595573639708
 30
0
 11
526.646443288902
 21
58.03970573639708
 31
0
  0
LINE
  8
1
 62
2
 10
529.146443288902
 20
61.13345573639708
 30
0
 11
527.896443288902
 21
59.44595573639708
 31
0
  0
LINE
  8
1
 62
2
 10
531.646443288902
 20
60.00845573639708
 30
0
 11
528.396443288902
 21
60.00845573639708
 31
0
  0
LINE
  8
1
 62
2
 10
530.646443288902
 20
58.03970573639708
 30
0
 11
531.646443288902
 21
60.00845573639708
 31
0
  0
LINE
  8
1
 62
2
 10
528.646443288902
 20
55.78970573639708
 30
0
 11
530.646443288902
 21
58.03970573639708
 31
0
  0
LINE
  8
1
 62
2
 10
526.396443288902
 20
54.10220573639708
 30
0
 11
528.646443288902
 21
55.78970573639708
 31
0
  0
LINE
  8
1
 62
2
 10
522.146443288902
 20
57.47720573639708
 30
0
 11
522.646443288902
 21
57.19595573639708
 31
0
  0
LINE
  8
1
 62
2
 10
517.646443288902
 20
57.47720573639708
 30
0
 11
522.146443288902
 21
57.47720573639708
 31
0
  0
LINE
  8
1
 62
2
 10
517.146443288902
 20
57.75845573639708
 30
0
 11
517.646443288902
 21
57.47720573639708
 31
0
  0
LINE
  8
1
 62
2
 10
511.6464432889019
 20
57.47720573639708
 30
0
 11
512.896443288902
 21
55.50845573639708
 31
0
  0
LINE
  8
1
 62
2
 10
510.3964432889019
 20
58.88345573639708
 30
0
 11
511.6464432889019
 21
57.47720573639708
 31
0
  0
LINE
  8
1
 62
2
 10
512.146443288902
 20
58.03970573639708
 30
0
 11
513.396443288902
 21
60.57095573639708
 31
0
  0
LINE
  8
1
 62
2
 10
510.1464432889019
 20
55.50845573639708
 30
0
 11
512.146443288902
 21
58.03970573639708
 31
0
  0
LINE
  8
1
 62
2
 10
508.3964432889019
 20
54.10220573639708
 30
0
 11
510.1464432889019
 21
55.50845573639708
 31
0
  0
LINE
  8
1
 62
2
 10
502.6464432889019
 20
60.00845573639708
 30
0
 11
505.3964432889019
 21
60.00845573639708
 31
0
  0
LINE
  8
1
 62
2
 10
501.8964432889019
 20
58.60220573639708
 30
0
 11
501.3964432889019
 21
58.60220573639708
 31
0
  0
LINE
  8
1
 62
2
 10
501.3964432889019
 20
57.47720573639708
 30
0
 11
501.3964432889019
 21
56.07095573639708
 31
0
  0
LINE
  8
1
 62
2
 10
504.3964432889019
 20
56.07095573639708
 30
0
 11
504.3964432889019
 21
58.60220573639708
 31
0
  0
LINE
  8
1
 62
2
 10
501.3964432889019
 20
56.07095573639708
 30
0
 11
501.3964432889019
 21
54.94595573639708
 31
0
  0
LINE
  8
1
 62
2
 10
500.8964432889019
 20
53.82095573639708
 30
0
 11
505.6464432889019
 21
53.82095573639708
 31
0
  0
LINE
  8
1
 62
2
 10
499.8964432889019
 20
54.10220573639708
 30
0
 11
500.8964432889019
 21
53.82095573639708
 31
0
  0
LINE
  8
1
 62
2
 10
499.1464432889019
 20
54.66470573639708
 30
0
 11
499.8964432889019
 21
54.10220573639708
 31
0
  0
LINE
  8
1
 62
2
 10
504.3964432889019
 20
56.07095573639708
 30
0
 11
501.3964432889019
 21
56.07095573639708
 31
0
  0
LINE
  8
1
 62
2
 10
501.3964432889019
 20
57.47720573639708
 30
0
 11
504.3964432889019
 21
57.47720573639708
 31
0
  0
LINE
  8
1
 62
2
 10
504.3964432889019
 20
58.60220573639708
 30
0
 11
501.8964432889019
 21
58.60220573639708
 31
0
  0
LINE
  8
1
 62
2
 10
504.3964432889019
 20
54.94595573639708
 30
0
 11
504.3964432889019
 21
56.07095573639708
 31
0
  0
LINE
  8
1
 62
2
 10
501.3964432889019
 20
54.94595573639708
 30
0
 11
504.3964432889019
 21
54.94595573639708
 31
0
  0
LINE
  8
1
 62
2
 10
501.3964432889019
 20
58.60220573639708
 30
0
 11
501.3964432889019
 21
57.47720573639708
 31
0
  0
LINE
  8
1
 62
2
 10
502.6464432889019
 20
60.00845573639708
 30
0
 11
501.8964432889019
 21
58.60220573639708
 31
0
  0
LINE
  8
1
 62
2
 10
500.1464432889019
 20
60.00845573639708
 30
0
 11
502.6464432889019
 21
60.00845573639708
 31
0
  0
LINE
  8
1
 62
2
 10
504.1464432889019
 20
61.69595573639708
 30
0
 11
503.1464432889019
 21
60.00845573639708
 31
0
  0
LINE
  8
1
 62
2
 10
501.3964432889019
 20
61.69595573639708
 30
0
 11
502.1464432889019
 21
60.57095573639708
 31
0
  0
LINE
  8
1
 62
2
 10
498.6464432889019
 20
61.69595573639708
 30
0
 11
499.6464432889019
 21
60.57095573639708
 31
0
  0
LINE
  8
1
 62
2
 10
499.1464432889019
 20
58.03970573639708
 30
0
 11
498.1464432889019
 21
58.03970573639708
 31
0
  0
LINE
  8
1
 62
2
 10
499.1464432889019
 20
54.66470573639708
 30
0
 11
499.1464432889019
 21
58.03970573639708
 31
0
  0
LINE
  8
1
 62
2
 10
498.3964432889019
 20
53.82095573639708
 30
0
 11
499.1464432889019
 21
54.66470573639708
 31
0
  0
LINE
  8
1
 62
2
 10
495.6464432889019
 20
55.78970573639708
 30
0
 11
496.8964432889019
 21
54.38345573639708
 31
0
  0
LINE
  8
1
 62
2
 10
494.6464432889019
 20
57.47720573639708
 30
0
 11
495.6464432889019
 21
55.78970573639708
 31
0
  0
LINE
  8
1
 62
2
 10
493.8964432889019
 20
59.44595573639708
 30
0
 11
494.6464432889019
 21
57.47720573639708
 31
0
  0
LINE
  8
1
 62
2
 10
496.1464432889019
 20
59.72720573639708
 30
0
 11
494.3964432889019
 21
58.32095573639708
 31
0
  0
LINE
  8
1
 62
2
 10
493.1464432889019
 20
52.97720573639708
 30
0
 11
492.3964432889019
 21
53.25845573639708
 31
0
  0
LINE
  8
1
 62
2
 10
493.1464432889019
 20
61.69595573639708
 30
0
 11
493.1464432889019
 21
52.97720573639708
 31
0
  0
LINE
  8
1
 62
2
 10
491.8964432889019
 20
58.88345573639708
 30
0
 11
489.3964432889019
 21
58.88345573639708
 31
0
  0
LINE
  8
1
 62
2
 10
491.3964432889019
 20
57.19595573639708
 30
0
 11
491.8964432889019
 21
58.88345573639708
 31
0
  0
LINE
  8
1
 62
2
 10
490.3964432889019
 20
55.50845573639708
 30
0
 11
491.3964432889019
 21
57.19595573639708
 31
0
  0
LINE
  8
1
 62
2
 10
489.3964432889019
 20
54.38345573639708
 30
0
 11
490.3964432889019
 21
55.50845573639708
 31
0
  0
LINE
  8
1
 62
2
 10
483.0464432889019
 20
59.27720573639709
 30
0
 11
484.846443288902
 21
59.27720573639709
 31
0
  0
LINE
  8
1
 62
2
 10
483.0464432889019
 20
59.27720573639709
 30
0
 11
483.0464432889019
 21
52.97720573639708
 31
0
  0
LINE
  8
1
 62
2
 10
486.1964432889019
 20
58.15220573639709
 30
0
 11
486.1964432889019
 21
52.97720573639708
 31
0
  0
LINE
  8
1
 62
2
 10
485.971443288902
 20
58.60220573639708
 30
0
 11
486.1964432889019
 21
58.15220573639709
 31
0
  0
LINE
  8
1
 62
2
 10
485.5214432889019
 20
59.0522057363971
 30
0
 11
485.971443288902
 21
58.60220573639708
 31
0
  0
LINE
  8
1
 62
2
 10
484.846443288902
 20
59.27720573639709
 30
0
 11
485.5214432889019
 21
59.0522057363971
 31
0
  0
LINE
  8
1
 62
2
 10
479.8964432889019
 20
59.27720573639709
 30
0
 11
483.0464432889019
 21
59.27720573639709
 31
0
  0
LINE
  8
1
 62
2
 10
479.8964432889019
 20
52.97720573639708
 30
0
 11
479.8964432889019
 21
59.27720573639709
 31
0
  0
LINE
  8
1
 62
2
 10
474.0464432889019
 20
59.27720573639709
 30
0
 11
475.846443288902
 21
59.27720573639709
 31
0
  0
LINE
  8
1
 62
2
 10
474.0464432889019
 20
59.27720573639709
 30
0
 11
474.0464432889019
 21
52.97720573639708
 31
0
  0
LINE
  8
1
 62
2
 10
477.1964432889019
 20
58.15220573639709
 30
0
 11
477.1964432889019
 21
52.97720573639708
 31
0
  0
LINE
  8
1
 62
2
 10
476.971443288902
 20
58.60220573639708
 30
0
 11
477.1964432889019
 21
58.15220573639709
 31
0
  0
LINE
  8
1
 62
2
 10
476.5214432889019
 20
59.0522057363971
 30
0
 11
476.971443288902
 21
58.60220573639708
 31
0
  0
LINE
  8
1
 62
2
 10
475.846443288902
 20
59.27720573639709
 30
0
 11
476.5214432889019
 21
59.0522057363971
 31
0
  0
LINE
  8
1
 62
2
 10
470.8964432889019
 20
59.27720573639709
 30
0
 11
474.0464432889019
 21
59.27720573639709
 31
0
  0
LINE
  8
1
 62
2
 10
470.8964432889019
 20
52.97720573639708
 30
0
 11
470.8964432889019
 21
59.27720573639709
 31
0
  0
LINE
  8
1
 62
2
 10
466.1714432889019
 20
52.97720573639708
 30
0
 11
462.7964432889019
 21
52.97720573639708
 31
0
  0
LINE
  8
1
 62
2
 10
466.846443288902
 20
53.2022057363971
 30
0
 11
466.1714432889019
 21
52.97720573639708
 31
0
  0
LINE
  8
1
 62
2
 10
467.5214432889019
 20
53.65220573639709
 30
0
 11
466.846443288902
 21
53.2022057363971
 31
0
  0
LINE
  8
1
 62
2
 10
467.971443288902
 20
54.3272057363971
 30
0
 11
467.5214432889019
 21
53.65220573639709
 31
0
  0
LINE
  8
1
 62
2
 10
468.196443288902
 20
55.22720573639708
 30
0
 11
467.971443288902
 21
54.3272057363971
 31
0
  0
LINE
  8
1
 62
2
 10
468.196443288902
 20
56.5772057363971
 30
0
 11
468.196443288902
 21
55.22720573639708
 31
0
  0
LINE
  8
1
 62
2
 10
467.971443288902
 20
57.47720573639708
 30
0
 11
468.196443288902
 21
56.5772057363971
 31
0
  0
LINE
  8
1
 62
2
 10
467.2964432889019
 20
58.15220573639709
 30
0
 11
467.971443288902
 21
57.47720573639708
 31
0
  0
LINE
  8
1
 62
2
 10
466.1714432889019
 20
58.37720573639709
 30
0
 11
467.2964432889019
 21
58.15220573639709
 31
0
  0
LINE
  8
1
 62
2
 10
462.7964432889019
 20
58.37720573639709
 30
0
 11
466.1714432889019
 21
58.37720573639709
 31
0
  0
LINE
  8
1
 62
2
 10
462.7964432889019
 20
61.97720573639708
 30
0
 11
462.7964432889019
 21
58.37720573639709
 31
0
  0
LINE
  8
1
 62
2
 10
467.746443288902
 20
61.97720573639708
 30
0
 11
462.7964432889019
 21
61.97720573639708
 31
0
  0
LINE
  8
1
 62
2
 10
456.2714432889021
 20
59.9522057363971
 30
0
 11
458.746443288902
 21
61.97720573639708
 31
0
  0
LINE
  8
1
 62
2
 10
455.371443288902
 20
58.8272057363971
 30
0
 11
456.2714432889021
 21
59.9522057363971
 31
0
  0
LINE
  8
1
 62
2
 10
454.9214432889019
 20
57.9272057363971
 30
0
 11
455.371443288902
 21
58.8272057363971
 31
0
  0
LINE
  8
1
 62
2
 10
454.696443288902
 20
56.12720573639709
 30
0
 11
454.9214432889019
 21
57.9272057363971
 31
0
  0
LINE
  8
1
 62
2
 10
454.696443288902
 20
55.22720573639708
 30
0
 11
454.696443288902
 21
56.12720573639709
 31
0
  0
LINE
  8
1
 62
2
 10
454.9214432889019
 20
54.3272057363971
 30
0
 11
454.696443288902
 21
55.22720573639708
 31
0
  0
LINE
  8
1
 62
2
 10
455.371443288902
 20
53.65220573639709
 30
0
 11
454.9214432889019
 21
54.3272057363971
 31
0
  0
LINE
  8
1
 62
2
 10
456.0464432889019
 20
53.2022057363971
 30
0
 11
455.371443288902
 21
53.65220573639709
 31
0
  0
LINE
  8
1
 62
2
 10
456.7214432889021
 20
52.97720573639708
 30
0
 11
456.0464432889019
 21
53.2022057363971
 31
0
  0
LINE
  8
1
 62
2
 10
458.071443288902
 20
52.97720573639708
 30
0
 11
456.7214432889021
 21
52.97720573639708
 31
0
  0
LINE
  8
1
 62
2
 10
458.746443288902
 20
53.2022057363971
 30
0
 11
458.071443288902
 21
52.97720573639708
 31
0
  0
LINE
  8
1
 62
2
 10
459.4214432889019
 20
53.65220573639709
 30
0
 11
458.746443288902
 21
53.2022057363971
 31
0
  0
LINE
  8
1
 62
2
 10
459.871443288902
 20
54.3272057363971
 30
0
 11
459.4214432889019
 21
53.65220573639709
 31
0
  0
LINE
  8
1
 62
2
 10
460.0964432889021
 20
55.22720573639708
 30
0
 11
459.871443288902
 21
54.3272057363971
 31
0
  0
LINE
  8
1
 62
2
 10
460.0964432889021
 20
56.12720573639709
 30
0
 11
460.0964432889021
 21
55.22720573639708
 31
0
  0
LINE
  8
1
 62
2
 10
459.871443288902
 20
57.02720573639709
 30
0
 11
460.0964432889021
 21
56.12720573639709
 31
0
  0
LINE
  8
1
 62
2
 10
459.4214432889019
 20
57.7022057363971
 30
0
 11
459.871443288902
 21
57.02720573639709
 31
0
  0
LINE
  8
1
 62
2
 10
458.746443288902
 20
58.15220573639709
 30
0
 11
459.4214432889019
 21
57.7022057363971
 31
0
  0
LINE
  8
1
 62
2
 10
458.071443288902
 20
58.37720573639709
 30
0
 11
458.746443288902
 21
58.15220573639709
 31
0
  0
LINE
  8
1
 62
2
 10
456.7214432889021
 20
58.37720573639709
 30
0
 11
458.071443288902
 21
58.37720573639709
 31
0
  0
LINE
  8
1
 62
2
 10
456.0464432889019
 20
58.15220573639709
 30
0
 11
456.7214432889021
 21
58.37720573639709
 31
0
  0
LINE
  8
1
 62
2
 10
455.371443288902
 20
57.7022057363971
 30
0
 11
456.0464432889019
 21
58.15220573639709
 31
0
  0
LINE
  8
1
 62
2
 10
454.9214432889019
 20
57.02720573639709
 30
0
 11
455.371443288902
 21
57.7022057363971
 31
0
  0
LINE
  8
1
 62
2
 10
454.696443288902
 20
56.12720573639709
 30
0
 11
454.9214432889019
 21
57.02720573639709
 31
0
  0
LINE
  8
1
 62
2
 10
448.696443288902
 20
61.41470573639708
 30
0
 11
446.196443288902
 21
61.41470573639708
 31
0
  0
LINE
  8
1
 62
2
 10
449.946443288902
 20
53.25845573639708
 30
0
 11
453.446443288902
 21
53.25845573639708
 31
0
  0
LINE
  8
1
 62
2
 10
449.946443288902
 20
56.63345573639708
 30
0
 11
449.946443288902
 21
53.25845573639708
 31
0
  0
LINE
  8
1
 62
2
 10
452.946443288902
 20
56.63345573639708
 30
0
 11
452.196443288902
 21
56.63345573639708
 31
0
  0
LINE
  8
1
 62
2
 10
452.946443288902
 20
61.69595573639708
 30
0
 11
452.946443288902
 21
56.63345573639708
 31
0
  0
LINE
  8
1
 62
2
 10
451.196443288902
 20
57.75845573639708
 30
0
 11
451.196443288902
 21
61.41470573639708
 31
0
  0
LINE
  8
1
 62
2
 10
448.696443288902
 20
61.41470573639708
 30
0
 11
448.696443288902
 21
56.63345573639708
 31
0
  0
LINE
  8
1
 62
2
 10
445.946443288902
 20
59.44595573639708
 30
0
 11
450.196443288902
 21
59.44595573639708
 31
0
  0
LINE
  8
1
 62
2
 10
449.946443288902
 20
61.41470573639708
 30
0
 11
448.696443288902
 21
61.41470573639708
 31
0
  0
LINE
  8
1
 62
2
 10
447.446443288902
 20
59.44595573639708
 30
0
 11
447.446443288902
 21
61.41470573639708
 31
0
  0
LINE
  8
1
 62
2
 10
446.946443288902
 20
57.47720573639708
 30
0
 11
447.446443288902
 21
59.44595573639708
 31
0
  0
LINE
  8
1
 62
2
 10
446.196443288902
 20
56.35220573639708
 30
0
 11
446.946443288902
 21
57.47720573639708
 31
0
  0
LINE
  8
1
 62
2
 10
452.446443288902
 20
55.22720573639708
 30
0
 11
446.946443288902
 21
55.22720573639708
 31
0
  0
LINE
  8
1
 62
2
 10
446.196443288902
 20
53.25845573639708
 30
0
 11
449.946443288902
 21
53.25845573639708
 31
0
  0
LINE
  8
1
 62
2
 10
439.8464432889021
 20
61.97720573639708
 30
0
 11
439.8464432889021
 21
52.97720573639708
 31
0
  0
LINE
  8
1
 62
2
 10
436.696443288902
 20
61.97720573639708
 30
0
 11
439.8464432889021
 21
61.97720573639708
 31
0
  0
LINE
  8
1
 62
2
 10
439.8464432889021
 20
61.97720573639708
 30
0
 11
442.996443288902
 21
61.97720573639708
 31
0
  0
LINE
  8
1
 62
2
 10
433.7714432889021
 20
60.1772057363971
 30
0
 11
433.996443288902
 21
59.27720573639709
 31
0
  0
LINE
  8
1
 62
2
 10
433.321443288902
 20
60.85220573639708
 30
0
 11
433.7714432889021
 21
60.1772057363971
 31
0
  0
LINE
  8
1
 62
2
 10
432.871443288902
 20
61.3022057363971
 30
0
 11
433.321443288902
 21
60.85220573639708
 31
0
  0
LINE
  8
1
 62
2
 10
432.196443288902
 20
61.75220573639709
 30
0
 11
432.871443288902
 21
61.3022057363971
 31
0
  0
LINE
  8
1
 62
2
 10
431.2964432889019
 20
61.97720573639708
 30
0
 11
432.196443288902
 21
61.75220573639709
 31
0
  0
LINE
  8
1
 62
2
 10
427.696443288902
 20
61.97720573639708
 30
0
 11
431.2964432889019
 21
61.97720573639708
 31
0
  0
LINE
  8
1
 62
2
 10
427.696443288902
 20
52.97720573639708
 30
0
 11
427.696443288902
 21
61.97720573639708
 31
0
  0
LINE
  8
1
 62
2
 10
431.2964432889019
 20
52.97720573639708
 30
0
 11
427.696443288902
 21
52.97720573639708
 31
0
  0
LINE
  8
1
 62
2
 10
432.196443288902
 20
53.2022057363971
 30
0
 11
431.2964432889019
 21
52.97720573639708
 31
0
  0
LINE
  8
1
 62
2
 10
432.871443288902
 20
53.65220573639709
 30
0
 11
432.196443288902
 21
53.2022057363971
 31
0
  0
LINE
  8
1
 62
2
 10
433.321443288902
 20
54.10220573639708
 30
0
 11
432.871443288902
 21
53.65220573639709
 31
0
  0
LINE
  8
1
 62
2
 10
433.7714432889021
 20
54.77720573639709
 30
0
 11
433.321443288902
 21
54.10220573639708
 31
0
  0
LINE
  8
1
 62
2
 10
433.996443288902
 20
55.67720573639708
 30
0
 11
433.7714432889021
 21
54.77720573639709
 31
0
  0
LINE
  8
1
 62
2
 10
433.996443288902
 20
59.27720573639709
 30
0
 11
433.996443288902
 21
55.67720573639708
 31
0
  0
LINE
  8
1
 62
2
 10
418.696443288902
 20
57.9272057363971
 30
0
 11
418.696443288902
 21
52.97720573639708
 31
0
  0
LINE
  8
1
 62
2
 10
418.696443288902
 20
61.97720573639708
 30
0
 11
418.696443288902
 21
57.9272057363971
 31
0
  0
LINE
  8
1
 62
2
 10
424.996443288902
 20
61.97720573639708
 30
0
 11
418.696443288902
 21
61.97720573639708
 31
0
  0
LINE
  8
1
 62
2
 10
418.696443288902
 20
57.9272057363971
 30
0
 11
424.996443288902
 21
57.9272057363971
 31
0
  0
LINE
  8
1
 62
2
 10
409.696443288902
 20
57.9272057363971
 30
0
 11
409.696443288902
 21
57.47720573639708
 31
0
  0
LINE
  8
1
 62
2
 10
409.696443288902
 20
52.97720573639708
 30
0
 11
415.996443288902
 21
52.97720573639708
 31
0
  0
LINE
  8
1
 62
2
 10
409.696443288902
 20
57.47720573639708
 30
0
 11
409.696443288902
 21
52.97720573639708
 31
0
  0
LINE
  8
1
 62
2
 10
409.696443288902
 20
61.97720573639708
 30
0
 11
409.696443288902
 21
57.9272057363971
 31
0
  0
LINE
  8
1
 62
2
 10
415.996443288902
 20
61.97720573639708
 30
0
 11
409.696443288902
 21
61.97720573639708
 31
0
  0
LINE
  8
1
 62
2
 10
415.0964432889021
 20
57.9272057363971
 30
0
 11
409.696443288902
 21
57.9272057363971
 31
0
  0
LINE
  8
1
 62
2
 10
907.9796037343276
 20
395.4182560782508
 30
0
 11
910.5073815121054
 21
395.4182560782508
 31
0
  0
LINE
  8
1
 62
2
 10
907.9796037343276
 20
391.1995060782508
 30
0
 11
910.5073815121054
 21
391.1995060782508
 31
0
  0
LINE
  8
1
 62
2
 10
905.45182595655
 20
391.1995060782508
 30
0
 11
905.45182595655
 21
395.4182560782508
 31
0
  0
LINE
  8
1
 62
2
 10
910.5073815121054
 20
391.1995060782508
 30
0
 11
910.5073815121054
 21
387.2620060782508
 31
0
  0
LINE
  8
1
 62
2
 10
905.45182595655
 20
391.1995060782508
 30
0
 11
907.9796037343276
 21
391.1995060782508
 31
0
  0
LINE
  8
1
 62
2
 10
907.9796037343276
 20
395.4182560782508
 30
0
 11
907.9796037343276
 21
391.1995060782508
 31
0
  0
LINE
  8
1
 62
2
 10
910.5073815121054
 20
387.2620060782508
 30
0
 11
909.9240481787722
 21
387.2620060782508
 31
0
  0
LINE
  8
1
 62
2
 10
910.5073815121054
 20
395.4182560782508
 30
0
 11
910.5073815121054
 21
391.1995060782508
 31
0
  0
LINE
  8
1
 62
2
 10
905.45182595655
 20
395.4182560782508
 30
0
 11
907.9796037343276
 21
395.4182560782508
 31
0
  0
LINE
  8
1
 62
2
 10
905.45182595655
 20
387.2620060782508
 30
0
 11
905.45182595655
 21
391.1995060782508
 31
0
  0
LINE
  8
1
 62
2
 10
899.6184926232168
 20
394.5745060782508
 30
0
 11
899.6184926232168
 21
388.1057560782508
 31
0
  0
LINE
  8
1
 62
2
 10
902.3407148454389
 20
388.3870060782508
 30
0
 11
903.8962704009946
 21
387.5432560782508
 31
0
  0
LINE
  8
1
 62
2
 10
901.5629370676611
 20
389.5120060782508
 30
0
 11
902.3407148454389
 21
388.3870060782508
 31
0
  0
LINE
  8
1
 62
2
 10
900.7851592898835
 20
391.1995060782508
 30
0
 11
901.5629370676611
 21
389.5120060782508
 31
0
  0
LINE
  8
1
 62
2
 10
899.6184926232168
 20
395.9807560782508
 30
0
 11
899.6184926232168
 21
394.5745060782508
 31
0
  0
LINE
  8
1
 62
2
 10
902.7296037343278
 20
395.9807560782508
 30
0
 11
899.6184926232168
 21
395.9807560782508
 31
0
  0
LINE
  8
1
 62
2
 10
902.5351592898833
 20
394.5745060782508
 30
0
 11
899.6184926232168
 21
394.5745060782508
 31
0
  0
LINE
  8
1
 62
2
 10
899.6184926232168
 20
393.1682560782508
 30
0
 11
902.5351592898833
 21
393.1682560782508
 31
0
  0
LINE
  8
1
 62
2
 10
903.8962704009946
 20
391.7620060782508
 30
0
 11
898.0629370676613
 21
391.7620060782508
 31
0
  0
LINE
  8
1
 62
2
 10
901.5629370676611
 20
389.7932560782508
 30
0
 11
902.9240481787722
 21
390.9182560782508
 31
0
  0
LINE
  8
1
 62
2
 10
898.4518259565502
 20
387.5432560782508
 30
0
 11
900.9796037343278
 21
388.9495060782508
 31
0
  0
LINE
  8
1
 62
2
 10
893.7001630777627
 20
387.8807560782508
 30
0
 11
892.1251630777629
 21
386.9807560782508
 31
0
  0
LINE
  8
1
 62
2
 10
894.9251630777628
 20
389.2307560782508
 30
0
 11
893.7001630777627
 21
387.8807560782508
 31
0
  0
LINE
  8
1
 62
2
 10
895.4501630777627
 20
390.1307560782508
 30
0
 11
894.9251630777628
 21
389.2307560782508
 31
0
  0
LINE
  8
1
 62
2
 10
895.6251630777626
 20
391.0307560782508
 30
0
 11
895.4501630777627
 21
390.1307560782508
 31
0
  0
LINE
  8
1
 62
2
 10
895.8001630777626
 20
392.1557560782508
 30
0
 11
895.6251630777626
 21
391.0307560782508
 31
0
  0
LINE
  8
1
 62
2
 10
895.8001630777626
 20
393.7307560782508
 30
0
 11
895.8001630777626
 21
392.1557560782508
 31
0
  0
LINE
  8
1
 62
2
 10
895.6251630777626
 20
394.6307560782508
 30
0
 11
895.8001630777626
 21
393.7307560782508
 31
0
  0
LINE
  8
1
 62
2
 10
895.2751630777627
 20
395.3057560782509
 30
0
 11
895.6251630777626
 21
394.6307560782508
 31
0
  0
LINE
  8
1
 62
2
 10
894.7501630777629
 20
395.7557560782508
 30
0
 11
895.2751630777627
 21
395.3057560782509
 31
0
  0
LINE
  8
1
 62
2
 10
894.2251630777628
 20
395.9807560782508
 30
0
 11
894.7501630777629
 21
395.7557560782508
 31
0
  0
LINE
  8
1
 62
2
 10
893.1751630777626
 20
395.9807560782508
 30
0
 11
894.2251630777628
 21
395.9807560782508
 31
0
  0
LINE
  8
1
 62
2
 10
892.6501630777627
 20
395.7557560782508
 30
0
 11
893.1751630777626
 21
395.9807560782508
 31
0
  0
LINE
  8
1
 62
2
 10
892.1251630777629
 20
395.3057560782509
 30
0
 11
892.6501630777627
 21
395.7557560782508
 31
0
  0
LINE
  8
1
 62
2
 10
891.7751630777627
 20
394.6307560782508
 30
0
 11
892.1251630777629
 21
395.3057560782509
 31
0
  0
LINE
  8
1
 62
2
 10
891.6001630777628
 20
393.7307560782508
 30
0
 11
891.7751630777627
 21
394.6307560782508
 31
0
  0
LINE
  8
1
 62
2
 10
891.6001630777628
 20
393.2807560782508
 30
0
 11
891.6001630777628
 21
393.7307560782508
 31
0
  0
LINE
  8
1
 62
2
 10
891.7751630777627
 20
392.3807560782508
 30
0
 11
891.6001630777628
 21
393.2807560782508
 31
0
  0
LINE
  8
1
 62
2
 10
892.1251630777629
 20
391.7057560782507
 30
0
 11
891.7751630777627
 21
392.3807560782508
 31
0
  0
LINE
  8
1
 62
2
 10
892.6501630777627
 20
391.2557560782508
 30
0
 11
892.1251630777629
 21
391.7057560782507
 31
0
  0
LINE
  8
1
 62
2
 10
893.1751630777626
 20
391.0307560782508
 30
0
 11
892.6501630777627
 21
391.2557560782508
 31
0
  0
LINE
  8
1
 62
2
 10
895.6251630777626
 20
391.0307560782508
 30
0
 11
893.1751630777626
 21
391.0307560782508
 31
0
  0
LINE
  8
1
 62
2
 10
889.5001630777629
 20
395.9807560782508
 30
0
 11
889.5001630777629
 21
386.9807560782508
 31
0
  0
LINE
  8
1
 62
2
 10
887.4001630777627
 20
393.2807560782508
 30
0
 11
889.5001630777629
 21
395.9807560782508
 31
0
  0
LINE
  8
1
 62
2
 10
881.3048788877597
 20
395.9807567767408
 30
0
 11
878.5048788877598
 21
386.9807567767408
 31
0
  0
LINE
  8
1
 62
2
 10
882.1798788877597
 20
392.8307567767408
 30
0
 11
882.3548788877597
 21
391.9307567767409
 31
0
  0
LINE
  8
1
 62
2
 10
881.6548788877597
 20
393.7307567767408
 30
0
 11
882.1798788877597
 21
392.8307567767408
 31
0
  0
LINE
  8
1
 62
2
 10
880.9548788877598
 20
394.4057567767409
 30
0
 11
881.6548788877597
 21
393.7307567767408
 31
0
  0
LINE
  8
1
 62
2
 10
880.2548788877598
 20
394.6307567767409
 30
0
 11
880.9548788877598
 21
394.4057567767409
 31
0
  0
LINE
  8
1
 62
2
 10
879.5548788877597
 20
394.6307567767409
 30
0
 11
880.2548788877598
 21
394.6307567767409
 31
0
  0
LINE
  8
1
 62
2
 10
878.8548788877597
 20
394.4057567767409
 30
0
 11
879.5548788877597
 21
394.6307567767409
 31
0
  0
LINE
  8
1
 62
2
 10
878.1548788877599
 20
393.7307567767408
 30
0
 11
878.8548788877597
 21
394.4057567767409
 31
0
  0
LINE
  8
1
 62
2
 10
877.6298788877598
 20
392.8307567767408
 30
0
 11
878.1548788877599
 21
393.7307567767408
 31
0
  0
LINE
  8
1
 62
2
 10
877.4548788877596
 20
391.9307567767409
 30
0
 11
877.6298788877598
 21
392.8307567767408
 31
0
  0
LINE
  8
1
 62
2
 10
877.4548788877596
 20
391.0307567767409
 30
0
 11
877.4548788877596
 21
391.9307567767409
 31
0
  0
LINE
  8
1
 62
2
 10
877.6298788877598
 20
390.1307567767409
 30
0
 11
877.4548788877596
 21
391.0307567767409
 31
0
  0
LINE
  8
1
 62
2
 10
878.1548788877599
 20
389.2307567767408
 30
0
 11
877.6298788877598
 21
390.1307567767409
 31
0
  0
LINE
  8
1
 62
2
 10
878.8548788877597
 20
388.5557567767409
 30
0
 11
878.1548788877599
 21
389.2307567767408
 31
0
  0
LINE
  8
1
 62
2
 10
879.5548788877597
 20
388.3307567767408
 30
0
 11
878.8548788877597
 21
388.5557567767409
 31
0
  0
LINE
  8
1
 62
2
 10
880.2548788877598
 20
388.3307567767408
 30
0
 11
879.5548788877597
 21
388.3307567767408
 31
0
  0
LINE
  8
1
 62
2
 10
880.9548788877598
 20
388.5557567767409
 30
0
 11
880.2548788877598
 21
388.3307567767408
 31
0
  0
LINE
  8
1
 62
2
 10
881.6548788877597
 20
389.2307567767408
 30
0
 11
880.9548788877598
 21
388.5557567767409
 31
0
  0
LINE
  8
1
 62
2
 10
882.1798788877597
 20
390.1307567767409
 30
0
 11
881.6548788877597
 21
389.2307567767408
 31
0
  0
LINE
  8
1
 62
2
 10
882.3548788877597
 20
391.0307567767409
 30
0
 11
882.1798788877597
 21
390.1307567767409
 31
0
  0
LINE
  8
1
 62
2
 10
882.3548788877597
 20
391.9307567767409
 30
0
 11
882.3548788877597
 21
391.0307567767409
 31
0
  0
LINE
  8
1
 62
2
 10
873.2798789868518
 20
390.1307567767409
 30
0
 11
876.7798789868518
 21
390.1307567767409
 31
0
  0
LINE
  8
1
 62
2
 10
870.1298789868517
 20
390.5807567767408
 30
0
 11
870.1298789868517
 21
386.9807567767408
 31
0
  0
LINE
  8
1
 62
2
 10
866.9798789868519
 20
388.7807567767409
 30
0
 11
871.1798789868517
 21
388.7807567767409
 31
0
  0
LINE
  8
1
 62
2
 10
870.1298789868517
 20
395.9807567767408
 30
0
 11
866.9798789868519
 21
388.7807567767409
 31
0
  0
LINE
  8
1
 62
2
 10
396.7396525316037
 20
176.9018412496309
 30
0
 11
396.0396525316037
 21
175.1018412496309
 31
0
  0
LINE
  8
1
 62
2
 10
397.0896525316039
 20
178.7018412496309
 30
0
 11
396.7396525316037
 21
176.9018412496309
 31
0
  0
LINE
  8
1
 62
2
 10
397.0896525316039
 20
180.5018412496309
 30
0
 11
397.0896525316039
 21
178.7018412496309
 31
0
  0
LINE
  8
1
 62
2
 10
396.7396525316037
 20
182.3018412496309
 30
0
 11
397.0896525316039
 21
180.5018412496309
 31
0
  0
LINE
  8
1
 62
2
 10
396.0396525316037
 20
184.1018412496309
 30
0
 11
396.7396525316037
 21
182.3018412496309
 31
0
  0
LINE
  8
1
 62
2
 10
393.7646525316038
 20
182.3018412496309
 30
0
 11
393.9396525316038
 21
181.4018412496309
 31
0
  0
LINE
  8
1
 62
2
 10
393.4146525316039
 20
182.9768412496309
 30
0
 11
393.7646525316038
 21
182.3018412496309
 31
0
  0
LINE
  8
1
 62
2
 10
393.0646525316038
 20
183.4268412496309
 30
0
 11
393.4146525316039
 21
182.9768412496309
 31
0
  0
LINE
  8
1
 62
2
 10
392.5396525316039
 20
183.8768412496309
 30
0
 11
393.0646525316038
 21
183.4268412496309
 31
0
  0
LINE
  8
1
 62
2
 10
391.8396525316039
 20
184.1018412496309
 30
0
 11
392.5396525316039
 21
183.8768412496309
 31
0
  0
LINE
  8
1
 62
2
 10
389.0396525316039
 20
184.1018412496309
 30
0
 11
391.8396525316039
 21
184.1018412496309
 31
0
  0
LINE
  8
1
 62
2
 10
389.0396525316039
 20
175.1018412496309
 30
0
 11
389.0396525316039
 21
184.1018412496309
 31
0
  0
LINE
  8
1
 62
2
 10
391.8396525316039
 20
175.1018412496309
 30
0
 11
389.0396525316039
 21
175.1018412496309
 31
0
  0
LINE
  8
1
 62
2
 10
392.5396525316039
 20
175.3268412496309
 30
0
 11
391.8396525316039
 21
175.1018412496309
 31
0
  0
LINE
  8
1
 62
2
 10
393.0646525316038
 20
175.7768412496309
 30
0
 11
392.5396525316039
 21
175.3268412496309
 31
0
  0
LINE
  8
1
 62
2
 10
393.4146525316039
 20
176.2268412496309
 30
0
 11
393.0646525316038
 21
175.7768412496309
 31
0
  0
LINE
  8
1
 62
2
 10
393.7646525316038
 20
176.9018412496309
 30
0
 11
393.4146525316039
 21
176.2268412496309
 31
0
  0
LINE
  8
1
 62
2
 10
393.9396525316038
 20
177.8018412496309
 30
0
 11
393.7646525316038
 21
176.9018412496309
 31
0
  0
LINE
  8
1
 62
2
 10
393.9396525316038
 20
181.4018412496309
 30
0
 11
393.9396525316038
 21
177.8018412496309
 31
0
  0
LINE
  8
1
 62
2
 10
385.1507636427151
 20
175.9455912496309
 30
0
 11
385.5396525316039
 21
175.1018412496309
 31
0
  0
LINE
  8
1
 62
2
 10
384.7618747538261
 20
177.3518412496309
 30
0
 11
385.1507636427151
 21
175.9455912496309
 31
0
  0
LINE
  8
1
 62
2
 10
384.7618747538261
 20
181.8518412496309
 30
0
 11
384.7618747538261
 21
177.3518412496309
 31
0
  0
LINE
  8
1
 62
2
 10
385.1507636427151
 20
183.2580912496309
 30
0
 11
384.7618747538261
 21
181.8518412496309
 31
0
  0
LINE
  8
1
 62
2
 10
385.5396525316039
 20
184.1018412496309
 30
0
 11
385.1507636427151
 21
183.2580912496309
 31
0
  0
LINE
  8
1
 62
2
 10
377.3729858649372
 20
180.1643412496309
 30
0
 11
380.8729858649372
 21
180.1643412496309
 31
0
  0
LINE
  8
1
 62
2
 10
378.3452080871593
 20
175.1018412496309
 30
0
 11
377.5674303093816
 21
175.6643412496309
 31
0
  0
LINE
  8
1
 62
2
 10
378.7340969760483
 20
175.3830912496309
 30
0
 11
378.3452080871593
 21
175.1018412496309
 31
0
  0
LINE
  8
1
 62
2
 10
379.3174303093817
 20
176.7893412496309
 30
0
 11
378.7340969760483
 21
175.3830912496309
 31
0
  0
LINE
  8
1
 62
2
 10
379.7063191982704
 20
178.4768412496309
 30
0
 11
379.3174303093817
 21
176.7893412496309
 31
0
  0
LINE
  8
1
 62
2
 10
376.9840969760483
 20
178.4768412496309
 30
0
 11
379.7063191982704
 21
178.4768412496309
 31
0
  0
LINE
  8
1
 62
2
 10
377.3729858649372
 20
180.1643412496309
 30
0
 11
376.789652531604
 21
177.3518412496309
 31
0
  0
LINE
  8
1
 62
2
 10
375.2340969760483
 20
180.1643412496309
 30
0
 11
377.3729858649372
 21
180.1643412496309
 31
0
  0
LINE
  8
1
 62
2
 10
379.7063191982704
 20
183.5393412496309
 30
0
 11
376.5952080871593
 21
183.5393412496309
 31
0
  0
LINE
  8
1
 62
2
 10
379.7063191982704
 20
181.5705912496309
 30
0
 11
379.7063191982704
 21
183.5393412496309
 31
0
  0
LINE
  8
1
 62
2
 10
376.5952080871593
 20
181.5705912496309
 30
0
 11
379.7063191982704
 21
181.5705912496309
 31
0
  0
LINE
  8
1
 62
2
 10
376.5952080871593
 20
183.5393412496309
 30
0
 11
376.5952080871593
 21
181.5705912496309
 31
0
  0
LINE
  8
1
 62
2
 10
373.8729858649372
 20
175.6643412496309
 30
0
 11
373.8729858649372
 21
176.5080912496309
 31
0
  0
LINE
  8
1
 62
2
 10
371.9285414204928
 20
175.6643412496309
 30
0
 11
373.8729858649372
 21
175.6643412496309
 31
0
  0
LINE
  8
1
 62
2
 10
371.1507636427149
 20
175.6643412496309
 30
0
 11
371.9285414204928
 21
175.6643412496309
 31
0
  0
LINE
  8
1
 62
2
 10
371.1507636427149
 20
179.8830912496309
 30
0
 11
371.1507636427149
 21
175.6643412496309
 31
0
  0
LINE
  8
1
 62
2
 10
373.2896525316039
 20
179.8830912496309
 30
0
 11
371.1507636427149
 21
179.8830912496309
 31
0
  0
LINE
  8
1
 62
2
 10
373.2896525316039
 20
182.6955912496309
 30
0
 11
373.2896525316039
 21
179.8830912496309
 31
0
  0
LINE
  8
1
 62
2
 10
371.1507636427149
 20
182.6955912496309
 30
0
 11
373.2896525316039
 21
182.6955912496309
 31
0
  0
LINE
  8
1
 62
2
 10
368.2340969760483
 20
182.9768412496309
 30
0
 11
369.9840969760483
 21
182.9768412496309
 31
0
  0
LINE
  8
1
 62
2
 10
368.0396525316039
 20
181.5705912496309
 30
0
 11
370.5674303093816
 21
181.5705912496309
 31
0
  0
LINE
  8
1
 62
2
 10
369.9840969760483
 20
180.4455912496309
 30
0
 11
368.4285414204927
 21
180.4455912496309
 31
0
  0
LINE
  8
1
 62
2
 10
368.4285414204927
 20
179.0393412496309
 30
0
 11
369.9840969760483
 21
179.0393412496309
 31
0
  0
LINE
  8
1
 62
2
 10
369.9840969760483
 20
175.6643412496309
 30
0
 11
368.4285414204927
 21
175.6643412496309
 31
0
  0
LINE
  8
1
 62
2
 10
369.9840969760483
 20
177.9143412496309
 30
0
 11
369.9840969760483
 21
175.6643412496309
 31
0
  0
LINE
  8
1
 62
2
 10
368.4285414204927
 20
177.9143412496309
 30
0
 11
369.9840969760483
 21
177.9143412496309
 31
0
  0
LINE
  8
1
 62
2
 10
368.4285414204927
 20
175.6643412496309
 30
0
 11
368.4285414204927
 21
177.9143412496309
 31
0
  0
LINE
  8
1
 62
2
 10
362.5952080871593
 20
180.7268412496309
 30
0
 11
362.5952080871593
 21
175.3830912496309
 31
0
  0
LINE
  8
1
 62
2
 10
366.0952080871596
 20
184.1018412496309
 30
0
 11
366.0952080871596
 21
175.1018412496309
 31
0
  0
LINE
  8
1
 62
2
 10
365.1229858649372
 20
182.4143412496309
 30
0
 11
364.5396525316039
 21
183.5393412496309
 31
0
  0
LINE
  8
1
 62
2
 10
365.1229858649372
 20
180.1643412496309
 30
0
 11
364.5396525316039
 21
181.2893412496309
 31
0
  0
LINE
  8
1
 62
2
 10
363.9563191982707
 20
178.1955912496309
 30
0
 11
367.2618747538261
 21
179.0393412496309
 31
0
  0
LINE
  8
1
 62
2
 10
363.1785414204928
 20
179.6018412496309
 30
0
 11
363.5674303093817
 21
178.4768412496309
 31
0
  0
LINE
  8
1
 62
2
 10
362.5952080871593
 20
183.8205912496309
 30
0
 11
362.5952080871593
 21
180.7268412496309
 31
0
  0
LINE
  8
1
 62
2
 10
363.1785414204928
 20
182.1330912496309
 30
0
 11
363.5674303093817
 21
183.2580912496309
 31
0
  0
LINE
  8
1
 62
2
 10
361.4285414204928
 20
182.9768412496309
 30
0
 11
362.0118747538261
 21
181.8518412496309
 31
0
  0
LINE
  8
1
 62
2
 10
363.9563191982707
 20
180.7268412496309
 30
0
 11
361.2340969760483
 21
180.7268412496309
 31
0
  0
LINE
  8
1
 62
2
 10
361.8174303093817
 20
178.1955912496309
 30
0
 11
362.5952080871593
 21
180.7268412496309
 31
0
  0
LINE
  8
1
 62
2
 10
361.2340969760483
 20
176.7893412496309
 30
0
 11
361.8174303093817
 21
178.1955912496309
 31
0
  0
LINE
  8
1
 62
2
 10
359.0952080871593
 20
175.6643412496309
 30
0
 11
358.5118747538261
 21
175.6643412496309
 31
0
  0
LINE
  8
1
 62
2
 10
358.9007636427151
 20
183.8205912496309
 30
0
 11
359.0952080871593
 21
175.6643412496309
 31
0
  0
LINE
  8
1
 62
2
 10
360.0674303093817
 20
181.2893412496309
 30
0
 11
357.1507636427151
 21
181.2893412496309
 31
0
  0
LINE
  8
1
 62
2
 10
357.9285414204928
 20
178.4768412496309
 30
0
 11
358.9007636427151
 21
181.0080912496309
 31
0
  0
LINE
  8
1
 62
2
 10
356.7618747538261
 20
176.7893412496309
 30
0
 11
357.9285414204928
 21
178.4768412496309
 31
0
  0
LINE
  8
1
 62
2
 10
355.5952080871593
 20
181.2893412496309
 30
0
 11
356.5674303093816
 21
179.3205912496309
 31
0
  0
LINE
  8
1
 62
2
 10
355.0118747538261
 20
179.6018412496309
 30
0
 11
355.5952080871593
 21
181.2893412496309
 31
0
  0
LINE
  8
1
 62
2
 10
354.2340969760483
 20
177.9143412496309
 30
0
 11
355.0118747538261
 21
179.6018412496309
 31
0
  0
LINE
  8
1
 62
2
 10
356.5674303093816
 20
181.5705912496309
 30
0
 11
354.4285414204928
 21
181.5705912496309
 31
0
  0
LINE
  8
1
 62
2
 10
355.5952080871593
 20
175.1018412496309
 30
0
 11
355.5952080871593
 21
184.1018412496309
 31
0
  0
LINE
  8
1
 62
2
 10
352.6785414204928
 20
182.6955912496309
 30
0
 11
353.2618747538261
 21
181.8518412496309
 31
0
  0
LINE
  8
1
 62
2
 10
352.0952080871596
 20
182.1330912496309
 30
0
 11
352.6785414204928
 21
181.2893412496309
 31
0
  0
LINE
  8
1
 62
2
 10
351.3174303093817
 20
179.8830912496309
 30
0
 11
352.0952080871596
 21
177.6330912496309
 31
0
  0
LINE
  8
1
 62
2
 10
351.1229858649372
 20
181.8518412496309
 30
0
 11
351.3174303093817
 21
179.8830912496309
 31
0
  0
LINE
  8
1
 62
2
 10
351.1229858649372
 20
180.1643412496309
 30
0
 11
351.1229858649372
 21
181.8518412496309
 31
0
  0
LINE
  8
1
 62
2
 10
350.9285414204928
 20
178.4768412496309
 30
0
 11
351.1229858649372
 21
180.1643412496309
 31
0
  0
LINE
  8
1
 62
2
 10
350.3452080871596
 20
176.7893412496309
 30
0
 11
350.9285414204928
 21
178.4768412496309
 31
0
  0
LINE
  8
1
 62
2
 10
349.5674303093817
 20
175.9455912496309
 30
0
 11
350.3452080871596
 21
176.7893412496309
 31
0
  0
LINE
  8
1
 62
2
 10
348.789652531604
 20
175.6643412496309
 30
0
 11
349.5674303093817
 21
175.9455912496309
 31
0
  0
LINE
  8
1
 62
2
 10
348.0118747538261
 20
175.9455912496309
 30
0
 11
348.789652531604
 21
175.6643412496309
 31
0
  0
LINE
  8
1
 62
2
 10
347.6229858649373
 20
176.7893412496309
 30
0
 11
348.0118747538261
 21
175.9455912496309
 31
0
  0
LINE
  8
1
 62
2
 10
347.6229858649373
 20
177.9143412496309
 30
0
 11
347.6229858649373
 21
176.7893412496309
 31
0
  0
LINE
  8
1
 62
2
 10
348.0118747538261
 20
179.3205912496309
 30
0
 11
347.6229858649373
 21
177.9143412496309
 31
0
  0
LINE
  8
1
 62
2
 10
348.5952080871593
 20
180.4455912496309
 30
0
 11
348.0118747538261
 21
179.3205912496309
 31
0
  0
LINE
  8
1
 62
2
 10
349.3729858649372
 20
181.5705912496309
 30
0
 11
348.5952080871593
 21
180.4455912496309
 31
0
  0
LINE
  8
1
 62
2
 10
348.5952080871593
 20
181.2893412496309
 30
0
 11
349.3729858649372
 21
181.5705912496309
 31
0
  0
LINE
  8
1
 62
2
 10
347.6229858649373
 20
181.0080912496309
 30
0
 11
348.5952080871593
 21
181.2893412496309
 31
0
  0
LINE
  8
1
 62
2
 10
343.3452080871593
 20
181.0080912496309
 30
0
 11
343.3452080871593
 21
177.0705912496309
 31
0
  0
LINE
  8
1
 62
2
 10
343.3452080871593
 20
177.0705912496309
 30
0
 11
343.7340969760483
 21
176.7893412496309
 31
0
  0
LINE
  8
1
 62
2
 10
343.7340969760483
 20
176.7893412496309
 30
0
 11
344.7063191982704
 21
175.9455912496309
 31
0
  0
LINE
  8
1
 62
2
 10
342.5674303093817
 20
177.6330912496309
 30
0
 11
343.3452080871593
 21
177.0705912496309
 31
0
  0
LINE
  8
1
 62
2
 10
341.789652531604
 20
177.3518412496309
 30
0
 11
342.5674303093817
 21
177.6330912496309
 31
0
  0
LINE
  8
1
 62
2
 10
341.4007636427151
 20
176.7893412496309
 30
0
 11
341.789652531604
 21
177.3518412496309
 31
0
  0
LINE
  8
1
 62
2
 10
341.4007636427151
 20
176.2268412496309
 30
0
 11
341.4007636427151
 21
176.7893412496309
 31
0
  0
LINE
  8
1
 62
2
 10
342.1785414204928
 20
175.6643412496309
 30
0
 11
341.4007636427151
 21
176.2268412496309
 31
0
  0
LINE
  8
1
 62
2
 10
342.9563191982707
 20
175.9455912496309
 30
0
 11
342.1785414204928
 21
175.6643412496309
 31
0
  0
LINE
  8
1
 62
2
 10
343.3452080871593
 20
177.0705912496309
 30
0
 11
342.9563191982707
 21
175.9455912496309
 31
0
  0
LINE
  8
1
 62
2
 10
343.3452080871593
 20
183.2580912496309
 30
0
 11
343.3452080871593
 21
181.0080912496309
 31
0
  0
LINE
  8
1
 62
2
 10
343.3452080871593
 20
181.0080912496309
 30
0
 11
344.7063191982704
 21
181.2893412496309
 31
0
  0
LINE
  8
1
 62
2
 10
338.4840969760485
 20
180.4455912496309
 30
0
 11
339.0674303093817
 21
179.3205912496309
 31
0
  0
LINE
  8
1
 62
2
 10
337.9007636427151
 20
181.0080912496309
 30
0
 11
338.4840969760485
 21
180.4455912496309
 31
0
  0
LINE
  8
1
 62
2
 10
337.9007636427151
 20
176.7893412496309
 30
0
 11
336.9285414204928
 21
176.5080912496309
 31
0
  0
LINE
  8
1
 62
2
 10
338.289652531604
 20
177.6330912496309
 30
0
 11
337.9007636427151
 21
176.7893412496309
 31
0
  0
LINE
  8
1
 62
2
 10
338.0952080871596
 20
178.4768412496309
 30
0
 11
338.289652531604
 21
177.6330912496309
 31
0
  0
LINE
  8
1
 62
2
 10
337.3174303093817
 20
179.0393412496309
 30
0
 11
338.0952080871596
 21
178.4768412496309
 31
0
  0
LINE
  8
1
 62
2
 10
336.3452080871596
 20
178.7580912496309
 30
0
 11
337.3174303093817
 21
179.0393412496309
 31
0
  0
LINE
  8
1
 62
2
 10
334.0118747538261
 20
176.7893412496309
 30
0
 11
336.3452080871596
 21
178.7580912496309
 31
0
  0
LINE
  8
1
 62
2
 10
335.5674303093817
 20
176.2268412496309
 30
0
 11
334.0118747538261
 21
176.7893412496309
 31
0
  0
LINE
  8
1
 62
2
 10
335.3729858649372
 20
179.3205912496309
 30
0
 11
335.5674303093817
 21
176.2268412496309
 31
0
  0
LINE
  8
1
 62
2
 10
335.3729858649372
 20
181.0080912496309
 30
0
 11
335.3729858649372
 21
179.3205912496309
 31
0
  0
LINE
  8
1
 62
2
 10
335.7618747538263
 20
182.9768412496309
 30
0
 11
335.3729858649372
 21
181.0080912496309
 31
0
  0
LINE
  8
1
 62
2
 10
334.9840969760485
 20
180.4455912496309
 30
0
 11
336.3452080871596
 21
181.0080912496309
 31
0
  0
LINE
  8
1
 62
2
 10
334.2063191982707
 20
180.1643412496309
 30
0
 11
334.9840969760485
 21
180.4455912496309
 31
0
  0
LINE
  8
1
 62
2
 10
329.1507636427151
 20
182.6955912496309
 30
0
 11
331.289652531604
 21
182.6955912496309
 31
0
  0
LINE
  8
1
 62
2
 10
327.2063191982707
 20
178.1955912496309
 30
0
 11
332.2618747538261
 21
178.1955912496309
 31
0
  0
LINE
  8
1
 62
2
 10
326.039652531604
 20
178.1955912496309
 30
0
 11
327.2063191982707
 21
178.1955912496309
 31
0
  0
LINE
  8
1
 62
2
 10
327.2063191982707
 20
180.1643412496309
 30
0
 11
327.2063191982707
 21
178.1955912496309
 31
0
  0
LINE
  8
1
 62
2
 10
327.2063191982707
 20
180.4455912496309
 30
0
 11
331.0952080871596
 21
180.4455912496309
 31
0
  0
LINE
  8
1
 62
2
 10
329.1507636427151
 20
182.6955912496309
 30
0
 11
329.1507636427151
 21
175.1018412496309
 31
0
  0
LINE
  8
1
 62
2
 10
327.4007636427151
 20
182.6955912496309
 30
0
 11
329.1507636427151
 21
182.6955912496309
 31
0
  0
LINE
  8
1
 62
2
 10
327.0118747538261
 20
182.1330912496309
 30
0
 11
326.4285414204928
 21
181.2893412496309
 31
0
  0
LINE
  8
1
 62
2
 10
327.5952080871593
 20
183.2580912496309
 30
0
 11
327.0118747538261
 21
182.1330912496309
 31
0
  0
LINE
  8
1
 62
2
 10
327.9840969760485
 20
184.1018412496309
 30
0
 11
327.5952080871593
 21
183.2580912496309
 31
0
  0
LINE
  8
1
 62
2
 10
322.9285414204928
 20
180.4455912496309
 30
0
 11
321.1785414204928
 21
180.4455912496309
 31
0
  0
LINE
  8
1
 62
2
 10
319.4285414204928
 20
180.1643412496309
 30
0
 11
319.2340969760485
 21
180.1643412496309
 31
0
  0
LINE
  8
1
 62
2
 10
319.4285414204928
 20
175.9455912496309
 30
0
 11
319.2340969760485
 21
175.6643412496309
 31
0
  0
LINE
  8
1
 62
2
 10
320.4007636427151
 20
182.6955912496309
 30
0
 11
319.8174303093817
 21
183.8205912496309
 31
0
  0
LINE
  8
1
 62
2
 10
321.5674303093817
 20
182.4143412496309
 30
0
 11
321.1785414204928
 21
181.5705912496309
 31
0
  0
LINE
  8
1
 62
2
 10
321.9563191982707
 20
183.8205912496309
 30
0
 11
321.5674303093817
 21
182.4143412496309
 31
0
  0
LINE
  8
1
 62
2
 10
324.4840969760485
 20
182.4143412496309
 30
0
 11
321.5674303093817
 21
182.4143412496309
 31
0
  0
LINE
  8
1
 62
2
 10
322.9285414204928
 20
180.4455912496309
 30
0
 11
322.9285414204928
 21
184.1018412496309
 31
0
  0
LINE
  8
1
 62
2
 10
324.8729858649372
 20
180.4455912496309
 30
0
 11
322.9285414204928
 21
180.4455912496309
 31
0
  0
LINE
  8
1
 62
2
 10
321.9563191982707
 20
177.0705912496309
 30
0
 11
324.0952080871596
 21
177.0705912496309
 31
0
  0
LINE
  8
1
 62
2
 10
321.9563191982707
 20
179.3205912496309
 30
0
 11
321.9563191982707
 21
177.0705912496309
 31
0
  0
LINE
  8
1
 62
2
 10
324.0952080871596
 20
179.3205912496309
 30
0
 11
321.9563191982707
 21
179.3205912496309
 31
0
  0
LINE
  8
1
 62
2
 10
324.0952080871596
 20
177.0705912496309
 30
0
 11
324.0952080871596
 21
179.3205912496309
 31
0
  0
LINE
  8
1
 62
2
 10
321.1785414204928
 20
175.6643412496309
 30
0
 11
325.0674303093817
 21
175.6643412496309
 31
0
  0
LINE
  8
1
 62
2
 10
320.789652531604
 20
175.9455912496309
 30
0
 11
321.1785414204928
 21
175.6643412496309
 31
0
  0
LINE
  8
1
 62
2
 10
320.4007636427151
 20
177.0705912496309
 30
0
 11
320.789652531604
 21
175.9455912496309
 31
0
  0
LINE
  8
1
 62
2
 10
320.4007636427151
 20
180.1643412496309
 30
0
 11
319.4285414204928
 21
180.1643412496309
 31
0
  0
LINE
  8
1
 62
2
 10
320.4007636427151
 20
177.0705912496309
 30
0
 11
320.4007636427151
 21
180.1643412496309
 31
0
  0
LINE
  8
1
 62
2
 10
319.4285414204928
 20
175.9455912496309
 30
0
 11
320.4007636427151
 21
177.0705912496309
 31
0
  0
LINE
  8
1
 62
2
 10
313.5952080871596
 20
180.4455912496309
 30
0
 11
314.5674303093817
 21
180.4455912496309
 31
0
  0
LINE
  8
1
 62
2
 10
316.7063191982707
 20
176.2268412496309
 30
0
 11
316.3174303093817
 21
177.6330912496309
 31
0
  0
LINE
  8
1
 62
2
 10
317.4840969760485
 20
175.1018412496309
 30
0
 11
316.7063191982707
 21
175.1018412496309
 31
0
  0
LINE
  8
1
 62
2
 10
317.4840969760485
 20
179.6018412496309
 30
0
 11
317.4840969760485
 21
175.1018412496309
 31
0
  0
LINE
  8
1
 62
2
 10
317.8729858649372
 20
181.2893412496309
 30
0
 11
315.1507636427151
 21
181.2893412496309
 31
0
  0
LINE
  8
1
 62
2
 10
314.9563191982707
 20
182.6955912496309
 30
0
 11
317.8729858649372
 21
182.6955912496309
 31
0
  0
LINE
  8
1
 62
2
 10
316.1229858649373
 20
180.1643412496309
 30
0
 11
316.3174303093817
 21
183.5393412496309
 31
0
  0
LINE
  8
1
 62
2
 10
315.539652531604
 20
177.3518412496309
 30
0
 11
316.1229858649373
 21
180.1643412496309
 31
0
  0
LINE
  8
1
 62
2
 10
314.7618747538263
 20
175.6643412496309
 30
0
 11
315.539652531604
 21
177.3518412496309
 31
0
  0
LINE
  8
1
 62
2
 10
318.2618747538261
 20
178.4768412496309
 30
0
 11
314.9563191982707
 21
178.4768412496309
 31
0
  0
LINE
  8
1
 62
2
 10
314.7618747538263
 20
180.1643412496309
 30
0
 11
318.2618747538261
 21
180.1643412496309
 31
0
  0
LINE
  8
1
 62
2
 10
313.5952080871596
 20
175.9455912496309
 30
0
 11
313.5952080871596
 21
180.4455912496309
 31
0
  0
LINE
  8
1
 62
2
 10
312.6229858649373
 20
178.1955912496309
 30
0
 11
313.0118747538261
 21
176.7893412496309
 31
0
  0
LINE
  8
1
 62
2
 10
312.8174303093817
 20
181.5705912496309
 30
0
 11
312.039652531604
 21
179.6018412496309
 31
0
  0
LINE
  8
1
 62
2
 10
313.5952080871596
 20
183.5393412496309
 30
0
 11
312.8174303093817
 21
181.5705912496309
 31
0
  0
LINE
  8
1
 62
2
 10
314.7618747538263
 20
181.8518412496309
 30
0
 11
313.5952080871596
 21
183.5393412496309
 31
0
  0
LINE
  8
1
 62
2
 10
312.8174303093817
 20
180.4455912496309
 30
0
 11
313.5952080871596
 21
180.4455912496309
 31
0
  0
LINE
  8
1
 62
2
 10
314.5674303093817
 20
179.0393412496309
 30
0
 11
312.6229858649373
 21
179.0393412496309
 31
0
  0
LINE
  8
1
 62
2
 10
314.1785414204928
 20
176.7893412496309
 30
0
 11
314.3729858649372
 21
178.1955912496309
 31
0
  0
LINE
  8
1
 62
2
 10
312.4285414204928
 20
175.3830912496309
 30
0
 11
314.5674303093817
 21
176.5080912496309
 31
0
  0
LINE
  8
0
 62
2
 10
810.2818750143608
 20
355.282596870426
 30
0
 11
804.2819961896889
 21
353.6744507057728
 31
0
  0
LINE
  8
0
 62
2
 10
804.2819961896889
 20
353.6744507057728
 30
0
 11
808.6739721664694
 21
358.0670839726205
 31
0
  0
LINE
  8
0
 62
2
 10
857.4548789868518
 20
384.3791465949269
 30
0
 11
914.5770403504898
 21
384.3791465949269
 31
0
  0
LINE
  8
0
 62
2
 10
804.2819961896889
 20
353.6744507057728
 30
0
 11
857.4548789868518
 21
384.3791465949269
 31
0
  0
LINE
  8
0
 62
7
 10
662.0221033542819
 20
426.5908237684415
 30
0
 11
662.0221033542819
 21
423.3852789508886
 31
0
  0
LINE
  8
0
 62
7
 10
712.9144076939667
 20
426.5908237684415
 30
0
 11
712.9144076939667
 21
423.5908237982465
 31
0
  0
LINE
  8
0
 62
7
 10
773.1297974051274
 20
426.5908237684415
 30
0
 11
773.1297974051274
 21
423.5908237982465
 31
0
  0
LINE
  8
0
 62
2
  6
DASHDOT
 10
680.5255252099503
 20
233.3942477272493
 30
0
 11
705.4415857459096
 21
258.3103082632081
 31
0
  0
LINE
  8
0
 62
2
  6
DASHDOT
 10
805.9123288914327
 20
233.0005987246598
 30
0
 11
780.4544267448571
 21
258.4585008712359
 31
0
  0
LINE
  8
0
 62
2
  6
DASHDOT
 10
806.3059778943218
 20
359.1747004113202
 30
0
 11
780.3062341368288
 21
333.1749566541278
 31
0
  0
LINE
  8
0
 62
2
  6
DASHDOT
 10
679.8927579178369
 20
359.0201696985558
 30
0
 11
705.6081294779544
 21
333.3047981384382
 31
0
  0
LINE
  8
0
 62
7
 10
824.0221017448123
 20
426.5908237684415
 30
0
 11
824.0221017448123
 21
423.6098713545569
 31
0
  0
LINE
  8
0
 62
7
 10
653.5633174873199
 20
325.8330634725697
 30
0
 11
652.3918552608586
 21
325.8330634725697
 31
0
  0
LINE
  8
0
 62
7
 10
702.2705116297141
 20
398.8908241628408
 30
0
 11
702.2705116297141
 21
411.5908229517666
 31
0
  0
LINE
  8
0
 62
7
 10
743.0221025495468
 20
398.8908241628408
 30
0
 11
702.2705116297141
 21
398.8908241628408
 31
0
  0
LINE
  8
0
 62
7
 10
783.7736934693801
 20
398.8908241628408
 30
0
 11
783.7736934693801
 21
411.5908229517666
 31
0
  0
LINE
  8
0
 62
7
 10
743.0221025495468
 20
398.8908241628408
 30
0
 11
783.7736934693801
 21
398.8908241628408
 31
0
  0
LINE
  8
0
 62
7
 10
664.8492184447944
 20
426.5908308493411
 30
0
 11
662.0221031157819
 21
426.5908308493411
 31
0
  0
LINE
  8
0
 62
7
 10
824.0221019833123
 20
426.5908308493411
 30
0
 11
821.1949866542993
 21
426.5908308493411
 31
0
  0
LINE
  8
0
 62
7
 10
714.3279649038234
 20
426.5908308493411
 30
0
 11
712.9144072394668
 21
426.5908308493411
 31
0
  0
LINE
  8
0
 62
7
 10
773.1297978596274
 20
426.5908308493411
 30
0
 11
771.7162401952708
 21
426.5908308493411
 31
0
  0
LINE
  8
0
 62
7
 10
731.458466301832
 20
452.2408252062085
 30
0
 11
731.458466301832
 21
454.2408292394387
 31
0
  0
LINE
  8
0
 62
7
 10
754.5857387972621
 20
454.2408292394387
 30
0
 11
754.5857387972621
 21
452.2408252062085
 31
0
  0
LINE
  8
0
 62
7
 10
652.0774780156819
 20
328.6956901309293
 30
0
 11
651.4377339191376
 21
328.6956901309293
 31
0
  0
LINE
  8
0
 62
7
 10
651.0703979477873
 20
333.7049985385618
 30
0
 11
651.2108339400922
 21
335.5983102587518
 31
0
  0
LINE
  8
0
 62
7
 10
652.5241701203443
 20
335.5983102587518
 30
0
 11
651.2108339400922
 21
335.5983102587518
 31
0
  0
LINE
  8
0
 62
7
 10
652.3871315929052
 20
333.7049985385618
 30
0
 11
651.0703979477873
 21
333.7049985385618
 31
0
  0
LINE
  8
0
 62
7
 10
691.976815656082
 20
207.8384935403454
 30
0
 11
693.0221023012971
 21
195.8908245700457
 31
0
  0
LINE
  8
0
 62
7
 10
745.5221024688096
 20
195.8908245700457
 30
0
 11
793.0221027977971
 21
195.8908245700457
 31
0
  0
LINE
  8
0
 62
7
 10
693.0221023012971
 20
195.8908245700457
 30
0
 11
740.5221026302845
 21
195.8908245700457
 31
0
  0
LINE
  8
0
 62
7
 10
794.0673894430122
 20
207.8384935403454
 30
0
 11
793.0221027977971
 21
195.8908245700457
 31
0
  0
LINE
  8
0
 62
7
 10
833.4712634785344
 20
335.8908237753456
 30
0
 11
834.980654234839
 21
335.8908237753456
 31
0
  0
LINE
  8
0
 62
7
 10
835.2323497461387
 20
319.6408245327896
 30
0
 11
835.3346238650227
 21
322.1408239864521
 31
0
  0
LINE
  8
0
 62
7
 10
834.946619983077
 20
315.390825275413
 30
0
 11
835.3203560031641
 21
319.6408245327896
 31
0
  0
LINE
  8
0
 62
7
 10
835.5108598967715
 20
326.390825106528
 30
0
 11
835.448409130792
 21
322.1408239864521
 31
0
  0
LINE
  8
0
 62
7
 10
835.3346238650227
 20
322.1408239864521
 30
0
 11
835.448409130792
 21
322.1408239864521
 31
0
  0
LINE
  8
0
 62
7
 10
651.1746092173519
 20
328.0133771424083
 30
0
 11
650.8725030784533
 21
328.0133771424083
 31
0
  0
LINE
  8
0
 62
7
 10
651.3572900014367
 20
316.0717096150486
 30
0
 11
651.1613024807841
 21
316.0717096150486
 31
0
  0
LINE
  8
0
 62
7
 10
651.1263965109308
 20
324.001599021565
 30
0
 11
650.7935865294373
 21
324.001599021565
 31
0
  0
LINE
  8
0
 62
7
 10
671.5465825295562
 20
236.3908242870778
 30
0
 11
671.0221063641668
 21
236.3908242870778
 31
0
  0
LINE
  8
0
 62
7
 10
671.0221063641668
 20
237.0265748724617
 30
0
 11
671.0221063641668
 21
236.3908242870778
 31
0
  0
LINE
  8
0
 62
7
 10
651.0916768056757
 20
325.9202762431031
 30
0
 11
650.8769808772083
 21
325.9202762431031
 31
0
  0
LINE
  8
0
 62
7
 10
654.5679388638389
 20
396.8908275801107
 30
0
 11
657.3635382370646
 21
396.8908275801107
 31
0
  0
LINE
  8
0
 62
7
 10
652.0221053014318
 20
396.8908275801107
 30
0
 11
652.5221063096644
 21
396.8908275801107
 31
0
  0
LINE
  8
0
 62
7
 10
831.4762662352548
 20
396.8908275801107
 30
0
 11
828.6806668620295
 21
396.8908275801107
 31
0
  0
LINE
  8
0
 62
7
 10
834.0220997976624
 20
396.8908275801107
 30
0
 11
833.5220987894293
 21
396.8908275801107
 31
0
  0
LINE
  8
0
 62
7
 10
651.9743321790063
 20
328.0133771424083
 30
0
 11
651.1746092173519
 21
328.0133771424083
 31
0
  0
LINE
  8
0
 62
7
 10
652.06759854598
 20
316.0717096150486
 30
0
 11
651.6553951786752
 21
316.0717096150486
 31
0
  0
LINE
  8
0
 62
7
 10
833.5826273054283
 20
320.8908251909705
 30
0
 11
835.0885982453663
 21
320.8908251909705
 31
0
  0
LINE
  8
0
 62
7
 10
832.9804788383106
 20
328.3908235519583
 30
0
 11
834.4993467331208
 21
328.3908235519583
 31
0
  0
LINE
  8
0
 62
7
 10
834.4883794787295
 20
312.1659309029527
 30
0
 11
834.7039769272881
 21
313.3908249675831
 31
0
  0
LINE
  8
0
 62
7
 10
835.0537295286124
 20
334.622973388842
 30
0
 11
834.980654234839
 21
335.8908237753456
 31
0
  0
LINE
  8
0
 62
7
 10
835.3589425598805
 20
328.3908235519583
 30
0
 11
834.980654234839
 21
335.8908237753456
 31
0
  0
LINE
  8
0
 62
7
 10
834.4993467331208
 20
328.3908235519583
 30
0
 11
835.3589425598805
 21
328.3908235519583
 31
0
  0
LINE
  8
0
 62
7
 10
835.0885982453663
 20
320.8908251909705
 30
0
 11
834.4993467331208
 21
328.3908235519583
 31
0
  0
LINE
  8
0
 62
7
 10
834.2150474816456
 20
314.1133170739052
 30
0
 11
835.0885982453663
 21
320.8908251909705
 31
0
  0
LINE
  8
0
 62
7
 10
834.7039769272881
 20
313.3908249675831
 30
0
 11
834.1219226756705
 21
313.3908249675831
 31
0
  0
LINE
  8
0
 62
7
 10
835.0205744454422
 20
326.390825106528
 30
0
 11
835.461157073865
 21
326.390825106528
 31
0
  0
LINE
  8
0
 62
7
 10
835.461157073865
 20
326.390825106528
 30
0
 11
835.3261674561061
 21
331.8908231593858
 31
0
  0
LINE
  8
0
 62
7
 10
835.4674751662026
 20
326.390825106528
 30
0
 11
835.3261674561061
 21
331.8908231593858
 31
0
  0
LINE
  8
0
 62
7
 10
834.6533800347909
 20
313.3908249675831
 30
0
 11
834.9519471481242
 21
315.390825275413
 31
0
  0
LINE
  8
0
 62
7
 10
834.9519471481242
 20
315.390825275413
 30
0
 11
834.6674839838499
 21
315.390825275413
 31
0
  0
LINE
  8
0
 62
7
 10
834.6674839838499
 20
315.390825275413
 30
0
 11
835.2481598779812
 21
320.8908251909705
 31
0
  0
LINE
  8
0
 62
7
 10
835.2481598779812
 20
320.8908251909705
 30
0
 11
835.0205744454422
 21
326.390825106528
 31
0
  0
LINE
  8
0
 62
7
 10
651.9199727435464
 20
324.001599021565
 30
0
 11
651.3771532490393
 21
324.001599021565
 31
0
  0
LINE
  8
0
 62
7
 10
651.8869070672752
 20
325.9202762431031
 30
0
 11
651.5350310503711
 21
325.9202762431031
 31
0
  0
LINE
  8
0
 62
7
 10
653.500740061342
 20
328.0133771424083
 30
0
 11
651.9743321790063
 21
328.0133771424083
 31
0
  0
LINE
  8
0
 62
7
 10
651.895780708687
 20
325.0481504025677
 30
0
 11
652.1032719257257
 21
316.0717096150486
 31
0
  0
LINE
  8
0
 62
7
 10
652.5160862406244
 20
317.0792925972381
 30
0
 11
652.3918552608586
 21
325.8330634725697
 31
0
  0
LINE
  8
0
 62
7
 10
650.8230312237445
 20
326.5307637726381
 30
0
 11
650.8725030784533
 21
328.0133771424083
 31
0
  0
LINE
  8
0
 62
7
 10
650.8725030784533
 20
328.0133771424083
 30
0
 11
650.6984873196823
 21
328.0133771424083
 31
0
  0
LINE
  8
0
 62
7
 10
651.0549826966401
 20
316.0717096150486
 30
0
 11
651.1613024807841
 21
316.0717096150486
 31
0
  0
LINE
  8
0
 62
7
 10
651.1613024807841
 20
316.0717096150486
 30
0
 11
650.7935865294373
 21
324.001599021565
 31
0
  0
LINE
  8
0
 62
7
 10
651.0883836490082
 20
325.1353613101013
 30
0
 11
651.3922779273892
 21
316.0717096150486
 31
0
  0
LINE
  8
0
 62
7
 10
651.3922779273892
 20
316.0717096150486
 30
0
 11
651.6553951786752
 21
316.0717096150486
 31
0
  0
LINE
  8
0
 62
7
 10
651.6553951786752
 20
316.0717096150486
 30
0
 11
651.3771532490393
 21
324.001599021565
 31
0
  0
LINE
  8
0
 62
7
 10
653.6335019556225
 20
327.4901042461068
 30
0
 11
652.3361547210118
 21
327.4901042461068
 31
0
  0
LINE
  8
0
 62
7
 10
657.3635382370646
 20
396.8908275801107
 30
0
 11
668.214325291862
 21
396.8908275801107
 31
0
  0
LINE
  8
0
 62
7
 10
828.6806668620295
 20
396.8908275801107
 30
0
 11
817.8298798072317
 21
396.8908275801107
 31
0
  0
LINE
  8
0
 62
7
 10
654.9215061625262
 20
345.890825315096
 30
0
 11
653.3626584525134
 21
345.890825315096
 31
0
  0
LINE
  8
0
 62
7
 10
655.3534014141353
 20
352.8908245302508
 30
0
 11
654.4444156893662
 21
352.8908245302508
 31
0
  0
LINE
  8
0
 62
7
 10
653.370861541732
 20
348.8908239142909
 30
0
 11
654.1489703691016
 21
348.8908239142909
 31
0
  0
LINE
  8
0
 62
7
 10
654.1489703691016
 20
348.8908239142909
 30
0
 11
653.3626584525134
 21
345.890825315096
 31
0
  0
LINE
  8
0
 62
7
 10
656.3751442248847
 20
355.8908231297458
 30
0
 11
655.3534014141353
 21
352.8908245302508
 31
0
  0
LINE
  8
0
 62
7
 10
661.1853060656952
 20
350.8908242224209
 30
0
 11
659.4754350883829
 21
350.8908242224209
 31
0
  0
LINE
  8
0
 62
7
 10
657.9905418407354
 20
355.8908231297458
 30
0
 11
656.3751442248847
 21
355.8908231297458
 31
0
  0
LINE
  8
0
 62
7
 10
828.0536632583587
 20
355.8908231297458
 30
0
 11
829.6690608742099
 21
355.8908231297458
 31
0
  0
LINE
  8
0
 62
7
 10
831.1226989365675
 20
345.890825315096
 30
0
 11
832.6815466465807
 21
345.890825315096
 31
0
  0
LINE
  8
0
 62
7
 10
824.8588990333985
 20
350.8908242224209
 30
0
 11
826.5687700107112
 21
350.8908242224209
 31
0
  0
LINE
  8
0
 62
7
 10
831.8952347299926
 20
348.8908239142909
 30
0
 11
832.6815466465807
 21
345.890825315096
 31
0
  0
LINE
  8
0
 62
7
 10
832.6733435573622
 20
348.8908239142909
 30
0
 11
831.8952347299926
 21
348.8908239142909
 31
0
  0
LINE
  8
0
 62
7
 10
831.5912286929126
 20
352.8908245302508
 30
0
 11
830.6908036849588
 21
352.8908245302508
 31
0
  0
LINE
  8
0
 62
7
 10
830.6908036849588
 20
352.8908245302508
 30
0
 11
829.6690608742099
 21
355.8908231297458
 31
0
  0
LINE
  8
0
 62
7
 10
655.2906600756589
 20
328.0133771424083
 30
0
 11
654.3468801397355
 21
328.0133771424083
 31
0
  0
LINE
  8
0
 62
7
 10
654.3723164215828
 20
324.001599021565
 30
0
 11
654.1143624225454
 21
324.001599021565
 31
0
  0
LINE
  8
0
 62
7
 10
655.003738219709
 20
325.9202762431031
 30
0
 11
654.4436482794738
 21
325.9202762431031
 31
0
  0
LINE
  8
0
 62
7
 10
655.7458681938363
 20
328.0133771424083
 30
0
 11
655.2906600756589
 21
328.0133771424083
 31
0
  0
LINE
  8
0
 62
7
 10
654.2403591899936
 20
326.5307637726381
 30
0
 11
654.3468801397355
 21
328.0133771424083
 31
0
  0
LINE
  8
0
 62
7
 10
654.3468801397355
 20
328.0133771424083
 30
0
 11
653.6556599821026
 21
328.0133771424083
 31
0
  0
LINE
  8
0
 62
7
 10
654.132921818861
 20
322.6664233269301
 30
0
 11
654.1143624225454
 21
324.001599021565
 31
0
  0
LINE
  8
0
 62
7
 10
739.9051107438143
 20
202.9430747066816
 30
0
 11
740.5221026302845
 21
195.8908245700457
 31
0
  0
LINE
  8
0
 62
7
 10
740.5221026302845
 20
195.8908245700457
 30
0
 11
745.5221024688096
 21
195.8908245700457
 31
0
  0
LINE
  8
0
 62
7
 10
746.1390943552799
 20
202.9430747066816
 30
0
 11
745.5221024688096
 21
195.8908245700457
 31
0
  0
LINE
  8
0
 62
7
 10
668.214325291862
 20
396.8908275801107
 30
0
 11
686.4910798769827
 21
396.8908275801107
 31
0
  0
LINE
  8
0
 62
7
 10
817.8298798072317
 20
396.8908275801107
 30
0
 11
799.5531252221119
 21
396.8908275801107
 31
0
  0
LINE
  8
0
 62
7
 10
686.4910798769827
 20
396.8908275801107
 30
0
 11
692.5221012930645
 21
396.8908275801107
 31
0
  0
LINE
  8
0
 62
7
 10
799.5531252221119
 20
396.8908275801107
 30
0
 11
793.5221038060297
 21
396.8908275801107
 31
0
  0
LINE
  8
0
 62
7
 10
691.976815656082
 20
207.8384935403454
 30
0
 11
694.617472756747
 21
206.610250439848
 31
0
  0
LINE
  8
0
 62
7
 10
791.4267323423471
 20
206.610250439848
 30
0
 11
794.0673894430122
 21
207.8384935403454
 31
0
  0
LINE
  8
0
 62
7
 10
695.0679385805718
 20
396.8908275801107
 30
0
 11
700.4762665532396
 21
396.8908275801107
 31
0
  0
LINE
  8
0
 62
7
 10
692.5221012930645
 20
396.8908275801107
 30
0
 11
693.0221023012971
 21
396.8908275801107
 31
0
  0
LINE
  8
0
 62
7
 10
790.9762665185228
 20
396.8908275801107
 30
0
 11
785.5679385458545
 21
396.8908275801107
 31
0
  0
LINE
  8
0
 62
7
 10
793.5221038060297
 20
396.8908275801107
 30
0
 11
793.0221027977971
 21
396.8908275801107
 31
0
  0
LINE
  8
0
 62
7
 10
704.13905762025
 20
396.8908275801107
 30
0
 11
743.0221025495468
 21
396.8908275801107
 31
0
  0
LINE
  8
0
 62
7
 10
743.0221025495468
 20
398.8908241628408
 30
0
 11
743.0221025495468
 21
411.5908229517666
 31
0
  0
LINE
  8
0
 62
7
 10
743.0221025495468
 20
396.8908275801107
 30
0
 11
743.0221025495468
 21
398.8908241628408
 31
0
  0
LINE
  8
0
 62
7
 10
781.9051474788441
 20
396.8908275801107
 30
0
 11
743.0221025495468
 21
396.8908275801107
 31
0
  0
LINE
  8
0
 62
7
 10
653.6122901528331
 20
327.9849121997912
 30
0
 11
653.500740061342
 21
328.0133771424083
 31
0
  0
LINE
  8
0
 62
7
 10
833.1999282370309
 20
317.9627433200611
 30
0
 11
833.5826273054283
 21
320.8908251909705
 31
0
  0
LINE
  8
0
 62
7
 10
833.5826273054283
 20
320.8908251909705
 30
0
 11
832.9804788383106
 21
328.3908235519583
 31
0
  0
LINE
  8
0
 62
7
 10
833.8557283346152
 20
328.3908235519583
 30
0
 11
833.4712634785344
 21
335.8908237753456
 31
0
  0
LINE
  8
0
 62
7
 10
802.3336967743865
 20
341.7943620331942
 30
0
 11
798.7657776746335
 21
338.2304364446016
 31
0
  0
LINE
  8
0
 62
7
 10
785.3617139273026
 20
351.6345001919324
 30
0
 11
788.9256395158957
 21
355.202419291685
 31
0
  0
LINE
  8
0
 62
7
 10
788.9256395158957
 20
236.5792308420062
 30
0
 11
785.3617139273026
 21
240.1471499417592
 31
0
  0
LINE
  8
0
 62
7
 10
798.7657776746335
 20
253.5512136887895
 30
0
 11
802.3336967743865
 21
249.9872881004974
 31
0
  0
LINE
  8
0
 62
7
 10
700.6824911717911
 20
351.6345001919324
 30
0
 11
697.1185655831985
 21
355.202419291685
 31
0
  0
LINE
  8
0
 62
7
 10
683.7105083247077
 20
341.7943620331942
 30
0
 11
687.2784274244607
 21
338.2304364446016
 31
0
  0
LINE
  8
0
 62
7
 10
687.2784274244607
 20
253.5512136887895
 30
0
 11
683.7105083247077
 21
249.9872881004974
 31
0
  0
LINE
  8
0
 62
7
 10
697.1185655831985
 20
236.5792308420062
 30
0
 11
700.6824911717911
 21
240.1471499417592
 31
0
  0
LINE
  8
0
 62
7
 10
656.4318282415213
 20
411.5908229517666
 30
0
 11
650.0221012682021
 21
411.5908229517666
 31
0
  0
LINE
  8
0
 62
7
 10
674.0221049636618
 20
430.5908240148017
 30
0
 11
650.0221012682021
 21
430.5908240148017
 31
0
  0
LINE
  8
0
 62
7
 10
836.0221038308921
 20
411.5908229517666
 30
0
 11
829.6123768575724
 21
411.5908229517666
 31
0
  0
LINE
  8
0
 62
7
 10
836.0221038308921
 20
430.5908240148017
 30
0
 11
812.0221001354323
 21
430.5908240148017
 31
0
  0
LINE
  8
0
 62
7
 10
667.6641222721285
 20
428.5908199812714
 30
0
 11
671.6893431030378
 21
428.5908199812714
 31
0
  0
LINE
  8
0
 62
7
 10
814.3548619960563
 20
428.5908199812714
 30
0
 11
818.3800828269662
 21
428.5908199812714
 31
0
  0
LINE
  8
0
 62
7
 10
666.296180786919
 20
411.5908229517666
 30
0
 11
656.4318282415213
 21
411.5908229517666
 31
0
  0
LINE
  8
0
 62
7
 10
663.8199505478203
 20
423.5908247993464
 30
0
 11
668.214325291862
 21
423.5908247993464
 31
0
  0
LINE
  8
0
 62
7
 10
829.6123768575724
 20
411.5908229517666
 30
0
 11
819.7480243121752
 21
411.5908229517666
 31
0
  0
LINE
  8
0
 62
7
 10
817.8298798072317
 20
423.5908247993464
 30
0
 11
822.2242545512743
 21
423.5908247993464
 31
0
  0
LINE
  8
0
 62
7
 10
712.0221033640321
 20
434.7408271681709
 30
0
 11
732.0221027184323
 21
434.7408271681709
 31
0
  0
LINE
  8
0
 62
7
 10
754.0221023806619
 20
434.7408271681709
 30
0
 11
774.0221017350616
 21
434.7408271681709
 31
0
  0
LINE
  8
0
 62
7
 10
685.0415657111837
 20
411.5908229517666
 30
0
 11
666.296180786919
 21
411.5908229517666
 31
0
  0
LINE
  8
0
 62
7
 10
668.214325291862
 20
423.5908247993464
 30
0
 11
686.4910798769827
 21
423.5908247993464
 31
0
  0
LINE
  8
0
 62
7
 10
799.5531252221119
 20
423.5908247993464
 30
0
 11
817.8298798072317
 21
423.5908247993464
 31
0
  0
LINE
  8
0
 62
7
 10
819.7480243121752
 20
411.5908229517666
 30
0
 11
801.002639388211
 21
411.5908229517666
 31
0
  0
LINE
  8
0
 62
7
 10
671.6893431030378
 20
428.5908199812714
 30
0
 11
690.5221047103348
 21
428.5908199812714
 31
0
  0
LINE
  8
0
 62
7
 10
795.5221003887602
 20
428.5908199812714
 30
0
 11
814.3548619960563
 21
428.5908199812714
 31
0
  0
LINE
  8
0
 62
7
 10
751.022102849967
 20
434.7408271681709
 30
0
 11
754.0221023806619
 21
434.7408271681709
 31
0
  0
LINE
  8
0
 62
7
 10
732.0221027184323
 20
434.7408271681709
 30
0
 11
735.0221022491271
 21
434.7408271681709
 31
0
  0
LINE
  8
0
 62
7
 10
793.0221027977971
 20
431.7408211184764
 30
0
 11
806.5221039452747
 21
431.7408211184764
 31
0
  0
LINE
  8
0
 62
7
 10
749.874065714673
 20
431.7408211184764
 30
0
 11
774.0221017350616
 21
431.7408211184764
 31
0
  0
LINE
  8
0
 62
7
 10
712.0221033640321
 20
431.7408211184764
 30
0
 11
736.1701393844212
 21
431.7408211184764
 31
0
  0
LINE
  8
0
 62
7
 10
679.522101153819
 20
431.7408211184764
 30
0
 11
693.0221023012971
 21
431.7408211184764
 31
0
  0
LINE
  8
0
 62
7
 10
735.0221022491271
 20
434.7408271681709
 30
0
 11
751.022102849967
 21
434.7408271681709
 31
0
  0
LINE
  8
0
 62
7
 10
751.022102849967
 20
431.7408211184764
 30
0
 11
751.022102849967
 21
434.7408271681709
 31
0
  0
LINE
  8
0
 62
7
 10
735.0221022491271
 20
431.7408211184764
 30
0
 11
735.0221022491271
 21
434.7408271681709
 31
0
  0
LINE
  8
0
 62
7
 10
737.4731248459764
 20
428.5908199812714
 30
0
 11
737.4731248459764
 21
430.2408255439789
 31
0
  0
LINE
  8
0
 62
7
 10
748.5710802531178
 20
430.2408255439789
 30
0
 11
748.5710802531178
 21
428.5908199812714
 31
0
  0
LINE
  8
0
 62
7
 10
686.4910798769827
 20
423.5908247993464
 30
0
 11
690.5221047103348
 21
423.5908247993464
 31
0
  0
LINE
  8
0
 62
7
 10
690.5221047103348
 20
411.5908229517666
 30
0
 11
685.0415657111837
 21
411.5908229517666
 31
0
  0
LINE
  8
0
 62
7
 10
795.5221003887602
 20
423.5908247993464
 30
0
 11
799.5531252221119
 21
423.5908247993464
 31
0
  0
LINE
  8
0
 62
7
 10
801.002639388211
 20
411.5908229517666
 30
0
 11
795.5221003887602
 21
411.5908229517666
 31
0
  0
LINE
  8
0
 62
7
 10
714.5151197612638
 20
428.5908199812714
 30
0
 11
720.7899427983232
 21
428.5908199812714
 31
0
  0
LINE
  8
0
 62
7
 10
765.2542623007705
 20
428.5908199812714
 30
0
 11
771.5290853378303
 21
428.5908199812714
 31
0
  0
LINE
  8
0
 62
7
 10
720.7899427983232
 20
428.5908199812714
 30
0
 11
765.2542623007705
 21
428.5908199812714
 31
0
  0
LINE
  8
0
 62
7
 10
702.017471288628
 20
411.5908229517666
 30
0
 11
690.5221047103348
 21
411.5908229517666
 31
0
  0
LINE
  8
0
 62
7
 10
714.5221028176945
 20
430.5908240148017
 30
0
 11
690.5221047103348
 21
430.5908240148017
 31
0
  0
LINE
  8
0
 62
7
 10
795.5221003887602
 20
411.5908229517666
 30
0
 11
784.0267338104657
 21
411.5908229517666
 31
0
  0
LINE
  8
0
 62
7
 10
795.5221003887602
 20
430.5908240148017
 30
0
 11
771.5221022813996
 21
430.5908240148017
 31
0
  0
LINE
  8
0
 62
7
 10
711.9435295419128
 20
423.5908247993464
 30
0
 11
774.1006755571814
 21
423.5908247993464
 31
0
  0
LINE
  8
0
 62
7
 10
784.0267338104657
 20
411.5908229517666
 30
0
 11
702.017471288628
 21
411.5908229517666
 31
0
  0
LINE
  8
0
 62
7
 10
708.5221037566041
 20
385.5908226735763
 30
0
 11
696.5221019087242
 21
385.5908226735763
 31
0
  0
LINE
  8
0
 62
7
 10
712.0221033640321
 20
438.5908252464213
 30
0
 11
707.2721012357231
 21
438.5908252464213
 31
0
  0
LINE
  8
0
 62
7
 10
712.0221033640321
 20
438.5908252464213
 30
0
 11
712.0221033640321
 21
437.7423233343514
 31
0
  0
LINE
  8
0
 62
7
 10
697.7721044296056
 20
438.5908252464213
 30
0
 11
693.0221023012971
 21
438.5908252464213
 31
0
  0
LINE
  8
0
 62
7
 10
693.0221023012971
 20
437.7423233343514
 30
0
 11
693.0221023012971
 21
438.5908252464213
 31
0
  0
LINE
  8
0
 62
7
 10
693.0221023012971
 20
437.7423233343514
 30
0
 11
693.0221023012971
 21
430.5908240148017
 31
0
  0
LINE
  8
0
 62
7
 10
707.2721012357231
 20
438.5908252464213
 30
0
 11
697.7721044296056
 21
438.5908252464213
 31
0
  0
LINE
  8
0
 62
7
 10
712.0221033640321
 20
437.7423233343514
 30
0
 11
712.0221033640321
 21
430.5908240148017
 31
0
  0
LINE
  8
0
 62
7
 10
702.5221028328144
 20
437.7423233343514
 30
0
 11
702.5221028328144
 21
430.5908240148017
 31
0
  0
LINE
  8
0
 62
7
 10
668.0221003144723
 20
385.5908226735763
 30
0
 11
656.0221059173921
 21
385.5908226735763
 31
0
  0
LINE
  8
0
 62
7
 10
671.5220999218993
 20
438.5908252464213
 30
0
 11
666.7721015189907
 21
438.5908252464213
 31
0
  0
LINE
  8
0
 62
7
 10
671.5220999218993
 20
438.5908252464213
 30
0
 11
671.5220999218993
 21
437.7423233343514
 31
0
  0
LINE
  8
0
 62
7
 10
657.2721047128732
 20
438.5908252464213
 30
0
 11
652.5221063096644
 21
438.5908252464213
 31
0
  0
LINE
  8
0
 62
7
 10
652.5221063096644
 20
437.7423233343514
 30
0
 11
652.5221063096644
 21
438.5908252464213
 31
0
  0
LINE
  8
0
 62
7
 10
671.5220999218993
 20
437.7423233343514
 30
0
 11
671.5220999218993
 21
430.5908240148017
 31
0
  0
LINE
  8
0
 62
7
 10
666.7721015189907
 20
438.5908252464213
 30
0
 11
657.2721047128732
 21
438.5908252464213
 31
0
  0
LINE
  8
0
 62
7
 10
662.0221031157819
 20
437.7423233343514
 30
0
 11
662.0221031157819
 21
430.5908240148017
 31
0
  0
LINE
  8
0
 62
7
 10
652.5221063096644
 20
437.7423233343514
 30
0
 11
652.5221063096644
 21
430.5908240148017
 31
0
  0
LINE
  8
0
 62
7
 10
830.0220991817021
 20
385.5908226735763
 30
0
 11
827.0221005825076
 21
385.5908226735763
 31
0
  0
LINE
  8
0
 62
7
 10
827.0221005825076
 20
385.5908226735763
 30
0
 11
818.0221047846223
 21
385.5908226735763
 31
0
  0
LINE
  8
0
 62
7
 10
833.5220987894293
 20
438.5908252464213
 30
0
 11
828.7721003862214
 21
438.5908252464213
 31
0
  0
LINE
  8
0
 62
7
 10
833.5220987894293
 20
438.5908252464213
 30
0
 11
833.5220987894293
 21
437.7423233343514
 31
0
  0
LINE
  8
0
 62
7
 10
819.2721035801035
 20
438.5908252464213
 30
0
 11
814.5221051771944
 21
438.5908252464213
 31
0
  0
LINE
  8
0
 62
7
 10
814.5221051771944
 20
437.7423233343514
 30
0
 11
814.5221051771944
 21
438.5908252464213
 31
0
  0
LINE
  8
0
 62
7
 10
833.5220987894293
 20
437.7423233343514
 30
0
 11
833.5220987894293
 21
430.5908240148017
 31
0
  0
LINE
  8
0
 62
7
 10
828.7721003862214
 20
438.5908252464213
 30
0
 11
819.2721035801035
 21
438.5908252464213
 31
0
  0
LINE
  8
0
 62
7
 10
824.0221019833123
 20
437.7423233343514
 30
0
 11
824.0221019833123
 21
430.5908240148017
 31
0
  0
LINE
  8
0
 62
7
 10
814.5221051771944
 20
437.7423233343514
 30
0
 11
814.5221051771944
 21
430.5908240148017
 31
0
  0
LINE
  8
0
 62
7
 10
789.5221031903695
 20
385.5908226735763
 30
0
 11
780.5221036670848
 21
385.5908226735763
 31
0
  0
LINE
  8
0
 62
7
 10
780.5221036670848
 20
385.5908226735763
 30
0
 11
777.5221013424896
 21
385.5908226735763
 31
0
  0
LINE
  8
0
 62
7
 10
778.7721038633706
 20
438.5908252464213
 30
0
 11
774.0221017350616
 21
438.5908252464213
 31
0
  0
LINE
  8
0
 62
7
 10
774.0221017350616
 20
437.7423233343514
 30
0
 11
774.0221017350616
 21
438.5908252464213
 31
0
  0
LINE
  8
0
 62
7
 10
793.0221027977971
 20
438.5908252464213
 30
0
 11
788.2721006694881
 21
438.5908252464213
 31
0
  0
LINE
  8
0
 62
7
 10
793.0221027977971
 20
438.5908252464213
 30
0
 11
793.0221027977971
 21
437.7423233343514
 31
0
  0
LINE
  8
0
 62
7
 10
774.0221017350616
 20
437.7423233343514
 30
0
 11
774.0221017350616
 21
430.5908240148017
 31
0
  0
LINE
  8
0
 62
7
 10
788.2721006694881
 20
438.5908252464213
 30
0
 11
778.7721038633706
 21
438.5908252464213
 31
0
  0
LINE
  8
0
 62
7
 10
793.0221027977971
 20
437.7423233343514
 30
0
 11
793.0221027977971
 21
430.5908240148017
 31
0
  0
LINE
  8
0
 62
7
 10
783.5221022662793
 20
437.7423233343514
 30
0
 11
783.5221022662793
 21
430.5908240148017
 31
0
  0
LINE
  8
0
 62
7
 10
774.0221017350616
 20
386.8908223149609
 30
0
 11
778.7721038633706
 21
386.8908223149609
 31
0
  0
LINE
  8
0
 62
7
 10
774.0221017350616
 20
386.8908223149609
 30
0
 11
774.0221017350616
 21
387.739331677831
 31
0
  0
LINE
  8
0
 62
7
 10
793.0221027977971
 20
386.8908223149609
 30
0
 11
788.2721006694881
 21
386.8908223149609
 31
0
  0
LINE
  8
0
 62
7
 10
793.0221027977971
 20
387.739331677831
 30
0
 11
793.0221027977971
 21
386.8908223149609
 31
0
  0
LINE
  8
0
 62
7
 10
783.5221022662793
 20
396.8908275801107
 30
0
 11
781.9051474788441
 21
396.8908275801107
 31
0
  0
LINE
  8
0
 62
7
 10
774.0221017350616
 20
387.739331677831
 30
0
 11
774.0221017350616
 21
396.8908275801107
 31
0
  0
LINE
  8
0
 62
7
 10
788.2721006694881
 20
386.8908223149609
 30
0
 11
778.7721038633706
 21
386.8908223149609
 31
0
  0
LINE
  8
0
 62
7
 10
783.5221022662793
 20
387.739331677831
 30
0
 11
783.5221022662793
 21
396.8908275801107
 31
0
  0
LINE
  8
0
 62
7
 10
793.0221027977971
 20
387.739331677831
 30
0
 11
793.0221027977971
 21
396.8908275801107
 31
0
  0
LINE
  8
0
 62
7
 10
785.5679385458545
 20
396.8908275801107
 30
0
 11
783.5221022662793
 21
396.8908275801107
 31
0
  0
LINE
  8
0
 62
7
 10
793.0221027977971
 20
396.8908275801107
 30
0
 11
790.9762665185228
 21
396.8908275801107
 31
0
  0
LINE
  8
0
 62
7
 10
819.2721035801035
 20
386.8908223149609
 30
0
 11
814.5221051771944
 21
386.8908223149609
 31
0
  0
LINE
  8
0
 62
7
 10
814.5221051771944
 20
386.8908223149609
 30
0
 11
814.5221051771944
 21
387.739331677831
 31
0
  0
LINE
  8
0
 62
7
 10
833.5220987894293
 20
386.8908223149609
 30
0
 11
828.7721003862214
 21
386.8908223149609
 31
0
  0
LINE
  8
0
 62
7
 10
833.5220987894293
 20
387.739331677831
 30
0
 11
833.5220987894293
 21
386.8908223149609
 31
0
  0
LINE
  8
0
 62
7
 10
814.5221051771944
 20
387.739331677831
 30
0
 11
814.5221051771944
 21
396.8908275801107
 31
0
  0
LINE
  8
0
 62
7
 10
819.2721035801035
 20
386.8908223149609
 30
0
 11
828.7721003862214
 21
386.8908223149609
 31
0
  0
LINE
  8
0
 62
7
 10
833.5220987894293
 20
396.8908275801107
 30
0
 11
831.4762662352548
 21
396.8908275801107
 31
0
  0
LINE
  8
0
 62
7
 10
824.0221019833123
 20
387.739331677831
 30
0
 11
824.0221019833123
 21
396.8908275801107
 31
0
  0
LINE
  8
0
 62
7
 10
833.5220987894293
 20
387.739331677831
 30
0
 11
833.5220987894293
 21
396.8908275801107
 31
0
  0
LINE
  8
0
 62
7
 10
657.2721047128732
 20
386.8908223149609
 30
0
 11
652.5221063096644
 21
386.8908223149609
 31
0
  0
LINE
  8
0
 62
7
 10
652.5221063096644
 20
386.8908223149609
 30
0
 11
652.5221063096644
 21
387.739331677831
 31
0
  0
LINE
  8
0
 62
7
 10
671.5220999218993
 20
386.8908223149609
 30
0
 11
666.7721015189907
 21
386.8908223149609
 31
0
  0
LINE
  8
0
 62
7
 10
671.5220999218993
 20
387.739331677831
 30
0
 11
671.5220999218993
 21
386.8908223149609
 31
0
  0
LINE
  8
0
 62
7
 10
654.5679388638389
 20
396.8908275801107
 30
0
 11
652.5221063096644
 21
396.8908275801107
 31
0
  0
LINE
  8
0
 62
7
 10
652.5221063096644
 20
387.739331677831
 30
0
 11
652.5221063096644
 21
396.8908275801107
 31
0
  0
LINE
  8
0
 62
7
 10
666.7721015189907
 20
386.8908223149609
 30
0
 11
657.2721047128732
 21
386.8908223149609
 31
0
  0
LINE
  8
0
 62
7
 10
662.0221031157819
 20
387.739331677831
 30
0
 11
662.0221031157819
 21
396.8908275801107
 31
0
  0
LINE
  8
0
 62
7
 10
671.5220999218993
 20
387.739331677831
 30
0
 11
671.5220999218993
 21
396.8908275801107
 31
0
  0
LINE
  8
0
 62
7
 10
712.0221033640321
 20
386.8908223149609
 30
0
 11
707.2721012357231
 21
386.8908223149609
 31
0
  0
LINE
  8
0
 62
7
 10
712.0221033640321
 20
387.739331677831
 30
0
 11
712.0221033640321
 21
386.8908223149609
 31
0
  0
LINE
  8
0
 62
7
 10
697.7721044296056
 20
386.8908223149609
 30
0
 11
693.0221023012971
 21
386.8908223149609
 31
0
  0
LINE
  8
0
 62
7
 10
693.0221023012971
 20
386.8908223149609
 30
0
 11
693.0221023012971
 21
387.739331677831
 31
0
  0
LINE
  8
0
 62
7
 10
704.13905762025
 20
396.8908275801107
 30
0
 11
702.5221028328144
 21
396.8908275801107
 31
0
  0
LINE
  8
0
 62
7
 10
712.0221033640321
 20
387.739331677831
 30
0
 11
712.0221033640321
 21
396.8908275801107
 31
0
  0
LINE
  8
0
 62
7
 10
707.2721012357231
 20
386.8908223149609
 30
0
 11
697.7721044296056
 21
386.8908223149609
 31
0
  0
LINE
  8
0
 62
7
 10
693.0221023012971
 20
387.739331677831
 30
0
 11
693.0221023012971
 21
396.8908275801107
 31
0
  0
LINE
  8
0
 62
7
 10
702.5221028328144
 20
387.739331677831
 30
0
 11
702.5221028328144
 21
396.8908275801107
 31
0
  0
LINE
  8
0
 62
7
 10
695.0679385805718
 20
396.8908275801107
 30
0
 11
693.0221023012971
 21
396.8908275801107
 31
0
  0
LINE
  8
0
 62
7
 10
702.5221028328144
 20
396.8908275801107
 30
0
 11
700.4762665532396
 21
396.8908275801107
 31
0
  0
LINE
  8
0
 62
7
 10
770.0221029818019
 20
462.2408304713588
 30
0
 11
770.0221029818019
 21
461.2408284545934
 31
0
  0
LINE
  8
0
 62
7
 10
768.0066743842256
 20
462.2408304713588
 30
0
 11
770.0221029818019
 21
462.2408304713588
 31
0
  0
LINE
  8
0
 62
7
 10
759.0066729982407
 20
462.2408304713588
 30
0
 11
761.1785153581629
 21
462.2408304713588
 31
0
  0
LINE
  8
0
 62
7
 10
748.022102388072
 20
462.2408304713588
 30
0
 11
752.178514903678
 21
462.2408304713588
 31
0
  0
LINE
  8
0
 62
7
 10
716.0221021172918
 20
462.2408304713588
 30
0
 11
718.0221024254222
 21
462.2408304713588
 31
0
  0
LINE
  8
0
 62
7
 10
716.0221021172918
 20
462.2408304713588
 30
0
 11
716.0221021172918
 21
461.2408284545934
 31
0
  0
LINE
  8
0
 62
7
 10
754.8505650252312
 20
462.2408304713588
 30
0
 11
754.4464995544456
 21
462.2408304713588
 31
0
  0
LINE
  8
0
 62
7
 10
757.6213046053042
 20
462.2408304713588
 30
0
 11
757.159514830392
 21
462.2408304713588
 31
0
  0
LINE
  8
0
 62
7
 10
763.8505654797161
 20
462.2408304713588
 30
0
 11
763.4465000089306
 21
462.2408304713588
 31
0
  0
LINE
  8
0
 62
7
 10
766.6213041282892
 20
462.2408304713588
 30
0
 11
766.159515284877
 21
462.2408304713588
 31
0
  0
LINE
  8
0
 62
7
 10
754.4464995544456
 20
462.2408304713588
 30
0
 11
753.8115377992542
 21
462.2408304713588
 31
0
  0
LINE
  8
0
 62
7
 10
754.4464995544456
 20
462.2408304713588
 30
0
 11
754.4464995544456
 21
461.2408284545934
 31
0
  0
LINE
  8
0
 62
7
 10
757.159514830392
 20
462.2408304713588
 30
0
 11
756.5822773793268
 21
462.2408304713588
 31
0
  0
LINE
  8
0
 62
7
 10
757.159514830392
 20
462.2408304713588
 30
0
 11
757.159514830392
 21
461.2408284545934
 31
0
  0
LINE
  8
0
 62
7
 10
763.4465000089306
 20
462.2408304713588
 30
0
 11
762.8115373222388
 21
462.2408304713588
 31
0
  0
LINE
  8
0
 62
7
 10
763.4465000089306
 20
462.2408304713588
 30
0
 11
763.4465000089306
 21
461.2408284545934
 31
0
  0
LINE
  8
0
 62
7
 10
766.159515284877
 20
462.2408304713588
 30
0
 11
765.5822778338118
 21
462.2408304713588
 31
0
  0
LINE
  8
0
 62
7
 10
766.159515284877
 20
462.2408304713588
 30
0
 11
766.159515284877
 21
461.2408284545934
 31
0
  0
LINE
  8
0
 62
7
 10
754.9492544834509
 20
462.2408304713588
 30
0
 11
754.8505650252312
 21
462.2408304713588
 31
0
  0
LINE
  8
0
 62
7
 10
754.8505650252312
 20
462.2408304713588
 30
0
 11
754.8505650252312
 21
461.2408284545934
 31
0
  0
LINE
  8
0
 62
7
 10
763.9492540067361
 20
462.2408304713588
 30
0
 11
763.8505654797161
 21
462.2408304713588
 31
0
  0
LINE
  8
0
 62
7
 10
763.8505654797161
 20
462.2408304713588
 30
0
 11
763.8505654797161
 21
461.2408284545934
 31
0
  0
LINE
  8
0
 62
7
 10
757.7777174361502
 20
462.2408304713588
 30
0
 11
757.6213046053042
 21
462.2408304713588
 31
0
  0
LINE
  8
0
 62
7
 10
757.6213046053042
 20
462.2408304713588
 30
0
 11
757.6213046053042
 21
461.2408284545934
 31
0
  0
LINE
  8
0
 62
7
 10
766.7777178906351
 20
462.2408304713588
 30
0
 11
766.6213041282892
 21
462.2408304713588
 31
0
  0
LINE
  8
0
 62
7
 10
766.6213041282892
 20
462.2408304713588
 30
0
 11
766.6213041282892
 21
461.2408284545934
 31
0
  0
LINE
  8
0
 62
7
 10
753.8115377992542
 20
462.2408304713588
 30
0
 11
753.4074723284682
 21
462.2408304713588
 31
0
  0
LINE
  8
0
 62
7
 10
753.8115377992542
 20
462.2408304713588
 30
0
 11
753.8115377992542
 21
461.2408284545934
 31
0
  0
LINE
  8
0
 62
7
 10
756.5822773793268
 20
462.2408304713588
 30
0
 11
756.1782109770413
 21
462.2408304713588
 31
0
  0
LINE
  8
0
 62
7
 10
756.5822773793268
 20
462.2408304713588
 30
0
 11
756.5822773793268
 21
461.2408284545934
 31
0
  0
LINE
  8
0
 62
7
 10
762.8115373222388
 20
462.2408304713588
 30
0
 11
762.4074718514537
 21
462.2408304713588
 31
0
  0
LINE
  8
0
 62
7
 10
762.8115373222388
 20
462.2408304713588
 30
0
 11
762.8115373222388
 21
461.2408284545934
 31
0
  0
LINE
  8
0
 62
7
 10
765.5822778338118
 20
462.2408304713588
 30
0
 11
765.1782105000264
 21
462.2408304713588
 31
0
  0
LINE
  8
0
 62
7
 10
765.5822778338118
 20
462.2408304713588
 30
0
 11
765.5822778338118
 21
461.2408284545934
 31
0
  0
LINE
  8
0
 62
7
 10
753.4074723284682
 20
462.2408304713588
 30
0
 11
752.178514903678
 21
462.2408304713588
 31
0
  0
LINE
  8
0
 62
7
 10
753.4074723284682
 20
462.2408304713588
 30
0
 11
753.4074723284682
 21
461.2408284545934
 31
0
  0
LINE
  8
0
 62
7
 10
752.178514903678
 20
462.2408304713588
 30
0
 11
752.178514903678
 21
461.2408284545934
 31
0
  0
LINE
  8
0
 62
7
 10
756.1782109770413
 20
462.2408304713588
 30
0
 11
754.9492544834509
 21
462.2408304713588
 31
0
  0
LINE
  8
0
 62
7
 10
756.1782109770413
 20
462.2408304713588
 30
0
 11
756.1782109770413
 21
461.2408284545934
 31
0
  0
LINE
  8
0
 62
7
 10
754.9492544834509
 20
462.2408304713588
 30
0
 11
754.9492544834509
 21
461.2408284545934
 31
0
  0
LINE
  8
0
 62
7
 10
759.0066729982407
 20
462.2408304713588
 30
0
 11
757.7777174361502
 21
462.2408304713588
 31
0
  0
LINE
  8
0
 62
7
 10
759.0066729982407
 20
462.2408304713588
 30
0
 11
759.0066729982407
 21
461.2408284545934
 31
0
  0
LINE
  8
0
 62
7
 10
757.7777174361502
 20
462.2408304713588
 30
0
 11
757.7777174361502
 21
461.2408284545934
 31
0
  0
LINE
  8
0
 62
7
 10
762.4074718514537
 20
462.2408304713588
 30
0
 11
761.1785153581629
 21
462.2408304713588
 31
0
  0
LINE
  8
0
 62
7
 10
762.4074718514537
 20
462.2408304713588
 30
0
 11
762.4074718514537
 21
461.2408284545934
 31
0
  0
LINE
  8
0
 62
7
 10
761.1785153581629
 20
462.2408304713588
 30
0
 11
761.1785153581629
 21
461.2408284545934
 31
0
  0
LINE
  8
0
 62
7
 10
765.1782105000264
 20
462.2408304713588
 30
0
 11
763.9492540067361
 21
462.2408304713588
 31
0
  0
LINE
  8
0
 62
7
 10
765.1782105000264
 20
462.2408304713588
 30
0
 11
765.1782105000264
 21
461.2408284545934
 31
0
  0
LINE
  8
0
 62
7
 10
763.9492540067361
 20
462.2408304713588
 30
0
 11
763.9492540067361
 21
461.2408284545934
 31
0
  0
LINE
  8
0
 62
7
 10
768.0066743842256
 20
462.2408304713588
 30
0
 11
766.7777178906351
 21
462.2408304713588
 31
0
  0
LINE
  8
0
 62
7
 10
768.0066743842256
 20
462.2408304713588
 30
0
 11
768.0066743842256
 21
461.2408284545934
 31
0
  0
LINE
  8
0
 62
7
 10
766.7777178906351
 20
462.2408304713588
 30
0
 11
766.7777178906351
 21
461.2408284545934
 31
0
  0
LINE
  8
0
 62
7
 10
748.022102388072
 20
462.2408304713588
 30
0
 11
748.022102388072
 21
461.2408284545934
 31
0
  0
LINE
  8
0
 62
7
 10
718.0221024254222
 20
462.2408304713588
 30
0
 11
748.022102388072
 21
462.2408304713588
 31
0
  0
LINE
  8
0
 62
7
 10
718.0221024254222
 20
462.2408304713588
 30
0
 11
718.0221024254222
 21
461.2408284545934
 31
0
  0
LINE
  8
0
 62
7
 10
697.0221029172569
 20
461.2408284545934
 30
0
 11
743.0221025495468
 21
461.2408284545934
 31
0
  0
LINE
  8
0
 62
7
 10
743.0221025495468
 20
461.2408284545934
 30
0
 11
789.0221021818368
 21
461.2408284545934
 31
0
  0
LINE
  8
0
 62
7
 10
793.0221027977971
 20
434.7408271681709
 30
0
 11
796.0221013972921
 21
434.7408271681709
 31
0
  0
LINE
  8
0
 62
7
 10
751.1026529388671
 20
434.7408271681709
 30
0
 11
774.0221017350616
 21
434.7408271681709
 31
0
  0
LINE
  8
0
 62
7
 10
712.0221033640321
 20
434.7408271681709
 30
0
 11
735.0221022491271
 21
434.7408271681709
 31
0
  0
LINE
  8
0
 62
7
 10
690.0221037021017
 20
434.7408271681709
 30
0
 11
693.0221023012971
 21
434.7408271681709
 31
0
  0
LINE
  8
0
 62
7
 10
731.458466301832
 20
454.2408292394387
 30
0
 11
733.022102872497
 21
454.2408292394387
 31
0
  0
LINE
  8
0
 62
7
 10
733.022102872497
 20
452.2408252062085
 30
0
 11
731.458466301832
 21
452.2408252062085
 31
0
  0
LINE
  8
0
 62
7
 10
753.0221022265966
 20
454.2408292394387
 30
0
 11
754.5857387972621
 21
454.2408292394387
 31
0
  0
LINE
  8
0
 62
7
 10
754.5857387972621
 20
452.2408252062085
 30
0
 11
753.0221022265966
 21
452.2408252062085
 31
0
  0
LINE
  8
0
 62
7
 10
733.022102872497
 20
454.2408292394387
 30
0
 11
734.7363883185656
 21
454.2408292394387
 31
0
  0
LINE
  8
0
 62
7
 10
734.7363883185656
 20
452.2408252062085
 30
0
 11
733.022102872497
 21
452.2408252062085
 31
0
  0
LINE
  8
0
 62
7
 10
751.3078167805286
 20
454.2408292394387
 30
0
 11
753.0221022265966
 21
454.2408292394387
 31
0
  0
LINE
  8
0
 62
7
 10
753.0221022265966
 20
452.2408252062085
 30
0
 11
751.3078167805286
 21
452.2408252062085
 31
0
  0
LINE
  8
0
 62
7
 10
734.7363883185656
 20
454.2408292394387
 30
0
 11
751.3078167805286
 21
454.2408292394387
 31
0
  0
LINE
  8
0
 62
7
 10
734.7363883185656
 20
452.2408252062085
 30
0
 11
751.3078167805286
 21
452.2408252062085
 31
0
  0
LINE
  8
0
 62
7
 10
638.0574226226711
 20
446.7408215652516
 30
0
 11
638.0574226226711
 21
451.7408167474762
 31
0
  0
LINE
  8
0
 62
7
 10
679.0221001455873
 20
388.0371984366719
 30
0
 11
678.950023229603
 21
386.41482707699
 31
0
  0
LINE
  8
0
 62
7
 10
807.0941818694907
 20
386.41482707699
 30
0
 11
807.0221049535069
 21
388.0371984366719
 31
0
  0
LINE
  8
0
 62
7
 10
807.1002242903312
 20
386.0578101596369
 30
0
 11
807.0221049535069
 21
388.0374219540693
 31
0
  0
LINE
  8
0
 62
7
 10
650.0221012682021
 20
411.5908229517666
 30
0
 11
650.0221012682021
 21
398.8908241628408
 31
0
  0
LINE
  8
0
 62
7
 10
836.0221038308921
 20
398.8908241628408
 30
0
 11
836.0221038308921
 21
411.5908229517666
 31
0
  0
LINE
  8
0
 62
7
 10
835.355381182216
 20
331.2766755320875
 30
0
 11
835.3353465713151
 21
331.5334225369368
 31
0
  0
LINE
  8
0
 62
7
 10
835.2996880928693
 20
331.9903889922965
 30
0
 11
835.0940148176126
 21
334.6259834235119
 31
0
  0
LINE
  8
0
 62
7
 10
679.5591677920513
 20
387.454175609564
 30
0
 11
679.138060980735
 21
387.078636548695
 31
0
  0
LINE
  8
0
 62
7
 10
806.9061441183592
 20
387.078636548695
 30
0
 11
806.4850373070428
 21
387.454175609564
 31
0
  0
LINE
  8
0
 62
7
 10
807.0221049535069
 20
388.0376007678677
 30
0
 11
807.0221049535069
 21
391.890824947386
 31
0
  0
LINE
  8
0
 62
7
 10
679.0221001455873
 20
391.890824947386
 30
0
 11
679.0221001455873
 21
388.0376007678677
 31
0
  0
LINE
  8
0
 62
7
 10
690.5221047103348
 20
411.5908229517666
 30
0
 11
690.5221047103348
 21
398.8908241628408
 31
0
  0
LINE
  8
0
 62
7
 10
795.5221003887602
 20
398.8908241628408
 30
0
 11
795.5221003887602
 21
411.5908229517666
 31
0
  0
LINE
  8
0
 62
7
 10
650.0221012682021
 20
430.5908240148017
 30
0
 11
650.0221012682021
 21
411.5908229517666
 31
0
  0
LINE
  8
0
 62
7
 10
674.0221049636618
 20
428.5908199812714
 30
0
 11
674.0221049636618
 21
430.5908240148017
 31
0
  0
LINE
  8
0
 62
7
 10
812.0221001354323
 20
430.5908240148017
 30
0
 11
812.0221001354323
 21
428.5908199812714
 31
0
  0
LINE
  8
0
 62
7
 10
836.0221038308921
 20
411.5908229517666
 30
0
 11
836.0221038308921
 21
430.5908240148017
 31
0
  0
LINE
  8
0
 62
7
 10
688.0221033939718
 20
432.7408231349412
 30
0
 11
688.0221033939718
 21
431.7408211184764
 31
0
  0
LINE
  8
0
 62
7
 10
798.0221017051224
 20
431.7408211184764
 30
0
 11
798.0221017051224
 21
432.7408231349412
 31
0
  0
LINE
  8
0
 62
7
 10
678.0221055796217
 20
430.2408255439789
 30
0
 11
678.0221055796217
 21
428.5908199812714
 31
0
  0
LINE
  8
0
 62
7
 10
808.022099519472
 20
428.5908199812714
 30
0
 11
808.022099519472
 21
430.2408255439789
 31
0
  0
LINE
  8
0
 62
7
 10
690.5221047103348
 20
430.5908240148017
 30
0
 11
690.5221047103348
 21
411.5908229517666
 31
0
  0
LINE
  8
0
 62
7
 10
714.5221028176945
 20
428.5908199812714
 30
0
 11
714.5221028176945
 21
430.5908240148017
 31
0
  0
LINE
  8
0
 62
7
 10
771.5221022813996
 20
430.5908240148017
 30
0
 11
771.5221022813996
 21
428.5908199812714
 31
0
  0
LINE
  8
0
 62
7
 10
795.5221003887602
 20
411.5908229517666
 30
0
 11
795.5221003887602
 21
430.5908240148017
 31
0
  0
LINE
  8
0
 62
7
 10
708.5221037566041
 20
385.5908226735763
 30
0
 11
708.5221037566041
 21
386.8908223149609
 31
0
  0
LINE
  8
0
 62
7
 10
696.5221019087242
 20
386.8908223149609
 30
0
 11
696.5221019087242
 21
385.5908226735763
 31
0
  0
LINE
  8
0
 62
7
 10
668.0221003144723
 20
385.5908226735763
 30
0
 11
668.0221003144723
 21
386.8908223149609
 31
0
  0
LINE
  8
0
 62
7
 10
656.0221059173921
 20
386.8908223149609
 30
0
 11
656.0221059173921
 21
385.5908226735763
 31
0
  0
LINE
  8
0
 62
7
 10
830.0220991817021
 20
385.5908226735763
 30
0
 11
830.0220991817021
 21
386.8908223149609
 31
0
  0
LINE
  8
0
 62
7
 10
818.0221047846223
 20
386.8908223149609
 30
0
 11
818.0221047846223
 21
385.5908226735763
 31
0
  0
LINE
  8
0
 62
7
 10
789.5221031903695
 20
385.5908226735763
 30
0
 11
789.5221031903695
 21
386.8908223149609
 31
0
  0
LINE
  8
0
 62
7
 10
777.5221013424896
 20
386.8908223149609
 30
0
 11
777.5221013424896
 21
385.5908226735763
 31
0
  0
LINE
  8
0
 62
7
 10
690.0221037021017
 20
454.2408292394387
 30
0
 11
690.0221037021017
 21
434.7408271681709
 31
0
  0
LINE
  8
0
 62
7
 10
796.0221013972921
 20
434.7408271681709
 30
0
 11
796.0221013972921
 21
454.2408292394387
 31
0
  0
LINE
  8
0
 62
7
 10
690.0221037021017
 20
451.7408167474762
 30
0
 11
638.0574226226711
 21
451.7408167474762
 31
0
  0
LINE
  8
0
 62
7
 10
638.0574226226711
 20
446.7408215652516
 30
0
 11
690.0221037021017
 21
446.7408215652516
 31
0
  0
LINE
  8
0
 62
2
  6
DASHDOT
 10
443.1413891878863
 20
648.0691812905541
 30
0
 11
143.1413811414361
 21
648.0691812905541
 31
0
  0
LINE
  8
0
 62
2
  6
DASHDOT
 10
301.141386396431
 20
756.0691825718993
 30
0
 11
301.141386396431
 21
540.0691800092093
 31
0
  0
LINE
  8
0
 62
7
 10
389.1329658895349
 20
651.0691812868492
 30
0
 11
389.2172021527983
 21
648.0691812905541
 31
0
  0
LINE
  8
0
 62
7
 10
389.2172021527983
 20
648.0691812905541
 30
0
 11
389.1329658895349
 21
645.0691812942594
 31
0
  0
LINE
  8
0
 62
7
 10
240.6413873252989
 20
635.8691816471612
 30
0
 11
244.4390078226695
 21
635.8691816471612
 31
0
  0
LINE
  8
0
 62
7
 10
244.4390078226695
 20
660.2691809339469
 30
0
 11
240.6413873252989
 21
660.2691809339469
 31
0
  0
LINE
  8
0
 62
7
 10
240.6413873252989
 20
660.2691809339469
 30
0
 11
240.6413873252989
 21
635.8691816471612
 31
0
  0
LINE
  8
0
 62
7
 10
338.3274014243882
 20
564.9788320840569
 30
0
 11
338.3274014243882
 21
563.3339674220986
 31
0
  0
LINE
  8
0
 62
7
 10
319.7220427107325
 20
558.9717046801372
 30
0
 11
319.7220427107325
 21
557.4389340018654
 31
0
  0
LINE
  8
0
 62
7
 10
275.067094517379
 20
560.6556252851076
 30
0
 11
275.067094517379
 21
559.6044228790513
 31
0
  0
LINE
  8
0
 62
7
 10
293.1962028109667
 20
557.5403066006586
 30
0
 11
293.1962028109667
 21
556.0312511201507
 31
0
  0
LINE
  8
0
 62
7
 10
308.4425455270941
 20
557.4262084102918
 30
0
 11
308.4425455270941
 21
555.9195818194605
 31
0
  0
LINE
  8
0
 62
7
 10
305.9650612622079
 20
556.0813637247527
 30
0
 11
305.9650612622079
 21
555.745566060689
 31
0
  0
LINE
  8
0
 62
7
 10
327.0479042407499
 20
560.9631405457524
 30
0
 11
327.0479042407499
 21
559.3939588804426
 31
0
  0
LINE
  8
0
 62
7
 10
324.5704185790639
 20
560.2593810611445
 30
0
 11
324.5704185790639
 21
558.7027387231099
 31
0
  0
LINE
  8
0
 62
7
 10
337.6296992619198
 20
564.8048759301848
 30
0
 11
337.6296992619198
 21
563.163311875094
 31
0
  0
LINE
  8
0
 62
7
 10
319.0243424106641
 20
558.9158700294922
 30
0
 11
319.0243424106641
 21
557.383233462019
 31
0
  0
LINE
  8
0
 62
7
 10
311.4659156662572
 20
557.7337683745366
 30
0
 11
311.4659156662572
 21
556.2216879583591
 31
0
  0
LINE
  8
0
 62
7
 10
317.2445589114461
 20
556.9428594496937
 30
0
 11
317.2445589114461
 21
557.0036114830903
 31
0
  0
LINE
  8
0
 62
7
 10
308.4425455270941
 20
555.8701099647522
 30
0
 11
308.4425455270941
 21
555.9195818194605
 31
0
  0
LINE
  8
0
 62
7
 10
308.4425455270941
 20
555.9195818194605
 30
0
 11
305.9650612622079
 21
555.745566060689
 31
0
  0
LINE
  8
0
 62
7
 10
314.0241525824411
 20
556.469486815897
 30
0
 11
314.0241525824411
 21
556.4242319900466
 31
0
  0
LINE
  8
0
 62
7
 10
316.9312396486591
 20
558.5478188023487
 30
0
 11
316.9312396486591
 21
557.0214109200135
 31
0
  0
LINE
  8
0
 62
7
 10
313.9078695094961
 20
557.9858364147319
 30
0
 11
313.9078695094961
 21
556.4698891473929
 31
0
  0
LINE
  8
0
 62
7
 10
335.5365964996147
 20
563.9632807059463
 30
0
 11
335.5365964996147
 21
562.3382569397907
 31
0
  0
LINE
  8
0
 62
7
 10
332.5132254292519
 20
562.6643539482509
 30
0
 11
332.5132254292519
 21
561.0645951006447
 31
0
  0
LINE
  8
0
 62
7
 10
330.0712734487131
 20
561.9242877848039
 30
0
 11
330.0712734487131
 21
560.3377388166662
 31
0
  0
LINE
  8
0
 62
7
 10
335.8499157624021
 20
562.2382999515837
 30
0
 11
335.8499157624021
 21
562.2258425810076
 31
0
  0
LINE
  8
0
 62
7
 10
327.0479042407499
 20
559.2874379307007
 30
0
 11
327.0479042407499
 21
559.3939588804426
 31
0
  0
LINE
  8
0
 62
7
 10
327.0479042407499
 20
559.3939588804426
 30
0
 11
324.5704185790639
 21
558.7027387231099
 31
0
  0
LINE
  8
0
 62
7
 10
324.5704185790639
 20
558.7027387231099
 30
0
 11
324.5704185790639
 21
558.4505291219155
 31
0
  0
LINE
  8
0
 62
7
 10
330.1520265656106
 20
560.1651610199804
 30
0
 11
330.1520265656106
 21
560.1754502716783
 31
0
  0
LINE
  8
0
 62
7
 10
314.1317669046719
 20
738.0275575793178
 30
0
 11
314.1317669046719
 21
739.546425474128
 31
0
  0
LINE
  8
0
 62
7
 10
288.1510058881906
 20
738.192520882579
 30
0
 11
288.1510058881906
 21
739.7062627779399
 31
0
  0
LINE
  8
0
 62
7
 10
291.1213409325803
 20
556.3032867164482
 30
0
 11
291.1213409325803
 21
556.0848654978183
 31
0
  0
LINE
  8
0
 62
7
 10
262.0992045178152
 20
565.3734744334358
 30
0
 11
262.0992045178152
 21
564.1947702427462
 31
0
  0
LINE
  8
0
 62
7
 10
274.8077360839559
 20
560.7193873531744
 30
0
 11
274.8077360839559
 21
559.1603459283635
 31
0
  0
LINE
  8
0
 62
7
 10
292.6774878068197
 20
557.7667595449086
 30
0
 11
292.6774878068197
 21
556.2579126807993
 31
0
  0
LINE
  8
0
 62
7
 10
292.6774878068197
 20
556.1174766887946
 30
0
 11
292.6774878068197
 21
556.2579126807993
 31
0
  0
LINE
  8
0
 62
7
 10
283.5504819629966
 20
557.2052539943873
 30
0
 11
283.9890026434402
 21
557.1548955205874
 31
0
  0
LINE
  8
0
 62
7
 10
283.9890026434402
 20
557.1548955205874
 30
0
 11
292.6774878068197
 21
556.1174766887946
 31
0
  0
LINE
  8
0
 62
7
 10
265.8598924871528
 20
563.7595594826701
 30
0
 11
265.8598924871528
 21
562.1490270957709
 31
0
  0
LINE
  8
0
 62
7
 10
272.8625534222813
 20
561.3344402259638
 30
0
 11
272.8625534222822
 21
559.767769406428
 31
0
  0
LINE
  8
0
 62
7
 10
269.7502615359019
 20
562.3687000118882
 30
0
 11
269.7502615359019
 21
560.7843862177285
 31
0
  0
LINE
  8
0
 62
7
 10
271.8251215518883
 20
560.0516961290075
 30
0
 11
274.1436192760541
 21
559.3588144921916
 31
0
  0
LINE
  8
0
 62
7
 10
288.1510058881906
 20
739.7062627779399
 30
0
 11
296.8112594051511
 21
740.4600231084512
 31
0
  0
LINE
  8
0
 62
7
 10
314.1317669046719
 20
739.546425474128
 30
0
 11
305.4715133877114
 21
740.4060213008881
 31
0
  0
LINE
  8
0
 62
7
 10
310.8916305073624
 20
739.9873433789473
 30
0
 11
314.1317669046719
 21
739.546425474128
 31
0
  0
LINE
  8
0
 62
7
 10
310.667666056788
 20
740.0676531861493
 30
0
 11
304.3168128723835
 21
740.5082358148723
 31
0
  0
LINE
  8
0
 62
7
 10
291.6151067363746
 20
740.0868160792595
 30
0
 11
297.5847486399669
 21
740.4888792066647
 31
0
  0
LINE
  8
0
 62
7
 10
292.5697244727905
 20
740.0995938249323
 30
0
 11
291.6151067363746
 21
740.0868160792595
 31
0
  0
LINE
  8
0
 62
7
 10
307.4922393480354
 20
740.2952386189884
 30
0
 11
310.667666056788
 21
740.0676531861493
 31
0
  0
LINE
  8
0
 62
7
 10
296.8112594051511
 20
740.4600231084512
 30
0
 11
297.4038157158636
 21
740.4008654991392
 31
0
  0
LINE
  8
0
 62
7
 10
296.8112594051511
 20
740.2606977275316
 30
0
 11
296.8112594051511
 21
740.4600231084512
 31
0
  0
LINE
  8
0
 62
7
 10
305.4715133877114
 20
740.2606977275316
 30
0
 11
305.4715133877114
 21
740.4060213008881
 31
0
  0
LINE
  8
0
 62
7
 10
305.4715133877114
 20
740.4060213008881
 30
0
 11
304.8271096516135
 21
740.3497247144471
 31
0
  0
LINE
  8
0
 62
7
 10
276.1413862723064
 20
563.2042155621873
 30
0
 11
276.1413862723064
 21
561.613121739895
 31
0
  0
LINE
  8
0
 62
7
 10
276.1413862723064
 20
732.9341470186207
 30
0
 11
276.1413862723064
 21
734.5252408412132
 31
0
  0
LINE
  8
0
 62
7
 10
428.1413891878863
 20
704.0691824625944
 30
0
 11
428.1413891878863
 21
592.069180118214
 31
0
  0
LINE
  8
0
 62
7
 10
158.1413811414361
 20
704.0691824625944
 30
0
 11
158.1413811414361
 21
592.069180118214
 31
0
  0
LINE
  8
0
 62
7
 10
389.1329658895349
 20
645.0691812942594
 30
0
 11
387.8811193499721
 21
645.0691812942594
 31
0
  0
LINE
  8
0
 62
7
 10
387.8811193499721
 20
651.0691812868492
 30
0
 11
389.1329658895349
 21
651.0691812868492
 31
0
  0
LINE
  8
0
 62
7
 10
389.2172021527983
 20
648.0691812905541
 30
0
 11
384.1413824129265
 21
648.0691812905541
 31
0
  0
LINE
  8
0
 62
7
 10
276.6413872808387
 20
561.5162045883578
 30
0
 11
276.1413862723064
 21
561.613121739895
 31
0
  0
LINE
  8
0
 62
7
 10
276.1413862723064
 20
561.613121739895
 30
0
 11
276.1413862723064
 21
560.6742740883226
 31
0
  0
LINE
  8
0
 62
7
 10
276.1413862723064
 20
560.6742740883226
 30
0
 11
276.6413872808387
 21
560.572953643629
 31
0
  0
LINE
  8
0
 62
7
 10
326.1413865205566
 20
566.2323848064027
 30
0
 11
326.1413865205566
 21
564.5225138293902
 31
0
  0
LINE
  8
0
 62
7
 10
326.1413865205566
 20
729.9059777744062
 30
0
 11
326.1413865205566
 21
731.6158487514183
 31
0
  0
LINE
  8
0
 62
7
 10
276.1413862723064
 20
735.464088492786
 30
0
 11
276.1413862723064
 21
734.5252408412132
 31
0
  0
LINE
  8
0
 62
7
 10
202.2894160503258
 20
645.0691812942594
 30
0
 11
198.3096512111645
 21
645.0691812942594
 31
0
  0
LINE
  8
0
 62
7
 10
198.3096512111645
 20
651.0691812868492
 30
0
 11
202.2894160503258
 21
651.0691812868492
 31
0
  0
LINE
  8
0
 62
7
 10
405.332949384888
 20
651.0691812868492
 30
0
 11
389.1329658895349
 21
651.0691812868492
 31
0
  0
LINE
  8
0
 62
7
 10
405.332949384888
 20
645.0691812942594
 30
0
 11
389.1329658895349
 21
645.0691812942594
 31
0
  0
LINE
  8
0
 62
7
 10
181.5471414357
 20
651.0691812868492
 30
0
 11
198.3096512111645
 21
651.0691812868492
 31
0
  0
LINE
  8
0
 62
7
 10
181.5471414357
 20
645.0691812942594
 30
0
 11
198.3096512111645
 21
645.0691812942594
 31
0
  0
LINE
  8
0
 62
7
 10
407.1413840916214
 20
645.0691812942594
 30
0
 11
405.332949384888
 21
645.0691812942594
 31
0
  0
LINE
  8
0
 62
7
 10
405.332949384888
 20
651.0691812868492
 30
0
 11
407.1413840916214
 21
651.0691812868492
 31
0
  0
LINE
  8
0
 62
7
 10
311.5466687831547
 20
557.6449947073181
 30
0
 11
311.5466687831547
 21
557.951131610477
 31
0
  0
LINE
  8
0
 62
7
 10
308.4425455270941
 20
557.4262084102918
 30
0
 11
308.188437890419
 21
557.4080289939727
 31
0
  0
LINE
  8
0
 62
7
 10
327.0479042407499
 20
560.9631405457524
 30
0
 11
324.5704185790639
 21
560.2593810611445
 31
0
  0
LINE
  8
0
 62
7
 10
276.6413872808387
 20
563.108058370043
 30
0
 11
276.1413862723064
 21
563.2042155621873
 31
0
  0
LINE
  8
0
 62
7
 10
314.1317669046719
 20
738.0275575793178
 30
0
 11
308.1271969125271
 21
738.6344073628891
 31
0
  0
LINE
  8
0
 62
7
 10
291.4948143197701
 20
738.4883238304403
 30
0
 11
294.038060202203
 21
738.713301560105
 31
0
  0
LINE
  8
0
 62
7
 10
179.141386237701
 20
651.0691812868492
 30
0
 11
181.5471414357
 21
651.0691812868492
 31
0
  0
LINE
  8
0
 62
7
 10
181.5471414357
 20
645.0691812942594
 30
0
 11
179.141386237701
 21
645.0691812942594
 31
0
  0
LINE
  8
0
 62
7
 10
205.6436226984017
 20
642.2164527323009
 30
0
 11
205.2653269228597
 21
642.2172154852935
 31
0
  0
LINE
  8
0
 62
7
 10
410.1413826911164
 20
555.0691800092093
 30
0
 11
410.1413826911164
 21
741.0691825718993
 31
0
  0
LINE
  8
0
 62
7
 10
426.1413851546565
 20
555.0691800092093
 30
0
 11
426.1413851546565
 21
741.0691825718993
 31
0
  0
LINE
  8
0
 62
7
 10
160.1413851746663
 20
555.0691800092093
 30
0
 11
160.1413851746663
 21
741.0691825718993
 31
0
  0
LINE
  8
0
 62
7
 10
176.1413876385061
 20
555.0691800092093
 30
0
 11
176.1413876385061
 21
741.0691825718993
 31
0
  0
LINE
  8
0
 62
7
 10
218.9959645154456
 20
688.8207722103873
 30
0
 11
218.1413903802361
 21
648.0691812905541
 31
0
  0
LINE
  8
0
 62
7
 10
218.9959645154456
 20
607.3175903704212
 30
0
 11
218.1413903802361
 21
648.0691812905541
 31
0
  0
LINE
  8
0
 62
7
 10
384.1413824129265
 20
648.0691812905541
 30
0
 11
383.2868082774164
 21
607.3175903704212
 31
0
  0
LINE
  8
0
 62
7
 10
384.1413824129265
 20
648.0691812905541
 30
0
 11
383.2868082774164
 21
688.8207722103873
 31
0
  0
LINE
  8
0
 62
7
 10
355.1431791252232
 20
637.6381469037863
 30
0
 11
355.2246549487138
 21
638.0691816135043
 31
0
  0
LINE
  8
0
 62
7
 10
355.2246549487138
 20
658.0691809676043
 30
0
 11
355.1431791252232
 21
658.5002156773219
 31
0
  0
LINE
  8
0
 62
7
 10
222.1662759350486
 20
648.9072488976278
 30
0
 11
222.1662759350486
 21
649.6368708602793
 31
0
  0
LINE
  8
0
 62
7
 10
220.8324357570007
 20
649.6064699306814
 30
0
 11
220.8324357570007
 21
648.9376498272261
 31
0
  0
LINE
  8
0
 62
7
 10
219.0881878013299
 20
644.7240834427878
 30
0
 11
219.5736527270067
 21
644.7240834427878
 31
0
  0
LINE
  8
0
 62
7
 10
221.191546287633
 20
642.4744160442381
 30
0
 11
221.191546287633
 21
644.5416780977
 31
0
  0
LINE
  8
0
 62
7
 10
219.5736527270067
 20
642.4744160442381
 30
0
 11
221.191546287633
 21
642.4744160442381
 31
0
  0
LINE
  8
0
 62
7
 10
219.5736527270067
 20
644.7240834427878
 30
0
 11
219.5736527270067
 21
642.4744160442381
 31
0
  0
LINE
  8
0
 62
7
 10
219.0881878013299
 20
641.7552445682834
 30
0
 11
219.0881878013299
 21
644.7240834427878
 31
0
  0
LINE
  8
0
 62
7
 10
224.0881829832549
 20
641.7552445682834
 30
0
 11
219.0881878013299
 21
641.7552445682834
 31
0
  0
LINE
  8
0
 62
7
 10
224.0881829832549
 20
644.8760880913776
 30
0
 11
224.0881829832549
 21
641.7552445682834
 31
0
  0
LINE
  8
0
 62
7
 10
223.6027180575782
 20
644.8760880913776
 30
0
 11
224.0881829832549
 21
644.8760880913776
 31
0
  0
LINE
  8
0
 62
7
 10
223.6027180575782
 20
642.4744160442381
 30
0
 11
223.6027180575782
 21
644.8760880913776
 31
0
  0
LINE
  8
0
 62
7
 10
221.6770112133097
 20
642.4744160442381
 30
0
 11
223.6027180575782
 21
642.4744160442381
 31
0
  0
LINE
  8
0
 62
7
 10
221.6770112133097
 20
644.5416780977
 30
0
 11
221.6770112133097
 21
642.4744160442381
 31
0
  0
LINE
  8
0
 62
7
 10
221.191546287633
 20
644.5416780977
 30
0
 11
221.6770112133097
 21
644.5416780977
 31
0
  0
LINE
  8
0
 62
7
 10
289.1413864115514
 20
567.0691818567891
 30
0
 11
289.1413864115514
 21
569.8962971858016
 31
0
  0
LINE
  8
0
 62
7
 10
313.1413863816113
 20
569.8962971858016
 30
0
 11
313.1413863816113
 21
567.0691818567891
 31
0
  0
LINE
  8
0
 62
7
 10
224.9933316591616
 20
617.9614859801743
 30
0
 11
227.4416818260377
 21
619.3750436448302
 31
0
  0
LINE
  8
0
 62
7
 10
365.2894467366202
 20
597.1768771671693
 30
0
 11
362.8410891192445
 21
598.5904348315255
 31
0
  0
LINE
  8
0
 62
7
 10
239.4416836736179
 20
598.5904348315255
 30
0
 11
236.9933260562423
 21
597.1768771671693
 31
0
  0
LINE
  8
0
 62
7
 10
374.841090967125
 20
619.3750436448302
 30
0
 11
377.2894411337004
 21
617.9614859801743
 31
0
  0
LINE
  8
0
 62
7
 10
377.2894411337004
 20
678.1768766006342
 30
0
 11
374.841090967125
 21
676.763318936278
 31
0
  0
LINE
  8
0
 62
7
 10
227.4416818260377
 20
676.763318936278
 30
0
 11
224.9933316591616
 21
678.1768766006342
 31
0
  0
LINE
  8
0
 62
7
 10
362.8410891192445
 20
697.5479277495831
 30
0
 11
365.2894467366202
 21
698.9614854139393
 31
0
  0
LINE
  8
0
 62
7
 10
236.9933260562423
 20
698.9614854139393
 30
0
 11
239.4416836736179
 21
697.5479277495831
 31
0
  0
LINE
  8
0
 62
7
 10
313.1413863816113
 20
729.0691807243195
 30
0
 11
313.1413863816113
 21
726.242065395307
 31
0
  0
LINE
  8
0
 62
7
 10
289.1413864115514
 20
726.242065395307
 30
0
 11
289.1413864115514
 21
729.0691807243195
 31
0
  0
LINE
  8
0
 62
7
 10
285.2038868529705
 20
574.7821047704613
 30
0
 11
281.6413861878639
 21
575.6485327794533
 31
0
  0
LINE
  8
0
 62
7
 10
237.6821471267988
 20
662.1377557952831
 30
0
 11
229.8717780703948
 21
663.8692735027801
 31
0
  0
LINE
  8
0
 62
7
 10
237.6821471267988
 20
634.0006067855254
 30
0
 11
229.8717780703948
 21
632.2690890780284
 31
0
  0
LINE
  8
0
 62
7
 10
239.9941553953292
 20
630.9441691076911
 30
0
 11
248.2263614198421
 21
633.0691817746795
 31
0
  0
LINE
  8
0
 62
7
 10
248.2263614198421
 20
663.069180806129
 30
0
 11
239.9941553953292
 21
665.1941934734175
 31
0
  0
LINE
  8
0
 62
7
 10
358.5870125316089
 20
640.0691809901343
 30
0
 11
360.1413861679664
 21
640.0691809901343
 31
0
  0
LINE
  8
0
 62
7
 10
360.1413861679664
 20
656.0691815909743
 30
0
 11
358.5870125316089
 21
656.0691815909743
 31
0
  0
LINE
  8
0
 62
7
 10
355.2603022512601
 20
658.0691809676043
 30
0
 11
355.1431791252232
 21
658.5002156773219
 31
0
  0
LINE
  8
0
 62
7
 10
355.1431791252232
 20
637.6381469037863
 30
0
 11
355.2603022512601
 21
638.0691816135043
 31
0
  0
LINE
  8
0
 62
7
 10
359.3913846556177
 20
653.0126111994412
 30
0
 11
359.3913846556177
 21
643.125751381667
 31
0
  0
LINE
  8
0
 62
7
 10
358.9379944789218
 20
643.2161562598687
 30
0
 11
359.3913846556177
 21
643.125751381667
 31
0
  0
LINE
  8
0
 62
7
 10
359.3913846556177
 20
653.0126111994412
 30
0
 11
358.9379944789218
 21
652.9222063209397
 31
0
  0
LINE
  8
0
 62
7
 10
360.8913839552149
 20
643.125751381667
 30
0
 11
360.8913839552149
 21
653.0126111994412
 31
0
  0
LINE
  8
0
 62
7
 10
376.7742707435184
 20
598.0691810423039
 30
0
 11
371.2894439353106
 21
598.0691810423039
 31
0
  0
LINE
  8
0
 62
7
 10
371.2894439353106
 20
598.0691810423039
 30
0
 11
365.8046171268022
 21
598.0691810423039
 31
0
  0
LINE
  8
0
 62
7
 10
365.8046171268022
 20
617.0691821050393
 30
0
 11
371.2894439353106
 21
617.0691821050393
 31
0
  0
LINE
  8
0
 62
7
 10
371.2894439353106
 20
617.0691821050393
 30
0
 11
376.7742707435184
 21
617.0691821050393
 31
0
  0
LINE
  8
0
 62
7
 10
306.6262136705398
 20
557.5691850506717
 30
0
 11
301.141386396431
 21
557.5691850506717
 31
0
  0
LINE
  8
0
 62
7
 10
301.141386396431
 20
557.5691850506717
 30
0
 11
295.6565591226229
 21
557.5691850506717
 31
0
  0
LINE
  8
0
 62
7
 10
309.3686275403936
 20
571.8191802599979
 30
0
 11
312.1110409443479
 21
567.0691818567891
 31
0
  0
LINE
  8
0
 62
7
 10
301.141386396431
 20
576.5691786629066
 30
0
 11
306.6262136705398
 21
576.5691786629066
 31
0
  0
LINE
  8
0
 62
7
 10
295.6565591226229
 20
576.5691786629066
 30
0
 11
301.141386396431
 21
576.5691786629066
 31
0
  0
LINE
  8
0
 62
7
 10
230.993328857852
 20
598.0691810423039
 30
0
 11
225.5085020493436
 21
598.0691810423039
 31
0
  0
LINE
  8
0
 62
7
 10
236.4781556660603
 20
598.0691810423039
 30
0
 11
230.993328857852
 21
598.0691810423039
 31
0
  0
LINE
  8
0
 62
7
 10
230.993328857852
 20
617.0691821050393
 30
0
 11
236.4781556660603
 21
617.0691821050393
 31
0
  0
LINE
  8
0
 62
7
 10
225.5085020493436
 20
617.0691821050393
 30
0
 11
230.993328857852
 21
617.0691821050393
 31
0
  0
LINE
  8
0
 62
7
 10
230.993328857852
 20
679.0691804757691
 30
0
 11
225.5085020493436
 21
679.0691804757691
 31
0
  0
LINE
  8
0
 62
7
 10
236.4781556660603
 20
679.0691804757691
 30
0
 11
230.993328857852
 21
679.0691804757691
 31
0
  0
LINE
  8
0
 62
7
 10
230.993328857852
 20
698.0691815388043
 30
0
 11
236.4781556660603
 21
698.0691815388043
 31
0
  0
LINE
  8
0
 62
7
 10
225.5085020493436
 20
698.0691815388043
 30
0
 11
230.993328857852
 21
698.0691815388043
 31
0
  0
LINE
  8
0
 62
7
 10
301.141386396431
 20
719.5691839179015
 30
0
 11
295.6565591226229
 21
719.5691839179015
 31
0
  0
LINE
  8
0
 62
7
 10
306.6262136705398
 20
719.5691839179015
 30
0
 11
301.141386396431
 21
719.5691839179015
 31
0
  0
LINE
  8
0
 62
7
 10
292.914145252769
 20
724.3191823211107
 30
0
 11
290.1717318485146
 21
729.0691807243195
 31
0
  0
LINE
  8
0
 62
7
 10
301.141386396431
 20
738.569177530437
 30
0
 11
306.6262136705398
 21
738.569177530437
 31
0
  0
LINE
  8
0
 62
7
 10
295.6565591226229
 20
738.569177530437
 30
0
 11
301.141386396431
 21
738.569177530437
 31
0
  0
LINE
  8
0
 62
7
 10
371.2894439353106
 20
679.0691804757691
 30
0
 11
365.8046171268022
 21
679.0691804757691
 31
0
  0
LINE
  8
0
 62
7
 10
376.7742707435184
 20
679.0691804757691
 30
0
 11
371.2894439353106
 21
679.0691804757691
 31
0
  0
LINE
  8
0
 62
7
 10
371.2894439353106
 20
698.0691815388043
 30
0
 11
376.7742707435184
 21
698.0691815388043
 31
0
  0
LINE
  8
0
 62
7
 10
365.8046171268022
 20
698.0691815388043
 30
0
 11
371.2894439353106
 21
698.0691815388043
 31
0
  0
LINE
  8
0
 62
7
 10
246.4115043125728
 20
633.8691813393314
 30
0
 11
240.6413873252989
 21
633.8691813393314
 31
0
  0
LINE
  8
0
 62
7
 10
240.6413873252989
 20
662.2691812417772
 30
0
 11
246.4115043125728
 21
662.2691812417772
 31
0
  0
LINE
  8
0
 62
7
 10
238.6413870174686
 20
635.8691816471612
 30
0
 11
238.6413870174686
 21
660.2691809339469
 31
0
  0
LINE
  8
0
 62
7
 10
354.8163333335708
 20
638.0691816135043
 30
0
 11
356.5670111402781
 21
638.0691816135043
 31
0
  0
LINE
  8
0
 62
7
 10
356.5670111402781
 20
658.0691809676043
 30
0
 11
354.8163333335708
 21
658.0691809676043
 31
0
  0
LINE
  8
0
 62
7
 10
294.2413865447827
 20
649.1691812737256
 30
0
 11
294.2413865447827
 21
653.5691812061116
 31
0
  0
LINE
  8
0
 62
7
 10
292.0413861128398
 20
653.5691812061116
 30
0
 11
294.2413865447827
 21
653.5691812061116
 31
0
  0
LINE
  8
0
 62
7
 10
294.2413865447827
 20
649.1691812737256
 30
0
 11
298.6413864771687
 21
649.1691812737256
 31
0
  0
LINE
  8
0
 62
7
 10
292.0413861128398
 20
649.1691812737256
 30
0
 11
292.0413861128398
 21
653.5691812061116
 31
0
  0
LINE
  8
0
 62
7
 10
287.6413861804538
 20
649.1691812737256
 30
0
 11
292.0413861128398
 21
649.1691812737256
 31
0
  0
LINE
  8
0
 62
7
 10
287.6413861804538
 20
646.9691813073825
 30
0
 11
287.6413861804538
 21
649.1691812737256
 31
0
  0
LINE
  8
0
 62
7
 10
287.6413861804538
 20
646.9691813073825
 30
0
 11
292.0413861128398
 21
646.9691813073825
 31
0
  0
LINE
  8
0
 62
7
 10
292.0413861128398
 20
642.569181374997
 30
0
 11
292.0413861128398
 21
646.9691813073825
 31
0
  0
LINE
  8
0
 62
7
 10
292.0413861128398
 20
642.569181374997
 30
0
 11
294.2413865447827
 21
642.569181374997
 31
0
  0
LINE
  8
0
 62
7
 10
294.2413865447827
 20
642.569181374997
 30
0
 11
294.2413865447827
 21
646.9691813073825
 31
0
  0
LINE
  8
0
 62
7
 10
294.2413865447827
 20
646.9691813073825
 30
0
 11
298.6413864771687
 21
646.9691813073825
 31
0
  0
LINE
  8
0
 62
7
 10
298.6413864771687
 20
646.9691813073825
 30
0
 11
298.6413864771687
 21
649.1691812737256
 31
0
  0
LINE
  8
0
 62
7
 10
338.1413865057364
 20
653.0691811290792
 30
0
 11
326.1413865205566
 21
653.0691811290792
 31
0
  0
LINE
  8
0
 62
7
 10
338.1413865057364
 20
623.0691811664294
 30
0
 11
338.1413865057364
 21
653.0691811290792
 31
0
  0
LINE
  8
0
 62
7
 10
326.1413865205566
 20
623.0691811664294
 30
0
 11
338.1413865057364
 21
623.0691811664294
 31
0
  0
LINE
  8
0
 62
7
 10
326.1413865205566
 20
653.0691811290792
 30
0
 11
326.1413865205566
 21
623.0691811664294
 31
0
  0
LINE
  8
0
 62
7
 10
338.0371119061722
 20
659.9963332244581
 30
0
 11
332.8121836981816
 21
659.9963332244581
 31
0
  0
LINE
  8
0
 62
7
 10
338.0371119061722
 20
662.8247961771569
 30
0
 11
332.8624564901822
 21
662.8247961771569
 31
0
  0
LINE
  8
0
 62
7
 10
338.0371119061722
 20
664.0537517392475
 30
0
 11
338.0371119061722
 21
662.8247961771569
 31
0
  0
LINE
  8
0
 62
7
 10
333.4657635227889
 20
661.2252897180485
 30
0
 11
338.0371119061722
 21
661.2252897180485
 31
0
  0
LINE
  8
0
 62
7
 10
332.4099790097778
 20
664.0537517392475
 30
0
 11
338.0371119061722
 21
664.0537517392475
 31
0
  0
LINE
  8
0
 62
7
 10
338.0371119061722
 20
661.2252897180485
 30
0
 11
338.0371119061722
 21
659.9963332244581
 31
0
  0
LINE
  8
0
 62
7
 10
331.1530902898651
 20
658.4545510691753
 30
0
 11
332.0077743213735
 21
658.4545510691753
 31
0
  0
LINE
  8
0
 62
7
 10
331.1530902898651
 20
657.2255936446852
 30
0
 11
331.1530902898651
 21
658.4545510691753
 31
0
  0
LINE
  8
0
 62
7
 10
338.0371119061722
 20
657.2255936446852
 30
0
 11
331.1530902898651
 21
657.2255936446852
 31
0
  0
LINE
  8
0
 62
7
 10
338.0371119061722
 20
658.4545510691753
 30
0
 11
338.0371119061722
 21
657.2255936446852
 31
0
  0
LINE
  8
0
 62
7
 10
333.4657635227889
 20
658.4545510691753
 30
0
 11
338.0371119061722
 21
658.4545510691753
 31
0
  0
LINE
  8
0
 62
7
 10
275.1413861185413
 20
666.0691803368243
 30
0
 11
265.1413883038911
 21
666.0691803368243
 31
0
  0
LINE
  8
0
 62
7
 10
275.1413861185413
 20
630.0691822442843
 30
0
 11
275.1413861185413
 21
666.0691803368243
 31
0
  0
LINE
  8
0
 62
7
 10
265.1413883038911
 20
630.0691822442843
 30
0
 11
275.1413861185413
 21
630.0691822442843
 31
0
  0
LINE
  8
0
 62
7
 10
265.1413883038911
 20
666.0691803368243
 30
0
 11
265.1413883038911
 21
630.0691822442843
 31
0
  0
LINE
  8
0
 62
7
 10
311.141386073781
 20
675.0691817225095
 30
0
 11
311.141386073781
 21
621.069180858299
 31
0
  0
LINE
  8
0
 62
7
 10
311.141386073781
 20
621.069180858299
 30
0
 11
323.1413860586615
 21
621.069180858299
 31
0
  0
LINE
  8
0
 62
7
 10
323.1413860586615
 20
621.069180858299
 30
0
 11
323.1413860586615
 21
675.0691817225095
 31
0
  0
LINE
  8
0
 62
7
 10
323.1413860586615
 20
675.0691817225095
 30
0
 11
311.141386073781
 21
675.0691817225095
 31
0
  0
LINE
  8
0
 62
7
 10
287.6413861804538
 20
657.5954609509106
 30
0
 11
287.6413861804538
 21
651.244607766206
 31
0
  0
LINE
  8
0
 62
7
 10
293.1413860960113
 20
654.4200342421584
 30
0
 11
287.6413861804538
 21
657.5954609509106
 31
0
  0
LINE
  8
0
 62
7
 10
298.6413864771687
 20
657.5954609509106
 30
0
 11
293.1413860960113
 21
654.4200342421584
 31
0
  0
LINE
  8
0
 62
7
 10
298.6413864771687
 20
651.244607766206
 30
0
 11
298.6413864771687
 21
657.5954609509106
 31
0
  0
LINE
  8
0
 62
7
 10
304.1413863927262
 20
648.0691812905541
 30
0
 11
298.6413864771687
 21
651.244607766206
 31
0
  0
LINE
  8
0
 62
7
 10
298.6413864771687
 20
644.8937548146021
 30
0
 11
304.1413863927262
 21
648.0691812905541
 31
0
  0
LINE
  8
0
 62
7
 10
298.6413864771687
 20
638.542901630198
 30
0
 11
298.6413864771687
 21
644.8937548146021
 31
0
  0
LINE
  8
0
 62
7
 10
293.1413860960113
 20
641.7183283389502
 30
0
 11
298.6413864771687
 21
638.542901630198
 31
0
  0
LINE
  8
0
 62
7
 10
287.6413861804538
 20
638.542901630198
 30
0
 11
293.1413860960113
 21
641.7183283389502
 31
0
  0
LINE
  8
0
 62
7
 10
287.6413861804538
 20
644.8937548146021
 30
0
 11
287.6413861804538
 21
638.542901630198
 31
0
  0
LINE
  8
0
 62
7
 10
282.1413871960961
 20
648.0691812905541
 30
0
 11
287.6413861804538
 21
644.8937548146021
 31
0
  0
LINE
  8
0
 62
7
 10
287.6413861804538
 20
651.244607766206
 30
0
 11
282.1413871960961
 21
648.0691812905541
 31
0
  0
LINE
  8
0
 62
7
 10
285.6413868038237
 20
661.0595617987945
 30
0
 11
285.6413868038237
 21
652.3993082818345
 31
0
  0
LINE
  8
0
 62
7
 10
285.6413868038237
 20
652.3993082818345
 30
0
 11
278.1413865804359
 21
648.0691812905541
 31
0
  0
LINE
  8
0
 62
7
 10
278.1413865804359
 20
648.0691812905541
 30
0
 11
285.6413868038237
 21
643.7390542992741
 31
0
  0
LINE
  8
0
 62
7
 10
285.6413868038237
 20
643.7390542992741
 30
0
 11
285.6413868038237
 21
635.0788007823137
 31
0
  0
LINE
  8
0
 62
7
 10
285.6413868038237
 20
635.0788007823137
 30
0
 11
293.1413860960113
 21
639.4089273079942
 31
0
  0
LINE
  8
0
 62
7
 10
293.1413860960113
 20
639.4089273079942
 30
0
 11
300.6413863778987
 21
635.0788007823137
 31
0
  0
LINE
  8
0
 62
7
 10
300.6413863778987
 20
635.0788007823137
 30
0
 11
300.6413863778987
 21
643.7390542992741
 31
0
  0
LINE
  8
0
 62
7
 10
300.6413863778987
 20
643.7390542992741
 30
0
 11
308.1413865430861
 21
648.0691812905541
 31
0
  0
LINE
  8
0
 62
7
 10
308.1413865430861
 20
648.0691812905541
 30
0
 11
300.6413863778987
 21
652.3993082818345
 31
0
  0
LINE
  8
0
 62
7
 10
300.6413863778987
 20
652.3993082818345
 30
0
 11
300.6413863778987
 21
661.0595617987945
 31
0
  0
LINE
  8
0
 62
7
 10
300.6413863778987
 20
661.0595617987945
 30
0
 11
293.1413860960113
 21
656.7294352731144
 31
0
  0
LINE
  8
0
 62
7
 10
293.1413860960113
 20
656.7294352731144
 30
0
 11
285.6413868038237
 21
661.0595617987945
 31
0
  0
LINE
  8
0
 62
7
 10
332.4099790097778
 20
673.0537531249327
 30
0
 11
338.0371119061722
 21
673.0537531249327
 31
0
  0
LINE
  8
0
 62
7
 10
331.1530902898651
 20
667.4545505924609
 30
0
 11
332.0077743213735
 21
667.4545505924609
 31
0
  0
LINE
  8
0
 62
7
 10
331.1530902898651
 20
666.2255940991702
 30
0
 11
331.1530902898651
 21
667.4545505924609
 31
0
  0
LINE
  8
0
 62
7
 10
338.0371119061722
 20
666.2255940991702
 30
0
 11
331.1530902898651
 21
666.2255940991702
 31
0
  0
LINE
  8
0
 62
7
 10
338.0371119061722
 20
667.4545505924609
 30
0
 11
338.0371119061722
 21
666.2255940991702
 31
0
  0
LINE
  8
0
 62
7
 10
333.4657635227889
 20
667.4545505924609
 30
0
 11
338.0371119061722
 21
667.4545505924609
 31
0
  0
LINE
  8
0
 62
7
 10
338.0371119061722
 20
668.9963327477428
 30
0
 11
332.8121836981816
 21
668.9963327477428
 31
0
  0
LINE
  8
0
 62
7
 10
338.0371119061722
 20
670.2252892410331
 30
0
 11
338.0371119061722
 21
668.9963327477428
 31
0
  0
LINE
  8
0
 62
7
 10
333.4657635227889
 20
670.2252892410331
 30
0
 11
338.0371119061722
 21
670.2252892410331
 31
0
  0
LINE
  8
0
 62
7
 10
338.0371119061722
 20
671.8247966316424
 30
0
 11
332.8624564901822
 21
671.8247966316424
 31
0
  0
LINE
  8
0
 62
7
 10
338.0371119061722
 20
673.0537531249327
 30
0
 11
338.0371119061722
 21
671.8247966316424
 31
0
  0
LINE
  8
0
 62
7
 10
281.6413861878639
 20
543.1045013636783
 30
0
 11
279.141386734201
 21
543.1045013636783
 31
0
  0
LINE
  8
0
 62
7
 10
279.141386734201
 20
543.1045013636783
 30
0
 11
276.6413872808387
 21
543.1045013636783
 31
0
  0
LINE
  8
0
 62
7
 10
305.7477902267667
 20
555.6880103262608
 30
0
 11
308.4398949830204
 21
555.9116395004392
 31
0
  0
LINE
  8
0
 62
7
 10
317.2491428811006
 20
556.9748224399766
 30
0
 11
319.7402631052516
 21
557.3767216545837
 31
0
  0
LINE
  8
0
 62
7
 10
324.5694667672731
 20
558.4643424981784
 30
0
 11
327.0486642001426
 21
559.192465380944
 31
0
  0
LINE
  8
0
 62
7
 10
335.8639563814625
 20
562.1897296172663
 30
0
 11
338.3733305281319
 21
563.1650255086768
 31
0
  0
LINE
  8
0
 62
7
 10
281.6413861878639
 20
557.5942711551222
 30
0
 11
283.5556917812453
 21
557.232932901012
 31
0
  0
LINE
  8
0
 62
7
 10
262.853750884319
 20
563.5159254995908
 30
0
 11
265.8184113801651
 21
562.3100117891715
 31
0
  0
LINE
  8
0
 62
7
 10
292.2886569106829
 20
740.0958312819696
 30
0
 11
290.0811029870154
 21
739.8421762678893
 31
0
  0
LINE
  8
0
 62
7
 10
428.1413891878863
 20
704.0691824625944
 30
0
 11
426.1413851546565
 21
706.0691790453241
 31
0
  0
LINE
  8
0
 62
7
 10
426.1413851546565
 20
590.0691835357841
 30
0
 11
428.1413891878863
 21
592.069180118214
 31
0
  0
LINE
  8
0
 62
7
 10
158.1413811414361
 20
592.069180118214
 30
0
 11
160.1413851746663
 21
590.0691835357841
 31
0
  0
LINE
  8
0
 62
7
 10
160.1413851746663
 20
706.0691790453241
 30
0
 11
158.1413811414361
 21
704.0691824625944
 31
0
  0
LINE
  8
0
 62
7
 10
410.1413826911164
 20
555.0691800092093
 30
0
 11
426.1413851546565
 21
555.0691800092093
 31
0
  0
LINE
  8
0
 62
7
 10
426.1413851546565
 20
741.0691825718993
 30
0
 11
410.1413826911164
 21
741.0691825718993
 31
0
  0
LINE
  8
0
 62
7
 10
176.1413876385061
 20
741.0691825718993
 30
0
 11
160.1413851746663
 21
741.0691825718993
 31
0
  0
LINE
  8
0
 62
7
 10
160.1413851746663
 20
555.0691800092093
 30
0
 11
176.1413876385061
 21
555.0691800092093
 31
0
  0
LINE
  8
0
 62
7
 10
276.6413872808387
 20
601.0718432238725
 30
0
 11
276.6413872808387
 21
543.1045013636783
 31
0
  0
LINE
  8
0
 62
7
 10
281.6413861878639
 20
543.1045013636783
 30
0
 11
281.6413861878639
 21
598.7868321341741
 31
0
  0
LINE
  8
0
 62
2
  6
DASHDOT
 10
443.1413891878863
 20
295.8908250668458
 30
0
 11
143.1413811414361
 21
295.8908250668458
 31
0
  0
LINE
  8
0
 62
2
  6
DASHDOT
 10
301.141386396431
 20
477.2408304713588
 30
0
 11
301.141386396431
 21
180.8908245700457
 31
0
  0
LINE
  8
0
 62
7
 10
202.268994009228
 20
352.7828283656234
 30
0
 11
202.2894160503258
 21
354.156551501176
 31
0
  0
LINE
  8
0
 62
7
 10
179.141386237701
 20
241.8289471314504
 30
0
 11
179.141386237701
 21
216.8856515127621
 31
0
  0
LINE
  8
0
 62
7
 10
407.1413840916214
 20
346.180399577819
 30
0
 11
407.1413840916214
 21
364.3754063933514
 31
0
  0
LINE
  8
0
 62
7
 10
407.1413840916214
 20
226.9637984665354
 30
0
 11
407.1413840916214
 21
248.224164099114
 31
0
  0
LINE
  8
0
 62
7
 10
179.141386237701
 20
364.8354722899806
 30
0
 11
179.141386237701
 21
342.8368882380367
 31
0
  0
LINE
  8
0
 62
7
 10
384.1413824129265
 20
398.8908241628408
 30
0
 11
383.2868082774164
 21
398.8908241628408
 31
0
  0
LINE
  8
0
 62
7
 10
218.9959645154456
 20
398.8908241628408
 30
0
 11
218.1413903802361
 21
398.8908241628408
 31
0
  0
LINE
  8
0
 62
7
 10
218.9959645154456
 20
398.8908241628408
 30
0
 11
218.9959645154456
 21
411.5908229517666
 31
0
  0
LINE
  8
0
 62
7
 10
383.2868082774164
 20
398.8908241628408
 30
0
 11
383.2868082774164
 21
411.5908229517666
 31
0
  0
LINE
  8
0
 62
7
 10
360.1413861679664
 20
431.7408211184764
 30
0
 11
360.1413861679664
 21
434.7408271681709
 31
0
  0
LINE
  8
0
 62
7
 10
358.0887288820597
 20
432.7408231349412
 30
0
 11
358.0887288820597
 21
431.7408211184764
 31
0
  0
LINE
  8
0
 62
7
 10
239.4416836736179
 20
425.5908288325762
 30
0
 11
239.4416836736179
 21
426.5908308493411
 31
0
  0
LINE
  8
0
 62
7
 10
239.4416836736179
 20
426.5908308493411
 30
0
 11
236.9933260562423
 21
426.5908308493411
 31
0
  0
LINE
  8
0
 62
7
 10
365.2894467366202
 20
426.5908308493411
 30
0
 11
362.8410891192445
 21
426.5908308493411
 31
0
  0
LINE
  8
0
 62
7
 10
362.8410891192445
 20
426.5908308493411
 30
0
 11
362.8410891192445
 21
425.5908288325762
 31
0
  0
LINE
  8
0
 62
7
 10
238.5503111211735
 20
425.5908288325762
 30
0
 11
239.4416836736179
 21
425.5908288325762
 31
0
  0
LINE
  8
0
 62
7
 10
362.8410891192445
 20
425.5908288325762
 30
0
 11
363.7324616719891
 21
425.5908288325762
 31
0
  0
LINE
  8
0
 62
7
 10
236.9933260562423
 20
425.3625281442444
 30
0
 11
238.5503111211735
 21
425.5908288325762
 31
0
  0
LINE
  8
0
 62
7
 10
363.7324616719891
 20
425.5908288325762
 30
0
 11
365.2894467366202
 21
425.3625281442444
 31
0
  0
LINE
  8
0
 62
7
 10
365.2894467366202
 20
426.5908308493411
 30
0
 11
365.2894467366202
 21
425.3625281442444
 31
0
  0
LINE
  8
0
 62
7
 10
236.9933260562423
 20
426.5908308493411
 30
0
 11
236.9933260562423
 21
425.3625281442444
 31
0
  0
LINE
  8
0
 62
7
 10
352.8645159298619
 20
452.2408252062085
 30
0
 11
352.8645159298619
 21
454.2408292394387
 31
0
  0
LINE
  8
0
 62
7
 10
251.1295993297983
 20
445.7408195487863
 30
0
 11
251.1295993297983
 21
435.7408291849363
 31
0
  0
LINE
  8
0
 62
7
 10
251.1295993297983
 20
435.7408291849363
 30
0
 11
251.1027623386651
 21
434.7408271681709
 31
0
  0
LINE
  8
0
 62
7
 10
202.3820491179051
 20
224.7612056983183
 30
0
 11
179.5402009120392
 21
217.0397593203309
 31
0
  0
LINE
  8
0
 62
7
 10
404.7584723735956
 20
228.692683325159
 30
0
 11
379.294206087983
 21
241.9470984372768
 31
0
  0
LINE
  8
0
 62
7
 10
405.332949384888
 20
362.9700406423138
 30
0
 11
389.1329658895349
 21
353.1297050430774
 31
0
  0
LINE
  8
0
 62
7
 10
181.5471414357
 20
363.0947335578751
 30
0
 11
198.3096512111645
 21
354.4244296735145
 31
0
  0
LINE
  8
0
 62
7
 10
335.6296393491905
 20
201.7401337778327
 30
0
 11
336.1413861979065
 21
195.8908245700457
 31
0
  0
LINE
  8
0
 62
7
 10
336.1413861979065
 20
195.8908245700457
 30
0
 11
351.1413866449814
 21
195.8908245700457
 31
0
  0
LINE
  8
0
 62
7
 10
352.1866732898964
 20
207.8384935403454
 30
0
 11
351.1413866449814
 21
195.8908245700457
 31
0
  0
LINE
  8
0
 62
7
 10
266.365991795725
 20
198.4580711008401
 30
0
 11
266.1413865952561
 21
195.8908245700457
 31
0
  0
LINE
  8
0
 62
7
 10
250.6072167776881
 20
201.9964262970864
 30
0
 11
251.1413861481813
 21
195.8908245700457
 31
0
  0
LINE
  8
0
 62
7
 10
251.1413861481813
 20
195.8908245700457
 30
0
 11
266.1413865952561
 21
195.8908245700457
 31
0
  0
LINE
  8
0
 62
7
 10
389.1329658895349
 20
353.1297050430774
 30
0
 11
387.8811193499721
 21
352.5867812403715
 31
0
  0
LINE
  8
0
 62
7
 10
203.0746774350239
 20
224.9953401910919
 30
0
 11
202.3820491179051
 21
224.7612056983183
 31
0
  0
LINE
  8
0
 62
7
 10
384.1413824129265
 20
398.8908241628408
 30
0
 11
384.1413824129265
 21
411.5908229517666
 31
0
  0
LINE
  8
0
 62
7
 10
218.1413903802361
 20
398.8908241628408
 30
0
 11
218.1413903802361
 21
411.5908229517666
 31
0
  0
LINE
  8
0
 62
7
 10
297.6018917272961
 20
207.772302582903
 30
0
 11
298.6413864771687
 21
195.8908245700457
 31
0
  0
LINE
  8
0
 62
7
 10
298.6413864771687
 20
195.8908245700457
 30
0
 11
303.6413863156938
 21
195.8908245700457
 31
0
  0
LINE
  8
0
 62
7
 10
304.686672029409
 20
207.8384935403454
 30
0
 11
303.6413863156938
 21
195.8908245700457
 31
0
  0
LINE
  8
0
 62
7
 10
227.8708278134739
 20
396.8908275801107
 30
0
 11
231.3831953848787
 21
396.8908275801107
 31
0
  0
LINE
  8
0
 62
7
 10
221.2048381232009
 20
396.8908275801107
 30
0
 11
224.3273391675787
 21
396.8908275801107
 31
0
  0
LINE
  8
0
 62
7
 10
377.9554336255835
 20
396.8908275801107
 30
0
 11
381.0779346699617
 21
396.8908275801107
 31
0
  0
LINE
  8
0
 62
7
 10
370.8995774082839
 20
396.8908275801107
 30
0
 11
374.4119449793882
 21
396.8908275801107
 31
0
  0
LINE
  8
0
 62
7
 10
354.8837648126007
 20
396.8908275801107
 30
0
 11
370.8995774082839
 21
396.8908275801107
 31
0
  0
LINE
  8
0
 62
7
 10
231.3831953848787
 20
396.8908275801107
 30
0
 11
247.3990079802618
 21
396.8908275801107
 31
0
  0
LINE
  8
0
 62
7
 10
158.1413811414361
 20
351.8908262388857
 30
0
 11
158.1413811414361
 21
239.8908238945058
 31
0
  0
LINE
  8
0
 62
7
 10
428.1413891878863
 20
351.8908262388857
 30
0
 11
428.1413891878863
 21
239.8908238945058
 31
0
  0
LINE
  8
0
 62
7
 10
301.1413863949313
 20
207.7726006062001
 30
0
 11
304.686672029409
 21
207.8384935403454
 31
0
  0
LINE
  8
0
 62
7
 10
349.5460161892318
 20
206.610250439848
 30
0
 11
352.1866732898964
 21
207.8384935403454
 31
0
  0
LINE
  8
0
 62
7
 10
292.141386873446
 20
236.3908242870778
 30
0
 11
292.141386873446
 21
248.3908261346581
 31
0
  0
LINE
  8
0
 62
7
 10
310.1413859197166
 20
248.3908261346581
 30
0
 11
310.1413859197166
 21
236.3908242870778
 31
0
  0
LINE
  8
0
 62
7
 10
292.141386873446
 20
248.3908261346581
 30
0
 11
310.1413859197166
 21
248.3908261346581
 31
0
  0
LINE
  8
0
 62
7
 10
310.1413859197166
 20
236.3908242870778
 30
0
 11
292.141386873446
 21
236.3908242870778
 31
0
  0
LINE
  8
0
 62
7
 10
295.9424504701826
 20
238.9653090567006
 30
0
 11
295.0925548337266
 21
238.9653090567006
 31
0
  0
LINE
  8
0
 62
7
 10
295.9424504701826
 20
245.9653082718554
 30
0
 11
295.9424504701826
 21
238.9653090567006
 31
0
  0
LINE
  8
0
 62
7
 10
295.5115177400642
 20
245.9653082718554
 30
0
 11
295.9424504701826
 21
245.9653082718554
 31
0
  0
LINE
  8
0
 62
7
 10
294.0391633537918
 20
244.5355157926604
 30
0
 11
294.0391633537918
 21
244.9597965511455
 31
0
  0
LINE
  8
0
 62
7
 10
295.0925548337266
 20
244.5355157926604
 30
0
 11
294.0391633537918
 21
244.5355157926604
 31
0
  0
LINE
  8
0
 62
7
 10
295.0925548337266
 20
238.9653090567006
 30
0
 11
295.0925548337266
 21
244.5355157926604
 31
0
  0
LINE
  8
0
 62
7
 10
301.4583918920819
 20
238.9653090567006
 30
0
 11
300.6084964302256
 21
238.9653090567006
 31
0
  0
LINE
  8
0
 62
7
 10
301.4583918920819
 20
245.9653082718554
 30
0
 11
301.4583918920819
 21
238.9653090567006
 31
0
  0
LINE
  8
0
 62
7
 10
301.0274589804633
 20
245.9653082718554
 30
0
 11
301.4583918920819
 21
245.9653082718554
 31
0
  0
LINE
  8
0
 62
7
 10
299.5551048341911
 20
244.5355157926604
 30
0
 11
299.5551048341911
 21
244.9597965511455
 31
0
  0
LINE
  8
0
 62
7
 10
300.6084964302256
 20
244.5355157926604
 30
0
 11
299.5551048341911
 21
244.5355157926604
 31
0
  0
LINE
  8
0
 62
7
 10
300.6084964302256
 20
238.9653090567006
 30
0
 11
300.6084964302256
 21
244.5355157926604
 31
0
  0
LINE
  8
0
 62
7
 10
305.4301570780224
 20
245.2856588660077
 30
0
 11
305.4301570780224
 21
239.6449584625482
 31
0
  0
LINE
  8
0
 62
7
 10
305.8251789411977
 20
245.2856588660077
 30
0
 11
305.4301570780224
 21
245.2856588660077
 31
0
  0
LINE
  8
0
 62
7
 10
304.5802614415659
 20
245.9653082718554
 30
0
 11
305.8251789411977
 21
245.9653082718554
 31
0
  0
LINE
  8
0
 62
7
 10
304.5802614415659
 20
238.9653090567006
 30
0
 11
304.5802614415659
 21
245.9653082718554
 31
0
  0
LINE
  8
0
 62
7
 10
305.8251789411977
 20
238.9653090567006
 30
0
 11
304.5802614415659
 21
238.9653090567006
 31
0
  0
LINE
  8
0
 62
7
 10
305.4301570780224
 20
239.6449584625482
 30
0
 11
305.8251789411977
 21
239.6449584625482
 31
0
  0
LINE
  8
0
 62
7
 10
301.141386396431
 20
207.7726676612995
 30
0
 11
297.6018917272961
 21
207.772302582903
 31
0
  0
LINE
  8
0
 62
7
 10
247.3990079802618
 20
396.8908275801107
 30
0
 11
279.0552729245567
 21
396.8908275801107
 31
0
  0
LINE
  8
0
 62
7
 10
323.2274998683058
 20
396.8908275801107
 30
0
 11
354.8837648126007
 21
396.8908275801107
 31
0
  0
LINE
  8
0
 62
7
 10
279.0552729245567
 20
396.8908275801107
 30
0
 11
292.2927836008419
 21
396.8908275801107
 31
0
  0
LINE
  8
0
 62
7
 10
309.9899891920206
 20
396.8908275801107
 30
0
 11
323.2274998683058
 21
396.8908275801107
 31
0
  0
LINE
  8
0
 62
7
 10
271.8251215518883
 20
331.0966024514767
 30
0
 11
274.8077360839559
 21
331.0966024514767
 31
0
  0
LINE
  8
0
 62
7
 10
324.5704185790639
 20
328.0133771424083
 30
0
 11
324.5704185790639
 21
316.0717096150486
 31
0
  0
LINE
  8
0
 62
7
 10
335.8499157624021
 20
325.0481504025677
 30
0
 11
335.8499157624021
 21
316.0717096150486
 31
0
  0
LINE
  8
0
 62
7
 10
335.8499157624021
 20
316.0717096150486
 30
0
 11
338.3274014243882
 21
316.0717096150486
 31
0
  0
LINE
  8
0
 62
7
 10
338.3274014243882
 20
316.0717096150486
 30
0
 11
338.3274014243882
 21
325.8330634725697
 31
0
  0
LINE
  8
0
 62
7
 10
327.0479042407499
 20
326.5307637726381
 30
0
 11
327.0479042407499
 21
328.0133771424083
 31
0
  0
LINE
  8
0
 62
7
 10
327.0479042407499
 20
328.0133771424083
 30
0
 11
324.5704185790639
 21
328.0133771424083
 31
0
  0
LINE
  8
0
 62
7
 10
324.5704185790639
 20
316.0717096150486
 30
0
 11
327.0479042407499
 21
316.0717096150486
 31
0
  0
LINE
  8
0
 62
7
 10
327.0479042407499
 20
316.0717096150486
 30
0
 11
327.0479042407499
 21
324.001599021565
 31
0
  0
LINE
  8
0
 62
7
 10
330.1520265656106
 20
325.1353613101013
 30
0
 11
330.1520265656106
 21
316.0717096150486
 31
0
  0
LINE
  8
0
 62
7
 10
330.1520265656106
 20
316.0717096150486
 30
0
 11
332.629510364897
 21
316.0717096150486
 31
0
  0
LINE
  8
0
 62
7
 10
332.629510364897
 20
316.0717096150486
 30
0
 11
332.629510364897
 21
324.001599021565
 31
0
  0
LINE
  8
0
 62
7
 10
282.9515707727471
 20
321.5929902511946
 30
0
 11
279.9689562406791
 21
321.5929902511946
 31
0
  0
LINE
  8
0
 62
7
 10
283.4702857768937
 20
327.1951171365379
 30
0
 11
283.9890026434402
 21
333.7049985385618
 31
0
  0
LINE
  8
0
 62
7
 10
283.9890026434402
 20
333.7049985385618
 30
0
 11
292.6774878068197
 21
333.7049985385618
 31
0
  0
LINE
  8
0
 62
7
 10
292.6774878068197
 20
333.7049985385618
 30
0
 11
292.6774878068197
 21
335.5983102587518
 31
0
  0
LINE
  8
0
 62
7
 10
292.6774878068197
 20
335.5983102587518
 30
0
 11
281.3583740239753
 21
335.5983102587518
 31
0
  0
LINE
  8
0
 62
7
 10
280.5803005870059
 20
324.8942456232965
 30
0
 11
283.3406084228816
 21
324.8942456232965
 31
0
  0
LINE
  8
0
 62
7
 10
307.8073779494046
 20
396.8908275801107
 30
0
 11
309.9899891920206
 21
396.8908275801107
 31
0
  0
LINE
  8
0
 62
7
 10
298.0188874478533
 20
396.8908275801107
 30
0
 11
304.2638853453093
 21
396.8908275801107
 31
0
  0
LINE
  8
0
 62
7
 10
292.2927836008419
 20
396.8908275801107
 30
0
 11
294.4753948434579
 21
396.8908275801107
 31
0
  0
LINE
  8
0
 62
7
 10
160.1413851746663
 20
202.8908237855006
 30
0
 11
160.1413851746663
 21
295.8908250668458
 31
0
  0
LINE
  8
0
 62
7
 10
160.1413851746663
 20
295.8908250668458
 30
0
 11
160.1413851746663
 21
388.8908263481906
 31
0
  0
LINE
  8
0
 62
7
 10
176.1413876385061
 20
202.8908237855006
 30
0
 11
176.1413876385061
 21
295.8908250668458
 31
0
  0
LINE
  8
0
 62
7
 10
176.1413876385061
 20
295.8908250668458
 30
0
 11
176.1413876385061
 21
388.8908263481906
 31
0
  0
LINE
  8
0
 62
7
 10
410.1413826911164
 20
202.8908237855006
 30
0
 11
410.1413826911164
 21
295.8908250668458
 31
0
  0
LINE
  8
0
 62
7
 10
410.1413826911164
 20
295.8908250668458
 30
0
 11
410.1413826911164
 21
388.8908263481906
 31
0
  0
LINE
  8
0
 62
7
 10
426.1413851546565
 20
202.8908237855006
 30
0
 11
426.1413851546565
 21
295.8908250668458
 31
0
  0
LINE
  8
0
 62
7
 10
426.1413851546565
 20
295.8908250668458
 30
0
 11
426.1413851546565
 21
388.8908263481906
 31
0
  0
LINE
  8
0
 62
7
 10
305.9650612622079
 20
328.0133771424083
 30
0
 11
305.9650612622079
 21
316.0717096150486
 31
0
  0
LINE
  8
0
 62
7
 10
317.2445589114461
 20
325.0481504025677
 30
0
 11
317.2445589114461
 21
316.0717096150486
 31
0
  0
LINE
  8
0
 62
7
 10
317.2445589114461
 20
316.0717096150486
 30
0
 11
319.7220427107325
 21
316.0717096150486
 31
0
  0
LINE
  8
0
 62
7
 10
319.7220427107325
 20
316.0717096150486
 30
0
 11
319.7220427107325
 21
325.8330634725697
 31
0
  0
LINE
  8
0
 62
7
 10
308.4425455270941
 20
326.5307637726381
 30
0
 11
308.4425455270941
 21
328.0133771424083
 31
0
  0
LINE
  8
0
 62
7
 10
308.4425455270941
 20
328.0133771424083
 30
0
 11
305.9650612622079
 21
328.0133771424083
 31
0
  0
LINE
  8
0
 62
7
 10
305.9650612622079
 20
316.0717096150486
 30
0
 11
308.4425455270941
 21
316.0717096150486
 31
0
  0
LINE
  8
0
 62
7
 10
308.4425455270941
 20
316.0717096150486
 30
0
 11
308.4425455270941
 21
324.001599021565
 31
0
  0
LINE
  8
0
 62
7
 10
311.5466687831547
 20
325.1353613101013
 30
0
 11
311.5466687831547
 21
316.0717096150486
 31
0
  0
LINE
  8
0
 62
7
 10
311.5466687831547
 20
316.0717096150486
 30
0
 11
314.0241525824411
 21
316.0717096150486
 31
0
  0
LINE
  8
0
 62
7
 10
314.0241525824411
 20
316.0717096150486
 30
0
 11
314.0241525824411
 21
324.001599021565
 31
0
  0
LINE
  8
0
 62
7
 10
276.1413862723064
 20
348.8908239142909
 30
0
 11
308.1413865430861
 21
348.8908239142909
 31
0
  0
LINE
  8
0
 62
7
 10
308.1413865430861
 20
352.8908245302508
 30
0
 11
276.1413862723064
 21
352.8908245302508
 31
0
  0
LINE
  8
0
 62
7
 10
276.1413862723064
 20
352.8908245302508
 30
0
 11
276.1413862723064
 21
348.8908239142909
 31
0
  0
LINE
  8
0
 62
7
 10
308.1413865430861
 20
348.8908239142909
 30
0
 11
308.1413865430861
 21
345.890825315096
 31
0
  0
LINE
  8
0
 62
7
 10
308.1413865430861
 20
355.8908231297458
 30
0
 11
308.1413865430861
 21
352.8908245302508
 31
0
  0
LINE
  8
0
 62
7
 10
382.5129909845043
 20
354.6020738647492
 30
0
 11
381.050442027635
 21
356.9268896812526
 31
0
  0
LINE
  8
0
 62
7
 10
269.8664905920475
 20
335.5861918893723
 30
0
 11
269.5061209134276
 21
335.5861918893723
 31
0
  0
LINE
  8
0
 62
7
 10
282.6413863419286
 20
448.6289923849921
 30
0
 11
282.6413863419286
 21
445.7408195487863
 31
0
  0
LINE
  8
0
 62
7
 10
276.1413862723064
 20
445.7408195487863
 30
0
 11
283.3692447290976
 21
445.7408195487863
 31
0
  0
LINE
  8
0
 62
7
 10
357.663531702184
 20
434.7408271681709
 30
0
 11
360.1413861679664
 21
434.7408271681709
 31
0
  0
LINE
  8
0
 62
7
 10
360.1413861679664
 20
434.7408271681709
 30
0
 11
360.3197865931941
 21
434.7408271681709
 31
0
  0
LINE
  8
0
 62
7
 10
246.882746079991
 20
431.7408211184764
 30
0
 11
246.882746079991
 21
432.7408231349412
 31
0
  0
LINE
  8
0
 62
7
 10
352.9873126729419
 20
434.7408271681709
 30
0
 11
357.663531702184
 21
434.7408271681709
 31
0
  0
LINE
  8
0
 62
7
 10
246.8852233980658
 20
431.7408211184764
 30
0
 11
246.8852233980658
 21
432.7408231349412
 31
0
  0
LINE
  8
0
 62
7
 10
219.0039440872668
 20
411.5908229517666
 30
0
 11
218.1413903802361
 21
411.5908229517666
 31
0
  0
LINE
  8
0
 62
7
 10
384.1413824129265
 20
411.5908229517666
 30
0
 11
383.2788287055957
 21
411.5908229517666
 31
0
  0
LINE
  8
0
 62
7
 10
241.1749233966978
 20
428.5908199812714
 30
0
 11
247.1216563951168
 21
428.5908199812714
 31
0
  0
LINE
  8
0
 62
7
 10
355.1611163980454
 20
428.5908199812714
 30
0
 11
361.1078493964644
 21
428.5908199812714
 31
0
  0
LINE
  8
0
 62
7
 10
285.7633667768116
 20
436.2408227426689
 30
0
 11
276.1413862723064
 21
436.2408227426689
 31
0
  0
LINE
  8
0
 62
7
 10
383.2788287055957
 20
411.5908229517666
 30
0
 11
370.8216070829583
 21
411.5908229517666
 31
0
  0
LINE
  8
0
 62
7
 10
383.2894457828904
 20
430.5908240148017
 30
0
 11
359.2894420874302
 21
430.5908240148017
 31
0
  0
LINE
  8
0
 62
7
 10
231.4611657099042
 20
411.5908229517666
 30
0
 11
219.0039440872668
 21
411.5908229517666
 31
0
  0
LINE
  8
0
 62
7
 10
242.9933307054323
 20
430.5908240148017
 30
0
 11
218.9933270099721
 21
430.5908240148017
 31
0
  0
LINE
  8
0
 62
7
 10
312.1110409443479
 20
434.7408271681709
 30
0
 11
352.9873126729419
 21
434.7408271681709
 31
0
  0
LINE
  8
0
 62
7
 10
248.911125649239
 20
434.7408271681709
 30
0
 11
290.1717318485146
 21
434.7408271681709
 31
0
  0
LINE
  8
0
 62
7
 10
247.6360854526063
 20
432.7408231349412
 30
0
 11
247.6360854526063
 21
431.7408211184764
 31
0
  0
LINE
  8
0
 62
7
 10
246.020997035652
 20
411.5908229517666
 30
0
 11
231.4611657099042
 21
411.5908229517666
 31
0
  0
LINE
  8
0
 62
7
 10
239.5503131376383
 20
423.5908247993464
 30
0
 11
247.3990079802618
 21
423.5908247993464
 31
0
  0
LINE
  8
0
 62
7
 10
370.8216070829583
 20
411.5908229517666
 30
0
 11
356.2617757575106
 21
411.5908229517666
 31
0
  0
LINE
  8
0
 62
7
 10
354.8837648126007
 20
423.5908247993464
 30
0
 11
362.7324596552242
 21
423.5908247993464
 31
0
  0
LINE
  8
0
 62
7
 10
312.1110409443479
 20
431.7408211184764
 30
0
 11
360.3197865931941
 21
431.7408211184764
 31
0
  0
LINE
  8
0
 62
7
 10
241.9629861996684
 20
431.7408211184764
 30
0
 11
290.1717318485146
 21
431.7408211184764
 31
0
  0
LINE
  8
0
 62
7
 10
316.6538862008149
 20
428.5908199812714
 30
0
 11
355.1611163980454
 21
428.5908199812714
 31
0
  0
LINE
  8
0
 62
7
 10
247.1216563951168
 20
428.5908199812714
 30
0
 11
285.6288865923477
 21
428.5908199812714
 31
0
  0
LINE
  8
0
 62
7
 10
356.2617757575106
 20
411.5908229517666
 30
0
 11
323.7938091807798
 21
411.5908229517666
 31
0
  0
LINE
  8
0
 62
7
 10
323.2274998683058
 20
423.5908247993464
 30
0
 11
354.8837648126007
 21
423.5908247993464
 31
0
  0
LINE
  8
0
 62
7
 10
278.4889636123828
 20
411.5908229517666
 30
0
 11
246.020997035652
 21
411.5908229517666
 31
0
  0
LINE
  8
0
 62
7
 10
247.3990079802618
 20
423.5908247993464
 30
0
 11
279.0552729245567
 21
423.5908247993464
 31
0
  0
LINE
  8
0
 62
7
 10
313.1413863816113
 20
428.5908199812714
 30
0
 11
316.6538862008149
 21
428.5908199812714
 31
0
  0
LINE
  8
0
 62
7
 10
285.6288865923477
 20
428.5908199812714
 30
0
 11
289.1413864115514
 21
428.5908199812714
 31
0
  0
LINE
  8
0
 62
7
 10
279.0552729245567
 20
423.5908247993464
 30
0
 11
287.1413861034209
 21
423.5908247993464
 31
0
  0
LINE
  8
0
 62
7
 10
290.5230630417243
 20
411.5908229517666
 30
0
 11
278.4889636123828
 21
411.5908229517666
 31
0
  0
LINE
  8
0
 62
7
 10
323.7938091807798
 20
411.5908229517666
 30
0
 11
311.7597097511382
 21
411.5908229517666
 31
0
  0
LINE
  8
0
 62
7
 10
315.1413866894411
 20
423.5908247993464
 30
0
 11
323.2274998683058
 21
423.5908247993464
 31
0
  0
LINE
  8
0
 62
7
 10
313.1413863816113
 20
430.5908240148017
 30
0
 11
289.1413864115514
 21
430.5908240148017
 31
0
  0
LINE
  8
0
 62
7
 10
289.1413864115514
 20
426.5908308493411
 30
0
 11
289.1413864115514
 21
425.3625281442444
 31
0
  0
LINE
  8
0
 62
7
 10
311.7597097511382
 20
411.5908229517666
 30
0
 11
290.5230630417243
 21
411.5908229517666
 31
0
  0
LINE
  8
0
 62
7
 10
313.1413863816113
 20
426.5908308493411
 30
0
 11
313.1413863816113
 21
425.3625281442444
 31
0
  0
LINE
  8
0
 62
7
 10
355.1413872606415
 20
434.7408271681709
 30
0
 11
357.663531702184
 21
434.7408271681709
 31
0
  0
LINE
  8
0
 62
7
 10
380.7894407414281
 20
438.5908252464213
 30
0
 11
379.5166878731727
 21
438.5908252464213
 31
0
  0
LINE
  8
0
 62
7
 10
363.0622037228479
 20
438.5908252464213
 30
0
 11
361.7894434037928
 21
438.5908252464213
 31
0
  0
LINE
  8
0
 62
7
 10
377.2894411337004
 20
385.5908226735763
 30
0
 11
371.2894439353106
 21
385.5908226735763
 31
0
  0
LINE
  8
0
 62
7
 10
371.2894439353106
 20
385.5908226735763
 30
0
 11
365.2894467366202
 21
385.5908226735763
 31
0
  0
LINE
  8
0
 62
7
 10
382.2590975520272
 20
437.7423233343514
 30
0
 11
382.2590975520272
 21
430.5908240148017
 31
0
  0
LINE
  8
0
 62
7
 10
360.3197865931941
 20
437.7423233343514
 30
0
 11
360.3197865931941
 21
430.5908240148017
 31
0
  0
LINE
  8
0
 62
7
 10
376.7742707435184
 20
437.7423233343514
 30
0
 11
376.7742707435184
 21
430.5908240148017
 31
0
  0
LINE
  8
0
 62
7
 10
365.8046171268022
 20
437.7423233343514
 30
0
 11
365.8046171268022
 21
430.5908240148017
 31
0
  0
LINE
  8
0
 62
7
 10
371.2894439353106
 20
438.5908252464213
 30
0
 11
363.0622037228479
 21
438.5908252464213
 31
0
  0
LINE
  8
0
 62
7
 10
379.5166878731727
 20
438.5908252464213
 30
0
 11
371.2894439353106
 21
438.5908252464213
 31
0
  0
LINE
  8
0
 62
7
 10
292.914145252769
 20
438.5908252464213
 30
0
 11
291.6413867964136
 21
438.5908252464213
 31
0
  0
LINE
  8
0
 62
7
 10
310.641385996749
 20
438.5908252464213
 30
0
 11
309.3686275403936
 21
438.5908252464213
 31
0
  0
LINE
  8
0
 62
7
 10
307.1413863890214
 20
385.5908226735763
 30
0
 11
295.9452341932549
 21
385.5908226735763
 31
0
  0
LINE
  8
0
 62
7
 10
295.9452341932549
 20
385.5908226735763
 30
0
 11
295.1413864038411
 21
385.5908226735763
 31
0
  0
LINE
  8
0
 62
7
 10
290.1717318485146
 20
437.7423233343514
 30
0
 11
290.1717318485146
 21
430.5908240148017
 31
0
  0
LINE
  8
0
 62
7
 10
312.1110409443479
 20
437.7423233343514
 30
0
 11
312.1110409443479
 21
430.5908240148017
 31
0
  0
LINE
  8
0
 62
7
 10
309.3686275403936
 20
438.5908252464213
 30
0
 11
301.141386396431
 21
438.5908252464213
 31
0
  0
LINE
  8
0
 62
7
 10
301.141386396431
 20
438.5908252464213
 30
0
 11
292.914145252769
 21
438.5908252464213
 31
0
  0
LINE
  8
0
 62
7
 10
306.6262136705398
 20
437.7423233343514
 30
0
 11
306.6262136705398
 21
430.5908240148017
 31
0
  0
LINE
  8
0
 62
7
 10
295.6565591226229
 20
437.7423233343514
 30
0
 11
295.6565591226229
 21
430.5908240148017
 31
0
  0
LINE
  8
0
 62
7
 10
222.7660849199899
 20
438.5908252464213
 30
0
 11
221.4933320517346
 21
438.5908252464213
 31
0
  0
LINE
  8
0
 62
7
 10
240.4933293893698
 20
438.5908252464213
 30
0
 11
239.2205690703142
 21
438.5908252464213
 31
0
  0
LINE
  8
0
 62
7
 10
236.9933260562423
 20
385.5908226735763
 30
0
 11
224.9933316591616
 21
385.5908226735763
 31
0
  0
LINE
  8
0
 62
7
 10
220.0236752411354
 20
437.7423233343514
 30
0
 11
220.0236752411354
 21
430.5908240148017
 31
0
  0
LINE
  8
0
 62
7
 10
241.9629861996684
 20
437.7423233343514
 30
0
 11
241.9629861996684
 21
430.5908240148017
 31
0
  0
LINE
  8
0
 62
7
 10
230.993328857852
 20
438.5908252464213
 30
0
 11
222.7660849199899
 21
438.5908252464213
 31
0
  0
LINE
  8
0
 62
7
 10
239.2205690703142
 20
438.5908252464213
 30
0
 11
230.993328857852
 21
438.5908252464213
 31
0
  0
LINE
  8
0
 62
7
 10
236.4781556660603
 20
437.7423233343514
 30
0
 11
236.4781556660603
 21
430.5908240148017
 31
0
  0
LINE
  8
0
 62
7
 10
225.5085020493436
 20
437.7423233343514
 30
0
 11
225.5085020493436
 21
430.5908240148017
 31
0
  0
LINE
  8
0
 62
7
 10
291.6413867964136
 20
386.8908223149609
 30
0
 11
292.914145252769
 21
386.8908223149609
 31
0
  0
LINE
  8
0
 62
7
 10
310.641385996749
 20
386.8908223149609
 30
0
 11
309.3686275403936
 21
386.8908223149609
 31
0
  0
LINE
  8
0
 62
7
 10
295.6565591226229
 20
396.8908275801107
 30
0
 11
294.4753948434579
 21
396.8908275801107
 31
0
  0
LINE
  8
0
 62
7
 10
290.1717318485146
 20
387.739331677831
 30
0
 11
290.1717318485146
 21
396.8908275801107
 31
0
  0
LINE
  8
0
 62
7
 10
307.8073779494046
 20
396.8908275801107
 30
0
 11
306.6262136705398
 21
396.8908275801107
 31
0
  0
LINE
  8
0
 62
7
 10
312.1110409443479
 20
387.739331677831
 30
0
 11
312.1110409443479
 21
396.8908275801107
 31
0
  0
LINE
  8
0
 62
7
 10
301.141386396431
 20
386.8908223149609
 30
0
 11
292.914145252769
 21
386.8908223149609
 31
0
  0
LINE
  8
0
 62
7
 10
309.3686275403936
 20
386.8908223149609
 30
0
 11
301.141386396431
 21
386.8908223149609
 31
0
  0
LINE
  8
0
 62
7
 10
295.6565591226229
 20
387.739331677831
 30
0
 11
295.6565591226229
 21
396.8908275801107
 31
0
  0
LINE
  8
0
 62
7
 10
306.6262136705398
 20
387.739331677831
 30
0
 11
306.6262136705398
 21
396.8908275801107
 31
0
  0
LINE
  8
0
 62
7
 10
298.0188874478533
 20
396.8908275801107
 30
0
 11
295.6565591226229
 21
396.8908275801107
 31
0
  0
LINE
  8
0
 62
7
 10
306.6262136705398
 20
396.8908275801107
 30
0
 11
304.2638853453093
 21
396.8908275801107
 31
0
  0
LINE
  8
0
 62
7
 10
222.7660849199899
 20
386.8908223149609
 30
0
 11
221.4933320517346
 21
386.8908223149609
 31
0
  0
LINE
  8
0
 62
7
 10
240.4933293893698
 20
386.8908223149609
 30
0
 11
239.2205690703142
 21
386.8908223149609
 31
0
  0
LINE
  8
0
 62
7
 10
221.2048381232009
 20
396.8908275801107
 30
0
 11
220.0236752411354
 21
396.8908275801107
 31
0
  0
LINE
  8
0
 62
7
 10
225.5085020493436
 20
396.8908275801107
 30
0
 11
224.3273391675787
 21
396.8908275801107
 31
0
  0
LINE
  8
0
 62
7
 10
220.0236752411354
 20
387.739331677831
 30
0
 11
220.0236752411354
 21
396.8908275801107
 31
0
  0
LINE
  8
0
 62
7
 10
230.993328857852
 20
386.8908223149609
 30
0
 11
222.7660849199899
 21
386.8908223149609
 31
0
  0
LINE
  8
0
 62
7
 10
239.2205690703142
 20
386.8908223149609
 30
0
 11
230.993328857852
 21
386.8908223149609
 31
0
  0
LINE
  8
0
 62
7
 10
225.5085020493436
 20
387.739331677831
 30
0
 11
225.5085020493436
 21
396.8908275801107
 31
0
  0
LINE
  8
0
 62
7
 10
227.8708278134739
 20
396.8908275801107
 30
0
 11
225.5085020493436
 21
396.8908275801107
 31
0
  0
LINE
  8
0
 62
7
 10
236.4781556660603
 20
387.739331677831
 30
0
 11
236.4781556660603
 21
396.8908275801107
 31
0
  0
LINE
  8
0
 62
7
 10
241.9629861996684
 20
387.739331677831
 30
0
 11
241.9629861996684
 21
396.8908275801107
 31
0
  0
LINE
  8
0
 62
7
 10
363.0622037228479
 20
386.8908223149609
 30
0
 11
361.7894434037928
 21
386.8908223149609
 31
0
  0
LINE
  8
0
 62
7
 10
380.7894407414281
 20
386.8908223149609
 30
0
 11
379.5166878731727
 21
386.8908223149609
 31
0
  0
LINE
  8
0
 62
7
 10
377.9554336255835
 20
396.8908275801107
 30
0
 11
376.7742707435184
 21
396.8908275801107
 31
0
  0
LINE
  8
0
 62
7
 10
382.2590975520272
 20
396.8908275801107
 30
0
 11
381.0779346699617
 21
396.8908275801107
 31
0
  0
LINE
  8
0
 62
7
 10
382.2590975520272
 20
387.739331677831
 30
0
 11
382.2590975520272
 21
396.8908275801107
 31
0
  0
LINE
  8
0
 62
7
 10
360.3197865931941
 20
387.739331677831
 30
0
 11
360.3197865931941
 21
396.8908275801107
 31
0
  0
LINE
  8
0
 62
7
 10
379.5166878731727
 20
386.8908223149609
 30
0
 11
371.2894439353106
 21
386.8908223149609
 31
0
  0
LINE
  8
0
 62
7
 10
363.0622037228479
 20
386.8908223149609
 30
0
 11
371.2894439353106
 21
386.8908223149609
 31
0
  0
LINE
  8
0
 62
7
 10
376.7742707435184
 20
396.8908275801107
 30
0
 11
374.4119449793882
 21
396.8908275801107
 31
0
  0
LINE
  8
0
 62
7
 10
365.8046171268022
 20
387.739331677831
 30
0
 11
365.8046171268022
 21
396.8908275801107
 31
0
  0
LINE
  8
0
 62
7
 10
376.7742707435184
 20
387.739331677831
 30
0
 11
376.7742707435184
 21
396.8908275801107
 31
0
  0
LINE
  8
0
 62
7
 10
278.1413865804359
 20
462.2408304713588
 30
0
 11
285.6413868038237
 21
462.2408304713588
 31
0
  0
LINE
  8
0
 62
7
 10
278.1413865804359
 20
462.2408304713588
 30
0
 11
278.1413865804359
 21
461.2408284545934
 31
0
  0
LINE
  8
0
 62
7
 10
300.6413863778987
 20
462.2408304713588
 30
0
 11
308.1413865430861
 21
462.2408304713588
 31
0
  0
LINE
  8
0
 62
7
 10
308.1413865430861
 20
462.2408304713588
 30
0
 11
308.1413865430861
 21
461.2408284545934
 31
0
  0
LINE
  8
0
 62
7
 10
358.5465000001116
 20
454.2408292394387
 30
0
 11
359.1413841515016
 21
454.2408292394387
 31
0
  0
LINE
  8
0
 62
7
 10
358.5465000001116
 20
452.2408252062085
 30
0
 11
359.1413841515016
 21
452.2408252062085
 31
0
  0
LINE
  8
0
 62
7
 10
354.8163333335708
 20
454.2408292394387
 30
0
 11
356.5670111402781
 21
454.2408292394387
 31
0
  0
LINE
  8
0
 62
7
 10
354.8163333335708
 20
452.2408252062085
 30
0
 11
356.5670111402781
 21
452.2408252062085
 31
0
  0
LINE
  8
0
 62
7
 10
356.5670111402781
 20
454.2408292394387
 30
0
 11
358.5465000001116
 21
454.2408292394387
 31
0
  0
LINE
  8
0
 62
7
 10
358.5465000001116
 20
452.2408252062085
 30
0
 11
356.5670111402781
 21
452.2408252062085
 31
0
  0
LINE
  8
0
 62
7
 10
352.8645159298619
 20
454.2408292394387
 30
0
 11
354.8163333335708
 21
454.2408292394387
 31
0
  0
LINE
  8
0
 62
7
 10
354.8163333335708
 20
452.2408252062085
 30
0
 11
352.8645159298619
 21
452.2408252062085
 31
0
  0
LINE
  8
0
 62
7
 10
285.6413868038237
 20
462.2408304713588
 30
0
 11
293.1413860960113
 21
462.2408304713588
 31
0
  0
LINE
  8
0
 62
7
 10
285.6413868038237
 20
462.2408304713588
 30
0
 11
285.6413868038237
 21
461.2408284545934
 31
0
  0
LINE
  8
0
 62
7
 10
293.1413860960113
 20
462.2408304713588
 30
0
 11
300.6413863778987
 21
462.2408304713588
 31
0
  0
LINE
  8
0
 62
7
 10
300.6413863778987
 20
462.2408304713588
 30
0
 11
300.6413863778987
 21
461.2408284545934
 31
0
  0
LINE
  8
0
 62
7
 10
293.1413860960113
 20
462.2408304713588
 30
0
 11
293.1413860960113
 21
461.2408284545934
 31
0
  0
LINE
  8
0
 62
7
 10
238.6413870174686
 20
438.5908252464213
 30
0
 11
238.6413870174686
 21
445.7408195487863
 31
0
  0
LINE
  8
0
 62
7
 10
240.6413873252989
 20
447.7408235820165
 30
0
 11
244.4390078226695
 21
447.7408235820165
 31
0
  0
LINE
  8
0
 62
7
 10
251.1027623386651
 20
434.7408271681709
 30
0
 11
246.1066042059017
 21
434.7408271681709
 31
0
  0
LINE
  8
0
 62
7
 10
265.1413883038911
 20
462.2408304713588
 30
0
 11
275.1413861185413
 21
462.2408304713588
 31
0
  0
LINE
  8
0
 62
7
 10
275.1413861185413
 20
462.2408304713588
 30
0
 11
275.1413861185413
 21
461.2408284545934
 31
0
  0
LINE
  8
0
 62
7
 10
265.1413883038911
 20
462.2408304713588
 30
0
 11
265.1413883038911
 21
461.2408284545934
 31
0
  0
LINE
  8
0
 62
7
 10
338.1413865057364
 20
462.2408304713588
 30
0
 11
338.1413865057364
 21
461.2408284545934
 31
0
  0
LINE
  8
0
 62
7
 10
326.1413865205566
 20
462.2408304713588
 30
0
 11
338.1413865057364
 21
462.2408304713588
 31
0
  0
LINE
  8
0
 62
7
 10
326.1413865205566
 20
462.2408304713588
 30
0
 11
326.1413865205566
 21
461.2408284545934
 31
0
  0
LINE
  8
0
 62
7
 10
311.141386073781
 20
462.2408304713588
 30
0
 11
323.1413860586615
 21
462.2408304713588
 31
0
  0
LINE
  8
0
 62
7
 10
323.1413860586615
 20
462.2408304713588
 30
0
 11
323.1413860586615
 21
461.2408284545934
 31
0
  0
LINE
  8
0
 62
7
 10
311.141386073781
 20
462.2408304713588
 30
0
 11
311.141386073781
 21
461.2408284545934
 31
0
  0
LINE
  8
0
 62
7
 10
312.1110409443479
 20
434.7408271681709
 30
0
 11
354.1413852441763
 21
434.7408271681709
 31
0
  0
LINE
  8
0
 62
7
 10
286.1413868808561
 20
434.7408271681709
 30
0
 11
290.1717318485146
 21
434.7408271681709
 31
0
  0
LINE
  8
0
 62
7
 10
251.1027623386651
 20
434.7408271681709
 30
0
 11
276.1413862723064
 21
434.7408271681709
 31
0
  0
LINE
  8
0
 62
7
 10
276.1413862723064
 20
434.7408271681709
 30
0
 11
276.1413862723064
 21
450.2408211729788
 31
0
  0
LINE
  8
0
 62
7
 10
347.1413860290215
 20
461.2408284545934
 30
0
 11
255.1413867641411
 21
461.2408284545934
 31
0
  0
LINE
  8
0
 62
7
 10
158.1413811414361
 20
239.8908238945058
 30
0
 11
160.1413851746663
 21
237.8908273120754
 31
0
  0
LINE
  8
0
 62
7
 10
160.1413851746663
 20
353.8908228216158
 30
0
 11
158.1413811414361
 21
351.8908262388857
 31
0
  0
LINE
  8
0
 62
7
 10
428.1413891878863
 20
351.8908262388857
 30
0
 11
426.1413851546565
 21
353.8908228216158
 31
0
  0
LINE
  8
0
 62
7
 10
426.1413851546565
 20
237.8908273120754
 30
0
 11
428.1413891878863
 21
239.8908238945058
 31
0
  0
LINE
  8
0
 62
7
 10
176.1413876385061
 20
388.8908263481906
 30
0
 11
160.1413851746663
 21
388.8908263481906
 31
0
  0
LINE
  8
0
 62
7
 10
160.1413851746663
 20
202.8908237855006
 30
0
 11
176.1413876385061
 21
202.8908237855006
 31
0
  0
LINE
  8
0
 62
7
 10
410.1413826911164
 20
202.8908237855006
 30
0
 11
426.1413851546565
 21
202.8908237855006
 31
0
  0
LINE
  8
0
 62
7
 10
426.1413851546565
 20
388.8908263481906
 30
0
 11
410.1413826911164
 21
388.8908263481906
 31
0
  0
LINE
  8
0
 62
7
 10
218.1413903802361
 20
421.5908207661162
 30
0
 11
218.1413903802361
 21
411.5908229517666
 31
0
  0
LINE
  8
0
 62
7
 10
384.1413824129265
 20
411.5908229517666
 30
0
 11
384.1413824129265
 21
421.5908207661162
 31
0
  0
LINE
  8
0
 62
7
 10
359.2894420874302
 20
430.5908240148017
 30
0
 11
359.2894420874302
 21
428.5908199812714
 31
0
  0
LINE
  8
0
 62
7
 10
383.2894457828904
 20
421.8888439872556
 30
0
 11
383.2894457828904
 21
430.5908240148017
 31
0
  0
LINE
  8
0
 62
7
 10
218.9933270099721
 20
430.5908240148017
 30
0
 11
218.9933270099721
 21
421.8888439872556
 31
0
  0
LINE
  8
0
 62
7
 10
242.9933307054323
 20
428.5908199812714
 30
0
 11
242.9933307054323
 21
430.5908240148017
 31
0
  0
LINE
  8
0
 62
7
 10
289.1413864115514
 20
430.5908240148017
 30
0
 11
289.1413864115514
 21
426.5908308493411
 31
0
  0
LINE
  8
0
 62
7
 10
313.1413863816113
 20
426.5908308493411
 30
0
 11
313.1413863816113
 21
430.5908240148017
 31
0
  0
LINE
  8
0
 62
7
 10
382.2590975520272
 20
437.7423233343514
 30
0
 11
380.7894407414281
 21
438.5908252464213
 31
0
  0
LINE
  8
0
 62
7
 10
361.7894434037928
 20
438.5908252464213
 30
0
 11
360.3197865931941
 21
437.7423233343514
 31
0
  0
LINE
  8
0
 62
7
 10
377.2894411337004
 20
385.5908226735763
 30
0
 11
377.2894411337004
 21
386.8908223149609
 31
0
  0
LINE
  8
0
 62
7
 10
365.2894467366202
 20
386.8908223149609
 30
0
 11
365.2894467366202
 21
385.5908226735763
 31
0
  0
LINE
  8
0
 62
7
 10
291.6413867964136
 20
438.5908252464213
 30
0
 11
290.1717318485146
 21
437.7423233343514
 31
0
  0
LINE
  8
0
 62
7
 10
312.1110409443479
 20
437.7423233343514
 30
0
 11
310.641385996749
 21
438.5908252464213
 31
0
  0
LINE
  8
0
 62
7
 10
307.1413863890214
 20
385.5908226735763
 30
0
 11
307.1413863890214
 21
386.8908223149609
 31
0
  0
LINE
  8
0
 62
7
 10
295.1413864038411
 20
386.8908223149609
 30
0
 11
295.1413864038411
 21
385.5908226735763
 31
0
  0
LINE
  8
0
 62
7
 10
221.4933320517346
 20
438.5908252464213
 30
0
 11
220.0236752411354
 21
437.7423233343514
 31
0
  0
LINE
  8
0
 62
7
 10
241.9629861996684
 20
437.7423233343514
 30
0
 11
240.4933293893698
 21
438.5908252464213
 31
0
  0
LINE
  8
0
 62
7
 10
236.9933260562423
 20
385.5908226735763
 30
0
 11
236.9933260562423
 21
386.8908223149609
 31
0
  0
LINE
  8
0
 62
7
 10
224.9933316591616
 20
386.8908223149609
 30
0
 11
224.9933316591616
 21
385.5908226735763
 31
0
  0
LINE
  8
0
 62
7
 10
290.1717318485146
 20
387.739331677831
 30
0
 11
291.6413867964136
 21
386.8908223149609
 31
0
  0
LINE
  8
0
 62
7
 10
310.641385996749
 20
386.8908223149609
 30
0
 11
312.1110409443479
 21
387.739331677831
 31
0
  0
LINE
  8
0
 62
7
 10
220.0236752411354
 20
387.739331677831
 30
0
 11
221.4933320517346
 21
386.8908223149609
 31
0
  0
LINE
  8
0
 62
7
 10
240.4933293893698
 20
386.8908223149609
 30
0
 11
241.9629861996684
 21
387.739331677831
 31
0
  0
LINE
  8
0
 62
7
 10
360.3197865931941
 20
387.739331677831
 30
0
 11
361.7894434037928
 21
386.8908223149609
 31
0
  0
LINE
  8
0
 62
7
 10
380.7894407414281
 20
386.8908223149609
 30
0
 11
382.2590975520272
 21
387.739331677831
 31
0
  0
LINE
  8
0
 62
7
 10
359.1413841515016
 20
452.2408252062085
 30
0
 11
359.1413841515016
 21
454.2408292394387
 31
0
  0
LINE
  8
0
 62
7
 10
248.1413875489859
 20
454.2408292394387
 30
0
 11
248.1413875489859
 21
452.740818763941
 31
0
  0
LINE
  8
0
 62
7
 10
354.1413852441763
 20
434.7408271681709
 30
0
 11
354.1413852441763
 21
452.2408252062085
 31
0
  0
LINE
  8
0
 62
7
 10
288.1510054687903
 20
558.0306885928865
 30
0
 11
288.1510054687903
 21
556.5150852005438
 31
0
  0
LINE
  8
0
 62
2
  6
DASHDOT
 10
851.0221016255921
 20
295.8908250668458
 30
0
 11
635.0221034735016
 21
295.8908250668458
 31
0
  0
LINE
  8
0
 62
2
  6
DASHDOT
 10
743.0221025495468
 20
182.1156605570019
 30
0
 11
743.0221025495468
 21
477.2408304713588
 31
0
  0
ARC
  8
0
 62
7
 10
653.6046457815094
 20
326.5630241193174
 30
0
 40
2.182073860855138
 50
138.3431975417111
 51
180.8471065514
  0
ARC
  8
0
 62
7
 10
649.4836451800513
 20
326.9682143014919
 30
0
 40
1.98789454971296
 50
347.2876067531934
 51
31.71967101129828
  0
ARC
  8
0
 62
7
 10
653.6499047530599
 20
326.6434082587187
 30
0
 40
2.82911695236419
 50
151.0373714409007
 51
182.2818993593979
  0
ARC
  8
0
 62
7
 10
665.3540269475791
 20
324.3298877037035
 30
0
 40
14.56414084736753
 50
173.7308607623988
 51
181.2916071976992
  0
ARC
  8
0
 62
7
 10
651.5389852732317
 20
325.9578345069302
 30
0
 40
0.6630689581803105
 50
143.0585267260029
 51
183.2471470236082
  0
ARC
  8
0
 62
7
 10
650.7412833938568
 20
326.1323854596961
 30
0
 40
0.34905838926096
 50
353.8023784322257
 51
39.91056990799103
  0
ARC
  8
0
 62
7
 10
632.4384826061953
 20
325.6134382906565
 30
0
 40
18.65602761862378
 50
358.531584929084
 51
1.478204619284719
  0
ARC
  8
0
 62
7
 10
660.6305478229067
 20
324.2060201958346
 30
0
 40
9.255652281429116
 50
169.3265187771008
 51
181.2655426754039
  0
ARC
  8
0
 62
7
 10
652.1557385199042
 20
325.9020845165836
 30
0
 40
0.6209739944418478
 50
132.9861870044832
 51
178.3212528963884
  0
ARC
  8
0
 62
7
 10
642.966744730297
 20
325.4171140281022
 30
0
 40
8.936655843220871
 50
357.6337827786975
 51
4.348406579899862
  0
ARC
  8
0
 62
7
 10
645.3692904731277
 20
326.4264602692745
 30
0
 40
7.04759079115996
 50
355.1700610999938
 51
8.680423087898163
  0
ARC
  8
0
 62
7
 10
659.1906132729125
 20
324.1180011525087
 30
0
 40
5.077585267637344
 50
159.2097865414978
 51
181.3136037695029
  0
ARC
  8
0
 62
7
 10
655.0401446071476
 20
325.7654031040418
 30
0
 40
0.6162739310246888
 50
106.4870581464118
 51
165.4452109889881
  0
ARC
  8
0
 62
7
 10
743.0282452108861
 20
322.5978948406108
 30
0
 40
125.6803374048958
 50
271.1790075159
 51
292.6494492051997
  0
ARC
  8
0
 62
7
 10
743.0159598882085
 20
322.5978948406108
 30
0
 40
125.6803374049022
 50
247.3505507947997
 51
268.8209924840999
  0
ARC
  8
0
 62
7
 10
708.398171828236
 20
240.1359779214698
 30
0
 40
36.28856258256979
 50
187.0806544653992
 51
243.1046047707
  0
ARC
  8
0
 62
7
 10
777.722871822795
 20
240.0950648134765
 30
0
 40
36.21735050690555
 50
296.8162642182993
 51
352.9556722016998
  0
ARC
  8
0
 62
7
 10
796.0551106117644
 20
348.9238331290629
 30
0
 40
9.499999905617861
 50
311.3688370333002
 51
138.6311629666998
  0
ARC
  8
0
 62
7
 10
792.5195767408898
 20
345.3882992581883
 30
0
 40
9.499999905617496
 50
138.8909178151986
 51
311.1090821847997
  0
ARC
  8
0
 62
7
 10
796.0551106117644
 20
242.8578170046283
 30
0
 40
9.499999905617457
 50
221.3688370332985
 51
48.63116296669948
  0
ARC
  8
0
 62
7
 10
792.5195767408898
 20
246.3933508755029
 30
0
 40
9.499999905617584
 50
48.89091781520275
 51
221.1090821848009
  0
ARC
  8
0
 62
7
 10
689.9890944873298
 20
348.9238331290629
 30
0
 40
9.499999905617701
 50
41.36883703330014
 51
228.6311629667016
  0
ARC
  8
0
 62
7
 10
693.5246283582044
 20
345.3882992581883
 30
0
 40
9.499999905617496
 50
228.8909178151986
 51
41.10908218479968
  0
ARC
  8
0
 62
7
 10
689.9890944873298
 20
242.8578170046283
 30
0
 40
9.499999905617539
 50
131.3688370332982
 51
318.6311629667015
  0
ARC
  8
0
 62
7
 10
693.5246283582044
 20
246.3933508755029
 30
0
 40
9.499999905617838
 50
318.8909178152005
 51
131.1090821847993
  0
ARC
  8
0
 62
7
 10
668.6228011370042
 20
420.6445973143171
 30
0
 40
8.003844066376997
 50
96.87925034719989
 51
118.1298436492028
  0
ARC
  8
0
 62
7
 10
817.433425557171
 20
420.6827143944382
 30
0
 40
7.964564894567416
 50
61.81714145100425
 51
83.17376455260305
  0
ARC
  8
0
 62
7
 10
735.9369001717384
 20
430.2222924906631
 30
0
 40
1.536336461754336
 50
0.6911842063985688
 51
81.26786581728941
  0
ARC
  8
0
 62
7
 10
750.100018085828
 20
430.2286222748997
 30
0
 40
1.528986532232803
 50
98.49824846579735
 51
179.5427015104988
  0
ARC
  8
0
 62
7
 10
778.2120713014349
 20
432.8344994036104
 30
0
 40
8.050645958498146
 50
219.5980227315006
 51
230.8548122877986
  0
ARC
  8
0
 62
7
 10
697.8935588817992
 20
424.1911561502819
 30
0
 40
14.40018129283575
 50
90.4832515566997
 51
109.7728072262001
  0
ARC
  8
0
 62
7
 10
707.3935576562169
 20
424.1911665194819
 30
0
 40
14.400170940582
 50
90.4832597358005
 51
109.7728146045018
  0
ARC
  8
0
 62
7
 10
657.3935543440668
 20
424.1912045270818
 30
0
 40
14.40013287704482
 50
90.48323399840116
 51
109.7728403418998
  0
ARC
  8
0
 62
7
 10
819.3935532112967
 20
424.1912045270818
 30
0
 40
14.40013287704623
 50
90.48323399839929
 51
109.7728403418993
  0
ARC
  8
0
 62
7
 10
788.3935524384822
 20
424.1911925585817
 30
0
 40
14.40014486297267
 50
90.48324210290184
 51
109.7728322372997
  0
ARC
  8
0
 62
7
 10
778.650662641777
 20
401.2902769678024
 30
0
 40
14.39996674539197
 50
270.4832061117024
 51
289.7730424123016
  0
ARC
  8
0
 62
7
 10
788.1506614161947
 20
401.2902873370024
 30
0
 40
14.399977097679
 50
270.4831979327004
 51
289.7730350337998
  0
ARC
  8
0
 62
7
 10
828.6506659539271
 20
401.2902389611025
 30
0
 40
14.39992868282794
 50
270.4831803743031
 51
289.7730681497024
  0
ARC
  8
0
 62
7
 10
666.6506670866972
 20
401.2902389611025
 30
0
 40
14.39992868282657
 50
270.4831803742996
 51
289.7730681497009
  0
ARC
  8
0
 62
7
 10
697.650667859212
 20
401.2902509293024
 30
0
 40
14.39994066857674
 50
270.4831884789024
 51
289.7730600451004
  0
ARC
  8
0
 62
7
 10
699.2806200967186
 20
348.7021478924651
 30
0
 40
41.43329415097947
 50
120.5496336881
 51
146.7062631899006
  0
ARC
  8
0
 62
7
 10
786.748145489629
 20
348.7082644523046
 30
0
 40
41.44197493657192
 50
33.28519062730059
 51
59.13655800330042
  0
ARC
  8
0
 62
7
 10
790.1331615151987
 20
238.9811275351433
 30
0
 40
23.97868076333929
 50
342.5369960020008
 51
352.7077365691001
  0
ARC
  8
0
 62
7
 10
700.0668108628076
 20
239.8422091958885
 30
0
 40
28.20452739838187
 50
187.8957546746996
 51
196.5981699205003
  0
ARC
  8
0
 62
7
 10
652.0221034537315
 20
398.890824043441
 30
0
 40
1.999999980129815
 50
180
 51
270
  0
ARC
  8
0
 62
7
 10
834.0221016453622
 20
398.890824043441
 30
0
 40
1.999999980130326
 50
270
 51
0
  0
ARC
  8
0
 62
7
 10
673.1550523534763
 20
385.8789916331137
 30
0
 40
5.805693578838112
 50
311.759349121196
 51
1.552873719300011
  0
ARC
  8
0
 62
7
 10
812.7969176649342
 20
385.8426568487747
 30
0
 40
5.715885743341407
 50
177.9417522974028
 51
228.7700818430041
  0
ARC
  8
0
 62
7
 10
707.0514099921159
 20
340.3012082061285
 30
0
 40
52.61762756432466
 50
143.8444658209996
 51
154.8082323709998
  0
ARC
  8
0
 62
7
 10
650.5794349497649
 20
386.3798585127373
 30
0
 40
22.50946085374212
 50
314.1728262332994
 51
321.961834698099
  0
ARC
  8
0
 62
7
  6
DASHDOT
 10
835.826661145634
 20
386.7021869275348
 30
0
 40
22.99336669538316
 50
218.1194567110993
 51
225.7238214269985
  0
ARC
  8
0
 62
7
  6
DASHDOT
 10
765.8866768090873
 20
332.4993324502401
 30
0
 40
67.81773904485199
 50
26.44219649410009
 51
34.95140990249996
  0
ARC
  8
0
 62
7
 10
719.0889407899228
 20
331.7573770074112
 30
0
 40
65.1129318817184
 50
130.0288244833999
 51
141.1856304503001
  0
ARC
  8
0
 62
7
 10
768.3076083448357
 20
333.0546499623231
 30
0
 40
63.24672342439835
 50
38.65789583569999
 51
50.15070263350009
  0
ARC
  8
0
 62
7
 10
674.0221032350621
 20
391.8908241130856
 30
0
 40
4.999999950324764
 50
0
 51
90
  0
ARC
  8
0
 62
7
 10
812.022101864032
 20
391.8908241130856
 30
0
 40
4.999999950325162
 50
90
 51
180
  0
ARC
  8
0
 62
7
 10
692.5221030513642
 20
398.890824043441
 30
0
 40
1.999999980129815
 50
180
 51
270
  0
ARC
  8
0
 62
7
 10
793.52210204773
 20
398.890824043441
 30
0
 40
1.999999980130326
 50
270
 51
0
  0
ARC
  8
0
 62
7
 10
733.122746232197
 20
327.5262343506477
 30
0
 40
81.0632051856452
 50
166.9061613690002
 51
179.6556835628999
  0
ARC
  8
0
 62
7
 10
690.0221030760019
 20
432.7408237073412
 30
0
 40
1.999999980129928
 50
90
 51
180
  0
ARC
  8
0
 62
7
 10
796.0221020230918
 20
432.7408237073412
 30
0
 40
1.999999980130269
 50
0
 51
90
  0
ARC
  8
0
 62
7
 10
806.5221019187745
 20
430.2408237319785
 30
0
 40
1.499999985097475
 50
0
 51
90
  0
ARC
  8
0
 62
7
 10
679.5221031803196
 20
430.2408237319785
 30
0
 40
1.499999985097531
 50
90
 51
180
  0
ARC
  8
0
 62
7
 10
789.0221020924371
 20
454.2408234935386
 30
0
 40
6.999999930455033
 50
0
 51
90
  0
ARC
  8
0
 62
7
 10
697.0221030066566
 20
454.2408234935386
 30
0
 40
6.999999930455033
 50
90
 51
180
  0
ARC
  8
0
 62
7
 10
280.1699538218825
 20
649.2334297932873
 30
0
 40
75.12117145764282
 50
152.0628581647999
 51
163.5771618106997
  0
ARC
  8
0
 62
7
 10
280.1699538218825
 20
646.9049327878213
 30
0
 40
75.12117145763922
 50
196.4228381892999
 51
207.9371418352
  0
ARC
  8
0
 62
7
 10
1193.220578007226
 20
648.0691812905001
 30
0
 40
973.0791908060132
 50
179.6859527074968
 51
179.7816184649968
  0
ARC
  8
0
 62
7
 10
301.141386396431
 20
648.0691812905541
 30
0
 40
57.99999942376972
 50
167.8574392186999
 51
192.1425607813
  0
ARC
  8
0
 62
7
 10
319.5625077877173
 20
555.0397370504018
 30
0
 40
2.40449524929612
 50
86.19570988518875
 51
102.9332857049006
  0
ARC
  8
0
 62
7
 10
342.6032938921197
 20
414.7465542722166
 30
0
 40
144.5724358349306
 50
99.38655085840512
 51
100.2283826682048
  0
ARC
  8
0
 62
7
 10
317.3535642502632
 20
510.432242168077
 30
0
 40
46.1664136754379
 50
94.28033078459974
 51
97.32694104170004
  0
ARC
  8
0
 62
7
 10
287.7591176848719
 20
761.7388898344448
 30
0
 40
206.9344897931266
 50
275.7363818652033
 51
275.9629367626034
  0
ARC
  8
0
 62
7
 10
317.4880887621268
 20
488.8873229785257
 30
0
 40
67.52763786502344
 50
95.21555072719987
 51
95.90947114489981
  0
ARC
  8
0
 62
7
 10
311.4483105294319
 20
555.7511378259339
 30
0
 40
0.3967111250630936
 50
75.64469785810096
 51
104.4029660226886
  0
ARC
  8
0
 62
7
 10
316.4112290462256
 20
546.2942780799879
 30
0
 40
10.40740602952703
 50
98.69364755750335
 51
103.2595864813017
  0
ARC
  8
0
 62
7
 10
333.2411890858073
 20
451.6519485400571
 30
0
 40
106.5317373858757
 50
99.31323318729331
 51
99.94758174489321
  0
ARC
  8
0
 62
7
 10
324.6725903130403
 20
504.3221853678793
 30
0
 40
53.16915264977356
 50
98.37194047929056
 51
99.38658162399089
  0
ARC
  8
0
 62
7
 10
317.1193639602905
 20
556.3892867483939
 30
0
 40
0.5675530911214798
 50
77.25647518792739
 51
109.3577540737332
  0
ARC
  8
0
 62
7
 10
356.7641979391212
 20
330.0997289684806
 30
0
 40
230.3912201146408
 50
99.95604907740051
 51
100.7203415887007
  0
ARC
  8
0
 62
7
 10
338.3281063535812
 20
561.8195270952444
 30
0
 40
1.514440491075586
 50
90.02666956430232
 51
117.4623144848836
  0
ARC
  8
0
 62
7
 10
370.7381207554865
 20
476.102168659146
 30
0
 40
93.14402950197948
 50
110.8212739404991
 51
112.2052559256991
  0
ARC
  8
0
 62
7
 10
362.2239625549716
 20
494.7635668763436
 30
0
 40
72.65365953711188
 50
111.5506191788962
 51
114.1380482414963
  0
ARC
  8
0
 62
7
 10
338.2865161119946
 20
537.2031746731079
 30
0
 40
24.54991385173239
 50
103.6013736272005
 51
109.5503000365008
  0
ARC
  8
0
 62
7
 10
354.1871886425203
 20
486.0416364973971
 30
0
 40
78.11202330919045
 50
107.9830120021996
 51
110.3308474439991
  0
ARC
  8
0
 62
7
 10
328.9729917074239
 20
555.5734032593998
 30
0
 40
4.07185188271727
 50
105.835381578594
 51
118.2148616160997
  0
ARC
  8
0
 62
7
 10
345.1026778816761
 20
509.3338105095903
 30
0
 40
53.0373559195834
 50
107.5147603083005
 51
108.9697439798004
  0
ARC
  8
0
 62
7
 10
336.6190720354564
 20
536.5230911255633
 30
0
 40
24.55560515486274
 50
105.746841487491
 51
107.7302489302905
  0
ARC
  8
0
 62
7
 10
334.6619288719051
 20
557.880644293977
 30
0
 40
3.688628136816821
 50
109.2883225658061
 51
123.4353539254974
  0
ARC
  8
0
 62
7
 10
349.9736603922912
 20
522.3027694883469
 30
0
 40
42.41329217008216
 50
111.2429584703123
 51
112.9383373219129
  0
ARC
  8
0
 62
7
 10
344.8137598938477
 20
535.9254359966025
 30
0
 40
27.84698730255924
 50
109.4599477432027
 51
111.503265595003
  0
ARC
  8
0
 62
7
 10
292.2715830951527
 20
560.4238220830105
 30
0
 40
4.48883072532074
 50
255.1526073382985
 51
281.8870085006936
  0
ARC
  8
0
 62
7
 10
299.7175236193685
 20
642.9646544165689
 30
0
 40
87.30402098066584
 50
262.1209548661058
 51
264.3493517992057
  0
ARC
  8
0
 62
7
 10
295.3370300173976
 20
613.8988098364368
 30
0
 40
57.91316607763835
 50
258.1760146512
 51
262.4719035939001
  0
ARC
  8
0
 62
7
 10
351.7106562026115
 20
803.2422798306146
 30
0
 40
255.9887069228449
 50
251.2960370744033
 51
251.6021944706034
  0
ARC
  8
0
 62
7
 10
274.1011703615757
 20
568.8609638402879
 30
0
 40
9.098549103730836
 50
249.5173406767003
 51
255.5133073386018
  0
ARC
  8
0
 62
7
 10
290.0836779973895
 20
611.4975504038937
 30
0
 40
54.5209810410371
 50
251.5871197689004
 51
253.7287745820003
  0
ARC
  8
0
 62
7
 10
371.2849765753543
 20
866.3525522280092
 30
0
 40
321.9956559286176
 50
251.6192961043001
 51
252.2018944683001
  0
ARC
  8
0
 62
7
 10
310.7281090193893
 20
683.8332852169374
 30
0
 40
129.6927736200306
 50
249.759730357199
 51
251.5811668748992
  0
ARC
  8
0
 62
7
 10
266.9640593697829
 20
568.6583225783008
 30
0
 40
6.602280831803393
 50
222.5366885604982
 51
260.3726019369014
  0
ARC
  8
0
 62
7
 10
303.534640958143
 20
661.0200721496914
 30
0
 40
105.8285144865789
 50
250.2682101840065
 51
251.3091083905066
  0
ARC
  8
0
 62
7
 10
388.246088030646
 20
638.1112863007859
 30
0
 40
6.967460432318314
 50
93.00263488739928
 51
127.0388212821972
  0
ARC
  8
0
 62
7
 10
388.246088030646
 20
658.0270762800226
 30
0
 40
6.967460432317557
 50
232.9611787178041
 51
266.9973651126004
  0
ARC
  8
0
 62
7
 10
292.2895390024744
 20
613.1208860856657
 30
0
 40
53.64138945559356
 50
258.5503759149002
 51
269.7130084719003
  0
ARC
  8
0
 62
7
 10
293.2373553513578
 20
617.5332134529292
 30
0
 40
59.12160458776015
 50
258.5779474469001
 51
269.6197083769998
  0
ARC
  8
0
 62
7
 10
294.7585159796452
 20
660.9461531635213
 30
0
 40
76.80833421091455
 50
91.25301916609992
 51
104.0273029679001
  0
ARC
  8
0
 62
7
 10
293.6212978390433
 20
664.2461634582362
 30
0
 40
72.42027358536703
 50
91.4122383137002
 51
103.9672744904004
  0
ARC
  8
0
 62
7
 10
202.129627540013
 20
641.4830199386877
 30
0
 40
3.589719436941052
 50
11.78939079050024
 51
87.44876069969988
  0
ARC
  8
0
 62
7
 10
202.2689897939283
 20
654.0691725753443
 30
0
 40
2.999991288643519
 50
270.0000805028013
 51
357.1717649629008
  0
ARC
  8
0
 62
7
 10
407.1414367599207
 20
642.0692353633638
 30
0
 40
2.999945931475488
 50
359.9989674110022
 51
90.00100590859422
  0
ARC
  8
0
 62
7
 10
407.1414367599207
 20
654.0691272177444
 30
0
 40
2.999945931474341
 50
269.9989940914058
 51
0.00103258900648597
  0
ARC
  8
0
 62
7
 10
317.2776918291172
 20
513.3856205805353
 30
0
 40
44.72734012778572
 50
94.32084102039941
 51
97.46600318340019
  0
ARC
  8
0
 62
7
 10
355.453404800627
 20
342.8914885143914
 30
0
 40
219.0698747003727
 50
100.1277886107962
 51
100.9320752345962
  0
ARC
  8
0
 62
7
 10
342.1645728191634
 20
421.1819165170786
 30
0
 40
139.6642839579696
 50
99.53701047829912
 51
100.408865826599
  0
ARC
  8
0
 62
7
 10
319.5572394205699
 20
556.6439690815635
 30
0
 40
2.333562328304351
 50
85.95022605190508
 51
103.2006562488992
  0
ARC
  8
0
 62
7
 10
309.8744571393652
 20
680.7362726064077
 30
0
 40
124.9833321477707
 50
249.3802998246016
 51
251.2743881098015
  0
ARC
  8
0
 62
7
 10
366.5748938611249
 20
848.5332541959522
 30
0
 40
302.1012437845691
 50
251.306597548505
 51
251.9286095159049
  0
ARC
  8
0
 62
7
 10
288.6579320987546
 20
607.9058574077769
 30
0
 40
49.17713783724236
 50
251.2648798994003
 51
253.6419550155995
  0
ARC
  8
0
 62
7
 10
353.9995123229858
 20
489.5301387012394
 30
0
 40
76.24613719515035
 50
108.2901280600001
 51
110.7004150329999
  0
ARC
  8
0
 62
7
 10
338.6138082877426
 20
538.135811777842
 30
0
 40
25.27580843844822
 50
103.9668546444991
 51
109.7534119346996
  0
ARC
  8
0
 62
7
 10
362.2730535302937
 20
497.5636766715286
 30
0
 40
71.58034332470649
 50
111.932668413805
 51
114.5668207901047
  0
ARC
  8
0
 62
7
 10
371.1403445028954
 20
478.4380538761407
 30
0
 40
92.64011709919636
 50
111.2064366494025
 51
112.6017312927024
  0
ARC
  8
0
 62
7
 10
338.3263996043982
 20
563.4967025500816
 30
0
 40
1.482129872763153
 50
89.96127190870267
 51
118.0386457199046
  0
ARC
  8
0
 62
7
 10
291.7567275390677
 20
608.6901757043845
 30
0
 40
47.6302133201613
 50
257.7385843955004
 51
268.8138855424999
  0
ARC
  8
0
 62
7
 10
293.3468802145696
 20
665.2118112372421
 30
0
 40
69.87377036834621
 50
92.12817773829964
 51
104.2549368153998
  0
ARC
  8
0
 62
7
 10
179.1413367581015
 20
654.0691304064446
 30
0
 40
2.999949119983115
 50
179.9990283101984
 51
270.0009450094003
  0
ARC
  8
0
 62
7
 10
179.1413367581015
 20
642.069232174664
 30
0
 40
2.999949119983424
 50
89.99905499059972
 51
180.0009716898016
  0
ARC
  8
0
 62
7
 10
271.306276286243
 20
651.0763827261774
 30
0
 40
66.10219543372668
 50
162.9372861576
 51
177.53397977
  0
ARC
  8
0
 62
7
 10
271.306276286243
 20
645.0619798546311
 30
0
 40
66.10219543372624
 50
182.46602023
 51
197.0627138424
  0
ARC
  8
0
 62
7
 10
301.141386396431
 20
648.0691812905541
 30
0
 40
79.99999920519979
 50
226.4486131295003
 51
252.1666172902001
  0
ARC
  8
0
 62
7
 10
301.141386396431
 20
648.0691812905541
 30
0
 40
79.99999920520025
 50
286.4486131295004
 51
313.5513868705002
  0
ARC
  8
0
 62
7
 10
301.141386396431
 20
648.0691812905541
 30
0
 40
79.99999920520077
 50
46.44861312950004
 51
73.55138687049973
  0
ARC
  8
0
 62
7
 10
301.141386396431
 20
648.0691812905541
 30
0
 40
79.99999920519998
 50
106.4486131294997
 51
133.5513868704995
  0
ARC
  8
0
 62
7
 10
272.8258572921457
 20
552.1617748358942
 30
0
 40
19.99999980130044
 50
27.76566615159837
 51
63.84656657209976
  0
ARC
  8
0
 62
7
 10
370.0418722451052
 20
575.5935105371998
 30
0
 40
19.99999980130004
 50
87.76566615160073
 51
133.5513868704995
  0
ARC
  8
0
 62
7
 10
232.2409005480574
 20
720.5448520436087
 30
0
 40
19.99999980130005
 50
267.7656661515997
 51
313.5513868704995
  0
ARC
  8
0
 62
7
 10
329.4569155007164
 20
743.9765877452144
 30
0
 40
19.99999980129984
 50
207.7656661516008
 51
253.5513868705001
  0
ARC
  8
0
 62
7
 10
329.4569155007164
 20
552.1617748358942
 30
0
 40
19.99999980130012
 50
106.4486131294997
 51
152.2343338484004
  0
ARC
  8
0
 62
7
 10
232.2409005480574
 20
575.5935105371998
 30
0
 40
19.9999998013002
 50
46.4486131295005
 51
92.23433384840031
  0
ARC
  8
0
 62
7
 10
370.0418722451052
 20
720.5448520436087
 30
0
 40
19.9999998013002
 50
226.4486131295005
 51
272.2343338483992
  0
ARC
  8
0
 62
7
 10
272.8258572921457
 20
743.9765877452144
 30
0
 40
19.99999980130009
 50
286.4486131294994
 51
332.2343338483998
  0
ARC
  8
0
 62
7
 10
-590.9378052143636
 20
648.0691812905541
 30
0
 40
975.0791907861429
 50
357.5898518572
 51
2.410148142799993
  0
ARC
  8
0
 62
7
 10
1193.220578007226
 20
648.0691812905541
 30
0
 40
975.0791907861428
 50
177.5898518572
 51
182.4101481428
  0
ARC
  8
0
 62
7
 10
221.9781045882185
 20
648.9746263430586
 30
0
 40
2.005082962662234
 50
261.4184174442041
 51
313.0253644198949
  0
ARC
  8
0
 62
7
 10
221.9462817192346
 20
648.7374803531145
 30
0
 40
2.45423938156339
 50
264.9492650748032
 51
316.6510741876041
  0
ARC
  8
0
 62
7
 10
222.3254778682669
 20
647.2201088216896
 30
0
 40
1.694634736868522
 50
52.96263412178453
 51
95.39058329468597
  0
ARC
  8
0
 62
7
 10
221.3865469912951
 20
649.4144642022886
 30
0
 40
2.440051394650431
 50
228.0401236268008
 51
276.8816472617139
  0
ARC
  8
0
 62
7
 10
221.1905774883423
 20
653.4640095522566
 30
0
 40
2.591330540107859
 50
226.9501469367968
 51
278.5605594359071
  0
ARC
  8
0
 62
7
 10
221.9196510566992
 20
653.6705365504051
 30
0
 40
2.790192958081549
 50
262.931661441905
 51
311.1755225189966
  0
ARC
  8
0
 62
7
 10
221.9719429563795
 20
651.6775308241056
 30
0
 40
2.628464863579485
 50
47.23581398360164
 51
98.65700205550684
  0
ARC
  8
0
 62
7
 10
221.2414597612367
 20
651.5496673957753
 30
0
 40
2.746868351998976
 50
82.99810099118636
 51
131.4911926359924
  0
ARC
  8
0
 62
7
 10
221.2348303157025
 20
654.2322362162242
 30
0
 40
2.653530417278685
 50
237.4313457941009
 51
277.3938123719123
  0
ARC
  8
0
 62
7
 10
221.1771372208762
 20
651.2037339450124
 30
0
 40
2.406432473594175
 50
80.45181150170218
 51
124.723044691
  0
ARC
  8
0
 62
7
 10
221.9260785362351
 20
650.8894813483346
 30
0
 40
2.710013787798399
 50
57.75798458129961
 51
97.41559629069131
  0
ARC
  8
0
 62
7
 10
221.9833566206664
 20
654.0278887549541
 30
0
 40
2.461014911031898
 50
260.479632104099
 51
304.3467728513071
  0
ARC
  8
0
 62
7
 10
301.141386396431
 20
648.0691812905541
 30
0
 40
74.99999925487489
 50
222.2688989959999
 51
250.9334198993001
  0
ARC
  8
0
 62
7
 10
301.141386396431
 20
648.0691812905541
 30
0
 40
74.99999925487526
 50
282.268898996
 51
317.7311010040002
  0
ARC
  8
0
 62
7
 10
301.141386396431
 20
648.0691812905541
 30
0
 40
74.99999925487494
 50
192.4999999999999
 51
197.731101004
  0
ARC
  8
0
 62
7
 10
301.141386396431
 20
648.0691812905541
 30
0
 40
74.99999925487528
 50
167.5000000000001
 51
192.4999999999999
  0
ARC
  8
0
 62
7
 10
301.141386396431
 20
648.0691812905541
 30
0
 40
74.99999925487526
 50
162.2688989959997
 51
167.5000000000001
  0
ARC
  8
0
 62
7
 10
301.141386396431
 20
648.0691812905541
 30
0
 40
74.99999925487562
 50
342.2688989960001
 51
17.73110100400021
  0
ARC
  8
0
 62
7
 10
301.141386396431
 20
648.0691812905541
 30
0
 40
74.99999925487525
 50
42.26889899599962
 51
77.73110100399997
  0
ARC
  8
0
 62
7
 10
301.141386396431
 20
648.0691812905541
 30
0
 40
74.99999925487525
 50
102.268898996
 51
137.7311010039999
  0
ARC
  8
0
 62
7
 10
301.141386396431
 20
648.0691812905541
 30
0
 40
64.99999935422483
 50
167.4999999999999
 51
192.5000000000002
  0
ARC
  8
0
 62
7
 10
284.1413865655261
 20
569.8962967424016
 30
0
 40
4.999999950325218
 50
0
 51
77.73110100400261
  0
ARC
  8
0
 62
7
 10
360.3410903867823
 20
594.2603072984455
 30
0
 40
4.999999950324702
 50
60.00000000000185
 51
137.7311010040004
  0
ARC
  8
0
 62
7
 10
318.1413862276365
 20
569.8962967424016
 30
0
 40
4.999999950325062
 50
102.2688989960024
 51
180
  0
ARC
  8
0
 62
7
 10
241.9416824063803
 20
594.2603072984455
 30
0
 40
4.999999950324976
 50
42.26889899599817
 51
120.0000000000012
  0
ARC
  8
0
 62
7
 10
224.9416825751753
 20
623.7051707345106
 30
0
 40
4.999999950325295
 50
299.9999999999996
 51
17.73110100399521
  0
ARC
  8
0
 62
7
 10
377.3410902179874
 20
623.7051707345106
 30
0
 40
4.999999950325228
 50
162.2688989960045
 51
240.0000000000016
  0
ARC
  8
0
 62
7
 10
224.9416825751753
 20
672.4331918465975
 30
0
 40
4.99999995032512
 50
342.2688989960041
 51
60.00000000000097
  0
ARC
  8
0
 62
7
 10
377.3410902179874
 20
672.4331918465975
 30
0
 40
4.999999950325295
 50
119.9999999999995
 51
197.7311010039951
  0
ARC
  8
0
 62
7
 10
360.3410903867823
 20
701.8780552826631
 30
0
 40
4.999999950325219
 50
222.2688989960027
 51
299.9999999999984
  0
ARC
  8
0
 62
7
 10
241.9416824063803
 20
701.8780552826631
 30
0
 40
4.999999950324886
 50
239.9999999999982
 51
317.7311010039975
  0
ARC
  8
0
 62
7
 10
284.1413865655261
 20
726.2420658387066
 30
0
 40
4.999999950324534
 50
282.2688989959991
 51
0
  0
ARC
  8
0
 62
7
 10
318.1413862276365
 20
726.2420658387066
 30
0
 40
4.999999950325162
 50
180
 51
257.7311010039966
  0
ARC
  8
0
 62
7
 10
301.141386396431
 20
648.0691812905541
 30
0
 40
64.99999935422561
 50
4.897237558600193
 51
164.3815017243999
  0
ARC
  8
0
 62
7
 10
301.141386396431
 20
648.0691812905541
 30
0
 40
64.99999935422517
 50
195.6184982756001
 51
247.8567792986
  0
ARC
  8
0
 62
7
 10
301.141386396431
 20
648.0691812905541
 30
0
 40
64.99999935422487
 50
252.5423968763005
 51
355.1027624414002
  0
ARC
  8
0
 62
7
 10
360.1413858103663
 20
648.0691812905541
 30
0
 40
5.249999947840832
 50
256.5054122687005
 51
103.4945877312983
  0
ARC
  8
0
 62
7
 10
360.1413858103663
 20
648.0691812905541
 30
0
 40
7.999999920520168
 50
270
 51
90
  0
ARC
  8
0
 62
7
 10
301.141386396431
 20
648.0691812905541
 30
0
 40
54.9999994535749
 50
195.2729592611998
 51
243.5409564954
  0
ARC
  8
0
 62
7
 10
301.141386396431
 20
648.0691812905541
 30
0
 40
54.99999945357498
 50
249.2344110822
 51
349.0673388551998
  0
ARC
  8
0
 62
7
 10
301.141386396431
 20
648.0691812905541
 30
0
 40
54.99999945357534
 50
10.93266114480021
 51
164.7270407387997
  0
ARC
  8
0
 62
7
 10
360.1413858103663
 20
648.0691812905541
 30
0
 40
4.99999995032486
 50
261.3730734412976
 51
278.6269265587031
  0
ARC
  8
0
 62
7
 10
360.1413858103649
 20
648.0691812905541
 30
0
 40
4.999999950325074
 50
81.37307344128145
 51
98.62692655868621
  0
ARC
  8
0
 62
7
 10
360.1413858103663
 20
648.0691812905541
 30
0
 40
4.999999950324868
 50
278.6269265587031
 51
81.37307344129691
  0
ARC
  8
0
 62
7
 10
371.2894434061107
 20
607.5691816929218
 30
0
 40
9.499999905617187
 50
90
 51
150.0000000000016
  0
ARC
  8
0
 62
7
 10
371.2894434061107
 20
607.5691816929218
 30
0
 40
9.499999905617651
 50
150.0000000000016
 51
209.9999999999984
  0
ARC
  8
0
 62
7
 10
371.2894434061107
 20
607.5691816929218
 30
0
 40
9.499999905617651
 50
209.9999999999984
 51
270
  0
ARC
  8
0
 62
7
 10
371.2894434061107
 20
607.5691816929218
 30
0
 40
9.499999905617642
 50
270
 51
329.9999999999999
  0
ARC
  8
0
 62
7
 10
371.2894434061107
 20
607.5691816929218
 30
0
 40
9.499999905617157
 50
30.0000000000001
 51
90
  0
ARC
  8
0
 62
7
 10
371.2894434061107
 20
607.5691816929218
 30
0
 40
9.499999905617157
 50
329.9999999999999
 51
30.0000000000001
  0
ARC
  8
0
 62
7
 10
301.141386396431
 20
567.0691820952891
 30
0
 40
9.499999905617651
 50
330.0000000000017
 51
29.99999999999839
  0
ARC
  8
0
 62
7
 10
301.141386396431
 20
567.0691820952891
 30
0
 40
9.499999905617715
 50
150.0000000000003
 51
209.9999999999997
  0
ARC
  8
0
 62
7
 10
301.141386396431
 20
567.0691820952891
 30
0
 40
9.499999905617258
 50
209.9999999999997
 51
270
  0
ARC
  8
0
 62
7
 10
301.141386396431
 20
567.0691820952891
 30
0
 40
9.499999905617642
 50
270
 51
330.0000000000017
  0
ARC
  8
0
 62
7
 10
301.141386396431
 20
567.0691820952891
 30
0
 40
9.499999905617651
 50
29.99999999999839
 51
90
  0
ARC
  8
0
 62
7
 10
301.141386396431
 20
567.0691820952891
 30
0
 40
9.499999905617642
 50
90
 51
150.0000000000003
  0
ARC
  8
0
 62
7
 10
230.993329387052
 20
607.5691816929218
 30
0
 40
9.499999905617187
 50
270
 51
330.0000000000001
  0
ARC
  8
0
 62
7
 10
230.993329387052
 20
607.5691816929218
 30
0
 40
9.499999905617232
 50
330.0000000000001
 51
29.99999999999984
  0
ARC
  8
0
 62
7
 10
230.993329387052
 20
607.5691816929218
 30
0
 40
9.499999905617232
 50
29.99999999999984
 51
90
  0
ARC
  8
0
 62
7
 10
230.993329387052
 20
607.5691816929218
 30
0
 40
9.499999905617642
 50
90
 51
150.0000000000002
  0
ARC
  8
0
 62
7
 10
230.993329387052
 20
607.5691816929218
 30
0
 40
9.499999905617232
 50
150.0000000000002
 51
209.9999999999998
  0
ARC
  8
0
 62
7
 10
230.993329387052
 20
607.5691816929218
 30
0
 40
9.499999905617232
 50
209.9999999999998
 51
270
  0
ARC
  8
0
 62
7
 10
230.993329387052
 20
688.5691808881868
 30
0
 40
9.499999905617232
 50
209.9999999999998
 51
270
  0
ARC
  8
0
 62
7
 10
230.993329387052
 20
688.5691808881868
 30
0
 40
9.499999905617642
 50
270
 51
330.0000000000001
  0
ARC
  8
0
 62
7
 10
230.993329387052
 20
688.5691808881868
 30
0
 40
9.499999905617232
 50
29.99999999999984
 51
90
  0
ARC
  8
0
 62
7
 10
230.993329387052
 20
688.5691808881868
 30
0
 40
9.499999905617232
 50
330.0000000000001
 51
29.99999999999984
  0
ARC
  8
0
 62
7
 10
230.993329387052
 20
688.5691808881868
 30
0
 40
9.499999905617642
 50
90
 51
150.0000000000002
  0
ARC
  8
0
 62
7
 10
230.993329387052
 20
688.5691808881868
 30
0
 40
9.499999905617232
 50
150.0000000000002
 51
209.9999999999998
  0
ARC
  8
0
 62
7
 10
301.141386396431
 20
729.0691804858195
 30
0
 40
9.499999905617715
 50
150.0000000000003
 51
209.9999999999997
  0
ARC
  8
0
 62
7
 10
301.141386396431
 20
729.0691804858195
 30
0
 40
9.499999905617258
 50
209.9999999999997
 51
270
  0
ARC
  8
0
 62
7
 10
301.141386396431
 20
729.0691804858195
 30
0
 40
9.499999905617642
 50
270
 51
330.0000000000017
  0
ARC
  8
0
 62
7
 10
301.141386396431
 20
729.0691804858195
 30
0
 40
9.499999905617651
 50
330.0000000000017
 51
29.99999999999839
  0
ARC
  8
0
 62
7
 10
301.141386396431
 20
729.0691804858195
 30
0
 40
9.499999905617651
 50
29.99999999999839
 51
90
  0
ARC
  8
0
 62
7
 10
301.141386396431
 20
729.0691804858195
 30
0
 40
9.499999905617642
 50
90
 51
150.0000000000003
  0
ARC
  8
0
 62
7
 10
371.2894434061107
 20
688.5691808881868
 30
0
 40
9.499999905617187
 50
90
 51
150.0000000000016
  0
ARC
  8
0
 62
7
 10
371.2894434061107
 20
688.5691808881868
 30
0
 40
9.499999905617651
 50
150.0000000000016
 51
209.9999999999984
  0
ARC
  8
0
 62
7
 10
371.2894434061107
 20
688.5691808881868
 30
0
 40
9.499999905617651
 50
209.9999999999984
 51
270
  0
ARC
  8
0
 62
7
 10
371.2894434061107
 20
688.5691808881868
 30
0
 40
9.499999905617642
 50
270
 51
329.9999999999999
  0
ARC
  8
0
 62
7
 10
371.2894434061107
 20
688.5691808881868
 30
0
 40
9.499999905617157
 50
329.9999999999999
 51
30.0000000000001
  0
ARC
  8
0
 62
7
 10
371.2894434061107
 20
688.5691808881868
 30
0
 40
9.499999905617157
 50
30.0000000000001
 51
90
  0
ARC
  8
0
 62
7
 10
240.6413869976984
 20
635.8691814116612
 30
0
 40
1.999999980129786
 50
180
 51
270
  0
ARC
  8
0
 62
7
 10
240.6413869976984
 20
660.2691811694474
 30
0
 40
1.999999980129815
 50
90
 51
180
  0
ARC
  8
0
 62
7
 10
246.4115047916728
 20
667.2691810998024
 30
0
 40
4.999999950325218
 50
270
 51
340.6684235940931
  0
ARC
  8
0
 62
7
 10
246.4115047916728
 20
628.8691814813058
 30
0
 40
4.999999950324967
 50
19.3315764059064
 51
90
  0
ARC
  8
0
 62
7
 10
354.8163334646704
 20
660.0691811713343
 30
0
 40
1.999999980129914
 50
192.6022648414989
 51
270
  0
ARC
  8
0
 62
7
 10
356.5670116880776
 20
640.0691813699343
 30
0
 40
1.999999980130269
 50
270
 51
351.7867892983002
  0
ARC
  8
0
 62
7
 10
301.141386396431
 20
648.0691812905541
 30
0
 40
57.99999942377055
 50
351.7867892982999
 51
8.213210701700128
  0
ARC
  8
0
 62
7
 10
356.5670116880776
 20
656.0691812111743
 30
0
 40
1.999999980129695
 50
8.213210701699195
 51
90
  0
ARC
  8
0
 62
7
 10
354.8163334646704
 20
636.0691814097743
 30
0
 40
1.999999980130269
 50
90
 51
167.3977351584997
  0
ARC
  8
0
 62
7
 10
301.141386396431
 20
648.0691812905541
 30
0
 40
52.99999947344556
 50
12.60226484150021
 51
347.3977351585003
  0
ARC
  8
0
 62
7
 10
301.141386396431
 20
648.0691812905541
 30
0
 40
52.99999947344558
 50
347.3977351585003
 51
12.60226484150021
  0
ARC
  8
0
 62
7
 10
332.3322982348493
 20
660.0313494734103
 30
0
 40
1.18165331245241
 50
105.9402917673832
 51
183.6867152256193
  0
ARC
  8
0
 62
7
 10
333.3429259161092
 20
662.6049006859419
 30
0
 40
1.385068770976592
 50
224.7753874393962
 51
275.0880761944988
  0
ARC
  8
0
 62
7
 10
332.3009058451614
 20
662.8641099164663
 30
0
 40
1.194631584130537
 50
84.76144147940019
 51
135.0970713793094
  0
ARC
  8
0
 62
7
 10
333.3429249198091
 20
659.834161558869
 30
0
 40
1.385068382836872
 50
224.7754297650004
 51
275.0881189960989
  0
ARC
  8
0
 62
7
 10
332.3009090659614
 20
671.8641024197516
 30
0
 40
1.19464013550992
 50
84.76163419048427
 51
135.0968786681964
  0
ARC
  8
0
 62
7
 10
332.3322964501497
 20
669.0313502545953
 30
0
 40
1.181651612429091
 50
105.9402253179032
 51
183.6867816751092
  0
ARC
  8
0
 62
7
 10
333.3429283323092
 20
668.834170422954
 30
0
 40
1.385077384231771
 50
224.7756046358885
 51
275.087944125197
  0
ARC
  8
0
 62
7
 10
333.342926694909
 20
671.6049000928267
 30
0
 40
1.385068586267505
 50
224.7753339849843
 51
275.0880445219144
  0
ARC
  8
0
 62
7
 10
181.1413881580313
 20
598.3620355481946
 30
0
 40
5.000000581080778
 50
65.78796603000447
 51
179.9910154685009
  0
ARC
  8
0
 62
7
 10
181.141385794331
 20
697.7763249185134
 30
0
 40
4.999998217074786
 50
180.0089603057942
 51
294.6618379135061
  0
ARC
  8
0
 62
7
 10
768.8248872303914
 20
-93.7671576729058
 30
0
 40
784.1871828529403
 50
117.8226245878996
 51
119.4719629159996
  0
ARC
  8
0
 62
7
 10
768.9126238618237
 20
1390.064111883735
 30
0
 40
784.3684247438172
 50
240.5281623995
 51
242.1766904565001
  0
ARC
  8
0
 62
7
 10
405.1413868008915
 20
595.3847112319743
 30
0
 40
4.999995889986241
 50
359.9999950799012
 51
117.4495661068968
  0
ARC
  8
0
 62
7
 10
405.1413853869915
 20
700.7536560513343
 30
0
 40
4.999997303897448
 50
242.5595038309998
 51
359.9999510353984
  0
ARC
  8
0
 62
7
 10
261.012746458909
 20
641.8846796173987
 30
0
 40
55.32577348433136
 50
193.9408610329016
 51
196.4310276758015
  0
ARC
  8
0
 62
7
 10
200.3749039618463
 20
336.7574289136363
 30
0
 40
2.027243038598873
 50
241.3519419331951
 51
3.496499931091819
  0
ARC
  8
0
 62
7
 10
405.1236464768679
 20
248.2391963528647
 30
0
 40
2.017793609587739
 50
359.5731512533947
 51
88.03798713870252
  0
ARC
  8
0
 62
7
 10
181.1499397095461
 20
342.8318023164873
 30
0
 40
2.008559911086344
 50
179.8549198614072
 51
264.002725072198
  0
ARC
  8
0
 62
7
 10
181.1414041489309
 20
241.8344433416958
 30
0
 40
2.000025463344864
 50
53.84584669740289
 51
180.1574530188985
  0
ARC
  8
0
 62
7
 10
405.1398908422063
 20
346.1742802807797
 30
0
 40
2.001502603994954
 50
253.9086336886114
 51
0.1751736084978172
  0
ARC
  8
0
 62
7
 10
408.6671349991632
 20
375.09218678908
 30
0
 40
30.63579157585062
 50
227.2744006063995
 51
246.3411379568994
  0
ARC
  8
0
 62
7
 10
335.4614672510613
 20
240.3387308047557
 30
0
 40
39.43634739095621
 50
2.474684744899708
 51
31.3089086489006
  0
ARC
  8
0
 62
7
 10
408.9358224736941
 20
329.6969903553816
 30
0
 40
79.52931757946445
 50
239.9865664691997
 51
267.3023446400998
  0
ARC
  8
0
 62
7
 10
175.8840880759624
 20
292.8596541204605
 30
0
 40
48.240268923633
 50
60.82119980670045
 51
83.98386080399997
  0
ARC
  8
0
 62
7
 10
181.1413875886308
 20
212.3030723753898
 30
0
 40
4.999999950324853
 50
108.6772852314958
 51
113.5781784781975
  0
ARC
  8
0
 62
7
 10
400.1413854128662
 20
219.8223714218855
 30
0
 40
9.999999900650295
 50
45.57299599920025
 51
62.50255806519914
  0
ARC
  8
0
 62
7
 10
400.1413854128662
 20
371.5168339930013
 30
0
 40
9.999999900650227
 50
301.275704174803
 51
314.4270040007999
  0
ARC
  8
0
 62
7
 10
186.141387539056
 20
371.9769001734306
 30
0
 40
9.999999900650035
 50
225.5729959992015
 51
242.6500220506006
  0
ARC
  8
0
 62
7
 10
376.9820332049546
 20
237.5060026794989
 30
0
 40
5.006942676962113
 50
62.49710956739931
 51
115.0627890001027
  0
ARC
  8
0
 62
7
 10
386.5776897630215
 20
357.3869760438814
 30
0
 40
4.92721587789049
 50
214.4167413409984
 51
290.9343627148014
  0
ARC
  8
0
 62
7
 10
200.6075651204349
 20
358.8667981002794
 30
0
 40
5.001504331003851
 50
242.6487288313924
 51
289.6497245158972
  0
ARC
  8
0
 62
7
 10
200.5807482926009
 20
358.8789784925583
 30
0
 40
5.000001192102822
 50
242.6499401490001
 51
351.6017051407034
  0
ARC
  8
0
 62
7
 10
200.5276595212288
 20
359.0548579569111
 30
0
 40
5.205496345477385
 50
289.7819565377014
 51
349.3580066005991
  0
ARC
  8
0
 62
7
 10
181.1419610713253
 20
212.3027010293939
 30
0
 40
5.000573446925714
 50
113.5824972638013
 51
179.9957139053011
  0
ARC
  8
0
 62
7
 10
386.4863927832287
 20
357.656464249604
 30
0
 40
5.258036516758315
 50
217.4201375734964
 51
285.3821743173015
  0
ARC
  8
0
 62
7
 10
400.1416237919641
 20
371.5167321661023
 30
0
 40
9.999758899493054
 50
314.4264349178981
 51
0.0005750445005013578
  0
ARC
  8
0
 62
7
 10
400.1416237919641
 20
219.8224726934844
 30
0
 40
9.99975889949366
 50
359.9994249555018
 51
45.57356508209976
  0
ARC
  8
0
 62
7
 10
186.1411791314579
 20
371.9768117553315
 30
0
 40
9.999791493425585
 50
179.9995034097991
 51
225.5734866278004
  0
ARC
  8
0
 62
7
 10
204.6702524376717
 20
220.1512665588178
 30
0
 40
5.100089111332396
 50
52.11796907709736
 51
108.2312123461976
  0
ARC
  8
0
 62
7
 10
377.1190762071931
 20
237.2003091577356
 30
0
 40
5.341908988405387
 50
115.0053463003978
 51
172.0736624786958
  0
ARC
  8
0
 62
7
 10
356.2871414544586
 20
367.8895039759389
 30
0
 40
21.00112612431888
 50
4.148264619601218
 51
57.80302396950055
  0
ARC
  8
0
 62
7
 10
240.5931024373783
 20
353.1376994756982
 30
0
 40
35.42220280930098
 50
113.6260995654998
 51
171.8673569659004
  0
ARC
  8
0
 62
7
 10
382.1411723357985
 20
398.891037655739
 30
0
 40
2.000210088394214
 50
269.993523681312
 51
359.9938845198994
  0
ARC
  8
0
 62
7
 10
220.141600457064
 20
398.891037655739
 30
0
 40
2.000210088394287
 50
180.0061154801006
 51
270.0064763187148
  0
ARC
  8
0
 62
7
 10
301.1757795801898
 20
322.5102769278813
 30
0
 40
125.5885979279771
 50
285.9226312213997
 51
292.6529480149001
  0
ARC
  8
0
 62
7
 10
181.1418028480268
 20
241.8250598184889
 30
0
 40
5.000416720708861
 50
53.8542703229981
 51
179.9554583835959
  0
ARC
  8
0
 62
7
 10
181.1357461087871
 20
342.8390249403154
 30
0
 40
4.994358927449503
 50
180.0245124596974
 51
264.2816779761009
  0
ARC
  8
0
 62
7
 10
405.1422325626829
 20
346.1837291433856
 30
0
 40
4.999151237087948
 50
253.8386384628995
 51
359.9618395085041
  0
ARC
  8
0
 62
7
 10
294.2310377058855
 20
246.2595661696321
 30
0
 40
1.313855710576952
 50
261.6025421522025
 51
347.0579669867057
  0
ARC
  8
0
 62
7
 10
299.7469791946849
 20
246.2595658516323
 30
0
 40
1.313855397186092
 50
261.6025397656816
 51
347.0579780762065
  0
ARC
  8
0
 62
7
 10
304.4392954374669
 20
242.8593947364128
 30
0
 40
3.992935785319558
 50
354.0577613584035
 51
38.02213897840559
  0
ARC
  8
0
 62
7
 10
304.2790758697581
 20
242.9167520736431
 30
0
 40
3.268003641240723
 50
351.7182021560045
 51
35.53579207430034
  0
ARC
  8
0
 62
7
 10
304.0544497742901
 20
242.0443399554104
 30
0
 40
3.48179767678849
 50
326.9940237753943
 51
6.624765804403289
  0
ARC
  8
0
 62
7
 10
286.1453482038171
 20
322.900884034001
 30
0
 40
126.0106865069272
 50
231.5701528579001
 51
253.6185355013998
  0
ARC
  8
0
 62
7
 10
286.0491155853727
 20
322.9824245965909
 30
0
 40
126.0703770741722
 50
253.6724679003002
 51
261.0177739323
  0
ARC
  8
0
 62
7
 10
292.1843061240199
 20
453.1032848134399
 30
0
 40
256.2903753089446
 50
267.0713217952
 51
271.4240957818
  0
ARC
  8
0
 62
7
 10
282.2610311189076
 20
293.0851263755201
 30
0
 40
95.95914065624336
 50
260.4650239405
 51
266.4724348255999
  0
ARC
  8
0
 62
7
 10
269.6899613724011
 20
331.6210760878656
 30
0
 40
2.077671610534243
 50
53.78890093869897
 51
91.91366759530257
  0
ARC
  8
0
 62
7
 10
269.192705784141
 20
331.2984642291706
 30
0
 40
2.64014411567948
 50
355.6149642002096
 51
49.21317424729453
  0
ARC
  8
0
 62
7
 10
269.9309043732071
 20
330.7885118475372
 30
0
 40
4.886553730136282
 50
3.614819011601293
 51
53.13425279609466
  0
ARC
  8
0
 62
7
 10
269.9365364072512
 20
330.4127896735702
 30
0
 40
5.18886520032553
 50
55.67384685759244
 51
92.05730102149343
  0
ARC
  8
0
 62
7
 10
269.5534104367578
 20
329.3321841070058
 30
0
 40
6.269217439498902
 50
88.20063804229574
 51
126.0968088815014
  0
ARC
  8
0
 62
7
 10
272.5913270645758
 20
326.3173287516582
 30
0
 40
10.51699107861865
 50
129.7957921555966
 51
183.9409648944982
  0
ARC
  8
0
 62
7
 10
268.8292128046526
 20
322.5567101132199
 30
0
 40
6.458411887023911
 50
231.6551971060003
 51
270.1179561916991
  0
ARC
  8
0
 62
7
 10
269.1047987503146
 20
322.5839364269494
 30
0
 40
6.490926075211045
 50
267.6841216348014
 51
305.3749173892014
  0
ARC
  8
0
 62
7
 10
268.6349756099824
 20
322.1584780208762
 30
0
 40
6.446804247618999
 50
310.9775549429041
 51
3.868030322403439
  0
ARC
  8
0
 62
7
 10
269.0913933848476
 20
322.954030102673
 30
0
 40
5.986574935401348
 50
356.5461386044968
 51
49.33781977109737
  0
ARC
  8
0
 62
7
 10
269.5321670718688
 20
323.1097110466261
 30
0
 40
5.586131491862177
 50
51.72746208720482
 51
90.42323972949862
  0
ARC
  8
0
 62
7
 10
269.6078212688169
 20
323.096725919955
 30
0
 40
5.600184826821141
 50
91.19628269629584
 51
143.9192384413956
  0
ARC
  8
0
 62
7
 10
274.6213534169081
 20
326.4233947997048
 30
0
 40
9.539575315949033
 50
135.6043981562034
 51
180.1716544460032
  0
ARC
  8
0
 62
7
 10
269.5719076598741
 20
330.7990154561329
 30
0
 40
2.898982107674235
 50
89.03798065100527
 51
127.5509382307022
  0
ARC
  8
0
 62
7
 10
268.9274396187768
 20
323.6035869354194
 30
0
 40
3.291721242182302
 50
89.22111530789428
 51
128.0779575825973
  0
ARC
  8
0
 62
7
 10
269.0224177683333
 20
324.0011452565698
 30
0
 40
2.894294697360014
 50
52.41664220070133
 51
90.99443891769897
  0
ARC
  8
0
 62
7
 10
267.790650771871
 20
323.1668956036577
 30
0
 40
4.331962660207073
 50
352.3920542099015
 51
46.223774076406
  0
ARC
  8
0
 62
7
 10
266.8542257273741
 20
321.9478979948688
 30
0
 40
5.26993303630385
 50
320.4442282820987
 51
7.035372542699553
  0
ARC
  8
0
 62
7
 10
268.9447141442054
 20
321.0196723753909
 30
0
 40
3.128208320034973
 50
270.5031810517974
 51
309.0946027419992
  0
ARC
  8
0
 62
7
 10
268.9274796753764
 20
320.8021476803518
 30
0
 40
2.910906320787721
 50
232.5309749995962
 51
270.8800001362016
  0
ARC
  8
0
 62
7
 10
270.6289145672729
 20
322.5090784221932
 30
0
 40
5.30988039172273
 50
174.7653719454969
 51
229.1622384573945
  0
ARC
  8
0
 62
7
 10
269.2510104235623
 20
323.0717484656032
 30
0
 40
3.910613553753046
 50
127.0040033968011
 51
181.1461935881026
  0
ARC
  8
0
 62
7
 10
336.4168492896699
 20
326.0040247819709
 30
0
 40
1.918185921323601
 50
354.886639372911
 51
50.7807150514078
  0
ARC
  8
0
 62
7
 10
335.7350977538429
 20
324.3595220742093
 30
0
 40
3.659243037466784
 50
58.81803315870322
 51
93.10962386969776
  0
ARC
  8
0
 62
7
 10
335.4786792429902
 20
324.3075208013259
 30
0
 40
3.706308895693748
 50
89.10462146239816
 51
143.1405821752015
  0
ARC
  8
0
 62
7
 10
330.2892962124467
 20
325.6201471257849
 30
0
 40
2.403140411829408
 50
22.26728231640354
 51
95.20526569929024
  0
ARC
  8
0
 62
7
 10
330.0216403770057
 20
324.2906312823937
 30
0
 40
3.723076708946171
 50
89.23615601069585
 51
143.0090755356002
  0
ARC
  8
0
 62
7
 10
329.2438634273333
 20
324.2019825651744
 30
0
 40
2.205082836058142
 50
128.8087525634003
 51
185.2138595424947
  0
ARC
  8
0
 62
7
 10
329.1386687994784
 20
324.2691180267073
 30
0
 40
2.087221514992636
 50
89.93581456779886
 51
127.713489950899
  0
ARC
  8
0
 62
7
 10
329.1596037724705
 20
325.0171753503758
 30
0
 40
1.339292000682016
 50
53.56675056961129
 51
90.79560741060813
  0
ARC
  8
0
 62
7
 10
328.2965210472451
 20
325.254168936421
 30
0
 40
1.859305241405095
 50
356.3363646237862
 51
26.87645767610077
  0
ARC
  8
0
 62
7
 10
334.8256385888783
 20
324.2019108522748
 30
0
 40
2.205244658931282
 50
128.8110071693878
 51
185.2116049364911
  0
ARC
  8
0
 62
7
 10
334.6712654430119
 20
324.4146916137609
 30
0
 40
1.942732209165552
 50
91.9155103333855
 51
129.1964996435948
  0
ARC
  8
0
 62
7
 10
334.6878395416472
 20
324.8615199256217
 30
0
 40
1.497039033784313
 50
55.46169123019764
 51
93.12120586888919
  0
ARC
  8
0
 62
7
 10
334.2266258732295
 20
325.1323425283316
 30
0
 40
1.625471740346122
 50
357.0310077689815
 51
36.30256140990895
  0
ARC
  8
0
 62
7
 10
407.1701438019356
 20
371.7424144055602
 30
0
 40
30.02910690458634
 50
184.4269300224003
 51
209.5727859232996
  0
ARC
  8
0
 62
7
 10
286.2185370544896
 20
321.4794210535227
 30
0
 40
3.495662657958204
 50
235.6944270150047
 51
273.8442378934076
  0
ARC
  8
0
 62
7
 10
286.531039512385
 20
321.3589348429198
 30
0
 40
3.587112821183133
 50
176.2588517168929
 51
230.4793805290988
  0
ARC
  8
0
 62
7
 10
285.513036617999
 20
321.6159231941668
 30
0
 40
5.544127808058783
 50
180.237001136801
 51
231.2630013916989
  0
ARC
  8
0
 62
7
 10
285.9574294203837
 20
323.057776591242
 30
0
 40
6.969071160576439
 50
235.8356558789009
 51
273.0087234257032
  0
ARC
  8
0
 62
7
 10
286.4939463454537
 20
323.2316908294141
 30
0
 40
7.135421610759844
 50
268.6289924894017
 51
306.4405530026991
  0
ARC
  8
0
 62
7
 10
286.7764079373476
 20
322.5532830200544
 30
0
 40
6.424285537964957
 50
308.0080493248956
 51
2.142425918497937
  0
ARC
  8
0
 62
7
 10
287.3672386420774
 20
323.1239420240848
 30
0
 40
5.838326012680945
 50
356.7548691867985
 51
49.98336083960167
  0
ARC
  8
0
 62
7
 10
287.851733123264
 20
323.2928264779069
 30
0
 40
5.40382721014102
 50
52.76726502909991
 51
91.08201203309955
  0
ARC
  8
0
 62
7
 10
287.5400592263602
 20
322.4411359093681
 30
0
 40
6.258066270054877
 50
88.08036745009692
 51
130.566067809796
  0
ARC
  8
0
 62
7
 10
287.0615502464145
 20
322.6497457255962
 30
0
 40
4.345479012239736
 50
89.47594619759543
 51
148.901306423003
  0
ARC
  8
0
 62
7
 10
287.1543688990926
 20
324.1097899446903
 30
0
 40
2.885741122213773
 50
52.35713631790627
 51
91.05382129830832
  0
ARC
  8
0
 62
7
 10
285.8058296790903
 20
323.240450710827
 30
0
 40
4.43036665690602
 50
354.209257205109
 51
45.39682712740435
  0
ARC
  8
0
 62
7
 10
285.3001456884138
 20
322.4008861577684
 30
0
 40
4.929099475617752
 50
312.9310419419013
 51
4.567952192002072
  0
ARC
  8
0
 62
7
 10
286.389110430295
 20
321.603842400087
 30
0
 40
3.61278198757397
 50
271.0117228648018
 51
308.8926292203021
  0
ARC
  8
0
 62
7
 10
317.810474727424
 20
326.0035984201753
 30
0
 40
1.919159796060784
 50
354.902020590101
 51
50.76522442149229
  0
ARC
  8
0
 62
7
 10
317.1225854775582
 20
324.3309002204936
 30
0
 40
3.687444848027018
 50
58.9531760563019
 51
92.97448097210037
  0
ARC
  8
0
 62
7
 10
316.8739208650284
 20
324.3063022475379
 30
0
 40
3.707517999981627
 50
89.11416337789663
 51
143.1310542139914
  0
ARC
  8
0
 62
7
 10
311.6818529230116
 20
325.6167093757188
 30
0
 40
2.406375964619077
 50
22.32419823490844
 51
95.14838855578867
  0
ARC
  8
0
 62
7
 10
311.4085965004263
 20
324.306303026938
 30
0
 40
3.707517226530484
 50
89.11415728539525
 51
143.1310603065994
  0
ARC
  8
0
 62
7
 10
310.6381807763808
 20
324.202119322273
 30
0
 40
2.204772672810646
 50
128.804401206696
 51
185.2181637606086
  0
ARC
  8
0
 62
7
 10
310.5304881949508
 20
324.2773983209252
 30
0
 40
2.078946314798816
 50
89.85778761169955
 51
127.7915423889022
  0
ARC
  8
0
 62
7
 10
310.5567264532899
 20
325.0248924539986
 30
0
 40
1.331612611981165
 50
53.45542047610086
 51
90.90697570030932
  0
ARC
  8
0
 62
7
 10
309.6906540762946
 20
325.2540643558221
 30
0
 40
1.859806711790547
 50
356.3405822672945
 51
26.87224003260376
  0
ARC
  8
0
 62
7
 10
316.219838529327
 20
324.2020978140734
 30
0
 40
2.20482120436565
 50
128.8050776328151
 51
185.2174873345945
  0
ARC
  8
0
 62
7
 10
316.069156467024
 20
324.4060304491475
 30
0
 40
1.951499303726387
 50
92.00228711540265
 51
129.1096926883123
  0
ARC
  8
0
 62
7
 10
316.0627623843873
 20
324.7914026570182
 30
0
 40
1.566154964141676
 50
56.3217679701927
 51
92.26109922870244
  0
ARC
  8
0
 62
7
 10
315.6194794133915
 20
325.1318067505366
 30
0
 40
1.627231317069668
 50
357.0531112964961
 51
36.28045788239898
  0
ARC
  8
0
 62
7
 10
359.9698751103704
 20
423.6710269557496
 30
0
 40
5.049687999374419
 50
52.98400568990166
 51
76.97622417839732
  0
ARC
  8
0
 62
7
 10
242.328653192136
 20
423.6372697497848
 30
0
 40
5.086133338514877
 50
103.1109998816027
 51
126.9287702502036
  0
ARC
  8
0
 62
7
 10
248.8947376280019
 20
432.72886683696
 30
0
 40
2.012027072786511
 50
89.53331898370642
 51
179.6595227502871
  0
ARC
  8
0
 62
7
 10
287.141386535721
 20
425.5908237781762
 30
0
 40
1.999999980129758
 50
270
 51
0
  0
ARC
  8
0
 62
7
 10
315.1413862574416
 20
425.5908237781762
 30
0
 40
1.999999980130269
 50
180
 51
270
  0
ARC
  8
0
 62
7
 10
363.1754831658225
 20
433.368605915104
 30
0
 40
5.223447805433303
 50
91.24265487189935
 51
123.1414057186966
  0
ARC
  8
0
 62
7
 10
379.6299673161473
 20
433.368605915104
 30
0
 40
5.22344780543246
 50
91.24265487190391
 51
123.1414057186993
  0
ARC
  8
0
 62
7
 10
309.4819086744681
 20
433.368611420104
 30
0
 40
5.22344233855821
 50
91.24267472639748
 51
123.1414243237965
  0
ARC
  8
0
 62
7
 10
301.2708382071453
 20
419.6024606369709
 30
0
 40
18.98880586869316
 50
90.39060380660098
 51
107.1972720250001
  0
ARC
  8
0
 62
7
 10
222.8793730449645
 20
433.3686029307044
 30
0
 40
5.223450977403908
 50
91.24274936890276
 51
123.1413991294046
  0
ARC
  8
0
 62
7
 10
231.1227864597661
 20
419.6024262824711
 30
0
 40
18.98884026190355
 50
90.39062057379999
 51
107.1972567275992
  0
ARC
  8
0
 62
7
 10
292.8008728165944
 20
392.1129696243791
 30
0
 40
5.22337564865621
 50
271.2425951629018
 51
303.1417880103974
  0
ARC
  8
0
 62
7
 10
301.0119521552172
 20
405.8789140723141
 30
0
 40
18.9885329030056
 50
270.3905564067005
 51
287.1974714475004
  0
ARC
  8
0
 62
7
 10
222.6528141749152
 20
392.1129751293786
 30
0
 40
5.223381115451682
 50
271.2425753083023
 51
303.1417694051997
  0
ARC
  8
0
 62
7
 10
239.10729832524
 20
392.1129751293786
 30
0
 40
5.223381115452068
 50
271.2425753082966
 51
303.1417694052006
  0
ARC
  8
0
 62
7
 10
379.4034084463981
 20
392.112978113479
 30
0
 40
5.2233842871619
 50
271.242669805603
 51
303.1417628161996
  0
ARC
  8
0
 62
7
 10
371.1600039028965
 20
405.878948425914
 30
0
 40
18.98856729523725
 50
270.3905731739999
 51
287.1974561501989
  0
ARC
  8
0
 62
7
 10
240.6413869976984
 20
445.7408235780861
 30
0
 40
1.999999980130269
 50
90
 51
180
  0
ARC
  8
0
 62
7
 10
242.6413869776286
 20
434.740823687271
 30
0
 40
3.999999960259633
 50
311.409622109303
 51
0
  0
ARC
  8
0
 62
7
 10
242.6413869776286
 20
434.740823687271
 30
0
 40
1.599999984103922
 50
244.9125144384871
 51
0
  0
ARC
  8
0
 62
7
 10
242.6413869776286
 20
434.740823687271
 30
0
 40
1.599999984103789
 50
0
 51
115.0874855615101
  0
ARC
  8
0
 62
7
 10
279.1413865740012
 20
450.2408232192786
 30
0
 40
3.000000301617199
 50
14.1448047284045
 51
180.0000390790976
  0
ARC
  8
0
 62
7
 10
377.0429272913495
 20
237.4821356127357
 30
0
 40
5.000000155735258
 50
62.50256783490251
 51
176.0669384766946
  0
ARC
  8
0
 62
7
 10
301.141386396431
 20
322.8908247986008
 30
0
 40
125.9999987481902
 50
271.1777465195001
 51
285.8870382585001
  0
ARC
  8
0
 62
7
 10
236.2724889818035
 20
375.3870368505512
 30
0
 40
3.369530187883107
 50
282.2245416661947
 51
299.7855909707994
  0
ARC
  8
0
 62
7
 10
335.5913951419705
 20
240.3408347062348
 30
0
 40
36.54999054927124
 50
297.0212171653004
 51
356.0577115702999
  0
ARC
  8
0
 62
7
 10
220.141387201166
 20
421.5908238180166
 30
0
 40
1.999999980129832
 50
125.0316505289962
 51
180
  0
ARC
  8
0
 62
7
 10
382.1413855916965
 20
421.5908238180166
 30
0
 40
1.999999980130156
 50
0
 51
54.96834947099312
  0
ARC
  8
0
 62
7
 10
243.1413869727614
 20
452.7408235084411
 30
0
 40
4.999999950324707
 50
270
 51
0
  0
ARC
  8
0
 62
7
 10
347.1413859396214
 20
454.2408234935386
 30
0
 40
6.999999930455488
 50
0
 51
90
  0
ARC
  8
0
 62
7
 10
255.1413868535412
 20
454.2408234935386
 30
0
 40
6.999999930455033
 50
90
 51
180
  0
ARC
  8
0
 62
7
 10
294.5698643601193
 20
592.0948656088592
 30
0
 40
36.15414946261043
 50
259.7734131258001
 51
265.3121797856996
  0
CIRCLE
  8
0
 62
2
  6
DASHDOT
 10
743.0221025495468
 20
295.8908250668458
 30
0
 40
69.99999930455078
  0
CIRCLE
  8
0
 62
2
  6
DASHDOT
 10
743.0221025495468
 20
295.8908250668458
 30
0
 40
74.99999925487509
  0
CIRCLE
  8
0
 62
7
 10
743.0221025495468
 20
295.8908250668458
 30
0
 40
92.99999907604524
  0
CIRCLE
  8
0
 62
7
 10
743.0221025495468
 20
295.8908250668458
 30
0
 40
57.99999942377053
  0
CIRCLE
  8
0
 62
7
 10
743.0221025495468
 20
295.8908250668458
 30
0
 40
35.4999996473075
  0
CIRCLE
  8
0
 62
7
 10
743.0221025495468
 20
295.8908250668458
 30
0
 40
55.99999944364026
  0
CIRCLE
  8
0
 62
7
 10
743.0221025495468
 20
295.8908250668458
 30
0
 40
35.9999996423403
  0
CIRCLE
  8
0
 62
7
 10
301.141386396431
 20
648.0691812905541
 30
0
 40
45.99999954299028
  0
CIRCLE
  8
0
 62
7
 10
301.141386396431
 20
567.0691820952891
 30
0
 40
11.99999988078031
  0
CIRCLE
  8
0
 62
7
 10
371.2894434061107
 20
607.5691816929218
 30
0
 40
11.9999998807798
  0
CIRCLE
  8
0
 62
7
 10
230.993329387052
 20
607.5691816929218
 30
0
 40
11.99999988078019
  0
CIRCLE
  8
0
 62
7
 10
230.993329387052
 20
688.5691808881868
 30
0
 40
11.99999988078019
  0
CIRCLE
  8
0
 62
7
 10
371.2894434061107
 20
688.5691808881868
 30
0
 40
11.9999998807798
  0
CIRCLE
  8
0
 62
7
 10
301.141386396431
 20
729.0691804858195
 30
0
 40
11.99999988078031
  0
CIRCLE
  8
0
 62
7
 10
279.1413866151013
 20
449.2408235434135
 30
0
 40
2.499999975162098
  0
DIMENSION
  8
1
  6
CONTINUOUS
 62
2
  2
*D0
  3
DMST_1
 10
460.308997376692
 20
555.0691800092093
 30
0
 11
457.808997376692
 21
648.0691812905541
 31
0
 12
0
 22
0
 32
0
 70
0
 13
426.1413851546565
 23
741.0691825718993
 33
0
 14
426.1413851546565
 24
555.0691800092093
 34
0
 50
90
 53
0
  0
DIMENSION
  8
1
  6
CONTINUOUS
 62
2
  2
*D1
  3
DMST_1
 10
460.308997376692
 20
195.8908245700457
 30
0
 11
457.808997376692
 21
245.8908248184458
 31
0
 12
0
 22
0
 32
0
 70
0
 13
443.1413891878863
 23
295.8908250668458
 33
0
 14
351.1413866449814
 24
195.8908245700457
 34
0
 50
90
 53
0
  0
DIMENSION
  8
1
  6
CONTINUOUS
 62
2
  2
*D2
  3
DMST_1
 10
480.308997376692
 20
195.8908245700457
 30
0
 11
477.808997376692
 21
329.0658275207023
 31
0
 12
0
 22
0
 32
0
 70
0
  1
267
 13
338.1413865057364
 23
462.2408304713588
 33
0
 14
351.1413866449814
 24
195.8908245700457
 34
0
 50
90
 53
0
  0
DIMENSION
  8
1
  6
CONTINUOUS
 62
2
  2
*D3
  3
DMST_1
 10
301.141386396431
 20
154.3778463835322
 30
0
 11
229.6413837689336
 21
156.8778463835322
 31
0
 12
0
 22
0
 32
0
 70
0
 13
158.1413811414361
 23
239.8908238945058
 33
0
 14
301.141386396431
 24
180.8908245700457
 34
0
 53
0
  0
DIMENSION
  8
1
  6
CONTINUOUS
 62
2
  2
*D4
  3
DMST_1
 10
301.141386396431
 20
154.3778463835322
 30
0
 11
364.6413877921586
 21
156.8778463835322
 31
0
 12
0
 22
0
 32
0
 70
0
 13
428.1413891878863
 23
239.8908238945058
 33
0
 14
301.141386396431
 24
180.8908245700457
 34
0
 53
0
  0
DIMENSION
  8
1
  6
CONTINUOUS
 62
2
  2
*D5
  3
DMST_1
 10
428.1413891878862
 20
134.3778463835322
 30
0
 11
301.141386396431
 21
136.8778463835322
 31
0
 12
0
 22
0
 32
0
 70
0
 13
158.1413811414361
 23
239.8908238945058
 33
0
 14
428.1413891878863
 24
239.8908238945058
 34
0
 53
0
  0
DIMENSION
  8
1
  6
CONTINUOUS
 62
2
  2
*D6
  3
DMST_2
 10
694.7495779042586
 20
267.5048549044972
 30
0
 11
847.520159885717
 21
360.23961889941
 31
0
 12
0
 22
0
 32
0
 70
3
 15
791.2946271948351
 25
324.2767952291945
 35
0
 40
0
 53
0
  0
DIMENSION
  8
1
  6
CONTINUOUS
 62
2
  2
*D7
  3
DMST_2
 10
679.7479325486041
 20
265.9512306586227
 30
0
 11
852.678069107271
 21
350.542749562889
 31
0
 12
0
 22
0
 32
0
 70
3
 15
806.2962725504896
 25
325.8304194750691
 35
0
 40
0
 53
0
  0
DIMENSION
  8
1
  6
CONTINUOUS
 62
2
  2
*D8
  3
DMST_2
 10
672.4489496036114
 20
270.5051997741557
 30
0
 11
856.598080115651
 21
339.401665644334
 31
0
 12
0
 22
0
 32
0
 70
3
 15
813.5952554954823
 25
321.2764503595359
 35
0
 40
0
 53
0
  0
DIMENSION
  8
1
  6
CONTINUOUS
 62
2
  2
*D9
  3
DMST_2
 10
652.8187442056859
 20
273.2555876783531
 30
0
 11
859.280192910859
 21
327.641632619192
 31
0
 12
0
 22
0
 32
0
 70
3
 15
833.2254608934079
 25
318.5260624553386
 35
0
 40
0
 53
0
  0
ENDSEC
  0
EOF
