  0
SECTION
  2
HEADER
  9
$ACADVER
  1
AC1009
  9
$INSBASE
 10
0
 20
0
  9
$EXTMIN
 10
1257.332285125536
 20
378.951606725951
  9
$EXTMAX
 10
1558.774853816068
 20
799.4183107125233
  9
$LIMMIN
 10
1257.332285125536
 20
378.951606725951
  9
$LIMMAX
 10
1558.774853816068
 20
799.4183107125233
  9
$VIEWCTR
 10
10
 20
10
  9
$VIEWSIZE
 40
10
  9
$SNAPMODE
 70
0
  9
$SNAPUNIT
 10
1
 20
1
  9
$SNAPBASE
 10
0
 20
0
  9
$SNAPANG
 50
0
  9
$SNAPSTYLE
 70
0
  9
$SNAPISOPAIR
 70
0
  9
$GRIDMODE
 70
0
  9
$GRIDUNIT
 10
0
 20
0
  9
$ORTHOMODE
 70
0
  9
$REGENMODE
 70
1
  9
$FILLMODE
 70
1
  9
$QTEXTMODE
 70
0
  9
$DRAGMODE
 70
2
  9
$LTSCALE
 40
1
  9
$OSMODE
 70
0
  9
$ATTMODE
 70
1
  9
$TEXTSIZE
 40
3.5
  9
$TRACEWID
 40
0.5
  9
$TEXTSTYLE
  7
STANDARD
  9
$CLAYER
  8
0
  9
$CELTYPE
  6
BYLAYER
  9
$CECOLOR
 62
256
  9
$DIMSCALE
 40
1
  9
$DIMASZ
 40
0.18
  9
$DIMEXO
 40
0.0625
  9
$DIMDLI
 40
0.38
  9
$DIMRND
 40
0
  9
$DIMDLE
 40
0
  9
$DIMEXE
 40
0.18
  9
$DIMTP
 40
0
  9
$DIMTM
 40
0
  9
$DIMTXT
 40
0.18
  9
$DIMCEN
 40
0.09
  9
$DIMTSZ
 40
0
  9
$DIMTOL
 70
0
  9
$DIMLIM
 70
0
  9
$DIMTIH
 70
1
  9
$DIMTOH
 70
1
  9
$DIMSE1
 70
0
  9
$DIMSE2
 70
0
  9
$DIMTAD
 70
0
  9
$DIMZIN
 70
0
  9
$DIMBLK
  1

  9
$DIMASO
 70
1
  9
$DIMSHO
 70
1
  9
$DIMPOST
  1

  9
$DIMAPOST
  1

  9
$DIMALT
 70
0
  9
$DIMALTD
 70
2
  9
$DIMALTF
 40
25.4
  9
$DIMLFAC
 40
1
  9
$DIMTOFL
 70
0
  9
$DIMTVP
 40
0
  9
$DIMTIX
 70
0
  9
$DIMSOXD
 70
0
  9
$DIMSAH
 70
0
  9
$DIMBLK1
  1

  9
$DIMBLK2
  1

  9
$DIMSTYLE
  2
*UNNAMED
  9
$DIMCLRD
 70
0
  9
$DIMCLRE
 70
0
  9
$DIMCLRT
 70
0
  9
$DIMTFAC
 40
1
  9
$DIMGAP
 40
0.09
  9
$LUNITS
 70
2
  9
$LUPREC
 70
4
  9
$AXISMODE
 70
0
  9
$AXISUNIT
 10
0
 20
0
  9
$SKETCHINC
 40
0.1
  9
$FILLETRAD
 40
2
  9
$AUNITS
 70
0
  9
$AUPREC
 70
0
  9
$MENU
  1
ACAD
  9
$ELEVATION
 40
0
  9
$THICKNESS
 40
0
  9
$VIEWDIR
 10
0
 20
0
 30
1
  9
$LIMCHECK
 70
0
  9
$BLIPMODE
 70
1
  9
$CHAMFERA
 40
0
  9
$CHAMFERB
 40
0
  9
$FASTZOOM
 70
1
  9
$SKPOLY
 70
0
  9
$ANGBASE
 50
0
  9
$ANGDIR
 70
0
  9
$PDMODE
 70
0
  9
$PDSIZE
 40
0
  9
$PLINEWID
 40
0
  9
$COORDS
 70
2
  0
ENDSEC
  0
SECTION
  2
TABLES
  0
TABLE
  2
DIMSTYLE
 70
2
  0
DIMSTYLE
  2
DMST_1
 70
0
  3

  4

  5

  6

  7

 40
1
 41
3
 42
0.5
 43
7
 44
1
 45
0
 46
0
 47
0
 48
0
140
3
141
0
142
0
143
25.4
144
1
145
0
146
1
147
0.09
 71
0
 72
0
 73
0
 74
0
 75
0
 76
0
 77
1
 78
9
170
0
171
2
172
0
173
0
174
0
175
0
176
2
177
2
178
2
  0
DIMSTYLE
  2
DMST_2
 70
0
  3

  4

  5

  6

  7

 40
1
 41
3.2
 42
0.4999999999999999
 43
7
 44
1.5
 45
0
 46
0
 47
0
 48
0
140
3.2
141
0
142
0
143
25.4
144
1
145
0
146
1
147
0.09
 71
0
 72
0
 73
0
 74
0
 75
0
 76
0
 77
1
 78
9
170
0
171
2
172
0
173
0
174
0
175
0
176
2
177
2
178
2
  0
ENDTAB
  0
TABLE
  2
LTYPE
 70
9
  0
LTYPE
  2
CONTINUOUS
 70
64
  3
Solid line
 72
65
 73
0
 40
0
  0
LTYPE
  2
BORDER
 70
64
  3
__ __ . __ __ .
 72
65
 73
6
 40
19.36359820990793
 49
5.532456631402266
 49
-2.766228315701133
 49
5.532456631402266
 49
-2.766228315701133
 49
0
 49
-2.766228315701133
  0
LTYPE
  2
CENTER
 70
64
  3
____ _ ____ _
 72
65
 73
4
 40
22.12982652560907
 49
13.83114157850567
 49
-2.766228315701133
 49
2.766228315701133
 49
-2.766228315701133
  0
LTYPE
  2
DASHDOT
 70
64
  3
__ . __ . __ .
 72
65
 73
4
 40
11.06491326280453
 49
5.532456631402266
 49
-2.766228315701133
 49
0
 49
-2.766228315701133
  0
LTYPE
  2
DASHED
 70
64
  3
__ __ __ __ __
 72
65
 73
2
 40
8.2986849471034
 49
5.532456631402266
 49
-2.766228315701133
  0
LTYPE
  2
DIVIDE
 70
64
  3
__ . . __ . . 
 72
65
 73
6
 40
13.83114157850567
 49
5.532456631402266
 49
-2.766228315701133
 49
0
 49
-2.766228315701133
 49
0
 49
-2.766228315701133
  0
LTYPE
  2
DOT
 70
64
  3
..............
 72
65
 73
4
 40
5.532456631402266
 49
0
 49
-2.766228315701133
 49
0
 49
-2.766228315701133
  0
LTYPE
  2
HIDDEN
 70
64
  3
_ _ _ _ _ _ _
 72
65
 73
2
 40
4.1493424735517
 49
2.766228315701133
 49
-1.383114157850567
  0
LTYPE
  2
PHANTOM
 70
64
  3
_____ _ _ _____ _ _ 
 72
65
 73
6
 40
27.66228315701133
 49
13.83114157850567
 49
-2.766228315701133
 49
2.766228315701133
 49
-2.766228315701133
 49
2.766228315701133
 49
-2.766228315701133
  0
ENDTAB
  0
TABLE
  2
LAYER
 70
5
  0
LAYER
  2
208
 70
0
 62
7
  6
CONTINUOUS
  0
LAYER
  2
30
 70
0
 62
7
  6
CONTINUOUS
  0
LAYER
  2
0
 70
0
 62
7
  6
CONTINUOUS
  0
LAYER
  2
1
 70
0
 62
7
  6
CONTINUOUS
  0
ENDTAB
  0
TABLE
  2
STYLE
 70
4
  0
STYLE
  2
STANDARD
 70
0
 40
0
 41
1
 50
0
 71
0
 42
3.5
  3
txt
  4

  0
STYLE
  2
SIMPLEX
 70
0
 40
0
 41
1
 50
0
 71
0
 42
3.5
  3
simplex
  4

  0
STYLE
  2
COMPLEX
 70
0
 40
0
 41
1
 50
0
 71
0
 42
3.5
  3
complex
  4

  0
STYLE
  2
ITALIC
 70
0
 40
0
 41
1
 50
0
 71
0
 42
3.5
  3
italic
  4

  0
ENDTAB
  0
TABLE
  2
VIEW
 70
0
  0
ENDTAB
  0
ENDSEC
  0
SECTION
  2
BLOCKS
  0
BLOCK
  8
1
  2
*X0
 70
1
 10
0
 20
0
 30
0
  0
ENDBLK
  8
0
  0
BLOCK
  8
1
  2
*X1
 70
1
 10
0
 20
0
 30
0
  0
ENDBLK
  8
0
  0
BLOCK
  8
1
  2
*D0
 70
1
 10
0
 20
0
 30
0
  0
LINE
  8
1
 62
2
 10
1557.774853816068
 20
458.3738230193753
 30
0
 11
1557.774853816068
 21
624.1737400193746
 31
0
  0
LINE
  8
1
 62
2
 10
1418.427381882227
 20
624.1737400193746
 30
0
 11
1558.774853816068
 21
624.1737400193746
 31
0
  0
LINE
  8
1
 62
2
 10
1443.927504882227
 20
458.3738230193753
 30
0
 11
1558.774853816068
 21
458.3738230193753
 31
0
  0
LINE
  8
1
 62
2
 10
1557.774853816068
 20
624.1737400193746
 30
0
 11
1558.584853816068
 21
621.1737400193746
 31
0
  0
LINE
  8
1
 62
2
 10
1557.774853816068
 20
624.1737400193746
 30
0
 11
1556.964853816068
 21
621.1737400193746
 31
0
  0
LINE
  8
1
 62
2
 10
1557.774853816068
 20
458.3738230193753
 30
0
 11
1556.964853816068
 21
461.3738230193753
 31
0
  0
LINE
  8
1
 62
2
 10
1557.774853816068
 20
458.3738230193753
 30
0
 11
1558.584853816068
 21
461.3738230193753
 31
0
  0
TEXT
  8
1
 62
2
 10
1556.974853816068
 20
537.7218577307283
 30
0
 40
3
  1
166
 50
90
 41
0.9
 51
15
  0
ENDBLK
  8
0
  0
BLOCK
  8
1
  2
*D1
 70
1
 10
0
 20
0
 30
0
  0
LINE
  8
1
 62
2
 10
1535.57546833607
 20
458.3738230193753
 30
0
 11
1535.57546833607
 21
513.3738230193751
 31
0
  0
LINE
  8
1
 62
2
 10
1516.828926950071
 20
513.3738230193751
 30
0
 11
1536.57546833607
 21
513.3738230193751
 31
0
  0
LINE
  8
1
 62
2
 10
1443.927504882227
 20
458.3738230193753
 30
0
 11
1536.57546833607
 21
458.3738230193753
 31
0
  0
LINE
  8
1
 62
2
 10
1535.57546833607
 20
513.3738230193751
 30
0
 11
1536.38546833607
 21
510.3738230193751
 31
0
  0
LINE
  8
1
 62
2
 10
1535.57546833607
 20
513.3738230193751
 30
0
 11
1534.76546833607
 21
510.3738230193751
 31
0
  0
LINE
  8
1
 62
2
 10
1535.57546833607
 20
458.3738230193753
 30
0
 11
1534.76546833607
 21
461.3738230193753
 31
0
  0
LINE
  8
1
 62
2
 10
1535.57546833607
 20
458.3738230193753
 30
0
 11
1536.38546833607
 21
461.3738230193753
 31
0
  0
TEXT
  8
1
 62
2
 10
1534.77546833607
 20
483.2218992307285
 30
0
 40
3
  1
55
 50
90
 41
0.9
 51
15
  0
ENDBLK
  8
0
  0
BLOCK
  8
1
  2
*D2
 70
1
 10
0
 20
0
 30
0
  0
LINE
  8
1
 62
2
 10
1267.927504882227
 20
438.166494077364
 30
0
 11
1512.927504882227
 21
438.166494077364
 31
0
  0
LINE
  8
1
 62
2
 10
1512.927504882227
 20
476.7608230193753
 30
0
 11
1512.927504882227
 21
437.166494077364
 31
0
  0
LINE
  8
1
 62
2
 10
1267.927504882227
 20
476.7608230193753
 30
0
 11
1267.927504882227
 21
437.166494077364
 31
0
  0
LINE
  8
1
 62
2
 10
1267.927504882227
 20
438.166494077364
 30
0
 11
1270.927504882227
 21
438.976494077364
 31
0
  0
LINE
  8
1
 62
2
 10
1267.927504882227
 20
438.166494077364
 30
0
 11
1270.927504882227
 21
437.356494077364
 31
0
  0
LINE
  8
1
 62
2
 10
1512.927504882227
 20
438.166494077364
 30
0
 11
1509.927504882227
 21
437.356494077364
 31
0
  0
LINE
  8
1
 62
2
 10
1512.927504882227
 20
438.166494077364
 30
0
 11
1509.927504882227
 21
438.976494077364
 31
0
  0
TEXT
  8
1
 62
2
 10
1403.648467042693
 20
438.966494077364
 30
0
 40
3
  1
245
 41
0.9
 51
15
  0
ENDBLK
  8
0
  0
BLOCK
  8
1
  2
*D3
 70
1
 10
0
 20
0
 30
0
  0
LINE
  8
1
 62
2
 10
1557.774853816068
 20
664.7377041888973
 30
0
 11
1557.774853816068
 21
792.7377041888977
 31
0
  0
LINE
  8
1
 62
2
 10
1410.427504882227
 20
792.7377041888977
 30
0
 11
1558.774853816068
 21
792.7377041888977
 31
0
  0
LINE
  8
1
 62
2
 10
1410.427504882227
 20
664.7377041888973
 30
0
 11
1558.774853816068
 21
664.7377041888973
 31
0
  0
LINE
  8
1
 62
2
 10
1557.774853816068
 20
792.7377041888977
 30
0
 11
1558.584853816068
 21
789.7377041888977
 31
0
  0
LINE
  8
1
 62
2
 10
1557.774853816068
 20
792.7377041888977
 30
0
 11
1556.964853816068
 21
789.7377041888977
 31
0
  0
LINE
  8
1
 62
2
 10
1557.774853816068
 20
664.7377041888973
 30
0
 11
1556.964853816068
 21
667.7377041888973
 31
0
  0
LINE
  8
1
 62
2
 10
1557.774853816068
 20
664.7377041888973
 30
0
 11
1558.584853816068
 21
667.7377041888973
 31
0
  0
TEXT
  8
1
 62
2
 10
1556.974853816068
 20
725.1857804002508
 30
0
 40
3
  1
128
 50
90
 41
0.9
 51
15
  0
ENDBLK
  8
0
  0
BLOCK
  8
1
  2
*D4
 70
1
 10
0
 20
0
 30
0
  0
LINE
  8
1
 62
2
 10
1267.927504882227
 20
459.3738230193753
 30
0
 11
1290.927504882227
 21
459.3738230193753
 31
0
  0
LINE
  8
1
 62
2
 10
1290.927504882227
 20
476.7608230193753
 30
0
 11
1290.927504882227
 21
457.8738230193753
 31
0
  0
LINE
  8
1
 62
2
 10
1267.927504882227
 20
476.7608230193753
 30
0
 11
1267.927504882227
 21
457.8738230193753
 31
0
  0
LINE
  8
1
 62
2
 10
1267.927504882227
 20
459.3738230193753
 30
0
 11
1271.127504882227
 21
460.2378230193752
 31
0
  0
LINE
  8
1
 62
2
 10
1267.927504882227
 20
459.3738230193753
 30
0
 11
1271.127504882227
 21
458.5098230193753
 31
0
  0
LINE
  8
1
 62
2
 10
1290.927504882227
 20
459.3738230193753
 30
0
 11
1287.727504882227
 21
458.5098230193753
 31
0
  0
LINE
  8
1
 62
2
 10
1290.927504882227
 20
459.3738230193753
 30
0
 11
1287.727504882227
 21
460.2378230193752
 31
0
  0
TEXT
  8
1
 62
2
 10
1276.598786174337
 20
460.3738230193753
 30
0
 40
3.2
  1
23
 41
0.9
 51
15
  0
ENDBLK
  8
0
  0
ENDSEC
  0
SECTION
  2
ENTITIES
  0
INSERT
  8
1
  2
*X0
 10
0
 20
0
 30
0
  0
INSERT
  8
1
  2
*X1
 10
0
 20
0
 30
0
  0
POLYLINE
  8
30
 62
2
 66
1
  0
VERTEX
  8
30
 10
1381.377532882223
 20
692.5377041888976
 30
0
  0
VERTEX
  8
30
 10
1381.517275882223
 20
692.637704188897
 30
0
  0
VERTEX
  8
30
 10
1381.659117882223
 20
692.7377041888974
 30
0
  0
VERTEX
  8
30
 10
1381.805157882222
 20
692.7377041888974
 30
0
  0
VERTEX
  8
30
 10
1381.957493882223
 20
692.8377041888969
 30
0
  0
VERTEX
  8
30
 10
1382.118223882223
 20
692.8377041888969
 30
0
  0
VERTEX
  8
30
 10
1382.289447882223
 20
692.9377041888972
 30
0
  0
VERTEX
  8
30
 10
1382.473263882223
 20
692.9377041888972
 30
0
  0
VERTEX
  8
30
 10
1382.671769882223
 20
692.9377041888972
 30
0
  0
VERTEX
  8
30
 10
1382.886067882223
 20
692.9377041888972
 30
0
  0
VERTEX
  8
30
 10
1383.113265882224
 20
692.8377041888969
 30
0
  0
VERTEX
  8
30
 10
1383.349472882223
 20
692.8377041888969
 30
0
  0
VERTEX
  8
30
 10
1383.590798882223
 20
692.7377041888974
 30
0
  0
VERTEX
  8
30
 10
1383.833355882222
 20
692.7377041888974
 30
0
  0
VERTEX
  8
30
 10
1384.073251882222
 20
692.637704188897
 30
0
  0
VERTEX
  8
30
 10
1384.306596882223
 20
692.637704188897
 30
0
  0
VERTEX
  8
30
 10
1384.529502882223
 20
692.5377041888976
 30
0
  0
VERTEX
  8
30
 10
1384.738780882223
 20
692.5377041888976
 30
0
  0
VERTEX
  8
30
 10
1384.934054882223
 20
692.5377041888976
 30
0
  0
VERTEX
  8
30
 10
1385.115651882224
 20
692.5377041888976
 30
0
  0
VERTEX
  8
30
 10
1385.283898882223
 20
692.5377041888976
 30
0
  0
VERTEX
  8
30
 10
1385.439122882222
 20
692.5377041888976
 30
0
  0
VERTEX
  8
30
 10
1385.581648882223
 20
692.5377041888976
 30
0
  0
VERTEX
  8
30
 10
1385.711803882223
 20
692.5377041888976
 30
0
  0
VERTEX
  8
30
 10
1385.829914882223
 20
692.5377041888976
 30
0
  0
VERTEX
  8
30
 10
1385.936498882224
 20
692.5377041888976
 30
0
  0
VERTEX
  8
30
 10
1386.032829882222
 20
692.637704188897
 30
0
  0
VERTEX
  8
30
 10
1386.120372882223
 20
692.637704188897
 30
0
  0
VERTEX
  8
30
 10
1386.200592882223
 20
692.637704188897
 30
0
  0
VERTEX
  8
30
 10
1386.274953882223
 20
692.637704188897
 30
0
  0
VERTEX
  8
30
 10
1386.344920882223
 20
692.637704188897
 30
0
  0
VERTEX
  8
30
 10
1386.411957882223
 20
692.7377041888974
 30
0
  0
VERTEX
  8
30
 10
1386.477530882223
 20
692.7377041888974
 30
0
  0
SEQEND
  8
30
  0
LINE
  8
1
 62
2
 10
1469.402504882227
 20
406.764106725951
 30
0
 11
1469.902504882227
 21
405.920356725951
 31
0
  0
LINE
  8
1
 62
2
 10
1468.652504882227
 20
407.607856725951
 30
0
 11
1469.402504882227
 21
406.764106725951
 31
0
  0
LINE
  8
1
 62
2
 10
1467.652504882227
 20
408.451606725951
 30
0
 11
1468.652504882227
 21
407.607856725951
 31
0
  0
LINE
  8
1
 62
2
 10
1467.152504882227
 20
409.576606725951
 30
0
 11
1466.402504882227
 21
410.982856725951
 31
0
  0
LINE
  8
1
 62
2
 10
1468.402504882227
 20
409.857856725951
 30
0
 11
1467.902504882227
 21
411.264106725951
 31
0
  0
LINE
  8
1
 62
2
 10
1469.902504882227
 20
409.295356725951
 30
0
 11
1470.652504882227
 21
410.982856725951
 31
0
  0
LINE
  8
1
 62
2
 10
1468.402504882227
 20
407.045356725951
 30
0
 11
1469.902504882227
 21
409.295356725951
 31
0
  0
LINE
  8
1
 62
2
 10
1467.652504882227
 20
406.201606725951
 30
0
 11
1468.402504882227
 21
407.045356725951
 31
0
  0
LINE
  8
1
 62
2
 10
1466.402504882227
 20
405.357856725951
 30
0
 11
1467.652504882227
 21
406.201606725951
 31
0
  0
LINE
  8
1
 62
2
 10
1465.152504882227
 20
412.389106725951
 30
0
 11
1465.152504882227
 21
404.232856725951
 31
0
  0
LINE
  8
1
 62
2
 10
1471.652504882227
 20
412.389106725951
 30
0
 11
1465.152504882227
 21
412.389106725951
 31
0
  0
LINE
  8
1
 62
2
 10
1471.652504882227
 20
404.232856725951
 30
0
 11
1471.652504882227
 21
412.389106725951
 31
0
  0
LINE
  8
1
 62
2
 10
1465.152504882227
 20
404.232856725951
 30
0
 11
1471.652504882227
 21
404.232856725951
 31
0
  0
LINE
  8
1
 62
2
 10
1461.402504882227
 20
406.482856725951
 30
0
 11
1462.902504882227
 21
403.951606725951
 31
0
  0
LINE
  8
1
 62
2
 10
1457.902504882227
 20
404.232856725951
 30
0
 11
1462.152504882227
 21
405.076606725951
 31
0
  0
LINE
  8
1
 62
2
 10
1460.152504882227
 20
408.170356725951
 30
0
 11
1458.902504882227
 21
404.514106725951
 31
0
  0
LINE
  8
1
 62
2
 10
1457.402504882227
 20
408.170356725951
 30
0
 11
1463.152504882227
 21
408.170356725951
 31
0
  0
LINE
  8
1
 62
2
 10
1460.402504882227
 20
412.670356725951
 30
0
 11
1460.402504882227
 21
408.170356725951
 31
0
  0
LINE
  8
1
 62
2
 10
1458.152504882227
 20
410.420356725951
 30
0
 11
1462.902504882227
 21
410.420356725951
 31
0
  0
LINE
  8
1
 62
2
 10
1456.152504882227
 20
412.389106725951
 30
0
 11
1456.902504882227
 21
411.264106725951
 31
0
  0
LINE
  8
1
 62
2
 10
1456.152504882227
 20
409.014106725951
 30
0
 11
1455.402504882227
 21
409.857856725951
 31
0
  0
LINE
  8
1
 62
2
 10
1455.652504882227
 20
403.951606725951
 30
0
 11
1456.902504882227
 21
407.607856725951
 31
0
  0
LINE
  8
1
 62
2
 10
1449.902504882227
 20
407.326606725951
 30
0
 11
1448.902504882227
 21
408.732856725951
 31
0
  0
LINE
  8
1
 62
2
 10
1451.902504882227
 20
404.232856725951
 30
0
 11
1450.652504882227
 21
404.232856725951
 31
0
  0
LINE
  8
1
 62
2
 10
1451.902504882227
 20
412.389106725951
 30
0
 11
1451.902504882227
 21
404.232856725951
 31
0
  0
LINE
  8
1
 62
2
 10
1447.152504882227
 20
410.139106725951
 30
0
 11
1453.902504882227
 21
410.139106725951
 31
0
  0
LINE
  8
1
 62
2
 10
1445.152504882227
 20
403.951606725951
 30
0
 11
1445.402504882227
 21
404.514106725951
 31
0
  0
LINE
  8
1
 62
2
 10
1444.152504882227
 20
403.951606725951
 30
0
 11
1445.152504882227
 21
403.951606725951
 31
0
  0
LINE
  8
1
 62
2
 10
1443.402504882227
 20
404.514106725951
 30
0
 11
1444.152504882227
 21
403.951606725951
 31
0
  0
LINE
  8
1
 62
2
 10
1443.402504882227
 20
407.045356725951
 30
0
 11
1443.402504882227
 21
404.514106725951
 31
0
  0
LINE
  8
1
 62
2
 10
1441.902504882227
 20
404.795356725951
 30
0
 11
1441.152504882227
 21
403.951606725951
 31
0
  0
LINE
  8
1
 62
2
 10
1442.402504882227
 20
406.201606725951
 30
0
 11
1441.902504882227
 21
404.795356725951
 31
0
  0
LINE
  8
1
 62
2
 10
1442.652504882227
 20
407.045356725951
 30
0
 11
1442.402504882227
 21
406.201606725951
 31
0
  0
LINE
  8
1
 62
2
 10
1444.402504882227
 20
408.732856725951
 30
0
 11
1441.902504882227
 21
408.732856725951
 31
0
  0
LINE
  8
1
 62
2
 10
1441.902504882227
 20
410.420356725951
 30
0
 11
1444.402504882227
 21
410.420356725951
 31
0
  0
LINE
  8
1
 62
2
 10
1444.402504882227
 20
412.107856725951
 30
0
 11
1441.902504882227
 21
412.107856725951
 31
0
  0
LINE
  8
1
 62
2
 10
1444.402504882227
 20
407.045356725951
 30
0
 11
1444.402504882227
 21
412.107856725951
 31
0
  0
LINE
  8
1
 62
2
 10
1441.902504882227
 20
407.045356725951
 30
0
 11
1444.402504882227
 21
407.045356725951
 31
0
  0
LINE
  8
1
 62
2
 10
1441.902504882227
 20
412.107856725951
 30
0
 11
1441.902504882227
 21
407.045356725951
 31
0
  0
LINE
  8
1
 62
2
 10
1438.402504882227
 20
411.545356725951
 30
0
 11
1438.902504882227
 21
412.670356725951
 31
0
  0
LINE
  8
1
 62
2
 10
1437.652504882227
 20
410.701606725951
 30
0
 11
1438.402504882227
 21
411.545356725951
 31
0
  0
LINE
  8
1
 62
2
 10
1441.152504882227
 20
411.545356725951
 30
0
 11
1438.652504882227
 21
411.545356725951
 31
0
  0
LINE
  8
1
 62
2
 10
1438.652504882227
 20
409.014106725951
 30
0
 11
1439.652504882227
 21
411.545356725951
 31
0
  0
LINE
  8
1
 62
2
 10
1437.402504882227
 20
407.326606725951
 30
0
 11
1438.652504882227
 21
409.014106725951
 31
0
  0
LINE
  8
1
 62
2
 10
1441.402504882227
 20
410.139106725951
 30
0
 11
1437.652504882227
 21
410.139106725951
 31
0
  0
LINE
  8
1
 62
2
 10
1439.902504882227
 20
408.732856725951
 30
0
 11
1440.152504882227
 21
409.295356725951
 31
0
  0
LINE
  8
1
 62
2
 10
1439.902504882227
 20
404.514106725951
 30
0
 11
1439.902504882227
 21
408.732856725951
 31
0
  0
LINE
  8
1
 62
2
 10
1441.152504882227
 20
404.514106725951
 30
0
 11
1438.402504882227
 21
404.514106725951
 31
0
  0
LINE
  8
1
 62
2
 10
1438.402504882227
 20
405.920356725951
 30
0
 11
1441.152504882227
 21
405.920356725951
 31
0
  0
LINE
  8
1
 62
2
 10
1441.152504882227
 20
407.326606725951
 30
0
 11
1438.402504882227
 21
407.326606725951
 31
0
  0
LINE
  8
1
 62
2
 10
1438.402504882227
 20
408.732856725951
 30
0
 11
1441.152504882227
 21
408.732856725951
 31
0
  0
LINE
  8
1
 62
2
 10
1438.402504882227
 20
403.951606725951
 30
0
 11
1438.402504882227
 21
408.732856725951
 31
0
  0
LINE
  8
1
 62
2
 10
1435.152504882227
 20
408.732856725951
 30
0
 11
1436.402504882227
 21
407.326606725951
 31
0
  0
LINE
  8
1
 62
2
 10
1433.152504882227
 20
410.701606725951
 30
0
 11
1435.152504882227
 21
408.732856725951
 31
0
  0
LINE
  8
1
 62
2
 10
1433.652504882227
 20
412.951606725951
 30
0
 11
1433.652504882227
 21
403.951606725951
 31
0
  0
LINE
  8
1
 62
2
 10
1429.402504882227
 20
409.295356725951
 30
0
 11
1431.152504882227
 21
407.889106725951
 31
0
  0
LINE
  8
1
 62
2
 10
1429.402504882227
 20
409.576606725951
 30
0
 11
1428.402504882227
 21
408.170356725951
 31
0
  0
LINE
  8
1
 62
2
 10
1430.152504882227
 20
411.264106725951
 30
0
 11
1429.402504882227
 21
409.576606725951
 31
0
  0
LINE
  8
1
 62
2
 10
1430.652504882227
 20
412.951606725951
 30
0
 11
1430.152504882227
 21
411.264106725951
 31
0
  0
LINE
  8
1
 62
2
 10
1432.402504882227
 20
410.982856725951
 30
0
 11
1430.152504882227
 21
410.982856725951
 31
0
  0
LINE
  8
1
 62
2
 10
1431.902504882227
 20
409.295356725951
 30
0
 11
1432.402504882227
 21
410.982856725951
 31
0
  0
LINE
  8
1
 62
2
 10
1431.402504882227
 20
408.170356725951
 30
0
 11
1431.902504882227
 21
409.295356725951
 31
0
  0
LINE
  8
1
 62
2
 10
1430.402504882227
 20
406.482856725951
 30
0
 11
1431.402504882227
 21
408.170356725951
 31
0
  0
LINE
  8
1
 62
2
 10
1428.902504882227
 20
404.514106725951
 30
0
 11
1430.402504882227
 21
406.482856725951
 31
0
  0
LINE
  8
1
 62
2
 10
1413.552504882227
 20
410.251606725951
 30
0
 11
1413.552504882227
 21
403.951606725951
 31
0
  0
LINE
  8
1
 62
2
 10
1416.702504882227
 20
409.126606725951
 30
0
 11
1416.702504882227
 21
403.951606725951
 31
0
  0
LINE
  8
1
 62
2
 10
1416.477504882227
 20
409.576606725951
 30
0
 11
1416.702504882227
 21
409.126606725951
 31
0
  0
LINE
  8
1
 62
2
 10
1416.027504882227
 20
410.026606725951
 30
0
 11
1416.477504882227
 21
409.576606725951
 31
0
  0
LINE
  8
1
 62
2
 10
1415.352504882227
 20
410.251606725951
 30
0
 11
1416.027504882227
 21
410.026606725951
 31
0
  0
LINE
  8
1
 62
2
 10
1410.402504882227
 20
410.251606725951
 30
0
 11
1415.352504882227
 21
410.251606725951
 31
0
  0
LINE
  8
1
 62
2
 10
1410.402504882227
 20
403.951606725951
 30
0
 11
1410.402504882227
 21
410.251606725951
 31
0
  0
LINE
  8
1
 62
2
 10
1404.552504882227
 20
410.251606725951
 30
0
 11
1404.552504882227
 21
403.951606725951
 31
0
  0
LINE
  8
1
 62
2
 10
1407.702504882227
 20
409.126606725951
 30
0
 11
1407.702504882227
 21
403.951606725951
 31
0
  0
LINE
  8
1
 62
2
 10
1407.477504882227
 20
409.576606725951
 30
0
 11
1407.702504882227
 21
409.126606725951
 31
0
  0
LINE
  8
1
 62
2
 10
1407.027504882227
 20
410.026606725951
 30
0
 11
1407.477504882227
 21
409.576606725951
 31
0
  0
LINE
  8
1
 62
2
 10
1406.352504882227
 20
410.251606725951
 30
0
 11
1407.027504882227
 21
410.026606725951
 31
0
  0
LINE
  8
1
 62
2
 10
1401.402504882227
 20
410.251606725951
 30
0
 11
1406.352504882227
 21
410.251606725951
 31
0
  0
LINE
  8
1
 62
2
 10
1401.402504882227
 20
403.951606725951
 30
0
 11
1401.402504882227
 21
410.251606725951
 31
0
  0
LINE
  8
1
 62
2
 10
1398.702504882227
 20
409.576606725951
 30
0
 11
1398.702504882227
 21
407.326606725951
 31
0
  0
LINE
  8
1
 62
2
 10
1398.477504882227
 20
410.9266067259511
 30
0
 11
1398.702504882227
 21
409.576606725951
 31
0
  0
LINE
  8
1
 62
2
 10
1398.027504882227
 20
411.826606725951
 30
0
 11
1398.477504882227
 21
410.9266067259511
 31
0
  0
LINE
  8
1
 62
2
 10
1397.577504882227
 20
412.276606725951
 30
0
 11
1398.027504882227
 21
411.826606725951
 31
0
  0
LINE
  8
1
 62
2
 10
1396.902504882227
 20
412.726606725951
 30
0
 11
1397.577504882227
 21
412.276606725951
 31
0
  0
LINE
  8
1
 62
2
 10
1396.227504882227
 20
412.951606725951
 30
0
 11
1396.902504882227
 21
412.726606725951
 31
0
  0
LINE
  8
1
 62
2
 10
1395.777504882227
 20
412.951606725951
 30
0
 11
1396.227504882227
 21
412.951606725951
 31
0
  0
LINE
  8
1
 62
2
 10
1395.102504882227
 20
412.726606725951
 30
0
 11
1395.777504882227
 21
412.951606725951
 31
0
  0
LINE
  8
1
 62
2
 10
1394.427504882227
 20
412.276606725951
 30
0
 11
1395.102504882227
 21
412.726606725951
 31
0
  0
LINE
  8
1
 62
2
 10
1393.977504882227
 20
411.826606725951
 30
0
 11
1394.427504882227
 21
412.276606725951
 31
0
  0
LINE
  8
1
 62
2
 10
1393.527504882227
 20
410.9266067259511
 30
0
 11
1393.977504882227
 21
411.826606725951
 31
0
  0
LINE
  8
1
 62
2
 10
1393.302504882227
 20
409.576606725951
 30
0
 11
1393.527504882227
 21
410.9266067259511
 31
0
  0
LINE
  8
1
 62
2
 10
1393.302504882227
 20
407.326606725951
 30
0
 11
1393.302504882227
 21
409.576606725951
 31
0
  0
LINE
  8
1
 62
2
 10
1393.527504882227
 20
405.976606725951
 30
0
 11
1393.302504882227
 21
407.326606725951
 31
0
  0
LINE
  8
1
 62
2
 10
1393.977504882227
 20
405.076606725951
 30
0
 11
1393.527504882227
 21
405.976606725951
 31
0
  0
LINE
  8
1
 62
2
 10
1394.427504882227
 20
404.626606725951
 30
0
 11
1393.977504882227
 21
405.076606725951
 31
0
  0
LINE
  8
1
 62
2
 10
1395.102504882227
 20
404.1766067259511
 30
0
 11
1394.427504882227
 21
404.626606725951
 31
0
  0
LINE
  8
1
 62
2
 10
1395.777504882227
 20
403.951606725951
 30
0
 11
1395.102504882227
 21
404.1766067259511
 31
0
  0
LINE
  8
1
 62
2
 10
1396.227504882227
 20
403.951606725951
 30
0
 11
1395.777504882227
 21
403.951606725951
 31
0
  0
LINE
  8
1
 62
2
 10
1396.902504882227
 20
404.1766067259511
 30
0
 11
1396.227504882227
 21
403.951606725951
 31
0
  0
LINE
  8
1
 62
2
 10
1397.577504882227
 20
404.626606725951
 30
0
 11
1396.902504882227
 21
404.1766067259511
 31
0
  0
LINE
  8
1
 62
2
 10
1398.027504882227
 20
405.076606725951
 30
0
 11
1397.577504882227
 21
404.626606725951
 31
0
  0
LINE
  8
1
 62
2
 10
1398.477504882227
 20
405.976606725951
 30
0
 11
1398.027504882227
 21
405.076606725951
 31
0
  0
LINE
  8
1
 62
2
 10
1398.702504882227
 20
407.326606725951
 30
0
 11
1398.477504882227
 21
405.976606725951
 31
0
  0
LINE
  8
1
 62
2
 10
1388.577504882227
 20
403.951606725951
 30
0
 11
1385.202504882227
 21
403.951606725951
 31
0
  0
LINE
  8
1
 62
2
 10
1389.252504882227
 20
404.1766067259511
 30
0
 11
1388.577504882227
 21
403.951606725951
 31
0
  0
LINE
  8
1
 62
2
 10
1389.927504882227
 20
404.626606725951
 30
0
 11
1389.252504882227
 21
404.1766067259511
 31
0
  0
LINE
  8
1
 62
2
 10
1390.377504882227
 20
405.3016067259511
 30
0
 11
1389.927504882227
 21
404.626606725951
 31
0
  0
LINE
  8
1
 62
2
 10
1390.602504882227
 20
406.201606725951
 30
0
 11
1390.377504882227
 21
405.3016067259511
 31
0
  0
LINE
  8
1
 62
2
 10
1390.602504882227
 20
407.5516067259511
 30
0
 11
1390.602504882227
 21
406.201606725951
 31
0
  0
LINE
  8
1
 62
2
 10
1390.377504882227
 20
408.451606725951
 30
0
 11
1390.602504882227
 21
407.5516067259511
 31
0
  0
LINE
  8
1
 62
2
 10
1389.702504882227
 20
409.126606725951
 30
0
 11
1390.377504882227
 21
408.451606725951
 31
0
  0
LINE
  8
1
 62
2
 10
1388.577504882227
 20
409.351606725951
 30
0
 11
1389.702504882227
 21
409.126606725951
 31
0
  0
LINE
  8
1
 62
2
 10
1385.202504882227
 20
409.351606725951
 30
0
 11
1388.577504882227
 21
409.351606725951
 31
0
  0
LINE
  8
1
 62
2
 10
1385.202504882227
 20
412.951606725951
 30
0
 11
1385.202504882227
 21
409.351606725951
 31
0
  0
LINE
  8
1
 62
2
 10
1390.152504882227
 20
412.951606725951
 30
0
 11
1385.202504882227
 21
412.951606725951
 31
0
  0
LINE
  8
1
 62
2
 10
1380.452504882227
 20
407.607856725951
 30
0
 11
1380.452504882227
 21
404.232856725951
 31
0
  0
LINE
  8
1
 62
2
 10
1383.452504882227
 20
407.607856725951
 30
0
 11
1382.702504882227
 21
407.607856725951
 31
0
  0
LINE
  8
1
 62
2
 10
1383.452504882227
 20
412.670356725951
 30
0
 11
1383.452504882227
 21
407.607856725951
 31
0
  0
LINE
  8
1
 62
2
 10
1381.702504882227
 20
408.732856725951
 30
0
 11
1381.702504882227
 21
412.389106725951
 31
0
  0
LINE
  8
1
 62
2
 10
1379.202504882227
 20
412.389106725951
 30
0
 11
1379.202504882227
 21
407.607856725951
 31
0
  0
LINE
  8
1
 62
2
 10
1376.452504882227
 20
410.420356725951
 30
0
 11
1380.702504882227
 21
410.420356725951
 31
0
  0
LINE
  8
1
 62
2
 10
1380.452504882227
 20
412.389106725951
 30
0
 11
1376.702504882227
 21
412.389106725951
 31
0
  0
LINE
  8
1
 62
2
 10
1377.952504882227
 20
410.420356725951
 30
0
 11
1377.952504882227
 21
412.389106725951
 31
0
  0
LINE
  8
1
 62
2
 10
1377.452504882227
 20
408.451606725951
 30
0
 11
1377.952504882227
 21
410.420356725951
 31
0
  0
LINE
  8
1
 62
2
 10
1376.702504882227
 20
407.326606725951
 30
0
 11
1377.452504882227
 21
408.451606725951
 31
0
  0
LINE
  8
1
 62
2
 10
1382.952504882227
 20
406.201606725951
 30
0
 11
1377.452504882227
 21
406.201606725951
 31
0
  0
LINE
  8
1
 62
2
 10
1376.702504882227
 20
404.232856725951
 30
0
 11
1383.952504882227
 21
404.232856725951
 31
0
  0
LINE
  8
1
 62
2
 10
1367.652504882227
 20
404.626606725951
 30
0
 11
1367.202504882227
 21
405.076606725951
 31
0
  0
LINE
  8
1
 62
2
 10
1368.552504882227
 20
404.1766067259511
 30
0
 11
1367.652504882227
 21
404.626606725951
 31
0
  0
LINE
  8
1
 62
2
 10
1369.677504882227
 20
403.951606725951
 30
0
 11
1368.552504882227
 21
404.1766067259511
 31
0
  0
LINE
  8
1
 62
2
 10
1371.027504882227
 20
403.951606725951
 30
0
 11
1369.677504882227
 21
403.951606725951
 31
0
  0
LINE
  8
1
 62
2
 10
1372.152504882227
 20
404.1766067259511
 30
0
 11
1371.027504882227
 21
403.951606725951
 31
0
  0
LINE
  8
1
 62
2
 10
1372.827504882227
 20
404.626606725951
 30
0
 11
1372.152504882227
 21
404.1766067259511
 31
0
  0
LINE
  8
1
 62
2
 10
1373.277504882227
 20
405.3016067259511
 30
0
 11
1372.827504882227
 21
404.626606725951
 31
0
  0
LINE
  8
1
 62
2
 10
1373.502504882227
 20
405.976606725951
 30
0
 11
1373.277504882227
 21
405.3016067259511
 31
0
  0
LINE
  8
1
 62
2
 10
1373.502504882227
 20
406.4266067259511
 30
0
 11
1373.502504882227
 21
405.976606725951
 31
0
  0
LINE
  8
1
 62
2
 10
1373.277504882227
 20
407.101606725951
 30
0
 11
1373.502504882227
 21
406.4266067259511
 31
0
  0
LINE
  8
1
 62
2
 10
1372.827504882227
 20
407.776606725951
 30
0
 11
1373.277504882227
 21
407.101606725951
 31
0
  0
LINE
  8
1
 62
2
 10
1372.152504882227
 20
408.226606725951
 30
0
 11
1372.827504882227
 21
407.776606725951
 31
0
  0
LINE
  8
1
 62
2
 10
1368.327504882227
 20
409.8016067259511
 30
0
 11
1372.152504882227
 21
408.226606725951
 31
0
  0
LINE
  8
1
 62
2
 10
1367.652504882227
 20
410.251606725951
 30
0
 11
1368.327504882227
 21
409.8016067259511
 31
0
  0
LINE
  8
1
 62
2
 10
1367.427504882227
 20
410.9266067259511
 30
0
 11
1367.652504882227
 21
410.251606725951
 31
0
  0
LINE
  8
1
 62
2
 10
1367.427504882227
 20
411.376606725951
 30
0
 11
1367.427504882227
 21
410.9266067259511
 31
0
  0
LINE
  8
1
 62
2
 10
1367.652504882227
 20
412.0516067259511
 30
0
 11
1367.427504882227
 21
411.376606725951
 31
0
  0
LINE
  8
1
 62
2
 10
1368.327504882227
 20
412.501606725951
 30
0
 11
1367.652504882227
 21
412.0516067259511
 31
0
  0
LINE
  8
1
 62
2
 10
1369.002504882227
 20
412.726606725951
 30
0
 11
1368.327504882227
 21
412.501606725951
 31
0
  0
LINE
  8
1
 62
2
 10
1369.902504882227
 20
412.951606725951
 30
0
 11
1369.002504882227
 21
412.726606725951
 31
0
  0
LINE
  8
1
 62
2
 10
1370.802504882227
 20
412.951606725951
 30
0
 11
1369.902504882227
 21
412.951606725951
 31
0
  0
LINE
  8
1
 62
2
 10
1371.927504882227
 20
412.726606725951
 30
0
 11
1370.802504882227
 21
412.951606725951
 31
0
  0
LINE
  8
1
 62
2
 10
1372.602504882227
 20
412.501606725951
 30
0
 11
1371.927504882227
 21
412.726606725951
 31
0
  0
LINE
  8
1
 62
2
 10
1373.277504882227
 20
412.0516067259511
 30
0
 11
1372.602504882227
 21
412.501606725951
 31
0
  0
LINE
  8
1
 62
2
 10
1364.277504882227
 20
411.151606725951
 30
0
 11
1364.502504882227
 21
410.251606725951
 31
0
  0
LINE
  8
1
 62
2
 10
1363.827504882227
 20
411.826606725951
 30
0
 11
1364.277504882227
 21
411.151606725951
 31
0
  0
LINE
  8
1
 62
2
 10
1363.377504882227
 20
412.276606725951
 30
0
 11
1363.827504882227
 21
411.826606725951
 31
0
  0
LINE
  8
1
 62
2
 10
1362.702504882227
 20
412.726606725951
 30
0
 11
1363.377504882227
 21
412.276606725951
 31
0
  0
LINE
  8
1
 62
2
 10
1361.802504882227
 20
412.951606725951
 30
0
 11
1362.702504882227
 21
412.726606725951
 31
0
  0
LINE
  8
1
 62
2
 10
1358.202504882227
 20
412.951606725951
 30
0
 11
1361.802504882227
 21
412.951606725951
 31
0
  0
LINE
  8
1
 62
2
 10
1358.202504882227
 20
403.951606725951
 30
0
 11
1358.202504882227
 21
412.951606725951
 31
0
  0
LINE
  8
1
 62
2
 10
1361.802504882227
 20
403.951606725951
 30
0
 11
1358.202504882227
 21
403.951606725951
 31
0
  0
LINE
  8
1
 62
2
 10
1362.702504882227
 20
404.1766067259511
 30
0
 11
1361.802504882227
 21
403.951606725951
 31
0
  0
LINE
  8
1
 62
2
 10
1363.377504882227
 20
404.626606725951
 30
0
 11
1362.702504882227
 21
404.1766067259511
 31
0
  0
LINE
  8
1
 62
2
 10
1363.827504882227
 20
405.076606725951
 30
0
 11
1363.377504882227
 21
404.626606725951
 31
0
  0
LINE
  8
1
 62
2
 10
1364.277504882227
 20
405.751606725951
 30
0
 11
1363.827504882227
 21
405.076606725951
 31
0
  0
LINE
  8
1
 62
2
 10
1364.502504882227
 20
406.651606725951
 30
0
 11
1364.277504882227
 21
405.751606725951
 31
0
  0
LINE
  8
1
 62
2
 10
1364.502504882227
 20
410.251606725951
 30
0
 11
1364.502504882227
 21
406.651606725951
 31
0
  0
LINE
  8
1
 62
2
 10
1349.202504882227
 20
403.951606725951
 30
0
 11
1349.202504882227
 21
412.951606725951
 31
0
  0
LINE
  8
1
 62
2
 10
1351.002504882227
 20
408.451606725951
 30
0
 11
1355.502504882227
 21
403.951606725951
 31
0
  0
LINE
  8
1
 62
2
 10
1355.502504882227
 20
412.951606725951
 30
0
 11
1349.202504882227
 21
406.651606725951
 31
0
  0
LINE
  8
1
 62
2
 10
1340.202504882227
 20
403.951606725951
 30
0
 11
1346.502504882227
 21
403.951606725951
 31
0
  0
LINE
  8
1
 62
2
 10
1340.202504882227
 20
412.951606725951
 30
0
 11
1340.202504882227
 21
403.951606725951
 31
0
  0
LINE
  8
1
 62
2
 10
1346.502504882227
 20
412.951606725951
 30
0
 11
1340.202504882227
 21
412.951606725951
 31
0
  0
LINE
  8
1
 62
2
 10
1345.602504882227
 20
408.901606725951
 30
0
 11
1340.202504882227
 21
408.901606725951
 31
0
  0
LINE
  8
1
 62
2
 10
1445.677504882227
 20
379.514106725951
 30
0
 11
1450.427504882227
 21
379.514106725951
 31
0
  0
LINE
  8
1
 62
2
 10
1448.177504882227
 20
387.670356725951
 30
0
 11
1448.177504882227
 21
379.514106725951
 31
0
  0
LINE
  8
1
 62
2
 10
1446.427504882227
 20
384.295356725951
 30
0
 11
1449.927504882227
 21
384.295356725951
 31
0
  0
LINE
  8
1
 62
2
 10
1444.927504882227
 20
384.014106725951
 30
0
 11
1446.177504882227
 21
382.607856725951
 31
0
  0
LINE
  8
1
 62
2
 10
1444.427504882227
 20
385.982856725951
 30
0
 11
1444.427504882227
 21
387.670356725951
 31
0
  0
LINE
  8
1
 62
2
 10
1445.677504882227
 20
385.982856725951
 30
0
 11
1442.927504882227
 21
385.982856725951
 31
0
  0
LINE
  8
1
 62
2
 10
1444.677504882227
 20
384.576606725951
 30
0
 11
1445.677504882227
 21
385.982856725951
 31
0
  0
LINE
  8
1
 62
2
 10
1443.427504882227
 20
383.170356725951
 30
0
 11
1444.677504882227
 21
384.576606725951
 31
0
  0
LINE
  8
1
 62
2
 10
1442.427504882227
 20
382.326606725951
 30
0
 11
1443.427504882227
 21
383.170356725951
 31
0
  0
LINE
  8
1
 62
2
 10
1444.427504882227
 20
379.232856725951
 30
0
 11
1444.427504882227
 21
384.295356725951
 31
0
  0
LINE
  8
1
 62
2
 10
1437.427504882227
 20
382.326606725951
 30
0
 11
1434.927504882227
 21
379.232856725951
 31
0
  0
LINE
  8
1
 62
2
 10
1440.427504882227
 20
378.951606725951
 30
0
 11
1438.677504882227
 21
380.920356725951
 31
0
  0
LINE
  8
1
 62
2
 10
1434.177504882227
 20
379.232856725951
 30
0
 11
1439.677504882227
 21
379.795356725951
 31
0
  0
LINE
  8
1
 62
2
 10
1434.677504882227
 20
382.607856725951
 30
0
 11
1440.427504882227
 21
382.607856725951
 31
0
  0
LINE
  8
1
 62
2
 10
1435.677504882227
 20
384.014106725951
 30
0
 11
1439.177504882227
 21
384.014106725951
 31
0
  0
LINE
  8
1
 62
2
 10
1437.427504882227
 20
387.670356725951
 30
0
 11
1441.427504882227
 21
383.451606725951
 31
0
  0
LINE
  8
1
 62
2
 10
1437.427504882227
 20
387.670356725951
 30
0
 11
1433.427504882227
 21
383.451606725951
 31
0
  0
LINE
  8
1
 62
2
 10
1431.677504882227
 20
379.232856725951
 30
0
 11
1432.427504882227
 21
380.076606725951
 31
0
  0
LINE
  8
1
 62
2
 10
1430.677504882227
 20
380.357856725951
 30
0
 11
1431.677504882227
 21
379.232856725951
 31
0
  0
LINE
  8
1
 62
2
 10
1429.677504882227
 20
382.326606725951
 30
0
 11
1430.677504882227
 21
380.357856725951
 31
0
  0
LINE
  8
1
 62
2
 10
1429.177504882227
 20
384.576606725951
 30
0
 11
1429.677504882227
 21
382.326606725951
 31
0
  0
LINE
  8
1
 62
2
 10
1428.927504882227
 20
387.951606725951
 30
0
 11
1429.177504882227
 21
384.576606725951
 31
0
  0
LINE
  8
1
 62
2
 10
1430.427504882227
 20
386.826606725951
 30
0
 11
1429.677504882227
 21
387.670356725951
 31
0
  0
LINE
  8
1
 62
2
 10
1424.427504882227
 20
385.982856725951
 30
0
 11
1431.677504882227
 21
385.982856725951
 31
0
  0
LINE
  8
1
 62
2
 10
1426.677504882227
 20
383.732856725951
 30
0
 11
1426.677504882227
 21
380.639106725951
 31
0
  0
LINE
  8
1
 62
2
 10
1428.427504882227
 20
383.732856725951
 30
0
 11
1424.927504882227
 21
383.732856725951
 31
0
  0
LINE
  8
1
 62
2
 10
1424.927504882227
 20
380.076606725951
 30
0
 11
1428.427504882227
 21
381.201606725951
 31
0
  0
LINE
  8
1
 62
2
 10
1422.177504882227
 20
381.201606725951
 30
0
 11
1423.177504882227
 21
379.232856725951
 31
0
  0
LINE
  8
1
 62
2
 10
1420.927504882227
 20
383.732856725951
 30
0
 11
1422.177504882227
 21
381.201606725951
 31
0
  0
LINE
  8
1
 62
2
 10
1420.177504882227
 20
381.764106725951
 30
0
 11
1420.927504882227
 21
383.732856725951
 31
0
  0
LINE
  8
1
 62
2
 10
1419.177504882227
 20
380.357856725951
 30
0
 11
1420.177504882227
 21
381.764106725951
 31
0
  0
LINE
  8
1
 62
2
 10
1418.427504882227
 20
379.232856725951
 30
0
 11
1419.177504882227
 21
380.357856725951
 31
0
  0
LINE
  8
1
 62
2
 10
1420.927504882227
 20
387.951606725951
 30
0
 11
1420.927504882227
 21
378.951606725951
 31
0
  0
LINE
  8
1
 62
2
 10
1423.177504882227
 20
383.732856725951
 30
0
 11
1418.927504882227
 21
383.732856725951
 31
0
  0
LINE
  8
1
 62
2
 10
1419.677504882227
 20
385.701606725951
 30
0
 11
1422.927504882227
 21
385.701606725951
 31
0
  0
LINE
  8
1
 62
2
 10
1419.677504882227
 20
385.701606725951
 30
0
 11
1419.927504882227
 21
387.107856725951
 31
0
  0
LINE
  8
1
 62
2
 10
1418.927504882227
 20
384.295356725951
 30
0
 11
1419.677504882227
 21
385.701606725951
 31
0
  0
LINE
  8
1
 62
2
 10
1417.177504882227
 20
385.420356725951
 30
0
 11
1418.427504882227
 21
383.170356725951
 31
0
  0
LINE
  8
1
 62
2
 10
1415.677504882227
 20
381.482856725951
 30
0
 11
1417.177504882227
 21
385.420356725951
 31
0
  0
LINE
  8
1
 62
2
 10
1418.427504882227
 20
385.420356725951
 30
0
 11
1415.927504882227
 21
385.420356725951
 31
0
  0
LINE
  8
1
 62
2
 10
1417.177504882227
 20
379.232856725951
 30
0
 11
1417.177504882227
 21
387.951606725951
 31
0
  0
LINE
  8
1
 62
2
 10
1411.177504882227
 20
385.982856725951
 30
0
 11
1413.677504882227
 21
385.982856725951
 31
0
  0
LINE
  8
1
 62
2
 10
1411.177504882227
 20
384.576606725951
 30
0
 11
1413.677504882227
 21
384.576606725951
 31
0
  0
LINE
  8
1
 62
2
 10
1411.177504882227
 20
387.389106725951
 30
0
 11
1411.177504882227
 21
384.576606725951
 31
0
  0
LINE
  8
1
 62
2
 10
1413.677504882227
 20
387.389106725951
 30
0
 11
1411.177504882227
 21
387.389106725951
 31
0
  0
LINE
  8
1
 62
2
 10
1413.677504882227
 20
379.514106725951
 30
0
 11
1413.677504882227
 21
387.389106725951
 31
0
  0
LINE
  8
1
 62
2
 10
1413.427504882227
 20
379.232856725951
 30
0
 11
1413.677504882227
 21
379.514106725951
 31
0
  0
LINE
  8
1
 62
2
 10
1412.677504882227
 20
379.232856725951
 30
0
 11
1413.427504882227
 21
379.232856725951
 31
0
  0
LINE
  8
1
 62
2
 10
1409.677504882227
 20
385.982856725951
 30
0
 11
1407.177504882227
 21
385.982856725951
 31
0
  0
LINE
  8
1
 62
2
 10
1409.677504882227
 20
384.576606725951
 30
0
 11
1407.177504882227
 21
384.576606725951
 31
0
  0
LINE
  8
1
 62
2
 10
1409.677504882227
 20
387.389106725951
 30
0
 11
1409.677504882227
 21
384.576606725951
 31
0
  0
LINE
  8
1
 62
2
 10
1407.177504882227
 20
387.389106725951
 30
0
 11
1409.677504882227
 21
387.389106725951
 31
0
  0
LINE
  8
1
 62
2
 10
1407.177504882227
 20
379.232856725951
 30
0
 11
1407.177504882227
 21
387.389106725951
 31
0
  0
LINE
  8
1
 62
2
 10
1404.427504882227
 20
384.295356725951
 30
0
 11
1405.427504882227
 21
383.451606725951
 31
0
  0
LINE
  8
1
 62
2
 10
1402.677504882227
 20
386.264106725951
 30
0
 11
1404.427504882227
 21
384.295356725951
 31
0
  0
LINE
  8
1
 62
2
 10
1401.427504882227
 20
387.951606725951
 30
0
 11
1402.677504882227
 21
386.264106725951
 31
0
  0
LINE
  8
1
 62
2
 10
1400.177504882227
 20
386.264106725951
 30
0
 11
1401.427504882227
 21
387.951606725951
 31
0
  0
LINE
  8
1
 62
2
 10
1398.427504882227
 20
384.295356725951
 30
0
 11
1400.177504882227
 21
386.264106725951
 31
0
  0
LINE
  8
1
 62
2
 10
1397.427504882227
 20
383.451606725951
 30
0
 11
1398.427504882227
 21
384.295356725951
 31
0
  0
LINE
  8
1
 62
2
 10
1402.677504882227
 20
380.357856725951
 30
0
 11
1403.177504882227
 21
381.764106725951
 31
0
  0
LINE
  8
1
 62
2
 10
1399.677504882227
 20
381.764106725951
 30
0
 11
1400.177504882227
 21
380.357856725951
 31
0
  0
LINE
  8
1
 62
2
 10
1403.927504882227
 20
382.889106725951
 30
0
 11
1398.927504882227
 21
382.889106725951
 31
0
  0
LINE
  8
1
 62
2
 10
1399.677504882227
 20
384.576606725951
 30
0
 11
1403.177504882227
 21
384.576606725951
 31
0
  0
LINE
  8
1
 62
2
 10
1401.427504882227
 20
379.232856725951
 30
0
 11
1401.427504882227
 21
384.576606725951
 31
0
  0
LINE
  8
1
 62
2
 10
1398.177504882227
 20
379.232856725951
 30
0
 11
1404.427504882227
 21
379.232856725951
 31
0
  0
LINE
  8
1
 62
2
 10
1394.677504882227
 20
381.764106725951
 30
0
 11
1395.927504882227
 21
383.451606725951
 31
0
  0
LINE
  8
1
 62
2
 10
1392.677504882227
 20
380.639106725951
 30
0
 11
1394.677504882227
 21
381.764106725951
 31
0
  0
LINE
  8
1
 62
2
 10
1392.677504882227
 20
385.701606725951
 30
0
 11
1392.677504882227
 21
380.639106725951
 31
0
  0
LINE
  8
1
 62
2
 10
1390.677504882227
 20
383.451606725951
 30
0
 11
1390.927504882227
 21
385.701606725951
 31
0
  0
LINE
  8
1
 62
2
 10
1390.177504882227
 20
381.764106725951
 30
0
 11
1390.677504882227
 21
383.451606725951
 31
0
  0
LINE
  8
1
 62
2
 10
1389.427504882227
 20
380.357856725951
 30
0
 11
1390.177504882227
 21
381.764106725951
 31
0
  0
LINE
  8
1
 62
2
 10
1383.677504882227
 20
379.795356725951
 30
0
 11
1385.177504882227
 21
380.076606725951
 31
0
  0
LINE
  8
1
 62
2
 10
1381.177504882227
 20
380.076606725951
 30
0
 11
1383.677504882227
 21
379.795356725951
 31
0
  0
LINE
  8
1
 62
2
 10
1380.927504882227
 20
380.920356725951
 30
0
 11
1381.177504882227
 21
380.076606725951
 31
0
  0
LINE
  8
1
 62
2
 10
1380.927504882227
 20
385.701606725951
 30
0
 11
1380.927504882227
 21
380.920356725951
 31
0
  0
LINE
  8
1
 62
2
 10
1385.677504882227
 20
386.264106725951
 30
0
 11
1386.427504882227
 21
385.420356725951
 31
0
  0
LINE
  8
1
 62
2
 10
1385.927504882227
 20
384.857856725951
 30
0
 11
1385.177504882227
 21
385.701606725951
 31
0
  0
LINE
  8
1
 62
2
 10
1383.177504882227
 20
383.451606725951
 30
0
 11
1384.677504882227
 21
384.295356725951
 31
0
  0
LINE
  8
1
 62
2
 10
1380.927504882227
 20
382.607856725951
 30
0
 11
1383.177504882227
 21
383.451606725951
 31
0
  0
LINE
  8
1
 62
2
 10
1375.427504882227
 20
381.764106725951
 30
0
 11
1376.927504882227
 21
380.076606725951
 31
0
  0
LINE
  8
1
 62
2
 10
1374.177504882227
 20
382.889106725951
 30
0
 11
1375.427504882227
 21
381.764106725951
 31
0
  0
LINE
  8
1
 62
2
 10
1377.177504882227
 20
386.826606725951
 30
0
 11
1377.927504882227
 21
385.982856725951
 31
0
  0
LINE
  8
1
 62
2
 10
1376.677504882227
 20
386.264106725951
 30
0
 11
1377.427504882227
 21
385.420356725951
 31
0
  0
LINE
  8
1
 62
2
 10
1375.677504882227
 20
385.701606725951
 30
0
 11
1372.427504882227
 21
385.701606725951
 31
0
  0
LINE
  8
1
 62
2
 10
1374.927504882227
 20
384.014106725951
 30
0
 11
1375.677504882227
 21
385.701606725951
 31
0
  0
LINE
  8
1
 62
2
 10
1373.177504882227
 20
381.482856725951
 30
0
 11
1374.927504882227
 21
384.014106725951
 31
0
  0
LINE
  8
1
 62
2
 10
1371.427504882227
 20
380.076606725951
 30
0
 11
1373.177504882227
 21
381.482856725951
 31
0
  0
LINE
  8
1
 62
2
 10
1368.427504882227
 20
385.420356725951
 30
0
 11
1366.177504882227
 21
382.889106725951
 31
0
  0
LINE
  8
1
 62
2
 10
1362.677504882227
 20
385.420356725951
 30
0
 11
1368.427504882227
 21
385.420356725951
 31
0
  0
LINE
  8
1
 62
2
 10
1365.427504882227
 20
382.889106725951
 30
0
 11
1365.677504882227
 21
384.295356725951
 31
0
  0
LINE
  8
1
 62
2
 10
1364.927504882227
 20
381.201606725951
 30
0
 11
1365.427504882227
 21
382.889106725951
 31
0
  0
LINE
  8
1
 62
2
 10
1363.927504882227
 20
379.514106725951
 30
0
 11
1364.927504882227
 21
381.201606725951
 31
0
  0
LINE
  8
1
 62
2
 10
1407.930317382227
 20
667.3627041888974
 30
0
 11
1407.930317382227
 21
666.7377041888974
 31
0
  0
LINE
  8
1
 62
2
 10
1404.684379882227
 20
667.3627041888974
 30
0
 11
1407.930317382227
 21
667.3627041888974
 31
0
  0
LINE
  8
1
 62
2
 10
1404.684379882227
 20
668.9877041888974
 30
0
 11
1404.684379882227
 21
667.3627041888974
 31
0
  0
LINE
  8
1
 62
2
 10
1407.585004882227
 20
668.9877041888974
 30
0
 11
1404.684379882227
 21
668.9877041888974
 31
0
  0
LINE
  8
1
 62
2
 10
1407.585004882227
 20
669.6127041888974
 30
0
 11
1407.585004882227
 21
668.9877041888974
 31
0
  0
LINE
  8
1
 62
2
 10
1404.684379882227
 20
669.6127041888974
 30
0
 11
1407.585004882227
 21
669.6127041888974
 31
0
  0
LINE
  8
1
 62
2
 10
1404.684379882227
 20
671.1127041888974
 30
0
 11
1404.684379882227
 21
669.6127041888974
 31
0
  0
LINE
  8
1
 62
2
 10
1407.861254882227
 20
671.1127041888974
 30
0
 11
1404.684379882227
 21
671.1127041888974
 31
0
  0
LINE
  8
1
 62
2
 10
1407.861254882227
 20
671.7377041888974
 30
0
 11
1407.861254882227
 21
671.1127041888974
 31
0
  0
LINE
  8
1
 62
2
 10
1403.924692382227
 20
671.7377041888974
 30
0
 11
1407.861254882227
 21
671.7377041888974
 31
0
  0
LINE
  8
1
 62
2
 10
1403.924692382227
 20
666.7377041888974
 30
0
 11
1403.924692382227
 21
671.7377041888974
 31
0
  0
LINE
  8
1
 62
2
 10
1407.930317382227
 20
666.7377041888974
 30
0
 11
1403.924692382227
 21
666.7377041888974
 31
0
  0
LINE
  8
1
 62
2
 10
1403.924692382227
 20
790.1127041888974
 30
0
 11
1403.924692382227
 21
790.7377041888974
 31
0
  0
LINE
  8
1
 62
2
 10
1407.170629882227
 20
790.1127041888974
 30
0
 11
1403.924692382227
 21
790.1127041888974
 31
0
  0
LINE
  8
1
 62
2
 10
1407.170629882227
 20
788.4877041888974
 30
0
 11
1407.170629882227
 21
790.1127041888974
 31
0
  0
LINE
  8
1
 62
2
 10
1404.270004882227
 20
788.4877041888974
 30
0
 11
1407.170629882227
 21
788.4877041888974
 31
0
  0
LINE
  8
1
 62
2
 10
1404.270004882227
 20
787.8627041888974
 30
0
 11
1404.270004882227
 21
788.4877041888974
 31
0
  0
LINE
  8
1
 62
2
 10
1407.170629882227
 20
787.8627041888974
 30
0
 11
1404.270004882227
 21
787.8627041888974
 31
0
  0
LINE
  8
1
 62
2
 10
1407.170629882227
 20
786.3627041888974
 30
0
 11
1407.170629882227
 21
787.8627041888974
 31
0
  0
LINE
  8
1
 62
2
 10
1403.993754882227
 20
786.3627041888974
 30
0
 11
1407.170629882227
 21
786.3627041888974
 31
0
  0
LINE
  8
1
 62
2
 10
1403.993754882227
 20
785.7377041888974
 30
0
 11
1403.993754882227
 21
786.3627041888974
 31
0
  0
LINE
  8
1
 62
2
 10
1407.930317382227
 20
785.7377041888974
 30
0
 11
1403.993754882227
 21
785.7377041888974
 31
0
  0
LINE
  8
1
 62
2
 10
1407.930317382227
 20
790.7377041888974
 30
0
 11
1407.930317382227
 21
785.7377041888974
 31
0
  0
LINE
  8
1
 62
2
 10
1403.924692382227
 20
790.7377041888974
 30
0
 11
1407.930317382227
 21
790.7377041888974
 31
0
  0
LINE
  8
1
 62
2
 10
1406.517300642913
 20
638.4576388847027
 30
0
 11
1406.517300642913
 21
638.1576388847027
 31
0
  0
LINE
  8
1
 62
2
 10
1406.517300642913
 20
635.1576388847027
 30
0
 11
1410.717300642913
 21
635.1576388847027
 31
0
  0
LINE
  8
1
 62
2
 10
1406.517300642913
 20
638.1576388847027
 30
0
 11
1406.517300642913
 21
635.1576388847027
 31
0
  0
LINE
  8
1
 62
2
 10
1406.517300642913
 20
641.1576388847027
 30
0
 11
1406.517300642913
 21
638.4576388847027
 31
0
  0
LINE
  8
1
 62
2
 10
1410.717300642913
 20
641.1576388847027
 30
0
 11
1406.517300642913
 21
641.1576388847027
 31
0
  0
LINE
  8
1
 62
2
 10
1410.117300642913
 20
638.4576388847027
 30
0
 11
1406.517300642913
 21
638.4576388847027
 31
0
  0
LINE
  8
1
 62
2
 10
1418.196856740272
 20
647.6756793316554
 30
0
 11
1421.196856740272
 21
647.6756793316554
 31
0
  0
LINE
  8
1
 62
2
 10
1419.030190073605
 20
644.3006793316554
 30
0
 11
1418.363523406939
 21
644.6756793316554
 31
0
  0
LINE
  8
1
 62
2
 10
1419.363523406939
 20
644.4881793316554
 30
0
 11
1419.030190073605
 21
644.3006793316554
 31
0
  0
LINE
  8
1
 62
2
 10
1419.863523406939
 20
645.4256793316554
 30
0
 11
1419.363523406939
 21
644.4881793316554
 31
0
  0
LINE
  8
1
 62
2
 10
1420.196856740272
 20
646.5506793316554
 30
0
 11
1419.863523406939
 21
645.4256793316554
 31
0
  0
LINE
  8
1
 62
2
 10
1417.863523406939
 20
646.5506793316554
 30
0
 11
1420.196856740272
 21
646.5506793316554
 31
0
  0
LINE
  8
1
 62
2
 10
1418.196856740272
 20
647.6756793316554
 30
0
 11
1417.696856740272
 21
645.8006793316554
 31
0
  0
LINE
  8
1
 62
2
 10
1416.363523406939
 20
647.6756793316554
 30
0
 11
1418.196856740272
 21
647.6756793316554
 31
0
  0
LINE
  8
1
 62
2
 10
1420.196856740272
 20
649.9256793316554
 30
0
 11
1417.530190073605
 21
649.9256793316554
 31
0
  0
LINE
  8
1
 62
2
 10
1420.196856740272
 20
648.6131793316554
 30
0
 11
1420.196856740272
 21
649.9256793316554
 31
0
  0
LINE
  8
1
 62
2
 10
1417.530190073605
 20
648.6131793316554
 30
0
 11
1420.196856740272
 21
648.6131793316554
 31
0
  0
LINE
  8
1
 62
2
 10
1417.530190073605
 20
649.9256793316554
 30
0
 11
1417.530190073605
 21
648.6131793316554
 31
0
  0
LINE
  8
1
 62
2
 10
1415.196856740272
 20
644.6756793316554
 30
0
 11
1415.196856740272
 21
645.2381793316554
 31
0
  0
LINE
  8
1
 62
2
 10
1413.530190073605
 20
644.6756793316554
 30
0
 11
1415.196856740272
 21
644.6756793316554
 31
0
  0
LINE
  8
1
 62
2
 10
1412.863523406939
 20
644.6756793316554
 30
0
 11
1413.530190073605
 21
644.6756793316554
 31
0
  0
LINE
  8
1
 62
2
 10
1412.863523406939
 20
647.4881793316554
 30
0
 11
1412.863523406939
 21
644.6756793316554
 31
0
  0
LINE
  8
1
 62
2
 10
1414.696856740272
 20
647.4881793316554
 30
0
 11
1412.863523406939
 21
647.4881793316554
 31
0
  0
LINE
  8
1
 62
2
 10
1414.696856740272
 20
649.3631793316554
 30
0
 11
1414.696856740272
 21
647.4881793316554
 31
0
  0
LINE
  8
1
 62
2
 10
1412.863523406939
 20
649.3631793316554
 30
0
 11
1414.696856740272
 21
649.3631793316554
 31
0
  0
LINE
  8
1
 62
2
 10
1410.363523406939
 20
649.5506793316554
 30
0
 11
1411.863523406939
 21
649.5506793316554
 31
0
  0
LINE
  8
1
 62
2
 10
1410.196856740272
 20
648.6131793316554
 30
0
 11
1412.363523406939
 21
648.6131793316554
 31
0
  0
LINE
  8
1
 62
2
 10
1411.863523406939
 20
647.8631793316554
 30
0
 11
1410.530190073605
 21
647.8631793316554
 31
0
  0
LINE
  8
1
 62
2
 10
1410.530190073605
 20
646.9256793316554
 30
0
 11
1411.863523406939
 21
646.9256793316554
 31
0
  0
LINE
  8
1
 62
2
 10
1411.863523406939
 20
644.6756793316554
 30
0
 11
1410.530190073605
 21
644.6756793316554
 31
0
  0
LINE
  8
1
 62
2
 10
1411.863523406939
 20
646.1756793316554
 30
0
 11
1411.863523406939
 21
644.6756793316554
 31
0
  0
LINE
  8
1
 62
2
 10
1410.530190073605
 20
646.1756793316554
 30
0
 11
1411.863523406939
 21
646.1756793316554
 31
0
  0
LINE
  8
1
 62
2
 10
1410.530190073605
 20
644.6756793316554
 30
0
 11
1410.530190073605
 21
646.1756793316554
 31
0
  0
LINE
  8
1
 62
2
 10
1405.530190073605
 20
648.0506793316554
 30
0
 11
1405.530190073605
 21
644.4881793316554
 31
0
  0
LINE
  8
1
 62
2
 10
1408.530190073605
 20
650.3006793316554
 30
0
 11
1408.530190073605
 21
644.3006793316554
 31
0
  0
LINE
  8
1
 62
2
 10
1407.696856740272
 20
649.1756793316554
 30
0
 11
1407.196856740272
 21
649.9256793316554
 31
0
  0
LINE
  8
1
 62
2
 10
1407.696856740272
 20
647.6756793316554
 30
0
 11
1407.196856740272
 21
648.4256793316554
 31
0
  0
LINE
  8
1
 62
2
 10
1406.696856740272
 20
646.3631793316554
 30
0
 11
1409.530190073605
 21
646.9256793316554
 31
0
  0
LINE
  8
1
 62
2
 10
1406.030190073605
 20
647.3006793316554
 30
0
 11
1406.363523406939
 21
646.5506793316554
 31
0
  0
LINE
  8
1
 62
2
 10
1405.530190073605
 20
650.1131793316554
 30
0
 11
1405.530190073605
 21
648.0506793316554
 31
0
  0
LINE
  8
1
 62
2
 10
1406.030190073605
 20
648.9881793316554
 30
0
 11
1406.363523406939
 21
649.7381793316554
 31
0
  0
LINE
  8
1
 62
2
 10
1404.530190073605
 20
649.5506793316554
 30
0
 11
1405.030190073605
 21
648.8006793316554
 31
0
  0
LINE
  8
1
 62
2
 10
1406.696856740272
 20
648.0506793316554
 30
0
 11
1404.363523406939
 21
648.0506793316554
 31
0
  0
LINE
  8
1
 62
2
 10
1404.863523406939
 20
646.3631793316554
 30
0
 11
1405.530190073605
 21
648.0506793316554
 31
0
  0
LINE
  8
1
 62
2
 10
1404.363523406939
 20
645.4256793316554
 30
0
 11
1404.863523406939
 21
646.3631793316554
 31
0
  0
LINE
  8
1
 62
2
 10
1402.530190073605
 20
644.6756793316554
 30
0
 11
1402.030190073605
 21
644.6756793316554
 31
0
  0
LINE
  8
1
 62
2
 10
1402.363523406939
 20
650.1131793316554
 30
0
 11
1402.530190073605
 21
644.6756793316554
 31
0
  0
LINE
  8
1
 62
2
 10
1403.363523406939
 20
648.4256793316554
 30
0
 11
1400.863523406939
 21
648.4256793316554
 31
0
  0
LINE
  8
1
 62
2
 10
1401.530190073605
 20
646.5506793316554
 30
0
 11
1402.363523406939
 21
648.2381793316554
 31
0
  0
LINE
  8
1
 62
2
 10
1400.530190073605
 20
645.4256793316554
 30
0
 11
1401.530190073605
 21
646.5506793316554
 31
0
  0
LINE
  8
1
 62
2
 10
1399.530190073605
 20
648.4256793316554
 30
0
 11
1400.363523406939
 21
647.1131793316554
 31
0
  0
LINE
  8
1
 62
2
 10
1399.030190073605
 20
647.3006793316554
 30
0
 11
1399.530190073605
 21
648.4256793316554
 31
0
  0
LINE
  8
1
 62
2
 10
1398.363523406939
 20
646.1756793316554
 30
0
 11
1399.030190073605
 21
647.3006793316554
 31
0
  0
LINE
  8
1
 62
2
 10
1400.363523406939
 20
648.6131793316554
 30
0
 11
1398.530190073605
 21
648.6131793316554
 31
0
  0
LINE
  8
1
 62
2
 10
1399.530190073605
 20
644.3006793316554
 30
0
 11
1399.530190073605
 21
650.3006793316554
 31
0
  0
LINE
  8
1
 62
2
 10
1309.285167792877
 20
579.2921088903914
 30
0
 11
1309.285167792877
 21
573.2921088903914
 31
0
  0
LINE
  8
1
 62
2
 10
1307.485167792877
 20
577.4921088903915
 30
0
 11
1309.285167792877
 21
579.2921088903914
 31
0
  0
LINE
  8
1
 62
2
 10
1305.685167792877
 20
579.2921088903914
 30
0
 11
1305.685167792877
 21
573.2921088903914
 31
0
  0
LINE
  8
1
 62
2
 10
1303.885167792877
 20
577.4921088903915
 30
0
 11
1305.685167792877
 21
579.2921088903914
 31
0
  0
LINE
  8
1
 62
2
 10
1300.551834459544
 20
578.9171088903914
 30
0
 11
1300.551834459544
 21
573.6671088903914
 31
0
  0
LINE
  8
1
 62
2
 10
1302.71850112621
 20
573.6671088903914
 30
0
 11
1302.71850112621
 21
577.6046088903914
 31
0
  0
LINE
  8
1
 62
2
 10
1298.385167792877
 20
573.6671088903914
 30
0
 11
1302.71850112621
 21
573.6671088903914
 31
0
  0
LINE
  8
1
 62
2
 10
1298.385167792877
 20
577.6046088903914
 30
0
 11
1298.385167792877
 21
573.6671088903914
 31
0
  0
LINE
  8
1
 62
2
 10
1290.385167792877
 20
575.6921088903914
 30
0
 11
1290.385167792877
 21
573.2921088903914
 31
0
  0
LINE
  8
1
 62
2
 10
1287.685167792877
 20
574.4921088903915
 30
0
 11
1291.285167792877
 21
574.4921088903915
 31
0
  0
LINE
  8
1
 62
2
 10
1290.385167792877
 20
579.2921088903914
 30
0
 11
1287.685167792877
 21
574.4921088903915
 31
0
  0
LINE
  8
1
 62
2
 10
1282.885167792877
 20
578.8421088903914
 30
0
 11
1283.335167792877
 21
579.1421088903915
 31
0
  0
LINE
  8
1
 62
2
 10
1282.585167792877
 20
578.3921088903915
 30
0
 11
1282.885167792877
 21
578.8421088903914
 31
0
  0
LINE
  8
1
 62
2
 10
1282.585167792877
 20
577.7921088903914
 30
0
 11
1282.585167792877
 21
578.3921088903915
 31
0
  0
LINE
  8
1
 62
2
 10
1282.885167792877
 20
577.3421088903914
 30
0
 11
1282.585167792877
 21
577.7921088903914
 31
0
  0
LINE
  8
1
 62
2
 10
1283.335167792877
 20
577.0421088903914
 30
0
 11
1282.885167792877
 21
577.3421088903914
 31
0
  0
LINE
  8
1
 62
2
 10
1283.785167792877
 20
576.8921088903915
 30
0
 11
1283.335167792877
 21
577.0421088903914
 31
0
  0
LINE
  8
1
 62
2
 10
1284.385167792877
 20
576.8921088903915
 30
0
 11
1283.785167792877
 21
576.8921088903915
 31
0
  0
LINE
  8
1
 62
2
 10
1284.835167792877
 20
577.0421088903914
 30
0
 11
1284.385167792877
 21
576.8921088903915
 31
0
  0
LINE
  8
1
 62
2
 10
1285.285167792877
 20
577.3421088903914
 30
0
 11
1284.835167792877
 21
577.0421088903914
 31
0
  0
LINE
  8
1
 62
2
 10
1285.585167792877
 20
577.7921088903914
 30
0
 11
1285.285167792877
 21
577.3421088903914
 31
0
  0
LINE
  8
1
 62
2
 10
1285.585167792877
 20
578.3921088903915
 30
0
 11
1285.585167792877
 21
577.7921088903914
 31
0
  0
LINE
  8
1
 62
2
 10
1285.285167792877
 20
578.8421088903914
 30
0
 11
1285.585167792877
 21
578.3921088903915
 31
0
  0
LINE
  8
1
 62
2
 10
1284.835167792877
 20
579.1421088903915
 30
0
 11
1285.285167792877
 21
578.8421088903914
 31
0
  0
LINE
  8
1
 62
2
 10
1284.385167792877
 20
579.2921088903914
 30
0
 11
1284.835167792877
 21
579.1421088903915
 31
0
  0
LINE
  8
1
 62
2
 10
1283.785167792877
 20
579.2921088903914
 30
0
 11
1284.385167792877
 21
579.2921088903914
 31
0
  0
LINE
  8
1
 62
2
 10
1283.335167792877
 20
579.1421088903915
 30
0
 11
1283.785167792877
 21
579.2921088903914
 31
0
  0
LINE
  8
1
 62
2
 10
1285.135167792877
 20
576.5921088903914
 30
0
 11
1284.385167792877
 21
576.8921088903915
 31
0
  0
LINE
  8
1
 62
2
 10
1285.585167792877
 20
576.1421088903915
 30
0
 11
1285.135167792877
 21
576.5921088903914
 31
0
  0
LINE
  8
1
 62
2
 10
1285.885167792877
 20
575.5421088903914
 30
0
 11
1285.585167792877
 21
576.1421088903915
 31
0
  0
LINE
  8
1
 62
2
 10
1285.885167792877
 20
574.6421088903915
 30
0
 11
1285.885167792877
 21
575.5421088903914
 31
0
  0
LINE
  8
1
 62
2
 10
1285.585167792877
 20
574.0421088903914
 30
0
 11
1285.885167792877
 21
574.6421088903915
 31
0
  0
LINE
  8
1
 62
2
 10
1285.135167792877
 20
573.5921088903914
 30
0
 11
1285.585167792877
 21
574.0421088903914
 31
0
  0
LINE
  8
1
 62
2
 10
1284.535167792877
 20
573.2921088903914
 30
0
 11
1285.135167792877
 21
573.5921088903914
 31
0
  0
LINE
  8
1
 62
2
 10
1283.635167792877
 20
573.2921088903914
 30
0
 11
1284.535167792877
 21
573.2921088903914
 31
0
  0
LINE
  8
1
 62
2
 10
1283.035167792877
 20
573.5921088903914
 30
0
 11
1283.635167792877
 21
573.2921088903914
 31
0
  0
LINE
  8
1
 62
2
 10
1282.585167792877
 20
574.0421088903914
 30
0
 11
1283.035167792877
 21
573.5921088903914
 31
0
  0
LINE
  8
1
 62
2
 10
1282.285167792877
 20
574.6421088903915
 30
0
 11
1282.585167792877
 21
574.0421088903914
 31
0
  0
LINE
  8
1
 62
2
 10
1282.285167792877
 20
575.5421088903914
 30
0
 11
1282.285167792877
 21
574.6421088903915
 31
0
  0
LINE
  8
1
 62
2
 10
1282.585167792877
 20
576.1421088903915
 30
0
 11
1282.285167792877
 21
575.5421088903914
 31
0
  0
LINE
  8
1
 62
2
 10
1283.035167792877
 20
576.5921088903914
 30
0
 11
1282.585167792877
 21
576.1421088903915
 31
0
  0
LINE
  8
1
 62
2
 10
1283.785167792877
 20
576.8921088903915
 30
0
 11
1283.035167792877
 21
576.5921088903914
 31
0
  0
LINE
  8
1
 62
2
 10
1280.485167792877
 20
579.2921088903914
 30
0
 11
1280.485167792877
 21
573.2921088903914
 31
0
  0
LINE
  8
1
 62
2
 10
1278.685167792877
 20
577.4921088903915
 30
0
 11
1280.485167792877
 21
579.2921088903914
 31
0
  0
LINE
  8
1
 62
2
 10
1276.885167792877
 20
573.2921088903914
 30
0
 11
1276.735167792877
 21
573.2921088903914
 31
0
  0
LINE
  8
1
 62
2
 10
1276.885167792877
 20
573.4421088903914
 30
0
 11
1276.885167792877
 21
573.2921088903914
 31
0
  0
LINE
  8
1
 62
2
 10
1276.735167792877
 20
573.4421088903914
 30
0
 11
1276.885167792877
 21
573.4421088903914
 31
0
  0
LINE
  8
1
 62
2
 10
1276.735167792877
 20
573.2921088903914
 30
0
 11
1276.735167792877
 21
573.4421088903914
 31
0
  0
LINE
  8
1
 62
2
 10
1273.585167792877
 20
573.2921088903914
 30
0
 11
1271.335167792877
 21
573.2921088903914
 31
0
  0
LINE
  8
1
 62
2
 10
1274.035167792877
 20
573.4421088903914
 30
0
 11
1273.585167792877
 21
573.2921088903914
 31
0
  0
LINE
  8
1
 62
2
 10
1274.485167792877
 20
573.7421088903915
 30
0
 11
1274.035167792877
 21
573.4421088903914
 31
0
  0
LINE
  8
1
 62
2
 10
1274.785167792877
 20
574.1921088903914
 30
0
 11
1274.485167792877
 21
573.7421088903915
 31
0
  0
LINE
  8
1
 62
2
 10
1274.935167792877
 20
574.7921088903914
 30
0
 11
1274.785167792877
 21
574.1921088903914
 31
0
  0
LINE
  8
1
 62
2
 10
1274.935167792877
 20
575.6921088903914
 30
0
 11
1274.935167792877
 21
574.7921088903914
 31
0
  0
LINE
  8
1
 62
2
 10
1274.785167792877
 20
576.2921088903914
 30
0
 11
1274.935167792877
 21
575.6921088903914
 31
0
  0
LINE
  8
1
 62
2
 10
1274.335167792877
 20
576.7421088903915
 30
0
 11
1274.785167792877
 21
576.2921088903914
 31
0
  0
LINE
  8
1
 62
2
 10
1273.585167792877
 20
576.8921088903915
 30
0
 11
1274.335167792877
 21
576.7421088903915
 31
0
  0
LINE
  8
1
 62
2
 10
1271.335167792877
 20
576.8921088903915
 30
0
 11
1273.585167792877
 21
576.8921088903915
 31
0
  0
LINE
  8
1
 62
2
 10
1271.335167792877
 20
579.2921088903914
 30
0
 11
1271.335167792877
 21
576.8921088903915
 31
0
  0
LINE
  8
1
 62
2
 10
1274.635167792877
 20
579.2921088903914
 30
0
 11
1271.335167792877
 21
579.2921088903914
 31
0
  0
LINE
  8
1
 62
2
 10
1269.535167792877
 20
579.2921088903914
 30
0
 11
1266.535167792877
 21
573.2921088903914
 31
0
  0
LINE
  8
1
 62
2
 10
1265.935167792877
 20
579.2921088903914
 30
0
 11
1269.535167792877
 21
579.2921088903914
 31
0
  0
LINE
  8
1
 62
2
 10
1265.935167792877
 20
578.6921088903914
 30
0
 11
1265.935167792877
 21
579.2921088903914
 31
0
  0
LINE
  8
1
 62
2
 10
1347.502702054654
 20
649.6062401527645
 30
0
 11
1347.502702054654
 21
649.3062401527645
 31
0
  0
LINE
  8
1
 62
2
 10
1347.502702054654
 20
646.3062401527645
 30
0
 11
1351.702702054654
 21
646.3062401527645
 31
0
  0
LINE
  8
1
 62
2
 10
1347.502702054654
 20
649.3062401527645
 30
0
 11
1347.502702054654
 21
646.3062401527645
 31
0
  0
LINE
  8
1
 62
2
 10
1347.502702054654
 20
652.3062401527645
 30
0
 11
1347.502702054654
 21
649.6062401527645
 31
0
  0
LINE
  8
1
 62
2
 10
1351.702702054654
 20
652.3062401527645
 30
0
 11
1347.502702054654
 21
652.3062401527645
 31
0
  0
LINE
  8
1
 62
2
 10
1351.102702054654
 20
649.6062401527645
 30
0
 11
1347.502702054654
 21
649.6062401527645
 31
0
  0
LINE
  8
1
 62
2
 10
1359.182258152013
 20
658.8242805997172
 30
0
 11
1362.182258152013
 21
658.8242805997172
 31
0
  0
LINE
  8
1
 62
2
 10
1360.015591485346
 20
655.4492805997172
 30
0
 11
1359.34892481868
 21
655.8242805997172
 31
0
  0
LINE
  8
1
 62
2
 10
1360.34892481868
 20
655.6367805997172
 30
0
 11
1360.015591485346
 21
655.4492805997172
 31
0
  0
LINE
  8
1
 62
2
 10
1360.84892481868
 20
656.5742805997172
 30
0
 11
1360.34892481868
 21
655.6367805997172
 31
0
  0
LINE
  8
1
 62
2
 10
1361.182258152013
 20
657.6992805997172
 30
0
 11
1360.84892481868
 21
656.5742805997172
 31
0
  0
LINE
  8
1
 62
2
 10
1358.84892481868
 20
657.6992805997172
 30
0
 11
1361.182258152013
 21
657.6992805997172
 31
0
  0
LINE
  8
1
 62
2
 10
1359.182258152013
 20
658.8242805997172
 30
0
 11
1358.682258152013
 21
656.9492805997172
 31
0
  0
LINE
  8
1
 62
2
 10
1357.34892481868
 20
658.8242805997172
 30
0
 11
1359.182258152013
 21
658.8242805997172
 31
0
  0
LINE
  8
1
 62
2
 10
1361.182258152013
 20
661.0742805997172
 30
0
 11
1358.515591485346
 21
661.0742805997172
 31
0
  0
LINE
  8
1
 62
2
 10
1361.182258152013
 20
659.7617805997172
 30
0
 11
1361.182258152013
 21
661.0742805997172
 31
0
  0
LINE
  8
1
 62
2
 10
1358.515591485346
 20
659.7617805997172
 30
0
 11
1361.182258152013
 21
659.7617805997172
 31
0
  0
LINE
  8
1
 62
2
 10
1358.515591485346
 20
661.0742805997172
 30
0
 11
1358.515591485346
 21
659.7617805997172
 31
0
  0
LINE
  8
1
 62
2
 10
1356.182258152013
 20
655.8242805997172
 30
0
 11
1356.182258152013
 21
656.3867805997172
 31
0
  0
LINE
  8
1
 62
2
 10
1354.515591485346
 20
655.8242805997172
 30
0
 11
1356.182258152013
 21
655.8242805997172
 31
0
  0
LINE
  8
1
 62
2
 10
1353.84892481868
 20
655.8242805997172
 30
0
 11
1354.515591485346
 21
655.8242805997172
 31
0
  0
LINE
  8
1
 62
2
 10
1353.84892481868
 20
658.6367805997172
 30
0
 11
1353.84892481868
 21
655.8242805997172
 31
0
  0
LINE
  8
1
 62
2
 10
1355.682258152013
 20
658.6367805997172
 30
0
 11
1353.84892481868
 21
658.6367805997172
 31
0
  0
LINE
  8
1
 62
2
 10
1355.682258152013
 20
660.5117805997172
 30
0
 11
1355.682258152013
 21
658.6367805997172
 31
0
  0
LINE
  8
1
 62
2
 10
1353.84892481868
 20
660.5117805997172
 30
0
 11
1355.682258152013
 21
660.5117805997172
 31
0
  0
LINE
  8
1
 62
2
 10
1351.34892481868
 20
660.6992805997172
 30
0
 11
1352.84892481868
 21
660.6992805997172
 31
0
  0
LINE
  8
1
 62
2
 10
1351.182258152013
 20
659.7617805997172
 30
0
 11
1353.34892481868
 21
659.7617805997172
 31
0
  0
LINE
  8
1
 62
2
 10
1352.84892481868
 20
659.0117805997172
 30
0
 11
1351.515591485346
 21
659.0117805997172
 31
0
  0
LINE
  8
1
 62
2
 10
1351.515591485346
 20
658.0742805997172
 30
0
 11
1352.84892481868
 21
658.0742805997172
 31
0
  0
LINE
  8
1
 62
2
 10
1352.84892481868
 20
655.8242805997172
 30
0
 11
1351.515591485346
 21
655.8242805997172
 31
0
  0
LINE
  8
1
 62
2
 10
1352.84892481868
 20
657.3242805997172
 30
0
 11
1352.84892481868
 21
655.8242805997172
 31
0
  0
LINE
  8
1
 62
2
 10
1351.515591485346
 20
657.3242805997172
 30
0
 11
1352.84892481868
 21
657.3242805997172
 31
0
  0
LINE
  8
1
 62
2
 10
1351.515591485346
 20
655.8242805997172
 30
0
 11
1351.515591485346
 21
657.3242805997172
 31
0
  0
LINE
  8
1
 62
2
 10
1346.515591485346
 20
659.1992805997172
 30
0
 11
1346.515591485346
 21
655.6367805997172
 31
0
  0
LINE
  8
1
 62
2
 10
1349.515591485346
 20
661.4492805997172
 30
0
 11
1349.515591485346
 21
655.4492805997172
 31
0
  0
LINE
  8
1
 62
2
 10
1348.682258152013
 20
660.3242805997172
 30
0
 11
1348.182258152013
 21
661.0742805997172
 31
0
  0
LINE
  8
1
 62
2
 10
1348.682258152013
 20
658.8242805997172
 30
0
 11
1348.182258152013
 21
659.5742805997172
 31
0
  0
LINE
  8
1
 62
2
 10
1347.682258152013
 20
657.5117805997172
 30
0
 11
1350.515591485346
 21
658.0742805997172
 31
0
  0
LINE
  8
1
 62
2
 10
1347.015591485346
 20
658.4492805997172
 30
0
 11
1347.34892481868
 21
657.6992805997172
 31
0
  0
LINE
  8
1
 62
2
 10
1346.515591485346
 20
661.2617805997172
 30
0
 11
1346.515591485346
 21
659.1992805997172
 31
0
  0
LINE
  8
1
 62
2
 10
1347.015591485346
 20
660.1367805997172
 30
0
 11
1347.34892481868
 21
660.8867805997172
 31
0
  0
LINE
  8
1
 62
2
 10
1345.515591485346
 20
660.6992805997172
 30
0
 11
1346.015591485346
 21
659.9492805997172
 31
0
  0
LINE
  8
1
 62
2
 10
1347.682258152013
 20
659.1992805997172
 30
0
 11
1345.34892481868
 21
659.1992805997172
 31
0
  0
LINE
  8
1
 62
2
 10
1345.84892481868
 20
657.5117805997172
 30
0
 11
1346.515591485346
 21
659.1992805997172
 31
0
  0
LINE
  8
1
 62
2
 10
1345.34892481868
 20
656.5742805997172
 30
0
 11
1345.84892481868
 21
657.5117805997172
 31
0
  0
LINE
  8
1
 62
2
 10
1343.515591485346
 20
655.8242805997172
 30
0
 11
1343.015591485346
 21
655.8242805997172
 31
0
  0
LINE
  8
1
 62
2
 10
1343.34892481868
 20
661.2617805997172
 30
0
 11
1343.515591485346
 21
655.8242805997172
 31
0
  0
LINE
  8
1
 62
2
 10
1344.34892481868
 20
659.5742805997172
 30
0
 11
1341.84892481868
 21
659.5742805997172
 31
0
  0
LINE
  8
1
 62
2
 10
1342.515591485346
 20
657.6992805997172
 30
0
 11
1343.34892481868
 21
659.3867805997172
 31
0
  0
LINE
  8
1
 62
2
 10
1341.515591485346
 20
656.5742805997172
 30
0
 11
1342.515591485346
 21
657.6992805997172
 31
0
  0
LINE
  8
1
 62
2
 10
1340.515591485346
 20
659.5742805997172
 30
0
 11
1341.34892481868
 21
658.2617805997172
 31
0
  0
LINE
  8
1
 62
2
 10
1340.015591485346
 20
658.4492805997172
 30
0
 11
1340.515591485346
 21
659.5742805997172
 31
0
  0
LINE
  8
1
 62
2
 10
1339.34892481868
 20
657.3242805997172
 30
0
 11
1340.015591485346
 21
658.4492805997172
 31
0
  0
LINE
  8
1
 62
2
 10
1341.34892481868
 20
659.7617805997172
 30
0
 11
1339.515591485346
 21
659.7617805997172
 31
0
  0
LINE
  8
1
 62
2
 10
1340.515591485346
 20
655.4492805997172
 30
0
 11
1340.515591485346
 21
661.4492805997172
 31
0
  0
LINE
  8
1
 62
2
 10
1318.040294245936
 20
666.3323262220449
 30
0
 11
1319.873627579269
 21
666.3323262220449
 31
0
  0
LINE
  8
1
 62
2
 10
1316.373627579269
 20
663.3323262220449
 30
0
 11
1320.706960912602
 21
663.3323262220449
 31
0
  0
LINE
  8
1
 62
2
 10
1315.373627579269
 20
663.3323262220449
 30
0
 11
1316.373627579269
 21
663.3323262220449
 31
0
  0
LINE
  8
1
 62
2
 10
1316.373627579269
 20
664.6448262220449
 30
0
 11
1316.373627579269
 21
663.3323262220449
 31
0
  0
LINE
  8
1
 62
2
 10
1316.373627579269
 20
664.8323262220449
 30
0
 11
1319.706960912602
 21
664.8323262220449
 31
0
  0
LINE
  8
1
 62
2
 10
1318.040294245936
 20
666.3323262220449
 30
0
 11
1318.040294245936
 21
661.2698262220449
 31
0
  0
LINE
  8
1
 62
2
 10
1316.540294245936
 20
666.3323262220449
 30
0
 11
1318.040294245936
 21
666.3323262220449
 31
0
  0
LINE
  8
1
 62
2
 10
1316.206960912602
 20
665.9573262220449
 30
0
 11
1315.706960912602
 21
665.3948262220449
 31
0
  0
LINE
  8
1
 62
2
 10
1316.706960912602
 20
666.7073262220449
 30
0
 11
1316.206960912602
 21
665.9573262220449
 31
0
  0
LINE
  8
1
 62
2
 10
1317.040294245936
 20
667.2698262220449
 30
0
 11
1316.706960912602
 21
666.7073262220449
 31
0
  0
LINE
  8
1
 62
2
 10
1312.706960912602
 20
664.8323262220449
 30
0
 11
1311.206960912602
 21
664.8323262220449
 31
0
  0
LINE
  8
1
 62
2
 10
1309.706960912602
 20
664.6448262220449
 30
0
 11
1309.540294245936
 21
664.6448262220449
 31
0
  0
LINE
  8
1
 62
2
 10
1309.706960912602
 20
661.8323262220449
 30
0
 11
1309.540294245936
 21
661.6448262220449
 31
0
  0
LINE
  8
1
 62
2
 10
1310.540294245936
 20
666.3323262220449
 30
0
 11
1310.040294245936
 21
667.0823262220449
 31
0
  0
LINE
  8
1
 62
2
 10
1311.540294245936
 20
666.1448262220449
 30
0
 11
1311.206960912602
 21
665.5823262220449
 31
0
  0
LINE
  8
1
 62
2
 10
1311.873627579269
 20
667.0823262220449
 30
0
 11
1311.540294245936
 21
666.1448262220449
 31
0
  0
LINE
  8
1
 62
2
 10
1314.040294245936
 20
666.1448262220449
 30
0
 11
1311.540294245936
 21
666.1448262220449
 31
0
  0
LINE
  8
1
 62
2
 10
1312.706960912602
 20
664.8323262220449
 30
0
 11
1312.706960912602
 21
667.2698262220449
 31
0
  0
LINE
  8
1
 62
2
 10
1314.373627579269
 20
664.8323262220449
 30
0
 11
1312.706960912602
 21
664.8323262220449
 31
0
  0
LINE
  8
1
 62
2
 10
1311.873627579269
 20
662.5823262220449
 30
0
 11
1313.706960912602
 21
662.5823262220449
 31
0
  0
LINE
  8
1
 62
2
 10
1311.873627579269
 20
664.0823262220449
 30
0
 11
1311.873627579269
 21
662.5823262220449
 31
0
  0
LINE
  8
1
 62
2
 10
1313.706960912602
 20
664.0823262220449
 30
0
 11
1311.873627579269
 21
664.0823262220449
 31
0
  0
LINE
  8
1
 62
2
 10
1313.706960912602
 20
662.5823262220449
 30
0
 11
1313.706960912602
 21
664.0823262220449
 31
0
  0
LINE
  8
1
 62
2
 10
1311.206960912602
 20
661.6448262220449
 30
0
 11
1314.540294245936
 21
661.6448262220449
 31
0
  0
LINE
  8
1
 62
2
 10
1310.873627579269
 20
661.8323262220449
 30
0
 11
1311.206960912602
 21
661.6448262220449
 31
0
  0
LINE
  8
1
 62
2
 10
1310.540294245936
 20
662.5823262220449
 30
0
 11
1310.873627579269
 21
661.8323262220449
 31
0
  0
LINE
  8
1
 62
2
 10
1310.540294245936
 20
664.6448262220449
 30
0
 11
1309.706960912602
 21
664.6448262220449
 31
0
  0
LINE
  8
1
 62
2
 10
1310.540294245936
 20
662.5823262220449
 30
0
 11
1310.540294245936
 21
664.6448262220449
 31
0
  0
LINE
  8
1
 62
2
 10
1309.706960912602
 20
661.8323262220449
 30
0
 11
1310.540294245936
 21
662.5823262220449
 31
0
  0
LINE
  8
1
 62
2
 10
1304.706960912602
 20
664.8323262220449
 30
0
 11
1305.540294245936
 21
664.8323262220449
 31
0
  0
LINE
  8
1
 62
2
 10
1307.373627579269
 20
662.0198262220449
 30
0
 11
1307.040294245936
 21
662.9573262220449
 31
0
  0
LINE
  8
1
 62
2
 10
1308.040294245936
 20
661.2698262220449
 30
0
 11
1307.373627579269
 21
661.2698262220449
 31
0
  0
LINE
  8
1
 62
2
 10
1308.040294245936
 20
664.2698262220449
 30
0
 11
1308.040294245936
 21
661.2698262220449
 31
0
  0
LINE
  8
1
 62
2
 10
1308.373627579269
 20
665.3948262220449
 30
0
 11
1306.040294245936
 21
665.3948262220449
 31
0
  0
LINE
  8
1
 62
2
 10
1305.873627579269
 20
666.3323262220449
 30
0
 11
1308.373627579269
 21
666.3323262220449
 31
0
  0
LINE
  8
1
 62
2
 10
1306.873627579269
 20
664.6448262220449
 30
0
 11
1307.040294245936
 21
666.8948262220449
 31
0
  0
LINE
  8
1
 62
2
 10
1306.373627579269
 20
662.7698262220449
 30
0
 11
1306.873627579269
 21
664.6448262220449
 31
0
  0
LINE
  8
1
 62
2
 10
1305.706960912602
 20
661.6448262220449
 30
0
 11
1306.373627579269
 21
662.7698262220449
 31
0
  0
LINE
  8
1
 62
2
 10
1308.706960912602
 20
663.5198262220449
 30
0
 11
1305.873627579269
 21
663.5198262220449
 31
0
  0
LINE
  8
1
 62
2
 10
1305.706960912602
 20
664.6448262220449
 30
0
 11
1308.706960912602
 21
664.6448262220449
 31
0
  0
LINE
  8
1
 62
2
 10
1304.706960912602
 20
661.8323262220449
 30
0
 11
1304.706960912602
 21
664.8323262220449
 31
0
  0
LINE
  8
1
 62
2
 10
1303.873627579269
 20
663.3323262220449
 30
0
 11
1304.206960912602
 21
662.3948262220449
 31
0
  0
LINE
  8
1
 62
2
 10
1304.040294245936
 20
665.5823262220449
 30
0
 11
1303.373627579269
 21
664.2698262220449
 31
0
  0
LINE
  8
1
 62
2
 10
1304.706960912602
 20
666.8948262220449
 30
0
 11
1304.040294245936
 21
665.5823262220449
 31
0
  0
LINE
  8
1
 62
2
 10
1305.706960912602
 20
665.7698262220449
 30
0
 11
1304.706960912602
 21
666.8948262220449
 31
0
  0
LINE
  8
1
 62
2
 10
1304.040294245936
 20
664.8323262220449
 30
0
 11
1304.706960912602
 21
664.8323262220449
 31
0
  0
LINE
  8
1
 62
2
 10
1305.540294245936
 20
663.8948262220449
 30
0
 11
1303.873627579269
 21
663.8948262220449
 31
0
  0
LINE
  8
1
 62
2
 10
1305.206960912602
 20
662.3948262220449
 30
0
 11
1305.373627579269
 21
663.3323262220449
 31
0
  0
LINE
  8
1
 62
2
 10
1303.706960912602
 20
661.4573262220449
 30
0
 11
1305.540294245936
 21
662.2073262220449
 31
0
  0
LINE
  8
1
 62
2
 10
1328.540294245936
 20
652.1400360519129
 30
0
 11
1327.940294245936
 21
650.9400360519129
 31
0
  0
LINE
  8
1
 62
2
 10
1328.840294245936
 20
653.3400360519129
 30
0
 11
1328.540294245936
 21
652.1400360519129
 31
0
  0
LINE
  8
1
 62
2
 10
1328.840294245936
 20
654.5400360519129
 30
0
 11
1328.840294245936
 21
653.3400360519129
 31
0
  0
LINE
  8
1
 62
2
 10
1328.540294245936
 20
655.7400360519129
 30
0
 11
1328.840294245936
 21
654.5400360519129
 31
0
  0
LINE
  8
1
 62
2
 10
1327.940294245936
 20
656.9400360519129
 30
0
 11
1328.540294245936
 21
655.7400360519129
 31
0
  0
LINE
  8
1
 62
2
 10
1323.106960912603
 20
655.2525360519129
 30
0
 11
1323.940294245936
 21
655.2525360519129
 31
0
  0
LINE
  8
1
 62
2
 10
1323.106960912603
 20
655.2525360519129
 30
0
 11
1323.106960912603
 21
651.1275360519129
 31
0
  0
LINE
  8
1
 62
2
 10
1326.440294245936
 20
654.6900360519129
 30
0
 11
1327.273627579269
 21
654.6900360519129
 31
0
  0
LINE
  8
1
 62
2
 10
1326.273627579269
 20
651.1275360519129
 30
0
 11
1325.773627579269
 21
651.1275360519129
 31
0
  0
LINE
  8
1
 62
2
 10
1326.440294245936
 20
651.5025360519129
 30
0
 11
1326.273627579269
 21
651.1275360519129
 31
0
  0
LINE
  8
1
 62
2
 10
1326.440294245936
 20
654.6900360519129
 30
0
 11
1326.440294245936
 21
651.5025360519129
 31
0
  0
LINE
  8
1
 62
2
 10
1325.273627579269
 20
654.6900360519129
 30
0
 11
1326.440294245936
 21
654.6900360519129
 31
0
  0
LINE
  8
1
 62
2
 10
1325.440294245936
 20
656.1900360519129
 30
0
 11
1326.940294245936
 21
656.1900360519129
 31
0
  0
LINE
  8
1
 62
2
 10
1324.606960912603
 20
654.1275360519129
 30
0
 11
1324.606960912603
 21
651.1275360519129
 31
0
  0
LINE
  8
1
 62
2
 10
1324.273627579269
 20
653.5650360519129
 30
0
 11
1323.773627579269
 21
653.0025360519129
 31
0
  0
LINE
  8
1
 62
2
 10
1324.773627579269
 20
654.5025360519129
 30
0
 11
1324.273627579269
 21
653.5650360519129
 31
0
  0
LINE
  8
1
 62
2
 10
1325.273627579269
 20
655.4400360519129
 30
0
 11
1324.773627579269
 21
654.5025360519129
 31
0
  0
LINE
  8
1
 62
2
 10
1324.940294245936
 20
656.5650360519129
 30
0
 11
1324.106960912603
 21
655.2525360519129
 31
0
  0
LINE
  8
1
 62
2
 10
1323.106960912603
 20
655.2525360519129
 30
0
 11
1323.773627579269
 21
653.7525360519129
 31
0
  0
LINE
  8
1
 62
2
 10
1322.273627579269
 20
653.1900360519129
 30
0
 11
1322.106960912603
 21
652.8150360519129
 31
0
  0
LINE
  8
1
 62
2
 10
1322.606960912603
 20
653.7525360519129
 30
0
 11
1322.273627579269
 21
653.1900360519129
 31
0
  0
LINE
  8
1
 62
2
 10
1323.106960912603
 20
655.2525360519129
 30
0
 11
1322.606960912603
 21
653.7525360519129
 31
0
  0
LINE
  8
1
 62
2
 10
1323.106960912603
 20
656.7525360519129
 30
0
 11
1323.106960912603
 21
655.2525360519129
 31
0
  0
LINE
  8
1
 62
2
 10
1322.273627579269
 20
655.2525360519129
 30
0
 11
1323.106960912603
 21
655.2525360519129
 31
0
  0
LINE
  8
1
 62
2
 10
1316.440294245936
 20
650.9400360519129
 30
0
 11
1320.773627579269
 21
650.9400360519129
 31
0
  0
LINE
  8
1
 62
2
 10
1316.606960912603
 20
652.0650360519129
 30
0
 11
1316.440294245936
 21
650.9400360519129
 31
0
  0
LINE
  8
1
 62
2
 10
1316.773627579269
 20
652.4400360519129
 30
0
 11
1316.606960912603
 21
652.0650360519129
 31
0
  0
LINE
  8
1
 62
2
 10
1317.273627579269
 20
652.8150360519129
 30
0
 11
1316.773627579269
 21
652.4400360519129
 31
0
  0
LINE
  8
1
 62
2
 10
1319.940294245936
 20
653.1900360519129
 30
0
 11
1317.273627579269
 21
652.8150360519129
 31
0
  0
LINE
  8
1
 62
2
 10
1320.606960912603
 20
653.5650360519129
 30
0
 11
1319.940294245936
 21
653.1900360519129
 31
0
  0
LINE
  8
1
 62
2
 10
1320.773627579269
 20
653.9400360519129
 30
0
 11
1320.606960912603
 21
653.5650360519129
 31
0
  0
LINE
  8
1
 62
2
 10
1320.773627579269
 20
654.8775360519129
 30
0
 11
1320.773627579269
 21
653.9400360519129
 31
0
  0
LINE
  8
1
 62
2
 10
1320.606960912603
 20
655.2525360519129
 30
0
 11
1320.773627579269
 21
654.8775360519129
 31
0
  0
LINE
  8
1
 62
2
 10
1319.940294245936
 20
655.6275360519129
 30
0
 11
1320.606960912603
 21
655.2525360519129
 31
0
  0
LINE
  8
1
 62
2
 10
1319.273627579269
 20
655.8150360519129
 30
0
 11
1319.940294245936
 21
655.6275360519129
 31
0
  0
LINE
  8
1
 62
2
 10
1318.106960912603
 20
655.8150360519129
 30
0
 11
1319.273627579269
 21
655.8150360519129
 31
0
  0
LINE
  8
1
 62
2
 10
1317.440294245936
 20
655.6275360519129
 30
0
 11
1318.106960912603
 21
655.8150360519129
 31
0
  0
LINE
  8
1
 62
2
 10
1316.773627579269
 20
655.2525360519129
 30
0
 11
1317.440294245936
 21
655.6275360519129
 31
0
  0
LINE
  8
1
 62
2
 10
1316.606960912603
 20
654.8775360519129
 30
0
 11
1316.773627579269
 21
655.2525360519129
 31
0
  0
LINE
  8
1
 62
2
 10
1312.606960912603
 20
656.1900360519129
 30
0
 11
1310.106960912603
 21
656.1900360519129
 31
0
  0
LINE
  8
1
 62
2
 10
1313.440294245936
 20
654.8775360519129
 30
0
 11
1314.440294245936
 21
653.7525360519129
 31
0
  0
LINE
  8
1
 62
2
 10
1315.106960912603
 20
656.1900360519129
 30
0
 11
1312.606960912603
 21
656.1900360519129
 31
0
  0
LINE
  8
1
 62
2
 10
1312.606960912603
 20
650.9400360519129
 30
0
 11
1312.606960912603
 21
656.1900360519129
 31
0
  0
LINE
  8
1
 62
2
 10
1305.773627579269
 20
655.4400360519129
 30
0
 11
1305.773627579269
 21
653.5650360519129
 31
0
  0
LINE
  8
1
 62
2
 10
1307.940294245936
 20
655.4400360519129
 30
0
 11
1306.940294245936
 21
655.4400360519129
 31
0
  0
LINE
  8
1
 62
2
 10
1307.940294245936
 20
655.4400360519129
 30
0
 11
1307.940294245936
 21
653.5650360519129
 31
0
  0
LINE
  8
1
 62
2
 10
1305.606960912603
 20
652.0650360519129
 30
0
 11
1305.606960912603
 21
651.1275360519129
 31
0
  0
LINE
  8
1
 62
2
 10
1308.273627579269
 20
652.0650360519129
 30
0
 11
1308.273627579269
 21
653.0025360519129
 31
0
  0
LINE
  8
1
 62
2
 10
1305.606960912603
 20
652.0650360519129
 30
0
 11
1308.273627579269
 21
652.0650360519129
 31
0
  0
LINE
  8
1
 62
2
 10
1308.273627579269
 20
651.1275360519129
 30
0
 11
1308.273627579269
 21
652.0650360519129
 31
0
  0
LINE
  8
1
 62
2
 10
1305.606960912603
 20
651.1275360519129
 30
0
 11
1308.273627579269
 21
651.1275360519129
 31
0
  0
LINE
  8
1
 62
2
 10
1305.606960912603
 20
653.0025360519129
 30
0
 11
1305.606960912603
 21
652.0650360519129
 31
0
  0
LINE
  8
1
 62
2
 10
1308.273627579269
 20
653.0025360519129
 30
0
 11
1305.606960912603
 21
653.0025360519129
 31
0
  0
LINE
  8
1
 62
2
 10
1308.440294245936
 20
654.6900360519129
 30
0
 11
1309.273627579269
 21
653.7525360519129
 31
0
  0
LINE
  8
1
 62
2
 10
1307.940294245936
 20
655.4400360519129
 30
0
 11
1308.440294245936
 21
654.6900360519129
 31
0
  0
LINE
  8
1
 62
2
 10
1307.940294245936
 20
656.3775360519129
 30
0
 11
1307.940294245936
 21
655.4400360519129
 31
0
  0
LINE
  8
1
 62
2
 10
1307.106960912603
 20
654.1275360519129
 30
0
 11
1307.940294245936
 21
655.4400360519129
 31
0
  0
LINE
  8
1
 62
2
 10
1306.606960912603
 20
653.7525360519129
 30
0
 11
1307.106960912603
 21
654.1275360519129
 31
0
  0
LINE
  8
1
 62
2
 10
1306.106960912603
 20
654.8775360519129
 30
0
 11
1306.606960912603
 21
654.3150360519129
 31
0
  0
LINE
  8
1
 62
2
 10
1305.273627579269
 20
654.5025360519129
 30
0
 11
1305.773627579269
 21
655.4400360519129
 31
0
  0
LINE
  8
1
 62
2
 10
1304.773627579269
 20
653.9400360519129
 30
0
 11
1305.273627579269
 21
654.5025360519129
 31
0
  0
LINE
  8
1
 62
2
 10
1305.773627579269
 20
656.3775360519129
 30
0
 11
1305.773627579269
 21
655.4400360519129
 31
0
  0
LINE
  8
1
 62
2
 10
1306.606960912603
 20
655.4400360519129
 30
0
 11
1304.940294245936
 21
655.4400360519129
 31
0
  0
LINE
  8
1
 62
2
 10
1308.940294245936
 20
655.4400360519129
 30
0
 11
1307.940294245936
 21
655.4400360519129
 31
0
  0
LINE
  8
1
 62
2
 10
1304.273627579269
 20
656.7525360519129
 30
0
 11
1308.940294245936
 21
656.7525360519129
 31
0
  0
LINE
  8
1
 62
2
 10
1304.273627579269
 20
653.5650360519129
 30
0
 11
1304.273627579269
 21
656.7525360519129
 31
0
  0
LINE
  8
1
 62
2
 10
1304.106960912603
 20
651.8775360519129
 30
0
 11
1304.273627579269
 21
653.5650360519129
 31
0
  0
LINE
  8
1
 62
2
 10
1303.940294245936
 20
651.3150360519129
 30
0
 11
1304.106960912603
 21
651.8775360519129
 31
0
  0
LINE
  8
1
 62
2
 10
1299.940294245936
 20
656.3775360519129
 30
0
 11
1301.106960912603
 21
656.3775360519129
 31
0
  0
LINE
  8
1
 62
2
 10
1301.106960912603
 20
656.3775360519129
 30
0
 11
1303.106960912603
 21
656.3775360519129
 31
0
  0
LINE
  8
1
 62
2
 10
1302.106960912603
 20
653.0025360519129
 30
0
 11
1302.273627579269
 21
653.3775360519129
 31
0
  0
LINE
  8
1
 62
2
 10
1301.273627579269
 20
653.0025360519129
 30
0
 11
1302.106960912603
 21
653.0025360519129
 31
0
  0
LINE
  8
1
 62
2
 10
1301.106960912603
 20
653.3775360519129
 30
0
 11
1301.273627579269
 21
653.0025360519129
 31
0
  0
LINE
  8
1
 62
2
 10
1301.106960912603
 20
656.3775360519129
 30
0
 11
1301.106960912603
 21
653.3775360519129
 31
0
  0
LINE
  8
1
 62
2
 10
1298.106960912603
 20
656.3775360519129
 30
0
 11
1299.940294245936
 21
656.3775360519129
 31
0
  0
LINE
  8
1
 62
2
 10
1299.940294245936
 20
654.3150360519129
 30
0
 11
1299.940294245936
 21
656.3775360519129
 31
0
  0
LINE
  8
1
 62
2
 10
1299.440294245936
 20
653.1900360519129
 30
0
 11
1299.940294245936
 21
654.3150360519129
 31
0
  0
LINE
  8
1
 62
2
 10
1298.940294245936
 20
652.6275360519129
 30
0
 11
1299.440294245936
 21
653.1900360519129
 31
0
  0
LINE
  8
1
 62
2
 10
1302.606960912603
 20
651.3150360519129
 30
0
 11
1298.606960912603
 21
651.3150360519129
 31
0
  0
LINE
  8
1
 62
2
 10
1302.606960912603
 20
654.8775360519129
 30
0
 11
1302.606960912603
 21
651.3150360519129
 31
0
  0
LINE
  8
1
 62
2
 10
1298.606960912603
 20
654.8775360519129
 30
0
 11
1302.606960912603
 21
654.8775360519129
 31
0
  0
LINE
  8
1
 62
2
 10
1298.606960912603
 20
651.3150360519129
 30
0
 11
1298.606960912603
 21
654.8775360519129
 31
0
  0
LINE
  8
1
 62
2
 10
1295.540294245936
 20
652.1400360519129
 30
0
 11
1296.140294245936
 21
650.9400360519129
 31
0
  0
LINE
  8
1
 62
2
 10
1295.240294245936
 20
653.3400360519129
 30
0
 11
1295.540294245936
 21
652.1400360519129
 31
0
  0
LINE
  8
1
 62
2
 10
1295.240294245936
 20
654.5400360519129
 30
0
 11
1295.240294245936
 21
653.3400360519129
 31
0
  0
LINE
  8
1
 62
2
 10
1295.540294245936
 20
655.7400360519129
 30
0
 11
1295.240294245936
 21
654.5400360519129
 31
0
  0
LINE
  8
1
 62
2
 10
1296.140294245936
 20
656.9400360519129
 30
0
 11
1295.540294245936
 21
655.7400360519129
 31
0
  0
LINE
  8
1
 62
2
  6
DASHDOT
 10
1257.332285125536
 20
513.3738230193751
 30
0
 11
1516.328926950071
 21
513.3738230193751
 31
0
  0
LINE
  8
1
 62
2
  6
DASHDOT
 10
1405.927504882229
 20
630.346106553734
 30
0
 11
1405.927504882227
 21
452.2933880282144
 31
0
  0
LINE
  8
1
 62
2
  6
DASHDOT
 10
1345.233737217246
 20
552.3948011336472
 30
0
 11
1345.233737217246
 21
548.5099426380962
 31
0
  0
LINE
  8
1
 62
2
  6
DASHDOT
 10
1347.196477602251
 20
550.3738230193753
 30
0
 11
1343.348268715149
 21
550.3738230193753
 31
0
  0
LINE
  8
1
 62
7
 10
1354.777504882228
 20
570.2738230193743
 30
0
 11
1355.677504882227
 21
569.3738230193753
 31
0
  0
LINE
  8
1
 62
2
 10
1456.177504882227
 20
570.2738230193738
 30
0
 11
1456.177504882227
 21
569.3738230193753
 31
0
  0
LINE
  8
1
 62
7
 10
1465.327236107356
 20
550.788715287141
 30
0
 11
1484.866082310902
 21
545.9892959579886
 31
0
  0
LINE
  8
1
 62
7
 10
1485.946270023541
 20
545.8738230193753
 30
0
 11
1485.820257090151
 21
545.8738230193753
 31
0
  0
LINE
  8
1
 62
7
 10
1489.927504882227
 20
549.4868230193752
 30
0
 11
1489.927504882225
 21
549.4868230193731
 31
0
  0
LINE
  8
1
 62
7
 10
1391.927504882227
 20
509.1916766209188
 30
0
 11
1391.927504882227
 21
511.8463624912652
 31
0
  0
LINE
  8
1
 62
7
 10
1380.927504882227
 20
520.3738230193751
 30
0
 11
1380.927504882228
 21
512.7508948038835
 31
0
  0
LINE
  8
1
 62
7
 10
1391.291395949819
 20
520.3738230193751
 30
0
 11
1380.927504882227
 21
520.3738230193751
 31
0
  0
LINE
  8
1
 62
7
 10
1391.291395949819
 20
520.3738230193751
 30
0
 11
1391.291395949819
 21
518.4547060995897
 31
0
  0
LINE
  8
1
 62
7
 10
1382.685940167825
 20
518.4547060995897
 30
0
 11
1382.685940167825
 21
514.6847225057622
 31
0
  0
LINE
  8
1
 62
7
 10
1391.291395949819
 20
518.4547060995897
 30
0
 11
1382.685940167825
 21
518.4547060995897
 31
0
  0
LINE
  8
1
 62
7
 10
1380.927504882228
 20
509.1916766209188
 30
0
 11
1383.043114703623
 21
509.1916766209188
 31
0
  0
LINE
  8
1
 62
7
 10
1380.927504882228
 20
512.7508948038835
 30
0
 11
1383.453533924053
 21
512.7508948037503
 31
0
  0
LINE
  8
1
 62
7
 10
1390.015181375118
 20
509.5721717095282
 30
0
 11
1390.015181375118
 21
511.5589520140636
 31
0
  0
LINE
  8
1
 62
7
 10
1337.395863501014
 20
547.3738230193753
 30
0
 11
1341.638504188133
 21
551.6164637064946
 31
0
  0
LINE
  8
1
 62
7
 10
1456.177504882227
 20
569.3738230193753
 30
0
 11
1457.077504882226
 21
570.2738230193738
 31
0
  0
LINE
  8
1
 62
2
 10
1355.677504882227
 20
569.3738230193753
 30
0
 11
1355.677504882227
 21
570.2738230193743
 31
0
  0
LINE
  8
1
 62
2
 10
1489.927504882227
 20
549.4868230193752
 30
0
 11
1512.927504882227
 21
549.4868230193752
 31
0
  0
LINE
  8
1
 62
7
 10
1512.927504882227
 20
549.4868230193752
 30
0
 11
1511.448504882227
 21
550.9658230193752
 31
0
  0
LINE
  8
1
 62
7
 10
1511.448504882227
 20
550.9658230193752
 30
0
 11
1491.406504882227
 21
550.9658230193752
 31
0
  0
LINE
  8
1
 62
7
 10
1491.406504882227
 20
550.9658230193752
 30
0
 11
1489.927504882227
 21
549.4868230193752
 31
0
  0
LINE
  8
1
 62
2
 10
1512.927504882227
 20
477.2608230193753
 30
0
 11
1489.927504882227
 21
477.2608230193753
 31
0
  0
LINE
  8
1
 62
7
 10
1511.448504882227
 20
475.7818230193752
 30
0
 11
1512.927504882227
 21
477.2608230193753
 31
0
  0
LINE
  8
1
 62
7
 10
1491.406504882227
 20
475.7818230193752
 30
0
 11
1511.448504882227
 21
475.7818230193752
 31
0
  0
LINE
  8
1
 62
7
 10
1489.927504882227
 20
477.2608230193753
 30
0
 11
1491.406504882227
 21
475.7818230193752
 31
0
  0
LINE
  8
1
 62
7
 10
1512.927504882227
 20
549.4868230193752
 30
0
 11
1512.927504882227
 21
477.2608230193753
 31
0
  0
LINE
  8
1
 62
7
 10
1368.427504882227
 20
458.3738230193753
 30
0
 11
1407.927504882227
 21
458.3738230193753
 31
0
  0
LINE
  8
1
 62
7
 10
1454.927504882227
 20
566.937124433173
 30
0
 11
1454.927504882227
 21
563.8722213765373
 31
0
  0
LINE
  8
1
 62
7
 10
1464.753044256275
 20
480.8738230193753
 30
0
 11
1485.946270023543
 21
480.8738230193753
 31
0
  0
LINE
  8
1
 62
7
 10
1443.427504882227
 20
458.3738230193753
 30
0
 11
1456.18422138475
 21
471.2047912643927
 31
0
  0
LINE
  8
1
 62
7
 10
1407.927504882227
 20
458.3738230193753
 30
0
 11
1407.927504882227
 21
459.3849480178494
 31
0
  0
LINE
  8
1
 62
7
 10
1407.927504882227
 20
458.3738230193753
 30
0
 11
1443.427504882227
 21
458.3738230193753
 31
0
  0
LINE
  8
1
 62
7
 10
1403.927504882227
 20
459.3849480178494
 30
0
 11
1403.927504882227
 21
458.3738230193753
 31
0
  0
LINE
  8
1
 62
7
 10
1356.927504882227
 20
563.8722213765373
 30
0
 11
1356.927504882227
 21
566.937124433173
 31
0
  0
LINE
  8
1
 62
2
 10
1267.927504882227
 20
549.4868230193752
 30
0
 11
1290.927504882227
 21
549.4868230193752
 31
0
  0
LINE
  8
1
 62
7
 10
1269.406504882227
 20
550.9658230193752
 30
0
 11
1267.927504882227
 21
549.4868230193752
 31
0
  0
LINE
  8
1
 62
7
 10
1290.927504882227
 20
549.4868230193752
 30
0
 11
1289.448504882227
 21
550.9658230193752
 31
0
  0
LINE
  8
1
 62
2
 10
1290.927504882227
 20
477.2608230193753
 30
0
 11
1267.927504882227
 21
477.2608230193753
 31
0
  0
LINE
  8
1
 62
7
 10
1267.927504882227
 20
477.2608230193753
 30
0
 11
1269.406504882227
 21
475.7818230193752
 31
0
  0
LINE
  8
1
 62
7
 10
1269.406504882227
 20
475.7818230193752
 30
0
 11
1289.448504882227
 21
475.7818230193752
 31
0
  0
LINE
  8
1
 62
7
 10
1289.448504882227
 20
475.7818230193752
 30
0
 11
1290.927504882227
 21
477.2608230193753
 31
0
  0
LINE
  8
1
 62
7
 10
1267.927504882227
 20
477.2608230193753
 30
0
 11
1267.927504882227
 21
549.4868230193752
 31
0
  0
LINE
  8
1
 62
7
 10
1349.79023608573
 20
553.3738230193753
 30
0
 11
1345.881144875252
 21
553.3738230193753
 31
0
  0
LINE
  8
1
 62
7
 10
1343.810077063387
 20
547.3738230193753
 30
0
 11
1313.398910091883
 21
547.3738230193753
 31
0
  0
LINE
  8
1
 62
7
 10
1290.927504882227
 20
549.4868230193752
 30
0
 11
1290.927504882227
 21
544.6935315852775
 31
0
  0
LINE
  8
1
 62
7
 10
1368.427504882227
 20
458.3738230193753
 30
0
 11
1364.298351100016
 21
462.5270109535795
 31
0
  0
LINE
  8
1
 62
7
 10
1290.927504882227
 20
477.2608230193753
 30
0
 11
1290.927504882227
 21
480.3738230193753
 31
0
  0
LINE
  8
1
 62
7
 10
1294.927504882227
 20
484.3738230193753
 30
0
 11
1295.757294879586
 21
484.3738230193753
 31
0
  0
LINE
  8
1
 62
7
 10
1421.927504882227
 20
528.3738230193751
 30
0
 11
1411.927504882227
 21
531.3738230193749
 31
0
  0
LINE
  8
1
 62
7
 10
1411.927504882227
 20
531.3738230193749
 30
0
 11
1411.927504882227
 21
529.3738230193751
 31
0
  0
LINE
  8
1
 62
7
 10
1411.927504882227
 20
529.3738230193751
 30
0
 11
1389.927504882227
 21
529.3738230193751
 31
0
  0
LINE
  8
1
 62
7
 10
1389.927504882227
 20
529.3738230193751
 30
0
 11
1389.927504882227
 21
527.3738230193749
 31
0
  0
LINE
  8
1
 62
7
 10
1389.927504882227
 20
527.3738230193749
 30
0
 11
1411.927504882227
 21
527.3738230193749
 31
0
  0
LINE
  8
1
 62
7
 10
1411.927504882227
 20
527.3738230193749
 30
0
 11
1411.927504882227
 21
525.3738230193751
 31
0
  0
LINE
  8
1
 62
7
 10
1411.927504882227
 20
525.3738230193751
 30
0
 11
1421.927504882227
 21
528.3738230193751
 31
0
  0
LINE
  8
1
 62
2
  6
DIVIDE
 10
1420.927504882227
 20
505.3738230193751
 30
0
 11
1420.927504882227
 21
515.3738230193751
 31
0
  0
LINE
  8
1
 62
7
 10
1289.448504882227
 20
550.9658230193752
 30
0
 11
1269.406504882227
 21
550.9658230193752
 31
0
  0
LINE
  8
1
 62
2
  6
DASHDOT
 10
1374.830070966905
 20
513.3738230193751
 30
0
 11
1452.337565478423
 21
513.3738230193751
 31
0
  0
LINE
  8
1
 62
2
  6
DIVIDE
 10
1346.927504882227
 20
516.8738230193753
 30
0
 11
1330.927504882227
 21
516.8738230193753
 31
0
  0
LINE
  8
1
 62
2
  6
DIVIDE
 10
1330.927504882227
 20
516.8738230193753
 30
0
 11
1330.927504882227
 21
509.8738230193753
 31
0
  0
LINE
  8
1
 62
2
  6
DIVIDE
 10
1330.927504882227
 20
509.8738230193753
 30
0
 11
1346.927504882227
 21
509.8738230193753
 31
0
  0
LINE
  8
1
 62
2
  6
DIVIDE
 10
1346.927504882227
 20
509.8738230193753
 30
0
 11
1346.927504882227
 21
516.8738230193753
 31
0
  0
LINE
  8
1
 62
7
 10
1489.927504882225
 20
549.486823019354
 30
0
 11
1489.927504882225
 21
477.2608230193998
 31
0
  0
LINE
  8
1
 62
7
 10
1290.927504882227
 20
544.6935315852775
 30
0
 11
1290.927504882227
 21
480.3738230193753
 31
0
  0
LINE
  8
1
 62
7
 10
1399.720004882227
 20
507.2488230193751
 30
0
 11
1401.117817382227
 21
507.2488230193751
 31
0
  0
LINE
  8
1
 62
7
 10
1401.117817382227
 20
507.2488230193751
 30
0
 11
1401.916567382227
 21
507.6238230193751
 31
0
  0
LINE
  8
1
 62
7
 10
1401.916567382227
 20
507.6238230193751
 30
0
 11
1402.715317382227
 21
508.1863230193751
 31
0
  0
LINE
  8
1
 62
7
 10
1402.715317382227
 20
508.1863230193751
 30
0
 11
1403.114692382227
 21
508.7488230193751
 31
0
  0
LINE
  8
1
 62
7
 10
1403.114692382227
 20
508.7488230193751
 30
0
 11
1403.514067382227
 21
509.6863230193751
 31
0
  0
LINE
  8
1
 62
7
 10
1403.514067382227
 20
509.6863230193751
 30
0
 11
1403.713754882228
 21
511.7488230193751
 31
0
  0
LINE
  8
1
 62
7
 10
1403.713754882228
 20
511.7488230193751
 30
0
 11
1403.713754882228
 21
513.9988230193751
 31
0
  0
LINE
  8
1
 62
7
 10
1403.713754882228
 20
513.9988230193751
 30
0
 11
1403.514067382227
 21
516.0613230193751
 31
0
  0
LINE
  8
1
 62
7
 10
1403.514067382227
 20
516.0613230193751
 30
0
 11
1403.114692382227
 21
516.9988230193751
 31
0
  0
LINE
  8
1
 62
7
 10
1403.114692382227
 20
516.9988230193751
 30
0
 11
1402.715317382227
 21
517.5613230193751
 31
0
  0
LINE
  8
1
 62
7
 10
1402.715317382227
 20
517.5613230193751
 30
0
 11
1401.916567382227
 21
518.1238230193751
 31
0
  0
LINE
  8
1
 62
7
 10
1401.916567382227
 20
518.1238230193751
 30
0
 11
1401.117817382227
 21
518.4988230193751
 31
0
  0
LINE
  8
1
 62
7
 10
1401.117817382227
 20
518.4988230193751
 30
0
 11
1399.720004882227
 21
518.4988230193751
 31
0
  0
LINE
  8
1
 62
7
 10
1399.720004882227
 20
518.4988230193751
 30
0
 11
1398.921254882228
 21
518.1238230193751
 31
0
  0
LINE
  8
1
 62
7
 10
1398.921254882228
 20
518.1238230193751
 30
0
 11
1398.122504882227
 21
517.5613230193751
 31
0
  0
LINE
  8
1
 62
7
 10
1398.122504882227
 20
517.5613230193751
 30
0
 11
1397.723129882227
 21
516.9988230193751
 31
0
  0
LINE
  8
1
 62
7
 10
1397.723129882227
 20
516.9988230193751
 30
0
 11
1397.323754882227
 21
516.0613230193751
 31
0
  0
LINE
  8
1
 62
7
 10
1397.323754882227
 20
516.0613230193751
 30
0
 11
1397.124067382227
 21
513.9988230193751
 31
0
  0
LINE
  8
1
 62
7
 10
1397.124067382227
 20
513.9988230193751
 30
0
 11
1397.124067382227
 21
511.7488230193751
 31
0
  0
LINE
  8
1
 62
7
 10
1397.124067382227
 20
511.7488230193751
 30
0
 11
1397.323754882227
 21
509.6863230193751
 31
0
  0
LINE
  8
1
 62
7
 10
1397.323754882227
 20
509.6863230193751
 30
0
 11
1397.723129882227
 21
508.7488230193751
 31
0
  0
LINE
  8
1
 62
7
 10
1397.723129882227
 20
508.7488230193751
 30
0
 11
1398.122504882227
 21
508.1863230193751
 31
0
  0
LINE
  8
1
 62
7
 10
1398.122504882227
 20
508.1863230193751
 30
0
 11
1398.921254882228
 21
507.6238230193751
 31
0
  0
LINE
  8
1
 62
7
 10
1398.921254882228
 20
507.6238230193751
 30
0
 11
1399.720004882227
 21
507.2488230193751
 31
0
  0
LINE
  8
1
 62
7
 10
1403.514067382227
 20
506.3113230193751
 30
0
 11
1404.113129882227
 21
506.8738230193751
 31
0
  0
LINE
  8
1
 62
7
 10
1404.113129882227
 20
506.8738230193751
 30
0
 11
1404.712192382227
 21
507.6238230193751
 31
0
  0
LINE
  8
1
 62
7
 10
1404.712192382227
 20
507.6238230193751
 30
0
 11
1405.111567382227
 21
508.3738230193751
 31
0
  0
LINE
  8
1
 62
7
 10
1405.111567382227
 20
508.3738230193751
 30
0
 11
1405.510942382227
 21
509.3113230193751
 31
0
  0
LINE
  8
1
 62
7
 10
1405.510942382227
 20
509.3113230193751
 30
0
 11
1405.710629882227
 21
510.4363230193751
 31
0
  0
LINE
  8
1
 62
7
 10
1405.710629882227
 20
510.4363230193751
 30
0
 11
1405.910317382227
 21
512.1238230193751
 31
0
  0
LINE
  8
1
 62
7
 10
1405.910317382227
 20
512.1238230193751
 30
0
 11
1405.910317382227
 21
513.6238230193751
 31
0
  0
LINE
  8
1
 62
7
 10
1405.910317382227
 20
513.6238230193751
 30
0
 11
1405.710629882227
 21
515.3113230193751
 31
0
  0
LINE
  8
1
 62
7
 10
1405.710629882227
 20
515.3113230193751
 30
0
 11
1405.510942382227
 21
516.4363230193751
 31
0
  0
LINE
  8
1
 62
7
 10
1405.510942382227
 20
516.4363230193751
 30
0
 11
1405.111567382227
 21
517.3738230193751
 31
0
  0
LINE
  8
1
 62
7
 10
1405.111567382227
 20
517.3738230193751
 30
0
 11
1404.712192382227
 21
518.1238230193751
 31
0
  0
LINE
  8
1
 62
7
 10
1404.712192382227
 20
518.1238230193751
 30
0
 11
1404.113129882227
 21
518.8738230193751
 31
0
  0
LINE
  8
1
 62
7
 10
1404.113129882227
 20
518.8738230193751
 30
0
 11
1403.514067382227
 21
519.4363230193751
 31
0
  0
LINE
  8
1
 62
7
 10
1403.514067382227
 20
519.4363230193751
 30
0
 11
1402.915004882227
 21
519.8113230193751
 31
0
  0
LINE
  8
1
 62
7
 10
1402.915004882227
 20
519.8113230193751
 30
0
 11
1401.916567382227
 21
520.1863230193751
 31
0
  0
LINE
  8
1
 62
7
 10
1401.916567382227
 20
520.1863230193751
 30
0
 11
1401.117817382227
 21
520.3738230193751
 31
0
  0
LINE
  8
1
 62
7
 10
1401.117817382227
 20
520.3738230193751
 30
0
 11
1399.720004882227
 21
520.3738230193751
 31
0
  0
LINE
  8
1
 62
7
 10
1399.720004882227
 20
520.3738230193751
 30
0
 11
1398.921254882228
 21
520.1863230193751
 31
0
  0
LINE
  8
1
 62
7
 10
1398.921254882228
 20
520.1863230193751
 30
0
 11
1397.922817382227
 21
519.8113230193751
 31
0
  0
LINE
  8
1
 62
7
 10
1397.922817382227
 20
519.8113230193751
 30
0
 11
1397.323754882227
 21
519.4363230193751
 31
0
  0
LINE
  8
1
 62
7
 10
1397.323754882227
 20
519.4363230193751
 30
0
 11
1396.724692382227
 21
518.8738230193751
 31
0
  0
LINE
  8
1
 62
7
 10
1396.724692382227
 20
518.8738230193751
 30
0
 11
1396.125629882227
 21
518.1238230193751
 31
0
  0
LINE
  8
1
 62
7
 10
1396.125629882227
 20
518.1238230193751
 30
0
 11
1395.726254882227
 21
517.3738230193751
 31
0
  0
LINE
  8
1
 62
7
 10
1395.726254882227
 20
517.3738230193751
 30
0
 11
1395.326879882227
 21
516.4363230193751
 31
0
  0
LINE
  8
1
 62
7
 10
1395.326879882227
 20
516.4363230193751
 30
0
 11
1395.127192382227
 21
515.3113230193751
 31
0
  0
LINE
  8
1
 62
7
 10
1395.127192382227
 20
515.3113230193751
 30
0
 11
1394.927504882227
 21
513.6238230193751
 31
0
  0
LINE
  8
1
 62
7
 10
1394.927504882227
 20
513.6238230193751
 30
0
 11
1394.927504882227
 21
512.1238230193751
 31
0
  0
LINE
  8
1
 62
7
 10
1394.927504882227
 20
512.1238230193751
 30
0
 11
1395.127192382227
 21
510.4363230193751
 31
0
  0
LINE
  8
1
 62
7
 10
1395.127192382227
 20
510.4363230193751
 30
0
 11
1395.326879882227
 21
509.3113230193751
 31
0
  0
LINE
  8
1
 62
7
 10
1395.326879882227
 20
509.3113230193751
 30
0
 11
1395.726254882227
 21
508.3738230193751
 31
0
  0
LINE
  8
1
 62
7
 10
1395.726254882227
 20
508.3738230193751
 30
0
 11
1396.125629882227
 21
507.6238230193751
 31
0
  0
LINE
  8
1
 62
7
 10
1396.125629882227
 20
507.6238230193751
 30
0
 11
1396.724692382227
 21
506.8738230193751
 31
0
  0
LINE
  8
1
 62
7
 10
1396.724692382227
 20
506.8738230193751
 30
0
 11
1397.323754882227
 21
506.3113230193751
 31
0
  0
LINE
  8
1
 62
7
 10
1397.323754882227
 20
506.3113230193751
 30
0
 11
1397.922817382227
 21
505.9363230193751
 31
0
  0
LINE
  8
1
 62
7
 10
1397.922817382227
 20
505.9363230193751
 30
0
 11
1398.921254882228
 21
505.5613230193751
 31
0
  0
LINE
  8
1
 62
7
 10
1398.921254882228
 20
505.5613230193751
 30
0
 11
1399.720004882227
 21
505.3738230193751
 31
0
  0
LINE
  8
1
 62
7
 10
1399.720004882227
 20
505.3738230193751
 30
0
 11
1401.117817382227
 21
505.3738230193751
 31
0
  0
LINE
  8
1
 62
7
 10
1401.117817382227
 20
505.3738230193751
 30
0
 11
1401.916567382227
 21
505.5613230193751
 31
0
  0
LINE
  8
1
 62
7
 10
1401.916567382227
 20
505.5613230193751
 30
0
 11
1402.915004882227
 21
505.9363230193751
 31
0
  0
LINE
  8
1
 62
7
 10
1402.915004882227
 20
505.9363230193751
 30
0
 11
1403.514067382227
 21
506.3113230193751
 31
0
  0
LINE
  8
1
 62
7
 10
1414.590304882227
 20
514.4488230193751
 30
0
 11
1414.204204882227
 21
513.6238230193751
 31
0
  0
LINE
  8
1
 62
7
 10
1414.204204882227
 20
513.6238230193751
 30
0
 11
1413.689404882227
 21
514.2838230193752
 31
0
  0
LINE
  8
1
 62
7
 10
1413.689404882227
 20
514.2838230193752
 30
0
 11
1412.917204882228
 21
514.943823019375
 31
0
  0
LINE
  8
1
 62
7
 10
1412.917204882228
 20
514.943823019375
 30
0
 11
1412.016304882227
 21
515.2738230193752
 31
0
  0
LINE
  8
1
 62
7
 10
1412.016304882227
 20
515.2738230193752
 30
0
 11
1411.501504882227
 21
515.2738230193752
 31
0
  0
LINE
  8
1
 62
7
 10
1411.501504882227
 20
515.2738230193752
 30
0
 11
1410.729304882227
 21
514.943823019375
 31
0
  0
LINE
  8
1
 62
7
 10
1410.729304882227
 20
514.943823019375
 30
0
 11
1410.343204882227
 21
514.2838230193752
 31
0
  0
LINE
  8
1
 62
7
 10
1410.343204882227
 20
514.2838230193752
 30
0
 11
1410.343204882227
 21
515.108823019375
 31
0
  0
LINE
  8
1
 62
7
 10
1410.343204882227
 20
515.108823019375
 30
0
 11
1408.927504882227
 21
515.108823019375
 31
0
  0
LINE
  8
1
 62
7
 10
1408.927504882227
 20
515.108823019375
 30
0
 11
1408.927504882227
 21
505.3738230193751
 31
0
  0
LINE
  8
1
 62
7
 10
1408.927504882227
 20
505.3738230193751
 30
0
 11
1410.343204882227
 21
505.3738230193751
 31
0
  0
LINE
  8
1
 62
7
 10
1410.343204882227
 20
505.3738230193751
 30
0
 11
1410.343204882227
 21
512.1388230193752
 31
0
  0
LINE
  8
1
 62
7
 10
1410.343204882227
 20
512.1388230193752
 30
0
 11
1410.600604882227
 21
512.963823019375
 31
0
  0
LINE
  8
1
 62
7
 10
1410.600604882227
 20
512.963823019375
 30
0
 11
1411.115404882227
 21
513.4588230193751
 31
0
  0
LINE
  8
1
 62
7
 10
1411.115404882227
 20
513.4588230193751
 30
0
 11
1411.630204882227
 21
513.6238230193751
 31
0
  0
LINE
  8
1
 62
7
 10
1411.630204882227
 20
513.6238230193751
 30
0
 11
1412.273704882227
 21
513.4588230193751
 31
0
  0
LINE
  8
1
 62
7
 10
1412.273704882227
 20
513.4588230193751
 30
0
 11
1412.659804882227
 21
512.963823019375
 31
0
  0
LINE
  8
1
 62
7
 10
1412.659804882227
 20
512.963823019375
 30
0
 11
1413.045904882227
 21
512.1388230193752
 31
0
  0
LINE
  8
1
 62
7
 10
1413.045904882227
 20
512.1388230193752
 30
0
 11
1413.174604882227
 21
511.4788230193751
 31
0
  0
LINE
  8
1
 62
7
 10
1413.174604882227
 20
511.4788230193751
 30
0
 11
1413.174604882227
 21
505.3738230193751
 31
0
  0
LINE
  8
1
 62
7
 10
1413.174604882227
 20
505.3738230193751
 30
0
 11
1414.590304882227
 21
505.3738230193751
 31
0
  0
LINE
  8
1
 62
7
 10
1414.590304882227
 20
505.3738230193751
 30
0
 11
1414.590304882227
 21
512.1388230193752
 31
0
  0
LINE
  8
1
 62
7
 10
1414.590304882227
 20
512.1388230193752
 30
0
 11
1414.847704882227
 21
512.963823019375
 31
0
  0
LINE
  8
1
 62
7
 10
1414.847704882227
 20
512.963823019375
 30
0
 11
1415.362504882227
 21
513.4588230193751
 31
0
  0
LINE
  8
1
 62
7
 10
1415.362504882227
 20
513.4588230193751
 30
0
 11
1415.877304882228
 21
513.6238230193751
 31
0
  0
LINE
  8
1
 62
7
 10
1415.877304882228
 20
513.6238230193751
 30
0
 11
1416.520804882227
 21
513.4588230193751
 31
0
  0
LINE
  8
1
 62
7
 10
1416.520804882227
 20
513.4588230193751
 30
0
 11
1416.906904882227
 21
512.963823019375
 31
0
  0
LINE
  8
1
 62
7
 10
1416.906904882227
 20
512.963823019375
 30
0
 11
1417.293004882228
 21
512.1388230193752
 31
0
  0
LINE
  8
1
 62
7
 10
1417.293004882228
 20
512.1388230193752
 30
0
 11
1417.421704882228
 21
511.4788230193751
 31
0
  0
LINE
  8
1
 62
7
 10
1417.421704882228
 20
511.4788230193751
 30
0
 11
1417.421704882228
 21
505.3738230193751
 31
0
  0
LINE
  8
1
 62
7
 10
1417.421704882228
 20
505.3738230193751
 30
0
 11
1418.837404882228
 21
505.3738230193751
 31
0
  0
LINE
  8
1
 62
7
 10
1418.837404882228
 20
505.3738230193751
 30
0
 11
1418.837404882228
 21
511.3138230193752
 31
0
  0
LINE
  8
1
 62
7
 10
1418.837404882228
 20
511.3138230193752
 30
0
 11
1418.708704882227
 21
512.6338230193751
 31
0
  0
LINE
  8
1
 62
7
 10
1418.708704882227
 20
512.6338230193751
 30
0
 11
1418.322604882227
 21
513.6238230193751
 31
0
  0
LINE
  8
1
 62
7
 10
1418.322604882227
 20
513.6238230193751
 30
0
 11
1417.936504882227
 21
514.2838230193752
 31
0
  0
LINE
  8
1
 62
7
 10
1417.936504882227
 20
514.2838230193752
 30
0
 11
1417.164304882227
 21
514.943823019375
 31
0
  0
LINE
  8
1
 62
7
 10
1417.164304882227
 20
514.943823019375
 30
0
 11
1416.263404882227
 21
515.2738230193752
 31
0
  0
LINE
  8
1
 62
7
 10
1416.263404882227
 20
515.2738230193752
 30
0
 11
1415.748604882227
 21
515.2738230193752
 31
0
  0
LINE
  8
1
 62
7
 10
1415.748604882227
 20
515.2738230193752
 30
0
 11
1415.105104882227
 21
514.943823019375
 31
0
  0
LINE
  8
1
 62
7
 10
1415.105104882227
 20
514.943823019375
 30
0
 11
1414.590304882227
 21
514.4488230193751
 31
0
  0
LINE
  8
1
 62
7
 10
1426.590304882227
 20
514.4488230193751
 30
0
 11
1426.204204882227
 21
513.6238230193751
 31
0
  0
LINE
  8
1
 62
7
 10
1426.204204882227
 20
513.6238230193751
 30
0
 11
1425.689404882227
 21
514.2838230193752
 31
0
  0
LINE
  8
1
 62
7
 10
1425.689404882227
 20
514.2838230193752
 30
0
 11
1424.917204882228
 21
514.943823019375
 31
0
  0
LINE
  8
1
 62
7
 10
1424.917204882228
 20
514.943823019375
 30
0
 11
1424.016304882227
 21
515.2738230193752
 31
0
  0
LINE
  8
1
 62
7
 10
1424.016304882227
 20
515.2738230193752
 30
0
 11
1423.501504882227
 21
515.2738230193752
 31
0
  0
LINE
  8
1
 62
7
 10
1423.501504882227
 20
515.2738230193752
 30
0
 11
1422.729304882227
 21
514.943823019375
 31
0
  0
LINE
  8
1
 62
7
 10
1422.729304882227
 20
514.943823019375
 30
0
 11
1422.343204882227
 21
514.2838230193752
 31
0
  0
LINE
  8
1
 62
7
 10
1422.343204882227
 20
514.2838230193752
 30
0
 11
1422.343204882227
 21
515.108823019375
 31
0
  0
LINE
  8
1
 62
7
 10
1422.343204882227
 20
515.108823019375
 30
0
 11
1420.927504882227
 21
515.108823019375
 31
0
  0
LINE
  8
1
 62
7
 10
1420.927504882227
 20
515.108823019375
 30
0
 11
1420.927504882227
 21
505.3738230193751
 31
0
  0
LINE
  8
1
 62
7
 10
1420.927504882227
 20
505.3738230193751
 30
0
 11
1422.343204882227
 21
505.3738230193751
 31
0
  0
LINE
  8
1
 62
7
 10
1422.343204882227
 20
505.3738230193751
 30
0
 11
1422.343204882227
 21
512.1388230193752
 31
0
  0
LINE
  8
1
 62
7
 10
1422.343204882227
 20
512.1388230193752
 30
0
 11
1422.600604882227
 21
512.963823019375
 31
0
  0
LINE
  8
1
 62
7
 10
1422.600604882227
 20
512.963823019375
 30
0
 11
1423.115404882227
 21
513.4588230193751
 31
0
  0
LINE
  8
1
 62
7
 10
1423.115404882227
 20
513.4588230193751
 30
0
 11
1423.630204882227
 21
513.6238230193751
 31
0
  0
LINE
  8
1
 62
7
 10
1423.630204882227
 20
513.6238230193751
 30
0
 11
1424.273704882227
 21
513.4588230193751
 31
0
  0
LINE
  8
1
 62
7
 10
1424.273704882227
 20
513.4588230193751
 30
0
 11
1424.659804882227
 21
512.963823019375
 31
0
  0
LINE
  8
1
 62
7
 10
1424.659804882227
 20
512.963823019375
 30
0
 11
1425.045904882227
 21
512.1388230193752
 31
0
  0
LINE
  8
1
 62
7
 10
1425.045904882227
 20
512.1388230193752
 30
0
 11
1425.174604882227
 21
511.4788230193751
 31
0
  0
LINE
  8
1
 62
7
 10
1425.174604882227
 20
511.4788230193751
 30
0
 11
1425.174604882227
 21
505.3738230193751
 31
0
  0
LINE
  8
1
 62
7
 10
1425.174604882227
 20
505.3738230193751
 30
0
 11
1426.590304882227
 21
505.3738230193751
 31
0
  0
LINE
  8
1
 62
7
 10
1426.590304882227
 20
505.3738230193751
 30
0
 11
1426.590304882227
 21
512.1388230193752
 31
0
  0
LINE
  8
1
 62
7
 10
1426.590304882227
 20
512.1388230193752
 30
0
 11
1426.847704882227
 21
512.963823019375
 31
0
  0
LINE
  8
1
 62
7
 10
1426.847704882227
 20
512.963823019375
 30
0
 11
1427.362504882227
 21
513.4588230193751
 31
0
  0
LINE
  8
1
 62
7
 10
1427.362504882227
 20
513.4588230193751
 30
0
 11
1427.877304882228
 21
513.6238230193751
 31
0
  0
LINE
  8
1
 62
7
 10
1427.877304882228
 20
513.6238230193751
 30
0
 11
1428.520804882227
 21
513.4588230193751
 31
0
  0
LINE
  8
1
 62
7
 10
1428.520804882227
 20
513.4588230193751
 30
0
 11
1428.906904882227
 21
512.963823019375
 31
0
  0
LINE
  8
1
 62
7
 10
1428.906904882227
 20
512.963823019375
 30
0
 11
1429.293004882228
 21
512.1388230193752
 31
0
  0
LINE
  8
1
 62
7
 10
1429.293004882228
 20
512.1388230193752
 30
0
 11
1429.421704882228
 21
511.4788230193751
 31
0
  0
LINE
  8
1
 62
7
 10
1429.421704882228
 20
511.4788230193751
 30
0
 11
1429.421704882228
 21
505.3738230193751
 31
0
  0
LINE
  8
1
 62
7
 10
1429.421704882228
 20
505.3738230193751
 30
0
 11
1430.837404882228
 21
505.3738230193751
 31
0
  0
LINE
  8
1
 62
7
 10
1430.837404882228
 20
505.3738230193751
 30
0
 11
1430.837404882228
 21
511.3138230193752
 31
0
  0
LINE
  8
1
 62
7
 10
1430.837404882228
 20
511.3138230193752
 30
0
 11
1430.708704882227
 21
512.6338230193751
 31
0
  0
LINE
  8
1
 62
7
 10
1430.708704882227
 20
512.6338230193751
 30
0
 11
1430.322604882227
 21
513.6238230193751
 31
0
  0
LINE
  8
1
 62
7
 10
1430.322604882227
 20
513.6238230193751
 30
0
 11
1429.936504882227
 21
514.2838230193752
 31
0
  0
LINE
  8
1
 62
7
 10
1429.936504882227
 20
514.2838230193752
 30
0
 11
1429.164304882227
 21
514.943823019375
 31
0
  0
LINE
  8
1
 62
7
 10
1429.164304882227
 20
514.943823019375
 30
0
 11
1428.263404882227
 21
515.2738230193752
 31
0
  0
LINE
  8
1
 62
7
 10
1428.263404882227
 20
515.2738230193752
 30
0
 11
1427.748604882227
 21
515.2738230193752
 31
0
  0
LINE
  8
1
 62
7
 10
1427.748604882227
 20
515.2738230193752
 30
0
 11
1427.105104882227
 21
514.943823019375
 31
0
  0
LINE
  8
1
 62
7
 10
1427.105104882227
 20
514.943823019375
 30
0
 11
1426.590304882227
 21
514.4488230193751
 31
0
  0
LINE
  8
1
 62
7
 10
1456.177504882227
 20
569.3738230193753
 30
0
 11
1355.677504882227
 21
569.3738230193753
 31
0
  0
LINE
  8
1
 62
7
 10
1341.927504882227
 20
727.2377041888988
 30
0
 11
1338.395863501014
 21
727.2377041888988
 31
0
  0
LINE
  8
1
 62
7
 10
1340.802157643867
 20
689.0404340940934
 30
0
 11
1340.927504882227
 21
689.8305531166686
 31
0
  0
LINE
  8
1
 62
7
 10
1336.802157643867
 20
689.6750080495551
 30
0
 11
1340.802157643867
 21
689.0404340940934
 31
0
  0
LINE
  8
1
 62
7
 10
1336.927504882227
 20
690.4651270721306
 30
0
 11
1336.802157643867
 21
689.6750080495551
 31
0
  0
LINE
  8
1
 62
7
 10
1334.802157643867
 20
689.9922950272862
 30
0
 11
1334.927504882227
 21
690.7824140498615
 31
0
  0
LINE
  8
1
 62
7
 10
1330.802157643867
 20
690.626868982748
 30
0
 11
1334.802157643867
 21
689.9922950272862
 31
0
  0
LINE
  8
1
 62
7
 10
1330.927504882227
 20
691.4169880053232
 30
0
 11
1330.802157643867
 21
690.626868982748
 31
0
  0
LINE
  8
1
 62
5
 10
1449.733897109846
 20
769.7377041888988
 30
0
 11
1452.68492573179
 21
769.1136312410667
 31
0
  0
LINE
  8
1
 62
5
 10
1363.574819016984
 20
686.2377041888988
 30
0
 11
1360.511667882483
 21
686.7236531717983
 31
0
  0
LINE
  8
1
 62
7
 10
1360.511667882483
 20
686.7236531717983
 30
0
 11
1307.348486601213
 21
695.1576457294461
 31
0
  0
LINE
  8
1
 62
5
 10
1360.511667882483
 20
770.7517552059994
 30
0
 11
1363.574819016984
 21
771.2377041888988
 31
0
  0
LINE
  8
1
 62
7
 10
1307.348486601213
 20
762.3177626483516
 30
0
 11
1360.511667882483
 21
770.7517552059994
 31
0
  0
LINE
  8
1
 62
7
 10
1290.927504882227
 20
764.8507041888988
 30
0
 11
1290.927504882227
 21
692.6247041888989
 31
0
  0
LINE
  8
1
 62
7
 10
1338.395863501014
 20
730.2377041888988
 30
0
 11
1341.927504882227
 21
730.2377041888988
 31
0
  0
LINE
  8
1
 62
7
 10
1485.309254187616
 20
695.2610530973495
 30
0
 11
1452.68492573179
 21
688.3617771367308
 31
0
  0
LINE
  8
1
 62
7
 10
1452.68492573179
 20
769.1136312410667
 30
0
 11
1485.309254187616
 21
762.214355280448
 31
0
  0
LINE
  8
1
 62
2
 10
1267.927504882227
 20
764.8507041888988
 30
0
 11
1290.927504882227
 21
764.8507041888988
 31
0
  0
LINE
  8
1
 62
7
 10
1269.406504882227
 20
766.3297041888989
 30
0
 11
1267.927504882227
 21
764.8507041888988
 31
0
  0
LINE
  8
1
 62
7
 10
1289.448504882227
 20
766.3297041888989
 30
0
 11
1269.406504882227
 21
766.3297041888989
 31
0
  0
LINE
  8
1
 62
7
 10
1290.927504882227
 20
764.8507041888988
 30
0
 11
1289.448504882227
 21
766.3297041888989
 31
0
  0
LINE
  8
1
 62
2
 10
1290.927504882227
 20
692.6247041888989
 30
0
 11
1267.927504882227
 21
692.6247041888989
 31
0
  0
LINE
  8
1
 62
7
 10
1267.927504882227
 20
692.6247041888989
 30
0
 11
1269.406504882227
 21
691.1457041888987
 31
0
  0
LINE
  8
1
 62
7
 10
1269.406504882227
 20
691.1457041888987
 30
0
 11
1289.448504882227
 21
691.1457041888987
 31
0
  0
LINE
  8
1
 62
7
 10
1289.448504882227
 20
691.1457041888987
 30
0
 11
1290.927504882227
 21
692.6247041888989
 31
0
  0
LINE
  8
1
 62
7
 10
1267.927504882227
 20
692.6247041888989
 30
0
 11
1267.927504882227
 21
764.8507041888988
 31
0
  0
LINE
  8
1
 62
2
 10
1489.927504882227
 20
764.8507041888988
 30
0
 11
1512.927504882227
 21
764.8507041888988
 31
0
  0
LINE
  8
1
 62
7
 10
1512.927504882227
 20
764.8507041888988
 30
0
 11
1511.448504882227
 21
766.3297041888989
 31
0
  0
LINE
  8
1
 62
7
 10
1511.448504882227
 20
766.3297041888989
 30
0
 11
1491.406504882227
 21
766.3297041888989
 31
0
  0
LINE
  8
1
 62
7
 10
1491.406504882227
 20
766.3297041888989
 30
0
 11
1489.927504882218
 21
764.8507041888897
 31
0
  0
LINE
  8
1
 62
2
 10
1512.927504882227
 20
692.6247041888989
 30
0
 11
1489.927504882227
 21
692.6247041888989
 31
0
  0
LINE
  8
1
 62
7
 10
1511.448504882227
 20
691.1457041888987
 30
0
 11
1512.927504882227
 21
692.6247041888989
 31
0
  0
LINE
  8
1
 62
7
 10
1491.406504882227
 20
691.1457041888987
 30
0
 11
1511.448504882227
 21
691.1457041888987
 31
0
  0
LINE
  8
1
 62
7
 10
1489.927504882227
 20
692.6247041888989
 30
0
 11
1491.406504882227
 21
691.1457041888987
 31
0
  0
LINE
  8
1
 62
7
 10
1512.927504882227
 20
764.8507041888988
 30
0
 11
1512.927504882227
 21
692.6247041888989
 31
0
  0
LINE
  8
1
 62
7
 10
1342.901789960311
 20
689.5173456438658
 30
0
 11
1342.776442721951
 21
688.7272266212906
 31
0
  0
LINE
  8
1
 62
7
 10
1342.776442721951
 20
688.7272266212906
 30
0
 11
1346.776442721951
 21
688.0926526658288
 31
0
  0
LINE
  8
1
 62
7
 10
1346.776442721951
 20
688.0926526658288
 30
0
 11
1346.901789960311
 21
688.8827716884041
 31
0
  0
LINE
  8
1
 62
7
 10
1489.927504882218
 20
764.8507041888897
 30
0
 11
1489.927504882227
 21
692.6247041888989
 31
0
  0
LINE
  8
1
 62
2
  6
DASHDOT
 10
1405.927504882227
 20
659.5842729053394
 30
0
 11
1405.927504882227
 21
799.4183107125233
 31
0
  0
LINE
  8
1
 62
2
  6
DASHDOT
 10
1524.186383447152
 20
728.7377041888974
 30
0
 11
1263.42668401426
 21
728.7377041888974
 31
0
  0
LINE
  8
1
 62
7
 10
1410.927504882227
 20
673.0600605605972
 30
0
 11
1410.927504882227
 21
671.5516044792652
 31
0
  0
LINE
  8
1
 62
7
 10
1410.927504882227
 20
671.5516044792652
 30
0
 11
1410.927504882227
 21
665.7377041888973
 31
0
  0
LINE
  8
1
 62
7
 10
1400.927504882227
 20
673.0600605605972
 30
0
 11
1400.927504882227
 21
665.7377041888973
 31
0
  0
LINE
  8
1
 62
7
 10
1409.927504882227
 20
664.7377041888973
 30
0
 11
1401.927504882227
 21
664.7377041888973
 31
0
  0
LINE
  8
1
 62
7
 10
1410.927504882227
 20
791.7377041888977
 30
0
 11
1410.927504882227
 21
784.4153478171978
 31
0
  0
LINE
  8
1
 62
7
 10
1400.927504882227
 20
791.7377041888977
 30
0
 11
1400.927504882227
 21
784.4153478171978
 31
0
  0
LINE
  8
1
 62
7
 10
1401.927504882227
 20
792.7377041888977
 30
0
 11
1409.927504882227
 21
792.7377041888977
 31
0
  0
LINE
  8
1
 62
7
 10
1463.11360459186
 20
723.7377041888974
 30
0
 11
1461.605148510528
 21
723.7377041888974
 31
0
  0
LINE
  8
1
 62
7
 10
1468.927504882228
 20
723.7377041888974
 30
0
 11
1463.11360459186
 21
723.7377041888974
 31
0
  0
LINE
  8
1
 62
7
 10
1468.927504882228
 20
733.7377041888974
 30
0
 11
1461.605148510528
 21
733.7377041888974
 31
0
  0
LINE
  8
1
 62
7
 10
1469.927504882228
 20
732.7377041888974
 30
0
 11
1469.927504882228
 21
724.7377041888974
 31
0
  0
LINE
  8
1
 62
7
 10
1352.075856810882
 20
732.7377041888974
 30
0
 11
1342.927504882227
 21
732.7377041888974
 31
0
  0
LINE
  8
1
 62
7
 10
1341.927504882227
 20
731.7377041888974
 30
0
 11
1341.927504882227
 21
725.7377041888974
 31
0
  0
LINE
  8
1
 62
7
 10
1342.927504882227
 20
724.7377041888974
 30
0
 11
1352.075856810882
 21
724.7377041888974
 31
0
  0
LINE
  8
1
 62
2
  6
DASHDOT
 10
1383.927497882228
 20
617.4238010193753
 30
0
 11
1383.927497882228
 21
611.9238010193753
 31
0
  0
LINE
  8
1
 62
2
  6
DASHDOT
 10
1386.677497882228
 20
614.6738010193753
 30
0
 11
1381.177497882228
 21
614.6738010193753
 31
0
  0
LINE
  8
1
 62
7
 10
1393.627517882228
 20
612.1736790193748
 30
0
 11
1393.627517882228
 21
614.6738010193753
 31
0
  0
LINE
  8
1
 62
7
 10
1394.927380416993
 20
610.1738034846073
 30
0
 11
1392.927504882226
 21
612.1736790193748
 31
0
  0
LINE
  8
1
 62
7
 10
1394.927380416993
 20
610.1738034846073
 30
0
 11
1436.462293882227
 21
610.1738090193747
 31
0
  0
LINE
  8
1
 62
7
 10
1387.427516888941
 20
622.106916639176
 30
0
 11
1387.427516888941
 21
614.6738010193753
 31
0
  0
LINE
  8
1
 62
7
 10
1387.427516888941
 20
614.6738010193753
 30
0
 11
1393.627517882228
 21
614.6738010193753
 31
0
  0
LINE
  8
1
 62
7
 10
1395.627517882228
 20
610.1736790193748
 30
0
 11
1393.627517882228
 21
612.1736790193748
 31
0
  0
LINE
  8
1
 62
7
 10
1392.927504882226
 20
612.1736790193748
 30
0
 11
1375.427489882228
 21
612.1738010193753
 31
0
  0
LINE
  8
0
 62
7
 10
1436.462293882227
 20
610.1738090193747
 30
0
 11
1436.617659838119
 21
601.2738230193738
 31
0
  0
LINE
  8
0
 62
7
 10
1436.427381882227
 20
610.1737400193746
 30
0
 11
1436.427381882227
 21
617.5321390193747
 31
0
  0
LINE
  8
0
 62
7
 10
1439.927378882228
 20
619.6736790193747
 30
0
 11
1437.515272882228
 21
618.9845310193747
 31
0
  0
LINE
  8
0
 62
7
 10
1439.927378882228
 20
621.6737400193746
 30
0
 11
1439.927378882228
 21
619.6737400193746
 31
0
  0
LINE
  8
0
 62
7
 10
1424.031259882228
 20
622.1737400193746
 30
0
 11
1439.927378882228
 21
621.6737400193746
 31
0
  0
LINE
  8
0
 62
7
 10
1417.927381882227
 20
623.0172460193749
 30
0
 11
1417.927381882227
 21
624.1737400193746
 31
0
  0
LINE
  8
0
 62
7
 10
1411.927381882227
 20
623.5099830193745
 30
0
 11
1411.927381882227
 21
624.1737400193746
 31
0
  0
LINE
  8
0
 62
7
 10
1417.927381882227
 20
624.1737400193746
 30
0
 11
1411.927381882227
 21
624.1737400193746
 31
0
  0
LINE
  8
0
 62
7
 10
1375.427374882229
 20
612.1737480193746
 30
0
 11
1375.237115573498
 21
601.2738230193738
 31
0
  0
LINE
  8
0
 62
7
 10
1378.427374882229
 20
621.6738010193745
 30
0
 11
1385.046360680755
 21
621.6738010193745
 31
0
  0
LINE
  8
0
 62
7
 10
1378.427374882229
 20
621.6738010193745
 30
0
 11
1378.427374882229
 21
620.0629000193736
 31
0
  0
LINE
  8
1
 62
7
 10
1349.927504882229
 20
571.2738230193738
 30
0
 11
1461.927504882229
 21
571.2738230193738
 31
0
  0
LINE
  8
1
 62
7
 10
1350.92750488223
 20
570.2738230193743
 30
0
 11
1460.927504882229
 21
570.2738230193738
 31
0
  0
LINE
  8
1
 62
7
 10
1461.927504882229
 20
590.2738230193738
 30
0
 11
1461.927504882229
 21
571.2738230193738
 31
0
  0
LINE
  8
1
 62
7
 10
1468.927504882229
 20
572.2738230193738
 30
0
 11
1461.927504882229
 21
572.2738230193738
 31
0
  0
LINE
  8
1
 62
7
 10
1469.927504882229
 20
590.2738230193738
 30
0
 11
1469.927504882229
 21
573.2738230193738
 31
0
  0
LINE
  8
1
 62
7
 10
1459.927504882229
 20
599.7738230193738
 30
0
 11
1459.927504882229
 21
592.2738230193738
 31
0
  0
LINE
  8
1
 62
7
 10
1455.927504882229
 20
599.7738230193747
 30
0
 11
1459.927504882229
 21
599.7738230193738
 31
0
  0
LINE
  8
1
 62
7
 10
1455.927504882229
 20
601.2738230193738
 30
0
 11
1455.927504882229
 21
599.7738230193747
 31
0
  0
LINE
  8
1
 62
7
 10
1355.927504882229
 20
601.2738230193738
 30
0
 11
1455.927504882229
 21
601.2738230193738
 31
0
  0
LINE
  8
1
 62
7
 10
1460.927504882229
 20
570.2738230193738
 30
0
 11
1461.927504882229
 21
571.2738230193738
 31
0
  0
LINE
  8
1
 62
7
 10
1349.927504882229
 20
572.2738230193738
 30
0
 11
1342.927504882229
 21
572.2738230193738
 31
0
  0
LINE
  8
1
 62
7
 10
1341.927504882229
 20
573.2738230193738
 30
0
 11
1341.927504882229
 21
595.2738230193738
 31
0
  0
LINE
  8
1
 62
7
 10
1351.927504882229
 20
592.2738230193738
 30
0
 11
1351.927504882229
 21
599.7738230193738
 31
0
  0
LINE
  8
1
 62
7
 10
1355.927504882229
 20
599.7738230193747
 30
0
 11
1355.927504882229
 21
601.2738230193738
 31
0
  0
LINE
  8
1
 62
7
 10
1349.927504882229
 20
571.2738230193738
 30
0
 11
1350.927504882229
 21
570.2738230193738
 31
0
  0
LINE
  8
1
 62
7
 10
1349.927504882229
 20
590.2738230193738
 30
0
 11
1349.927504882229
 21
571.2738230193738
 31
0
  0
LINE
  8
1
 62
7
 10
1345.427504882229
 20
598.7738230193738
 30
0
 11
1351.927504882229
 21
598.7738230193738
 31
0
  0
LINE
  8
1
 62
7
 10
1351.927504882229
 20
599.7738230193738
 30
0
 11
1455.927504882229
 21
599.7738230193747
 31
0
  0
LINE
  8
1
 62
7
 10
1350.927504882229
 20
591.2738230193738
 30
0
 11
1468.927504882229
 21
591.2738230193738
 31
0
  0
LINE
  8
1
 62
7
 10
1400.927504882229
 20
590.2738230193737
 30
0
 11
1400.927504882229
 21
573.2738230193737
 31
0
  0
LINE
  8
1
 62
7
 10
1410.927504882229
 20
573.2738230193737
 30
0
 11
1410.927504882229
 21
590.2738230193737
 31
0
  0
LINE
  8
1
 62
7
 10
1401.927504882229
 20
572.2738230193739
 30
0
 11
1409.927504882229
 21
572.2738230193739
 31
0
  0
LINE
  8
1
 62
2
  6
DASHDOT
 10
1383.927531882223
 20
688.6912918089314
 30
0
 11
1383.927531882223
 21
718.8228037181943
 31
0
  0
LINE
  8
0
 62
7
 10
1398.927522882224
 20
711.637704188897
 30
0
 11
1396.927504882223
 21
710.4377041888972
 31
0
  0
LINE
  8
0
 62
7
 10
1392.927470882223
 20
708.137704188897
 30
0
 11
1394.927487882223
 21
707.0377041888976
 31
0
  0
LINE
  8
0
 62
7
 10
1398.927522882224
 20
704.7377041888974
 30
0
 11
1398.927522882224
 21
707.0377041888976
 31
0
  0
LINE
  8
0
 62
7
 10
1394.927487882223
 20
704.7377041888974
 30
0
 11
1396.927504882223
 21
705.8377041888969
 31
0
  0
LINE
  8
0
 62
7
 10
1400.927539882223
 20
708.137704188897
 30
0
 11
1398.927522882224
 21
709.3377041888969
 31
0
  0
LINE
  8
0
 62
7
 10
1394.927487882223
 20
711.637704188897
 30
0
 11
1394.927487882223
 21
709.3377041888969
 31
0
  0
LINE
  8
0
 62
7
 10
1396.927504882223
 20
705.8377041888969
 30
0
 11
1398.927522882224
 21
704.7377041888974
 31
0
  0
LINE
  8
0
 62
7
 10
1398.927522882224
 20
707.0377041888976
 30
0
 11
1400.927539882223
 21
708.137704188897
 31
0
  0
LINE
  8
0
 62
7
 10
1398.927522882224
 20
709.3377041888969
 30
0
 11
1398.927522882224
 21
711.637704188897
 31
0
  0
LINE
  8
0
 62
7
 10
1396.927504882223
 20
710.4377041888972
 30
0
 11
1394.927487882223
 21
711.637704188897
 31
0
  0
LINE
  8
0
 62
7
 10
1394.927487882223
 20
709.3377041888969
 30
0
 11
1392.927470882223
 21
708.137704188897
 31
0
  0
LINE
  8
0
 62
7
 10
1409.927504882223
 20
747.9377041888972
 30
0
 11
1409.927504882223
 21
709.5377041888976
 31
0
  0
LINE
  8
0
 62
7
 10
1401.927504882223
 20
747.9377041888972
 30
0
 11
1401.927504882223
 21
709.5377041888976
 31
0
  0
LINE
  8
0
 62
7
 10
1394.927487882223
 20
707.0377041888976
 30
0
 11
1394.927487882223
 21
704.7377041888974
 31
0
  0
LINE
  8
0
 62
7
 10
1395.460809882223
 20
705.637704188897
 30
0
 11
1395.460809882223
 21
707.3377041888969
 31
0
  0
LINE
  8
0
 62
7
 10
1393.994197882224
 20
708.137704188897
 30
0
 11
1395.460809882223
 21
709.0377041888976
 31
0
  0
LINE
  8
0
 62
7
 10
1395.460809882223
 20
707.3377041888969
 30
0
 11
1393.994197882224
 21
708.137704188897
 31
0
  0
LINE
  8
0
 62
7
 10
1398.394200882221
 20
705.637704188897
 30
0
 11
1396.927504882223
 21
706.4377041888972
 31
0
  0
LINE
  8
0
 62
7
 10
1399.860812882223
 20
708.137704188897
 30
0
 11
1398.394200882221
 21
707.3377041888969
 31
0
  0
LINE
  8
0
 62
7
 10
1398.394200882221
 20
710.7377041888974
 30
0
 11
1398.394200882221
 21
709.0377041888976
 31
0
  0
LINE
  8
0
 62
7
 10
1402.727492882224
 20
708.7377041888974
 30
0
 11
1409.127517882223
 21
708.7377041888974
 31
0
  0
LINE
  8
0
 62
7
 10
1411.927504882223
 20
727.9377041888972
 30
0
 11
1411.927504882223
 21
719.5377041888976
 31
0
  0
LINE
  8
0
 62
7
 10
1417.927504882223
 20
727.9377041888972
 30
0
 11
1417.927504882223
 21
719.5377041888976
 31
0
  0
LINE
  8
0
 62
7
 10
1417.127517882223
 20
718.7377041888974
 30
0
 11
1412.727492882224
 21
718.7377041888974
 31
0
  0
LINE
  8
0
 62
7
 10
1417.127517882223
 20
728.7377041888974
 30
0
 11
1412.727492882224
 21
728.7377041888974
 31
0
  0
LINE
  8
0
 62
7
 10
1396.927504882223
 20
709.8377041888969
 30
0
 11
1395.460809882223
 21
710.7377041888974
 31
0
  0
LINE
  8
0
 62
7
 10
1396.927504882223
 20
706.4377041888972
 30
0
 11
1395.460809882223
 21
705.637704188897
 31
0
  0
LINE
  8
0
 62
7
 10
1398.394200882221
 20
707.3377041888969
 30
0
 11
1398.394200882221
 21
705.637704188897
 31
0
  0
LINE
  8
0
 62
7
 10
1398.394200882221
 20
709.0377041888976
 30
0
 11
1399.860812882223
 21
708.137704188897
 31
0
  0
LINE
  8
0
 62
7
 10
1393.627517882223
 20
746.8377041888969
 30
0
 11
1393.627517882223
 21
713.137704188897
 31
0
  0
LINE
  8
0
 62
7
 10
1396.927504882223
 20
709.8377041888969
 30
0
 11
1398.394200882221
 21
710.7377041888974
 31
0
  0
LINE
  8
0
 62
7
 10
1395.460809882223
 20
709.0377041888976
 30
0
 11
1395.460809882223
 21
710.7377041888974
 31
0
  0
LINE
  8
0
 62
7
 10
1396.634200882223
 20
709.637704188897
 30
0
 11
1396.634200882223
 21
708.4377041888972
 31
0
  0
LINE
  8
0
 62
7
 10
1387.427504882223
 20
713.137704188897
 30
0
 11
1396.627517882223
 21
713.137704188897
 31
0
  0
LINE
  8
0
 62
7
 10
1396.627517882223
 20
746.8377041888969
 30
0
 11
1396.627517882223
 21
713.137704188897
 31
0
  0
LINE
  8
0
 62
7
 10
1387.427504882223
 20
713.137704188897
 30
0
 11
1387.427504882223
 21
704.9377041888972
 31
0
  0
LINE
  8
0
 62
7
 10
1397.220809882223
 20
706.7377041888974
 30
0
 11
1397.220809882223
 21
707.8377041888969
 31
0
  0
LINE
  8
0
 62
7
 10
1439.927501882223
 20
724.7377041888974
 30
0
 11
1439.927501882223
 21
732.8377041888969
 31
0
  0
LINE
  8
0
 62
7
 10
1395.460809882223
 20
707.8377041888969
 30
0
 11
1396.634200882223
 21
707.8377041888969
 31
0
  0
LINE
  8
0
 62
7
 10
1398.394200882221
 20
708.4377041888972
 30
0
 11
1397.220809882223
 21
708.4377041888972
 31
0
  0
LINE
  8
0
 62
7
 10
1395.460809882223
 20
707.8377041888969
 30
0
 11
1395.460809882223
 21
708.4377041888972
 31
0
  0
LINE
  8
0
 62
7
 10
1439.014293882223
 20
723.7377041888974
 30
0
 11
1422.712901882223
 21
722.2377041888974
 31
0
  0
LINE
  8
0
 62
7
 10
1439.014293882223
 20
733.8377041888969
 30
0
 11
1422.712901882223
 21
735.2377041888974
 31
0
  0
LINE
  8
0
 62
7
 10
1398.394200882221
 20
707.8377041888969
 30
0
 11
1398.394200882221
 21
708.4377041888972
 31
0
  0
LINE
  8
0
 62
7
 10
1397.220809882223
 20
709.637704188897
 30
0
 11
1396.634198882222
 21
709.637704188897
 31
0
  0
LINE
  8
0
 62
7
 10
1397.220809882223
 20
706.7377041888974
 30
0
 11
1396.634198882222
 21
706.7377041888974
 31
0
  0
LINE
  8
0
 62
7
 10
1396.634200882223
 20
708.4377041888972
 30
0
 11
1395.460810882223
 21
708.4377041888972
 31
0
  0
LINE
  8
0
 62
7
 10
1396.634200882223
 20
707.8377041888969
 30
0
 11
1396.634200882223
 21
706.7377041888974
 31
0
  0
LINE
  8
0
 62
7
 10
1397.220809882223
 20
707.8377041888969
 30
0
 11
1398.394198882224
 21
707.8377041888969
 31
0
  0
LINE
  8
0
 62
7
 10
1397.220809882223
 20
708.4377041888972
 30
0
 11
1397.220809882223
 21
709.637704188897
 31
0
  0
LINE
  8
0
 62
7
 10
1393.627517882223
 20
701.2377041888974
 30
0
 11
1393.627504448165
 21
700.8278538610609
 31
0
  0
LINE
  8
0
 62
7
 10
1397.427516882222
 20
724.5377041888976
 30
0
 11
1397.427516882222
 21
732.9377041888972
 31
0
  0
LINE
  8
0
 62
7
 10
1401.427516882222
 20
732.9377041888972
 30
0
 11
1401.427516882222
 21
724.5377041888976
 31
0
  0
LINE
  8
0
 62
7
 10
1417.927504882223
 20
730.2377041888974
 30
0
 11
1417.927504882223
 21
730.7377041888974
 31
0
  0
LINE
  8
0
 62
7
 10
1414.427504882223
 20
729.2377041888974
 30
0
 11
1414.427504882223
 21
729.7377041888974
 31
0
  0
LINE
  8
0
 62
7
 10
1414.427504882223
 20
729.2377041888974
 30
0
 11
1413.927504882223
 21
729.2377041888974
 31
0
  0
LINE
  8
0
 62
7
 10
1417.927504882223
 20
731.7377041888974
 30
0
 11
1417.927504882223
 21
732.2377041888974
 31
0
  0
LINE
  8
0
 62
7
 10
1417.927504882223
 20
733.2377041888974
 30
0
 11
1417.927504882223
 21
733.7377041888974
 31
0
  0
LINE
  8
0
 62
7
 10
1417.927504882223
 20
730.2377041888974
 30
0
 11
1414.927504882223
 21
730.2377041888974
 31
0
  0
LINE
  8
0
 62
7
 10
1417.927504882223
 20
730.7377041888974
 30
0
 11
1414.927504882223
 21
730.7377041888974
 31
0
  0
LINE
  8
0
 62
7
 10
1417.927504882223
 20
731.7377041888974
 30
0
 11
1414.927504882223
 21
731.7377041888974
 31
0
  0
LINE
  8
0
 62
7
 10
1417.927504882223
 20
733.2377041888974
 30
0
 11
1414.927504882223
 21
733.2377041888974
 31
0
  0
LINE
  8
0
 62
7
 10
1417.927504882223
 20
732.2377041888974
 30
0
 11
1414.927504882223
 21
732.2377041888974
 31
0
  0
LINE
  8
0
 62
7
 10
1417.927504882223
 20
733.7377041888974
 30
0
 11
1414.802504882223
 21
733.7377041888974
 31
0
  0
LINE
  8
0
 62
7
 10
1413.927504882223
 20
729.2377041888974
 30
0
 11
1413.927504882223
 21
729.7377041888974
 31
0
  0
LINE
  8
0
 62
7
 10
1417.927504882223
 20
735.2377041888974
 30
0
 11
1417.927504882223
 21
735.7377041888974
 31
0
  0
LINE
  8
0
 62
7
 10
1378.432021882223
 20
716.2377041888974
 30
0
 11
1390.427504882223
 21
716.2377041888974
 31
0
  0
LINE
  8
0
 62
7
 10
1414.427504882223
 20
734.2377041888974
 30
0
 11
1414.427504882223
 21
734.7377041888974
 31
0
  0
LINE
  8
0
 62
7
 10
1414.427504882223
 20
734.2377041888974
 30
0
 11
1413.927504882223
 21
734.2377041888974
 31
0
  0
LINE
  8
0
 62
7
 10
1417.927504882223
 20
736.7377041888974
 30
0
 11
1417.927504882223
 21
737.2377041888974
 31
0
  0
LINE
  8
0
 62
7
 10
1417.927504882223
 20
738.2377041888974
 30
0
 11
1417.927504882223
 21
738.7377041888974
 31
0
  0
LINE
  8
0
 62
7
 10
1417.927504882223
 20
735.2377041888974
 30
0
 11
1414.927504882223
 21
735.2377041888974
 31
0
  0
LINE
  8
0
 62
7
 10
1417.927504882223
 20
735.7377041888974
 30
0
 11
1414.927504882223
 21
735.7377041888974
 31
0
  0
LINE
  8
0
 62
7
 10
1417.927504882223
 20
736.7377041888974
 30
0
 11
1414.927504882223
 21
736.7377041888974
 31
0
  0
LINE
  8
0
 62
7
 10
1417.927504882223
 20
738.2377041888974
 30
0
 11
1414.927504882223
 21
738.2377041888974
 31
0
  0
LINE
  8
0
 62
7
 10
1417.927504882223
 20
737.2377041888974
 30
0
 11
1414.927504882223
 21
737.2377041888974
 31
0
  0
LINE
  8
0
 62
7
 10
1417.927504882223
 20
738.7377041888974
 30
0
 11
1414.802504882223
 21
738.7377041888974
 31
0
  0
LINE
  8
0
 62
7
 10
1413.927504882223
 20
734.2377041888974
 30
0
 11
1413.927504882223
 21
734.7377041888974
 31
0
  0
LINE
  8
0
 62
7
 10
1379.664382882223
 20
743.7377041888974
 30
0
 11
1390.277358882223
 21
743.7377041888974
 31
0
  0
LINE
  8
0
 62
7
 10
1393.427504882223
 20
713.2377041888974
 30
0
 11
1393.427504882223
 21
746.7377041888974
 31
0
  0
LINE
  8
0
 62
7
 10
1387.427504882223
 20
716.2377041888974
 30
0
 11
1387.427504882223
 21
713.2377041888974
 31
0
  0
LINE
  8
0
 62
7
 10
1387.427504882223
 20
746.7377041888974
 30
0
 11
1387.427504882223
 21
743.7377041888974
 31
0
  0
LINE
  8
0
 62
7
 10
1387.427504882223
 20
713.2377041888974
 30
0
 11
1393.427504882223
 21
713.2377041888974
 31
0
  0
LINE
  8
0
 62
7
 10
1387.427504882223
 20
746.7377041888974
 30
0
 11
1393.427504882223
 21
746.7377041888974
 31
0
  0
LINE
  8
0
 62
7
 10
1383.877517882223
 20
731.3377041888969
 30
0
 11
1382.427504882223
 21
730.4377041888972
 31
0
  0
LINE
  8
0
 62
7
 10
1379.527480882222
 20
728.7377041888974
 30
0
 11
1380.977492882224
 21
727.9377041888972
 31
0
  0
LINE
  8
0
 62
7
 10
1383.877517882223
 20
726.2377041888974
 30
0
 11
1383.877517882223
 21
727.9377041888972
 31
0
  0
LINE
  8
0
 62
7
 10
1380.977492882224
 20
726.2377041888974
 30
0
 11
1382.427504882223
 21
727.137704188897
 31
0
  0
LINE
  8
0
 62
7
 10
1385.327529882223
 20
728.7377041888974
 30
0
 11
1383.877517882223
 21
729.637704188897
 31
0
  0
LINE
  8
0
 62
7
 10
1380.977492882224
 20
731.3377041888969
 30
0
 11
1380.977492882224
 21
729.637704188897
 31
0
  0
LINE
  8
0
 62
7
 10
1382.427504882223
 20
727.137704188897
 30
0
 11
1383.877517882223
 21
726.2377041888974
 31
0
  0
LINE
  8
0
 62
7
 10
1383.877517882223
 20
727.9377041888972
 30
0
 11
1385.327529882223
 21
728.7377041888974
 31
0
  0
LINE
  8
0
 62
7
 10
1383.877517882223
 20
729.637704188897
 30
0
 11
1383.877517882223
 21
731.3377041888969
 31
0
  0
LINE
  8
0
 62
7
 10
1382.427504882223
 20
730.4377041888972
 30
0
 11
1380.977492882224
 21
731.3377041888969
 31
0
  0
LINE
  8
0
 62
7
 10
1380.977492882224
 20
729.637704188897
 30
0
 11
1379.527480882222
 21
728.7377041888974
 31
0
  0
LINE
  8
0
 62
7
 10
1380.977492882224
 20
727.9377041888972
 30
0
 11
1380.977492882224
 21
726.2377041888974
 31
0
  0
LINE
  8
0
 62
7
 10
1381.364150882223
 20
726.9377041888972
 30
0
 11
1381.364150882223
 21
728.137704188897
 31
0
  0
LINE
  8
0
 62
7
 10
1380.300856882223
 20
728.7377041888974
 30
0
 11
1381.364150882223
 21
729.4377041888972
 31
0
  0
LINE
  8
0
 62
7
 10
1381.364150882223
 20
728.137704188897
 30
0
 11
1380.300856882223
 21
728.7377041888974
 31
0
  0
LINE
  8
0
 62
7
 10
1383.490859882223
 20
726.9377041888972
 30
0
 11
1382.427504882223
 21
727.5377041888976
 31
0
  0
LINE
  8
0
 62
7
 10
1384.554152882223
 20
728.7377041888974
 30
0
 11
1383.490859882223
 21
728.137704188897
 31
0
  0
LINE
  8
0
 62
7
 10
1383.490859882223
 20
730.637704188897
 30
0
 11
1383.490859882223
 21
729.4377041888972
 31
0
  0
LINE
  8
0
 62
7
 10
1382.427504882223
 20
730.0377041888976
 30
0
 11
1381.364150882223
 21
730.637704188897
 31
0
  0
LINE
  8
0
 62
7
 10
1382.427504882223
 20
727.5377041888976
 30
0
 11
1381.364150882223
 21
726.9377041888972
 31
0
  0
LINE
  8
0
 62
7
 10
1383.490859882223
 20
728.137704188897
 30
0
 11
1383.490859882223
 21
726.9377041888972
 31
0
  0
LINE
  8
0
 62
7
 10
1383.490859882223
 20
729.4377041888972
 30
0
 11
1384.554152882223
 21
728.7377041888974
 31
0
  0
LINE
  8
0
 62
7
 10
1382.427504882223
 20
730.0377041888976
 30
0
 11
1383.490859882223
 21
730.637704188897
 31
0
  0
LINE
  8
0
 62
7
 10
1381.364150882223
 20
729.4377041888972
 30
0
 11
1381.364150882223
 21
730.637704188897
 31
0
  0
LINE
  8
0
 62
7
 10
1382.214858882223
 20
729.8377041888969
 30
0
 11
1382.214858882223
 21
729.0377041888976
 31
0
  0
LINE
  8
0
 62
7
 10
1382.640151882223
 20
727.7377041888974
 30
0
 11
1382.640151882223
 21
728.5377041888976
 31
0
  0
LINE
  8
0
 62
7
 10
1381.364150882223
 20
728.5377041888976
 30
0
 11
1382.214858882223
 21
728.5377041888976
 31
0
  0
LINE
  8
0
 62
7
 10
1383.490859882223
 20
729.0377041888976
 30
0
 11
1382.640151882223
 21
729.0377041888976
 31
0
  0
LINE
  8
0
 62
7
 10
1381.364150882223
 20
728.5377041888976
 30
0
 11
1381.364150882223
 21
729.0377041888976
 31
0
  0
LINE
  8
0
 62
7
 10
1383.490859882223
 20
728.5377041888976
 30
0
 11
1383.490859882223
 21
729.0377041888976
 31
0
  0
LINE
  8
0
 62
7
 10
1382.640151882223
 20
729.8377041888969
 30
0
 11
1382.214858882223
 21
729.8377041888969
 31
0
  0
LINE
  8
0
 62
7
 10
1382.640151882223
 20
727.7377041888974
 30
0
 11
1382.214858882223
 21
727.7377041888974
 31
0
  0
LINE
  8
0
 62
7
 10
1382.214858882223
 20
729.0377041888976
 30
0
 11
1381.364150882223
 21
729.0377041888976
 31
0
  0
LINE
  8
0
 62
7
 10
1382.214858882223
 20
728.5377041888976
 30
0
 11
1382.214858882223
 21
727.7377041888974
 31
0
  0
LINE
  8
0
 62
7
 10
1382.640151882223
 20
728.5377041888976
 30
0
 11
1383.490859882223
 21
728.5377041888976
 31
0
  0
LINE
  8
0
 62
7
 10
1382.640151882223
 20
729.0377041888976
 30
0
 11
1382.640151882223
 21
729.8377041888969
 31
0
  0
LINE
  8
0
 62
7
 10
1381.377532882223
 20
692.5377041888976
 30
0
 11
1381.377532882223
 21
716.2377041888974
 31
0
  0
LINE
  8
0
 62
7
 10
1386.477530882223
 20
692.7377041888974
 30
0
 11
1386.477530882223
 21
716.2377041888974
 31
0
  0
LINE
  8
0
 62
7
 10
1387.427518882223
 20
746.8377041888969
 30
0
 11
1387.427526882223
 21
752.637704188897
 31
0
  0
LINE
  8
0
 62
7
 10
1393.627541882223
 20
756.3377041888969
 30
0
 11
1393.627541968081
 21
756.6476093000163
 31
0
  0
LINE
  8
0
 62
7
 10
1387.427504882223
 20
746.8377041888969
 30
0
 11
1396.627517882223
 21
746.8377041888969
 31
0
  0
LINE
  8
0
 62
7
 10
1402.727492882224
 20
748.7377041888974
 30
0
 11
1409.127517882223
 21
748.7377041888974
 31
0
  0
LINE
  8
208
 62
7
 10
1398.227517882223
 20
723.7377041888974
 30
0
 11
1400.627517882223
 21
723.7377041888974
 31
0
  0
LINE
  8
208
 62
7
 10
1398.227517882223
 20
733.7377041888974
 30
0
 11
1400.627517882223
 21
733.7377041888974
 31
0
  0
ARC
  8
1
 62
7
 10
1432.427504882227
 20
537.7570916621362
 30
0
 40
33.49999999999972
 50
27.68464443758719
 51
37.62851151545023
  0
ARC
  8
1
 62
7
 10
1466.519954581416
 20
555.6443741138744
 30
0
 40
5.00000000000024
 50
207.6846444375831
 51
256.1993960144943
  0
ARC
  8
1
 62
7
 10
1432.427504882227
 20
537.7570916621362
 30
0
 40
33.50000000000011
 50
37.62851151545023
 51
45.6827972387912
  0
ARC
  8
1
 62
7
 10
1485.946270023541
 20
549.8738230193753
 30
0
 40
4
 50
270
 51
354.447948527857
  0
ARC
  8
1
 62
7
 10
1386.427504882227
 20
511.2443998928925
 30
0
 40
3.9582533663642
 50
211.2379332298839
 51
335.0096139989942
  0
ARC
  8
1
 62
7
 10
1386.427504882227
 20
511.2443998928925
 30
0
 40
5.870576873808037
 50
200.4667014813466
 51
339.5332985186572
  0
ARC
  8
1
 62
7
 10
1386.399561309548
 20
510.3118688862576
 30
0
 40
5.736970521671746
 50
15.5140429275392
 51
130.3393912275954
  0
ARC
  8
1
 62
7
 10
1386.399561309548
 20
510.3118688862576
 30
0
 40
3.824647014589649
 50
19.03010382039214
 51
140.3785291182788
  0
ARC
  8
1
 62
7
 10
1457.927504882227
 20
563.8722213765373
 30
0
 40
3
 50
180
 51
225.6827972387915
  0
ARC
  8
1
 62
7
 10
1457.927504882227
 20
566.937124433173
 30
0
 40
3.000000000000034
 50
125.6853347126516
 51
180
  0
ARC
  8
1
 62
7
 10
1485.946270023543
 20
476.8738230193753
 30
0
 40
3.999999999999896
 50
5.552051472143413
 51
90
  0
ARC
  8
1
 62
7
 10
1405.927504882227
 20
863.8738230193753
 30
0
 40
403.5000000000002
 50
270.4249416918847
 51
274.1071331215388
  0
ARC
  8
1
 62
7
 10
1464.753044256275
 20
477.8738230193753
 30
0
 40
3
 50
90
 51
152.3292992775374
  0
ARC
  8
1
 62
7
 10
1408.927504882227
 20
459.3849480178494
 30
0
 40
0.9999999999998773
 50
90.42494169188301
 51
180
  0
ARC
  8
1
 62
7
 10
1402.927504882227
 20
459.3849480178494
 30
0
 40
1
 50
0
 51
89.57505830810395
  0
ARC
  8
1
 62
7
 10
1405.927504882227
 20
863.8738230193753
 30
0
 40
403.5000000000002
 50
269.5750583081153
 51
270.4249416918847
  0
ARC
  8
1
 62
7
 10
1353.927504882227
 20
566.937124433173
 30
0
 40
3
 50
0
 51
54.31466528734842
  0
ARC
  8
1
 62
7
 10
1353.927504882227
 20
563.8722213765373
 30
0
 40
3.000000000000119
 50
314.3172027612117
 51
0
  0
ARC
  8
1
 62
7
 10
1379.427504882227
 20
537.7570916621362
 30
0
 40
33.49999999999985
 50
152.2139609620404
 51
157.6876635037721
  0
ARC
  8
1
 62
7
 10
1294.557466410466
 20
546.3738230193753
 30
0
 40
3.999999999999879
 50
204.839187437507
 51
299.7243291471071
  0
ARC
  8
1
 62
7
 10
1294.927504882227
 20
480.3738230193753
 30
0
 40
4
 50
90
 51
180
  0
ARC
  8
1
 62
7
 10
1343.810077063387
 20
552.3738230193753
 30
0
 40
5
 50
270
 51
337.6876635037726
  0
ARC
  8
1
 62
7
 10
1313.398910091883
 20
513.3738230193753
 30
0
 40
34
 50
90
 51
119.7243291471072
  0
ARC
  8
1
 62
7
 10
1375.091553766054
 20
615.7828233463501
 30
0
 40
153.5
 50
238.8797743342072
 51
262.9148773759707
  0
ARC
  8
1
 62
7
 10
1379.427504882227
 20
537.7570916621362
 30
0
 40
33.49999999999979
 50
134.3172027612085
 51
152.2139609620404
  0
ARC
  8
1
 62
7
 10
1405.927504882227
 20
863.8738230193753
 30
0
 40
403.5000000000001
 50
262.9148773759707
 51
269.5750583081153
  0
ARC
  8
1
 62
7
 10
1432.427504882227
 20
494.8240296310034
 30
0
 40
33.50000000000008
 50
274.1071331215385
 51
332.3292992775335
  0
ARC
  8
1
 62
7
 10
1405.927504882227
 20
728.7377041888974
 30
0
 40
59.99999999999882
 50
183.8225537292747
 51
189.594068226862
  0
ARC
  8
1
 62
7
 10
1405.927504882227
 20
728.7377041888974
 30
0
 40
60.00000000000005
 50
170.4059317731382
 51
176.1774462707256
  0
ARC
  8
1
 62
7
 10
1405.927504882227
 20
728.7377041888974
 30
0
 40
60.00000000000028
 50
347.9753008194356
 51
355.2198081528009
  0
ARC
  8
1
 62
7
 10
1405.927504882227
 20
728.7377041888974
 30
0
 40
60.00000000000019
 50
4.780191847199144
 51
12.02469918056698
  0
ARC
  8
1
 62
7
 10
1405.927504882227
 20
728.7377041888988
 30
0
 40
59.99999999999997
 50
274.7801918471992
 51
314.2283997073014
  0
ARC
  8
1
 62
7
 10
1405.927504882227
 20
728.7377041888988
 30
0
 40
60.00000000000013
 50
43.10467381989587
 51
45.77160029269865
  0
ARC
  8
1
 62
7
 10
1405.927504882227
 20
728.7377041888988
 30
0
 40
59.99999999999951
 50
225.0994720393115
 51
227.8417112329996
  0
ARC
  8
1
 62
7
 10
1312.675744231526
 20
728.7377041888988
 30
0
 40
34.00000000000006
 50
238.5330237067381
 51
260.9855214108232
  0
ARC
  8
1
 62
7
 10
1294.927504882227
 20
695.7377041888969
 30
0
 40
4
 50
90
 51
180
  0
ARC
  8
1
 62
7
 10
1405.927504882227
 20
728.7377041888988
 30
0
 40
60.00000000000021
 50
132.1582887670002
 51
134.9005279606885
  0
ARC
  8
1
 62
7
 10
1405.927504882227
 20
728.7377041888988
 30
0
 40
60.00000000000019
 50
94.78019184719913
 51
132.1582887670002
  0
ARC
  8
1
 62
7
 10
1294.927504882227
 20
761.7377041889006
 30
0
 40
4
 50
180
 51
270
  0
ARC
  8
1
 62
7
 10
1312.675744231526
 20
728.7377041888988
 30
0
 40
34.00000000000002
 50
99.01447858917676
 51
121.4669762932619
  0
ARC
  8
1
 62
7
 10
1405.927504882227
 20
728.7377041888988
 30
0
 40
60.00000000000056
 50
12.02469918056571
 51
43.10467381989587
  0
ARC
  8
1
 62
7
 10
1486.136856127456
 20
691.3476051253979
 30
0
 40
3.999999999999707
 50
18.61907147691926
 51
101.940774302466
  0
ARC
  8
1
 62
7
 10
1486.136856127456
 20
766.1278032523999
 30
0
 40
4.000000000000144
 50
258.0592256975347
 51
341.3809285230807
  0
ARC
  8
1
 62
7
 10
1405.927504882227
 20
728.7377041888988
 30
0
 40
59.99999999999984
 50
314.2283997073014
 51
347.9753008194343
  0
ARC
  8
1
 62
7
 10
1405.927504882227
 20
728.7377041888988
 30
0
 40
59.99999999999951
 50
134.9005279606885
 51
170.4059317731395
  0
ARC
  8
1
 62
7
 10
1405.927504882227
 20
728.7377041888988
 30
0
 40
59.99999999999983
 50
189.5940682268605
 51
265.2198081528009
  0
ARC
  8
1
 62
7
 10
1405.927504882227
 20
728.7377041888988
 30
0
 40
59.99999999999984
 50
45.77160029269865
 51
85.21980815280087
  0
ARC
  8
1
 62
7
 10
1405.927504882227
 20
728.7377041888974
 30
0
 40
55.99999999999999
 50
275.1225160997809
 51
354.8774839002192
  0
ARC
  8
1
 62
7
 10
1411.927504882227
 20
673.0600605605972
 30
0
 40
0.9999999999999802
 50
96.15063982789062
 51
180
  0
ARC
  8
1
 62
7
 10
1399.927504882227
 20
673.0600605605972
 30
0
 40
1
 50
0
 51
83.84936017204461
  0
ARC
  8
1
 62
7
 10
1405.927504882227
 20
728.7377041888974
 30
0
 40
56.00000000000021
 50
95.12251609978088
 51
175.9039562418476
  0
ARC
  8
1
 62
7
 10
1411.927504882227
 20
784.4153478171978
 30
0
 40
1
 50
180
 51
263.8493601721094
  0
ARC
  8
1
 62
7
 10
1399.927504882227
 20
784.4153478171978
 30
0
 40
1.000000000000102
 50
276.1506398279553
 51
0
  0
ARC
  8
1
 62
7
 10
1405.927504882227
 20
728.7377041888974
 30
0
 40
55.99999999999908
 50
184.0960437581524
 51
264.8774839002192
  0
ARC
  8
1
 62
7
 10
1461.605148510528
 20
722.7377041888974
 30
0
 40
1
 50
90
 51
173.8493601720583
  0
ARC
  8
1
 62
7
 10
1461.605148510528
 20
734.7377041888974
 30
0
 40
1.000000000000191
 50
186.1506398279418
 51
270
  0
ARC
  8
1
 62
7
 10
1405.927504882227
 20
728.7377041888974
 30
0
 40
56.00000000000079
 50
5.122516099780834
 51
84.87748390021912
  0
CIRCLE
  8
1
 62
7
 10
1405.927504882227
 20
728.7377041888974
 30
0
 40
50
  0
ARC
  8
1
 62
7
 10
1405.927504882227
 20
728.7377041888974
 30
0
 40
39.99999999999988
 50
240.9056411098891
 51
0
  0
ARC
  8
1
 62
7
 10
1405.927504882227
 20
728.7377041888974
 30
0
 40
41.99999999999967
 50
239.5311268817479
 51
0
  0
ARC
  8
1
 62
7
 10
1405.927504882227
 20
728.7377041888974
 30
0
 40
40
 50
0
 51
232.1389016891441
  0
ARC
  8
1
 62
7
 10
1405.927504882227
 20
728.7377041888974
 30
0
 40
42
 50
0
 51
234.2306906183194
  0
ARC
  8
0
 62
7
 10
1405.927381882227
 20
513.6737480193748
 30
0
 40
110.0000149999995
 50
80.52712999999949
 51
99.23883099999925
  0
ARC
  8
0
 62
7
 10
1430.826063882227
 20
615.6788670193748
 30
0
 40
4.999964000000489
 50
12.46798700000323
 51
76.28309599999697
  0
ARC
  8
0
 62
7
 10
1405.927381882227
 20
513.6737480193748
 30
0
 40
110.0000000000002
 50
76.28277599999927
 51
80.52712999999928
  0
ARC
  8
0
 62
7
 10
1405.927381882227
 20
610.1737400193746
 30
0
 40
30.5
 50
0
 51
12.46765099999944
  0
ARC
  8
0
 62
7
 10
1437.927381882227
 20
617.5422700193747
 30
0
 40
1.500041999999865
 50
105.9460299999378
 51
180
  0
ARC
  8
0
 62
7
 10
1388.242254882229
 20
617.1738010193745
 30
0
 40
5.000023000000056
 50
90
 51
99.69665500002287
  0
ARC
  8
0
 62
7
 10
1380.656927882227
 20
615.5876190193737
 30
0
 40
5.000025000000573
 50
116.481627999986
 51
172.3064959999871
  0
ARC
  8
0
 62
7
 10
1405.927366882228
 20
513.6739310193747
 30
0
 40
109.9999469999999
 50
99.6965329999999
 51
100.9427128347983
  0
ARC
  8
0
 62
7
 10
1405.927366882228
 20
612.1738620193747
 30
0
 40
30.50000000000014
 50
172.3065409999998
 51
180
  0
ARC
  8
0
 62
7
 10
1417.127517882223
 20
727.9377041888972
 30
0
 40
0.7999879999999848
 50
0
 51
90
  0
ARC
  8
0
 62
7
 10
1412.727492882224
 20
727.9377041888972
 30
0
 40
0.8000179999999091
 50
90
 51
180
  0
ARC
  8
0
 62
7
 10
1412.727492882224
 20
719.5377041888976
 30
0
 40
0.7999880000008943
 50
180
 51
270
  0
ARC
  8
0
 62
7
 10
1417.127517882223
 20
719.5377041888976
 30
0
 40
0.7999880000006669
 50
270
 51
0
  0
ARC
  8
0
 62
7
 10
1402.727492882224
 20
709.5377041888976
 30
0
 40
0.7999880000008943
 50
180
 51
270
  0
ARC
  8
0
 62
7
 10
1409.127517882223
 20
709.5377041888976
 30
0
 40
0.7999880000006669
 50
270
 51
0
  0
ARC
  8
0
 62
7
 10
1405.927504882223
 20
728.7377041888974
 30
0
 40
30.49999600000077
 50
246.2166899999983
 51
349.9048769999999
  0
ARC
  8
0
 62
7
 10
1405.927504882223
 20
728.7377041888974
 30
0
 40
30.50003099999965
 50
10.09505500000096
 51
113.783204
  0
ARC
  8
0
 62
7
 10
1405.927504882223
 20
728.7377041888974
 30
0
 40
17.99999000000004
 50
338.8315429999989
 51
21.16854900000029
  0
ARC
  8
0
 62
7
 10
1405.927504882223
 20
728.7377041888974
 30
0
 40
30.16618699999978
 50
232.1737370000005
 51
245.9369810000005
  0
ARC
  8
0
 62
7
 10
1398.227517882223
 20
724.5377041888976
 30
0
 40
0.799999999999045
 50
180
 51
270
  0
ARC
  8
0
 62
7
 10
1400.627517882223
 20
724.5377041888976
 30
0
 40
0.8000180000005912
 50
270
 51
0
  0
ARC
  8
0
 62
7
 10
1400.627517882223
 20
732.9377041888972
 30
0
 40
0.8000000000010914
 50
0
 51
90
  0
ARC
  8
0
 62
7
 10
1398.227517882223
 20
732.9377041888972
 30
0
 40
0.8000490000003993
 50
90
 51
180
  0
ARC
  8
0
 62
7
 10
1382.427504882223
 20
728.7377041888974
 30
0
 40
3.999981000000537
 50
49.09481799998921
 51
310.9050139999866
  0
ARC
  8
0
 62
7
 10
1379.664382882223
 20
743.2377041888974
 30
0
 40
0.5
 50
90
 51
151.0990070000417
  0
ARC
  8
0
 62
7
 10
1378.432021882223
 20
716.7377041888974
 30
0
 40
0.5000000000003498
 50
203.579719999963
 51
270
  0
ARC
  8
0
 62
7
 10
1438.927501882223
 20
724.7377041888974
 30
0
 40
0.9999890000006074
 50
274.97912600003
 51
0
  0
ARC
  8
0
 62
7
 10
1438.927501882223
 20
732.8377041888969
 30
0
 40
1
 50
0
 51
85.02087399995044
  0
ARC
  8
0
 62
7
 10
1414.927504882223
 20
729.7377041888974
 30
0
 40
0.999991999999296
 50
134.3691100000049
 51
180
  0
ARC
  8
0
 62
7
 10
1414.927504882223
 20
734.7377041888974
 30
0
 40
0.999991999999296
 50
134.3691100000049
 51
180
  0
ARC
  8
0
 62
7
 10
1414.802504882223
 20
732.9377041888972
 30
0
 40
0.875
 50
90
 51
270
  0
ARC
  8
0
 62
7
 10
1414.927504882223
 20
732.7377041888974
 30
0
 40
0.5
 50
90
 51
270
  0
ARC
  8
0
 62
7
 10
1414.802504882223
 20
731.137704188897
 30
0
 40
0.875
 50
90
 51
228.9817500000195
  0
ARC
  8
0
 62
7
 10
1414.927504882223
 20
729.7377041888974
 30
0
 40
0.5
 50
90
 51
180
  0
ARC
  8
0
 62
7
 10
1414.927504882223
 20
731.2377041888974
 30
0
 40
0.5
 50
90
 51
270
  0
ARC
  8
0
 62
7
 10
1414.802504882223
 20
737.9377041888972
 30
0
 40
0.875
 50
90
 51
270
  0
ARC
  8
0
 62
7
 10
1414.927504882223
 20
737.7377041888974
 30
0
 40
0.5
 50
90
 51
270
  0
ARC
  8
0
 62
7
 10
1414.802504882223
 20
736.137704188897
 30
0
 40
0.875
 50
90
 51
228.9817500000195
  0
ARC
  8
0
 62
7
 10
1414.927504882223
 20
734.7377041888974
 30
0
 40
0.5
 50
90
 51
180
  0
ARC
  8
0
 62
7
 10
1414.927504882223
 20
736.2377041888974
 30
0
 40
0.5
 50
90
 51
270
  0
ARC
  8
0
 62
7
 10
1405.927504882223
 20
728.7377041888974
 30
0
 40
28.50001000000002
 50
229.5245509999996
 51
349.1051330000001
  0
ARC
  8
0
 62
7
 10
1405.927504882223
 20
728.7377041888974
 30
0
 40
30.49999600000086
 50
151.0966570000012
 51
203.5781480000003
  0
ARC
  8
0
 62
7
 10
1405.927504882227
 20
728.7377041888883
 30
0
 40
28.50001700000225
 50
31.12667800001879
 51
31.45202600001969
  0
ARC
  8
0
 62
7
 10
1405.927504882223
 20
728.7377041888974
 30
0
 40
28.5000100000002
 50
11.18089599999872
 51
130.4753970000009
  0
ARC
  8
0
 62
7
 10
1405.927504882223
 20
728.7377041888974
 30
0
 40
30.16618700000005
 50
114.0629670000009
 51
127.8262119999991
  0
ARC
  8
0
 62
7
 10
1402.727492882224
 20
747.9377041888972
 30
0
 40
0.7999879999999848
 50
90
 51
180
  0
ARC
  8
0
 62
7
 10
1409.127517882223
 20
747.9377041888972
 30
0
 40
0.7999879999999848
 50
0
 51
90
  0
ARC
  8
1
 62
7
 10
1405.927504882227
 20
728.7377041888883
 30
0
 40
30.50002628604327
 50
230.3792111587133
 51
246.21671507335
  0
ARC
  8
1
 62
7
 10
1405.927504882227
 20
728.7377041888883
 30
0
 40
30.50002628604284
 50
203.5788583922259
 51
216.3978155809213
  0
ARC
  8
1
 62
7
 10
1405.927504882227
 20
728.7377041888883
 30
0
 40
30.5000262860437
 50
113.78328492665
 51
151.0966931776885
  0
ARC
  8
1
 62
7
 10
1405.927504882223
 20
728.7377041888974
 30
0
 40
34.74999999999995
 50
235.9641528495785
 51
0
  0
ARC
  8
1
 62
7
 10
1405.927504882223
 20
728.7377041888974
 30
0
 40
34.75
 50
0
 51
225.0512492109948
  0
ARC
  8
1
 62
7
 10
1405.927504882223
 20
728.7377041888974
 30
0
 40
34.99999999999996
 50
236.2401240867469
 51
0
  0
ARC
  8
1
 62
7
 10
1405.927504882223
 20
728.7377041888974
 30
0
 40
39.50000000000003
 50
240.5012609742554
 51
0
  0
ARC
  8
1
 62
7
 10
1405.927504882223
 20
728.7377041888974
 30
0
 40
39.5
 50
0
 51
231.5729078218997
  0
ARC
  8
1
 62
7
 10
1405.927504882223
 20
728.7377041888974
 30
0
 40
35
 50
0
 51
225.4583331606166
  0
CIRCLE
  8
1
 62
7
 10
1345.233737217246
 20
550.3738230193753
 30
0
 40
1
  0
CIRCLE
  8
1
 62
7
 10
1405.927504882227
 20
728.7377041888974
 30
0
 40
53.99999999999991
  0
CIRCLE
  8
1
 62
7
 10
1383.927497882228
 20
614.6738010193753
 30
0
 40
2.5
  0
CIRCLE
  8
0
 62
7
 10
1396.927504882223
 20
708.137704188897
 30
0
 40
4
  0
CIRCLE
  8
0
 62
7
 10
1382.427504882223
 20
728.7377041888974
 30
0
 40
3.000030999999581
  0
CIRCLE
  8
0
 62
7
 10
1382.427504882223
 20
728.7377041888974
 30
0
 40
3.245514000000185
  0
ARC
  8
1
 62
7
 10
1485.820257090151
 20
549.8738230193753
 30
0
 40
4.000000000000119
 50
256.1993960144793
 51
270
  0
ARC
  8
1
 62
7
 10
1345.881144875252
 20
547.3738230193753
 30
0
 40
6
 50
90
 51
134.9999999999969
  0
ARC
  8
1
 62
7
 10
1454.753930581389
 20
678.5781572068515
 30
0
 40
9.999999999999773
 50
101.940774302462
 51
134.2283997073023
  0
ARC
  8
1
 62
7
 10
1454.753930581389
 20
778.897251170946
 30
0
 40
10.00000000000024
 50
225.7716002926977
 51
258.059225697538
  0
ARC
  8
1
 62
7
 10
1358.944827402978
 20
676.8471653896063
 30
0
 40
9.999999999999938
 50
47.84171123300105
 51
80.98552141081751
  0
ARC
  8
1
 62
7
 10
1358.944827402978
 20
780.6282429881912
 30
0
 40
9.999999999999966
 50
279.0144785891827
 51
312.1582887669999
  0
ARC
  8
1
 62
7
 10
1338.395863501014
 20
726.2377041888988
 30
0
 40
1
 50
90
 51
180
  0
ARC
  8
1
 62
7
 10
1338.395863501014
 20
731.2377041888988
 30
0
 40
1
 50
180
 51
270
  0
ARC
  8
1
 62
7
 10
1401.927504882227
 20
665.7377041888973
 30
0
 40
1
 50
180
 51
270
  0
ARC
  8
1
 62
7
 10
1409.927504882227
 20
665.7377041888973
 30
0
 40
1
 50
270
 51
0
  0
ARC
  8
1
 62
7
 10
1401.927504882227
 20
791.7377041888977
 30
0
 40
1
 50
90
 51
180
  0
ARC
  8
1
 62
7
 10
1409.927504882227
 20
791.7377041888977
 30
0
 40
1
 50
0
 51
90
  0
ARC
  8
1
 62
7
 10
1468.927504882228
 20
732.7377041888974
 30
0
 40
1
 50
0
 51
90
  0
ARC
  8
1
 62
7
 10
1468.927504882228
 20
724.7377041888974
 30
0
 40
1
 50
270
 51
0
  0
ARC
  8
1
 62
7
 10
1342.927504882227
 20
731.7377041888974
 30
0
 40
1
 50
90
 51
180
  0
ARC
  8
1
 62
7
 10
1342.927504882227
 20
725.7377041888974
 30
0
 40
1
 50
180
 51
270
  0
ARC
  8
1
 62
7
 10
1460.927504882229
 20
592.2738230193738
 30
0
 40
1
 50
180
 51
270
  0
ARC
  8
1
 62
7
 10
1468.927504882229
 20
573.2738230193738
 30
0
 40
1
 50
270
 51
0
  0
ARC
  8
1
 62
7
 10
1468.927504882229
 20
590.2738230193738
 30
0
 40
1
 50
0
 51
90
  0
ARC
  8
1
 62
7
 10
1460.927504882229
 20
590.2738230193738
 30
0
 40
1
 50
0
 51
90
  0
ARC
  8
1
 62
7
 10
1350.927504882229
 20
592.2738230193738
 30
0
 40
1
 50
270
 51
0
  0
ARC
  8
1
 62
7
 10
1342.927504882229
 20
573.2738230193738
 30
0
 40
1
 50
180
 51
270
  0
ARC
  8
1
 62
7
 10
1350.927504882229
 20
590.2738230193738
 30
0
 40
1
 50
90
 51
180
  0
ARC
  8
1
 62
7
 10
1345.427504882229
 20
595.2738230193738
 30
0
 40
3.5
 50
90
 51
180
  0
ARC
  8
1
 62
7
 10
1401.927504882229
 20
573.2738230193737
 30
0
 40
1
 50
180
 51
270
  0
ARC
  8
1
 62
7
 10
1401.927504882229
 20
590.2738230193739
 30
0
 40
0.9999999999997726
 50
90
 51
180
  0
ARC
  8
1
 62
7
 10
1409.927504882229
 20
573.2738230193737
 30
0
 40
0.9999999999997726
 50
270
 51
0
  0
ARC
  8
1
 62
7
 10
1409.927504882229
 20
590.2738230193739
 30
0
 40
1
 50
0
 51
90
  0
LINE
  8
1
 62
2
 10
1422.707367835746
 20
642.7942114312757
 30
0
 11
1392.031716447754
 21
642.7942114312757
 31
0
  0
LINE
  8
1
 62
2
 10
1392.031716447754
 20
642.7942114312757
 30
0
 11
1404.602348034933
 21
666.6553156536104
 31
0
  0
LINE
  8
1
 62
2
 10
1403.91524000224
 20
663.6264456532755
 30
0
 11
1404.602348034933
 21
666.6553156536104
 31
0
  0
LINE
  8
1
 62
2
 10
1402.492860023309
 20
664.3757913049064
 30
0
 11
1404.602348034933
 21
666.6553156536104
 31
0
  0
LINE
  8
1
 62
2
 10
1263.592599758615
 20
570.9764282928644
 30
0
 11
1314.587728126968
 21
570.9764282928644
 31
0
  0
LINE
  8
1
 62
2
 10
1314.587728126968
 20
570.9764282928644
 30
0
 11
1281.316825613953
 21
550.9658230193752
 31
0
  0
LINE
  8
1
 62
2
 10
1283.473356816522
 20
553.2008944052301
 30
0
 11
1281.316825613953
 21
550.9658230193752
 31
0
  0
LINE
  8
1
 62
2
 10
1284.301972112359
 20
551.8231860175127
 30
0
 11
1281.316825613953
 21
550.9658230193752
 31
0
  0
LINE
  8
1
 62
2
 10
1363.692769247487
 20
653.9428126993377
 30
0
 11
1333.017117859496
 21
653.9428126993377
 31
0
  0
LINE
  8
1
 62
2
 10
1333.017117859496
 20
653.9428126993377
 30
0
 11
1344.926359483942
 21
688.3861563253981
 31
0
  0
LINE
  8
1
 62
2
 10
1344.705733321951
 20
685.2881739135428
 30
0
 11
1344.926359483942
 21
688.3861563253981
 31
0
  0
LINE
  8
1
 62
2
 10
1343.18630041699
 20
685.8135379372496
 30
0
 11
1344.926359483942
 21
688.3861563253981
 31
0
  0
LINE
  8
1
 62
2
 10
1297.740237694769
 20
659.4008032903734
 30
0
 11
1323.094250999199
 21
659.4008032903734
 31
0
  0
LINE
  8
1
 62
2
 10
1323.094250999199
 20
659.4008032903734
 30
0
 11
1334.954588940986
 21
688.1142430376663
 31
0
  0
LINE
  8
1
 62
2
 10
1334.552233571405
 20
685.0345870367321
 30
0
 11
1334.954588940986
 21
688.1142430376663
 31
0
  0
LINE
  8
1
 62
2
 10
1333.066310969113
 20
685.6483603907304
 30
0
 11
1334.954588940986
 21
688.1142430376663
 31
0
  0
DIMENSION
  8
1
  6
CONTINUOUS
 62
2
  2
*D0
  3
DMST_1
 10
1557.774853816068
 20
624.1737400193746
 30
0
 11
1555.474853816068
 21
541.273781519375
 31
0
 12
0
 22
0
 32
0
 70
128
 13
1443.427504882227
 23
458.3738230193753
 33
0
 14
1417.927381882227
 24
624.1737400193746
 34
0
 50
90
 53
0
  0
DIMENSION
  8
1
  6
CONTINUOUS
 62
2
  2
*D1
  3
DMST_1
 10
1535.57546833607
 20
513.3738230193751
 30
0
 11
1533.27546833607
 21
485.8738230193752
 31
0
 12
0
 22
0
 32
0
 70
128
 13
1443.427504882227
 23
458.3738230193753
 33
0
 14
1516.328926950071
 24
513.3738230193751
 34
0
 50
90
 53
0
  0
DIMENSION
  8
1
  6
CONTINUOUS
 62
2
  2
*D2
  3
DMST_1
 10
1512.927504882227
 20
438.166494077364
 30
0
 11
1407.65039083134
 21
440.466494077364
 31
0
 12
0
 22
0
 32
0
 70
128
 13
1267.927504882227
 23
477.2608230193753
 33
0
 14
1512.927504882227
 24
477.2608230193753
 34
0
 53
0
  0
DIMENSION
  8
1
  6
CONTINUOUS
 62
2
  2
*D3
  3
DMST_1
 10
1557.774853816068
 20
792.7377041888977
 30
0
 11
1555.474853816068
 21
728.7377041888975
 31
0
 12
0
 22
0
 32
0
 70
128
  1
128
 13
1409.927504882227
 23
664.7377041888973
 33
0
 14
1409.927504882227
 24
792.7377041888977
 34
0
 50
90
 53
0
  0
DIMENSION
  8
1
  6
CONTINUOUS
 62
2
  2
*D4
  3
DMST_2
 10
1290.927504882227
 20
459.3738230193753
 30
0
 11
1279.427504882227
 21
461.9738230193753
 31
0
 12
0
 22
0
 32
0
 70
129
 13
1267.927504882227
 23
477.2608230193753
 33
0
 14
1290.927504882227
 24
477.2608230193753
 34
0
 53
0
  0
ENDSEC
  0
EOF
