  0
SECTION
  2
HEADER
  9
$ACADVER
  1
AC1009
  9
$INSBASE
 10
0
 20
0
  9
$EXTMIN
 10
1251.27086426793
 20
315.3768704118289
  9
$EXTMAX
 10
1448.416214567533
 20
620.8987182379149
  9
$LIMMIN
 10
1251.27086426793
 20
315.3768704118289
  9
$LIMMAX
 10
1448.416214567533
 20
620.8987182379149
  9
$VIEWCTR
 10
10
 20
10
  9
$VIEWSIZE
 40
10
  9
$SNAPMODE
 70
0
  9
$SNAPUNIT
 10
1
 20
1
  9
$SNAPBASE
 10
0
 20
0
  9
$SNAPANG
 50
0
  9
$SNAPSTYLE
 70
0
  9
$SNAPISOPAIR
 70
0
  9
$GRIDMODE
 70
0
  9
$GRIDUNIT
 10
0
 20
0
  9
$ORTHOMODE
 70
0
  9
$REGENMODE
 70
1
  9
$FILLMODE
 70
1
  9
$QTEXTMODE
 70
0
  9
$DRAGMODE
 70
2
  9
$LTSCALE
 40
1
  9
$OSMODE
 70
0
  9
$ATTMODE
 70
1
  9
$TEXTSIZE
 40
3.5
  9
$TRACEWID
 40
0.5
  9
$TEXTSTYLE
  7
STANDARD
  9
$CLAYER
  8
0
  9
$CELTYPE
  6
BYLAYER
  9
$CECOLOR
 62
256
  9
$DIMSCALE
 40
1
  9
$DIMASZ
 40
0.18
  9
$DIMEXO
 40
0.0625
  9
$DIMDLI
 40
0.38
  9
$DIMRND
 40
0
  9
$DIMDLE
 40
0
  9
$DIMEXE
 40
0.18
  9
$DIMTP
 40
0
  9
$DIMTM
 40
0
  9
$DIMTXT
 40
0.18
  9
$DIMCEN
 40
0.09
  9
$DIMTSZ
 40
0
  9
$DIMTOL
 70
0
  9
$DIMLIM
 70
0
  9
$DIMTIH
 70
1
  9
$DIMTOH
 70
1
  9
$DIMSE1
 70
0
  9
$DIMSE2
 70
0
  9
$DIMTAD
 70
0
  9
$DIMZIN
 70
0
  9
$DIMBLK
  1

  9
$DIMASO
 70
1
  9
$DIMSHO
 70
1
  9
$DIMPOST
  1

  9
$DIMAPOST
  1

  9
$DIMALT
 70
0
  9
$DIMALTD
 70
2
  9
$DIMALTF
 40
25.4
  9
$DIMLFAC
 40
1
  9
$DIMTOFL
 70
0
  9
$DIMTVP
 40
0
  9
$DIMTIX
 70
0
  9
$DIMSOXD
 70
0
  9
$DIMSAH
 70
0
  9
$DIMBLK1
  1

  9
$DIMBLK2
  1

  9
$DIMSTYLE
  2
*UNNAMED
  9
$DIMCLRD
 70
0
  9
$DIMCLRE
 70
0
  9
$DIMCLRT
 70
0
  9
$DIMTFAC
 40
1
  9
$DIMGAP
 40
0.09
  9
$LUNITS
 70
2
  9
$LUPREC
 70
4
  9
$AXISMODE
 70
0
  9
$AXISUNIT
 10
0
 20
0
  9
$SKETCHINC
 40
0.1
  9
$FILLETRAD
 40
2
  9
$AUNITS
 70
0
  9
$AUPREC
 70
0
  9
$MENU
  1
ACAD
  9
$ELEVATION
 40
0
  9
$THICKNESS
 40
0
  9
$VIEWDIR
 10
0
 20
0
 30
1
  9
$LIMCHECK
 70
0
  9
$BLIPMODE
 70
1
  9
$CHAMFERA
 40
0
  9
$CHAMFERB
 40
0
  9
$FASTZOOM
 70
1
  9
$SKPOLY
 70
0
  9
$ANGBASE
 50
0
  9
$ANGDIR
 70
0
  9
$PDMODE
 70
0
  9
$PDSIZE
 40
0
  9
$PLINEWID
 40
0
  9
$COORDS
 70
2
  0
ENDSEC
  0
SECTION
  2
TABLES
  0
TABLE
  2
DIMSTYLE
 70
2
  0
DIMSTYLE
  2
DMST_1
 70
0
  3

  4

  5

  6

  7

 40
1
 41
3
 42
0.5
 43
7
 44
1
 45
0
 46
0
 47
0
 48
0
140
3
141
0
142
0
143
25.4
144
1
145
0
146
1
147
0.09
 71
0
 72
0
 73
0
 74
0
 75
0
 76
0
 77
1
 78
1
170
0
171
2
172
0
173
0
174
0
175
0
176
2
177
2
178
2
  0
DIMSTYLE
  2
DMST_2
 70
0
  3
)
  4

  5

  6

  7

 40
1
 41
3
 42
0.5
 43
7
 44
1
 45
0
 46
0
 47
0
 48
0
140
3
141
0
142
0
143
25.4
144
1
145
0
146
1
147
0.09
 71
0
 72
0
 73
0
 74
0
 75
0
 76
0
 77
1
 78
1
170
0
171
2
172
0
173
0
174
0
175
0
176
2
177
2
178
2
  0
ENDTAB
  0
TABLE
  2
LTYPE
 70
9
  0
LTYPE
  2
CONTINUOUS
 70
64
  3
Solid line
 72
65
 73
0
 40
0
  0
LTYPE
  2
BORDER
 70
64
  3
__ __ . __ __ .
 72
65
 73
6
 40
14.07008509725396
 49
4.020024313501131
 49
-2.010012156750566
 49
4.020024313501131
 49
-2.010012156750566
 49
0
 49
-2.010012156750566
  0
LTYPE
  2
CENTER
 70
64
  3
____ _ ____ _
 72
65
 73
4
 40
16.08009725400452
 49
10.05006078375283
 49
-2.010012156750566
 49
2.010012156750566
 49
-2.010012156750566
  0
LTYPE
  2
DASHDOT
 70
64
  3
__ . __ . __ .
 72
65
 73
4
 40
8.040048627002262
 49
4.020024313501131
 49
-2.010012156750566
 49
0
 49
-2.010012156750566
  0
LTYPE
  2
DASHED
 70
64
  3
__ __ __ __ __
 72
65
 73
2
 40
6.030036470251696
 49
4.020024313501131
 49
-2.010012156750566
  0
LTYPE
  2
DIVIDE
 70
64
  3
__ . . __ . . 
 72
65
 73
6
 40
10.05006078375283
 49
4.020024313501131
 49
-2.010012156750566
 49
0
 49
-2.010012156750566
 49
0
 49
-2.010012156750566
  0
LTYPE
  2
DOT
 70
64
  3
..............
 72
65
 73
4
 40
4.020024313501131
 49
0
 49
-2.010012156750566
 49
0
 49
-2.010012156750566
  0
LTYPE
  2
HIDDEN
 70
64
  3
_ _ _ _ _ _ _
 72
65
 73
2
 40
3.015018235125848
 49
2.010012156750566
 49
-1.005006078375283
  0
LTYPE
  2
PHANTOM
 70
64
  3
_____ _ _ _____ _ _ 
 72
65
 73
6
 40
20.10012156750566
 49
10.05006078375283
 49
-2.010012156750566
 49
2.010012156750566
 49
-2.010012156750566
 49
2.010012156750566
 49
-2.010012156750566
  0
ENDTAB
  0
TABLE
  2
LAYER
 70
3
  0
LAYER
  2
0
 70
0
 62
7
  6
CONTINUOUS
  0
LAYER
  2
1
 70
0
 62
7
  6
CONTINUOUS
  0
ENDTAB
  0
TABLE
  2
STYLE
 70
4
  0
STYLE
  2
STANDARD
 70
0
 40
0
 41
1
 50
0
 71
0
 42
3.5
  3
txt
  4

  0
STYLE
  2
SIMPLEX
 70
0
 40
0
 41
1
 50
0
 71
0
 42
3.5
  3
simplex
  4

  0
STYLE
  2
COMPLEX
 70
0
 40
0
 41
1
 50
0
 71
0
 42
3.5
  3
complex
  4

  0
STYLE
  2
ITALIC
 70
0
 40
0
 41
1
 50
0
 71
0
 42
3.5
  3
italic
  4

  0
ENDTAB
  0
TABLE
  2
VIEW
 70
0
  0
ENDTAB
  0
ENDSEC
  0
SECTION
  2
BLOCKS
  0
BLOCK
  8
1
  2
*D0
 70
1
 10
0
 20
0
 30
0
  0
LINE
  8
1
 62
2
 10
1437.61531204675
 20
565.224217532636
 30
0
 11
1437.61531204675
 21
578.6642452874316
 31
0
  0
LINE
  8
1
 62
2
 10
1437.61531204675
 20
561.904217532636
 30
0
 11
1437.61531204675
 21
565.224217532636
 31
0
  0
LINE
  8
1
 62
2
 10
1437.61531204675
 20
555.904217532636
 30
0
 11
1437.61531204675
 21
561.904217532636
 31
0
  0
LINE
  8
1
 62
2
 10
1426.63736462307
 20
565.224217532636
 30
0
 11
1438.11531204675
 21
565.224217532636
 31
0
  0
LINE
  8
1
 62
2
 10
1416.85078581802
 20
561.904217532636
 30
0
 11
1438.11531204675
 21
561.904217532636
 31
0
  0
LINE
  8
1
 62
2
 10
1437.61531204675
 20
561.904217532636
 30
0
 11
1438.42531204675
 21
558.904217532636
 31
0
  0
LINE
  8
1
 62
2
 10
1437.61531204675
 20
561.904217532636
 30
0
 11
1436.80531204675
 21
558.904217532636
 31
0
  0
LINE
  8
1
 62
2
 10
1437.61531204675
 20
565.224217532636
 30
0
 11
1436.80531204675
 21
568.224217532636
 31
0
  0
LINE
  8
1
 62
2
 10
1437.61531204675
 20
565.224217532636
 30
0
 11
1438.42531204675
 21
568.224217532636
 31
0
  0
TEXT
  8
1
 62
2
 10
1437.52531204675
 20
572.4401477101383
 30
0
 40
3
  1
3.3
 50
90
 41
0.8910000000000001
 51
15
  0
ENDBLK
  8
0
  0
BLOCK
  8
1
  2
*D1
 70
1
 10
0
 20
0
 30
0
  0
LINE
  8
1
 62
2
 10
1258.973158972351
 20
350.943413215318
 30
0
 11
1269.973158972351
 21
350.943413215318
 31
0
  0
LINE
  8
1
 62
2
 10
1269.973158972351
 20
360.975155293744
 30
0
 11
1269.973158972351
 21
350.443413215318
 31
0
  0
LINE
  8
1
 62
2
 10
1258.973158972351
 20
362.695655293744
 30
0
 11
1258.973158972351
 21
350.443413215318
 31
0
  0
LINE
  8
1
 62
2
 10
1258.973158972351
 20
350.943413215318
 30
0
 11
1261.973158972351
 21
351.753413215318
 31
0
  0
LINE
  8
1
 62
2
 10
1258.973158972351
 20
350.943413215318
 30
0
 11
1261.973158972351
 21
350.133413215318
 31
0
  0
LINE
  8
1
 62
2
 10
1269.973158972351
 20
350.943413215318
 30
0
 11
1266.973158972351
 21
350.133413215318
 31
0
  0
LINE
  8
1
 62
2
 10
1269.973158972351
 20
350.943413215318
 30
0
 11
1266.973158972351
 21
351.753413215318
 31
0
  0
TEXT
  8
1
 62
2
 10
1262.734735183704
 20
351.033413215318
 30
0
 40
3
  1
11
 41
0.8910000000000001
 51
15
  0
ENDBLK
  8
0
  0
BLOCK
  8
1
  2
*D2
 70
1
 10
0
 20
0
 30
0
  0
LINE
  8
1
 62
2
 10
1447.61236699024
 20
351.695655293744
 30
0
 11
1447.61236699024
 21
497.645656548344
 31
0
  0
LINE
  8
1
 62
2
 10
1376.371272767266
 20
497.645656548344
 30
0
 11
1448.11236699024
 21
497.645656548344
 31
0
  0
LINE
  8
1
 62
2
 10
1366.973158972351
 20
351.695655293744
 30
0
 11
1448.11236699024
 21
351.695655293744
 31
0
  0
LINE
  8
1
 62
2
 10
1447.61236699024
 20
497.645656548344
 30
0
 11
1448.42236699024
 21
494.645656548344
 31
0
  0
LINE
  8
1
 62
2
 10
1447.61236699024
 20
497.645656548344
 30
0
 11
1446.80236699024
 21
494.645656548344
 31
0
  0
LINE
  8
1
 62
2
 10
1447.61236699024
 20
351.695655293744
 30
0
 11
1446.80236699024
 21
354.695655293744
 31
0
  0
LINE
  8
1
 62
2
 10
1447.61236699024
 20
351.695655293744
 30
0
 11
1448.42236699024
 21
354.695655293744
 31
0
  0
TEXT
  8
1
 62
2
 10
1447.52236699024
 20
421.1502321323973
 30
0
 40
3
  1
146
 50
90
 41
0.8910000000000001
 51
15
  0
TEXT
  8
1
 62
2
 10
1447.52236699024
 20
418.4008845551039
 30
0
 40
3
  1
(
 50
90
 41
0.8910000000000001
 51
15
  0
TEXT
  8
1
 62
2
 10
1447.52236699024
 20
429.6910797096907
 30
0
 40
3
  1
)
 50
90
 41
0.8910000000000001
 51
15
  0
ENDBLK
  8
0
  0
BLOCK
  8
1
  2
*D3
 70
1
 10
0
 20
0
 30
0
  0
LINE
  8
1
 62
2
 10
1437.70629664919
 20
351.695655293744
 30
0
 11
1437.70629664919
 21
374.695655293744
 31
0
  0
LINE
  8
1
 62
2
 10
1426.924832147911
 20
374.695655293744
 30
0
 11
1438.20629664919
 21
374.695655293744
 31
0
  0
LINE
  8
1
 62
2
 10
1366.973158972351
 20
351.695655293744
 30
0
 11
1438.20629664919
 21
351.695655293744
 31
0
  0
LINE
  8
1
 62
2
 10
1437.70629664919
 20
374.695655293744
 30
0
 11
1438.51629664919
 21
371.695655293744
 31
0
  0
LINE
  8
1
 62
2
 10
1437.70629664919
 20
374.695655293744
 30
0
 11
1436.89629664919
 21
371.695655293744
 31
0
  0
LINE
  8
1
 62
2
 10
1437.70629664919
 20
351.695655293744
 30
0
 11
1436.89629664919
 21
354.695655293744
 31
0
  0
LINE
  8
1
 62
2
 10
1437.70629664919
 20
351.695655293744
 30
0
 11
1438.51629664919
 21
354.695655293744
 31
0
  0
TEXT
  8
1
 62
2
 10
1437.61629664919
 20
360.5662315050973
 30
0
 40
3
  1
23
 50
90
 41
0.8910000000000001
 51
15
  0
ENDBLK
  8
0
  0
BLOCK
  8
1
  2
*D4
 70
1
 10
0
 20
0
 30
0
  0
LINE
  8
1
 62
2
 10
1258.973158972351
 20
333.820131281394
 30
0
 11
1423.973158972351
 21
333.820131281394
 31
0
  0
LINE
  8
1
 62
2
 10
1423.973158972351
 20
362.695655293744
 30
0
 11
1423.973158972351
 21
333.320131281394
 31
0
  0
LINE
  8
1
 62
2
 10
1258.973158972351
 20
362.695655293744
 30
0
 11
1258.973158972351
 21
333.320131281394
 31
0
  0
LINE
  8
1
 62
2
 10
1258.973158972351
 20
333.820131281394
 30
0
 11
1261.973158972351
 21
334.630131281394
 31
0
  0
LINE
  8
1
 62
2
 10
1258.973158972351
 20
333.820131281394
 30
0
 11
1261.973158972351
 21
333.010131281394
 31
0
  0
LINE
  8
1
 62
2
 10
1423.973158972351
 20
333.820131281394
 30
0
 11
1420.973158972351
 21
333.010131281394
 31
0
  0
LINE
  8
1
 62
2
 10
1423.973158972351
 20
333.820131281394
 30
0
 11
1420.973158972351
 21
334.630131281394
 31
0
  0
TEXT
  8
1
 62
2
 10
1337.952735183704
 20
333.910131281394
 30
0
 40
3
  1
165
 41
0.8910000000000001
 51
15
  0
ENDBLK
  8
0
  0
BLOCK
  8
1
  2
*D5
 70
1
 10
0
 20
0
 30
0
  0
LINE
  8
1
 62
2
 10
1296.473158972351
 20
504.3041390498091
 30
0
 11
1386.473158972351
 21
504.3041390498091
 31
0
  0
LINE
  8
1
 62
2
 10
1386.473158972351
 20
452.645656548344
 30
0
 11
1386.473158972351
 21
504.8041390498091
 31
0
  0
LINE
  8
1
 62
2
 10
1296.473158972351
 20
452.645656548344
 30
0
 11
1296.473158972351
 21
504.8041390498091
 31
0
  0
LINE
  8
1
 62
2
 10
1386.473158972351
 20
504.3041390498091
 30
0
 11
1383.473158972351
 21
503.4941390498091
 31
0
  0
LINE
  8
1
 62
2
 10
1386.473158972351
 20
504.3041390498091
 30
0
 11
1383.473158972351
 21
505.1141390498091
 31
0
  0
LINE
  8
1
 62
2
 10
1296.473158972351
 20
504.3041390498091
 30
0
 11
1299.473158972351
 21
505.1141390498091
 31
0
  0
LINE
  8
1
 62
2
 10
1296.473158972351
 20
504.3041390498091
 30
0
 11
1299.473158972351
 21
503.4941390498091
 31
0
  0
TEXT
  8
1
 62
2
 10
1341.035158972351
 20
504.3941390498091
 30
0
 40
3
  1
90
 41
0.8910000000000001
 51
15
  0
TEXT
  8
1
 62
2
 10
1336.652311395058
 20
504.3941390498091
 30
0
 40
3
  1
%%c
 41
0.8910000000000001
 51
15
  0
ENDBLK
  8
0
  0
ENDSEC
  0
SECTION
  2
ENTITIES
  0
POLYLINE
  8
1
 62
7
 66
1
 70
1
  0
VERTEX
  8
1
 10
1345.56862921403
 20
475.1200705580284
 30
0
 42
0.03571986069995606
  0
VERTEX
  8
1
 10
1345.458815359299
 20
474.96055545217
 30
0
 42
0.05001447801703067
  0
VERTEX
  8
1
 10
1345.377810489531
 20
474.7848078763204
 30
0
 42
0.04733296127652486
  0
VERTEX
  8
1
 10
1345.346772916739
 20
474.6565238313395
 30
0
 42
0.0435720311512007
  0
VERTEX
  8
1
 10
1345.341941551063
 20
474.5662249421636
 30
0
 42
0.05357212706101065
  0
VERTEX
  8
1
 10
1345.35366022533
 20
474.4828767459018
 30
0
 42
0.1094247059474689
  0
VERTEX
  8
1
 10
1345.415980252309
 20
474.3588391507151
 30
0
 42
0.1133878202670489
  0
VERTEX
  8
1
 10
1345.533037438544
 20
474.2723429666478
 30
0
 42
0.0719577815730498
  0
VERTEX
  8
1
 10
1345.650430441422
 20
474.2409457998929
 30
0
 42
0.05145352632541324
  0
VERTEX
  8
1
 10
1345.777373395971
 20
474.2386427540662
 30
0
 42
0.041425943429102
  0
VERTEX
  8
1
 10
1345.915952817544
 20
474.2619286005771
 30
0
 42
0.05088981411524268
  0
VERTEX
  8
1
 10
1346.136392007046
 20
474.3430257999033
 30
0
 42
0.04203820926422265
  0
VERTEX
  8
1
 10
1346.34456480154
 20
474.4664676249086
 30
0
 42
0.03827686564706529
  0
VERTEX
  8
1
 10
1346.532101017251
 20
474.6230735740268
 30
0
 42
0.04264275054405142
  0
VERTEX
  8
1
 10
1346.693575149295
 20
474.8096565000788
 30
0
 42
0.0531079130592098
  0
VERTEX
  8
1
 10
1346.803889627618
 20
474.9953344204027
 30
0
 42
0.05427745626980565
  0
VERTEX
  8
1
 10
1346.858387177763
 20
475.1445712982032
 30
0
 42
0.05418238078364635
  0
VERTEX
  8
1
 10
1346.876773776849
 20
475.2549759502742
 30
0
 42
0.04895675332358603
  0
VERTEX
  8
1
 10
1346.874557316881
 20
475.3461498108325
 30
0
 42
0.06590206660870415
  0
VERTEX
  8
1
 10
1346.841628632379
 20
475.456711280136
 30
0
 42
0.1185715814440356
  0
VERTEX
  8
1
 10
1346.750137814117
 20
475.5651737128636
 30
0
 42
0.1025971211045351
  0
VERTEX
  8
1
 10
1346.629009452867
 20
475.6216747877135
 30
0
 42
0.0583927488281688
  0
VERTEX
  8
1
 10
1346.505799949278
 20
475.6375311556208
 30
0
 42
0.04342770515385577
  0
VERTEX
  8
1
 10
1346.372510070468
 20
475.6266299842004
 30
0
 42
0.03505393695926931
  0
VERTEX
  8
1
 10
1346.191501849884
 20
475.577179885135
 30
0
 42
0.04373616893370704
  0
VERTEX
  8
1
 10
1345.966588404011
 20
475.4677509190957
 30
0
 42
0.04404853925609839
  0
VERTEX
  8
1
 10
1345.752640672554
 20
475.310774029142
 30
0
 42
0.04130223793524264
  0
VERTEX
  8
1
 10
1345.56862921403
 20
475.1200705580284
 30
0
  0
SEQEND
  8
1
  0
POLYLINE
  8
1
 62
7
 66
1
 70
1
  0
VERTEX
  8
1
 10
1345.56862921403
 20
529.4737178065508
 30
0
 42
0.03571986069741708
  0
VERTEX
  8
1
 10
1345.4588153593
 20
529.3142027006924
 30
0
 42
0.05001447801768934
  0
VERTEX
  8
1
 10
1345.377810489532
 20
529.1384551248428
 30
0
 42
0.04733296127658383
  0
VERTEX
  8
1
 10
1345.34677291674
 20
529.0101710798618
 30
0
 42
0.04357203114879851
  0
VERTEX
  8
1
 10
1345.341941551064
 20
528.9198721906861
 30
0
 42
0.05357212706099795
  0
VERTEX
  8
1
 10
1345.353660225331
 20
528.8365239944243
 30
0
 42
0.1094247059504941
  0
VERTEX
  8
1
 10
1345.41598025231
 20
528.7124863992375
 30
0
 42
0.1133878202667786
  0
VERTEX
  8
1
 10
1345.533037438544
 20
528.6259902151703
 30
0
 42
0.07195778157279938
  0
VERTEX
  8
1
 10
1345.650430441423
 20
528.5945930484153
 30
0
 42
0.05145352632633071
  0
VERTEX
  8
1
 10
1345.777373395971
 20
528.5922900025888
 30
0
 42
0.04142594342858998
  0
VERTEX
  8
1
 10
1345.915952817545
 20
528.6155758490995
 30
0
 42
0.05088981411559107
  0
VERTEX
  8
1
 10
1346.136392007047
 20
528.6966730484257
 30
0
 42
0.04203820926505791
  0
VERTEX
  8
1
 10
1346.34456480154
 20
528.8201148734311
 30
0
 42
0.03827686564779689
  0
VERTEX
  8
1
 10
1346.532101017251
 20
528.9767208225492
 30
0
 42
0.04264275054393108
  0
VERTEX
  8
1
 10
1346.693575149295
 20
529.1633037486012
 30
0
 42
0.0531079130588208
  0
VERTEX
  8
1
 10
1346.803889627619
 20
529.348981668925
 30
0
 42
0.05427745627217961
  0
VERTEX
  8
1
 10
1346.858387177764
 20
529.4982185467253
 30
0
 42
0.05418238078939192
  0
VERTEX
  8
1
 10
1346.876773776849
 20
529.6086231987964
 30
0
 42
0.04895675332327821
  0
VERTEX
  8
1
 10
1346.874557316881
 20
529.699797059355
 30
0
 42
0.06590206660937564
  0
VERTEX
  8
1
 10
1346.84162863238
 20
529.8103585286584
 30
0
 42
0.1185715814425125
  0
VERTEX
  8
1
 10
1346.750137814118
 20
529.918820961386
 30
0
 42
0.1025971211047378
  0
VERTEX
  8
1
 10
1346.629009452868
 20
529.975322036236
 30
0
 42
0.05839274882548733
  0
VERTEX
  8
1
 10
1346.505799949278
 20
529.9911784041432
 30
0
 42
0.04342770515152875
  0
VERTEX
  8
1
 10
1346.372510070469
 20
529.9802772327226
 30
0
 42
0.03505393695946923
  0
VERTEX
  8
1
 10
1346.191501849885
 20
529.9308271336573
 30
0
 42
0.04373616893250214
  0
VERTEX
  8
1
 10
1345.966588404012
 20
529.821398167618
 30
0
 42
0.04404853925425017
  0
VERTEX
  8
1
 10
1345.752640672555
 20
529.6644212776643
 30
0
 42
0.04130223793476821
  0
VERTEX
  8
1
 10
1345.56862921403
 20
529.4737178065508
 30
0
  0
SEQEND
  8
1
  0
POLYLINE
  8
1
 62
7
 66
1
  0
VERTEX
  8
1
 10
1372.937627423614
 20
366.3778864730894
 30
0
 42
-0.03605798156221322
  0
VERTEX
  8
1
 10
1371.403759341661
 20
367.0972768371512
 30
0
 42
-0.03198946007809814
  0
VERTEX
  8
1
 10
1369.862734544151
 20
368.0968003900017
 30
0
 42
-0.03326804112388801
  0
VERTEX
  8
1
 10
1368.419966404363
 20
369.3255238245883
 30
0
 42
-0.03935897042469851
  0
VERTEX
  8
1
 10
1367.180868295576
 20
370.7325138338587
 30
0
 42
-0.05107277593832744
  0
VERTEX
  8
1
 10
1366.250853591068
 20
372.2668371107603
 30
0
 42
-0.06875757514358007
  0
VERTEX
  8
1
 10
1365.735335664118
 20
373.8775603482406
 30
0
 42
-0.08430435215533205
  0
VERTEX
  8
1
 10
1365.735335664119
 20
375.5137502392494
 30
0
 42
-0.06688905407335018
  0
VERTEX
  8
1
 10
1366.250853591071
 20
377.1244734767336
 30
0
 42
-0.04966908727887472
  0
VERTEX
  8
1
 10
1367.180868295583
 20
378.6587967536386
 30
0
 42
-0.03878965756357113
  0
VERTEX
  8
1
 10
1368.419966404375
 20
380.0657867629114
 30
0
 42
-0.03341875653031787
  0
VERTEX
  8
1
 10
1369.862734544168
 20
381.2945101974991
 30
0
 42
-0.03287397475129478
  0
VERTEX
  8
1
 10
1371.403759341682
 20
382.2940337503489
 30
0
 42
-0.03806555149239869
  0
VERTEX
  8
1
 10
1372.937627423638
 20
383.0134241144079
 30
0
  0
SEQEND
  8
1
  0
POLYLINE
  8
1
 62
7
 66
1
  0
VERTEX
  8
1
 10
1310.008690521088
 20
366.3778864730894
 30
0
 42
0.03605798156221299
  0
VERTEX
  8
1
 10
1311.542558603041
 20
367.0972768371512
 30
0
 42
0.03198946007796255
  0
VERTEX
  8
1
 10
1313.08358340055
 20
368.0968003900017
 30
0
 42
0.03326804112397704
  0
VERTEX
  8
1
 10
1314.526351540338
 20
369.3255238245883
 30
0
 42
0.03935897042478991
  0
VERTEX
  8
1
 10
1315.765449649125
 20
370.7325138338587
 30
0
 42
0.05107277593788609
  0
VERTEX
  8
1
 10
1316.695464353633
 20
372.2668371107603
 30
0
 42
0.06875757514397583
  0
VERTEX
  8
1
 10
1317.210982280583
 20
373.8775603482406
 30
0
 42
0.08430435215492382
  0
VERTEX
  8
1
 10
1317.210982280583
 20
375.5137502392494
 30
0
 42
0.06688905407298729
  0
VERTEX
  8
1
 10
1316.69546435363
 20
377.1244734767336
 30
0
 42
0.04966908727897205
  0
VERTEX
  8
1
 10
1315.765449649118
 20
378.6587967536386
 30
0
 42
0.03878965756375376
  0
VERTEX
  8
1
 10
1314.526351540326
 20
380.0657867629114
 30
0
 42
0.03341875653039017
  0
VERTEX
  8
1
 10
1313.083583400533
 20
381.2945101974991
 30
0
 42
0.03287397475117041
  0
VERTEX
  8
1
 10
1311.542558603019
 20
382.2940337503489
 30
0
 42
0.03806555149245011
  0
VERTEX
  8
1
 10
1310.008690521063
 20
383.0134241144079
 30
0
  0
SEQEND
  8
1
  0
POLYLINE
  8
1
 62
7
 66
1
  0
VERTEX
  8
1
 10
1378.473158972351
 20
561.904217532636
 30
0
 42
-0.000988159865205654
  0
VERTEX
  8
1
 10
1378.406327062964
 20
560.4573248376007
 30
0
 42
-0.007858628444978998
  0
VERTEX
  8
1
 10
1378.328097473996
 20
559.0118353476653
 30
0
 42
-6.381788968416585e-005
  0
VERTEX
  8
1
 10
1378.227072525866
 20
557.5691522679299
 30
0
 42
-0.01184373752785633
  0
VERTEX
  8
1
 10
1378.091854538996
 20
556.1306788034942
 30
0
 42
-0.004055919957782833
  0
VERTEX
  8
1
 10
1377.911045833803
 20
554.6978181594584
 30
0
 42
-0.01492370530552022
  0
VERTEX
  8
1
 10
1377.677285707642
 20
553.2806856365324
 30
0
 42
-0.003800815717474759
  0
VERTEX
  8
1
 10
1377.39035606888
 20
551.8719296281034
 30
0
 42
-0.01392492966820916
  0
VERTEX
  8
1
 10
1377.05338050396
 20
550.4729962236537
 30
0
 42
-0.002837302142698076
  0
VERTEX
  8
1
 10
1376.669482599329
 20
549.0853315126655
 30
0
 42
-0.02049561125401021
  0
VERTEX
  8
1
 10
1375.778502672633
 20
546.3654124009419
 30
0
 42
-0.01004428278817606
  0
VERTEX
  8
1
 10
1374.730351025801
 20
543.7230425622811
 30
0
 42
-0.046674806784606
  0
VERTEX
  8
1
 10
1371.415798508143
 20
537.5238785789062
 30
0
 42
-0.02889772470937032
  0
VERTEX
  8
1
 10
1368.099088543256
 20
533.0883366792596
 30
0
 42
-0.03142982050423011
  0
VERTEX
  8
1
 10
1365.256300530753
 20
530.1133731431984
 30
0
 42
-0.0306965350851573
  0
VERTEX
  8
1
 10
1361.088655961205
 20
526.7161861416142
 30
0
 42
-0.186648917073575
  0
VERTEX
  8
1
 10
1337.602429045604
 20
520.6321352967061
 30
0
 42
-0.04967186749634937
  0
VERTEX
  8
1
 10
1331.266257422111
 20
522.0147206308218
 30
0
 42
-0.03691308997050766
  0
VERTEX
  8
1
 10
1326.412445627318
 20
523.9979563748824
 30
0
 42
-0.03820232382475933
  0
VERTEX
  8
1
 10
1321.857661983498
 20
526.7161861416142
 30
0
 42
-0.03475430443791978
  0
VERTEX
  8
1
 10
1317.690017413949
 20
530.1133731431984
 30
0
 42
-0.02737288823556731
  0
VERTEX
  8
1
 10
1314.847229401446
 20
533.0883366792596
 30
0
 42
-0.04145297279462531
  0
VERTEX
  8
1
 10
1310.790062432507
 20
538.7106055479608
 30
0
 42
-0.02561435964904936
  0
VERTEX
  8
1
 10
1308.802031393219
 20
542.4286779385251
 30
0
 42
-0.03862938488752707
  0
VERTEX
  8
1
 10
1306.276835345374
 20
549.0853315126655
 30
0
 42
-0.00772912624381294
  0
VERTEX
  8
1
 10
1305.892937440742
 20
550.4729962236537
 30
0
 42
-0.009032597570185793
  0
VERTEX
  8
1
 10
1305.555961875822
 20
551.8719296281034
 30
0
 42
-0.008692694162548604
  0
VERTEX
  8
1
 10
1305.26903223706
 20
553.2806856365324
 30
0
 42
-0.01003125617253504
  0
VERTEX
  8
1
 10
1305.035272110899
 20
554.6978181594584
 30
0
 42
-0.008947814311827515
  0
VERTEX
  8
1
 10
1304.854463405706
 20
556.1306788034942
 30
0
 42
-0.006951617951734714
  0
VERTEX
  8
1
 10
1304.719245418836
 20
557.5691522679299
 30
0
 42
-0.004955536262422084
  0
VERTEX
  8
1
 10
1304.618220470707
 20
559.0118353476653
 30
0
 42
-0.00296679756915339
  0
VERTEX
  8
1
 10
1304.539990881739
 20
560.4573248376007
 30
0
 42
-0.0009881598653625288
  0
VERTEX
  8
1
 10
1304.473158972351
 20
561.904217532636
 30
0
  0
SEQEND
  8
1
  0
LINE
  8
1
 62
2
 10
1351.922273914411
 20
324.547820396986
 30
0
 11
1352.033385025522
 21
324.672820396986
 31
0
  0
LINE
  8
1
 62
2
 10
1351.922273914411
 20
325.297820396986
 30
0
 11
1351.255607247744
 21
325.297820396986
 31
0
  0
LINE
  8
1
 62
2
 10
1353.588940581078
 20
322.422820396986
 30
0
 11
1354.588940581078
 21
322.422820396986
 31
0
  0
LINE
  8
1
 62
2
 10
1352.477829469967
 20
322.422820396986
 30
0
 11
1353.588940581078
 21
322.422820396986
 31
0
  0
LINE
  8
1
 62
2
 10
1353.588940581078
 20
326.047820396986
 30
0
 11
1353.588940581078
 21
322.422820396986
 31
0
  0
LINE
  8
1
 62
2
 10
1352.8111628033
 20
324.547820396986
 30
0
 11
1354.366718358856
 21
324.547820396986
 31
0
  0
LINE
  8
1
 62
2
 10
1352.144496136633
 20
324.422820396986
 30
0
 11
1352.700051692189
 21
323.797820396986
 31
0
  0
LINE
  8
1
 62
2
 10
1351.922273914411
 20
325.297820396986
 30
0
 11
1351.922273914411
 21
326.047820396986
 31
0
  0
LINE
  8
1
 62
2
 10
1352.477829469967
 20
325.297820396986
 30
0
 11
1351.922273914411
 21
325.297820396986
 31
0
  0
LINE
  8
1
 62
2
 10
1352.033385025522
 20
324.672820396986
 30
0
 11
1352.477829469967
 21
325.297820396986
 31
0
  0
LINE
  8
1
 62
2
 10
1351.477829469967
 20
324.047820396986
 30
0
 11
1351.922273914411
 21
324.547820396986
 31
0
  0
LINE
  8
1
 62
2
 10
1351.033385025522
 20
323.672820396986
 30
0
 11
1351.477829469967
 21
324.047820396986
 31
0
  0
LINE
  8
1
 62
2
 10
1351.922273914411
 20
322.297820396986
 30
0
 11
1351.922273914411
 21
324.547820396986
 31
0
  0
LINE
  8
1
 62
2
 10
1348.8111628033
 20
323.672820396986
 30
0
 11
1347.700051692189
 21
322.297820396986
 31
0
  0
LINE
  8
1
 62
2
 10
1349.8111628033
 20
322.547820396986
 30
0
 11
1349.366718358856
 21
323.047820396986
 31
0
  0
LINE
  8
1
 62
2
 10
1350.144496136633
 20
322.172820396986
 30
0
 11
1349.8111628033
 21
322.547820396986
 31
0
  0
LINE
  8
1
 62
2
 10
1347.366718358856
 20
322.297820396986
 30
0
 11
1349.8111628033
 21
322.547820396986
 31
0
  0
LINE
  8
1
 62
2
 10
1347.588940581078
 20
323.797820396986
 30
0
 11
1350.144496136633
 21
323.797820396986
 31
0
  0
LINE
  8
1
 62
2
 10
1348.033385025522
 20
324.422820396986
 30
0
 11
1349.588940581078
 21
324.422820396986
 31
0
  0
LINE
  8
1
 62
2
 10
1348.8111628033
 20
326.047820396986
 30
0
 11
1350.588940581078
 21
324.172820396986
 31
0
  0
LINE
  8
1
 62
2
 10
1348.8111628033
 20
326.047820396986
 30
0
 11
1347.033385025522
 21
324.172820396986
 31
0
  0
LINE
  8
1
 62
2
 10
1344.033385025522
 20
324.297820396986
 30
0
 11
1343.255607247744
 21
324.297820396986
 31
0
  0
LINE
  8
1
 62
2
 10
1344.033385025522
 20
322.922820396986
 30
0
 11
1344.8111628033
 21
323.172820396986
 31
0
  0
LINE
  8
1
 62
2
 10
1346.255607247744
 20
322.297820396986
 30
0
 11
1346.588940581078
 21
322.672820396986
 31
0
  0
LINE
  8
1
 62
2
 10
1345.8111628033
 20
322.797820396986
 30
0
 11
1346.255607247744
 21
322.297820396986
 31
0
  0
LINE
  8
1
 62
2
 10
1345.366718358856
 20
323.672820396986
 30
0
 11
1345.8111628033
 21
322.797820396986
 31
0
  0
LINE
  8
1
 62
2
 10
1345.144496136633
 20
324.672820396986
 30
0
 11
1345.366718358856
 21
323.672820396986
 31
0
  0
LINE
  8
1
 62
2
 10
1345.033385025522
 20
326.172820396986
 30
0
 11
1345.144496136633
 21
324.672820396986
 31
0
  0
LINE
  8
1
 62
2
 10
1345.700051692189
 20
325.672820396986
 30
0
 11
1345.366718358856
 21
326.047820396986
 31
0
  0
LINE
  8
1
 62
2
 10
1343.033385025522
 20
325.297820396986
 30
0
 11
1346.255607247744
 21
325.297820396986
 31
0
  0
LINE
  8
1
 62
2
 10
1344.033385025522
 20
324.297820396986
 30
0
 11
1344.033385025522
 21
322.922820396986
 31
0
  0
LINE
  8
1
 62
2
 10
1344.8111628033
 20
324.297820396986
 30
0
 11
1344.033385025522
 21
324.297820396986
 31
0
  0
LINE
  8
1
 62
2
 10
1343.255607247744
 20
322.672820396986
 30
0
 11
1344.033385025522
 21
322.922820396986
 31
0
  0
LINE
  8
1
 62
2
 10
1339.8111628033
 20
325.047820396986
 30
0
 11
1339.8111628033
 21
326.172820396986
 31
0
  0
LINE
  8
1
 62
2
 10
1339.8111628033
 20
325.047820396986
 30
0
 11
1339.255607247744
 21
325.047820396986
 31
0
  0
LINE
  8
1
 62
2
 10
1342.033385025522
 20
323.172820396986
 30
0
 11
1342.477829469967
 21
322.297820396986
 31
0
  0
LINE
  8
1
 62
2
 10
1341.477829469967
 20
324.297820396986
 30
0
 11
1342.033385025522
 21
323.172820396986
 31
0
  0
LINE
  8
1
 62
2
 10
1341.144496136633
 20
323.422820396986
 30
0
 11
1341.477829469967
 21
324.297820396986
 31
0
  0
LINE
  8
1
 62
2
 10
1340.700051692189
 20
322.797820396986
 30
0
 11
1341.144496136633
 21
323.422820396986
 31
0
  0
LINE
  8
1
 62
2
 10
1340.366718358856
 20
322.297820396986
 30
0
 11
1340.700051692189
 21
322.797820396986
 31
0
  0
LINE
  8
1
 62
2
 10
1341.477829469967
 20
326.172820396986
 30
0
 11
1341.477829469967
 21
322.172820396986
 31
0
  0
LINE
  8
1
 62
2
 10
1342.477829469967
 20
324.297820396986
 30
0
 11
1340.588940581078
 21
324.297820396986
 31
0
  0
LINE
  8
1
 62
2
 10
1340.922273914411
 20
325.172820396986
 30
0
 11
1342.366718358856
 21
325.172820396986
 31
0
  0
LINE
  8
1
 62
2
 10
1340.922273914411
 20
325.172820396986
 30
0
 11
1341.033385025522
 21
325.797820396986
 31
0
  0
LINE
  8
1
 62
2
 10
1340.588940581078
 20
324.547820396986
 30
0
 11
1340.922273914411
 21
325.172820396986
 31
0
  0
LINE
  8
1
 62
2
 10
1339.8111628033
 20
325.047820396986
 30
0
 11
1340.366718358856
 21
324.047820396986
 31
0
  0
LINE
  8
1
 62
2
 10
1339.144496136633
 20
323.297820396986
 30
0
 11
1339.8111628033
 21
325.047820396986
 31
0
  0
LINE
  8
1
 62
2
 10
1340.366718358856
 20
325.047820396986
 30
0
 11
1339.8111628033
 21
325.047820396986
 31
0
  0
LINE
  8
1
 62
2
 10
1339.8111628033
 20
322.297820396986
 30
0
 11
1339.8111628033
 21
325.047820396986
 31
0
  0
LINE
  8
1
 62
2
 10
1335.366718358856
 20
324.672820396986
 30
0
 11
1335.366718358856
 21
325.297820396986
 31
0
  0
LINE
  8
1
 62
2
 10
1336.477829469967
 20
325.297820396986
 30
0
 11
1336.477829469967
 21
324.672820396986
 31
0
  0
LINE
  8
1
 62
2
 10
1335.366718358856
 20
325.297820396986
 30
0
 11
1335.366718358856
 21
325.922820396986
 31
0
  0
LINE
  8
1
 62
2
 10
1338.255607247744
 20
324.672820396986
 30
0
 11
1338.255607247744
 21
325.297820396986
 31
0
  0
LINE
  8
1
 62
2
 10
1337.144496136633
 20
325.297820396986
 30
0
 11
1337.144496136633
 21
324.672820396986
 31
0
  0
LINE
  8
1
 62
2
 10
1338.255607247744
 20
325.297820396986
 30
0
 11
1338.255607247744
 21
325.922820396986
 31
0
  0
LINE
  8
1
 62
2
 10
1335.366718358856
 20
322.422820396986
 30
0
 11
1335.366718358856
 21
322.297820396986
 31
0
  0
LINE
  8
1
 62
2
 10
1337.144496136633
 20
325.297820396986
 30
0
 11
1338.255607247744
 21
325.297820396986
 31
0
  0
LINE
  8
1
 62
2
 10
1337.144496136633
 20
324.672820396986
 30
0
 11
1338.255607247744
 21
324.672820396986
 31
0
  0
LINE
  8
1
 62
2
 10
1337.144496136633
 20
325.922820396986
 30
0
 11
1337.144496136633
 21
325.297820396986
 31
0
  0
LINE
  8
1
 62
2
 10
1338.255607247744
 20
325.922820396986
 30
0
 11
1337.144496136633
 21
325.922820396986
 31
0
  0
LINE
  8
1
 62
2
 10
1338.255607247744
 20
322.422820396986
 30
0
 11
1338.255607247744
 21
324.672820396986
 31
0
  0
LINE
  8
1
 62
2
 10
1338.144496136633
 20
322.297820396986
 30
0
 11
1338.255607247744
 21
322.422820396986
 31
0
  0
LINE
  8
1
 62
2
 10
1337.8111628033
 20
322.297820396986
 30
0
 11
1338.144496136633
 21
322.297820396986
 31
0
  0
LINE
  8
1
 62
2
 10
1336.477829469967
 20
325.297820396986
 30
0
 11
1335.366718358856
 21
325.297820396986
 31
0
  0
LINE
  8
1
 62
2
 10
1336.477829469967
 20
324.672820396986
 30
0
 11
1335.366718358856
 21
324.672820396986
 31
0
  0
LINE
  8
1
 62
2
 10
1336.477829469967
 20
325.922820396986
 30
0
 11
1336.477829469967
 21
325.297820396986
 31
0
  0
LINE
  8
1
 62
2
 10
1335.366718358856
 20
325.922820396986
 30
0
 11
1336.477829469967
 21
325.922820396986
 31
0
  0
LINE
  8
1
 62
2
 10
1335.366718358856
 20
322.422820396986
 30
0
 11
1335.366718358856
 21
324.672820396986
 31
0
  0
LINE
  8
1
 62
2
 10
1332.8111628033
 20
322.297820396986
 30
0
 11
1334.144496136633
 21
322.297820396986
 31
0
  0
LINE
  8
1
 62
2
 10
1332.8111628033
 20
324.672820396986
 30
0
 11
1333.588940581078
 21
324.672820396986
 31
0
  0
LINE
  8
1
 62
2
 10
1334.144496136633
 20
324.547820396986
 30
0
 11
1334.588940581078
 21
324.172820396986
 31
0
  0
LINE
  8
1
 62
2
 10
1333.366718358856
 20
325.422820396986
 30
0
 11
1334.144496136633
 21
324.547820396986
 31
0
  0
LINE
  8
1
 62
2
 10
1332.8111628033
 20
326.172820396986
 30
0
 11
1333.366718358856
 21
325.422820396986
 31
0
  0
LINE
  8
1
 62
2
 10
1332.255607247744
 20
325.422820396986
 30
0
 11
1332.8111628033
 21
326.172820396986
 31
0
  0
LINE
  8
1
 62
2
 10
1331.477829469967
 20
324.547820396986
 30
0
 11
1332.255607247744
 21
325.422820396986
 31
0
  0
LINE
  8
1
 62
2
 10
1331.033385025522
 20
324.172820396986
 30
0
 11
1331.477829469967
 21
324.547820396986
 31
0
  0
LINE
  8
1
 62
2
 10
1333.366718358856
 20
322.797820396986
 30
0
 11
1333.588940581078
 21
323.422820396986
 31
0
  0
LINE
  8
1
 62
2
 10
1332.033385025522
 20
323.422820396986
 30
0
 11
1332.255607247744
 21
322.797820396986
 31
0
  0
LINE
  8
1
 62
2
 10
1333.922273914411
 20
323.922820396986
 30
0
 11
1331.700051692189
 21
323.922820396986
 31
0
  0
LINE
  8
1
 62
2
 10
1332.033385025522
 20
324.672820396986
 30
0
 11
1332.8111628033
 21
324.672820396986
 31
0
  0
LINE
  8
1
 62
2
 10
1332.8111628033
 20
322.297820396986
 30
0
 11
1332.8111628033
 21
324.672820396986
 31
0
  0
LINE
  8
1
 62
2
 10
1331.366718358856
 20
322.297820396986
 30
0
 11
1332.8111628033
 21
322.297820396986
 31
0
  0
LINE
  8
1
 62
2
 10
1329.8111628033
 20
323.422820396986
 30
0
 11
1330.366718358856
 21
324.172820396986
 31
0
  0
LINE
  8
1
 62
2
 10
1328.922273914411
 20
322.922820396986
 30
0
 11
1329.8111628033
 21
323.422820396986
 31
0
  0
LINE
  8
1
 62
2
 10
1328.922273914411
 20
325.172820396986
 30
0
 11
1328.922273914411
 21
322.922820396986
 31
0
  0
LINE
  8
1
 62
2
 10
1328.033385025522
 20
324.172820396986
 30
0
 11
1328.144496136633
 21
325.172820396986
 31
0
  0
LINE
  8
1
 62
2
 10
1327.8111628033
 20
323.422820396986
 30
0
 11
1328.033385025522
 21
324.172820396986
 31
0
  0
LINE
  8
1
 62
2
 10
1327.477829469967
 20
322.797820396986
 30
0
 11
1327.8111628033
 21
323.422820396986
 31
0
  0
LINE
  8
1
 62
2
 10
1323.700051692189
 20
323.797820396986
 30
0
 11
1323.700051692189
 21
323.047820396986
 31
0
  0
LINE
  8
1
 62
2
 10
1324.922273914411
 20
322.547820396986
 30
0
 11
1325.588940581078
 21
322.672820396986
 31
0
  0
LINE
  8
1
 62
2
 10
1323.8111628033
 20
322.672820396986
 30
0
 11
1324.922273914411
 21
322.547820396986
 31
0
  0
LINE
  8
1
 62
2
 10
1323.700051692189
 20
323.047820396986
 30
0
 11
1323.8111628033
 21
322.672820396986
 31
0
  0
LINE
  8
1
 62
2
 10
1323.700051692189
 20
325.172820396986
 30
0
 11
1323.700051692189
 21
323.797820396986
 31
0
  0
LINE
  8
1
 62
2
 10
1325.8111628033
 20
325.422820396986
 30
0
 11
1326.144496136633
 21
325.047820396986
 31
0
  0
LINE
  8
1
 62
2
 10
1325.922273914411
 20
324.797820396986
 30
0
 11
1325.588940581078
 21
325.172820396986
 31
0
  0
LINE
  8
1
 62
2
 10
1324.700051692189
 20
324.172820396986
 30
0
 11
1325.366718358856
 21
324.547820396986
 31
0
  0
LINE
  8
1
 62
2
 10
1323.700051692189
 20
323.797820396986
 30
0
 11
1324.700051692189
 21
324.172820396986
 31
0
  0
LINE
  8
1
 62
2
 10
1321.255607247744
 20
323.422820396986
 30
0
 11
1321.922273914411
 21
322.672820396986
 31
0
  0
LINE
  8
1
 62
2
 10
1320.700051692189
 20
323.922820396986
 30
0
 11
1321.255607247744
 21
323.422820396986
 31
0
  0
LINE
  8
1
 62
2
 10
1322.033385025522
 20
325.672820396986
 30
0
 11
1322.366718358856
 21
325.297820396986
 31
0
  0
LINE
  8
1
 62
2
 10
1321.8111628033
 20
325.422820396986
 30
0
 11
1322.144496136633
 21
325.047820396986
 31
0
  0
LINE
  8
1
 62
2
 10
1321.366718358856
 20
325.172820396986
 30
0
 11
1319.922273914411
 21
325.172820396986
 31
0
  0
LINE
  8
1
 62
2
 10
1321.033385025522
 20
324.422820396986
 30
0
 11
1321.366718358856
 21
325.172820396986
 31
0
  0
LINE
  8
1
 62
2
 10
1320.255607247744
 20
323.297820396986
 30
0
 11
1321.033385025522
 21
324.422820396986
 31
0
  0
LINE
  8
1
 62
2
 10
1319.477829469967
 20
322.672820396986
 30
0
 11
1320.255607247744
 21
323.297820396986
 31
0
  0
LINE
  8
1
 62
2
 10
1318.144496136633
 20
325.047820396986
 30
0
 11
1317.144496136633
 21
323.922820396986
 31
0
  0
LINE
  8
1
 62
2
 10
1315.588940581078
 20
325.047820396986
 30
0
 11
1318.144496136633
 21
325.047820396986
 31
0
  0
LINE
  8
1
 62
2
 10
1316.8111628033
 20
323.922820396986
 30
0
 11
1316.922273914411
 21
324.547820396986
 31
0
  0
LINE
  8
1
 62
2
 10
1316.588940581078
 20
323.172820396986
 30
0
 11
1316.8111628033
 21
323.922820396986
 31
0
  0
LINE
  8
1
 62
2
 10
1316.144496136633
 20
322.422820396986
 30
0
 11
1316.588940581078
 21
323.172820396986
 31
0
  0
LINE
  8
1
 62
2
 10
1262.122812108877
 20
390.6641154472805
 30
0
 11
1263.570184183395
 21
387.9161552937439
 31
0
  0
LINE
  8
1
 62
2
 10
1260.942743121366
 20
389.5722725580348
 30
0
 11
1263.570184183395
 21
387.9161552937439
 31
0
  0
LINE
  8
1
 62
2
 10
1251.27086426793
 20
401.2093187540511
 30
0
 11
1263.570184183395
 21
387.9161552937439
 31
0
  0
LINE
  8
1
 62
2
 10
1303.12039356849
 20
401.2093187540511
 30
0
 11
1251.27086426793
 21
401.2093187540511
 31
0
  0
LINE
  8
1
 62
2
 10
1315.61599830053
 20
355.2898580025491
 30
0
 11
1318.473158972351
 21
356.5075623274651
 31
0
  0
LINE
  8
1
 62
2
 10
1316.607637410318
 20
354.0244191118791
 30
0
 11
1318.473158972351
 21
356.5075623274651
 31
0
  0
LINE
  8
1
 62
2
 10
1308.02645431526
 20
348.3211844764626
 30
0
 11
1318.473158972351
 21
356.5075623274651
 31
0
  0
LINE
  8
1
 62
2
 10
1282.926804736388
 20
348.3211844764626
 30
0
 11
1308.02645431526
 21
348.3211844764626
 31
0
  0
LINE
  8
1
 62
2
 10
1360.369633004664
 20
350.1541847975444
 30
0
 11
1359.73532281201
 21
353.1945501550328
 31
0
  0
LINE
  8
1
 62
2
 10
1361.804834231472
 20
350.8786716149887
 30
0
 11
1359.73532281201
 21
353.1945501550328
 31
0
  0
LINE
  8
1
 62
2
 10
1365.070333755079
 20
342.6259461912828
 30
0
 11
1359.73532281201
 21
353.1945501550328
 31
0
  0
LINE
  8
1
 62
2
 10
1390.50881686569
 20
342.6259461912828
 30
0
 11
1365.070333755079
 21
342.6259461912828
 31
0
  0
LINE
  8
0
 62
7
 10
1346.091206920769
 20
470.8969117549925
 30
0
 11
1346.566524340897
 21
473.5929306017517
 31
0
  0
LINE
  8
0
 62
7
 10
1345.017097592268
 20
470.8969117549925
 30
0
 11
1346.091206920769
 21
470.8969117549925
 31
0
  0
LINE
  8
0
 62
7
 10
1345.442602349876
 20
473.3104856147876
 30
0
 11
1345.017097592268
 21
470.8969117549925
 31
0
  0
LINE
  8
0
 62
7
 10
1339.487618121151
 20
473.1190344916753
 30
0
 11
1339.475138749376
 21
473.1064169610036
 31
0
  0
LINE
  8
0
 62
7
 10
1338.227396060466
 20
473.1190344916753
 30
0
 11
1339.487618121151
 21
473.1190344916753
 31
0
  0
LINE
  8
0
 62
7
 10
1338.384044251672
 20
474.0079667552251
 30
0
 11
1338.227396060466
 21
473.1190344916753
 31
0
  0
LINE
  8
0
 62
7
 10
1340.995135637451
 20
474.0079667552251
 30
0
 11
1338.384044251672
 21
474.0079667552251
 31
0
  0
LINE
  8
0
 62
7
 10
1340.865872325258
 20
473.3414061645561
 30
0
 11
1340.995135637451
 21
474.0079667552251
 31
0
  0
LINE
  8
0
 62
7
 10
1340.091384335593
 20
472.5283541262982
 30
0
 11
1340.865872325258
 21
473.3414061645561
 31
0
  0
LINE
  8
0
 62
7
 10
1339.335337766413
 20
471.7857052806021
 30
0
 11
1339.341477498514
 21
471.7984011754954
 31
0
  0
LINE
  8
0
 62
7
 10
1340.651785311527
 20
471.7857052806021
 30
0
 11
1339.335337766413
 21
471.7857052806021
 31
0
  0
LINE
  8
0
 62
7
 10
1340.495102464124
 20
470.8969117549925
 30
0
 11
1340.651785311527
 21
471.7857052806021
 31
0
  0
LINE
  8
0
 62
7
 10
1337.810020245091
 20
470.8969117549925
 30
0
 11
1340.495102464124
 21
470.8969117549925
 31
0
  0
LINE
  8
0
 62
7
 10
1337.931570695262
 20
471.5864547114809
 30
0
 11
1337.810020245091
 21
470.8969117549925
 31
0
  0
LINE
  8
0
 62
7
 10
1338.714539621348
 20
472.3766517088536
 30
0
 11
1337.931570695262
 21
471.5864547114809
 31
0
  0
LINE
  8
0
 62
7
 10
1342.583910351952
 20
473.1191038247389
 30
0
 11
1342.572264211705
 21
473.1191038247389
 31
0
  0
LINE
  8
0
 62
7
 10
1343.068968491274
 20
474.0041189902246
 30
0
 11
1342.583910351952
 21
473.1191038247389
 31
0
  0
LINE
  8
0
 62
7
 10
1341.977735083131
 20
475.5634943374546
 30
0
 11
1341.335040859511
 21
472.2467410643142
 31
0
  0
LINE
  8
0
 62
7
 10
1343.051844206279
 20
475.5634943374546
 30
0
 11
1341.977735083131
 21
475.5634943374546
 31
0
  0
LINE
  8
0
 62
7
 10
1342.614243013586
 20
473.3053285531337
 30
0
 11
1343.051844206279
 21
475.5634943374546
 31
0
  0
LINE
  8
0
 62
7
 10
1335.98425844949
 20
471.7857745931371
 30
0
 11
1335.995073804611
 21
471.7857746601549
 31
0
  0
LINE
  8
0
 62
7
 10
1335.499009776385
 20
470.9007247771584
 30
0
 11
1335.98425844949
 21
471.7857745931371
 31
0
  0
LINE
  8
0
 62
7
 10
1337.235190501678
 20
472.6682593684118
 30
0
 11
1337.237712692706
 21
472.6804113768713
 31
0
  0
LINE
  8
0
 62
7
 10
1335.87305535648
 20
470.8969117289798
 30
0
 11
1336.965744614855
 21
470.8969117549925
 31
0
  0
LINE
  8
0
 62
7
 10
1348.817717362898
 20
475.5634943374546
 30
0
 11
1347.743503901439
 21
475.5634943374546
 31
0
  0
LINE
  8
0
 62
7
 10
1347.994820466761
 20
470.8969117549925
 30
0
 11
1348.817717362898
 21
475.5634943374546
 31
0
  0
LINE
  8
0
 62
7
 10
1346.920780779317
 20
470.8969117549925
 30
0
 11
1347.994820466761
 21
470.8969117549925
 31
0
  0
LINE
  8
0
 62
7
 10
1347.743503901439
 20
475.5634943374546
 30
0
 11
1346.920780779317
 21
470.8969117549925
 31
0
  0
LINE
  8
1
 62
7
 10
1328.723158972351
 20
476.2655758654716
 30
0
 11
1328.723158972351
 21
470.1945080536062
 31
0
  0
LINE
  8
1
 62
7
 10
1329.223158972351
 20
469.6945080536062
 30
0
 11
1353.723158972351
 21
469.6945080536062
 31
0
  0
LINE
  8
1
 62
7
 10
1354.223158972351
 20
470.1945080536062
 30
0
 11
1354.223158972351
 21
476.2655758654716
 31
0
  0
LINE
  8
1
 62
7
 10
1353.723158972351
 20
476.7655758654716
 30
0
 11
1329.223158972351
 21
476.7655758654716
 31
0
  0
LINE
  8
0
 62
7
 10
1346.09120692077
 20
525.2505590035149
 30
0
 11
1346.566524340898
 21
527.946577850274
 31
0
  0
LINE
  8
0
 62
7
 10
1345.017097592268
 20
525.2505590035149
 30
0
 11
1346.09120692077
 21
525.2505590035149
 31
0
  0
LINE
  8
0
 62
7
 10
1345.442602349877
 20
527.6641328633101
 30
0
 11
1345.017097592268
 21
525.2505590035149
 31
0
  0
LINE
  8
0
 62
7
 10
1339.487618121152
 20
527.4726817401978
 30
0
 11
1339.475138749376
 21
527.460064209526
 31
0
  0
LINE
  8
0
 62
7
 10
1338.227396060466
 20
527.4726817401978
 30
0
 11
1339.487618121152
 21
527.4726817401978
 31
0
  0
LINE
  8
0
 62
7
 10
1338.384044251673
 20
528.3616140037474
 30
0
 11
1338.227396060466
 21
527.4726817401978
 31
0
  0
LINE
  8
0
 62
7
 10
1340.995135637452
 20
528.3616140037474
 30
0
 11
1338.384044251673
 21
528.3616140037474
 31
0
  0
LINE
  8
0
 62
7
 10
1340.865872325258
 20
527.6950534130784
 30
0
 11
1340.995135637452
 21
528.3616140037474
 31
0
  0
LINE
  8
0
 62
7
 10
1340.091384335594
 20
526.8820013748205
 30
0
 11
1340.865872325258
 21
527.6950534130784
 31
0
  0
LINE
  8
0
 62
7
 10
1339.335337766414
 20
526.1393525291243
 30
0
 11
1339.341477498515
 21
526.1520484240178
 31
0
  0
LINE
  8
0
 62
7
 10
1340.651785311528
 20
526.1393525291243
 30
0
 11
1339.335337766414
 21
526.1393525291243
 31
0
  0
LINE
  8
0
 62
7
 10
1340.495102464124
 20
525.2505590035149
 30
0
 11
1340.651785311528
 21
526.1393525291243
 31
0
  0
LINE
  8
0
 62
7
 10
1337.810020245091
 20
525.2505590035149
 30
0
 11
1340.495102464124
 21
525.2505590035149
 31
0
  0
LINE
  8
0
 62
7
 10
1337.931570695263
 20
525.9401019600032
 30
0
 11
1337.810020245091
 21
525.2505590035149
 31
0
  0
LINE
  8
0
 62
7
 10
1338.714539621349
 20
526.730298957376
 30
0
 11
1337.931570695263
 21
525.9401019600032
 31
0
  0
LINE
  8
0
 62
7
 10
1342.583910351953
 20
527.4727510732611
 30
0
 11
1342.572264211706
 21
527.4727510732611
 31
0
  0
LINE
  8
0
 62
7
 10
1343.068968491275
 20
528.3577662387471
 30
0
 11
1342.583910351953
 21
527.4727510732611
 31
0
  0
LINE
  8
0
 62
7
 10
1341.977735083131
 20
529.9171415859769
 30
0
 11
1341.335040859512
 21
526.6003883128365
 31
0
  0
LINE
  8
0
 62
7
 10
1343.051844206279
 20
529.9171415859769
 30
0
 11
1341.977735083131
 21
529.9171415859769
 31
0
  0
LINE
  8
0
 62
7
 10
1342.614243013587
 20
527.6589758016563
 30
0
 11
1343.051844206279
 21
529.9171415859769
 31
0
  0
LINE
  8
0
 62
7
 10
1335.98425844949
 20
526.1394218416594
 30
0
 11
1335.995073804611
 21
526.1394219086772
 31
0
  0
LINE
  8
0
 62
7
 10
1335.499009776386
 20
525.2543720256807
 30
0
 11
1335.98425844949
 21
526.1394218416594
 31
0
  0
LINE
  8
0
 62
7
 10
1337.235190501679
 20
527.0219066169342
 30
0
 11
1337.237712692706
 21
527.0340586253938
 31
0
  0
LINE
  8
0
 62
7
 10
1335.87305535648
 20
525.2505589775022
 30
0
 11
1336.965744614856
 21
525.2505590035149
 31
0
  0
LINE
  8
0
 62
7
 10
1348.817717362899
 20
529.9171415859769
 30
0
 11
1347.743503901439
 21
529.9171415859769
 31
0
  0
LINE
  8
0
 62
7
 10
1347.994820466762
 20
525.2505590035149
 30
0
 11
1348.817717362899
 21
529.9171415859769
 31
0
  0
LINE
  8
0
 62
7
 10
1346.920780779318
 20
525.2505590035149
 30
0
 11
1347.994820466762
 21
525.2505590035149
 31
0
  0
LINE
  8
0
 62
7
 10
1347.743503901439
 20
529.9171415859769
 30
0
 11
1346.920780779318
 21
525.2505590035149
 31
0
  0
LINE
  8
1
 62
7
 10
1328.723158972351
 20
530.6192231139941
 30
0
 11
1328.723158972351
 21
524.5481553021285
 31
0
  0
LINE
  8
1
 62
7
 10
1329.223158972351
 20
524.0481553021285
 30
0
 11
1353.723158972351
 21
524.0481553021285
 31
0
  0
LINE
  8
1
 62
7
 10
1354.223158972351
 20
524.5481553021285
 30
0
 11
1354.223158972351
 21
530.6192231139941
 31
0
  0
LINE
  8
1
 62
7
 10
1353.723158972351
 20
531.1192231139941
 30
0
 11
1329.223158972351
 21
531.1192231139941
 31
0
  0
LINE
  8
1
 62
7
 10
1371.473158972351
 20
435.645656548344
 30
0
 11
1371.473158972351
 21
437.645656548344
 31
0
  0
LINE
  8
1
 62
7
 10
1338.473158972351
 20
413.6456565483441
 30
0
 11
1338.473158972351
 21
423.6456565483441
 31
0
  0
LINE
  8
1
 62
7
 10
1343.473158972351
 20
412.6456565483441
 30
0
 11
1339.473158972351
 21
412.6456565483441
 31
0
  0
LINE
  8
1
 62
7
 10
1344.473158972351
 20
423.6456565483441
 30
0
 11
1344.473158972351
 21
413.6456565483441
 31
0
  0
LINE
  8
1
 62
7
 10
1339.473158972351
 20
424.6456565483441
 30
0
 11
1343.473158972351
 21
424.6456565483441
 31
0
  0
LINE
  8
1
 62
7
 10
1297.973158972351
 20
424.6456565483441
 30
0
 11
1302.973158972351
 21
424.6456565483441
 31
0
  0
LINE
  8
1
 62
7
 10
1296.973158972351
 20
413.6456565483441
 30
0
 11
1296.973158972351
 21
423.6456565483441
 31
0
  0
LINE
  8
1
 62
7
 10
1302.973158972351
 20
412.6456565483441
 30
0
 11
1297.973158972351
 21
412.6456565483441
 31
0
  0
LINE
  8
1
 62
7
 10
1302.973158972351
 20
411.6456565483441
 30
0
 11
1302.973158972351
 21
412.6456565483441
 31
0
  0
LINE
  8
1
 62
7
 10
1303.973158972351
 20
410.6456565483443
 30
0
 11
1302.973158972351
 21
411.6456565483441
 31
0
  0
LINE
  8
1
 62
7
 10
1302.973158972351
 20
412.6456565483441
 30
0
 11
1302.973158972351
 21
424.6456565483441
 31
0
  0
LINE
  8
1
 62
7
 10
1302.973158972351
 20
424.6456565483441
 30
0
 11
1302.973158972351
 21
425.6456565483441
 31
0
  0
LINE
  8
1
 62
7
 10
1304.473158972351
 20
427.1456565483441
 30
0
 11
1304.473158972351
 21
434.6456565483441
 31
0
  0
LINE
  8
1
 62
7
 10
1304.473158972351
 20
434.6456565483441
 30
0
 11
1305.473158972351
 21
435.6456565483441
 31
0
  0
LINE
  8
1
 62
7
 10
1377.473158972351
 20
435.6456565483441
 30
0
 11
1378.473158972351
 21
434.6456565483441
 31
0
  0
LINE
  8
1
 62
7
 10
1305.473158972351
 20
435.6456565483441
 30
0
 11
1377.473158972351
 21
435.6456565483441
 31
0
  0
LINE
  8
1
 62
7
 10
1378.473158972351
 20
434.6456565483441
 30
0
 11
1378.473158972351
 21
427.1456565483441
 31
0
  0
LINE
  8
1
 62
7
 10
1379.973158972351
 20
425.6456565483441
 30
0
 11
1379.973158972351
 21
424.6456565483441
 31
0
  0
LINE
  8
1
 62
7
 10
1378.973158972351
 20
410.6456565483443
 30
0
 11
1303.973158972351
 21
410.6456565483443
 31
0
  0
LINE
  8
1
 62
7
 10
1379.973158972351
 20
424.6456565483441
 30
0
 11
1384.973158972351
 21
424.6456565483441
 31
0
  0
LINE
  8
1
 62
7
 10
1379.973158972351
 20
424.6456565483441
 30
0
 11
1379.973158972351
 21
412.6456565483441
 31
0
  0
LINE
  8
1
 62
7
 10
1385.973158972351
 20
423.6456565483441
 30
0
 11
1385.973158972351
 21
413.6456565483441
 31
0
  0
LINE
  8
1
 62
7
 10
1384.973158972351
 20
412.6456565483441
 30
0
 11
1379.973158972351
 21
412.6456565483441
 31
0
  0
LINE
  8
1
 62
7
 10
1379.973158972351
 20
412.6456565483441
 30
0
 11
1379.973158972351
 21
411.6456565483441
 31
0
  0
LINE
  8
1
 62
7
 10
1379.973158972351
 20
411.6456565483441
 30
0
 11
1378.973158972351
 21
410.6456565483443
 31
0
  0
LINE
  8
1
 62
7
 10
1378.973158972351
 20
426.6456565483441
 30
0
 11
1303.973158972351
 21
426.6456565483441
 31
0
  0
LINE
  8
1
 62
7
 10
1304.473158972351
 20
434.6456565483441
 30
0
 11
1378.473158972351
 21
434.6456565483441
 31
0
  0
LINE
  8
1
 62
7
 10
1342.973158972351
 20
351.695655293744
 30
0
 11
1341.973158972351
 21
351.695655293744
 31
0
  0
LINE
  8
1
 62
7
 10
1345.973158972351
 20
351.695655293744
 30
0
 11
1342.973158972351
 21
351.695655293744
 31
0
  0
LINE
  8
1
 62
7
 10
1340.973158972351
 20
351.695655293744
 30
0
 11
1339.973158972351
 21
351.695655293744
 31
0
  0
LINE
  8
1
 62
7
 10
1339.973158972351
 20
351.695655293744
 30
0
 11
1336.973158972351
 21
351.695655293744
 31
0
  0
LINE
  8
1
 62
7
 10
1338.973158972351
 20
363.195655293744
 30
0
 11
1343.973158972351
 21
363.195655293744
 31
0
  0
LINE
  8
1
 62
7
 10
1327.973158972351
 20
363.195655293744
 30
0
 11
1338.973158972351
 21
363.195655293744
 31
0
  0
LINE
  8
1
 62
7
 10
1342.973158972351
 20
362.195655293744
 30
0
 11
1342.973158972351
 21
352.695655293744
 31
0
  0
LINE
  8
1
 62
7
 10
1339.973158972351
 20
362.195655293744
 30
0
 11
1339.973158972351
 21
352.695655293744
 31
0
  0
LINE
  8
1
 62
7
 10
1343.973158972351
 20
363.195655293744
 30
0
 11
1354.973158972351
 21
363.195655293744
 31
0
  0
LINE
  8
1
 62
2
 10
1269.97315897235
 20
362.475155293744
 30
0
 11
1259.693658972351
 21
362.475155293744
 31
0
  0
LINE
  8
1
 62
2
 10
1259.693658972351
 20
386.9161552937439
 30
0
 11
1269.97315897235
 21
386.9161552937439
 31
0
  0
LINE
  8
1
 62
2
 10
1423.252658972351
 20
362.475155293744
 30
0
 11
1412.973158972351
 21
362.475155293744
 31
0
  0
LINE
  8
1
 62
2
 10
1412.973158972351
 20
386.9161552937439
 30
0
 11
1423.252658972351
 21
386.9161552937439
 31
0
  0
LINE
  8
1
 62
2
 10
1306.473158972351
 20
405.695655293744
 30
0
 11
1306.473158972351
 21
410.6456565483443
 31
0
  0
LINE
  8
1
 62
2
 10
1376.473158972351
 20
410.6456565483443
 30
0
 11
1376.473158972351
 21
405.695655293744
 31
0
  0
LINE
  8
1
 62
7
 10
1309.891668918551
 20
363.195655293744
 30
0
 11
1309.109927557083
 21
364.5616112677556
 31
0
  0
LINE
  8
1
 62
7
 10
1373.020959609161
 20
363.195655293744
 30
0
 11
1373.866125295222
 21
364.6800324042908
 31
0
  0
LINE
  8
1
 62
7
 10
1358.473158972351
 20
376.695655293744
 30
0
 11
1351.473158972351
 21
380.195655293744
 31
0
  0
LINE
  8
1
 62
7
 10
1351.473158972351
 20
380.195655293744
 30
0
 11
1351.473158972351
 21
377.695655293744
 31
0
  0
LINE
  8
1
 62
7
 10
1324.473158972351
 20
377.695655293744
 30
0
 11
1324.473158972351
 21
375.695655293744
 31
0
  0
LINE
  8
1
 62
7
 10
1351.473158972351
 20
375.695655293744
 30
0
 11
1351.473158972351
 21
373.195655293744
 31
0
  0
LINE
  8
1
 62
7
 10
1351.473158972351
 20
373.195655293744
 30
0
 11
1358.473158972351
 21
376.695655293744
 31
0
  0
LINE
  8
1
 62
7
 10
1342.473158972351
 20
380.195655293744
 30
0
 11
1324.473158972351
 21
380.195655293744
 31
0
  0
LINE
  8
1
 62
7
 10
1324.473158972351
 20
377.695655293744
 30
0
 11
1351.473158972351
 21
377.695655293744
 31
0
  0
LINE
  8
1
 62
7
 10
1324.473158972351
 20
375.695655293744
 30
0
 11
1351.473158972351
 21
375.695655293744
 31
0
  0
LINE
  8
1
 62
7
 10
1324.473158972351
 20
373.195655293744
 30
0
 11
1342.473158972351
 21
373.195655293744
 31
0
  0
LINE
  8
1
 62
7
 10
1316.473158972351
 20
351.695655293744
 30
0
 11
1309.891668918551
 21
363.195655293744
 31
0
  0
LINE
  8
1
 62
7
 10
1271.973158972351
 20
365.945655293744
 30
0
 11
1306.723158972351
 21
365.945655293744
 31
0
  0
LINE
  8
1
 62
7
 10
1271.973158972351
 20
383.445655293744
 30
0
 11
1307.473158972351
 21
383.445655293744
 31
0
  0
LINE
  8
1
 62
7
 10
1307.473158972351
 20
405.695655293744
 30
0
 11
1305.473158972351
 21
405.695655293744
 31
0
  0
LINE
  8
1
 62
7
 10
1309.473158972351
 20
385.445655293744
 30
0
 11
1309.473158972351
 21
403.695655293744
 31
0
  0
LINE
  8
1
 62
7
 10
1377.473158972351
 20
405.695655293744
 30
0
 11
1375.473158972351
 21
405.695655293744
 31
0
  0
LINE
  8
1
 62
7
 10
1373.020959609161
 20
363.195655293744
 30
0
 11
1354.973158972351
 21
363.195655293744
 31
0
  0
LINE
  8
1
 62
7
 10
1366.473158972351
 20
351.695655293744
 30
0
 11
1373.020959609161
 21
363.195655293744
 31
0
  0
LINE
  8
1
 62
7
 10
1373.473158972351
 20
403.695655293744
 30
0
 11
1373.473158972351
 21
385.195655293744
 31
0
  0
LINE
  8
1
 62
7
 10
1260.693658972351
 20
361.475155293744
 30
0
 11
1258.973158972351
 21
363.195655293744
 31
0
  0
LINE
  8
1
 62
7
 10
1327.973158972351
 20
363.195655293744
 30
0
 11
1309.891668918551
 21
363.195655293744
 31
0
  0
LINE
  8
1
 62
7
 10
1316.473158972351
 20
351.695655293744
 30
0
 11
1336.973158972351
 21
351.695655293744
 31
0
  0
LINE
  8
1
 62
7
 10
1258.973158972351
 20
386.195655293744
 30
0
 11
1260.693658972351
 21
387.9161552937439
 31
0
  0
LINE
  8
1
 62
7
 10
1332.973158972351
 20
355.695655293744
 30
0
 11
1332.973158972351
 21
358.195655293744
 31
0
  0
LINE
  8
1
 62
7
 10
1269.973158972351
 20
363.945655293744
 30
0
 11
1269.973158972351
 21
361.475155293744
 31
0
  0
LINE
  8
1
 62
7
 10
1269.973158972351
 20
361.475155293744
 30
0
 11
1260.693658972351
 21
361.475155293744
 31
0
  0
LINE
  8
1
 62
7
 10
1269.973158972351
 20
385.445655293744
 30
0
 11
1269.973158972351
 21
387.9161552937439
 31
0
  0
LINE
  8
1
 62
7
 10
1269.973158972351
 20
387.9161552937439
 30
0
 11
1263.570184183395
 21
387.9161552937439
 31
0
  0
LINE
  8
1
 62
7
 10
1423.973158972351
 20
363.195655293744
 30
0
 11
1422.252658972351
 21
361.475155293744
 31
0
  0
LINE
  8
1
 62
7
 10
1345.973158972351
 20
351.695655293744
 30
0
 11
1366.473158972351
 21
351.695655293744
 31
0
  0
LINE
  8
1
 62
7
 10
1422.252658972351
 20
387.9161552937439
 30
0
 11
1423.973158972351
 21
386.195655293744
 31
0
  0
LINE
  8
1
 62
7
 10
1349.973158972351
 20
358.195655293744
 30
0
 11
1349.973158972351
 21
355.695655293744
 31
0
  0
LINE
  8
1
 62
7
 10
1341.973158972351
 20
351.695655293744
 30
0
 11
1340.973158972351
 21
351.695655293744
 31
0
  0
LINE
  8
1
 62
7
 10
1410.973158972351
 20
366.195655293744
 30
0
 11
1376.473158972351
 21
366.195655293744
 31
0
  0
LINE
  8
1
 62
7
 10
1412.973158972351
 20
361.475155293744
 30
0
 11
1412.973158972351
 21
364.195655293744
 31
0
  0
LINE
  8
1
 62
7
 10
1422.252658972351
 20
361.475155293744
 30
0
 11
1412.973158972351
 21
361.475155293744
 31
0
  0
LINE
  8
1
 62
7
 10
1410.973158972351
 20
383.195655293744
 30
0
 11
1375.473158972351
 21
383.195655293744
 31
0
  0
LINE
  8
1
 62
7
 10
1412.973158972351
 20
387.9161552937439
 30
0
 11
1412.973158972351
 21
385.195655293744
 31
0
  0
LINE
  8
1
 62
7
 10
1422.252658972351
 20
387.9161552937439
 30
0
 11
1412.973158972351
 21
387.9161552937439
 31
0
  0
LINE
  8
1
 62
7
 10
1324.473158972351
 20
380.195655293744
 30
0
 11
1325.901730400922
 21
377.695655293744
 31
0
  0
LINE
  8
1
 62
7
 10
1342.473158972351
 20
373.195655293744
 30
0
 11
1343.901730400922
 21
375.695655293744
 31
0
  0
LINE
  8
1
 62
7
 10
1343.901730400922
 20
377.695655293744
 30
0
 11
1342.473158972351
 21
380.195655293744
 31
0
  0
LINE
  8
1
 62
7
 10
1325.901730400922
 20
375.695655293744
 30
0
 11
1324.473158972351
 21
373.195655293744
 31
0
  0
LINE
  8
1
 62
7
 10
1263.570184183395
 20
387.9161552937439
 30
0
 11
1260.693658972351
 21
387.9161552937439
 31
0
  0
LINE
  8
1
 62
7
 10
1423.973158972351
 20
363.195655293744
 30
0
 11
1423.973158972351
 21
386.195655293744
 31
0
  0
LINE
  8
1
 62
7
 10
1258.973158972351
 20
363.195655293744
 30
0
 11
1258.973158972351
 21
386.195655293744
 31
0
  0
LINE
  8
1
 62
7
 10
1377.473158972351
 20
405.695655293744
 30
0
 11
1377.473158972351
 21
410.6456565483443
 31
0
  0
LINE
  8
1
 62
7
 10
1348.422124203867
 20
391.9109657242893
 30
0
 11
1348.422124203867
 21
386.695655293744
 31
0
  0
LINE
  8
1
 62
7
 10
1348.422124203867
 20
386.695655293744
 30
0
 11
1349.413618409119
 21
386.695655293744
 31
0
  0
LINE
  8
1
 62
7
 10
1349.413618409119
 20
386.695655293744
 30
0
 11
1349.413618409119
 21
391.9109657242893
 31
0
  0
LINE
  8
1
 62
7
 10
1345.84423927021
 20
391.9109657242893
 30
0
 11
1345.84423927021
 21
386.695655293744
 31
0
  0
LINE
  8
1
 62
7
 10
1345.84423927021
 20
386.695655293744
 30
0
 11
1346.835733475462
 21
386.695655293744
 31
0
  0
LINE
  8
1
 62
7
 10
1346.835733475462
 20
386.695655293744
 30
0
 11
1346.835733475462
 21
391.9109657242893
 31
0
  0
LINE
  8
1
 62
7
 10
1343.266354336553
 20
391.9109657242893
 30
0
 11
1343.266354336553
 21
386.695655293744
 31
0
  0
LINE
  8
1
 62
7
 10
1343.266354336553
 20
386.695655293744
 30
0
 11
1344.257848541805
 21
386.695655293744
 31
0
  0
LINE
  8
1
 62
7
 10
1344.257848541805
 20
386.695655293744
 30
0
 11
1344.257848541805
 21
391.9109657242893
 31
0
  0
LINE
  8
1
 62
7
 10
1342.473158972351
 20
393.695655293744
 30
0
 11
1342.473158972351
 21
392.7041610884914
 31
0
  0
LINE
  8
1
 62
7
 10
1357.423826649683
 20
391.9109657242893
 30
0
 11
1357.423826649683
 21
386.695655293744
 31
0
  0
LINE
  8
1
 62
7
 10
1357.423826649683
 20
386.695655293744
 30
0
 11
1358.415320854935
 21
386.695655293744
 31
0
  0
LINE
  8
1
 62
7
 10
1358.415320854935
 20
386.695655293744
 30
0
 11
1358.415320854935
 21
391.9109657242893
 31
0
  0
LINE
  8
1
 62
7
 10
1354.845941716026
 20
391.9109657242893
 30
0
 11
1354.845941716026
 21
386.695655293744
 31
0
  0
LINE
  8
1
 62
7
 10
1354.845941716026
 20
386.695655293744
 30
0
 11
1355.837435921278
 21
386.695655293744
 31
0
  0
LINE
  8
1
 62
7
 10
1355.837435921278
 20
386.695655293744
 30
0
 11
1355.837435921278
 21
391.9109657242893
 31
0
  0
LINE
  8
1
 62
7
 10
1352.268056782369
 20
391.9109657242893
 30
0
 11
1352.268056782369
 21
386.695655293744
 31
0
  0
LINE
  8
1
 62
7
 10
1352.268056782369
 20
386.695655293744
 30
0
 11
1353.259550987621
 21
386.695655293744
 31
0
  0
LINE
  8
1
 62
7
 10
1353.259550987621
 20
386.695655293744
 30
0
 11
1353.259550987621
 21
391.9109657242893
 31
0
  0
LINE
  8
1
 62
7
 10
1351.474861418167
 20
393.695655293744
 30
0
 11
1351.474861418167
 21
392.7041610884914
 31
0
  0
LINE
  8
1
 62
7
 10
1328.77549139408
 20
386.679703699071
 30
0
 11
1328.77549139408
 21
396.679703699071
 31
0
  0
LINE
  8
1
 62
7
 10
1328.77549139408
 20
396.679703699071
 30
0
 11
1327.62549139408
 21
396.679703699071
 31
0
  0
LINE
  8
1
 62
7
 10
1327.62549139408
 20
396.679703699071
 30
0
 11
1327.48174139408
 21
396.304703699071
 31
0
  0
LINE
  8
1
 62
7
 10
1327.48174139408
 20
396.304703699071
 30
0
 11
1327.05049139408
 21
395.804703699071
 31
0
  0
LINE
  8
1
 62
7
 10
1327.05049139408
 20
395.804703699071
 30
0
 11
1326.61924139408
 21
395.429703699071
 31
0
  0
LINE
  8
1
 62
7
 10
1326.61924139408
 20
395.429703699071
 30
0
 11
1326.04424139408
 21
395.179703699071
 31
0
  0
LINE
  8
1
 62
7
 10
1326.04424139408
 20
395.179703699071
 30
0
 11
1325.61299139408
 21
395.054703699071
 31
0
  0
LINE
  8
1
 62
7
 10
1325.61299139408
 20
395.054703699071
 30
0
 11
1324.89424139408
 21
394.929703699071
 31
0
  0
LINE
  8
1
 62
7
 10
1324.89424139408
 20
394.929703699071
 30
0
 11
1324.60674139408
 21
394.929703699071
 31
0
  0
LINE
  8
1
 62
7
 10
1324.60674139408
 20
394.929703699071
 30
0
 11
1324.60674139408
 21
393.929703699071
 31
0
  0
LINE
  8
1
 62
7
 10
1324.60674139408
 20
393.929703699071
 30
0
 11
1327.33799139408
 21
393.929703699071
 31
0
  0
LINE
  8
1
 62
7
 10
1327.33799139408
 20
393.929703699071
 30
0
 11
1327.33799139408
 21
386.679703699071
 31
0
  0
LINE
  8
1
 62
7
 10
1327.33799139408
 20
386.679703699071
 30
0
 11
1328.77549139408
 21
386.679703699071
 31
0
  0
LINE
  8
1
 62
7
 10
1336.96924139408
 20
387.304703699071
 30
0
 11
1336.53799139408
 21
387.054703699071
 31
0
  0
LINE
  8
1
 62
7
 10
1336.53799139408
 20
387.054703699071
 30
0
 11
1335.81924139408
 21
386.804703699071
 31
0
  0
LINE
  8
1
 62
7
 10
1335.81924139408
 20
386.804703699071
 30
0
 11
1335.10049139408
 21
386.679703699071
 31
0
  0
LINE
  8
1
 62
7
 10
1335.10049139408
 20
386.679703699071
 30
0
 11
1334.38174139408
 21
386.679703699071
 31
0
  0
LINE
  8
1
 62
7
 10
1334.38174139408
 20
386.679703699071
 30
0
 11
1333.66299139408
 21
386.804703699071
 31
0
  0
LINE
  8
1
 62
7
 10
1333.66299139408
 20
386.804703699071
 30
0
 11
1332.94424139408
 21
387.054703699071
 31
0
  0
LINE
  8
1
 62
7
 10
1332.94424139408
 20
387.054703699071
 30
0
 11
1332.51299139408
 21
387.304703699071
 31
0
  0
LINE
  8
1
 62
7
 10
1332.51299139408
 20
387.304703699071
 30
0
 11
1332.08174139408
 21
387.679703699071
 31
0
  0
LINE
  8
1
 62
7
 10
1332.08174139408
 20
387.679703699071
 30
0
 11
1331.65049139408
 21
388.179703699071
 31
0
  0
LINE
  8
1
 62
7
 10
1331.65049139408
 20
388.179703699071
 30
0
 11
1331.36299139408
 21
388.679703699071
 31
0
  0
LINE
  8
1
 62
7
 10
1331.36299139408
 20
388.679703699071
 30
0
 11
1331.07549139408
 21
389.429703699071
 31
0
  0
LINE
  8
1
 62
7
 10
1331.07549139408
 20
389.429703699071
 30
0
 11
1332.51299139408
 21
389.554703699071
 31
0
  0
LINE
  8
1
 62
7
 10
1332.51299139408
 20
389.554703699071
 30
0
 11
1332.80049139408
 21
388.929703699071
 31
0
  0
LINE
  8
1
 62
7
 10
1332.80049139408
 20
388.929703699071
 30
0
 11
1333.08799139408
 21
388.554703699071
 31
0
  0
LINE
  8
1
 62
7
 10
1333.08799139408
 20
388.554703699071
 30
0
 11
1333.66299139408
 21
388.179703699071
 31
0
  0
LINE
  8
1
 62
7
 10
1333.66299139408
 20
388.179703699071
 30
0
 11
1334.38174139408
 21
387.929703699071
 31
0
  0
LINE
  8
1
 62
7
 10
1334.38174139408
 20
387.929703699071
 30
0
 11
1335.10049139408
 21
387.929703699071
 31
0
  0
LINE
  8
1
 62
7
 10
1335.10049139408
 20
387.929703699071
 30
0
 11
1335.81924139408
 21
388.179703699071
 31
0
  0
LINE
  8
1
 62
7
 10
1335.81924139408
 20
388.179703699071
 30
0
 11
1336.39424139408
 21
388.554703699071
 31
0
  0
LINE
  8
1
 62
7
 10
1336.39424139408
 20
388.554703699071
 30
0
 11
1336.68174139408
 21
388.929703699071
 31
0
  0
LINE
  8
1
 62
7
 10
1336.68174139408
 20
388.929703699071
 30
0
 11
1336.96924139408
 21
389.554703699071
 31
0
  0
LINE
  8
1
 62
7
 10
1336.96924139408
 20
389.554703699071
 30
0
 11
1336.96924139408
 21
390.554703699071
 31
0
  0
LINE
  8
1
 62
7
 10
1336.96924139408
 20
390.554703699071
 30
0
 11
1336.68174139408
 21
391.179703699071
 31
0
  0
LINE
  8
1
 62
7
 10
1336.68174139408
 20
391.179703699071
 30
0
 11
1336.39424139408
 21
391.554703699071
 31
0
  0
LINE
  8
1
 62
7
 10
1336.39424139408
 20
391.554703699071
 30
0
 11
1335.81924139408
 21
391.929703699071
 31
0
  0
LINE
  8
1
 62
7
 10
1335.81924139408
 20
391.929703699071
 30
0
 11
1335.10049139408
 21
392.179703699071
 31
0
  0
LINE
  8
1
 62
7
 10
1335.10049139408
 20
392.179703699071
 30
0
 11
1334.38174139408
 21
392.179703699071
 31
0
  0
LINE
  8
1
 62
7
 10
1334.38174139408
 20
392.179703699071
 30
0
 11
1333.51924139408
 21
391.929703699071
 31
0
  0
LINE
  8
1
 62
7
 10
1333.51924139408
 20
391.929703699071
 30
0
 11
1332.94424139408
 21
391.554703699071
 31
0
  0
LINE
  8
1
 62
7
 10
1332.94424139408
 20
391.554703699071
 30
0
 11
1332.65674139408
 21
391.179703699071
 31
0
  0
LINE
  8
1
 62
7
 10
1332.65674139408
 20
391.179703699071
 30
0
 11
1331.21924139408
 21
391.179703699071
 31
0
  0
LINE
  8
1
 62
7
 10
1331.21924139408
 20
391.179703699071
 30
0
 11
1331.21924139408
 21
396.6797036990711
 31
0
  0
LINE
  8
1
 62
7
 10
1331.21924139408
 20
396.6797036990711
 30
0
 11
1337.97549139408
 21
396.679703699071
 31
0
  0
LINE
  8
1
 62
7
 10
1337.97549139408
 20
396.679703699071
 30
0
 11
1337.97549139408
 21
395.429703699071
 31
0
  0
LINE
  8
1
 62
7
 10
1337.97549139408
 20
395.429703699071
 30
0
 11
1332.80049139408
 21
395.429703699071
 31
0
  0
LINE
  8
1
 62
7
 10
1332.80049139408
 20
395.429703699071
 30
0
 11
1332.80049139408
 21
392.679703699071
 31
0
  0
LINE
  8
1
 62
7
 10
1332.80049139408
 20
392.679703699071
 30
0
 11
1333.51924139408
 21
393.054703699071
 31
0
  0
LINE
  8
1
 62
7
 10
1333.51924139408
 20
393.054703699071
 30
0
 11
1334.38174139408
 21
393.304703699071
 31
0
  0
LINE
  8
1
 62
7
 10
1334.38174139408
 20
393.304703699071
 30
0
 11
1335.10049139408
 21
393.304703699071
 31
0
  0
LINE
  8
1
 62
7
 10
1335.10049139408
 20
393.304703699071
 30
0
 11
1335.81924139408
 21
393.179703699071
 31
0
  0
LINE
  8
1
 62
7
 10
1335.81924139408
 20
393.179703699071
 30
0
 11
1336.53799139408
 21
392.929703699071
 31
0
  0
LINE
  8
1
 62
7
 10
1336.53799139408
 20
392.929703699071
 30
0
 11
1336.96924139408
 21
392.554703699071
 31
0
  0
LINE
  8
1
 62
7
 10
1336.96924139408
 20
392.554703699071
 30
0
 11
1337.40049139408
 21
392.179703699071
 31
0
  0
LINE
  8
1
 62
7
 10
1337.40049139408
 20
392.179703699071
 30
0
 11
1337.83174139408
 21
391.679703699071
 31
0
  0
LINE
  8
1
 62
7
 10
1337.83174139408
 20
391.679703699071
 30
0
 11
1338.11924139408
 21
391.179703699071
 31
0
  0
LINE
  8
1
 62
7
 10
1338.11924139408
 20
391.179703699071
 30
0
 11
1338.40674139408
 21
390.429703699071
 31
0
  0
LINE
  8
1
 62
7
 10
1338.40674139408
 20
390.429703699071
 30
0
 11
1338.40674139408
 21
389.429703699071
 31
0
  0
LINE
  8
1
 62
7
 10
1338.40674139408
 20
389.429703699071
 30
0
 11
1338.11924139408
 21
388.679703699071
 31
0
  0
LINE
  8
1
 62
7
 10
1338.11924139408
 20
388.679703699071
 30
0
 11
1337.83174139408
 21
388.179703699071
 31
0
  0
LINE
  8
1
 62
7
 10
1337.83174139408
 20
388.179703699071
 30
0
 11
1337.40049139408
 21
387.679703699071
 31
0
  0
LINE
  8
1
 62
7
 10
1337.40049139408
 20
387.679703699071
 30
0
 11
1336.96924139408
 21
387.304703699071
 31
0
  0
LINE
  8
1
 62
7
 10
1361.482408972351
 20
353.1945501550328
 30
0
 11
1357.473158972351
 21
353.1945501550328
 31
0
  0
LINE
  8
1
 62
7
 10
1357.473158972351
 20
353.1945501550328
 30
0
 11
1357.473158972351
 21
360.1945501550328
 31
0
  0
LINE
  8
1
 62
7
 10
1357.473158972351
 20
360.1945501550328
 30
0
 11
1361.413283972351
 21
360.1945501550328
 31
0
  0
LINE
  8
1
 62
7
 10
1361.413283972351
 20
360.1945501550328
 30
0
 11
1361.413283972351
 21
359.3195501550328
 31
0
  0
LINE
  8
1
 62
7
 10
1361.413283972351
 20
359.3195501550328
 30
0
 11
1358.233533972351
 21
359.3195501550328
 31
0
  0
LINE
  8
1
 62
7
 10
1358.233533972351
 20
359.3195501550328
 30
0
 11
1358.233533972351
 21
357.2195501550328
 31
0
  0
LINE
  8
1
 62
7
 10
1358.233533972351
 20
357.2195501550328
 30
0
 11
1361.136783972351
 21
357.2195501550328
 31
0
  0
LINE
  8
1
 62
7
 10
1361.136783972351
 20
357.2195501550328
 30
0
 11
1361.136783972351
 21
356.3445501550328
 31
0
  0
LINE
  8
1
 62
7
 10
1361.136783972351
 20
356.3445501550328
 30
0
 11
1358.233533972351
 21
356.3445501550328
 31
0
  0
LINE
  8
1
 62
7
 10
1358.233533972351
 20
356.3445501550328
 30
0
 11
1358.233533972351
 21
354.0695501550328
 31
0
  0
LINE
  8
1
 62
7
 10
1358.233533972351
 20
354.0695501550328
 30
0
 11
1361.482408972351
 21
354.0695501550328
 31
0
  0
LINE
  8
1
 62
7
 10
1361.482408972351
 20
354.0695501550328
 30
0
 11
1361.482408972351
 21
353.1945501550328
 31
0
  0
LINE
  8
1
 62
2
  6
DIVIDE
 10
1318.473158972351
 20
360.1945501550327
 30
0
 11
1328.467533972351
 21
360.1945501550327
 31
0
  0
LINE
  8
1
 62
2
  6
DIVIDE
 10
1328.467533972351
 20
360.1945501550327
 30
0
 11
1328.467533972351
 21
353.1945501550327
 31
0
  0
LINE
  8
1
 62
2
  6
DIVIDE
 10
1328.467533972351
 20
353.1945501550327
 30
0
 11
1318.473158972351
 21
353.1945501550327
 31
0
  0
LINE
  8
1
 62
2
  6
DIVIDE
 10
1318.473158972351
 20
353.1945501550327
 30
0
 11
1318.473158972351
 21
360.1945501550327
 31
0
  0
LINE
  8
1
 62
7
 10
1305.473158972351
 20
410.6456565483443
 30
0
 11
1305.473158972351
 21
405.695655293744
 31
0
  0
LINE
  8
1
 62
7
 10
1307.473158972351
 20
405.695655293744
 30
0
 11
1375.473158972351
 21
405.695655293744
 31
0
  0
LINE
  8
1
 62
7
 10
1422.252658972351
 20
387.9161552937439
 30
0
 11
1422.252658972351
 21
361.475155293744
 31
0
  0
LINE
  8
1
 62
7
 10
1412.973158972351
 20
385.195655293744
 30
0
 11
1412.973158972351
 21
364.195655293744
 31
0
  0
LINE
  8
1
 62
7
 10
1260.693658972351
 20
387.9161552937439
 30
0
 11
1260.693658972351
 21
361.475155293744
 31
0
  0
LINE
  8
1
 62
7
 10
1269.973158972351
 20
385.445655293744
 30
0
 11
1269.973158972351
 21
363.945655293744
 31
0
  0
LINE
  8
1
 62
2
  6
DASHDOT
 10
1341.473158972351
 20
500.4006177604738
 30
0
 11
1341.473158972351
 21
344.6882909952587
 31
0
  0
LINE
  8
1
 62
2
  6
DASHDOT
 10
1426.424832147911
 20
374.695655293744
 30
0
 11
1254.836024008901
 21
374.695655293744
 31
0
  0
LINE
  8
1
 62
7
 10
1344.232367620425
 20
493.6463163783191
 30
0
 11
1344.232367620425
 21
493.4635038783191
 31
0
  0
LINE
  8
1
 62
7
 10
1344.313617620425
 20
493.6463163783191
 30
0
 11
1344.232367620425
 21
493.6463163783191
 31
0
  0
LINE
  8
1
 62
7
 10
1344.394867620425
 20
493.6666288783191
 30
0
 11
1344.313617620425
 21
493.6463163783191
 31
0
  0
LINE
  8
1
 62
7
 10
1344.455805120425
 20
493.7072538783191
 30
0
 11
1344.394867620425
 21
493.6666288783191
 31
0
  0
LINE
  8
1
 62
7
 10
1344.496430120425
 20
493.7681913783191
 30
0
 11
1344.455805120425
 21
493.7072538783191
 31
0
  0
LINE
  8
1
 62
7
 10
1344.516742620425
 20
493.8291288783191
 30
0
 11
1344.496430120425
 21
493.7681913783191
 31
0
  0
LINE
  8
1
 62
7
 10
1344.516742620425
 20
493.9103788783191
 30
0
 11
1344.516742620425
 21
493.8291288783191
 31
0
  0
LINE
  8
1
 62
7
 10
1344.496430120425
 20
493.9713163783191
 30
0
 11
1344.516742620425
 21
493.9103788783191
 31
0
  0
LINE
  8
1
 62
7
 10
1344.455805120425
 20
494.0322538783191
 30
0
 11
1344.496430120425
 21
493.9713163783191
 31
0
  0
LINE
  8
1
 62
7
 10
1344.394867620425
 20
494.0728788783191
 30
0
 11
1344.455805120425
 21
494.0322538783191
 31
0
  0
LINE
  8
1
 62
7
 10
1344.313617620425
 20
494.0931913783191
 30
0
 11
1344.394867620425
 21
494.0728788783191
 31
0
  0
LINE
  8
1
 62
7
 10
1344.232367620425
 20
494.0931913783191
 30
0
 11
1344.313617620425
 21
494.0931913783191
 31
0
  0
LINE
  8
1
 62
7
 10
1344.151117620425
 20
494.0728788783191
 30
0
 11
1344.232367620425
 21
494.0931913783191
 31
0
  0
LINE
  8
1
 62
7
 10
1344.090180120425
 20
494.0322538783191
 30
0
 11
1344.151117620425
 21
494.0728788783191
 31
0
  0
LINE
  8
1
 62
7
 10
1344.049555120425
 20
493.9713163783191
 30
0
 11
1344.090180120425
 21
494.0322538783191
 31
0
  0
LINE
  8
1
 62
7
 10
1344.029242620425
 20
493.9103788783191
 30
0
 11
1344.049555120425
 21
493.9713163783191
 31
0
  0
LINE
  8
1
 62
7
 10
1344.029242620425
 20
493.8291288783191
 30
0
 11
1344.029242620425
 21
493.9103788783191
 31
0
  0
LINE
  8
1
 62
7
 10
1343.805805120425
 20
493.8291288783191
 30
0
 11
1344.029242620425
 21
493.8291288783191
 31
0
  0
LINE
  8
1
 62
7
 10
1343.805805120425
 20
493.9103788783191
 30
0
 11
1343.805805120425
 21
493.8291288783191
 31
0
  0
LINE
  8
1
 62
7
 10
1343.826117620425
 20
494.0119413783191
 30
0
 11
1343.805805120425
 21
493.9103788783191
 31
0
  0
LINE
  8
1
 62
7
 10
1343.907367620425
 20
494.1338163783191
 30
0
 11
1343.826117620425
 21
494.0119413783191
 31
0
  0
LINE
  8
1
 62
7
 10
1343.988617620425
 20
494.2150663783191
 30
0
 11
1343.907367620425
 21
494.1338163783191
 31
0
  0
LINE
  8
1
 62
7
 10
1344.110492620425
 20
494.2760038783191
 30
0
 11
1343.988617620425
 21
494.2150663783191
 31
0
  0
LINE
  8
1
 62
7
 10
1344.212055120425
 20
494.2963163783191
 30
0
 11
1344.110492620425
 21
494.2760038783191
 31
0
  0
LINE
  8
1
 62
7
 10
1344.333930120425
 20
494.2963163783191
 30
0
 11
1344.212055120425
 21
494.2963163783191
 31
0
  0
LINE
  8
1
 62
7
 10
1344.435492620425
 20
494.2760038783191
 30
0
 11
1344.333930120425
 21
494.2963163783191
 31
0
  0
LINE
  8
1
 62
7
 10
1344.557367620425
 20
494.2150663783191
 30
0
 11
1344.435492620425
 21
494.2760038783191
 31
0
  0
LINE
  8
1
 62
7
 10
1344.638617620425
 20
494.1338163783191
 30
0
 11
1344.557367620425
 21
494.2150663783191
 31
0
  0
LINE
  8
1
 62
7
 10
1344.719867620425
 20
494.0119413783191
 30
0
 11
1344.638617620425
 21
494.1338163783191
 31
0
  0
LINE
  8
1
 62
7
 10
1344.740180120425
 20
493.9103788783191
 30
0
 11
1344.719867620425
 21
494.0119413783191
 31
0
  0
LINE
  8
1
 62
7
 10
1344.740180120425
 20
493.8291288783191
 30
0
 11
1344.740180120425
 21
493.9103788783191
 31
0
  0
LINE
  8
1
 62
7
 10
1344.719867620425
 20
493.7275663783191
 30
0
 11
1344.740180120425
 21
493.8291288783191
 31
0
  0
LINE
  8
1
 62
7
 10
1344.638617620425
 20
493.6056913783191
 30
0
 11
1344.719867620425
 21
493.7275663783191
 31
0
  0
LINE
  8
1
 62
7
 10
1344.597992620425
 20
493.5650663783191
 30
0
 11
1344.638617620425
 21
493.6056913783191
 31
0
  0
LINE
  8
1
 62
7
 10
1344.699555120425
 20
493.4838163783191
 30
0
 11
1344.597992620425
 21
493.5650663783191
 31
0
  0
LINE
  8
1
 62
7
 10
1344.780805120425
 20
493.3619413783191
 30
0
 11
1344.699555120425
 21
493.4838163783191
 31
0
  0
LINE
  8
1
 62
7
 10
1344.821430120425
 20
493.2197538783191
 30
0
 11
1344.780805120425
 21
493.3619413783191
 31
0
  0
LINE
  8
1
 62
7
 10
1344.821430120425
 20
493.1181913783191
 30
0
 11
1344.821430120425
 21
493.2197538783191
 31
0
  0
LINE
  8
1
 62
7
 10
1344.780805120425
 20
492.9760038783191
 30
0
 11
1344.821430120425
 21
493.1181913783191
 31
0
  0
LINE
  8
1
 62
7
 10
1344.719867620425
 20
492.8744413783191
 30
0
 11
1344.780805120425
 21
492.9760038783191
 31
0
  0
LINE
  8
1
 62
7
 10
1344.618305120425
 20
492.7728788783191
 30
0
 11
1344.719867620425
 21
492.8744413783191
 31
0
  0
LINE
  8
1
 62
7
 10
1344.496430120425
 20
492.7119413783191
 30
0
 11
1344.618305120425
 21
492.7728788783191
 31
0
  0
LINE
  8
1
 62
7
 10
1344.333930120425
 20
492.6713163783191
 30
0
 11
1344.496430120425
 21
492.7119413783191
 31
0
  0
LINE
  8
1
 62
7
 10
1344.212055120425
 20
492.6713163783191
 30
0
 11
1344.333930120425
 21
492.6713163783191
 31
0
  0
LINE
  8
1
 62
7
 10
1344.049555120425
 20
492.7119413783191
 30
0
 11
1344.212055120425
 21
492.6713163783191
 31
0
  0
LINE
  8
1
 62
7
 10
1343.927680120425
 20
492.7728788783191
 30
0
 11
1344.049555120425
 21
492.7119413783191
 31
0
  0
LINE
  8
1
 62
7
 10
1343.826117620425
 20
492.8744413783191
 30
0
 11
1343.927680120425
 21
492.7728788783191
 31
0
  0
LINE
  8
1
 62
7
 10
1343.765180120425
 20
492.9760038783191
 30
0
 11
1343.826117620425
 21
492.8744413783191
 31
0
  0
LINE
  8
1
 62
7
 10
1343.724555120425
 20
493.1181913783191
 30
0
 11
1343.765180120425
 21
492.9760038783191
 31
0
  0
LINE
  8
1
 62
7
 10
1343.724555120425
 20
493.2197538783191
 30
0
 11
1343.724555120425
 21
493.1181913783191
 31
0
  0
LINE
  8
1
 62
7
 10
1343.968305120425
 20
493.2197538783191
 30
0
 11
1343.724555120425
 21
493.2197538783191
 31
0
  0
LINE
  8
1
 62
7
 10
1343.968305120425
 20
493.1385038783191
 30
0
 11
1343.968305120425
 21
493.2197538783191
 31
0
  0
LINE
  8
1
 62
7
 10
1343.988617620425
 20
493.0572538783191
 30
0
 11
1343.968305120425
 21
493.1385038783191
 31
0
  0
LINE
  8
1
 62
7
 10
1344.049555120425
 20
492.9760038783191
 30
0
 11
1343.988617620425
 21
493.0572538783191
 31
0
  0
LINE
  8
1
 62
7
 10
1344.130805120425
 20
492.9150663783191
 30
0
 11
1344.049555120425
 21
492.9760038783191
 31
0
  0
LINE
  8
1
 62
7
 10
1344.232367620425
 20
492.8947538783191
 30
0
 11
1344.130805120425
 21
492.9150663783191
 31
0
  0
LINE
  8
1
 62
7
 10
1344.313617620425
 20
492.8947538783191
 30
0
 11
1344.232367620425
 21
492.8947538783191
 31
0
  0
LINE
  8
1
 62
7
 10
1344.415180120425
 20
492.9150663783191
 30
0
 11
1344.313617620425
 21
492.8947538783191
 31
0
  0
LINE
  8
1
 62
7
 10
1344.496430120425
 20
492.9760038783191
 30
0
 11
1344.415180120425
 21
492.9150663783191
 31
0
  0
LINE
  8
1
 62
7
 10
1344.557367620425
 20
493.0572538783191
 30
0
 11
1344.496430120425
 21
492.9760038783191
 31
0
  0
LINE
  8
1
 62
7
 10
1344.577680120425
 20
493.1385038783191
 30
0
 11
1344.557367620425
 21
493.0572538783191
 31
0
  0
LINE
  8
1
 62
7
 10
1344.577680120425
 20
493.2197538783191
 30
0
 11
1344.577680120425
 21
493.1385038783191
 31
0
  0
LINE
  8
1
 62
7
 10
1344.557367620425
 20
493.3010038783191
 30
0
 11
1344.577680120425
 21
493.2197538783191
 31
0
  0
LINE
  8
1
 62
7
 10
1344.496430120425
 20
493.3822538783191
 30
0
 11
1344.557367620425
 21
493.3010038783191
 31
0
  0
LINE
  8
1
 62
7
 10
1344.415180120425
 20
493.4431913783191
 30
0
 11
1344.496430120425
 21
493.3822538783191
 31
0
  0
LINE
  8
1
 62
7
 10
1344.313617620425
 20
493.4635038783191
 30
0
 11
1344.415180120425
 21
493.4431913783191
 31
0
  0
LINE
  8
1
 62
7
 10
1344.232367620425
 20
493.4635038783191
 30
0
 11
1344.313617620425
 21
493.4635038783191
 31
0
  0
LINE
  8
1
 62
7
 10
1368.273856435268
 20
491.8105673163304
 30
0
 11
1366.336043935268
 21
491.8105673163304
 31
0
  0
LINE
  8
1
 62
7
 10
1368.273856435268
 20
492.0918173163304
 30
0
 11
1368.273856435268
 21
491.8105673163304
 31
0
  0
LINE
  8
1
 62
7
 10
1366.738231435268
 20
492.0918173163304
 30
0
 11
1368.273856435268
 21
492.0918173163304
 31
0
  0
LINE
  8
1
 62
7
 10
1366.738231435268
 20
494.0605673163304
 30
0
 11
1366.738231435268
 21
492.0918173163304
 31
0
  0
LINE
  8
1
 62
7
 10
1366.336043935268
 20
494.0605673163304
 30
0
 11
1366.738231435268
 21
494.0605673163304
 31
0
  0
LINE
  8
1
 62
7
 10
1366.336043935268
 20
491.8105673163304
 30
0
 11
1366.336043935268
 21
494.0605673163304
 31
0
  0
LINE
  8
1
 62
7
 10
1367.432193994562
 20
487.1955603740933
 30
0
 11
1367.432193994562
 21
488.7642341411511
 31
0
  0
LINE
  8
1
 62
7
 10
1366.158799995421
 20
487.1955603740933
 30
0
 11
1367.432193994562
 21
487.1955603740933
 31
0
  0
LINE
  8
1
 62
7
 10
1367.432193994562
 20
488.7642341411511
 30
0
 11
1366.158799995421
 21
487.1955603740933
 31
0
  0
LINE
  8
1
 62
7
 10
1365.549785474093
 20
487.2416978378303
 30
0
 11
1367.432193994562
 21
489.594708488417
 31
0
  0
LINE
  8
1
 62
7
 10
1365.549785474093
 20
486.7341857367233
 30
0
 11
1365.549785474093
 21
487.2416978378303
 31
0
  0
LINE
  8
1
 62
7
 10
1367.432193994562
 20
486.7341857367233
 30
0
 11
1365.549785474093
 21
486.7341857367233
 31
0
  0
LINE
  8
1
 62
7
 10
1367.432193994562
 20
485.9037113894574
 30
0
 11
1367.432193994562
 21
486.7341857367233
 31
0
  0
LINE
  8
1
 62
7
 10
1368.041208515891
 20
485.9037113894574
 30
0
 11
1367.432193994562
 21
485.9037113894574
 31
0
  0
LINE
  8
1
 62
7
 10
1368.041208515891
 20
486.7341857367233
 30
0
 11
1368.041208515891
 21
485.9037113894574
 31
0
  0
LINE
  8
1
 62
7
 10
1368.594858080734
 20
486.7341857367233
 30
0
 11
1368.041208515891
 21
486.7341857367233
 31
0
  0
LINE
  8
1
 62
7
 10
1368.594858080734
 20
487.1955603740933
 30
0
 11
1368.594858080734
 21
486.7341857367233
 31
0
  0
LINE
  8
1
 62
7
 10
1368.041208515891
 20
487.1955603740933
 30
0
 11
1368.594858080734
 21
487.1955603740933
 31
0
  0
LINE
  8
1
 62
7
 10
1368.041208515891
 20
489.594708488417
 30
0
 11
1368.041208515891
 21
487.1955603740933
 31
0
  0
LINE
  8
1
 62
7
 10
1367.432193994562
 20
489.594708488417
 30
0
 11
1368.041208515891
 21
489.594708488417
 31
0
  0
LINE
  8
1
 62
7
 10
1359.116748963632
 20
488.1183096488332
 30
0
 11
1359.116748963632
 21
487.7030724752002
 31
0
  0
LINE
  8
1
 62
7
 10
1359.33820878957
 20
488.1183096488332
 30
0
 11
1359.116748963632
 21
488.1183096488332
 31
0
  0
LINE
  8
1
 62
7
 10
1359.559668615508
 20
488.1644471125701
 30
0
 11
1359.33820878957
 21
488.1183096488332
 31
0
  0
LINE
  8
1
 62
7
 10
1359.725763484961
 20
488.2567220400442
 30
0
 11
1359.559668615508
 21
488.1644471125701
 31
0
  0
LINE
  8
1
 62
7
 10
1359.83649339793
 20
488.3951344312551
 30
0
 11
1359.725763484961
 21
488.2567220400442
 31
0
  0
LINE
  8
1
 62
7
 10
1359.891858354414
 20
488.5335468224661
 30
0
 11
1359.83649339793
 21
488.3951344312551
 31
0
  0
LINE
  8
1
 62
7
 10
1359.891858354414
 20
488.7180966774141
 30
0
 11
1359.891858354414
 21
488.5335468224661
 31
0
  0
LINE
  8
1
 62
7
 10
1359.83649339793
 20
488.8565090686251
 30
0
 11
1359.891858354414
 21
488.7180966774141
 31
0
  0
LINE
  8
1
 62
7
 10
1359.725763484961
 20
488.9949214598361
 30
0
 11
1359.83649339793
 21
488.8565090686251
 31
0
  0
LINE
  8
1
 62
7
 10
1359.559668615508
 20
489.08719638731
 30
0
 11
1359.725763484961
 21
488.9949214598361
 31
0
  0
LINE
  8
1
 62
7
 10
1359.33820878957
 20
489.1333338510471
 30
0
 11
1359.559668615508
 21
489.08719638731
 31
0
  0
LINE
  8
1
 62
7
 10
1359.116748963632
 20
489.1333338510471
 30
0
 11
1359.33820878957
 21
489.1333338510471
 31
0
  0
LINE
  8
1
 62
7
 10
1358.895289137695
 20
489.08719638731
 30
0
 11
1359.116748963632
 21
489.1333338510471
 31
0
  0
LINE
  8
1
 62
7
 10
1358.729194268242
 20
488.9949214598361
 30
0
 11
1358.895289137695
 21
489.08719638731
 31
0
  0
LINE
  8
1
 62
7
 10
1358.618464355273
 20
488.8565090686251
 30
0
 11
1358.729194268242
 21
488.9949214598361
 31
0
  0
LINE
  8
1
 62
7
 10
1358.563099398788
 20
488.7180966774141
 30
0
 11
1358.618464355273
 21
488.8565090686251
 31
0
  0
LINE
  8
1
 62
7
 10
1358.563099398788
 20
488.5335468224661
 30
0
 11
1358.563099398788
 21
488.7180966774141
 31
0
  0
LINE
  8
1
 62
7
 10
1357.95408487746
 20
488.5335468224661
 30
0
 11
1358.563099398788
 21
488.5335468224661
 31
0
  0
LINE
  8
1
 62
7
 10
1357.95408487746
 20
488.7180966774141
 30
0
 11
1357.95408487746
 21
488.5335468224661
 31
0
  0
LINE
  8
1
 62
7
 10
1358.009449833945
 20
488.9487839960991
 30
0
 11
1357.95408487746
 21
488.7180966774141
 31
0
  0
LINE
  8
1
 62
7
 10
1358.230909659882
 20
489.2256087785211
 30
0
 11
1358.009449833945
 21
488.9487839960991
 31
0
  0
LINE
  8
1
 62
7
 10
1358.45236948582
 20
489.4101586334689
 30
0
 11
1358.230909659882
 21
489.2256087785211
 31
0
  0
LINE
  8
1
 62
7
 10
1358.784559224726
 20
489.54857102468
 30
0
 11
1358.45236948582
 21
489.4101586334689
 31
0
  0
LINE
  8
1
 62
7
 10
1359.061384007148
 20
489.594708488417
 30
0
 11
1358.784559224726
 21
489.54857102468
 31
0
  0
LINE
  8
1
 62
7
 10
1359.393573746054
 20
489.594708488417
 30
0
 11
1359.061384007148
 21
489.594708488417
 31
0
  0
LINE
  8
1
 62
7
 10
1359.670398528476
 20
489.54857102468
 30
0
 11
1359.393573746054
 21
489.594708488417
 31
0
  0
LINE
  8
1
 62
7
 10
1360.002588267383
 20
489.4101586334689
 30
0
 11
1359.670398528476
 21
489.54857102468
 31
0
  0
LINE
  8
1
 62
7
 10
1360.22404809332
 20
489.2256087785211
 30
0
 11
1360.002588267383
 21
489.4101586334689
 31
0
  0
LINE
  8
1
 62
7
 10
1360.445507919258
 20
488.9487839960991
 30
0
 11
1360.22404809332
 21
489.2256087785211
 31
0
  0
LINE
  8
1
 62
7
 10
1360.500872875742
 20
488.7180966774141
 30
0
 11
1360.445507919258
 21
488.9487839960991
 31
0
  0
LINE
  8
1
 62
7
 10
1360.500872875742
 20
488.5335468224661
 30
0
 11
1360.500872875742
 21
488.7180966774141
 31
0
  0
LINE
  8
1
 62
7
 10
1360.445507919258
 20
488.3028595037811
 30
0
 11
1360.500872875742
 21
488.5335468224661
 31
0
  0
LINE
  8
1
 62
7
 10
1360.22404809332
 20
488.0260347213592
 30
0
 11
1360.445507919258
 21
488.3028595037811
 31
0
  0
LINE
  8
1
 62
7
 10
1360.113318180351
 20
487.9337597938852
 30
0
 11
1360.22404809332
 21
488.0260347213592
 31
0
  0
LINE
  8
1
 62
7
 10
1360.390142962774
 20
487.7492099389372
 30
0
 11
1360.113318180351
 21
487.9337597938852
 31
0
  0
LINE
  8
1
 62
7
 10
1360.611602788711
 20
487.4723851565152
 30
0
 11
1360.390142962774
 21
487.7492099389372
 31
0
  0
LINE
  8
1
 62
7
 10
1360.72233270168
 20
487.1494229103563
 30
0
 11
1360.611602788711
 21
487.4723851565152
 31
0
  0
LINE
  8
1
 62
7
 10
1360.72233270168
 20
486.9187355916713
 30
0
 11
1360.72233270168
 21
487.1494229103563
 31
0
  0
LINE
  8
1
 62
7
 10
1360.611602788711
 20
486.5957733455123
 30
0
 11
1360.72233270168
 21
486.9187355916713
 31
0
  0
LINE
  8
1
 62
7
 10
1360.445507919258
 20
486.3650860268274
 30
0
 11
1360.611602788711
 21
486.5957733455123
 31
0
  0
LINE
  8
1
 62
7
 10
1360.168683136836
 20
486.1343987081424
 30
0
 11
1360.445507919258
 21
486.3650860268274
 31
0
  0
LINE
  8
1
 62
7
 10
1359.83649339793
 20
485.9959863169314
 30
0
 11
1360.168683136836
 21
486.1343987081424
 31
0
  0
LINE
  8
1
 62
7
 10
1359.393573746054
 20
485.9037113894574
 30
0
 11
1359.83649339793
 21
485.9959863169314
 31
0
  0
LINE
  8
1
 62
7
 10
1359.061384007148
 20
485.9037113894574
 30
0
 11
1359.393573746054
 21
485.9037113894574
 31
0
  0
LINE
  8
1
 62
7
 10
1358.618464355273
 20
485.9959863169314
 30
0
 11
1359.061384007148
 21
485.9037113894574
 31
0
  0
LINE
  8
1
 62
7
 10
1358.286274616367
 20
486.1343987081424
 30
0
 11
1358.618464355273
 21
485.9959863169314
 31
0
  0
LINE
  8
1
 62
7
 10
1358.009449833945
 20
486.3650860268274
 30
0
 11
1358.286274616367
 21
486.1343987081424
 31
0
  0
LINE
  8
1
 62
7
 10
1357.843354964492
 20
486.5957733455123
 30
0
 11
1358.009449833945
 21
486.3650860268274
 31
0
  0
LINE
  8
1
 62
7
 10
1357.732625051523
 20
486.9187355916713
 30
0
 11
1357.843354964492
 21
486.5957733455123
 31
0
  0
LINE
  8
1
 62
7
 10
1357.732625051523
 20
487.1494229103563
 30
0
 11
1357.732625051523
 21
486.9187355916713
 31
0
  0
LINE
  8
1
 62
7
 10
1358.397004529335
 20
487.1494229103563
 30
0
 11
1357.732625051523
 21
487.1494229103563
 31
0
  0
LINE
  8
1
 62
7
 10
1358.397004529335
 20
486.9648730554083
 30
0
 11
1358.397004529335
 21
487.1494229103563
 31
0
  0
LINE
  8
1
 62
7
 10
1358.45236948582
 20
486.7803232004603
 30
0
 11
1358.397004529335
 21
486.9648730554083
 31
0
  0
LINE
  8
1
 62
7
 10
1358.618464355273
 20
486.5957733455123
 30
0
 11
1358.45236948582
 21
486.7803232004603
 31
0
  0
LINE
  8
1
 62
7
 10
1358.839924181211
 20
486.4573609543014
 30
0
 11
1358.618464355273
 21
486.5957733455123
 31
0
  0
LINE
  8
1
 62
7
 10
1359.116748963632
 20
486.4112234905644
 30
0
 11
1358.839924181211
 21
486.4573609543014
 31
0
  0
LINE
  8
1
 62
7
 10
1359.33820878957
 20
486.4112234905644
 30
0
 11
1359.116748963632
 21
486.4112234905644
 31
0
  0
LINE
  8
1
 62
7
 10
1359.615033571992
 20
486.4573609543014
 30
0
 11
1359.33820878957
 21
486.4112234905644
 31
0
  0
LINE
  8
1
 62
7
 10
1359.83649339793
 20
486.5957733455123
 30
0
 11
1359.615033571992
 21
486.4573609543014
 31
0
  0
LINE
  8
1
 62
7
 10
1360.002588267383
 20
486.7803232004603
 30
0
 11
1359.83649339793
 21
486.5957733455123
 31
0
  0
LINE
  8
1
 62
7
 10
1360.057953223867
 20
486.9648730554083
 30
0
 11
1360.002588267383
 21
486.7803232004603
 31
0
  0
LINE
  8
1
 62
7
 10
1360.057953223867
 20
487.1494229103563
 30
0
 11
1360.057953223867
 21
486.9648730554083
 31
0
  0
LINE
  8
1
 62
7
 10
1360.002588267383
 20
487.3339727653043
 30
0
 11
1360.057953223867
 21
487.1494229103563
 31
0
  0
LINE
  8
1
 62
7
 10
1359.83649339793
 20
487.5185226202522
 30
0
 11
1360.002588267383
 21
487.3339727653043
 31
0
  0
LINE
  8
1
 62
7
 10
1359.615033571992
 20
487.6569350114632
 30
0
 11
1359.83649339793
 21
487.5185226202522
 31
0
  0
LINE
  8
1
 62
7
 10
1359.33820878957
 20
487.7030724752002
 30
0
 11
1359.615033571992
 21
487.6569350114632
 31
0
  0
LINE
  8
1
 62
7
 10
1359.116748963632
 20
487.7030724752002
 30
0
 11
1359.33820878957
 21
487.7030724752002
 31
0
  0
LINE
  8
1
 62
7
 10
1354.069650223438
 20
485.9037113894574
 30
0
 11
1351.135307529765
 21
485.9037113894574
 31
0
  0
LINE
  8
1
 62
7
 10
1354.069650223438
 20
486.3650860268274
 30
0
 11
1354.069650223438
 21
485.9037113894574
 31
0
  0
LINE
  8
1
 62
7
 10
1351.910416920546
 20
486.3650860268274
 30
0
 11
1354.069650223438
 21
486.3650860268274
 31
0
  0
LINE
  8
1
 62
7
 10
1352.021146833515
 20
486.6419108092494
 30
0
 11
1351.910416920546
 21
486.3650860268274
 31
0
  0
LINE
  8
1
 62
7
 10
1352.297971615937
 20
486.9648730554083
 30
0
 11
1352.021146833515
 21
486.6419108092494
 31
0
  0
LINE
  8
1
 62
7
 10
1352.685526311328
 20
487.3339727653043
 30
0
 11
1352.297971615937
 21
486.9648730554083
 31
0
  0
LINE
  8
1
 62
7
 10
1353.073081006718
 20
487.6107975477262
 30
0
 11
1352.685526311328
 21
487.3339727653043
 31
0
  0
LINE
  8
1
 62
7
 10
1353.516000658594
 20
487.9337597938852
 30
0
 11
1353.073081006718
 21
487.6107975477262
 31
0
  0
LINE
  8
1
 62
7
 10
1353.626730571562
 20
488.0260347213592
 30
0
 11
1353.516000658594
 21
487.9337597938852
 31
0
  0
LINE
  8
1
 62
7
 10
1353.8481903975
 20
488.3028595037811
 30
0
 11
1353.626730571562
 21
488.0260347213592
 31
0
  0
LINE
  8
1
 62
7
 10
1353.903555353985
 20
488.5335468224661
 30
0
 11
1353.8481903975
 21
488.3028595037811
 31
0
  0
LINE
  8
1
 62
7
 10
1353.903555353985
 20
488.7180966774141
 30
0
 11
1353.903555353985
 21
488.5335468224661
 31
0
  0
LINE
  8
1
 62
7
 10
1353.8481903975
 20
488.9487839960991
 30
0
 11
1353.903555353985
 21
488.7180966774141
 31
0
  0
LINE
  8
1
 62
7
 10
1353.626730571562
 20
489.2256087785211
 30
0
 11
1353.8481903975
 21
488.9487839960991
 31
0
  0
LINE
  8
1
 62
7
 10
1353.405270745625
 20
489.4101586334689
 30
0
 11
1353.626730571562
 21
489.2256087785211
 31
0
  0
LINE
  8
1
 62
7
 10
1353.073081006718
 20
489.54857102468
 30
0
 11
1353.405270745625
 21
489.4101586334689
 31
0
  0
LINE
  8
1
 62
7
 10
1352.796256224297
 20
489.594708488417
 30
0
 11
1353.073081006718
 21
489.54857102468
 31
0
  0
LINE
  8
1
 62
7
 10
1352.46406648539
 20
489.594708488417
 30
0
 11
1352.796256224297
 21
489.594708488417
 31
0
  0
LINE
  8
1
 62
7
 10
1352.187241702968
 20
489.54857102468
 30
0
 11
1352.46406648539
 21
489.594708488417
 31
0
  0
LINE
  8
1
 62
7
 10
1351.855051964062
 20
489.4101586334689
 30
0
 11
1352.187241702968
 21
489.54857102468
 31
0
  0
LINE
  8
1
 62
7
 10
1351.633592138124
 20
489.2256087785211
 30
0
 11
1351.855051964062
 21
489.4101586334689
 31
0
  0
LINE
  8
1
 62
7
 10
1351.412132312187
 20
488.9487839960991
 30
0
 11
1351.633592138124
 21
489.2256087785211
 31
0
  0
LINE
  8
1
 62
7
 10
1351.356767355703
 20
488.7180966774141
 30
0
 11
1351.412132312187
 21
488.9487839960991
 31
0
  0
LINE
  8
1
 62
7
 10
1351.356767355703
 20
488.5335468224661
 30
0
 11
1351.356767355703
 21
488.7180966774141
 31
0
  0
LINE
  8
1
 62
7
 10
1351.965781877031
 20
488.5335468224661
 30
0
 11
1351.356767355703
 21
488.5335468224661
 31
0
  0
LINE
  8
1
 62
7
 10
1351.965781877031
 20
488.7180966774141
 30
0
 11
1351.965781877031
 21
488.5335468224661
 31
0
  0
LINE
  8
1
 62
7
 10
1352.021146833515
 20
488.8565090686251
 30
0
 11
1351.965781877031
 21
488.7180966774141
 31
0
  0
LINE
  8
1
 62
7
 10
1352.131876746484
 20
488.9949214598361
 30
0
 11
1352.021146833515
 21
488.8565090686251
 31
0
  0
LINE
  8
1
 62
7
 10
1352.297971615937
 20
489.08719638731
 30
0
 11
1352.131876746484
 21
488.9949214598361
 31
0
  0
LINE
  8
1
 62
7
 10
1352.519431441875
 20
489.1333338510471
 30
0
 11
1352.297971615937
 21
489.08719638731
 31
0
  0
LINE
  8
1
 62
7
 10
1352.740891267812
 20
489.1333338510471
 30
0
 11
1352.519431441875
 21
489.1333338510471
 31
0
  0
LINE
  8
1
 62
7
 10
1352.96235109375
 20
489.08719638731
 30
0
 11
1352.740891267812
 21
489.1333338510471
 31
0
  0
LINE
  8
1
 62
7
 10
1353.128445963203
 20
488.9949214598361
 30
0
 11
1352.96235109375
 21
489.08719638731
 31
0
  0
LINE
  8
1
 62
7
 10
1353.239175876172
 20
488.8565090686251
 30
0
 11
1353.128445963203
 21
488.9949214598361
 31
0
  0
LINE
  8
1
 62
7
 10
1353.294540832656
 20
488.7180966774141
 30
0
 11
1353.239175876172
 21
488.8565090686251
 31
0
  0
LINE
  8
1
 62
7
 10
1353.294540832656
 20
488.5335468224661
 30
0
 11
1353.294540832656
 21
488.7180966774141
 31
0
  0
LINE
  8
1
 62
7
 10
1353.239175876172
 20
488.3951344312551
 30
0
 11
1353.294540832656
 21
488.5335468224661
 31
0
  0
LINE
  8
1
 62
7
 10
1353.128445963203
 20
488.2567220400442
 30
0
 11
1353.239175876172
 21
488.3951344312551
 31
0
  0
LINE
  8
1
 62
7
 10
1352.740891267812
 20
487.9337597938852
 30
0
 11
1353.128445963203
 21
488.2567220400442
 31
0
  0
LINE
  8
1
 62
7
 10
1352.408701528906
 20
487.6569350114632
 30
0
 11
1352.740891267812
 21
487.9337597938852
 31
0
  0
LINE
  8
1
 62
7
 10
1352.07651179
 20
487.4262476927783
 30
0
 11
1352.408701528906
 21
487.6569350114632
 31
0
  0
LINE
  8
1
 62
7
 10
1351.744322051093
 20
487.1032854466193
 30
0
 11
1352.07651179
 21
487.4262476927783
 31
0
  0
LINE
  8
1
 62
7
 10
1351.467497268671
 20
486.8264606641973
 30
0
 11
1351.744322051093
 21
487.1032854466193
 31
0
  0
LINE
  8
1
 62
7
 10
1351.246037442734
 20
486.5034984180384
 30
0
 11
1351.467497268671
 21
486.8264606641973
 31
0
  0
LINE
  8
1
 62
7
 10
1351.135307529765
 20
486.1805361718794
 30
0
 11
1351.246037442734
 21
486.5034984180384
 31
0
  0
LINE
  8
1
 62
7
 10
1351.135307529765
 20
485.9037113894574
 30
0
 11
1351.135307529765
 21
486.1805361718794
 31
0
  0
LINE
  8
1
 62
7
 10
1316.098872915585
 20
486.0421237806684
 30
0
 11
1316.264967785038
 21
486.1343987081424
 31
0
  0
LINE
  8
1
 62
7
 10
1315.822048133163
 20
485.9498488531944
 30
0
 11
1316.098872915585
 21
486.0421237806684
 31
0
  0
LINE
  8
1
 62
7
 10
1315.600588307226
 20
485.9037113894574
 30
0
 11
1315.822048133163
 21
485.9498488531944
 31
0
  0
LINE
  8
1
 62
7
 10
1315.213033611835
 20
485.9037113894574
 30
0
 11
1315.600588307226
 21
485.9037113894574
 31
0
  0
LINE
  8
1
 62
7
 10
1314.991573785897
 20
485.9498488531944
 30
0
 11
1315.213033611835
 21
485.9037113894574
 31
0
  0
LINE
  8
1
 62
7
 10
1314.714749003475
 20
486.0421237806684
 30
0
 11
1314.991573785897
 21
485.9498488531944
 31
0
  0
LINE
  8
1
 62
7
 10
1314.548654134022
 20
486.1343987081424
 30
0
 11
1314.714749003475
 21
486.0421237806684
 31
0
  0
LINE
  8
1
 62
7
 10
1314.382559264569
 20
486.2728110993534
 30
0
 11
1314.548654134022
 21
486.1343987081424
 31
0
  0
LINE
  8
1
 62
7
 10
1314.216464395116
 20
486.4573609543014
 30
0
 11
1314.382559264569
 21
486.2728110993534
 31
0
  0
LINE
  8
1
 62
7
 10
1314.105734482147
 20
486.6419108092494
 30
0
 11
1314.216464395116
 21
486.4573609543014
 31
0
  0
LINE
  8
1
 62
7
 10
1313.995004569178
 20
486.8725981279343
 30
0
 11
1314.105734482147
 21
486.6419108092494
 31
0
  0
LINE
  8
1
 62
7
 10
1313.939639612694
 20
487.1494229103563
 30
0
 11
1313.995004569178
 21
486.8725981279343
 31
0
  0
LINE
  8
1
 62
7
 10
1313.88427465621
 20
487.5646600839892
 30
0
 11
1313.939639612694
 21
487.1494229103563
 31
0
  0
LINE
  8
1
 62
7
 10
1313.88427465621
 20
487.9337597938852
 30
0
 11
1313.88427465621
 21
487.5646600839892
 31
0
  0
LINE
  8
1
 62
7
 10
1313.939639612694
 20
488.3489969675182
 30
0
 11
1313.88427465621
 21
487.9337597938852
 31
0
  0
LINE
  8
1
 62
7
 10
1313.995004569178
 20
488.62582174994
 30
0
 11
1313.939639612694
 21
488.3489969675182
 31
0
  0
LINE
  8
1
 62
7
 10
1314.105734482147
 20
488.8565090686251
 30
0
 11
1313.995004569178
 21
488.62582174994
 31
0
  0
LINE
  8
1
 62
7
 10
1314.216464395116
 20
489.0410589235731
 30
0
 11
1314.105734482147
 21
488.8565090686251
 31
0
  0
LINE
  8
1
 62
7
 10
1314.382559264569
 20
489.2256087785211
 30
0
 11
1314.216464395116
 21
489.0410589235731
 31
0
  0
LINE
  8
1
 62
7
 10
1314.548654134022
 20
489.364021169732
 30
0
 11
1314.382559264569
 21
489.2256087785211
 31
0
  0
LINE
  8
1
 62
7
 10
1314.714749003475
 20
489.456296097206
 30
0
 11
1314.548654134022
 21
489.364021169732
 31
0
  0
LINE
  8
1
 62
7
 10
1314.991573785897
 20
489.54857102468
 30
0
 11
1314.714749003475
 21
489.456296097206
 31
0
  0
LINE
  8
1
 62
7
 10
1315.213033611835
 20
489.594708488417
 30
0
 11
1314.991573785897
 21
489.54857102468
 31
0
  0
LINE
  8
1
 62
7
 10
1315.600588307226
 20
489.594708488417
 30
0
 11
1315.213033611835
 21
489.594708488417
 31
0
  0
LINE
  8
1
 62
7
 10
1315.822048133163
 20
489.54857102468
 30
0
 11
1315.600588307226
 21
489.594708488417
 31
0
  0
LINE
  8
1
 62
7
 10
1316.098872915585
 20
489.456296097206
 30
0
 11
1315.822048133163
 21
489.54857102468
 31
0
  0
LINE
  8
1
 62
7
 10
1316.264967785038
 20
489.364021169732
 30
0
 11
1316.098872915585
 21
489.456296097206
 31
0
  0
LINE
  8
1
 62
7
 10
1316.431062654491
 20
489.2256087785211
 30
0
 11
1316.264967785038
 21
489.364021169732
 31
0
  0
LINE
  8
1
 62
7
 10
1316.597157523945
 20
489.0410589235731
 30
0
 11
1316.431062654491
 21
489.2256087785211
 31
0
  0
LINE
  8
1
 62
7
 10
1316.707887436914
 20
488.8565090686251
 30
0
 11
1316.597157523945
 21
489.0410589235731
 31
0
  0
LINE
  8
1
 62
7
 10
1316.818617349882
 20
488.62582174994
 30
0
 11
1316.707887436914
 21
488.8565090686251
 31
0
  0
LINE
  8
1
 62
7
 10
1316.873982306367
 20
488.3489969675182
 30
0
 11
1316.818617349882
 21
488.62582174994
 31
0
  0
LINE
  8
1
 62
7
 10
1316.929347262851
 20
487.9337597938852
 30
0
 11
1316.873982306367
 21
488.3489969675182
 31
0
  0
LINE
  8
1
 62
7
 10
1316.929347262851
 20
487.5646600839892
 30
0
 11
1316.929347262851
 21
487.9337597938852
 31
0
  0
LINE
  8
1
 62
7
 10
1316.873982306367
 20
487.1494229103563
 30
0
 11
1316.929347262851
 21
487.5646600839892
 31
0
  0
LINE
  8
1
 62
7
 10
1316.818617349882
 20
486.8725981279343
 30
0
 11
1316.873982306367
 21
487.1494229103563
 31
0
  0
LINE
  8
1
 62
7
 10
1316.707887436914
 20
486.6419108092494
 30
0
 11
1316.818617349882
 21
486.8725981279343
 31
0
  0
LINE
  8
1
 62
7
 10
1316.597157523945
 20
486.4573609543014
 30
0
 11
1316.707887436914
 21
486.6419108092494
 31
0
  0
LINE
  8
1
 62
7
 10
1316.431062654491
 20
486.2728110993534
 30
0
 11
1316.597157523945
 21
486.4573609543014
 31
0
  0
LINE
  8
1
 62
7
 10
1316.264967785038
 20
486.1343987081424
 30
0
 11
1316.431062654491
 21
486.2728110993534
 31
0
  0
LINE
  8
1
 62
7
 10
1314.991573785897
 20
486.4573609543014
 30
0
 11
1315.213033611835
 21
486.3650860268274
 31
0
  0
LINE
  8
1
 62
7
 10
1314.77011395996
 20
486.5957733455123
 30
0
 11
1314.991573785897
 21
486.4573609543014
 31
0
  0
LINE
  8
1
 62
7
 10
1314.659384046991
 20
486.7341857367233
 30
0
 11
1314.77011395996
 21
486.5957733455123
 31
0
  0
LINE
  8
1
 62
7
 10
1314.548654134022
 20
486.9648730554083
 30
0
 11
1314.659384046991
 21
486.7341857367233
 31
0
  0
LINE
  8
1
 62
7
 10
1314.493289177538
 20
487.4723851565152
 30
0
 11
1314.548654134022
 21
486.9648730554083
 31
0
  0
LINE
  8
1
 62
7
 10
1314.493289177538
 20
488.0260347213592
 30
0
 11
1314.493289177538
 21
487.4723851565152
 31
0
  0
LINE
  8
1
 62
7
 10
1314.548654134022
 20
488.5335468224661
 30
0
 11
1314.493289177538
 21
488.0260347213592
 31
0
  0
LINE
  8
1
 62
7
 10
1314.659384046991
 20
488.7642341411511
 30
0
 11
1314.548654134022
 21
488.5335468224661
 31
0
  0
LINE
  8
1
 62
7
 10
1314.77011395996
 20
488.9026465323621
 30
0
 11
1314.659384046991
 21
488.7642341411511
 31
0
  0
LINE
  8
1
 62
7
 10
1314.991573785897
 20
489.0410589235731
 30
0
 11
1314.77011395996
 21
488.9026465323621
 31
0
  0
LINE
  8
1
 62
7
 10
1315.213033611835
 20
489.1333338510471
 30
0
 11
1314.991573785897
 21
489.0410589235731
 31
0
  0
LINE
  8
1
 62
7
 10
1315.600588307226
 20
489.1333338510471
 30
0
 11
1315.213033611835
 21
489.1333338510471
 31
0
  0
LINE
  8
1
 62
7
 10
1315.822048133163
 20
489.0410589235731
 30
0
 11
1315.600588307226
 21
489.1333338510471
 31
0
  0
LINE
  8
1
 62
7
 10
1316.043507959101
 20
488.9026465323621
 30
0
 11
1315.822048133163
 21
489.0410589235731
 31
0
  0
LINE
  8
1
 62
7
 10
1316.15423787207
 20
488.7642341411511
 30
0
 11
1316.043507959101
 21
488.9026465323621
 31
0
  0
LINE
  8
1
 62
7
 10
1316.264967785038
 20
488.5335468224661
 30
0
 11
1316.15423787207
 21
488.7642341411511
 31
0
  0
LINE
  8
1
 62
7
 10
1316.320332741523
 20
488.0260347213592
 30
0
 11
1316.264967785038
 21
488.5335468224661
 31
0
  0
LINE
  8
1
 62
7
 10
1316.320332741523
 20
487.4723851565152
 30
0
 11
1316.320332741523
 21
488.0260347213592
 31
0
  0
LINE
  8
1
 62
7
 10
1316.264967785038
 20
486.9648730554083
 30
0
 11
1316.320332741523
 21
487.4723851565152
 31
0
  0
LINE
  8
1
 62
7
 10
1316.15423787207
 20
486.7341857367233
 30
0
 11
1316.264967785038
 21
486.9648730554083
 31
0
  0
LINE
  8
1
 62
7
 10
1316.043507959101
 20
486.5957733455123
 30
0
 11
1316.15423787207
 21
486.7341857367233
 31
0
  0
LINE
  8
1
 62
7
 10
1315.822048133163
 20
486.4573609543014
 30
0
 11
1316.043507959101
 21
486.5957733455123
 31
0
  0
LINE
  8
1
 62
7
 10
1315.600588307226
 20
486.3650860268274
 30
0
 11
1315.822048133163
 21
486.4573609543014
 31
0
  0
LINE
  8
1
 62
7
 10
1315.213033611835
 20
486.3650860268274
 30
0
 11
1315.600588307226
 21
486.3650860268274
 31
0
  0
LINE
  8
1
 62
7
 10
1322.723872915586
 20
486.0421237806684
 30
0
 11
1322.889967785039
 21
486.1343987081424
 31
0
  0
LINE
  8
1
 62
7
 10
1322.447048133164
 20
485.9498488531944
 30
0
 11
1322.723872915586
 21
486.0421237806684
 31
0
  0
LINE
  8
1
 62
7
 10
1322.225588307226
 20
485.9037113894574
 30
0
 11
1322.447048133164
 21
485.9498488531944
 31
0
  0
LINE
  8
1
 62
7
 10
1321.838033611835
 20
485.9037113894574
 30
0
 11
1322.225588307226
 21
485.9037113894574
 31
0
  0
LINE
  8
1
 62
7
 10
1321.616573785898
 20
485.9498488531944
 30
0
 11
1321.838033611835
 21
485.9037113894574
 31
0
  0
LINE
  8
1
 62
7
 10
1321.339749003476
 20
486.0421237806684
 30
0
 11
1321.616573785898
 21
485.9498488531944
 31
0
  0
LINE
  8
1
 62
7
 10
1321.173654134023
 20
486.1343987081424
 30
0
 11
1321.339749003476
 21
486.0421237806684
 31
0
  0
LINE
  8
1
 62
7
 10
1321.007559264569
 20
486.2728110993534
 30
0
 11
1321.173654134023
 21
486.1343987081424
 31
0
  0
LINE
  8
1
 62
7
 10
1320.841464395116
 20
486.4573609543014
 30
0
 11
1321.007559264569
 21
486.2728110993534
 31
0
  0
LINE
  8
1
 62
7
 10
1320.730734482148
 20
486.6419108092494
 30
0
 11
1320.841464395116
 21
486.4573609543014
 31
0
  0
LINE
  8
1
 62
7
 10
1320.620004569179
 20
486.8725981279343
 30
0
 11
1320.730734482148
 21
486.6419108092494
 31
0
  0
LINE
  8
1
 62
7
 10
1320.564639612694
 20
487.1494229103563
 30
0
 11
1320.620004569179
 21
486.8725981279343
 31
0
  0
LINE
  8
1
 62
7
 10
1320.50927465621
 20
487.5646600839892
 30
0
 11
1320.564639612694
 21
487.1494229103563
 31
0
  0
LINE
  8
1
 62
7
 10
1320.50927465621
 20
487.9337597938852
 30
0
 11
1320.50927465621
 21
487.5646600839892
 31
0
  0
LINE
  8
1
 62
7
 10
1320.564639612694
 20
488.3489969675182
 30
0
 11
1320.50927465621
 21
487.9337597938852
 31
0
  0
LINE
  8
1
 62
7
 10
1320.620004569179
 20
488.62582174994
 30
0
 11
1320.564639612694
 21
488.3489969675182
 31
0
  0
LINE
  8
1
 62
7
 10
1320.730734482148
 20
488.8565090686251
 30
0
 11
1320.620004569179
 21
488.62582174994
 31
0
  0
LINE
  8
1
 62
7
 10
1320.841464395116
 20
489.0410589235731
 30
0
 11
1320.730734482148
 21
488.8565090686251
 31
0
  0
LINE
  8
1
 62
7
 10
1321.007559264569
 20
489.2256087785211
 30
0
 11
1320.841464395116
 21
489.0410589235731
 31
0
  0
LINE
  8
1
 62
7
 10
1321.173654134023
 20
489.364021169732
 30
0
 11
1321.007559264569
 21
489.2256087785211
 31
0
  0
LINE
  8
1
 62
7
 10
1321.339749003476
 20
489.456296097206
 30
0
 11
1321.173654134023
 21
489.364021169732
 31
0
  0
LINE
  8
1
 62
7
 10
1321.616573785898
 20
489.54857102468
 30
0
 11
1321.339749003476
 21
489.456296097206
 31
0
  0
LINE
  8
1
 62
7
 10
1321.838033611835
 20
489.594708488417
 30
0
 11
1321.616573785898
 21
489.54857102468
 31
0
  0
LINE
  8
1
 62
7
 10
1322.225588307226
 20
489.594708488417
 30
0
 11
1321.838033611835
 21
489.594708488417
 31
0
  0
LINE
  8
1
 62
7
 10
1322.447048133164
 20
489.54857102468
 30
0
 11
1322.225588307226
 21
489.594708488417
 31
0
  0
LINE
  8
1
 62
7
 10
1322.723872915586
 20
489.456296097206
 30
0
 11
1322.447048133164
 21
489.54857102468
 31
0
  0
LINE
  8
1
 62
7
 10
1322.889967785039
 20
489.364021169732
 30
0
 11
1322.723872915586
 21
489.456296097206
 31
0
  0
LINE
  8
1
 62
7
 10
1323.056062654492
 20
489.2256087785211
 30
0
 11
1322.889967785039
 21
489.364021169732
 31
0
  0
LINE
  8
1
 62
7
 10
1323.222157523945
 20
489.0410589235731
 30
0
 11
1323.056062654492
 21
489.2256087785211
 31
0
  0
LINE
  8
1
 62
7
 10
1323.332887436914
 20
488.8565090686251
 30
0
 11
1323.222157523945
 21
489.0410589235731
 31
0
  0
LINE
  8
1
 62
7
 10
1323.443617349883
 20
488.62582174994
 30
0
 11
1323.332887436914
 21
488.8565090686251
 31
0
  0
LINE
  8
1
 62
7
 10
1323.498982306367
 20
488.3489969675182
 30
0
 11
1323.443617349883
 21
488.62582174994
 31
0
  0
LINE
  8
1
 62
7
 10
1323.554347262852
 20
487.9337597938852
 30
0
 11
1323.498982306367
 21
488.3489969675182
 31
0
  0
LINE
  8
1
 62
7
 10
1323.554347262852
 20
487.5646600839892
 30
0
 11
1323.554347262852
 21
487.9337597938852
 31
0
  0
LINE
  8
1
 62
7
 10
1323.498982306367
 20
487.1494229103563
 30
0
 11
1323.554347262852
 21
487.5646600839892
 31
0
  0
LINE
  8
1
 62
7
 10
1323.443617349883
 20
486.8725981279343
 30
0
 11
1323.498982306367
 21
487.1494229103563
 31
0
  0
LINE
  8
1
 62
7
 10
1323.332887436914
 20
486.6419108092494
 30
0
 11
1323.443617349883
 21
486.8725981279343
 31
0
  0
LINE
  8
1
 62
7
 10
1323.222157523945
 20
486.4573609543014
 30
0
 11
1323.332887436914
 21
486.6419108092494
 31
0
  0
LINE
  8
1
 62
7
 10
1323.056062654492
 20
486.2728110993534
 30
0
 11
1323.222157523945
 21
486.4573609543014
 31
0
  0
LINE
  8
1
 62
7
 10
1322.889967785039
 20
486.1343987081424
 30
0
 11
1323.056062654492
 21
486.2728110993534
 31
0
  0
LINE
  8
1
 62
7
 10
1321.616573785898
 20
486.4573609543014
 30
0
 11
1321.838033611835
 21
486.3650860268274
 31
0
  0
LINE
  8
1
 62
7
 10
1321.39511395996
 20
486.5957733455123
 30
0
 11
1321.616573785898
 21
486.4573609543014
 31
0
  0
LINE
  8
1
 62
7
 10
1321.284384046991
 20
486.7341857367233
 30
0
 11
1321.39511395996
 21
486.5957733455123
 31
0
  0
LINE
  8
1
 62
7
 10
1321.173654134023
 20
486.9648730554083
 30
0
 11
1321.284384046991
 21
486.7341857367233
 31
0
  0
LINE
  8
1
 62
7
 10
1321.118289177538
 20
487.4723851565152
 30
0
 11
1321.173654134023
 21
486.9648730554083
 31
0
  0
LINE
  8
1
 62
7
 10
1321.118289177538
 20
488.0260347213592
 30
0
 11
1321.118289177538
 21
487.4723851565152
 31
0
  0
LINE
  8
1
 62
7
 10
1321.173654134023
 20
488.5335468224661
 30
0
 11
1321.118289177538
 21
488.0260347213592
 31
0
  0
LINE
  8
1
 62
7
 10
1321.284384046991
 20
488.7642341411511
 30
0
 11
1321.173654134023
 21
488.5335468224661
 31
0
  0
LINE
  8
1
 62
7
 10
1321.39511395996
 20
488.9026465323621
 30
0
 11
1321.284384046991
 21
488.7642341411511
 31
0
  0
LINE
  8
1
 62
7
 10
1321.616573785898
 20
489.0410589235731
 30
0
 11
1321.39511395996
 21
488.9026465323621
 31
0
  0
LINE
  8
1
 62
7
 10
1321.838033611835
 20
489.1333338510471
 30
0
 11
1321.616573785898
 21
489.0410589235731
 31
0
  0
LINE
  8
1
 62
7
 10
1322.225588307226
 20
489.1333338510471
 30
0
 11
1321.838033611835
 21
489.1333338510471
 31
0
  0
LINE
  8
1
 62
7
 10
1322.447048133164
 20
489.0410589235731
 30
0
 11
1322.225588307226
 21
489.1333338510471
 31
0
  0
LINE
  8
1
 62
7
 10
1322.668507959101
 20
488.9026465323621
 30
0
 11
1322.447048133164
 21
489.0410589235731
 31
0
  0
LINE
  8
1
 62
7
 10
1322.77923787207
 20
488.7642341411511
 30
0
 11
1322.668507959101
 21
488.9026465323621
 31
0
  0
LINE
  8
1
 62
7
 10
1322.889967785039
 20
488.5335468224661
 30
0
 11
1322.77923787207
 21
488.7642341411511
 31
0
  0
LINE
  8
1
 62
7
 10
1322.945332741523
 20
488.0260347213592
 30
0
 11
1322.889967785039
 21
488.5335468224661
 31
0
  0
LINE
  8
1
 62
7
 10
1322.945332741523
 20
487.4723851565152
 30
0
 11
1322.945332741523
 21
488.0260347213592
 31
0
  0
LINE
  8
1
 62
7
 10
1322.889967785039
 20
486.9648730554083
 30
0
 11
1322.945332741523
 21
487.4723851565152
 31
0
  0
LINE
  8
1
 62
7
 10
1322.77923787207
 20
486.7341857367233
 30
0
 11
1322.889967785039
 21
486.9648730554083
 31
0
  0
LINE
  8
1
 62
7
 10
1322.668507959101
 20
486.5957733455123
 30
0
 11
1322.77923787207
 21
486.7341857367233
 31
0
  0
LINE
  8
1
 62
7
 10
1322.447048133164
 20
486.4573609543014
 30
0
 11
1322.668507959101
 21
486.5957733455123
 31
0
  0
LINE
  8
1
 62
7
 10
1322.225588307226
 20
486.3650860268274
 30
0
 11
1322.447048133164
 21
486.4573609543014
 31
0
  0
LINE
  8
1
 62
7
 10
1321.838033611835
 20
486.3650860268274
 30
0
 11
1322.225588307226
 21
486.3650860268274
 31
0
  0
LINE
  8
1
 62
7
 10
1329.348872915586
 20
486.0421237806684
 30
0
 11
1329.514967785039
 21
486.1343987081424
 31
0
  0
LINE
  8
1
 62
7
 10
1329.072048133164
 20
485.9498488531944
 30
0
 11
1329.348872915586
 21
486.0421237806684
 31
0
  0
LINE
  8
1
 62
7
 10
1328.850588307227
 20
485.9037113894574
 30
0
 11
1329.072048133164
 21
485.9498488531944
 31
0
  0
LINE
  8
1
 62
7
 10
1328.463033611836
 20
485.9037113894574
 30
0
 11
1328.850588307227
 21
485.9037113894574
 31
0
  0
LINE
  8
1
 62
7
 10
1328.241573785898
 20
485.9498488531944
 30
0
 11
1328.463033611836
 21
485.9037113894574
 31
0
  0
LINE
  8
1
 62
7
 10
1327.964749003476
 20
486.0421237806684
 30
0
 11
1328.241573785898
 21
485.9498488531944
 31
0
  0
LINE
  8
1
 62
7
 10
1327.798654134023
 20
486.1343987081424
 30
0
 11
1327.964749003476
 21
486.0421237806684
 31
0
  0
LINE
  8
1
 62
7
 10
1327.63255926457
 20
486.2728110993534
 30
0
 11
1327.798654134023
 21
486.1343987081424
 31
0
  0
LINE
  8
1
 62
7
 10
1327.466464395117
 20
486.4573609543014
 30
0
 11
1327.63255926457
 21
486.2728110993534
 31
0
  0
LINE
  8
1
 62
7
 10
1327.355734482148
 20
486.6419108092494
 30
0
 11
1327.466464395117
 21
486.4573609543014
 31
0
  0
LINE
  8
1
 62
7
 10
1327.245004569179
 20
486.8725981279343
 30
0
 11
1327.355734482148
 21
486.6419108092494
 31
0
  0
LINE
  8
1
 62
7
 10
1327.189639612695
 20
487.1494229103563
 30
0
 11
1327.245004569179
 21
486.8725981279343
 31
0
  0
LINE
  8
1
 62
7
 10
1327.13427465621
 20
487.5646600839892
 30
0
 11
1327.189639612695
 21
487.1494229103563
 31
0
  0
LINE
  8
1
 62
7
 10
1327.13427465621
 20
487.9337597938852
 30
0
 11
1327.13427465621
 21
487.5646600839892
 31
0
  0
LINE
  8
1
 62
7
 10
1327.189639612695
 20
488.3489969675182
 30
0
 11
1327.13427465621
 21
487.9337597938852
 31
0
  0
LINE
  8
1
 62
7
 10
1327.245004569179
 20
488.62582174994
 30
0
 11
1327.189639612695
 21
488.3489969675182
 31
0
  0
LINE
  8
1
 62
7
 10
1327.355734482148
 20
488.8565090686251
 30
0
 11
1327.245004569179
 21
488.62582174994
 31
0
  0
LINE
  8
1
 62
7
 10
1327.466464395117
 20
489.0410589235731
 30
0
 11
1327.355734482148
 21
488.8565090686251
 31
0
  0
LINE
  8
1
 62
7
 10
1327.63255926457
 20
489.2256087785211
 30
0
 11
1327.466464395117
 21
489.0410589235731
 31
0
  0
LINE
  8
1
 62
7
 10
1327.798654134023
 20
489.364021169732
 30
0
 11
1327.63255926457
 21
489.2256087785211
 31
0
  0
LINE
  8
1
 62
7
 10
1327.964749003476
 20
489.456296097206
 30
0
 11
1327.798654134023
 21
489.364021169732
 31
0
  0
LINE
  8
1
 62
7
 10
1328.241573785898
 20
489.54857102468
 30
0
 11
1327.964749003476
 21
489.456296097206
 31
0
  0
LINE
  8
1
 62
7
 10
1328.463033611836
 20
489.594708488417
 30
0
 11
1328.241573785898
 21
489.54857102468
 31
0
  0
LINE
  8
1
 62
7
 10
1328.850588307227
 20
489.594708488417
 30
0
 11
1328.463033611836
 21
489.594708488417
 31
0
  0
LINE
  8
1
 62
7
 10
1329.072048133164
 20
489.54857102468
 30
0
 11
1328.850588307227
 21
489.594708488417
 31
0
  0
LINE
  8
1
 62
7
 10
1329.348872915586
 20
489.456296097206
 30
0
 11
1329.072048133164
 21
489.54857102468
 31
0
  0
LINE
  8
1
 62
7
 10
1329.514967785039
 20
489.364021169732
 30
0
 11
1329.348872915586
 21
489.456296097206
 31
0
  0
LINE
  8
1
 62
7
 10
1329.681062654492
 20
489.2256087785211
 30
0
 11
1329.514967785039
 21
489.364021169732
 31
0
  0
LINE
  8
1
 62
7
 10
1329.847157523946
 20
489.0410589235731
 30
0
 11
1329.681062654492
 21
489.2256087785211
 31
0
  0
LINE
  8
1
 62
7
 10
1329.957887436915
 20
488.8565090686251
 30
0
 11
1329.847157523946
 21
489.0410589235731
 31
0
  0
LINE
  8
1
 62
7
 10
1330.068617349883
 20
488.62582174994
 30
0
 11
1329.957887436915
 21
488.8565090686251
 31
0
  0
LINE
  8
1
 62
7
 10
1330.123982306368
 20
488.3489969675182
 30
0
 11
1330.068617349883
 21
488.62582174994
 31
0
  0
LINE
  8
1
 62
7
 10
1330.179347262852
 20
487.9337597938852
 30
0
 11
1330.123982306368
 21
488.3489969675182
 31
0
  0
LINE
  8
1
 62
7
 10
1330.179347262852
 20
487.5646600839892
 30
0
 11
1330.179347262852
 21
487.9337597938852
 31
0
  0
LINE
  8
1
 62
7
 10
1330.123982306368
 20
487.1494229103563
 30
0
 11
1330.179347262852
 21
487.5646600839892
 31
0
  0
LINE
  8
1
 62
7
 10
1330.068617349883
 20
486.8725981279343
 30
0
 11
1330.123982306368
 21
487.1494229103563
 31
0
  0
LINE
  8
1
 62
7
 10
1329.957887436915
 20
486.6419108092494
 30
0
 11
1330.068617349883
 21
486.8725981279343
 31
0
  0
LINE
  8
1
 62
7
 10
1329.847157523946
 20
486.4573609543014
 30
0
 11
1329.957887436915
 21
486.6419108092494
 31
0
  0
LINE
  8
1
 62
7
 10
1329.681062654492
 20
486.2728110993534
 30
0
 11
1329.847157523946
 21
486.4573609543014
 31
0
  0
LINE
  8
1
 62
7
 10
1329.514967785039
 20
486.1343987081424
 30
0
 11
1329.681062654492
 21
486.2728110993534
 31
0
  0
LINE
  8
1
 62
7
 10
1328.241573785898
 20
486.4573609543014
 30
0
 11
1328.463033611836
 21
486.3650860268274
 31
0
  0
LINE
  8
1
 62
7
 10
1328.020113959961
 20
486.5957733455123
 30
0
 11
1328.241573785898
 21
486.4573609543014
 31
0
  0
LINE
  8
1
 62
7
 10
1327.909384046992
 20
486.7341857367233
 30
0
 11
1328.020113959961
 21
486.5957733455123
 31
0
  0
LINE
  8
1
 62
7
 10
1327.798654134023
 20
486.9648730554083
 30
0
 11
1327.909384046992
 21
486.7341857367233
 31
0
  0
LINE
  8
1
 62
7
 10
1327.743289177539
 20
487.4723851565152
 30
0
 11
1327.798654134023
 21
486.9648730554083
 31
0
  0
LINE
  8
1
 62
7
 10
1327.743289177539
 20
488.0260347213592
 30
0
 11
1327.743289177539
 21
487.4723851565152
 31
0
  0
LINE
  8
1
 62
7
 10
1327.798654134023
 20
488.5335468224661
 30
0
 11
1327.743289177539
 21
488.0260347213592
 31
0
  0
LINE
  8
1
 62
7
 10
1327.909384046992
 20
488.7642341411511
 30
0
 11
1327.798654134023
 21
488.5335468224661
 31
0
  0
LINE
  8
1
 62
7
 10
1328.020113959961
 20
488.9026465323621
 30
0
 11
1327.909384046992
 21
488.7642341411511
 31
0
  0
LINE
  8
1
 62
7
 10
1328.241573785898
 20
489.0410589235731
 30
0
 11
1328.020113959961
 21
488.9026465323621
 31
0
  0
LINE
  8
1
 62
7
 10
1328.463033611836
 20
489.1333338510471
 30
0
 11
1328.241573785898
 21
489.0410589235731
 31
0
  0
LINE
  8
1
 62
7
 10
1328.850588307227
 20
489.1333338510471
 30
0
 11
1328.463033611836
 21
489.1333338510471
 31
0
  0
LINE
  8
1
 62
7
 10
1329.072048133164
 20
489.0410589235731
 30
0
 11
1328.850588307227
 21
489.1333338510471
 31
0
  0
LINE
  8
1
 62
7
 10
1329.293507959102
 20
488.9026465323621
 30
0
 11
1329.072048133164
 21
489.0410589235731
 31
0
  0
LINE
  8
1
 62
7
 10
1329.404237872071
 20
488.7642341411511
 30
0
 11
1329.293507959102
 21
488.9026465323621
 31
0
  0
LINE
  8
1
 62
7
 10
1329.514967785039
 20
488.5335468224661
 30
0
 11
1329.404237872071
 21
488.7642341411511
 31
0
  0
LINE
  8
1
 62
7
 10
1329.570332741524
 20
488.0260347213592
 30
0
 11
1329.514967785039
 21
488.5335468224661
 31
0
  0
LINE
  8
1
 62
7
 10
1329.570332741524
 20
487.4723851565152
 30
0
 11
1329.570332741524
 21
488.0260347213592
 31
0
  0
LINE
  8
1
 62
7
 10
1329.514967785039
 20
486.9648730554083
 30
0
 11
1329.570332741524
 21
487.4723851565152
 31
0
  0
LINE
  8
1
 62
7
 10
1329.404237872071
 20
486.7341857367233
 30
0
 11
1329.514967785039
 21
486.9648730554083
 31
0
  0
LINE
  8
1
 62
7
 10
1329.293507959102
 20
486.5957733455123
 30
0
 11
1329.404237872071
 21
486.7341857367233
 31
0
  0
LINE
  8
1
 62
7
 10
1329.072048133164
 20
486.4573609543014
 30
0
 11
1329.293507959102
 21
486.5957733455123
 31
0
  0
LINE
  8
1
 62
7
 10
1328.850588307227
 20
486.3650860268274
 30
0
 11
1329.072048133164
 21
486.4573609543014
 31
0
  0
LINE
  8
1
 62
7
 10
1328.463033611836
 20
486.3650860268274
 30
0
 11
1328.850588307227
 21
486.3650860268274
 31
0
  0
LINE
  8
1
 62
7
 10
1335.973872915587
 20
486.0421237806684
 30
0
 11
1336.13996778504
 21
486.1343987081424
 31
0
  0
LINE
  8
1
 62
7
 10
1335.697048133165
 20
485.9498488531944
 30
0
 11
1335.973872915587
 21
486.0421237806684
 31
0
  0
LINE
  8
1
 62
7
 10
1335.475588307227
 20
485.9037113894574
 30
0
 11
1335.697048133165
 21
485.9498488531944
 31
0
  0
LINE
  8
1
 62
7
 10
1335.088033611836
 20
485.9037113894574
 30
0
 11
1335.475588307227
 21
485.9037113894574
 31
0
  0
LINE
  8
1
 62
7
 10
1334.866573785899
 20
485.9498488531944
 30
0
 11
1335.088033611836
 21
485.9037113894574
 31
0
  0
LINE
  8
1
 62
7
 10
1334.589749003477
 20
486.0421237806684
 30
0
 11
1334.866573785899
 21
485.9498488531944
 31
0
  0
LINE
  8
1
 62
7
 10
1334.423654134024
 20
486.1343987081424
 30
0
 11
1334.589749003477
 21
486.0421237806684
 31
0
  0
LINE
  8
1
 62
7
 10
1334.25755926457
 20
486.2728110993534
 30
0
 11
1334.423654134024
 21
486.1343987081424
 31
0
  0
LINE
  8
1
 62
7
 10
1334.091464395117
 20
486.4573609543014
 30
0
 11
1334.25755926457
 21
486.2728110993534
 31
0
  0
LINE
  8
1
 62
7
 10
1333.980734482148
 20
486.6419108092494
 30
0
 11
1334.091464395117
 21
486.4573609543014
 31
0
  0
LINE
  8
1
 62
7
 10
1333.87000456918
 20
486.8725981279343
 30
0
 11
1333.980734482148
 21
486.6419108092494
 31
0
  0
LINE
  8
1
 62
7
 10
1333.814639612695
 20
487.1494229103563
 30
0
 11
1333.87000456918
 21
486.8725981279343
 31
0
  0
LINE
  8
1
 62
7
 10
1333.759274656211
 20
487.5646600839892
 30
0
 11
1333.814639612695
 21
487.1494229103563
 31
0
  0
LINE
  8
1
 62
7
 10
1333.759274656211
 20
487.9337597938852
 30
0
 11
1333.759274656211
 21
487.5646600839892
 31
0
  0
LINE
  8
1
 62
7
 10
1333.814639612695
 20
488.3489969675182
 30
0
 11
1333.759274656211
 21
487.9337597938852
 31
0
  0
LINE
  8
1
 62
7
 10
1333.87000456918
 20
488.62582174994
 30
0
 11
1333.814639612695
 21
488.3489969675182
 31
0
  0
LINE
  8
1
 62
7
 10
1333.980734482148
 20
488.8565090686251
 30
0
 11
1333.87000456918
 21
488.62582174994
 31
0
  0
LINE
  8
1
 62
7
 10
1334.091464395117
 20
489.0410589235731
 30
0
 11
1333.980734482148
 21
488.8565090686251
 31
0
  0
LINE
  8
1
 62
7
 10
1334.25755926457
 20
489.2256087785211
 30
0
 11
1334.091464395117
 21
489.0410589235731
 31
0
  0
LINE
  8
1
 62
7
 10
1334.423654134024
 20
489.364021169732
 30
0
 11
1334.25755926457
 21
489.2256087785211
 31
0
  0
LINE
  8
1
 62
7
 10
1334.589749003477
 20
489.456296097206
 30
0
 11
1334.423654134024
 21
489.364021169732
 31
0
  0
LINE
  8
1
 62
7
 10
1334.866573785899
 20
489.54857102468
 30
0
 11
1334.589749003477
 21
489.456296097206
 31
0
  0
LINE
  8
1
 62
7
 10
1335.088033611836
 20
489.594708488417
 30
0
 11
1334.866573785899
 21
489.54857102468
 31
0
  0
LINE
  8
1
 62
7
 10
1335.475588307227
 20
489.594708488417
 30
0
 11
1335.088033611836
 21
489.594708488417
 31
0
  0
LINE
  8
1
 62
7
 10
1335.697048133165
 20
489.54857102468
 30
0
 11
1335.475588307227
 21
489.594708488417
 31
0
  0
LINE
  8
1
 62
7
 10
1335.973872915587
 20
489.456296097206
 30
0
 11
1335.697048133165
 21
489.54857102468
 31
0
  0
LINE
  8
1
 62
7
 10
1336.13996778504
 20
489.364021169732
 30
0
 11
1335.973872915587
 21
489.456296097206
 31
0
  0
LINE
  8
1
 62
7
 10
1336.306062654493
 20
489.2256087785211
 30
0
 11
1336.13996778504
 21
489.364021169732
 31
0
  0
LINE
  8
1
 62
7
 10
1336.472157523946
 20
489.0410589235731
 30
0
 11
1336.306062654493
 21
489.2256087785211
 31
0
  0
LINE
  8
1
 62
7
 10
1336.582887436915
 20
488.8565090686251
 30
0
 11
1336.472157523946
 21
489.0410589235731
 31
0
  0
LINE
  8
1
 62
7
 10
1336.693617349884
 20
488.62582174994
 30
0
 11
1336.582887436915
 21
488.8565090686251
 31
0
  0
LINE
  8
1
 62
7
 10
1336.748982306368
 20
488.3489969675182
 30
0
 11
1336.693617349884
 21
488.62582174994
 31
0
  0
LINE
  8
1
 62
7
 10
1336.804347262852
 20
487.9337597938852
 30
0
 11
1336.748982306368
 21
488.3489969675182
 31
0
  0
LINE
  8
1
 62
7
 10
1336.804347262852
 20
487.5646600839892
 30
0
 11
1336.804347262852
 21
487.9337597938852
 31
0
  0
LINE
  8
1
 62
7
 10
1336.748982306368
 20
487.1494229103563
 30
0
 11
1336.804347262852
 21
487.5646600839892
 31
0
  0
LINE
  8
1
 62
7
 10
1336.693617349884
 20
486.8725981279343
 30
0
 11
1336.748982306368
 21
487.1494229103563
 31
0
  0
LINE
  8
1
 62
7
 10
1336.582887436915
 20
486.6419108092494
 30
0
 11
1336.693617349884
 21
486.8725981279343
 31
0
  0
LINE
  8
1
 62
7
 10
1336.472157523946
 20
486.4573609543014
 30
0
 11
1336.582887436915
 21
486.6419108092494
 31
0
  0
LINE
  8
1
 62
7
 10
1336.306062654493
 20
486.2728110993534
 30
0
 11
1336.472157523946
 21
486.4573609543014
 31
0
  0
LINE
  8
1
 62
7
 10
1336.13996778504
 20
486.1343987081424
 30
0
 11
1336.306062654493
 21
486.2728110993534
 31
0
  0
LINE
  8
1
 62
7
 10
1334.866573785899
 20
486.4573609543014
 30
0
 11
1335.088033611836
 21
486.3650860268274
 31
0
  0
LINE
  8
1
 62
7
 10
1334.645113959961
 20
486.5957733455123
 30
0
 11
1334.866573785899
 21
486.4573609543014
 31
0
  0
LINE
  8
1
 62
7
 10
1334.534384046992
 20
486.7341857367233
 30
0
 11
1334.645113959961
 21
486.5957733455123
 31
0
  0
LINE
  8
1
 62
7
 10
1334.423654134024
 20
486.9648730554083
 30
0
 11
1334.534384046992
 21
486.7341857367233
 31
0
  0
LINE
  8
1
 62
7
 10
1334.368289177539
 20
487.4723851565152
 30
0
 11
1334.423654134024
 21
486.9648730554083
 31
0
  0
LINE
  8
1
 62
7
 10
1334.368289177539
 20
488.0260347213592
 30
0
 11
1334.368289177539
 21
487.4723851565152
 31
0
  0
LINE
  8
1
 62
7
 10
1334.423654134024
 20
488.5335468224661
 30
0
 11
1334.368289177539
 21
488.0260347213592
 31
0
  0
LINE
  8
1
 62
7
 10
1334.534384046992
 20
488.7642341411511
 30
0
 11
1334.423654134024
 21
488.5335468224661
 31
0
  0
LINE
  8
1
 62
7
 10
1334.645113959961
 20
488.9026465323621
 30
0
 11
1334.534384046992
 21
488.7642341411511
 31
0
  0
LINE
  8
1
 62
7
 10
1334.866573785899
 20
489.0410589235731
 30
0
 11
1334.645113959961
 21
488.9026465323621
 31
0
  0
LINE
  8
1
 62
7
 10
1335.088033611836
 20
489.1333338510471
 30
0
 11
1334.866573785899
 21
489.0410589235731
 31
0
  0
LINE
  8
1
 62
7
 10
1335.475588307227
 20
489.1333338510471
 30
0
 11
1335.088033611836
 21
489.1333338510471
 31
0
  0
LINE
  8
1
 62
7
 10
1335.697048133165
 20
489.0410589235731
 30
0
 11
1335.475588307227
 21
489.1333338510471
 31
0
  0
LINE
  8
1
 62
7
 10
1335.918507959102
 20
488.9026465323621
 30
0
 11
1335.697048133165
 21
489.0410589235731
 31
0
  0
LINE
  8
1
 62
7
 10
1336.029237872071
 20
488.7642341411511
 30
0
 11
1335.918507959102
 21
488.9026465323621
 31
0
  0
LINE
  8
1
 62
7
 10
1336.13996778504
 20
488.5335468224661
 30
0
 11
1336.029237872071
 21
488.7642341411511
 31
0
  0
LINE
  8
1
 62
7
 10
1336.195332741524
 20
488.0260347213592
 30
0
 11
1336.13996778504
 21
488.5335468224661
 31
0
  0
LINE
  8
1
 62
7
 10
1336.195332741524
 20
487.4723851565152
 30
0
 11
1336.195332741524
 21
488.0260347213592
 31
0
  0
LINE
  8
1
 62
7
 10
1336.13996778504
 20
486.9648730554083
 30
0
 11
1336.195332741524
 21
487.4723851565152
 31
0
  0
LINE
  8
1
 62
7
 10
1336.029237872071
 20
486.7341857367233
 30
0
 11
1336.13996778504
 21
486.9648730554083
 31
0
  0
LINE
  8
1
 62
7
 10
1335.918507959102
 20
486.5957733455123
 30
0
 11
1336.029237872071
 21
486.7341857367233
 31
0
  0
LINE
  8
1
 62
7
 10
1335.697048133165
 20
486.4573609543014
 30
0
 11
1335.918507959102
 21
486.5957733455123
 31
0
  0
LINE
  8
1
 62
7
 10
1335.475588307227
 20
486.3650860268274
 30
0
 11
1335.697048133165
 21
486.4573609543014
 31
0
  0
LINE
  8
1
 62
7
 10
1335.088033611836
 20
486.3650860268274
 30
0
 11
1335.475588307227
 21
486.3650860268274
 31
0
  0
LINE
  8
1
 62
7
 10
1341.680777559167
 20
485.9037113894576
 30
0
 11
1342.142152196537
 21
485.9037113894576
 31
0
  0
LINE
  8
1
 62
7
 10
1341.680777559167
 20
488.5796842862033
 30
0
 11
1341.680777559167
 21
485.9037113894576
 31
0
  0
LINE
  8
1
 62
7
 10
1340.804165748165
 20
488.5796842862033
 30
0
 11
1341.680777559167
 21
488.5796842862033
 31
0
  0
LINE
  8
1
 62
7
 10
1340.804165748165
 20
488.9487839960992
 30
0
 11
1340.804165748165
 21
488.5796842862033
 31
0
  0
LINE
  8
1
 62
7
 10
1340.896440675638
 20
488.9487839960992
 30
0
 11
1340.804165748165
 21
488.9487839960992
 31
0
  0
LINE
  8
1
 62
7
 10
1341.127127994323
 20
488.9949214598362
 30
0
 11
1340.896440675638
 21
488.9487839960992
 31
0
  0
LINE
  8
1
 62
7
 10
1341.265540385534
 20
489.0410589235732
 30
0
 11
1341.127127994323
 21
488.9949214598362
 31
0
  0
LINE
  8
1
 62
7
 10
1341.450090240482
 20
489.1333338510472
 30
0
 11
1341.265540385534
 21
489.0410589235732
 31
0
  0
LINE
  8
1
 62
7
 10
1341.588502631693
 20
489.2717462422582
 30
0
 11
1341.450090240482
 21
489.1333338510472
 31
0
  0
LINE
  8
1
 62
7
 10
1341.726915022904
 20
489.4562960972061
 30
0
 11
1341.588502631693
 21
489.2717462422582
 31
0
  0
LINE
  8
1
 62
7
 10
1341.773052486641
 20
489.5947084884172
 30
0
 11
1341.726915022904
 21
489.4562960972061
 31
0
  0
LINE
  8
1
 62
7
 10
1342.142152196537
 20
489.5947084884172
 30
0
 11
1341.773052486641
 21
489.5947084884172
 31
0
  0
LINE
  8
1
 62
7
 10
1342.142152196537
 20
485.9037113894576
 30
0
 11
1342.142152196537
 21
489.5947084884172
 31
0
  0
LINE
  8
1
 62
7
 10
1312.177217426332
 20
491.4615205401674
 30
0
 11
1312.177217426332
 21
487.8497150023256
 31
0
  0
LINE
  8
1
 62
7
 10
1370.723158972351
 20
491.4615205401667
 30
0
 11
1370.723158972351
 21
492.8202777508026
 31
0
  0
LINE
  8
1
 62
7
 10
1370.723158972351
 20
491.1079671495733
 30
0
 11
1370.723158972351
 21
491.4615205401667
 31
0
  0
LINE
  8
1
 62
7
 10
1368.638760398049
 20
481.7388022988516
 30
0
 11
1363.223158972351
 21
481.7388022988516
 31
0
  0
LINE
  8
1
 62
7
 10
1370.223158972351
 20
484.7272160031264
 30
0
 11
1370.223158972351
 21
487.4992099389363
 31
0
  0
LINE
  8
1
 62
7
 10
1370.723158972351
 20
487.9992099389363
 30
0
 11
1370.223158972351
 21
487.9992099389363
 31
0
  0
LINE
  8
1
 62
7
 10
1370.723158972351
 20
491.1079671495733
 30
0
 11
1346.071220687281
 21
491.1079671495742
 31
0
  0
LINE
  8
1
 62
7
 10
1312.177217426332
 20
491.4615205401674
 30
0
 11
1370.723158972351
 21
491.4615205401667
 31
0
  0
LINE
  8
1
 62
7
 10
1363.223158972351
 20
481.7388022988516
 30
0
 11
1363.223158972351
 21
484.0368993377071
 31
0
  0
LINE
  8
1
 62
7
 10
1363.223158972351
 20
484.0368993377071
 30
0
 11
1312.932627835245
 21
484.036899337708
 31
0
  0
LINE
  8
1
 62
7
 10
1365.223158972351
 20
483.1530158612246
 30
0
 11
1369.551579962425
 21
483.1530158612247
 31
0
  0
LINE
  8
1
 62
7
 10
1370.223158972351
 20
490.0473069777926
 30
0
 11
1347.571220687281
 21
490.0473069777935
 31
0
  0
LINE
  8
1
 62
7
 10
1347.571220687281
 20
490.0473069777935
 30
0
 11
1347.571220687281
 21
485.4511129000813
 31
0
  0
LINE
  8
1
 62
7
 10
1347.571220687281
 20
485.4511129000813
 30
0
 11
1365.223158972351
 21
485.4511129000804
 31
0
  0
LINE
  8
1
 62
7
 10
1365.223158972351
 20
485.4511129000804
 30
0
 11
1365.223158972351
 21
483.1530158612246
 31
0
  0
LINE
  8
1
 62
7
 10
1346.071220687281
 20
484.390452728302
 30
0
 11
1363.723158972351
 21
484.3904527283011
 31
0
  0
LINE
  8
1
 62
7
 10
1363.723158972351
 20
484.3904527283011
 30
0
 11
1363.723158972351
 21
482.0923556894449
 31
0
  0
LINE
  8
1
 62
7
 10
1363.723158972351
 20
482.0923556894449
 30
0
 11
1368.89951596935
 21
482.0923556894448
 31
0
  0
LINE
  8
1
 62
7
 10
1370.223158972351
 20
487.9992099389363
 30
0
 11
1370.223158972351
 21
490.0473069777926
 31
0
  0
LINE
  8
1
 62
7
 10
1370.223158972351
 20
487.4992099389363
 30
0
 11
1370.717014394586
 21
487.4992099389363
 31
0
  0
LINE
  8
1
 62
7
 10
1370.223158972351
 20
487.4992099389363
 30
0
 11
1370.223158972351
 21
487.9992099389363
 31
0
  0
LINE
  8
1
 62
7
 10
1346.071220687281
 20
491.1079671495742
 30
0
 11
1346.071220687281
 21
484.390452728302
 31
0
  0
LINE
  8
1
 62
7
 10
1312.723158972351
 20
485.4511129000813
 30
0
 11
1344.071220687281
 21
485.4511129000808
 31
0
  0
LINE
  8
1
 62
7
 10
1312.723158972351
 20
490.0473069777935
 30
0
 11
1312.723158972351
 21
485.4511129000813
 31
0
  0
LINE
  8
1
 62
7
 10
1344.071220687281
 20
485.4511129000808
 30
0
 11
1344.071220687281
 21
490.0473069777935
 31
0
  0
LINE
  8
1
 62
7
 10
1344.071220687281
 20
490.0473069777935
 30
0
 11
1312.723158972351
 21
490.0473069777935
 31
0
  0
LINE
  8
1
 62
7
 10
1369.997775530924
 20
487.5492099389372
 30
0
 11
1369.997775530924
 21
487.9492099389372
 31
0
  0
LINE
  8
1
 62
7
 10
1368.737770667364
 20
487.5492099389372
 30
0
 11
1369.997775530924
 21
487.5492099389372
 31
0
  0
LINE
  8
1
 62
7
 10
1368.737770667364
 20
487.9492099389372
 30
0
 11
1368.737770667364
 21
487.5492099389372
 31
0
  0
LINE
  8
1
 62
7
 10
1369.997775530924
 20
487.9492099389372
 30
0
 11
1368.737770667364
 21
487.9492099389372
 31
0
  0
LINE
  8
1
 62
7
 10
1339.863174609284
 20
493.9584811784469
 30
0
 11
1340.223174609284
 21
493.9584811784469
 31
0
  0
LINE
  8
1
 62
7
 10
1342.653174609284
 20
491.7264811784469
 30
0
 11
1343.013174609284
 21
491.7264811784469
 31
0
  0
LINE
  8
1
 62
7
 10
1341.258174609284
 20
491.7264811784469
 30
0
 11
1341.618174609284
 21
491.7264811784469
 31
0
  0
LINE
  8
1
 62
7
 10
1339.863174609284
 20
491.7264811784469
 30
0
 11
1340.223174609284
 21
491.7264811784469
 31
0
  0
LINE
  8
1
 62
7
 10
1343.013174609284
 20
491.7264811784469
 30
0
 11
1343.013174609284
 21
493.0809811784467
 31
0
  0
LINE
  8
1
 62
7
 10
1342.653174609284
 20
491.7264811784469
 30
0
 11
1342.653174609284
 21
493.0809811784467
 31
0
  0
LINE
  8
1
 62
7
 10
1341.618174609284
 20
491.7264811784469
 30
0
 11
1341.618174609284
 21
493.0809811784467
 31
0
  0
LINE
  8
1
 62
7
 10
1341.258174609284
 20
491.7264811784469
 30
0
 11
1341.258174609284
 21
493.0809811784467
 31
0
  0
LINE
  8
1
 62
7
 10
1340.223174609284
 20
493.789641887108
 30
0
 11
1340.223174609284
 21
493.9584811784469
 31
0
  0
LINE
  8
1
 62
7
 10
1340.223174609284
 20
491.7264811784469
 30
0
 11
1340.223174609284
 21
493.0809811784467
 31
0
  0
LINE
  8
1
 62
7
 10
1339.863174609284
 20
491.7264811784469
 30
0
 11
1339.863174609284
 21
493.9584811784469
 31
0
  0
LINE
  8
1
 62
7
 10
1342.653174609284
 20
491.7264811784469
 30
0
 11
1343.013174609284
 21
491.7264811784469
 31
0
  0
LINE
  8
1
 62
7
 10
1341.258174609284
 20
491.7264811784469
 30
0
 11
1341.618174609284
 21
491.7264811784469
 31
0
  0
LINE
  8
1
 62
7
 10
1339.863174609284
 20
491.7264811784469
 30
0
 11
1340.223174609284
 21
491.7264811784469
 31
0
  0
LINE
  8
1
 62
7
 10
1371.473158972351
 20
437.645656548344
 30
0
 11
1373.973158972351
 21
437.645656548344
 31
0
  0
LINE
  8
1
 62
7
 10
1371.473158972351
 20
437.645656548344
 30
0
 11
1371.473158972351
 21
435.645656548344
 31
0
  0
LINE
  8
1
 62
7
 10
1311.473158972351
 20
437.645656548344
 30
0
 11
1371.473158972351
 21
437.645656548344
 31
0
  0
LINE
  8
1
 62
7
 10
1311.473158972351
 20
437.645656548344
 30
0
 11
1311.473158972351
 21
435.645656548344
 31
0
  0
LINE
  8
1
 62
7
 10
1375.973158972351
 20
444.645656548344
 30
0
 11
1306.973158972351
 21
444.645656548344
 31
0
  0
LINE
  8
1
 62
7
 10
1306.973158972351
 20
444.645656548344
 30
0
 11
1296.473158972351
 21
444.645656548344
 31
0
  0
LINE
  8
1
 62
7
 10
1307.973158972351
 20
438.645656548344
 30
0
 11
1307.973158972351
 21
443.645656548344
 31
0
  0
LINE
  8
1
 62
7
 10
1374.973158972351
 20
438.645656548344
 30
0
 11
1374.973158972351
 21
443.645656548344
 31
0
  0
LINE
  8
1
 62
7
 10
1308.973158972351
 20
437.645656548344
 30
0
 11
1311.473158972351
 21
437.645656548344
 31
0
  0
LINE
  8
1
 62
7
 10
1312.177217426332
 20
492.8202777508026
 30
0
 11
1312.177217426332
 21
493.5273845319893
 31
0
  0
LINE
  8
1
 62
7
 10
1370.723158972351
 20
492.8202777508026
 30
0
 11
1370.723158972351
 21
493.5273845319893
 31
0
  0
LINE
  8
1
 62
7
 10
1312.177217426332
 20
492.8202777508026
 30
0
 11
1312.177217426332
 21
491.4615205401674
 31
0
  0
LINE
  8
1
 62
7
 10
1314.177217426332
 20
494.8202777508026
 30
0
 11
1368.723158972351
 21
494.8202777508026
 31
0
  0
LINE
  8
1
 62
7
 10
1368.723158972351
 20
495.5273845319893
 30
0
 11
1314.177217426332
 21
495.5273845319893
 31
0
  0
LINE
  8
1
 62
7
 10
1370.723158972351
 20
487.8497150023256
 30
0
 11
1370.723158972351
 21
491.1079671495733
 31
0
  0
LINE
  8
1
 62
7
 10
1322.177217426332
 20
477.8497150023256
 30
0
 11
1360.723158972351
 21
477.8497150023256
 31
0
  0
LINE
  8
1
 62
7
 10
1347.48044951158
 20
466.145656548344
 30
0
 11
1382.973158972351
 21
466.145656548344
 31
0
  0
LINE
  8
1
 62
7
 10
1298.473158972351
 20
453.645656548344
 30
0
 11
1384.473158972351
 21
453.645656548344
 31
0
  0
LINE
  8
1
 62
7
 10
1304.105196696452
 20
495.0699206170559
 30
0
 11
1299.973158972351
 21
466.145656548344
 31
0
  0
LINE
  8
1
 62
7
 10
1382.973158972351
 20
466.145656548344
 30
0
 11
1378.841121248249
 21
495.0699206170559
 31
0
  0
LINE
  8
1
 62
7
 10
1307.075045177436
 20
497.645656548344
 30
0
 11
1375.871272767266
 21
497.645656548344
 31
0
  0
LINE
  8
1
 62
7
 10
1299.973158972351
 20
466.145656548344
 30
0
 11
1299.973158972351
 21
455.145656548344
 31
0
  0
LINE
  8
1
 62
7
 10
1384.473158972351
 20
453.645656548344
 30
0
 11
1384.973158972351
 21
453.645656548344
 31
0
  0
LINE
  8
1
 62
7
 10
1382.973158972351
 20
466.145656548344
 30
0
 11
1382.973158972351
 21
455.145656548344
 31
0
  0
LINE
  8
1
 62
7
 10
1299.973158972351
 20
466.145656548344
 30
0
 11
1335.465868433122
 21
466.145656548344
 31
0
  0
LINE
  8
1
 62
7
 10
1296.473158972351
 20
444.645656548344
 30
0
 11
1296.473158972351
 21
452.145656548344
 31
0
  0
LINE
  8
1
 62
7
 10
1386.473158972351
 20
444.645656548344
 30
0
 11
1375.973158972351
 21
444.645656548344
 31
0
  0
LINE
  8
1
 62
7
 10
1386.473158972351
 20
452.145656548344
 30
0
 11
1386.473158972351
 21
444.645656548344
 31
0
  0
LINE
  8
1
 62
7
 10
1297.973158972351
 20
453.645656548344
 30
0
 11
1298.473158972351
 21
453.645656548344
 31
0
  0
LINE
  8
1
 62
2
  6
DASHDOT
 10
1373.667706872182
 20
441.1080787702677
 30
0
 11
1379.266392080033
 21
441.1080787702677
 31
0
  0
LINE
  8
1
 62
7
 10
1376.473977154169
 20
443.8595787702677
 30
0
 11
1376.473977154169
 21
438.3565787702677
 31
0
  0
LINE
  8
1
 62
7
 10
1376.473977154169
 20
438.3565787702677
 30
0
 11
1377.018720030812
 21
438.4042375965105
 31
0
  0
LINE
  8
1
 62
7
 10
1376.473977154169
 20
443.8595787702677
 30
0
 11
1377.018720030812
 21
443.8119199440249
 31
0
  0
LINE
  8
1
 62
2
 10
1374.973158972351
 20
439.9074242248131
 30
0
 11
1376.473977154169
 21
439.9074242248131
 31
0
  0
LINE
  8
1
 62
2
 10
1374.973158972351
 20
442.3087333157222
 30
0
 11
1376.473977154169
 21
442.3087333157222
 31
0
  0
LINE
  8
1
 62
2
 10
1377.552482524563
 20
441.1080787702677
 30
0
 11
1378.373497740913
 21
442.5301188387738
 31
0
  0
LINE
  8
1
 62
2
 10
1378.373497740913
 20
439.6860387017615
 30
0
 11
1377.552482524563
 21
441.1080787702677
 31
0
  0
LINE
  8
1
 62
7
 10
1376.473977154169
 20
439.6072605884496
 30
0
 11
1374.973158972351
 21
439.6072605884496
 31
0
  0
LINE
  8
1
 62
7
 10
1376.473977154169
 20
442.6088969520859
 30
0
 11
1374.973158972351
 21
442.6088969520859
 31
0
  0
LINE
  8
1
 62
7
 10
1260.693658972351
 20
552.0037175326361
 30
0
 11
1260.693658972351
 21
578.4447175326361
 31
0
  0
LINE
  8
1
 62
7
 10
1422.252658972351
 20
552.0037175326361
 30
0
 11
1422.252658972351
 21
578.4447175326361
 31
0
  0
LINE
  8
1
 62
7
 10
1260.693658972351
 20
578.4447175326361
 30
0
 11
1258.973158972351
 21
576.724217532636
 31
0
  0
LINE
  8
1
 62
7
 10
1422.252658972351
 20
552.0037175326361
 30
0
 11
1412.973158972351
 21
552.0037175326361
 31
0
  0
LINE
  8
1
 62
7
 10
1423.973158972351
 20
576.724217532636
 30
0
 11
1423.973158972351
 21
553.724217532636
 31
0
  0
LINE
  8
1
 62
7
 10
1258.973158972351
 20
553.724217532636
 30
0
 11
1260.693658972351
 21
552.0037175326361
 31
0
  0
LINE
  8
1
 62
7
 10
1423.973158972351
 20
553.724217532636
 30
0
 11
1422.252658972351
 21
552.0037175326361
 31
0
  0
LINE
  8
1
 62
7
 10
1273.346615548664
 20
571.5018095708642
 30
0
 11
1271.421884260717
 21
572.0537173865089
 31
0
  0
LINE
  8
1
 62
7
 10
1269.973158972351
 20
552.0079163538471
 30
0
 11
1269.973158972351
 21
573.9762407783856
 31
0
  0
LINE
  8
1
 62
7
 10
1258.973158972351
 20
576.724217532636
 30
0
 11
1258.973158972351
 21
553.724217532636
 31
0
  0
LINE
  8
1
 62
7
 10
1272.14174247724
 20
553.6420612369423
 30
0
 11
1299.448930993931
 21
545.8118509317351
 31
0
  0
LINE
  8
1
 62
7
 10
1269.973158972351
 20
552.0037175326361
 30
0
 11
1269.973158972351
 21
552.0079163538471
 31
0
  0
LINE
  8
1
 62
7
 10
1260.693658972351
 20
552.0037175326361
 30
0
 11
1269.973158972351
 21
552.0037175326361
 31
0
  0
LINE
  8
1
 62
7
 10
1269.973158972351
 20
578.4447175326361
 30
0
 11
1260.693658972351
 21
578.4447175326361
 31
0
  0
LINE
  8
1
 62
7
 10
1269.973158972351
 20
573.9762407783856
 30
0
 11
1269.973158972351
 21
578.4447175326361
 31
0
  0
LINE
  8
1
 62
7
 10
1409.887811971235
 20
571.3243488031799
 30
0
 11
1411.524433683985
 21
571.7936425275434
 31
0
  0
LINE
  8
1
 62
7
 10
1412.973158972351
 20
552.0037175326361
 30
0
 11
1412.973158972351
 21
573.7161659194201
 31
0
  0
LINE
  8
1
 62
7
 10
1422.252658972351
 20
578.4447175326361
 30
0
 11
1423.973158972351
 21
576.724217532636
 31
0
  0
LINE
  8
1
 62
7
 10
1412.973158972351
 20
578.4447175326361
 30
0
 11
1422.252658972351
 21
578.4447175326361
 31
0
  0
LINE
  8
1
 62
7
 10
1412.973158972351
 20
573.7161659194201
 30
0
 11
1412.973158972351
 21
578.4447175326361
 31
0
  0
LINE
  8
1
 62
7
 10
1383.607960564046
 20
546.1036322640939
 30
0
 11
1410.426283353233
 21
553.7936625776836
 31
0
  0
LINE
  8
1
 62
7
 10
1386.39309678246
 20
564.587347633081
 30
0
 11
1409.887811971235
 21
571.3243488031799
 31
0
  0
LINE
  8
1
 62
7
 10
1296.56921133552
 20
564.8428373836416
 30
0
 11
1273.346615548664
 21
571.5018095708642
 31
0
  0
LINE
  8
1
 62
2
  6
DASHDOT
 10
1426.13736462307
 20
565.224217532636
 30
0
 11
1410.366537069539
 21
565.224217532636
 31
0
  0
LINE
  8
1
 62
2
  6
DASHDOT
 10
1268.087926901785
 20
563.9070942117103
 30
0
 11
1298.672430707348
 21
555.1371288697424
 31
0
  0
LINE
  8
1
 62
2
  6
DASHDOT
 10
1257.070459417984
 20
565.224217532636
 30
0
 11
1272.251879545436
 21
565.224217532636
 31
0
  0
LINE
  8
1
 62
2
  6
DASHDOT
 10
1383.363927747259
 20
554.8762021847299
 30
0
 11
1414.138487105594
 21
563.7006650794931
 31
0
  0
LINE
  8
1
 62
7
 10
1349.473158972351
 20
572.904217532636
 30
0
 11
1380.76234323469
 21
572.904217532636
 31
0
  0
LINE
  8
1
 62
7
 10
1341.473158972351
 20
570.904217532636
 30
0
 11
1350.473158972351
 21
570.904217532636
 31
0
  0
LINE
  8
1
 62
7
 10
1350.473158972351
 20
571.404217532636
 30
0
 11
1350.473158972351
 21
570.904217532636
 31
0
  0
LINE
  8
1
 62
7
 10
1349.473158972351
 20
572.904217532636
 30
0
 11
1349.473158972351
 21
572.404217532636
 31
0
  0
LINE
  8
1
 62
7
 10
1349.473158972351
 20
572.404217532636
 30
0
 11
1350.473158972351
 21
571.404217532636
 31
0
  0
LINE
  8
1
 62
7
 10
1343.537351983492
 20
548.0491219564968
 30
0
 11
1343.537351983492
 21
547.8663094564968
 31
0
  0
LINE
  8
1
 62
7
 10
1343.618601983492
 20
548.0491219564968
 30
0
 11
1343.537351983492
 21
548.0491219564968
 31
0
  0
LINE
  8
1
 62
7
 10
1343.699851983492
 20
548.0694344564968
 30
0
 11
1343.618601983492
 21
548.0491219564968
 31
0
  0
LINE
  8
1
 62
7
 10
1343.760789483492
 20
548.1100594564969
 30
0
 11
1343.699851983492
 21
548.0694344564968
 31
0
  0
LINE
  8
1
 62
7
 10
1343.801414483492
 20
548.1709969564968
 30
0
 11
1343.760789483492
 21
548.1100594564969
 31
0
  0
LINE
  8
1
 62
7
 10
1343.821726983492
 20
548.2319344564968
 30
0
 11
1343.801414483492
 21
548.1709969564968
 31
0
  0
LINE
  8
1
 62
7
 10
1343.821726983492
 20
548.3131844564969
 30
0
 11
1343.821726983492
 21
548.2319344564968
 31
0
  0
LINE
  8
1
 62
7
 10
1343.801414483492
 20
548.3741219564968
 30
0
 11
1343.821726983492
 21
548.3131844564969
 31
0
  0
LINE
  8
1
 62
7
 10
1343.760789483492
 20
548.4350594564968
 30
0
 11
1343.801414483492
 21
548.3741219564968
 31
0
  0
LINE
  8
1
 62
7
 10
1343.699851983492
 20
548.4756844564968
 30
0
 11
1343.760789483492
 21
548.4350594564968
 31
0
  0
LINE
  8
1
 62
7
 10
1343.618601983492
 20
548.4959969564968
 30
0
 11
1343.699851983492
 21
548.4756844564968
 31
0
  0
LINE
  8
1
 62
7
 10
1343.537351983492
 20
548.4959969564968
 30
0
 11
1343.618601983492
 21
548.4959969564968
 31
0
  0
LINE
  8
1
 62
7
 10
1343.456101983492
 20
548.4756844564968
 30
0
 11
1343.537351983492
 21
548.4959969564968
 31
0
  0
LINE
  8
1
 62
7
 10
1343.395164483492
 20
548.4350594564968
 30
0
 11
1343.456101983492
 21
548.4756844564968
 31
0
  0
LINE
  8
1
 62
7
 10
1343.354539483492
 20
548.3741219564968
 30
0
 11
1343.395164483492
 21
548.4350594564968
 31
0
  0
LINE
  8
1
 62
7
 10
1343.334226983492
 20
548.3131844564969
 30
0
 11
1343.354539483492
 21
548.3741219564968
 31
0
  0
LINE
  8
1
 62
7
 10
1343.334226983492
 20
548.2319344564968
 30
0
 11
1343.334226983492
 21
548.3131844564969
 31
0
  0
LINE
  8
1
 62
7
 10
1343.110789483492
 20
548.2319344564968
 30
0
 11
1343.334226983492
 21
548.2319344564968
 31
0
  0
LINE
  8
1
 62
7
 10
1343.110789483492
 20
548.3131844564969
 30
0
 11
1343.110789483492
 21
548.2319344564968
 31
0
  0
LINE
  8
1
 62
7
 10
1343.131101983492
 20
548.4147469564969
 30
0
 11
1343.110789483492
 21
548.3131844564969
 31
0
  0
LINE
  8
1
 62
7
 10
1343.212351983492
 20
548.5366219564968
 30
0
 11
1343.131101983492
 21
548.4147469564969
 31
0
  0
LINE
  8
1
 62
7
 10
1343.293601983492
 20
548.6178719564969
 30
0
 11
1343.212351983492
 21
548.5366219564968
 31
0
  0
LINE
  8
1
 62
7
 10
1343.415476983492
 20
548.6788094564968
 30
0
 11
1343.293601983492
 21
548.6178719564969
 31
0
  0
LINE
  8
1
 62
7
 10
1343.517039483492
 20
548.6991219564968
 30
0
 11
1343.415476983492
 21
548.6788094564968
 31
0
  0
LINE
  8
1
 62
7
 10
1343.638914483492
 20
548.6991219564968
 30
0
 11
1343.517039483492
 21
548.6991219564968
 31
0
  0
LINE
  8
1
 62
7
 10
1343.740476983492
 20
548.6788094564968
 30
0
 11
1343.638914483492
 21
548.6991219564968
 31
0
  0
LINE
  8
1
 62
7
 10
1343.862351983492
 20
548.6178719564969
 30
0
 11
1343.740476983492
 21
548.6788094564968
 31
0
  0
LINE
  8
1
 62
7
 10
1343.943601983492
 20
548.5366219564968
 30
0
 11
1343.862351983492
 21
548.6178719564969
 31
0
  0
LINE
  8
1
 62
7
 10
1344.024851983492
 20
548.4147469564969
 30
0
 11
1343.943601983492
 21
548.5366219564968
 31
0
  0
LINE
  8
1
 62
7
 10
1344.045164483492
 20
548.3131844564969
 30
0
 11
1344.024851983492
 21
548.4147469564969
 31
0
  0
LINE
  8
1
 62
7
 10
1344.045164483492
 20
548.2319344564968
 30
0
 11
1344.045164483492
 21
548.3131844564969
 31
0
  0
LINE
  8
1
 62
7
 10
1344.024851983492
 20
548.1303719564968
 30
0
 11
1344.045164483492
 21
548.2319344564968
 31
0
  0
LINE
  8
1
 62
7
 10
1343.943601983492
 20
548.0084969564969
 30
0
 11
1344.024851983492
 21
548.1303719564968
 31
0
  0
LINE
  8
1
 62
7
 10
1343.902976983492
 20
547.9678719564968
 30
0
 11
1343.943601983492
 21
548.0084969564969
 31
0
  0
LINE
  8
1
 62
7
 10
1344.004539483492
 20
547.8866219564968
 30
0
 11
1343.902976983492
 21
547.9678719564968
 31
0
  0
LINE
  8
1
 62
7
 10
1344.085789483492
 20
547.7647469564968
 30
0
 11
1344.004539483492
 21
547.8866219564968
 31
0
  0
LINE
  8
1
 62
7
 10
1344.126414483492
 20
547.6225594564968
 30
0
 11
1344.085789483492
 21
547.7647469564968
 31
0
  0
LINE
  8
1
 62
7
 10
1344.126414483492
 20
547.5209969564968
 30
0
 11
1344.126414483492
 21
547.6225594564968
 31
0
  0
LINE
  8
1
 62
7
 10
1344.085789483492
 20
547.3788094564968
 30
0
 11
1344.126414483492
 21
547.5209969564968
 31
0
  0
LINE
  8
1
 62
7
 10
1344.024851983492
 20
547.2772469564968
 30
0
 11
1344.085789483492
 21
547.3788094564968
 31
0
  0
LINE
  8
1
 62
7
 10
1343.923289483492
 20
547.1756844564968
 30
0
 11
1344.024851983492
 21
547.2772469564968
 31
0
  0
LINE
  8
1
 62
7
 10
1343.801414483492
 20
547.1147469564968
 30
0
 11
1343.923289483492
 21
547.1756844564968
 31
0
  0
LINE
  8
1
 62
7
 10
1343.638914483492
 20
547.0741219564968
 30
0
 11
1343.801414483492
 21
547.1147469564968
 31
0
  0
LINE
  8
1
 62
7
 10
1343.517039483492
 20
547.0741219564968
 30
0
 11
1343.638914483492
 21
547.0741219564968
 31
0
  0
LINE
  8
1
 62
7
 10
1343.354539483492
 20
547.1147469564968
 30
0
 11
1343.517039483492
 21
547.0741219564968
 31
0
  0
LINE
  8
1
 62
7
 10
1343.232664483492
 20
547.1756844564968
 30
0
 11
1343.354539483492
 21
547.1147469564968
 31
0
  0
LINE
  8
1
 62
7
 10
1343.131101983492
 20
547.2772469564968
 30
0
 11
1343.232664483492
 21
547.1756844564968
 31
0
  0
LINE
  8
1
 62
7
 10
1343.070164483492
 20
547.3788094564968
 30
0
 11
1343.131101983492
 21
547.2772469564968
 31
0
  0
LINE
  8
1
 62
7
 10
1343.029539483492
 20
547.5209969564968
 30
0
 11
1343.070164483492
 21
547.3788094564968
 31
0
  0
LINE
  8
1
 62
7
 10
1343.029539483492
 20
547.6225594564968
 30
0
 11
1343.029539483492
 21
547.5209969564968
 31
0
  0
LINE
  8
1
 62
7
 10
1343.273289483492
 20
547.6225594564968
 30
0
 11
1343.029539483492
 21
547.6225594564968
 31
0
  0
LINE
  8
1
 62
7
 10
1343.273289483492
 20
547.5413094564968
 30
0
 11
1343.273289483492
 21
547.6225594564968
 31
0
  0
LINE
  8
1
 62
7
 10
1343.293601983492
 20
547.4600594564968
 30
0
 11
1343.273289483492
 21
547.5413094564968
 31
0
  0
LINE
  8
1
 62
7
 10
1343.354539483492
 20
547.3788094564968
 30
0
 11
1343.293601983492
 21
547.4600594564968
 31
0
  0
LINE
  8
1
 62
7
 10
1343.435789483492
 20
547.3178719564968
 30
0
 11
1343.354539483492
 21
547.3788094564968
 31
0
  0
LINE
  8
1
 62
7
 10
1343.537351983492
 20
547.2975594564969
 30
0
 11
1343.435789483492
 21
547.3178719564968
 31
0
  0
LINE
  8
1
 62
7
 10
1343.618601983492
 20
547.2975594564969
 30
0
 11
1343.537351983492
 21
547.2975594564969
 31
0
  0
LINE
  8
1
 62
7
 10
1343.720164483492
 20
547.3178719564968
 30
0
 11
1343.618601983492
 21
547.2975594564969
 31
0
  0
LINE
  8
1
 62
7
 10
1343.801414483492
 20
547.3788094564968
 30
0
 11
1343.720164483492
 21
547.3178719564968
 31
0
  0
LINE
  8
1
 62
7
 10
1343.862351983492
 20
547.4600594564968
 30
0
 11
1343.801414483492
 21
547.3788094564968
 31
0
  0
LINE
  8
1
 62
7
 10
1343.882664483492
 20
547.5413094564968
 30
0
 11
1343.862351983492
 21
547.4600594564968
 31
0
  0
LINE
  8
1
 62
7
 10
1343.882664483492
 20
547.6225594564968
 30
0
 11
1343.882664483492
 21
547.5413094564968
 31
0
  0
LINE
  8
1
 62
7
 10
1343.862351983492
 20
547.7038094564969
 30
0
 11
1343.882664483492
 21
547.6225594564968
 31
0
  0
LINE
  8
1
 62
7
 10
1343.801414483492
 20
547.7850594564968
 30
0
 11
1343.862351983492
 21
547.7038094564969
 31
0
  0
LINE
  8
1
 62
7
 10
1343.720164483492
 20
547.8459969564968
 30
0
 11
1343.801414483492
 21
547.7850594564968
 31
0
  0
LINE
  8
1
 62
7
 10
1343.618601983492
 20
547.8663094564968
 30
0
 11
1343.720164483492
 21
547.8459969564968
 31
0
  0
LINE
  8
1
 62
7
 10
1343.537351983492
 20
547.8663094564968
 30
0
 11
1343.618601983492
 21
547.8663094564968
 31
0
  0
LINE
  8
1
 62
7
 10
1368.273856435268
 20
545.953264308799
 30
0
 11
1366.336043935268
 21
545.953264308799
 31
0
  0
LINE
  8
1
 62
7
 10
1368.273856435268
 20
546.234514308799
 30
0
 11
1368.273856435268
 21
545.953264308799
 31
0
  0
LINE
  8
1
 62
7
 10
1366.738231435268
 20
546.234514308799
 30
0
 11
1368.273856435268
 21
546.234514308799
 31
0
  0
LINE
  8
1
 62
7
 10
1366.738231435268
 20
548.203264308799
 30
0
 11
1366.738231435268
 21
546.234514308799
 31
0
  0
LINE
  8
1
 62
7
 10
1366.336043935268
 20
548.203264308799
 30
0
 11
1366.738231435268
 21
548.203264308799
 31
0
  0
LINE
  8
1
 62
7
 10
1366.336043935268
 20
545.953264308799
 30
0
 11
1366.336043935268
 21
548.203264308799
 31
0
  0
LINE
  8
1
 62
7
 10
1332.473158972351
 20
570.904217532636
 30
0
 11
1341.473158972351
 21
570.904217532636
 31
0
  0
LINE
  8
1
 62
7
 10
1332.473158972351
 20
570.904217532636
 30
0
 11
1332.473158972351
 21
571.404217532636
 31
0
  0
LINE
  8
1
 62
7
 10
1333.473158972351
 20
572.404217532636
 30
0
 11
1333.473158972351
 21
572.904217532636
 31
0
  0
LINE
  8
1
 62
7
 10
1332.473158972351
 20
571.404217532636
 30
0
 11
1333.473158972351
 21
572.404217532636
 31
0
  0
LINE
  8
1
 62
7
 10
1302.183974710012
 20
572.904217532636
 30
0
 11
1333.473158972351
 21
572.904217532636
 31
0
  0
LINE
  8
1
 62
7
 10
1314.177217426332
 20
549.3288387350947
 30
0
 11
1368.723158972351
 21
549.3288387350947
 31
0
  0
LINE
  8
1
 62
7
 10
1377.49065492566
 20
552.404217532636
 30
0
 11
1305.455663019041
 21
552.404217532636
 31
0
  0
LINE
  8
1
 62
7
 10
1320.677217426332
 20
532.3582759866175
 30
0
 11
1362.223158972351
 21
532.3582759866175
 31
0
  0
LINE
  8
1
 62
7
 10
1370.723158972351
 20
541.211829377211
 30
0
 11
1370.723158972351
 21
547.3288387350947
 31
0
  0
LINE
  8
1
 62
7
 10
1370.723158972351
 20
540.8582759866175
 30
0
 11
1370.723158972351
 21
541.211829377211
 31
0
  0
LINE
  8
1
 62
7
 10
1320.677217426332
 20
532.711829377211
 30
0
 11
1362.223158972351
 21
532.711829377211
 31
0
  0
LINE
  8
1
 62
7
 10
1312.177217426332
 20
541.211829377211
 30
0
 11
1312.177217426332
 21
547.3288387350947
 31
0
  0
LINE
  8
1
 62
7
 10
1312.177217426332
 20
540.8582759866175
 30
0
 11
1312.177217426332
 21
541.211829377211
 31
0
  0
LINE
  8
1
 62
7
 10
1339.168158972351
 20
546.1292867566249
 30
0
 11
1339.528158972351
 21
546.1292867566249
 31
0
  0
LINE
  8
1
 62
7
 10
1340.563158972351
 20
546.1292867566249
 30
0
 11
1340.923158972351
 21
546.1292867566249
 31
0
  0
LINE
  8
1
 62
7
 10
1341.958158972351
 20
546.1292867566249
 30
0
 11
1342.318158972351
 21
546.1292867566249
 31
0
  0
LINE
  8
1
 62
7
 10
1339.168158972351
 20
546.1292867566249
 30
0
 11
1339.168158972351
 21
548.3612867566249
 31
0
  0
LINE
  8
1
 62
7
 10
1339.528158972351
 20
546.1292867566249
 30
0
 11
1339.528158972351
 21
547.4837867566248
 31
0
  0
LINE
  8
1
 62
7
 10
1339.528158972351
 20
548.1924474652858
 30
0
 11
1339.528158972351
 21
548.3612867566249
 31
0
  0
LINE
  8
1
 62
7
 10
1340.563158972351
 20
546.1292867566249
 30
0
 11
1340.563158972351
 21
547.4837867566248
 31
0
  0
LINE
  8
1
 62
7
 10
1340.923158972351
 20
546.1292867566249
 30
0
 11
1340.923158972351
 21
547.4837867566248
 31
0
  0
LINE
  8
1
 62
7
 10
1341.958158972351
 20
546.1292867566249
 30
0
 11
1341.958158972351
 21
547.4837867566248
 31
0
  0
LINE
  8
1
 62
7
 10
1342.318158972351
 20
546.1292867566249
 30
0
 11
1342.318158972351
 21
547.4837867566248
 31
0
  0
LINE
  8
1
 62
7
 10
1339.168158972351
 20
546.1292867566249
 30
0
 11
1339.528158972351
 21
546.1292867566249
 31
0
  0
LINE
  8
1
 62
7
 10
1340.563158972351
 20
546.1292867566249
 30
0
 11
1340.923158972351
 21
546.1292867566249
 31
0
  0
LINE
  8
1
 62
7
 10
1341.958158972351
 20
546.1292867566249
 30
0
 11
1342.318158972351
 21
546.1292867566249
 31
0
  0
LINE
  8
1
 62
7
 10
1339.168158972351
 20
548.3612867566249
 30
0
 11
1339.528158972351
 21
548.3612867566249
 31
0
  0
LINE
  8
1
 62
7
 10
1370.723158972351
 20
541.9924119947946
 30
0
 11
1370.723158972351
 21
545.2506641420421
 31
0
  0
LINE
  8
1
 62
7
 10
1369.997775530924
 20
542.091906931406
 30
0
 11
1368.737770667364
 21
542.091906931406
 31
0
  0
LINE
  8
1
 62
7
 10
1368.737770667364
 20
542.091906931406
 30
0
 11
1368.737770667364
 21
541.6919069314059
 31
0
  0
LINE
  8
1
 62
7
 10
1368.737770667364
 20
541.6919069314059
 30
0
 11
1369.997775530924
 21
541.6919069314059
 31
0
  0
LINE
  8
1
 62
7
 10
1369.997775530924
 20
541.6919069314059
 30
0
 11
1369.997775530924
 21
542.091906931406
 31
0
  0
LINE
  8
1
 62
7
 10
1344.071220687281
 20
544.1900039702623
 30
0
 11
1312.723158972351
 21
544.1900039702623
 31
0
  0
LINE
  8
1
 62
7
 10
1344.071220687281
 20
539.5938098925499
 30
0
 11
1344.071220687281
 21
544.1900039702623
 31
0
  0
LINE
  8
1
 62
7
 10
1312.723158972351
 20
544.1900039702623
 30
0
 11
1312.723158972351
 21
539.5938098925501
 31
0
  0
LINE
  8
1
 62
7
 10
1312.723158972351
 20
539.5938098925501
 30
0
 11
1344.071220687281
 21
539.5938098925499
 31
0
  0
LINE
  8
1
 62
7
 10
1346.071220687281
 20
545.250664142043
 30
0
 11
1346.071220687281
 21
538.5331497207708
 31
0
  0
LINE
  8
1
 62
7
 10
1370.223158972351
 20
541.6419069314052
 30
0
 11
1370.223158972351
 21
542.1419069314052
 31
0
  0
LINE
  8
1
 62
7
 10
1370.223158972351
 20
541.6419069314052
 30
0
 11
1370.717014394586
 21
541.6419069314052
 31
0
  0
LINE
  8
1
 62
7
 10
1370.223158972351
 20
542.1419069314052
 30
0
 11
1370.223158972351
 21
544.1900039702614
 31
0
  0
LINE
  8
1
 62
7
 10
1363.723158972351
 20
536.2350526819139
 30
0
 11
1368.89951596935
 21
536.2350526819137
 31
0
  0
LINE
  8
1
 62
7
 10
1363.723158972351
 20
538.5331497207699
 30
0
 11
1363.723158972351
 21
536.2350526819139
 31
0
  0
LINE
  8
1
 62
7
 10
1346.071220687281
 20
538.5331497207708
 30
0
 11
1363.723158972351
 21
538.5331497207699
 31
0
  0
LINE
  8
1
 62
7
 10
1365.223158972351
 20
539.5938098925492
 30
0
 11
1365.223158972351
 21
537.2957128536933
 31
0
  0
LINE
  8
1
 62
7
 10
1347.571220687281
 20
539.5938098925501
 30
0
 11
1365.223158972351
 21
539.5938098925492
 31
0
  0
LINE
  8
1
 62
7
 10
1347.571220687281
 20
544.1900039702623
 30
0
 11
1347.571220687281
 21
539.5938098925501
 31
0
  0
LINE
  8
1
 62
7
 10
1370.223158972351
 20
544.1900039702614
 30
0
 11
1347.571220687281
 21
544.1900039702623
 31
0
  0
LINE
  8
1
 62
7
 10
1365.223158972351
 20
537.2957128536933
 30
0
 11
1369.551579962425
 21
537.2957128536933
 31
0
  0
LINE
  8
1
 62
7
 10
1363.223158972351
 20
538.1795963301761
 30
0
 11
1312.932627835245
 21
538.1795963301769
 31
0
  0
LINE
  8
1
 62
7
 10
1363.223158972351
 20
535.8814992913202
 30
0
 11
1363.223158972351
 21
538.1795963301761
 31
0
  0
LINE
  8
1
 62
7
 10
1312.177217426332
 20
545.6042175326363
 30
0
 11
1370.723158972351
 21
545.6042175326354
 31
0
  0
LINE
  8
1
 62
7
 10
1370.723158972351
 20
545.2506641420421
 30
0
 11
1346.071220687281
 21
545.250664142043
 31
0
  0
LINE
  8
1
 62
7
 10
1370.723158972351
 20
542.1419069314052
 30
0
 11
1370.223158972351
 21
542.1419069314052
 31
0
  0
LINE
  8
1
 62
7
 10
1370.223158972351
 20
538.8699129955952
 30
0
 11
1370.223158972351
 21
541.6419069314052
 31
0
  0
LINE
  8
1
 62
7
 10
1368.638760398049
 20
535.8814992913202
 30
0
 11
1363.223158972351
 21
535.8814992913202
 31
0
  0
LINE
  8
1
 62
7
 10
1370.723158972351
 20
545.2506641420421
 30
0
 11
1370.723158972351
 21
545.6042175326354
 31
0
  0
LINE
  8
1
 62
7
 10
1312.177217426332
 20
545.6042175326363
 30
0
 11
1312.177217426332
 21
541.9924119947946
 31
0
  0
LINE
  8
1
 62
7
 10
1342.142152196537
 20
540.0464083819264
 30
0
 11
1342.142152196537
 21
543.7374054808861
 31
0
  0
LINE
  8
1
 62
7
 10
1342.142152196537
 20
543.7374054808861
 30
0
 11
1341.773052486641
 21
543.7374054808861
 31
0
  0
LINE
  8
1
 62
7
 10
1341.773052486641
 20
543.7374054808861
 30
0
 11
1341.726915022904
 21
543.5989930896751
 31
0
  0
LINE
  8
1
 62
7
 10
1341.726915022904
 20
543.5989930896751
 30
0
 11
1341.588502631693
 21
543.4144432347271
 31
0
  0
LINE
  8
1
 62
7
 10
1341.588502631693
 20
543.4144432347271
 30
0
 11
1341.450090240482
 21
543.2760308435161
 31
0
  0
LINE
  8
1
 62
7
 10
1341.450090240482
 20
543.2760308435161
 30
0
 11
1341.265540385534
 21
543.1837559160422
 31
0
  0
LINE
  8
1
 62
7
 10
1341.265540385534
 20
543.1837559160422
 30
0
 11
1341.127127994323
 21
543.1376184523051
 31
0
  0
LINE
  8
1
 62
7
 10
1341.127127994323
 20
543.1376184523051
 30
0
 11
1340.896440675638
 21
543.0914809885683
 31
0
  0
LINE
  8
1
 62
7
 10
1340.896440675638
 20
543.0914809885683
 30
0
 11
1340.804165748165
 21
543.0914809885683
 31
0
  0
LINE
  8
1
 62
7
 10
1340.804165748165
 20
543.0914809885683
 30
0
 11
1340.804165748165
 21
542.7223812786722
 31
0
  0
LINE
  8
1
 62
7
 10
1340.804165748165
 20
542.7223812786722
 30
0
 11
1341.680777559167
 21
542.7223812786722
 31
0
  0
LINE
  8
1
 62
7
 10
1341.680777559167
 20
542.7223812786722
 30
0
 11
1341.680777559167
 21
540.0464083819264
 31
0
  0
LINE
  8
1
 62
7
 10
1341.680777559167
 20
540.0464083819264
 30
0
 11
1342.142152196537
 21
540.0464083819264
 31
0
  0
LINE
  8
1
 62
7
 10
1335.088033611836
 20
540.5077830192962
 30
0
 11
1335.475588307227
 21
540.5077830192962
 31
0
  0
LINE
  8
1
 62
7
 10
1335.475588307227
 20
540.5077830192962
 30
0
 11
1335.697048133165
 21
540.6000579467701
 31
0
  0
LINE
  8
1
 62
7
 10
1335.697048133165
 20
540.6000579467701
 30
0
 11
1335.918507959102
 21
540.7384703379812
 31
0
  0
LINE
  8
1
 62
7
 10
1335.918507959102
 20
540.7384703379812
 30
0
 11
1336.029237872071
 21
540.8768827291922
 31
0
  0
LINE
  8
1
 62
7
 10
1336.029237872071
 20
540.8768827291922
 30
0
 11
1336.13996778504
 21
541.1075700478772
 31
0
  0
LINE
  8
1
 62
7
 10
1336.13996778504
 20
541.1075700478772
 30
0
 11
1336.195332741524
 21
541.615082148984
 31
0
  0
LINE
  8
1
 62
7
 10
1336.195332741524
 20
541.615082148984
 30
0
 11
1336.195332741524
 21
542.1687317138279
 31
0
  0
LINE
  8
1
 62
7
 10
1336.195332741524
 20
542.1687317138279
 30
0
 11
1336.13996778504
 21
542.6762438149349
 31
0
  0
LINE
  8
1
 62
7
 10
1336.13996778504
 20
542.6762438149349
 30
0
 11
1336.029237872071
 21
542.90693113362
 31
0
  0
LINE
  8
1
 62
7
 10
1336.029237872071
 20
542.90693113362
 30
0
 11
1335.918507959102
 21
543.045343524831
 31
0
  0
LINE
  8
1
 62
7
 10
1335.918507959102
 20
543.045343524831
 30
0
 11
1335.697048133165
 21
543.183755916042
 31
0
  0
LINE
  8
1
 62
7
 10
1335.697048133165
 20
543.183755916042
 30
0
 11
1335.475588307227
 21
543.2760308435161
 31
0
  0
LINE
  8
1
 62
7
 10
1335.475588307227
 20
543.2760308435161
 30
0
 11
1335.088033611836
 21
543.2760308435161
 31
0
  0
LINE
  8
1
 62
7
 10
1335.088033611836
 20
543.2760308435161
 30
0
 11
1334.866573785899
 21
543.183755916042
 31
0
  0
LINE
  8
1
 62
7
 10
1334.866573785899
 20
543.183755916042
 30
0
 11
1334.645113959961
 21
543.045343524831
 31
0
  0
LINE
  8
1
 62
7
 10
1334.645113959961
 20
543.045343524831
 30
0
 11
1334.534384046992
 21
542.90693113362
 31
0
  0
LINE
  8
1
 62
7
 10
1334.534384046992
 20
542.90693113362
 30
0
 11
1334.423654134024
 21
542.6762438149349
 31
0
  0
LINE
  8
1
 62
7
 10
1334.423654134024
 20
542.6762438149349
 30
0
 11
1334.368289177539
 21
542.1687317138279
 31
0
  0
LINE
  8
1
 62
7
 10
1334.368289177539
 20
542.1687317138279
 30
0
 11
1334.368289177539
 21
541.615082148984
 31
0
  0
LINE
  8
1
 62
7
 10
1334.368289177539
 20
541.615082148984
 30
0
 11
1334.423654134024
 21
541.1075700478772
 31
0
  0
LINE
  8
1
 62
7
 10
1334.423654134024
 20
541.1075700478772
 30
0
 11
1334.534384046992
 21
540.8768827291922
 31
0
  0
LINE
  8
1
 62
7
 10
1334.534384046992
 20
540.8768827291922
 30
0
 11
1334.645113959961
 21
540.7384703379812
 31
0
  0
LINE
  8
1
 62
7
 10
1334.645113959961
 20
540.7384703379812
 30
0
 11
1334.866573785899
 21
540.6000579467701
 31
0
  0
LINE
  8
1
 62
7
 10
1334.866573785899
 20
540.6000579467701
 30
0
 11
1335.088033611836
 21
540.5077830192962
 31
0
  0
LINE
  8
1
 62
7
 10
1336.13996778504
 20
540.2770957006112
 30
0
 11
1336.306062654493
 21
540.4155080918222
 31
0
  0
LINE
  8
1
 62
7
 10
1336.306062654493
 20
540.4155080918222
 30
0
 11
1336.472157523946
 21
540.6000579467701
 31
0
  0
LINE
  8
1
 62
7
 10
1336.472157523946
 20
540.6000579467701
 30
0
 11
1336.582887436915
 21
540.7846078017183
 31
0
  0
LINE
  8
1
 62
7
 10
1336.582887436915
 20
540.7846078017183
 30
0
 11
1336.693617349884
 21
541.0152951204032
 31
0
  0
LINE
  8
1
 62
7
 10
1336.693617349884
 20
541.0152951204032
 30
0
 11
1336.748982306368
 21
541.2921199028251
 31
0
  0
LINE
  8
1
 62
7
 10
1336.748982306368
 20
541.2921199028251
 30
0
 11
1336.804347262852
 21
541.7073570764583
 31
0
  0
LINE
  8
1
 62
7
 10
1336.804347262852
 20
541.7073570764583
 30
0
 11
1336.804347262852
 21
542.076456786354
 31
0
  0
LINE
  8
1
 62
7
 10
1336.804347262852
 20
542.076456786354
 30
0
 11
1336.748982306368
 21
542.4916939599871
 31
0
  0
LINE
  8
1
 62
7
 10
1336.748982306368
 20
542.4916939599871
 30
0
 11
1336.693617349884
 21
542.7685187424089
 31
0
  0
LINE
  8
1
 62
7
 10
1336.693617349884
 20
542.7685187424089
 30
0
 11
1336.582887436915
 21
542.9992060610939
 31
0
  0
LINE
  8
1
 62
7
 10
1336.582887436915
 20
542.9992060610939
 30
0
 11
1336.472157523946
 21
543.183755916042
 31
0
  0
LINE
  8
1
 62
7
 10
1336.472157523946
 20
543.183755916042
 30
0
 11
1336.306062654493
 21
543.3683057709899
 31
0
  0
LINE
  8
1
 62
7
 10
1336.306062654493
 20
543.3683057709899
 30
0
 11
1336.13996778504
 21
543.506718162201
 31
0
  0
LINE
  8
1
 62
7
 10
1336.13996778504
 20
543.506718162201
 30
0
 11
1335.973872915587
 21
543.5989930896749
 31
0
  0
LINE
  8
1
 62
7
 10
1335.973872915587
 20
543.5989930896749
 30
0
 11
1335.697048133165
 21
543.6912680171488
 31
0
  0
LINE
  8
1
 62
7
 10
1335.697048133165
 20
543.6912680171488
 30
0
 11
1335.475588307227
 21
543.7374054808859
 31
0
  0
LINE
  8
1
 62
7
 10
1335.475588307227
 20
543.7374054808859
 30
0
 11
1335.088033611836
 21
543.7374054808859
 31
0
  0
LINE
  8
1
 62
7
 10
1335.088033611836
 20
543.7374054808859
 30
0
 11
1334.866573785899
 21
543.6912680171488
 31
0
  0
LINE
  8
1
 62
7
 10
1334.866573785899
 20
543.6912680171488
 30
0
 11
1334.589749003477
 21
543.5989930896749
 31
0
  0
LINE
  8
1
 62
7
 10
1334.589749003477
 20
543.5989930896749
 30
0
 11
1334.423654134024
 21
543.506718162201
 31
0
  0
LINE
  8
1
 62
7
 10
1334.423654134024
 20
543.506718162201
 30
0
 11
1334.25755926457
 21
543.3683057709899
 31
0
  0
LINE
  8
1
 62
7
 10
1334.25755926457
 20
543.3683057709899
 30
0
 11
1334.091464395117
 21
543.183755916042
 31
0
  0
LINE
  8
1
 62
7
 10
1334.091464395117
 20
543.183755916042
 30
0
 11
1333.980734482148
 21
542.9992060610939
 31
0
  0
LINE
  8
1
 62
7
 10
1333.980734482148
 20
542.9992060610939
 30
0
 11
1333.87000456918
 21
542.7685187424089
 31
0
  0
LINE
  8
1
 62
7
 10
1333.87000456918
 20
542.7685187424089
 30
0
 11
1333.814639612695
 21
542.4916939599871
 31
0
  0
LINE
  8
1
 62
7
 10
1333.814639612695
 20
542.4916939599871
 30
0
 11
1333.759274656211
 21
542.076456786354
 31
0
  0
LINE
  8
1
 62
7
 10
1333.759274656211
 20
542.076456786354
 30
0
 11
1333.759274656211
 21
541.7073570764583
 31
0
  0
LINE
  8
1
 62
7
 10
1333.759274656211
 20
541.7073570764583
 30
0
 11
1333.814639612695
 21
541.2921199028251
 31
0
  0
LINE
  8
1
 62
7
 10
1333.814639612695
 20
541.2921199028251
 30
0
 11
1333.87000456918
 21
541.0152951204032
 31
0
  0
LINE
  8
1
 62
7
 10
1333.87000456918
 20
541.0152951204032
 30
0
 11
1333.980734482148
 21
540.7846078017183
 31
0
  0
LINE
  8
1
 62
7
 10
1333.980734482148
 20
540.7846078017183
 30
0
 11
1334.091464395117
 21
540.6000579467701
 31
0
  0
LINE
  8
1
 62
7
 10
1334.091464395117
 20
540.6000579467701
 30
0
 11
1334.25755926457
 21
540.4155080918222
 31
0
  0
LINE
  8
1
 62
7
 10
1334.25755926457
 20
540.4155080918222
 30
0
 11
1334.423654134024
 21
540.2770957006112
 31
0
  0
LINE
  8
1
 62
7
 10
1334.423654134024
 20
540.2770957006112
 30
0
 11
1334.589749003477
 21
540.1848207731373
 31
0
  0
LINE
  8
1
 62
7
 10
1334.589749003477
 20
540.1848207731373
 30
0
 11
1334.866573785899
 21
540.0925458456634
 31
0
  0
LINE
  8
1
 62
7
 10
1334.866573785899
 20
540.0925458456634
 30
0
 11
1335.088033611836
 21
540.0464083819262
 31
0
  0
LINE
  8
1
 62
7
 10
1335.088033611836
 20
540.0464083819262
 30
0
 11
1335.475588307227
 21
540.0464083819262
 31
0
  0
LINE
  8
1
 62
7
 10
1335.475588307227
 20
540.0464083819262
 30
0
 11
1335.697048133165
 21
540.0925458456634
 31
0
  0
LINE
  8
1
 62
7
 10
1335.697048133165
 20
540.0925458456634
 30
0
 11
1335.973872915587
 21
540.1848207731373
 31
0
  0
LINE
  8
1
 62
7
 10
1335.973872915587
 20
540.1848207731373
 30
0
 11
1336.13996778504
 21
540.2770957006112
 31
0
  0
LINE
  8
1
 62
7
 10
1328.463033611836
 20
540.5077830192962
 30
0
 11
1328.850588307227
 21
540.5077830192962
 31
0
  0
LINE
  8
1
 62
7
 10
1328.850588307227
 20
540.5077830192962
 30
0
 11
1329.072048133164
 21
540.6000579467701
 31
0
  0
LINE
  8
1
 62
7
 10
1329.072048133164
 20
540.6000579467701
 30
0
 11
1329.293507959102
 21
540.7384703379812
 31
0
  0
LINE
  8
1
 62
7
 10
1329.293507959102
 20
540.7384703379812
 30
0
 11
1329.404237872071
 21
540.8768827291922
 31
0
  0
LINE
  8
1
 62
7
 10
1329.404237872071
 20
540.8768827291922
 30
0
 11
1329.514967785039
 21
541.1075700478772
 31
0
  0
LINE
  8
1
 62
7
 10
1329.514967785039
 20
541.1075700478772
 30
0
 11
1329.570332741524
 21
541.615082148984
 31
0
  0
LINE
  8
1
 62
7
 10
1329.570332741524
 20
541.615082148984
 30
0
 11
1329.570332741524
 21
542.1687317138279
 31
0
  0
LINE
  8
1
 62
7
 10
1329.570332741524
 20
542.1687317138279
 30
0
 11
1329.514967785039
 21
542.6762438149349
 31
0
  0
LINE
  8
1
 62
7
 10
1329.514967785039
 20
542.6762438149349
 30
0
 11
1329.404237872071
 21
542.90693113362
 31
0
  0
LINE
  8
1
 62
7
 10
1329.404237872071
 20
542.90693113362
 30
0
 11
1329.293507959102
 21
543.045343524831
 31
0
  0
LINE
  8
1
 62
7
 10
1329.293507959102
 20
543.045343524831
 30
0
 11
1329.072048133164
 21
543.183755916042
 31
0
  0
LINE
  8
1
 62
7
 10
1329.072048133164
 20
543.183755916042
 30
0
 11
1328.850588307227
 21
543.2760308435161
 31
0
  0
LINE
  8
1
 62
7
 10
1328.850588307227
 20
543.2760308435161
 30
0
 11
1328.463033611836
 21
543.2760308435161
 31
0
  0
LINE
  8
1
 62
7
 10
1328.463033611836
 20
543.2760308435161
 30
0
 11
1328.241573785898
 21
543.183755916042
 31
0
  0
LINE
  8
1
 62
7
 10
1328.241573785898
 20
543.183755916042
 30
0
 11
1328.020113959961
 21
543.045343524831
 31
0
  0
LINE
  8
1
 62
7
 10
1328.020113959961
 20
543.045343524831
 30
0
 11
1327.909384046992
 21
542.90693113362
 31
0
  0
LINE
  8
1
 62
7
 10
1327.909384046992
 20
542.90693113362
 30
0
 11
1327.798654134023
 21
542.6762438149349
 31
0
  0
LINE
  8
1
 62
7
 10
1327.798654134023
 20
542.6762438149349
 30
0
 11
1327.743289177539
 21
542.1687317138279
 31
0
  0
LINE
  8
1
 62
7
 10
1327.743289177539
 20
542.1687317138279
 30
0
 11
1327.743289177539
 21
541.615082148984
 31
0
  0
LINE
  8
1
 62
7
 10
1327.743289177539
 20
541.615082148984
 30
0
 11
1327.798654134023
 21
541.1075700478772
 31
0
  0
LINE
  8
1
 62
7
 10
1327.798654134023
 20
541.1075700478772
 30
0
 11
1327.909384046992
 21
540.8768827291922
 31
0
  0
LINE
  8
1
 62
7
 10
1327.909384046992
 20
540.8768827291922
 30
0
 11
1328.020113959961
 21
540.7384703379812
 31
0
  0
LINE
  8
1
 62
7
 10
1328.020113959961
 20
540.7384703379812
 30
0
 11
1328.241573785898
 21
540.6000579467701
 31
0
  0
LINE
  8
1
 62
7
 10
1328.241573785898
 20
540.6000579467701
 30
0
 11
1328.463033611836
 21
540.5077830192962
 31
0
  0
LINE
  8
1
 62
7
 10
1329.514967785039
 20
540.2770957006112
 30
0
 11
1329.681062654493
 21
540.4155080918222
 31
0
  0
LINE
  8
1
 62
7
 10
1329.681062654493
 20
540.4155080918222
 30
0
 11
1329.847157523946
 21
540.6000579467701
 31
0
  0
LINE
  8
1
 62
7
 10
1329.847157523946
 20
540.6000579467701
 30
0
 11
1329.957887436915
 21
540.7846078017183
 31
0
  0
LINE
  8
1
 62
7
 10
1329.957887436915
 20
540.7846078017183
 30
0
 11
1330.068617349883
 21
541.0152951204032
 31
0
  0
LINE
  8
1
 62
7
 10
1330.068617349883
 20
541.0152951204032
 30
0
 11
1330.123982306368
 21
541.2921199028251
 31
0
  0
LINE
  8
1
 62
7
 10
1330.123982306368
 20
541.2921199028251
 30
0
 11
1330.179347262852
 21
541.7073570764583
 31
0
  0
LINE
  8
1
 62
7
 10
1330.179347262852
 20
541.7073570764583
 30
0
 11
1330.179347262852
 21
542.076456786354
 31
0
  0
LINE
  8
1
 62
7
 10
1330.179347262852
 20
542.076456786354
 30
0
 11
1330.123982306368
 21
542.4916939599871
 31
0
  0
LINE
  8
1
 62
7
 10
1330.123982306368
 20
542.4916939599871
 30
0
 11
1330.068617349883
 21
542.7685187424089
 31
0
  0
LINE
  8
1
 62
7
 10
1330.068617349883
 20
542.7685187424089
 30
0
 11
1329.957887436915
 21
542.9992060610939
 31
0
  0
LINE
  8
1
 62
7
 10
1329.957887436915
 20
542.9992060610939
 30
0
 11
1329.847157523946
 21
543.183755916042
 31
0
  0
LINE
  8
1
 62
7
 10
1329.847157523946
 20
543.183755916042
 30
0
 11
1329.681062654493
 21
543.3683057709899
 31
0
  0
LINE
  8
1
 62
7
 10
1329.681062654493
 20
543.3683057709899
 30
0
 11
1329.514967785039
 21
543.506718162201
 31
0
  0
LINE
  8
1
 62
7
 10
1329.514967785039
 20
543.506718162201
 30
0
 11
1329.348872915586
 21
543.5989930896749
 31
0
  0
LINE
  8
1
 62
7
 10
1329.348872915586
 20
543.5989930896749
 30
0
 11
1329.072048133164
 21
543.6912680171488
 31
0
  0
LINE
  8
1
 62
7
 10
1329.072048133164
 20
543.6912680171488
 30
0
 11
1328.850588307227
 21
543.7374054808859
 31
0
  0
LINE
  8
1
 62
7
 10
1328.850588307227
 20
543.7374054808859
 30
0
 11
1328.463033611836
 21
543.7374054808859
 31
0
  0
LINE
  8
1
 62
7
 10
1328.463033611836
 20
543.7374054808859
 30
0
 11
1328.241573785898
 21
543.6912680171488
 31
0
  0
LINE
  8
1
 62
7
 10
1328.241573785898
 20
543.6912680171488
 30
0
 11
1327.964749003476
 21
543.5989930896749
 31
0
  0
LINE
  8
1
 62
7
 10
1327.964749003476
 20
543.5989930896749
 30
0
 11
1327.798654134023
 21
543.506718162201
 31
0
  0
LINE
  8
1
 62
7
 10
1327.798654134023
 20
543.506718162201
 30
0
 11
1327.63255926457
 21
543.3683057709899
 31
0
  0
LINE
  8
1
 62
7
 10
1327.63255926457
 20
543.3683057709899
 30
0
 11
1327.466464395117
 21
543.183755916042
 31
0
  0
LINE
  8
1
 62
7
 10
1327.466464395117
 20
543.183755916042
 30
0
 11
1327.355734482148
 21
542.9992060610939
 31
0
  0
LINE
  8
1
 62
7
 10
1327.355734482148
 20
542.9992060610939
 30
0
 11
1327.245004569179
 21
542.7685187424089
 31
0
  0
LINE
  8
1
 62
7
 10
1327.245004569179
 20
542.7685187424089
 30
0
 11
1327.189639612695
 21
542.4916939599871
 31
0
  0
LINE
  8
1
 62
7
 10
1327.189639612695
 20
542.4916939599871
 30
0
 11
1327.13427465621
 21
542.076456786354
 31
0
  0
LINE
  8
1
 62
7
 10
1327.13427465621
 20
542.076456786354
 30
0
 11
1327.13427465621
 21
541.7073570764583
 31
0
  0
LINE
  8
1
 62
7
 10
1327.13427465621
 20
541.7073570764583
 30
0
 11
1327.189639612695
 21
541.2921199028251
 31
0
  0
LINE
  8
1
 62
7
 10
1327.189639612695
 20
541.2921199028251
 30
0
 11
1327.245004569179
 21
541.0152951204032
 31
0
  0
LINE
  8
1
 62
7
 10
1327.245004569179
 20
541.0152951204032
 30
0
 11
1327.355734482148
 21
540.7846078017183
 31
0
  0
LINE
  8
1
 62
7
 10
1327.355734482148
 20
540.7846078017183
 30
0
 11
1327.466464395117
 21
540.6000579467701
 31
0
  0
LINE
  8
1
 62
7
 10
1327.466464395117
 20
540.6000579467701
 30
0
 11
1327.63255926457
 21
540.4155080918222
 31
0
  0
LINE
  8
1
 62
7
 10
1327.63255926457
 20
540.4155080918222
 30
0
 11
1327.798654134023
 21
540.2770957006112
 31
0
  0
LINE
  8
1
 62
7
 10
1327.798654134023
 20
540.2770957006112
 30
0
 11
1327.964749003476
 21
540.1848207731373
 31
0
  0
LINE
  8
1
 62
7
 10
1327.964749003476
 20
540.1848207731373
 30
0
 11
1328.241573785898
 21
540.0925458456634
 31
0
  0
LINE
  8
1
 62
7
 10
1328.241573785898
 20
540.0925458456634
 30
0
 11
1328.463033611836
 21
540.0464083819262
 31
0
  0
LINE
  8
1
 62
7
 10
1328.463033611836
 20
540.0464083819262
 30
0
 11
1328.850588307227
 21
540.0464083819262
 31
0
  0
LINE
  8
1
 62
7
 10
1328.850588307227
 20
540.0464083819262
 30
0
 11
1329.072048133164
 21
540.0925458456634
 31
0
  0
LINE
  8
1
 62
7
 10
1329.072048133164
 20
540.0925458456634
 30
0
 11
1329.348872915586
 21
540.1848207731373
 31
0
  0
LINE
  8
1
 62
7
 10
1329.348872915586
 20
540.1848207731373
 30
0
 11
1329.514967785039
 21
540.2770957006112
 31
0
  0
LINE
  8
1
 62
7
 10
1321.838033611835
 20
540.5077830192962
 30
0
 11
1322.225588307226
 21
540.5077830192962
 31
0
  0
LINE
  8
1
 62
7
 10
1322.225588307226
 20
540.5077830192962
 30
0
 11
1322.447048133164
 21
540.6000579467701
 31
0
  0
LINE
  8
1
 62
7
 10
1322.447048133164
 20
540.6000579467701
 30
0
 11
1322.668507959101
 21
540.7384703379812
 31
0
  0
LINE
  8
1
 62
7
 10
1322.668507959101
 20
540.7384703379812
 30
0
 11
1322.77923787207
 21
540.8768827291922
 31
0
  0
LINE
  8
1
 62
7
 10
1322.77923787207
 20
540.8768827291922
 30
0
 11
1322.889967785039
 21
541.1075700478772
 31
0
  0
LINE
  8
1
 62
7
 10
1322.889967785039
 20
541.1075700478772
 30
0
 11
1322.945332741523
 21
541.615082148984
 31
0
  0
LINE
  8
1
 62
7
 10
1322.945332741523
 20
541.615082148984
 30
0
 11
1322.945332741523
 21
542.1687317138279
 31
0
  0
LINE
  8
1
 62
7
 10
1322.945332741523
 20
542.1687317138279
 30
0
 11
1322.889967785039
 21
542.6762438149349
 31
0
  0
LINE
  8
1
 62
7
 10
1322.889967785039
 20
542.6762438149349
 30
0
 11
1322.77923787207
 21
542.90693113362
 31
0
  0
LINE
  8
1
 62
7
 10
1322.77923787207
 20
542.90693113362
 30
0
 11
1322.668507959101
 21
543.045343524831
 31
0
  0
LINE
  8
1
 62
7
 10
1322.668507959101
 20
543.045343524831
 30
0
 11
1322.447048133164
 21
543.183755916042
 31
0
  0
LINE
  8
1
 62
7
 10
1322.447048133164
 20
543.183755916042
 30
0
 11
1322.225588307226
 21
543.2760308435161
 31
0
  0
LINE
  8
1
 62
7
 10
1322.225588307226
 20
543.2760308435161
 30
0
 11
1321.838033611835
 21
543.2760308435161
 31
0
  0
LINE
  8
1
 62
7
 10
1321.838033611835
 20
543.2760308435161
 30
0
 11
1321.616573785898
 21
543.183755916042
 31
0
  0
LINE
  8
1
 62
7
 10
1321.616573785898
 20
543.183755916042
 30
0
 11
1321.39511395996
 21
543.045343524831
 31
0
  0
LINE
  8
1
 62
7
 10
1321.39511395996
 20
543.045343524831
 30
0
 11
1321.284384046991
 21
542.90693113362
 31
0
  0
LINE
  8
1
 62
7
 10
1321.284384046991
 20
542.90693113362
 30
0
 11
1321.173654134023
 21
542.6762438149349
 31
0
  0
LINE
  8
1
 62
7
 10
1321.173654134023
 20
542.6762438149349
 30
0
 11
1321.118289177538
 21
542.1687317138279
 31
0
  0
LINE
  8
1
 62
7
 10
1321.118289177538
 20
542.1687317138279
 30
0
 11
1321.118289177538
 21
541.615082148984
 31
0
  0
LINE
  8
1
 62
7
 10
1321.118289177538
 20
541.615082148984
 30
0
 11
1321.173654134023
 21
541.1075700478772
 31
0
  0
LINE
  8
1
 62
7
 10
1321.173654134023
 20
541.1075700478772
 30
0
 11
1321.284384046991
 21
540.8768827291922
 31
0
  0
LINE
  8
1
 62
7
 10
1321.284384046991
 20
540.8768827291922
 30
0
 11
1321.39511395996
 21
540.7384703379812
 31
0
  0
LINE
  8
1
 62
7
 10
1321.39511395996
 20
540.7384703379812
 30
0
 11
1321.616573785898
 21
540.6000579467701
 31
0
  0
LINE
  8
1
 62
7
 10
1321.616573785898
 20
540.6000579467701
 30
0
 11
1321.838033611835
 21
540.5077830192962
 31
0
  0
LINE
  8
1
 62
7
 10
1322.889967785039
 20
540.2770957006112
 30
0
 11
1323.056062654492
 21
540.4155080918222
 31
0
  0
LINE
  8
1
 62
7
 10
1323.056062654492
 20
540.4155080918222
 30
0
 11
1323.222157523945
 21
540.6000579467701
 31
0
  0
LINE
  8
1
 62
7
 10
1323.222157523945
 20
540.6000579467701
 30
0
 11
1323.332887436914
 21
540.7846078017183
 31
0
  0
LINE
  8
1
 62
7
 10
1323.332887436914
 20
540.7846078017183
 30
0
 11
1323.443617349883
 21
541.0152951204032
 31
0
  0
LINE
  8
1
 62
7
 10
1323.443617349883
 20
541.0152951204032
 30
0
 11
1323.498982306367
 21
541.2921199028251
 31
0
  0
LINE
  8
1
 62
7
 10
1323.498982306367
 20
541.2921199028251
 30
0
 11
1323.554347262852
 21
541.7073570764583
 31
0
  0
LINE
  8
1
 62
7
 10
1323.554347262852
 20
541.7073570764583
 30
0
 11
1323.554347262852
 21
542.076456786354
 31
0
  0
LINE
  8
1
 62
7
 10
1323.554347262852
 20
542.076456786354
 30
0
 11
1323.498982306367
 21
542.4916939599871
 31
0
  0
LINE
  8
1
 62
7
 10
1323.498982306367
 20
542.4916939599871
 30
0
 11
1323.443617349883
 21
542.7685187424089
 31
0
  0
LINE
  8
1
 62
7
 10
1323.443617349883
 20
542.7685187424089
 30
0
 11
1323.332887436914
 21
542.9992060610939
 31
0
  0
LINE
  8
1
 62
7
 10
1323.332887436914
 20
542.9992060610939
 30
0
 11
1323.222157523945
 21
543.183755916042
 31
0
  0
LINE
  8
1
 62
7
 10
1323.222157523945
 20
543.183755916042
 30
0
 11
1323.056062654492
 21
543.3683057709899
 31
0
  0
LINE
  8
1
 62
7
 10
1323.056062654492
 20
543.3683057709899
 30
0
 11
1322.889967785039
 21
543.506718162201
 31
0
  0
LINE
  8
1
 62
7
 10
1322.889967785039
 20
543.506718162201
 30
0
 11
1322.723872915586
 21
543.5989930896749
 31
0
  0
LINE
  8
1
 62
7
 10
1322.723872915586
 20
543.5989930896749
 30
0
 11
1322.447048133164
 21
543.6912680171488
 31
0
  0
LINE
  8
1
 62
7
 10
1322.447048133164
 20
543.6912680171488
 30
0
 11
1322.225588307226
 21
543.7374054808859
 31
0
  0
LINE
  8
1
 62
7
 10
1322.225588307226
 20
543.7374054808859
 30
0
 11
1321.838033611835
 21
543.7374054808859
 31
0
  0
LINE
  8
1
 62
7
 10
1321.838033611835
 20
543.7374054808859
 30
0
 11
1321.616573785898
 21
543.6912680171488
 31
0
  0
LINE
  8
1
 62
7
 10
1321.616573785898
 20
543.6912680171488
 30
0
 11
1321.339749003476
 21
543.5989930896749
 31
0
  0
LINE
  8
1
 62
7
 10
1321.339749003476
 20
543.5989930896749
 30
0
 11
1321.173654134023
 21
543.506718162201
 31
0
  0
LINE
  8
1
 62
7
 10
1321.173654134023
 20
543.506718162201
 30
0
 11
1321.007559264569
 21
543.3683057709899
 31
0
  0
LINE
  8
1
 62
7
 10
1321.007559264569
 20
543.3683057709899
 30
0
 11
1320.841464395116
 21
543.183755916042
 31
0
  0
LINE
  8
1
 62
7
 10
1320.841464395116
 20
543.183755916042
 30
0
 11
1320.730734482148
 21
542.9992060610939
 31
0
  0
LINE
  8
1
 62
7
 10
1320.730734482148
 20
542.9992060610939
 30
0
 11
1320.620004569179
 21
542.7685187424089
 31
0
  0
LINE
  8
1
 62
7
 10
1320.620004569179
 20
542.7685187424089
 30
0
 11
1320.564639612694
 21
542.4916939599871
 31
0
  0
LINE
  8
1
 62
7
 10
1320.564639612694
 20
542.4916939599871
 30
0
 11
1320.50927465621
 21
542.076456786354
 31
0
  0
LINE
  8
1
 62
7
 10
1320.50927465621
 20
542.076456786354
 30
0
 11
1320.50927465621
 21
541.7073570764583
 31
0
  0
LINE
  8
1
 62
7
 10
1320.50927465621
 20
541.7073570764583
 30
0
 11
1320.564639612694
 21
541.2921199028251
 31
0
  0
LINE
  8
1
 62
7
 10
1320.564639612694
 20
541.2921199028251
 30
0
 11
1320.620004569179
 21
541.0152951204032
 31
0
  0
LINE
  8
1
 62
7
 10
1320.620004569179
 20
541.0152951204032
 30
0
 11
1320.730734482148
 21
540.7846078017183
 31
0
  0
LINE
  8
1
 62
7
 10
1320.730734482148
 20
540.7846078017183
 30
0
 11
1320.841464395116
 21
540.6000579467701
 31
0
  0
LINE
  8
1
 62
7
 10
1320.841464395116
 20
540.6000579467701
 30
0
 11
1321.007559264569
 21
540.4155080918222
 31
0
  0
LINE
  8
1
 62
7
 10
1321.007559264569
 20
540.4155080918222
 30
0
 11
1321.173654134023
 21
540.2770957006112
 31
0
  0
LINE
  8
1
 62
7
 10
1321.173654134023
 20
540.2770957006112
 30
0
 11
1321.339749003476
 21
540.1848207731373
 31
0
  0
LINE
  8
1
 62
7
 10
1321.339749003476
 20
540.1848207731373
 30
0
 11
1321.616573785898
 21
540.0925458456634
 31
0
  0
LINE
  8
1
 62
7
 10
1321.616573785898
 20
540.0925458456634
 30
0
 11
1321.838033611835
 21
540.0464083819262
 31
0
  0
LINE
  8
1
 62
7
 10
1321.838033611835
 20
540.0464083819262
 30
0
 11
1322.225588307226
 21
540.0464083819262
 31
0
  0
LINE
  8
1
 62
7
 10
1322.225588307226
 20
540.0464083819262
 30
0
 11
1322.447048133164
 21
540.0925458456634
 31
0
  0
LINE
  8
1
 62
7
 10
1322.447048133164
 20
540.0925458456634
 30
0
 11
1322.723872915586
 21
540.1848207731373
 31
0
  0
LINE
  8
1
 62
7
 10
1322.723872915586
 20
540.1848207731373
 30
0
 11
1322.889967785039
 21
540.2770957006112
 31
0
  0
LINE
  8
1
 62
7
 10
1315.213033611835
 20
540.5077830192962
 30
0
 11
1315.600588307226
 21
540.5077830192962
 31
0
  0
LINE
  8
1
 62
7
 10
1315.600588307226
 20
540.5077830192962
 30
0
 11
1315.822048133163
 21
540.6000579467701
 31
0
  0
LINE
  8
1
 62
7
 10
1315.822048133163
 20
540.6000579467701
 30
0
 11
1316.043507959101
 21
540.7384703379812
 31
0
  0
LINE
  8
1
 62
7
 10
1316.043507959101
 20
540.7384703379812
 30
0
 11
1316.15423787207
 21
540.8768827291922
 31
0
  0
LINE
  8
1
 62
7
 10
1316.15423787207
 20
540.8768827291922
 30
0
 11
1316.264967785038
 21
541.1075700478772
 31
0
  0
LINE
  8
1
 62
7
 10
1316.264967785038
 20
541.1075700478772
 30
0
 11
1316.320332741523
 21
541.615082148984
 31
0
  0
LINE
  8
1
 62
7
 10
1316.320332741523
 20
541.615082148984
 30
0
 11
1316.320332741523
 21
542.1687317138279
 31
0
  0
LINE
  8
1
 62
7
 10
1316.320332741523
 20
542.1687317138279
 30
0
 11
1316.264967785038
 21
542.6762438149349
 31
0
  0
LINE
  8
1
 62
7
 10
1316.264967785038
 20
542.6762438149349
 30
0
 11
1316.15423787207
 21
542.90693113362
 31
0
  0
LINE
  8
1
 62
7
 10
1316.15423787207
 20
542.90693113362
 30
0
 11
1316.043507959101
 21
543.045343524831
 31
0
  0
LINE
  8
1
 62
7
 10
1316.043507959101
 20
543.045343524831
 30
0
 11
1315.822048133163
 21
543.183755916042
 31
0
  0
LINE
  8
1
 62
7
 10
1315.822048133163
 20
543.183755916042
 30
0
 11
1315.600588307226
 21
543.2760308435161
 31
0
  0
LINE
  8
1
 62
7
 10
1315.600588307226
 20
543.2760308435161
 30
0
 11
1315.213033611835
 21
543.2760308435161
 31
0
  0
LINE
  8
1
 62
7
 10
1315.213033611835
 20
543.2760308435161
 30
0
 11
1314.991573785897
 21
543.183755916042
 31
0
  0
LINE
  8
1
 62
7
 10
1314.991573785897
 20
543.183755916042
 30
0
 11
1314.77011395996
 21
543.045343524831
 31
0
  0
LINE
  8
1
 62
7
 10
1314.77011395996
 20
543.045343524831
 30
0
 11
1314.659384046991
 21
542.90693113362
 31
0
  0
LINE
  8
1
 62
7
 10
1314.659384046991
 20
542.90693113362
 30
0
 11
1314.548654134022
 21
542.6762438149349
 31
0
  0
LINE
  8
1
 62
7
 10
1314.548654134022
 20
542.6762438149349
 30
0
 11
1314.493289177538
 21
542.1687317138279
 31
0
  0
LINE
  8
1
 62
7
 10
1314.493289177538
 20
542.1687317138279
 30
0
 11
1314.493289177538
 21
541.615082148984
 31
0
  0
LINE
  8
1
 62
7
 10
1314.493289177538
 20
541.615082148984
 30
0
 11
1314.548654134022
 21
541.1075700478772
 31
0
  0
LINE
  8
1
 62
7
 10
1314.548654134022
 20
541.1075700478772
 30
0
 11
1314.659384046991
 21
540.8768827291922
 31
0
  0
LINE
  8
1
 62
7
 10
1314.659384046991
 20
540.8768827291922
 30
0
 11
1314.77011395996
 21
540.7384703379812
 31
0
  0
LINE
  8
1
 62
7
 10
1314.77011395996
 20
540.7384703379812
 30
0
 11
1314.991573785897
 21
540.6000579467701
 31
0
  0
LINE
  8
1
 62
7
 10
1314.991573785897
 20
540.6000579467701
 30
0
 11
1315.213033611835
 21
540.5077830192962
 31
0
  0
LINE
  8
1
 62
7
 10
1316.264967785038
 20
540.2770957006112
 30
0
 11
1316.431062654492
 21
540.4155080918222
 31
0
  0
LINE
  8
1
 62
7
 10
1316.431062654492
 20
540.4155080918222
 30
0
 11
1316.597157523945
 21
540.6000579467701
 31
0
  0
LINE
  8
1
 62
7
 10
1316.597157523945
 20
540.6000579467701
 30
0
 11
1316.707887436914
 21
540.7846078017183
 31
0
  0
LINE
  8
1
 62
7
 10
1316.707887436914
 20
540.7846078017183
 30
0
 11
1316.818617349882
 21
541.0152951204032
 31
0
  0
LINE
  8
1
 62
7
 10
1316.818617349882
 20
541.0152951204032
 30
0
 11
1316.873982306367
 21
541.2921199028251
 31
0
  0
LINE
  8
1
 62
7
 10
1316.873982306367
 20
541.2921199028251
 30
0
 11
1316.929347262851
 21
541.7073570764583
 31
0
  0
LINE
  8
1
 62
7
 10
1316.929347262851
 20
541.7073570764583
 30
0
 11
1316.929347262851
 21
542.076456786354
 31
0
  0
LINE
  8
1
 62
7
 10
1316.929347262851
 20
542.076456786354
 30
0
 11
1316.873982306367
 21
542.4916939599871
 31
0
  0
LINE
  8
1
 62
7
 10
1316.873982306367
 20
542.4916939599871
 30
0
 11
1316.818617349882
 21
542.7685187424089
 31
0
  0
LINE
  8
1
 62
7
 10
1316.818617349882
 20
542.7685187424089
 30
0
 11
1316.707887436914
 21
542.9992060610939
 31
0
  0
LINE
  8
1
 62
7
 10
1316.707887436914
 20
542.9992060610939
 30
0
 11
1316.597157523945
 21
543.183755916042
 31
0
  0
LINE
  8
1
 62
7
 10
1316.597157523945
 20
543.183755916042
 30
0
 11
1316.431062654492
 21
543.3683057709899
 31
0
  0
LINE
  8
1
 62
7
 10
1316.431062654492
 20
543.3683057709899
 30
0
 11
1316.264967785038
 21
543.506718162201
 31
0
  0
LINE
  8
1
 62
7
 10
1316.264967785038
 20
543.506718162201
 30
0
 11
1316.098872915585
 21
543.5989930896749
 31
0
  0
LINE
  8
1
 62
7
 10
1316.098872915585
 20
543.5989930896749
 30
0
 11
1315.822048133163
 21
543.6912680171488
 31
0
  0
LINE
  8
1
 62
7
 10
1315.822048133163
 20
543.6912680171488
 30
0
 11
1315.600588307226
 21
543.7374054808859
 31
0
  0
LINE
  8
1
 62
7
 10
1315.600588307226
 20
543.7374054808859
 30
0
 11
1315.213033611835
 21
543.7374054808859
 31
0
  0
LINE
  8
1
 62
7
 10
1315.213033611835
 20
543.7374054808859
 30
0
 11
1314.991573785897
 21
543.6912680171488
 31
0
  0
LINE
  8
1
 62
7
 10
1314.991573785897
 20
543.6912680171488
 30
0
 11
1314.714749003475
 21
543.5989930896749
 31
0
  0
LINE
  8
1
 62
7
 10
1314.714749003475
 20
543.5989930896749
 30
0
 11
1314.548654134022
 21
543.506718162201
 31
0
  0
LINE
  8
1
 62
7
 10
1314.548654134022
 20
543.506718162201
 30
0
 11
1314.382559264569
 21
543.3683057709899
 31
0
  0
LINE
  8
1
 62
7
 10
1314.382559264569
 20
543.3683057709899
 30
0
 11
1314.216464395116
 21
543.183755916042
 31
0
  0
LINE
  8
1
 62
7
 10
1314.216464395116
 20
543.183755916042
 30
0
 11
1314.105734482147
 21
542.9992060610939
 31
0
  0
LINE
  8
1
 62
7
 10
1314.105734482147
 20
542.9992060610939
 30
0
 11
1313.995004569178
 21
542.7685187424089
 31
0
  0
LINE
  8
1
 62
7
 10
1313.995004569178
 20
542.7685187424089
 30
0
 11
1313.939639612694
 21
542.4916939599871
 31
0
  0
LINE
  8
1
 62
7
 10
1313.939639612694
 20
542.4916939599871
 30
0
 11
1313.88427465621
 21
542.076456786354
 31
0
  0
LINE
  8
1
 62
7
 10
1313.88427465621
 20
542.076456786354
 30
0
 11
1313.88427465621
 21
541.7073570764583
 31
0
  0
LINE
  8
1
 62
7
 10
1313.88427465621
 20
541.7073570764583
 30
0
 11
1313.939639612694
 21
541.2921199028251
 31
0
  0
LINE
  8
1
 62
7
 10
1313.939639612694
 20
541.2921199028251
 30
0
 11
1313.995004569178
 21
541.0152951204032
 31
0
  0
LINE
  8
1
 62
7
 10
1313.995004569178
 20
541.0152951204032
 30
0
 11
1314.105734482147
 21
540.7846078017183
 31
0
  0
LINE
  8
1
 62
7
 10
1314.105734482147
 20
540.7846078017183
 30
0
 11
1314.216464395116
 21
540.6000579467701
 31
0
  0
LINE
  8
1
 62
7
 10
1314.216464395116
 20
540.6000579467701
 30
0
 11
1314.382559264569
 21
540.4155080918222
 31
0
  0
LINE
  8
1
 62
7
 10
1314.382559264569
 20
540.4155080918222
 30
0
 11
1314.548654134022
 21
540.2770957006112
 31
0
  0
LINE
  8
1
 62
7
 10
1314.548654134022
 20
540.2770957006112
 30
0
 11
1314.714749003475
 21
540.1848207731373
 31
0
  0
LINE
  8
1
 62
7
 10
1314.714749003475
 20
540.1848207731373
 30
0
 11
1314.991573785897
 21
540.0925458456634
 31
0
  0
LINE
  8
1
 62
7
 10
1314.991573785897
 20
540.0925458456634
 30
0
 11
1315.213033611835
 21
540.0464083819262
 31
0
  0
LINE
  8
1
 62
7
 10
1315.213033611835
 20
540.0464083819262
 30
0
 11
1315.600588307226
 21
540.0464083819262
 31
0
  0
LINE
  8
1
 62
7
 10
1315.600588307226
 20
540.0464083819262
 30
0
 11
1315.822048133163
 21
540.0925458456634
 31
0
  0
LINE
  8
1
 62
7
 10
1315.822048133163
 20
540.0925458456634
 30
0
 11
1316.098872915585
 21
540.1848207731373
 31
0
  0
LINE
  8
1
 62
7
 10
1316.098872915585
 20
540.1848207731373
 30
0
 11
1316.264967785038
 21
540.2770957006112
 31
0
  0
LINE
  8
1
 62
7
 10
1351.135307529765
 20
540.0464083819262
 30
0
 11
1351.135307529765
 21
540.3232331643483
 31
0
  0
LINE
  8
1
 62
7
 10
1351.135307529765
 20
540.3232331643483
 30
0
 11
1351.246037442734
 21
540.6461954105072
 31
0
  0
LINE
  8
1
 62
7
 10
1351.246037442734
 20
540.6461954105072
 30
0
 11
1351.467497268671
 21
540.9691576566661
 31
0
  0
LINE
  8
1
 62
7
 10
1351.467497268671
 20
540.9691576566661
 30
0
 11
1351.744322051093
 21
541.2459824390883
 31
0
  0
LINE
  8
1
 62
7
 10
1351.744322051093
 20
541.2459824390883
 30
0
 11
1352.07651179
 21
541.5689446852472
 31
0
  0
LINE
  8
1
 62
7
 10
1352.07651179
 20
541.5689446852472
 30
0
 11
1352.408701528906
 21
541.7996320039322
 31
0
  0
LINE
  8
1
 62
7
 10
1352.408701528906
 20
541.7996320039322
 30
0
 11
1352.740891267812
 21
542.076456786354
 31
0
  0
LINE
  8
1
 62
7
 10
1352.740891267812
 20
542.076456786354
 30
0
 11
1353.128445963203
 21
542.3994190325128
 31
0
  0
LINE
  8
1
 62
7
 10
1353.128445963203
 20
542.3994190325128
 30
0
 11
1353.239175876172
 21
542.5378314237239
 31
0
  0
LINE
  8
1
 62
7
 10
1353.239175876172
 20
542.5378314237239
 30
0
 11
1353.294540832656
 21
542.6762438149349
 31
0
  0
LINE
  8
1
 62
7
 10
1353.294540832656
 20
542.6762438149349
 30
0
 11
1353.294540832656
 21
542.8607936698828
 31
0
  0
LINE
  8
1
 62
7
 10
1353.294540832656
 20
542.8607936698828
 30
0
 11
1353.239175876172
 21
542.9992060610939
 31
0
  0
LINE
  8
1
 62
7
 10
1353.239175876172
 20
542.9992060610939
 30
0
 11
1353.128445963203
 21
543.1376184523049
 31
0
  0
LINE
  8
1
 62
7
 10
1353.128445963203
 20
543.1376184523049
 30
0
 11
1352.96235109375
 21
543.2298933797788
 31
0
  0
LINE
  8
1
 62
7
 10
1352.96235109375
 20
543.2298933797788
 30
0
 11
1352.740891267812
 21
543.2760308435161
 31
0
  0
LINE
  8
1
 62
7
 10
1352.740891267812
 20
543.2760308435161
 30
0
 11
1352.519431441875
 21
543.2760308435161
 31
0
  0
LINE
  8
1
 62
7
 10
1352.519431441875
 20
543.2760308435161
 30
0
 11
1352.297971615937
 21
543.2298933797788
 31
0
  0
LINE
  8
1
 62
7
 10
1352.297971615937
 20
543.2298933797788
 30
0
 11
1352.131876746484
 21
543.1376184523049
 31
0
  0
LINE
  8
1
 62
7
 10
1352.131876746484
 20
543.1376184523049
 30
0
 11
1352.021146833515
 21
542.9992060610939
 31
0
  0
LINE
  8
1
 62
7
 10
1352.021146833515
 20
542.9992060610939
 30
0
 11
1351.965781877031
 21
542.8607936698828
 31
0
  0
LINE
  8
1
 62
7
 10
1351.965781877031
 20
542.8607936698828
 30
0
 11
1351.965781877031
 21
542.6762438149349
 31
0
  0
LINE
  8
1
 62
7
 10
1351.965781877031
 20
542.6762438149349
 30
0
 11
1351.356767355703
 21
542.6762438149349
 31
0
  0
LINE
  8
1
 62
7
 10
1351.356767355703
 20
542.6762438149349
 30
0
 11
1351.356767355703
 21
542.8607936698828
 31
0
  0
LINE
  8
1
 62
7
 10
1351.356767355703
 20
542.8607936698828
 30
0
 11
1351.412132312187
 21
543.0914809885678
 31
0
  0
LINE
  8
1
 62
7
 10
1351.412132312187
 20
543.0914809885678
 30
0
 11
1351.633592138124
 21
543.3683057709899
 31
0
  0
LINE
  8
1
 62
7
 10
1351.633592138124
 20
543.3683057709899
 30
0
 11
1351.855051964062
 21
543.5528556259378
 31
0
  0
LINE
  8
1
 62
7
 10
1351.855051964062
 20
543.5528556259378
 30
0
 11
1352.187241702968
 21
543.6912680171488
 31
0
  0
LINE
  8
1
 62
7
 10
1352.187241702968
 20
543.6912680171488
 30
0
 11
1352.46406648539
 21
543.7374054808859
 31
0
  0
LINE
  8
1
 62
7
 10
1352.46406648539
 20
543.7374054808859
 30
0
 11
1352.796256224297
 21
543.7374054808859
 31
0
  0
LINE
  8
1
 62
7
 10
1352.796256224297
 20
543.7374054808859
 30
0
 11
1353.073081006718
 21
543.6912680171488
 31
0
  0
LINE
  8
1
 62
7
 10
1353.073081006718
 20
543.6912680171488
 30
0
 11
1353.405270745625
 21
543.5528556259378
 31
0
  0
LINE
  8
1
 62
7
 10
1353.405270745625
 20
543.5528556259378
 30
0
 11
1353.626730571562
 21
543.3683057709899
 31
0
  0
LINE
  8
1
 62
7
 10
1353.626730571562
 20
543.3683057709899
 30
0
 11
1353.8481903975
 21
543.0914809885678
 31
0
  0
LINE
  8
1
 62
7
 10
1353.8481903975
 20
543.0914809885678
 30
0
 11
1353.903555353985
 21
542.8607936698828
 31
0
  0
LINE
  8
1
 62
7
 10
1353.903555353985
 20
542.8607936698828
 30
0
 11
1353.903555353985
 21
542.6762438149349
 31
0
  0
LINE
  8
1
 62
7
 10
1353.903555353985
 20
542.6762438149349
 30
0
 11
1353.8481903975
 21
542.44555649625
 31
0
  0
LINE
  8
1
 62
7
 10
1353.8481903975
 20
542.44555649625
 30
0
 11
1353.626730571562
 21
542.1687317138279
 31
0
  0
LINE
  8
1
 62
7
 10
1353.626730571562
 20
542.1687317138279
 30
0
 11
1353.516000658594
 21
542.076456786354
 31
0
  0
LINE
  8
1
 62
7
 10
1353.516000658594
 20
542.076456786354
 30
0
 11
1353.073081006718
 21
541.7534945401951
 31
0
  0
LINE
  8
1
 62
7
 10
1353.073081006718
 20
541.7534945401951
 30
0
 11
1352.685526311328
 21
541.4766697577732
 31
0
  0
LINE
  8
1
 62
7
 10
1352.685526311328
 20
541.4766697577732
 30
0
 11
1352.297971615937
 21
541.1075700478772
 31
0
  0
LINE
  8
1
 62
7
 10
1352.297971615937
 20
541.1075700478772
 30
0
 11
1352.021146833515
 21
540.7846078017183
 31
0
  0
LINE
  8
1
 62
7
 10
1352.021146833515
 20
540.7846078017183
 30
0
 11
1351.910416920546
 21
540.5077830192962
 31
0
  0
LINE
  8
1
 62
7
 10
1351.910416920546
 20
540.5077830192962
 30
0
 11
1354.069650223438
 21
540.5077830192962
 31
0
  0
LINE
  8
1
 62
7
 10
1354.069650223438
 20
540.5077830192962
 30
0
 11
1354.069650223438
 21
540.0464083819262
 31
0
  0
LINE
  8
1
 62
7
 10
1354.069650223438
 20
540.0464083819262
 30
0
 11
1351.135307529765
 21
540.0464083819262
 31
0
  0
LINE
  8
1
 62
7
 10
1359.116748963633
 20
541.845769467669
 30
0
 11
1359.33820878957
 21
541.845769467669
 31
0
  0
LINE
  8
1
 62
7
 10
1359.33820878957
 20
541.845769467669
 30
0
 11
1359.615033571992
 21
541.7996320039322
 31
0
  0
LINE
  8
1
 62
7
 10
1359.615033571992
 20
541.7996320039322
 30
0
 11
1359.83649339793
 21
541.661219612721
 31
0
  0
LINE
  8
1
 62
7
 10
1359.83649339793
 20
541.661219612721
 30
0
 11
1360.002588267383
 21
541.4766697577732
 31
0
  0
LINE
  8
1
 62
7
 10
1360.002588267383
 20
541.4766697577732
 30
0
 11
1360.057953223867
 21
541.2921199028251
 31
0
  0
LINE
  8
1
 62
7
 10
1360.057953223867
 20
541.2921199028251
 30
0
 11
1360.057953223867
 21
541.1075700478772
 31
0
  0
LINE
  8
1
 62
7
 10
1360.057953223867
 20
541.1075700478772
 30
0
 11
1360.002588267383
 21
540.9230201929292
 31
0
  0
LINE
  8
1
 62
7
 10
1360.002588267383
 20
540.9230201929292
 30
0
 11
1359.83649339793
 21
540.7384703379812
 31
0
  0
LINE
  8
1
 62
7
 10
1359.83649339793
 20
540.7384703379812
 30
0
 11
1359.615033571992
 21
540.6000579467701
 31
0
  0
LINE
  8
1
 62
7
 10
1359.615033571992
 20
540.6000579467701
 30
0
 11
1359.33820878957
 21
540.5539204830334
 31
0
  0
LINE
  8
1
 62
7
 10
1359.33820878957
 20
540.5539204830334
 30
0
 11
1359.116748963633
 21
540.5539204830334
 31
0
  0
LINE
  8
1
 62
7
 10
1359.116748963633
 20
540.5539204830334
 30
0
 11
1358.839924181211
 21
540.6000579467701
 31
0
  0
LINE
  8
1
 62
7
 10
1358.839924181211
 20
540.6000579467701
 30
0
 11
1358.618464355273
 21
540.7384703379812
 31
0
  0
LINE
  8
1
 62
7
 10
1358.618464355273
 20
540.7384703379812
 30
0
 11
1358.45236948582
 21
540.9230201929292
 31
0
  0
LINE
  8
1
 62
7
 10
1358.45236948582
 20
540.9230201929292
 30
0
 11
1358.397004529335
 21
541.1075700478772
 31
0
  0
LINE
  8
1
 62
7
 10
1358.397004529335
 20
541.1075700478772
 30
0
 11
1358.397004529335
 21
541.2921199028251
 31
0
  0
LINE
  8
1
 62
7
 10
1358.397004529335
 20
541.2921199028251
 30
0
 11
1357.732625051523
 21
541.2921199028251
 31
0
  0
LINE
  8
1
 62
7
 10
1357.732625051523
 20
541.2921199028251
 30
0
 11
1357.732625051523
 21
541.0614325841401
 31
0
  0
LINE
  8
1
 62
7
 10
1357.732625051523
 20
541.0614325841401
 30
0
 11
1357.843354964492
 21
540.7384703379812
 31
0
  0
LINE
  8
1
 62
7
 10
1357.843354964492
 20
540.7384703379812
 30
0
 11
1358.009449833945
 21
540.5077830192962
 31
0
  0
LINE
  8
1
 62
7
 10
1358.009449833945
 20
540.5077830192962
 30
0
 11
1358.286274616367
 21
540.2770957006112
 31
0
  0
LINE
  8
1
 62
7
 10
1358.286274616367
 20
540.2770957006112
 30
0
 11
1358.618464355273
 21
540.1386833094001
 31
0
  0
LINE
  8
1
 62
7
 10
1358.618464355273
 20
540.1386833094001
 30
0
 11
1359.061384007148
 21
540.0464083819262
 31
0
  0
LINE
  8
1
 62
7
 10
1359.061384007148
 20
540.0464083819262
 30
0
 11
1359.393573746054
 21
540.0464083819262
 31
0
  0
LINE
  8
1
 62
7
 10
1359.393573746054
 20
540.0464083819262
 30
0
 11
1359.83649339793
 21
540.1386833094001
 31
0
  0
LINE
  8
1
 62
7
 10
1359.83649339793
 20
540.1386833094001
 30
0
 11
1360.168683136836
 21
540.2770957006112
 31
0
  0
LINE
  8
1
 62
7
 10
1360.168683136836
 20
540.2770957006112
 30
0
 11
1360.445507919258
 21
540.5077830192962
 31
0
  0
LINE
  8
1
 62
7
 10
1360.445507919258
 20
540.5077830192962
 30
0
 11
1360.611602788711
 21
540.7384703379812
 31
0
  0
LINE
  8
1
 62
7
 10
1360.611602788711
 20
540.7384703379812
 30
0
 11
1360.72233270168
 21
541.0614325841401
 31
0
  0
LINE
  8
1
 62
7
 10
1360.72233270168
 20
541.0614325841401
 30
0
 11
1360.72233270168
 21
541.2921199028251
 31
0
  0
LINE
  8
1
 62
7
 10
1360.72233270168
 20
541.2921199028251
 30
0
 11
1360.611602788711
 21
541.615082148984
 31
0
  0
LINE
  8
1
 62
7
 10
1360.611602788711
 20
541.615082148984
 30
0
 11
1360.390142962774
 21
541.8919069314061
 31
0
  0
LINE
  8
1
 62
7
 10
1360.390142962774
 20
541.8919069314061
 30
0
 11
1360.113318180352
 21
542.076456786354
 31
0
  0
LINE
  8
1
 62
7
 10
1360.113318180352
 20
542.076456786354
 30
0
 11
1360.22404809332
 21
542.1687317138279
 31
0
  0
LINE
  8
1
 62
7
 10
1360.22404809332
 20
542.1687317138279
 30
0
 11
1360.445507919258
 21
542.44555649625
 31
0
  0
LINE
  8
1
 62
7
 10
1360.445507919258
 20
542.44555649625
 30
0
 11
1360.500872875742
 21
542.6762438149349
 31
0
  0
LINE
  8
1
 62
7
 10
1360.500872875742
 20
542.6762438149349
 30
0
 11
1360.500872875742
 21
542.8607936698828
 31
0
  0
LINE
  8
1
 62
7
 10
1360.500872875742
 20
542.8607936698828
 30
0
 11
1360.445507919258
 21
543.0914809885678
 31
0
  0
LINE
  8
1
 62
7
 10
1360.445507919258
 20
543.0914809885678
 30
0
 11
1360.22404809332
 21
543.3683057709899
 31
0
  0
LINE
  8
1
 62
7
 10
1360.22404809332
 20
543.3683057709899
 30
0
 11
1360.002588267383
 21
543.5528556259378
 31
0
  0
LINE
  8
1
 62
7
 10
1360.002588267383
 20
543.5528556259378
 30
0
 11
1359.670398528476
 21
543.6912680171488
 31
0
  0
LINE
  8
1
 62
7
 10
1359.670398528476
 20
543.6912680171488
 30
0
 11
1359.393573746054
 21
543.7374054808859
 31
0
  0
LINE
  8
1
 62
7
 10
1359.393573746054
 20
543.7374054808859
 30
0
 11
1359.061384007148
 21
543.7374054808859
 31
0
  0
LINE
  8
1
 62
7
 10
1359.061384007148
 20
543.7374054808859
 30
0
 11
1358.784559224726
 21
543.6912680171488
 31
0
  0
LINE
  8
1
 62
7
 10
1358.784559224726
 20
543.6912680171488
 30
0
 11
1358.45236948582
 21
543.5528556259378
 31
0
  0
LINE
  8
1
 62
7
 10
1358.45236948582
 20
543.5528556259378
 30
0
 11
1358.230909659882
 21
543.3683057709899
 31
0
  0
LINE
  8
1
 62
7
 10
1358.230909659882
 20
543.3683057709899
 30
0
 11
1358.009449833945
 21
543.0914809885678
 31
0
  0
LINE
  8
1
 62
7
 10
1358.009449833945
 20
543.0914809885678
 30
0
 11
1357.95408487746
 21
542.8607936698828
 31
0
  0
LINE
  8
1
 62
7
 10
1357.95408487746
 20
542.8607936698828
 30
0
 11
1357.95408487746
 21
542.6762438149349
 31
0
  0
LINE
  8
1
 62
7
 10
1357.95408487746
 20
542.6762438149349
 30
0
 11
1358.563099398789
 21
542.6762438149349
 31
0
  0
LINE
  8
1
 62
7
 10
1358.563099398789
 20
542.6762438149349
 30
0
 11
1358.563099398789
 21
542.8607936698828
 31
0
  0
LINE
  8
1
 62
7
 10
1358.563099398789
 20
542.8607936698828
 30
0
 11
1358.618464355273
 21
542.9992060610939
 31
0
  0
LINE
  8
1
 62
7
 10
1358.618464355273
 20
542.9992060610939
 30
0
 11
1358.729194268242
 21
543.1376184523049
 31
0
  0
LINE
  8
1
 62
7
 10
1358.729194268242
 20
543.1376184523049
 30
0
 11
1358.895289137695
 21
543.2298933797788
 31
0
  0
LINE
  8
1
 62
7
 10
1358.895289137695
 20
543.2298933797788
 30
0
 11
1359.116748963633
 21
543.2760308435161
 31
0
  0
LINE
  8
1
 62
7
 10
1359.116748963633
 20
543.2760308435161
 30
0
 11
1359.33820878957
 21
543.2760308435161
 31
0
  0
LINE
  8
1
 62
7
 10
1359.33820878957
 20
543.2760308435161
 30
0
 11
1359.559668615508
 21
543.2298933797788
 31
0
  0
LINE
  8
1
 62
7
 10
1359.559668615508
 20
543.2298933797788
 30
0
 11
1359.725763484961
 21
543.1376184523049
 31
0
  0
LINE
  8
1
 62
7
 10
1359.725763484961
 20
543.1376184523049
 30
0
 11
1359.83649339793
 21
542.9992060610939
 31
0
  0
LINE
  8
1
 62
7
 10
1359.83649339793
 20
542.9992060610939
 30
0
 11
1359.891858354414
 21
542.8607936698828
 31
0
  0
LINE
  8
1
 62
7
 10
1359.891858354414
 20
542.8607936698828
 30
0
 11
1359.891858354414
 21
542.6762438149349
 31
0
  0
LINE
  8
1
 62
7
 10
1359.891858354414
 20
542.6762438149349
 30
0
 11
1359.83649339793
 21
542.5378314237239
 31
0
  0
LINE
  8
1
 62
7
 10
1359.83649339793
 20
542.5378314237239
 30
0
 11
1359.725763484961
 21
542.3994190325128
 31
0
  0
LINE
  8
1
 62
7
 10
1359.725763484961
 20
542.3994190325128
 30
0
 11
1359.559668615508
 21
542.3071441050389
 31
0
  0
LINE
  8
1
 62
7
 10
1359.559668615508
 20
542.3071441050389
 30
0
 11
1359.33820878957
 21
542.2610066413022
 31
0
  0
LINE
  8
1
 62
7
 10
1359.33820878957
 20
542.2610066413022
 30
0
 11
1359.116748963633
 21
542.2610066413022
 31
0
  0
LINE
  8
1
 62
7
 10
1359.116748963633
 20
542.2610066413022
 30
0
 11
1359.116748963633
 21
541.845769467669
 31
0
  0
LINE
  8
1
 62
7
 10
1367.432193994562
 20
543.7374054808859
 30
0
 11
1368.041208515891
 21
543.7374054808859
 31
0
  0
LINE
  8
1
 62
7
 10
1368.041208515891
 20
543.7374054808859
 30
0
 11
1368.041208515891
 21
541.3382573665622
 31
0
  0
LINE
  8
1
 62
7
 10
1368.041208515891
 20
541.3382573665622
 30
0
 11
1368.594858080734
 21
541.3382573665622
 31
0
  0
LINE
  8
1
 62
7
 10
1368.594858080734
 20
541.3382573665622
 30
0
 11
1368.594858080734
 21
540.8768827291922
 31
0
  0
LINE
  8
1
 62
7
 10
1368.594858080734
 20
540.8768827291922
 30
0
 11
1368.041208515891
 21
540.8768827291922
 31
0
  0
LINE
  8
1
 62
7
 10
1368.041208515891
 20
540.8768827291922
 30
0
 11
1368.041208515891
 21
540.0464083819262
 31
0
  0
LINE
  8
1
 62
7
 10
1368.041208515891
 20
540.0464083819262
 30
0
 11
1367.432193994562
 21
540.0464083819262
 31
0
  0
LINE
  8
1
 62
7
 10
1367.432193994562
 20
540.0464083819262
 30
0
 11
1367.432193994562
 21
540.8768827291922
 31
0
  0
LINE
  8
1
 62
7
 10
1367.432193994562
 20
540.8768827291922
 30
0
 11
1365.549785474093
 21
540.8768827291922
 31
0
  0
LINE
  8
1
 62
7
 10
1365.549785474093
 20
540.8768827291922
 30
0
 11
1365.549785474093
 21
541.384394830299
 31
0
  0
LINE
  8
1
 62
7
 10
1365.549785474093
 20
541.384394830299
 30
0
 11
1367.432193994562
 21
543.7374054808859
 31
0
  0
LINE
  8
1
 62
7
 10
1367.432193994562
 20
542.90693113362
 30
0
 11
1366.158799995421
 21
541.3382573665622
 31
0
  0
LINE
  8
1
 62
7
 10
1366.158799995421
 20
541.3382573665622
 30
0
 11
1367.432193994562
 21
541.3382573665622
 31
0
  0
LINE
  8
1
 62
7
 10
1367.432193994562
 20
541.3382573665622
 30
0
 11
1367.432193994562
 21
542.90693113362
 31
0
  0
LINE
  8
1
 62
2
  6
DASHDOT
 10
1416.35078581802
 20
561.904217532636
 30
0
 11
1266.03748832274
 21
561.904217532636
 31
0
  0
LINE
  8
1
 62
2
  6
DASHDOT
 10
1341.473158972351
 20
611.404217532636
 30
0
 11
1341.473158972351
 21
512.404217532636
 31
0
  0
LINE
  8
1
 62
2
 10
1283.497975681757
 20
346.5313892553336
 30
0
 11
1283.289642348424
 21
346.1798267553336
 31
0
  0
LINE
  8
1
 62
2
 10
1283.289642348424
 20
346.1798267553336
 30
0
 11
1283.08130901509
 21
345.5938892553336
 31
0
  0
LINE
  8
1
 62
2
 10
1283.08130901509
 20
345.5938892553336
 30
0
 11
1283.08130901509
 21
343.7188892553336
 31
0
  0
LINE
  8
1
 62
2
 10
1283.08130901509
 20
343.7188892553336
 30
0
 11
1283.289642348424
 21
343.1329517553336
 31
0
  0
LINE
  8
1
 62
2
 10
1283.289642348424
 20
343.1329517553336
 30
0
 11
1283.497975681757
 21
342.7813892553336
 31
0
  0
LINE
  8
1
 62
2
 10
1285.789642348424
 20
343.0157642553336
 30
0
 11
1285.789642348424
 21
345.2423267553336
 31
0
  0
LINE
  8
1
 62
2
 10
1285.789642348424
 20
345.2423267553336
 30
0
 11
1288.289642348424
 21
345.2423267553336
 31
0
  0
LINE
  8
1
 62
2
 10
1288.289642348424
 20
345.2423267553336
 30
0
 11
1288.289642348424
 21
343.0157642553336
 31
0
  0
LINE
  8
1
 62
2
 10
1288.289642348424
 20
343.0157642553336
 30
0
 11
1285.789642348424
 21
343.0157642553336
 31
0
  0
LINE
  8
1
 62
2
 10
1285.997975681757
 20
343.8360767553336
 30
0
 11
1286.310475681757
 21
344.1876392553336
 31
0
  0
LINE
  8
1
 62
2
 10
1286.310475681757
 20
344.1876392553336
 30
0
 11
1286.622975681757
 21
344.8907642553336
 31
0
  0
LINE
  8
1
 62
2
 10
1286.622975681757
 20
344.8907642553336
 30
0
 11
1286.622975681757
 21
346.1798267553336
 31
0
  0
LINE
  8
1
 62
2
 10
1285.477142348424
 20
346.1798267553336
 30
0
 11
1286.622975681757
 21
346.1798267553336
 31
0
  0
LINE
  8
1
 62
2
 10
1287.352142348424
 20
346.1798267553336
 30
0
 11
1287.352142348424
 21
344.3048267553336
 31
0
  0
LINE
  8
1
 62
2
 10
1287.352142348424
 20
344.3048267553336
 30
0
 11
1287.45630901509
 21
344.0704517553336
 31
0
  0
LINE
  8
1
 62
2
 10
1287.45630901509
 20
344.0704517553336
 30
0
 11
1287.977142348424
 21
344.0704517553336
 31
0
  0
LINE
  8
1
 62
2
 10
1287.977142348424
 20
344.0704517553336
 30
0
 11
1288.08130901509
 21
344.3048267553336
 31
0
  0
LINE
  8
1
 62
2
 10
1287.352142348424
 20
346.1798267553336
 30
0
 11
1288.602142348424
 21
346.1798267553336
 31
0
  0
LINE
  8
1
 62
2
 10
1286.622975681757
 20
346.1798267553336
 30
0
 11
1287.352142348424
 21
346.1798267553336
 31
0
  0
LINE
  8
1
 62
2
 10
1289.122975681757
 20
343.0157642553336
 30
0
 11
1289.227142348424
 21
343.3673267553336
 31
0
  0
LINE
  8
1
 62
2
 10
1289.227142348424
 20
343.3673267553336
 30
0
 11
1289.33130901509
 21
344.4220142553336
 31
0
  0
LINE
  8
1
 62
2
 10
1289.33130901509
 20
344.4220142553336
 30
0
 11
1289.33130901509
 21
346.4142017553336
 31
0
  0
LINE
  8
1
 62
2
 10
1289.33130901509
 20
346.4142017553336
 30
0
 11
1292.247975681757
 21
346.4142017553336
 31
0
  0
LINE
  8
1
 62
2
 10
1292.247975681757
 20
345.5938892553336
 30
0
 11
1291.622975681757
 21
345.5938892553336
 31
0
  0
LINE
  8
1
 62
2
 10
1290.789642348424
 20
345.5938892553336
 30
0
 11
1289.747975681757
 21
345.5938892553336
 31
0
  0
LINE
  8
1
 62
2
 10
1290.26880901509
 20
346.1798267553336
 30
0
 11
1290.26880901509
 21
345.5938892553336
 31
0
  0
LINE
  8
1
 62
2
 10
1289.64380901509
 20
344.6563892553336
 30
0
 11
1289.95630901509
 21
345.0079517553336
 31
0
  0
LINE
  8
1
 62
2
 10
1289.95630901509
 20
345.0079517553336
 30
0
 11
1290.26880901509
 21
345.5938892553336
 31
0
  0
LINE
  8
1
 62
2
 10
1290.477142348424
 20
345.2423267553336
 30
0
 11
1290.789642348424
 21
344.8907642553336
 31
0
  0
LINE
  8
1
 62
2
 10
1290.789642348424
 20
344.5392017553336
 30
0
 11
1291.102142348424
 21
344.7735767553336
 31
0
  0
LINE
  8
1
 62
2
 10
1291.102142348424
 20
344.7735767553336
 30
0
 11
1291.622975681757
 21
345.5938892553336
 31
0
  0
LINE
  8
1
 62
2
 10
1291.622975681757
 20
346.1798267553336
 30
0
 11
1291.622975681757
 21
345.5938892553336
 31
0
  0
LINE
  8
1
 62
2
 10
1291.622975681757
 20
345.5938892553336
 30
0
 11
1291.935475681757
 21
345.1251392553336
 31
0
  0
LINE
  8
1
 62
2
 10
1291.935475681757
 20
345.1251392553336
 30
0
 11
1292.45630901509
 21
344.5392017553336
 31
0
  0
LINE
  8
1
 62
2
 10
1291.83130901509
 20
344.0704517553336
 30
0
 11
1290.164642348424
 21
344.0704517553336
 31
0
  0
LINE
  8
1
 62
2
 10
1290.164642348424
 20
344.0704517553336
 30
0
 11
1290.164642348424
 21
343.4845142553336
 31
0
  0
LINE
  8
1
 62
2
 10
1290.164642348424
 20
342.8985767553336
 30
0
 11
1291.83130901509
 21
342.8985767553336
 31
0
  0
LINE
  8
1
 62
2
 10
1291.83130901509
 20
342.8985767553336
 30
0
 11
1291.83130901509
 21
343.4845142553336
 31
0
  0
LINE
  8
1
 62
2
 10
1290.164642348424
 20
343.4845142553336
 30
0
 11
1291.83130901509
 21
343.4845142553336
 31
0
  0
LINE
  8
1
 62
2
 10
1291.83130901509
 20
343.4845142553336
 30
0
 11
1291.83130901509
 21
344.0704517553336
 31
0
  0
LINE
  8
1
 62
2
 10
1290.164642348424
 20
343.4845142553336
 30
0
 11
1290.164642348424
 21
342.8985767553336
 31
0
  0
LINE
  8
1
 62
2
 10
1291.622975681757
 20
345.5938892553336
 30
0
 11
1291.622975681757
 21
344.4220142553336
 31
0
  0
LINE
  8
1
 62
2
 10
1291.622975681757
 20
345.5938892553336
 30
0
 11
1290.997975681757
 21
345.5938892553336
 31
0
  0
LINE
  8
1
 62
2
 10
1290.26880901509
 20
345.5938892553336
 30
0
 11
1290.26880901509
 21
344.4220142553336
 31
0
  0
LINE
  8
1
 62
2
 10
1294.539642348424
 20
342.7813892553336
 30
0
 11
1294.539642348424
 21
346.0626392553336
 31
0
  0
LINE
  8
1
 62
2
 10
1296.102142348424
 20
346.0626392553336
 30
0
 11
1294.539642348424
 21
346.0626392553336
 31
0
  0
LINE
  8
1
 62
2
 10
1295.060475681757
 20
345.2423267553336
 30
0
 11
1295.685475681757
 21
344.5392017553336
 31
0
  0
LINE
  8
1
 62
2
 10
1294.539642348424
 20
346.0626392553336
 30
0
 11
1292.977142348424
 21
346.0626392553336
 31
0
  0
LINE
  8
1
 62
2
 10
1297.039642348424
 20
345.2423267553336
 30
0
 11
1297.14380901509
 21
345.4767017553336
 31
0
  0
LINE
  8
1
 62
2
 10
1297.14380901509
 20
345.4767017553336
 30
0
 11
1297.560475681757
 21
345.7110767553336
 31
0
  0
LINE
  8
1
 62
2
 10
1297.560475681757
 20
345.7110767553336
 30
0
 11
1297.977142348424
 21
345.8282642553336
 31
0
  0
LINE
  8
1
 62
2
 10
1297.977142348424
 20
345.8282642553336
 30
0
 11
1298.70630901509
 21
345.8282642553336
 31
0
  0
LINE
  8
1
 62
2
 10
1298.70630901509
 20
345.8282642553336
 30
0
 11
1299.122975681757
 21
345.7110767553336
 31
0
  0
LINE
  8
1
 62
2
 10
1299.122975681757
 20
345.7110767553336
 30
0
 11
1299.539642348424
 21
345.4767017553336
 31
0
  0
LINE
  8
1
 62
2
 10
1299.539642348424
 20
345.4767017553336
 30
0
 11
1299.64380901509
 21
345.2423267553336
 31
0
  0
LINE
  8
1
 62
2
 10
1299.64380901509
 20
345.2423267553336
 30
0
 11
1299.64380901509
 21
344.6563892553336
 31
0
  0
LINE
  8
1
 62
2
 10
1299.64380901509
 20
344.6563892553336
 30
0
 11
1299.539642348424
 21
344.4220142553336
 31
0
  0
LINE
  8
1
 62
2
 10
1299.539642348424
 20
344.4220142553336
 30
0
 11
1299.122975681757
 21
344.1876392553336
 31
0
  0
LINE
  8
1
 62
2
 10
1299.122975681757
 20
344.1876392553336
 30
0
 11
1297.45630901509
 21
343.9532642553336
 31
0
  0
LINE
  8
1
 62
2
 10
1297.45630901509
 20
343.9532642553336
 30
0
 11
1297.14380901509
 21
343.7188892553336
 31
0
  0
LINE
  8
1
 62
2
 10
1297.14380901509
 20
343.7188892553336
 30
0
 11
1297.039642348424
 21
343.4845142553336
 31
0
  0
LINE
  8
1
 62
2
 10
1297.039642348424
 20
343.4845142553336
 30
0
 11
1296.935475681757
 21
342.7813892553336
 31
0
  0
LINE
  8
1
 62
2
 10
1296.935475681757
 20
342.7813892553336
 30
0
 11
1299.64380901509
 21
342.7813892553336
 31
0
  0
LINE
  8
1
 62
2
 10
1300.58130901509
 20
345.4767017553336
 30
0
 11
1301.102142348424
 21
345.4767017553336
 31
0
  0
LINE
  8
1
 62
2
 10
1301.102142348424
 20
346.4142017553336
 30
0
 11
1301.102142348424
 21
345.4767017553336
 31
0
  0
LINE
  8
1
 62
2
 10
1301.102142348424
 20
345.4767017553336
 30
0
 11
1300.789642348424
 21
344.5392017553336
 31
0
  0
LINE
  8
1
 62
2
 10
1300.789642348424
 20
344.5392017553336
 30
0
 11
1300.58130901509
 21
344.1876392553336
 31
0
  0
LINE
  8
1
 62
2
 10
1300.58130901509
 20
344.1876392553336
 30
0
 11
1300.477142348424
 21
343.9532642553336
 31
0
  0
LINE
  8
1
 62
2
 10
1301.102142348424
 20
345.4767017553336
 30
0
 11
1301.51880901509
 21
344.5392017553336
 31
0
  0
LINE
  8
1
 62
2
 10
1302.247975681757
 20
346.2970142553336
 30
0
 11
1301.727142348424
 21
345.4767017553336
 31
0
  0
LINE
  8
1
 62
2
 10
1302.45630901509
 20
345.5938892553336
 30
0
 11
1302.14380901509
 21
345.0079517553336
 31
0
  0
LINE
  8
1
 62
2
 10
1302.14380901509
 20
345.0079517553336
 30
0
 11
1301.83130901509
 21
344.4220142553336
 31
0
  0
LINE
  8
1
 62
2
 10
1301.83130901509
 20
344.4220142553336
 30
0
 11
1301.51880901509
 21
344.0704517553336
 31
0
  0
LINE
  8
1
 62
2
 10
1302.039642348424
 20
344.7735767553336
 30
0
 11
1302.039642348424
 21
342.8985767553336
 31
0
  0
LINE
  8
1
 62
2
 10
1302.560475681757
 20
346.0626392553336
 30
0
 11
1303.497975681757
 21
346.0626392553336
 31
0
  0
LINE
  8
1
 62
2
 10
1302.45630901509
 20
345.1251392553336
 30
0
 11
1303.185475681757
 21
345.1251392553336
 31
0
  0
LINE
  8
1
 62
2
 10
1303.185475681757
 20
345.1251392553336
 30
0
 11
1303.185475681757
 21
343.1329517553336
 31
0
  0
LINE
  8
1
 62
2
 10
1303.185475681757
 20
343.1329517553336
 30
0
 11
1303.08130901509
 21
342.8985767553336
 31
0
  0
LINE
  8
1
 62
2
 10
1303.08130901509
 20
342.8985767553336
 30
0
 11
1302.76880901509
 21
342.8985767553336
 31
0
  0
LINE
  8
1
 62
2
 10
1303.185475681757
 20
345.1251392553336
 30
0
 11
1303.70630901509
 21
345.1251392553336
 31
0
  0
LINE
  8
1
 62
2
 10
1301.102142348424
 20
345.4767017553336
 30
0
 11
1301.102142348424
 21
342.8985767553336
 31
0
  0
LINE
  8
1
 62
2
 10
1301.102142348424
 20
345.4767017553336
 30
0
 11
1301.622975681757
 21
345.4767017553336
 31
0
  0
LINE
  8
1
 62
2
 10
1305.58130901509
 20
346.5313892553336
 30
0
 11
1305.789642348424
 21
346.1798267553336
 31
0
  0
LINE
  8
1
 62
2
 10
1305.789642348424
 20
346.1798267553336
 30
0
 11
1305.997975681757
 21
345.5938892553336
 31
0
  0
LINE
  8
1
 62
2
 10
1305.997975681757
 20
345.5938892553336
 30
0
 11
1305.997975681757
 21
343.7188892553336
 31
0
  0
LINE
  8
1
 62
2
 10
1305.997975681757
 20
343.7188892553336
 30
0
 11
1305.789642348424
 21
343.1329517553336
 31
0
  0
LINE
  8
1
 62
2
 10
1305.789642348424
 20
343.1329517553336
 30
0
 11
1305.58130901509
 21
342.7813892553336
 31
0
  0
LINE
  8
1
 62
2
 10
1256.291651249279
 20
406.0652513339737
 30
0
 11
1254.697901249279
 21
406.0652513339737
 31
0
  0
LINE
  8
1
 62
2
 10
1254.697901249279
 20
406.0652513339737
 30
0
 11
1254.297781012489
 21
405.9715013339737
 31
0
  0
LINE
  8
1
 62
2
 10
1254.297781012489
 20
405.9715013339737
 30
0
 11
1253.966290538908
 21
405.7840013339737
 31
0
  0
LINE
  8
1
 62
2
 10
1253.966290538908
 20
405.7840013339737
 30
0
 11
1253.728550065327
 21
405.5965013339737
 31
0
  0
LINE
  8
1
 62
2
 10
1253.728550065327
 20
405.5965013339737
 30
0
 11
1253.559439354956
 21
405.3152513339737
 31
0
  0
LINE
  8
1
 62
2
 10
1253.559439354956
 20
405.3152513339737
 30
0
 11
1253.365208407794
 21
404.9402513339737
 31
0
  0
LINE
  8
1
 62
2
 10
1253.365208407794
 20
404.9402513339737
 30
0
 11
1252.963284619148
 21
403.4402513339737
 31
0
  0
LINE
  8
1
 62
2
 10
1252.963284619148
 20
403.4402513339737
 30
0
 11
1252.956553671986
 21
403.0652513339737
 31
0
  0
LINE
  8
1
 62
2
 10
1252.956553671986
 20
403.0652513339737
 30
0
 11
1252.974942961615
 21
402.7840013339737
 31
0
  0
LINE
  8
1
 62
2
 10
1252.974942961615
 20
402.7840013339737
 30
0
 11
1253.112202488034
 21
402.5965013339737
 31
0
  0
LINE
  8
1
 62
2
 10
1253.112202488034
 20
402.5965013339737
 30
0
 11
1253.436962014453
 21
402.4090013339737
 31
0
  0
LINE
  8
1
 62
2
 10
1253.436962014453
 20
402.4090013339737
 30
0
 11
1253.693091777663
 21
402.3152513339737
 31
0
  0
LINE
  8
1
 62
2
 10
1253.693091777663
 20
402.3152513339737
 30
0
 11
1255.286841777663
 21
402.3152513339737
 31
0
  0
LINE
  8
1
 62
2
 10
1255.286841777663
 20
402.3152513339737
 30
0
 11
1255.839486987052
 21
404.3777513339737
 31
0
  0
LINE
  8
1
 62
2
 10
1255.839486987052
 20
404.3777513339737
 30
0
 11
1254.901986987052
 21
404.3777513339737
 31
0
  0
LINE
  8
1
 62
2
 10
1257.577227460633
 20
404.5652513339737
 30
0
 11
1258.514727460633
 21
404.5652513339737
 31
0
  0
LINE
  8
1
 62
2
 10
1257.416651249279
 20
406.0652513339737
 30
0
 11
1258.822901249279
 21
406.0652513339737
 31
0
  0
LINE
  8
1
 62
2
 10
1258.822901249279
 20
406.0652513339737
 30
0
 11
1259.266531012489
 21
405.9715013339737
 31
0
  0
LINE
  8
1
 62
2
 10
1259.266531012489
 20
405.9715013339737
 30
0
 11
1259.497540538908
 21
405.7840013339737
 31
0
  0
LINE
  8
1
 62
2
 10
1259.497540538908
 20
405.7840013339737
 30
0
 11
1259.515929828537
 21
405.5027513339737
 31
0
  0
LINE
  8
1
 62
2
 10
1259.515929828537
 20
405.5027513339737
 30
0
 11
1259.440569118166
 21
405.2215013339737
 31
0
  0
LINE
  8
1
 62
2
 10
1259.440569118166
 20
405.2215013339737
 30
0
 11
1259.271458407794
 21
404.9402513339737
 31
0
  0
LINE
  8
1
 62
2
 10
1259.271458407794
 20
404.9402513339737
 30
0
 11
1259.033717934213
 21
404.7527513339737
 31
0
  0
LINE
  8
1
 62
2
 10
1259.033717934213
 20
404.7527513339737
 30
0
 11
1258.821097697423
 21
404.6590013339737
 31
0
  0
LINE
  8
1
 62
2
 10
1258.821097697423
 20
404.6590013339737
 30
0
 11
1258.514727460633
 21
404.5652513339737
 31
0
  0
LINE
  8
1
 62
2
 10
1258.514727460633
 20
404.5652513339737
 30
0
 11
1258.864607223842
 21
404.4715013339737
 31
0
  0
LINE
  8
1
 62
2
 10
1258.864607223842
 20
404.4715013339737
 30
0
 11
1259.001866750261
 21
404.2840013339737
 31
0
  0
LINE
  8
1
 62
2
 10
1259.001866750261
 20
404.2840013339737
 30
0
 11
1259.045376276681
 21
404.0965013339737
 31
0
  0
LINE
  8
1
 62
2
 10
1259.045376276681
 20
404.0965013339737
 30
0
 11
1259.038645329519
 21
403.7215013339737
 31
0
  0
LINE
  8
1
 62
2
 10
1259.038645329519
 20
403.7215013339737
 30
0
 11
1258.913044145567
 21
403.2527513339737
 31
0
  0
LINE
  8
1
 62
2
 10
1258.913044145567
 20
403.2527513339737
 30
0
 11
1258.718813198405
 21
402.8777513339737
 31
0
  0
LINE
  8
1
 62
2
 10
1258.718813198405
 20
402.8777513339737
 30
0
 11
1258.455952488034
 21
402.5965013339737
 31
0
  0
LINE
  8
1
 62
2
 10
1258.455952488034
 20
402.5965013339737
 30
0
 11
1258.124462014453
 21
402.4090013339737
 31
0
  0
LINE
  8
1
 62
2
 10
1258.124462014453
 20
402.4090013339737
 30
0
 11
1257.818091777663
 21
402.3152513339737
 31
0
  0
LINE
  8
1
 62
2
 10
1257.818091777663
 20
402.3152513339737
 30
0
 11
1256.411841777663
 21
402.3152513339737
 31
0
  0
LINE
  8
1
 62
2
 10
1259.786841777663
 20
402.3152513339737
 30
0
 11
1262.291651249279
 21
406.0652513339737
 31
0
  0
LINE
  8
1
 62
2
 10
1265.104151249279
 20
406.0652513339737
 30
0
 11
1262.612803671986
 21
403.0652513339737
 31
0
  0
LINE
  8
1
 62
2
 10
1262.612803671986
 20
403.0652513339737
 30
0
 11
1264.862803671986
 21
403.0652513339737
 31
0
  0
LINE
  8
1
 62
2
 10
1264.501265566309
 20
403.8152513339737
 30
0
 11
1264.099341777663
 21
402.3152513339737
 31
0
  0
LINE
  8
1
 62
2
 10
1270.354151249279
 20
406.0652513339737
 30
0
 11
1269.778189354956
 21
405.3152513339737
 31
0
  0
LINE
  8
1
 62
2
 10
1269.778189354956
 20
405.3152513339737
 30
0
 11
1269.389727460633
 21
404.5652513339737
 31
0
  0
LINE
  8
1
 62
2
 10
1269.389727460633
 20
404.5652513339737
 30
0
 11
1269.188765566309
 21
403.8152513339737
 31
0
  0
LINE
  8
1
 62
2
 10
1269.188765566309
 20
403.8152513339737
 30
0
 11
1269.175303671986
 21
403.0652513339737
 31
0
  0
LINE
  8
1
 62
2
 10
1269.175303671986
 20
403.0652513339737
 30
0
 11
1269.349341777663
 21
402.3152513339737
 31
0
  0
LINE
  8
1
 62
2
 10
1271.328429828537
 20
405.5027513339737
 30
0
 11
1271.591290538908
 21
405.7840013339737
 31
0
  0
LINE
  8
1
 62
2
 10
1271.591290538908
 20
405.7840013339737
 30
0
 11
1271.922781012489
 21
405.9715013339737
 31
0
  0
LINE
  8
1
 62
2
 10
1271.922781012489
 20
405.9715013339737
 30
0
 11
1272.322901249279
 21
406.0652513339737
 31
0
  0
LINE
  8
1
 62
2
 10
1272.322901249279
 20
406.0652513339737
 30
0
 11
1272.885401249279
 21
406.0652513339737
 31
0
  0
LINE
  8
1
 62
2
 10
1272.885401249279
 20
406.0652513339737
 30
0
 11
1273.235281012489
 21
405.9715013339737
 31
0
  0
LINE
  8
1
 62
2
 10
1273.235281012489
 20
405.9715013339737
 30
0
 11
1273.466290538908
 21
405.7840013339737
 31
0
  0
LINE
  8
1
 62
2
 10
1273.466290538908
 20
405.7840013339737
 30
0
 11
1273.578429828537
 21
405.5027513339737
 31
0
  0
LINE
  8
1
 62
2
 10
1273.578429828537
 20
405.5027513339737
 30
0
 11
1273.477948881375
 21
405.1277513339737
 31
0
  0
LINE
  8
1
 62
2
 10
1273.477948881375
 20
405.1277513339737
 30
0
 11
1273.189967934213
 21
404.7527513339737
 31
0
  0
LINE
  8
1
 62
2
 10
1273.189967934213
 20
404.7527513339737
 30
0
 11
1270.474341777663
 21
402.3152513339737
 31
0
  0
LINE
  8
1
 62
2
 10
1270.474341777663
 20
402.3152513339737
 30
0
 11
1272.724341777663
 21
402.3152513339737
 31
0
  0
LINE
  8
1
 62
2
 10
1274.201025092729
 20
403.6277513339737
 30
0
 11
1274.39525603989
 21
404.0027513339737
 31
0
  0
LINE
  8
1
 62
2
 10
1274.39525603989
 20
404.0027513339737
 30
0
 11
1274.658116750261
 21
404.2840013339737
 31
0
  0
LINE
  8
1
 62
2
 10
1274.658116750261
 20
404.2840013339737
 30
0
 11
1274.989607223842
 21
404.4715013339737
 31
0
  0
LINE
  8
1
 62
2
 10
1274.989607223842
 20
404.4715013339737
 30
0
 11
1275.295977460633
 21
404.5652513339737
 31
0
  0
LINE
  8
1
 62
2
 10
1275.295977460633
 20
404.5652513339737
 30
0
 11
1275.858477460633
 21
404.5652513339737
 31
0
  0
LINE
  8
1
 62
2
 10
1275.858477460633
 20
404.5652513339737
 30
0
 11
1276.114607223842
 21
404.4715013339737
 31
0
  0
LINE
  8
1
 62
2
 10
1276.114607223842
 20
404.4715013339737
 30
0
 11
1276.345616750261
 21
404.2840013339737
 31
0
  0
LINE
  8
1
 62
2
 10
1276.345616750261
 20
404.2840013339737
 30
0
 11
1276.45775603989
 21
404.0027513339737
 31
0
  0
LINE
  8
1
 62
2
 10
1276.45775603989
 20
404.0027513339737
 30
0
 11
1276.451025092729
 21
403.6277513339737
 31
0
  0
LINE
  8
1
 62
2
 10
1276.451025092729
 20
403.6277513339737
 30
0
 11
1276.350544145567
 21
403.2527513339737
 31
0
  0
LINE
  8
1
 62
2
 10
1276.350544145567
 20
403.2527513339737
 30
0
 11
1276.156313198405
 21
402.8777513339737
 31
0
  0
LINE
  8
1
 62
2
 10
1276.156313198405
 20
402.8777513339737
 30
0
 11
1275.893452488034
 21
402.5965013339737
 31
0
  0
LINE
  8
1
 62
2
 10
1275.893452488034
 20
402.5965013339737
 30
0
 11
1275.561962014453
 21
402.4090013339737
 31
0
  0
LINE
  8
1
 62
2
 10
1275.561962014453
 20
402.4090013339737
 30
0
 11
1275.255591777663
 21
402.3152513339737
 31
0
  0
LINE
  8
1
 62
2
 10
1275.255591777663
 20
402.3152513339737
 30
0
 11
1274.693091777663
 21
402.3152513339737
 31
0
  0
LINE
  8
1
 62
2
 10
1274.693091777663
 20
402.3152513339737
 30
0
 11
1274.436962014453
 21
402.4090013339737
 31
0
  0
LINE
  8
1
 62
2
 10
1274.436962014453
 20
402.4090013339737
 30
0
 11
1274.205952488034
 21
402.5965013339737
 31
0
  0
LINE
  8
1
 62
2
 10
1274.205952488034
 20
402.5965013339737
 30
0
 11
1274.093813198405
 21
402.8777513339737
 31
0
  0
LINE
  8
1
 62
2
 10
1274.093813198405
 20
402.8777513339737
 30
0
 11
1274.100544145567
 21
403.2527513339737
 31
0
  0
LINE
  8
1
 62
2
 10
1274.100544145567
 20
403.2527513339737
 30
0
 11
1274.201025092729
 21
403.6277513339737
 31
0
  0
LINE
  8
1
 62
2
 10
1274.201025092729
 20
403.6277513339737
 30
0
 11
1274.495736987052
 21
404.3777513339737
 31
0
  0
LINE
  8
1
 62
2
 10
1274.495736987052
 20
404.3777513339737
 30
0
 11
1274.783717934213
 21
404.7527513339737
 31
0
  0
LINE
  8
1
 62
2
 10
1274.783717934213
 20
404.7527513339737
 30
0
 11
1275.284319118166
 21
405.2215013339737
 31
0
  0
LINE
  8
1
 62
2
 10
1275.284319118166
 20
405.2215013339737
 30
0
 11
1276.541651249279
 21
406.0652513339737
 31
0
  0
LINE
  8
1
 62
2
 10
1277.224341777663
 20
402.3152513339737
 30
0
 11
1277.249462014453
 21
402.4090013339737
 31
0
  0
LINE
  8
1
 62
2
 10
1277.249462014453
 20
402.4090013339737
 30
0
 11
1277.343212014453
 21
402.4090013339737
 31
0
  0
LINE
  8
1
 62
2
 10
1277.343212014453
 20
402.4090013339737
 30
0
 11
1277.318091777663
 21
402.3152513339737
 31
0
  0
LINE
  8
1
 62
2
 10
1277.318091777663
 20
402.3152513339737
 30
0
 11
1277.224341777663
 21
402.3152513339737
 31
0
  0
LINE
  8
1
 62
2
 10
1281.135401249279
 20
406.0652513339737
 30
0
 11
1278.644053671986
 21
403.0652513339737
 31
0
  0
LINE
  8
1
 62
2
 10
1278.644053671986
 20
403.0652513339737
 30
0
 11
1280.894053671986
 21
403.0652513339737
 31
0
  0
LINE
  8
1
 62
2
 10
1280.532515566309
 20
403.8152513339737
 30
0
 11
1280.130591777663
 21
402.3152513339737
 31
0
  0
LINE
  8
1
 62
2
 10
1284.510401249279
 20
406.0652513339737
 30
0
 11
1282.019053671986
 21
403.0652513339737
 31
0
  0
LINE
  8
1
 62
2
 10
1282.019053671986
 20
403.0652513339737
 30
0
 11
1284.269053671986
 21
403.0652513339737
 31
0
  0
LINE
  8
1
 62
2
 10
1283.907515566309
 20
403.8152513339737
 30
0
 11
1283.505591777663
 21
402.3152513339737
 31
0
  0
LINE
  8
1
 62
2
 10
1285.896458407794
 20
404.9402513339737
 30
0
 11
1287.322901249279
 21
406.0652513339737
 31
0
  0
LINE
  8
1
 62
2
 10
1287.322901249279
 20
406.0652513339737
 30
0
 11
1286.318091777663
 21
402.3152513339737
 31
0
  0
LINE
  8
1
 62
2
 10
1291.477798585387
 20
405.0105638339737
 30
0
 11
1290.818392369639
 21
402.5496263339737
 31
0
  0
LINE
  8
1
 62
2
 10
1290.818392369639
 20
402.5496263339737
 30
0
 11
1292.172559036305
 21
402.5496263339737
 31
0
  0
LINE
  8
1
 62
2
 10
1293.526725702972
 20
402.5496263339737
 30
0
 11
1294.186131918721
 21
405.0105638339737
 31
0
  0
LINE
  8
1
 62
2
 10
1293.05176732397
 20
405.8308763339737
 30
0
 11
1292.172559036305
 21
402.5496263339737
 31
0
  0
LINE
  8
1
 62
2
 10
1292.172559036305
 20
402.5496263339737
 30
0
 11
1293.526725702972
 21
402.5496263339737
 31
0
  0
LINE
  8
1
 62
2
 10
1294.896458407794
 20
404.9402513339737
 30
0
 11
1296.322901249279
 21
406.0652513339737
 31
0
  0
LINE
  8
1
 62
2
 10
1296.322901249279
 20
406.0652513339737
 30
0
 11
1295.318091777663
 21
402.3152513339737
 31
0
  0
LINE
  8
1
 62
2
 10
1299.135401249279
 20
406.0652513339737
 30
0
 11
1296.644053671986
 21
403.0652513339737
 31
0
  0
LINE
  8
1
 62
2
 10
1296.644053671986
 20
403.0652513339737
 30
0
 11
1298.894053671986
 21
403.0652513339737
 31
0
  0
LINE
  8
1
 62
2
 10
1298.532515566309
 20
403.8152513339737
 30
0
 11
1298.130591777663
 21
402.3152513339737
 31
0
  0
LINE
  8
1
 62
2
 10
1300.822901249279
 20
406.0652513339737
 30
0
 11
1300.996939354956
 21
405.3152513339737
 31
0
  0
LINE
  8
1
 62
2
 10
1300.996939354956
 20
405.3152513339737
 30
0
 11
1300.983477460633
 21
404.5652513339737
 31
0
  0
LINE
  8
1
 62
2
 10
1300.983477460633
 20
404.5652513339737
 30
0
 11
1300.782515566309
 21
403.8152513339737
 31
0
  0
LINE
  8
1
 62
2
 10
1300.782515566309
 20
403.8152513339737
 30
0
 11
1300.394053671986
 21
403.0652513339737
 31
0
  0
LINE
  8
1
 62
2
 10
1300.394053671986
 20
403.0652513339737
 30
0
 11
1299.818091777663
 21
402.3152513339737
 31
0
  0
LINE
  8
1
 62
2
 10
1290.119981556054
 20
349.7222207950487
 30
0
 11
1291.265814889387
 21
350.1909707950487
 31
0
  0
LINE
  8
1
 62
2
 10
1291.057481556054
 20
350.3081582950487
 30
0
 11
1291.16164822272
 21
350.8940957950487
 31
0
  0
LINE
  8
1
 62
2
 10
1291.265814889387
 20
351.2456582950487
 30
0
 11
1290.22414822272
 21
351.2456582950487
 31
0
  0
LINE
  8
1
 62
2
 10
1290.328314889387
 20
351.8315957950487
 30
0
 11
1290.744981556054
 21
351.8315957950487
 31
0
  0
LINE
  8
1
 62
2
 10
1291.369981556054
 20
352.4175332950487
 30
0
 11
1290.744981556054
 21
353.1206582950487
 31
0
  0
LINE
  8
1
 62
2
 10
1290.744981556054
 20
353.1206582950487
 30
0
 11
1290.328314889387
 21
352.3003457950487
 31
0
  0
LINE
  8
1
 62
2
 10
1290.328314889387
 20
352.3003457950487
 30
0
 11
1289.91164822272
 21
351.4800332950487
 31
0
  0
LINE
  8
1
 62
2
 10
1290.22414822272
 20
350.8940957950487
 30
0
 11
1290.432481556054
 21
350.3081582950487
 31
0
  0
LINE
  8
1
 62
2
 10
1290.744981556054
 20
349.9565957950487
 30
0
 11
1290.744981556054
 21
351.8315957950487
 31
0
  0
LINE
  8
1
 62
2
 10
1291.369981556054
 20
351.7144082950487
 30
0
 11
1293.244981556054
 21
351.7144082950487
 31
0
  0
LINE
  8
1
 62
2
 10
1293.244981556054
 20
351.0112832950487
 30
0
 11
1291.47414822272
 21
351.0112832950487
 31
0
  0
LINE
  8
1
 62
2
 10
1291.369981556054
 20
349.8394082950487
 30
0
 11
1291.78664822272
 21
350.5425332950487
 31
0
  0
LINE
  8
1
 62
2
 10
1291.78664822272
 20
350.5425332950487
 30
0
 11
1292.09914822272
 21
351.7144082950487
 31
0
  0
LINE
  8
1
 62
2
 10
1292.09914822272
 20
351.7144082950487
 30
0
 11
1292.203314889387
 21
353.1206582950487
 31
0
  0
LINE
  8
1
 62
2
 10
1291.47414822272
 20
352.7690957950487
 30
0
 11
1293.03664822272
 21
352.7690957950487
 31
0
  0
LINE
  8
1
 62
2
 10
1293.03664822272
 20
352.1831582950487
 30
0
 11
1291.578314889387
 21
352.1831582950487
 31
0
  0
LINE
  8
1
 62
2
 10
1292.828314889387
 20
351.4800332950487
 30
0
 11
1292.828314889387
 21
349.6050332950487
 31
0
  0
LINE
  8
1
 62
2
 10
1292.828314889387
 20
349.6050332950487
 30
0
 11
1292.41164822272
 21
349.6050332950487
 31
0
  0
LINE
  8
1
 62
2
 10
1292.41164822272
 20
350.0737832950487
 30
0
 11
1292.203314889387
 21
350.6597207950487
 31
0
  0
LINE
  8
1
 62
2
 10
1290.744981556054
 20
351.8315957950487
 30
0
 11
1291.265814889387
 21
351.8315957950487
 31
0
  0
LINE
  8
1
 62
2
 10
1293.869981556054
 20
349.9565957950487
 30
0
 11
1294.390814889387
 21
350.4253457950487
 31
0
  0
LINE
  8
1
 62
2
 10
1294.390814889387
 20
350.4253457950487
 30
0
 11
1294.390814889387
 21
351.7144082950487
 31
0
  0
LINE
  8
1
 62
2
 10
1294.390814889387
 20
351.7144082950487
 30
0
 11
1293.869981556054
 21
351.7144082950487
 31
0
  0
LINE
  8
1
 62
2
 10
1294.390814889387
 20
350.4253457950487
 30
0
 11
1294.59914822272
 21
349.9565957950487
 31
0
  0
LINE
  8
1
 62
2
 10
1294.59914822272
 20
349.9565957950487
 30
0
 11
1294.807481556054
 21
349.8394082950487
 31
0
  0
LINE
  8
1
 62
2
 10
1294.807481556054
 20
349.8394082950487
 30
0
 11
1296.890814889387
 21
349.8394082950487
 31
0
  0
LINE
  8
1
 62
2
 10
1296.369981556054
 20
350.4253457950487
 30
0
 11
1296.369981556054
 21
351.3628457950487
 31
0
  0
LINE
  8
1
 62
2
 10
1296.369981556054
 20
351.3628457950487
 30
0
 11
1295.22414822272
 21
351.3628457950487
 31
0
  0
LINE
  8
1
 62
2
 10
1295.22414822272
 20
351.3628457950487
 30
0
 11
1295.22414822272
 21
350.4253457950487
 31
0
  0
LINE
  8
1
 62
2
 10
1295.22414822272
 20
350.4253457950487
 30
0
 11
1296.369981556054
 21
350.4253457950487
 31
0
  0
LINE
  8
1
 62
2
 10
1296.78664822272
 20
351.8315957950487
 30
0
 11
1295.744981556054
 21
351.8315957950487
 31
0
  0
LINE
  8
1
 62
2
 10
1295.744981556054
 20
351.8315957950487
 30
0
 11
1295.744981556054
 21
353.3550332950487
 31
0
  0
LINE
  8
1
 62
2
 10
1296.578314889387
 20
352.6519082950487
 30
0
 11
1295.015814889387
 21
352.6519082950487
 31
0
  0
LINE
  8
1
 62
2
 10
1295.22414822272
 20
353.2378457950487
 30
0
 11
1295.015814889387
 21
352.6519082950487
 31
0
  0
LINE
  8
1
 62
2
 10
1295.015814889387
 20
352.6519082950487
 30
0
 11
1294.807481556054
 21
352.3003457950487
 31
0
  0
LINE
  8
1
 62
2
 10
1294.390814889387
 20
352.7690957950487
 30
0
 11
1294.078314889387
 21
353.2378457950487
 31
0
  0
LINE
  8
1
 62
2
 10
1293.869981556054
 20
349.9565957950487
 30
0
 11
1293.765814889387
 21
349.8394082950487
 31
0
  0
LINE
  8
1
 62
2
 10
1293.869981556054
 20
351.7144082950487
 30
0
 11
1293.765814889387
 21
351.7144082950487
 31
0
  0
LINE
  8
1
 62
2
 10
1295.744981556054
 20
351.8315957950487
 30
0
 11
1294.807481556054
 21
351.8315957950487
 31
0
  0
LINE
  8
1
 62
2
 10
1298.453314889387
 20
353.3550332950487
 30
0
 11
1298.244981556054
 21
353.0034707950487
 31
0
  0
LINE
  8
1
 62
2
 10
1298.244981556054
 20
353.0034707950487
 30
0
 11
1297.932481556054
 21
352.5347207950487
 31
0
  0
LINE
  8
1
 62
2
 10
1297.932481556054
 20
352.5347207950487
 30
0
 11
1297.619981556054
 21
352.1831582950487
 31
0
  0
LINE
  8
1
 62
2
 10
1298.140814889387
 20
352.7690957950487
 30
0
 11
1299.078314889387
 21
352.7690957950487
 31
0
  0
LINE
  8
1
 62
2
 10
1299.078314889387
 20
352.7690957950487
 30
0
 11
1299.078314889387
 21
349.6050332950487
 31
0
  0
LINE
  8
1
 62
2
 10
1298.03664822272
 20
351.8315957950487
 30
0
 11
1300.119981556054
 21
351.8315957950487
 31
0
  0
LINE
  8
1
 62
2
 10
1298.03664822272
 20
351.7144082950487
 30
0
 11
1298.03664822272
 21
350.8940957950487
 31
0
  0
LINE
  8
1
 62
2
 10
1297.41164822272
 20
350.8940957950487
 30
0
 11
1298.03664822272
 21
350.8940957950487
 31
0
  0
LINE
  8
1
 62
2
 10
1298.03664822272
 20
350.8940957950487
 30
0
 11
1300.744981556054
 21
350.8940957950487
 31
0
  0
LINE
  8
1
 62
2
 10
1299.078314889387
 20
352.7690957950487
 30
0
 11
1300.22414822272
 21
352.7690957950487
 31
0
  0
LINE
  8
1
 62
2
 10
1368.683819269832
 20
343.8677413742291
 30
0
 11
1368.683819269832
 21
347.6177413742291
 31
0
  0
LINE
  8
1
 62
2
 10
1369.204652603166
 20
346.5630538742291
 30
0
 11
1368.058819269832
 21
346.5630538742291
 31
0
  0
LINE
  8
1
 62
2
 10
1367.954652603166
 20
345.0396163742291
 30
0
 11
1368.371319269832
 21
345.7427413742291
 31
0
  0
LINE
  8
1
 62
2
 10
1368.371319269832
 20
345.7427413742291
 30
0
 11
1368.683819269832
 21
346.4458663742291
 31
0
  0
LINE
  8
1
 62
2
 10
1368.683819269832
 20
346.4458663742291
 30
0
 11
1369.204652603166
 21
345.6255538742291
 31
0
  0
LINE
  8
1
 62
2
 10
1369.308819269832
 20
344.5708663742291
 30
0
 11
1369.933819269832
 21
345.2739913742291
 31
0
  0
LINE
  8
1
 62
2
 10
1369.933819269832
 20
345.2739913742291
 30
0
 11
1370.454652603166
 21
346.3286788742291
 31
0
  0
LINE
  8
1
 62
2
 10
1371.079652603166
 20
346.4458663742291
 30
0
 11
1369.517152603166
 21
346.4458663742291
 31
0
  0
LINE
  8
1
 62
2
 10
1370.454652603166
 20
347.5005538742291
 30
0
 11
1370.558819269832
 21
344.1021163742291
 31
0
  0
LINE
  8
1
 62
2
 10
1370.558819269832
 20
344.1021163742291
 30
0
 11
1370.246319269832
 21
344.1021163742291
 31
0
  0
LINE
  8
1
 62
2
 10
1371.704652603166
 20
344.5708663742291
 30
0
 11
1372.017152603166
 21
345.1568038742291
 31
0
  0
LINE
  8
1
 62
2
 10
1372.017152603166
 20
345.1568038742291
 30
0
 11
1372.433819269832
 21
346.2114913742291
 31
0
  0
LINE
  8
1
 62
2
 10
1373.162985936499
 20
346.2114913742291
 30
0
 11
1371.704652603166
 21
346.2114913742291
 31
0
  0
LINE
  8
1
 62
2
 10
1371.808819269832
 20
347.1489913742291
 30
0
 11
1372.121319269832
 21
346.6802413742291
 31
0
  0
LINE
  8
1
 62
2
 10
1372.746319269832
 20
346.7974288742291
 30
0
 11
1372.954652603166
 21
347.2661788742291
 31
0
  0
LINE
  8
1
 62
2
 10
1372.433819269832
 20
347.5005538742291
 30
0
 11
1372.433819269832
 21
346.2114913742291
 31
0
  0
LINE
  8
1
 62
2
 10
1372.746319269832
 20
345.7427413742291
 30
0
 11
1372.954652603166
 21
345.2739913742291
 31
0
  0
LINE
  8
1
 62
2
 10
1373.162985936499
 20
345.1568038742291
 30
0
 11
1374.933819269832
 21
345.5083663742291
 31
0
  0
LINE
  8
1
 62
2
 10
1373.787985936499
 20
345.9771163742291
 30
0
 11
1373.475485936499
 21
346.4458663742291
 31
0
  0
LINE
  8
1
 62
2
 10
1373.787985936499
 20
346.9146163742291
 30
0
 11
1373.475485936499
 21
347.3833663742291
 31
0
  0
LINE
  8
1
 62
2
 10
1374.308819269832
 20
347.6177413742291
 30
0
 11
1374.308819269832
 21
343.8677413742291
 31
0
  0
LINE
  8
1
 62
2
 10
1372.433819269832
 20
346.2114913742291
 30
0
 11
1372.433819269832
 21
343.9849288742291
 31
0
  0
LINE
  8
1
 62
2
 10
1375.558819269832
 20
344.1021163742291
 30
0
 11
1375.558819269832
 21
345.0396163742291
 31
0
  0
LINE
  8
1
 62
2
 10
1375.558819269832
 20
345.0396163742291
 30
0
 11
1376.392152603166
 21
345.0396163742291
 31
0
  0
LINE
  8
1
 62
2
 10
1376.392152603166
 20
345.0396163742291
 30
0
 11
1376.392152603166
 21
344.1021163742291
 31
0
  0
LINE
  8
1
 62
2
 10
1376.392152603166
 20
344.1021163742291
 30
0
 11
1375.558819269832
 21
344.1021163742291
 31
0
  0
LINE
  8
1
 62
2
 10
1375.558819269832
 20
345.5083663742291
 30
0
 11
1376.392152603166
 21
345.5083663742291
 31
0
  0
LINE
  8
1
 62
2
 10
1376.392152603166
 20
346.0943038742291
 30
0
 11
1375.558819269832
 21
346.0943038742291
 31
0
  0
LINE
  8
1
 62
2
 10
1375.350485936499
 20
346.5630538742291
 30
0
 11
1376.704652603166
 21
346.5630538742291
 31
0
  0
LINE
  8
1
 62
2
 10
1375.454652603166
 20
347.1489913742291
 30
0
 11
1376.392152603166
 21
347.1489913742291
 31
0
  0
LINE
  8
1
 62
2
 10
1377.017152603166
 20
347.0318038742291
 30
0
 11
1378.162985936499
 21
347.0318038742291
 31
0
  0
LINE
  8
1
 62
2
 10
1378.162985936499
 20
347.0318038742291
 30
0
 11
1378.162985936499
 21
345.8599288742291
 31
0
  0
LINE
  8
1
 62
2
 10
1378.162985936499
 20
345.8599288742291
 30
0
 11
1377.017152603166
 21
345.8599288742291
 31
0
  0
LINE
  8
1
 62
2
 10
1377.017152603166
 20
345.8599288742291
 30
0
 11
1377.017152603166
 21
344.1021163742291
 31
0
  0
LINE
  8
1
 62
2
 10
1377.017152603166
 20
344.1021163742291
 30
0
 11
1377.433819269832
 21
344.1021163742291
 31
0
  0
LINE
  8
1
 62
2
 10
1377.433819269832
 20
344.1021163742291
 30
0
 11
1378.475485936499
 21
344.1021163742291
 31
0
  0
LINE
  8
1
 62
2
 10
1378.475485936499
 20
344.1021163742291
 30
0
 11
1378.475485936499
 21
344.4536788742291
 31
0
  0
LINE
  8
1
 62
2
 10
1379.933819269832
 20
347.3833663742291
 30
0
 11
1379.933819269832
 21
346.5630538742291
 31
0
  0
LINE
  8
1
 62
2
 10
1379.933819269832
 20
346.5630538742291
 30
0
 11
1381.600485936499
 21
346.5630538742291
 31
0
  0
LINE
  8
1
 62
2
 10
1381.600485936499
 20
346.5630538742291
 30
0
 11
1381.600485936499
 21
347.3833663742291
 31
0
  0
LINE
  8
1
 62
2
 10
1381.600485936499
 20
347.3833663742291
 30
0
 11
1379.933819269832
 21
347.3833663742291
 31
0
  0
LINE
  8
1
 62
2
 10
1379.204652603166
 20
345.9771163742291
 30
0
 11
1380.350485936499
 21
345.9771163742291
 31
0
  0
LINE
  8
1
 62
2
 10
1380.350485936499
 20
345.9771163742291
 30
0
 11
1380.037985936499
 21
344.8052413742291
 31
0
  0
LINE
  8
1
 62
2
 10
1380.142152603166
 20
345.2739913742291
 30
0
 11
1381.600485936499
 21
345.2739913742291
 31
0
  0
LINE
  8
1
 62
2
 10
1381.600485936499
 20
345.2739913742291
 30
0
 11
1381.392152603166
 21
344.5708663742291
 31
0
  0
LINE
  8
1
 62
2
 10
1381.392152603166
 20
344.5708663742291
 30
0
 11
1381.079652603166
 21
343.9849288742291
 31
0
  0
LINE
  8
1
 62
2
 10
1381.079652603166
 20
343.9849288742291
 30
0
 11
1380.871319269832
 21
343.8677413742291
 31
0
  0
LINE
  8
1
 62
2
 10
1380.871319269832
 20
343.8677413742291
 30
0
 11
1380.454652603166
 21
344.1021163742291
 31
0
  0
LINE
  8
1
 62
2
 10
1380.350485936499
 20
345.9771163742291
 30
0
 11
1382.225485936499
 21
345.9771163742291
 31
0
  0
LINE
  8
1
 62
2
 10
1388.850485936499
 20
345.9302413742291
 30
0
 11
1386.600485936499
 21
345.9302413742291
 31
0
  0
LINE
  8
1
 62
2
 10
1389.225485936499
 20
347.6177413742291
 30
0
 11
1386.600485936499
 21
347.6177413742291
 31
0
  0
LINE
  8
1
 62
2
 10
1386.600485936499
 20
347.6177413742291
 30
0
 11
1386.600485936499
 21
345.9302413742291
 31
0
  0
LINE
  8
1
 62
2
 10
1386.600485936499
 20
345.7427413742291
 30
0
 11
1386.600485936499
 21
343.8677413742291
 31
0
  0
LINE
  8
1
 62
2
 10
1386.600485936499
 20
343.8677413742291
 30
0
 11
1389.225485936499
 21
343.8677413742291
 31
0
  0
LINE
  8
1
 62
2
 10
1386.600485936499
 20
345.9302413742291
 30
0
 11
1386.600485936499
 21
345.7427413742291
 31
0
  0
LINE
  8
1
 62
2
 10
1308.626380887336
 20
617.8518432379149
 30
0
 11
1309.14721422067
 21
618.0862182379149
 31
0
  0
LINE
  8
1
 62
2
 10
1309.14721422067
 20
618.0862182379149
 30
0
 11
1309.77221422067
 21
618.5549682379149
 31
0
  0
LINE
  8
1
 62
2
 10
1309.77221422067
 20
618.5549682379149
 30
0
 11
1310.08471422067
 21
619.0237182379149
 31
0
  0
LINE
  8
1
 62
2
 10
1308.626380887336
 20
619.0237182379149
 30
0
 11
1310.08471422067
 21
619.0237182379149
 31
0
  0
LINE
  8
1
 62
2
 10
1311.33471422067
 20
619.6096557379149
 30
0
 11
1309.14721422067
 21
619.6096557379149
 31
0
  0
LINE
  8
1
 62
2
 10
1308.938880887336
 20
620.1955932379149
 30
0
 11
1311.543047554003
 21
620.1955932379149
 31
0
  0
LINE
  8
1
 62
2
 10
1310.188880887336
 20
620.7815307379149
 30
0
 11
1310.188880887336
 21
619.0237182379149
 31
0
  0
LINE
  8
1
 62
2
 10
1309.77221422067
 20
618.5549682379149
 30
0
 11
1309.77221422067
 21
617.3830932379149
 31
0
  0
LINE
  8
1
 62
2
 10
1309.251380887336
 20
617.1487182379149
 30
0
 11
1310.501380887336
 21
617.7346557379149
 31
0
  0
LINE
  8
1
 62
2
 10
1310.70971422067
 20
618.0862182379149
 30
0
 11
1311.438880887336
 21
618.6721557379149
 31
0
  0
LINE
  8
1
 62
2
 10
1310.293047554003
 20
618.7893432379149
 30
0
 11
1310.605547554003
 21
618.2034057379149
 31
0
  0
LINE
  8
1
 62
2
 10
1310.605547554003
 20
618.2034057379149
 30
0
 11
1310.70971422067
 21
618.0862182379149
 31
0
  0
LINE
  8
1
 62
2
 10
1311.230547554003
 20
617.5002807379149
 30
0
 11
1311.751380887336
 21
617.2659057379149
 31
0
  0
LINE
  8
1
 62
2
 10
1310.70971422067
 20
618.0862182379149
 30
0
 11
1311.230547554003
 21
617.5002807379149
 31
0
  0
LINE
  8
1
 62
2
 10
1310.188880887336
 20
619.0237182379149
 30
0
 11
1311.855547554003
 21
619.0237182379149
 31
0
  0
LINE
  8
1
 62
2
 10
1310.08471422067
 20
619.0237182379149
 30
0
 11
1310.188880887336
 21
619.0237182379149
 31
0
  0
LINE
  8
1
 62
2
 10
1312.89721422067
 20
620.5471557379149
 30
0
 11
1315.188880887336
 21
620.5471557379149
 31
0
  0
LINE
  8
1
 62
2
 10
1315.70971422067
 20
619.6096557379149
 30
0
 11
1314.14721422067
 21
619.6096557379149
 31
0
  0
LINE
  8
1
 62
2
 10
1314.14721422067
 20
619.6096557379149
 30
0
 11
1314.14721422067
 21
617.2659057379149
 31
0
  0
LINE
  8
1
 62
2
 10
1314.14721422067
 20
617.2659057379149
 30
0
 11
1313.730547554003
 21
617.2659057379149
 31
0
  0
LINE
  8
1
 62
2
 10
1312.688880887336
 20
617.6174682379149
 30
0
 11
1313.105547554003
 21
618.0862182379149
 31
0
  0
LINE
  8
1
 62
2
 10
1313.105547554003
 20
618.0862182379149
 30
0
 11
1313.418047554003
 21
618.6721557379149
 31
0
  0
LINE
  8
1
 62
2
 10
1314.77221422067
 20
618.7893432379149
 30
0
 11
1315.188880887336
 21
618.2034057379149
 31
0
  0
LINE
  8
1
 62
2
 10
1315.188880887336
 20
618.2034057379149
 30
0
 11
1315.605547554003
 21
617.6174682379149
 31
0
  0
LINE
  8
1
 62
2
 10
1314.14721422067
 20
619.6096557379149
 30
0
 11
1312.58471422067
 21
619.6096557379149
 31
0
  0
LINE
  8
1
 62
2
 10
1316.855547554003
 20
619.4924682379149
 30
0
 11
1318.20971422067
 21
619.4924682379149
 31
0
  0
LINE
  8
1
 62
2
 10
1318.20971422067
 20
619.4924682379149
 30
0
 11
1318.001380887336
 21
617.8518432379149
 31
0
  0
LINE
  8
1
 62
2
 10
1316.33471422067
 20
617.8518432379149
 30
0
 11
1318.001380887336
 21
617.8518432379149
 31
0
  0
LINE
  8
1
 62
2
 10
1318.001380887336
 20
617.8518432379149
 30
0
 11
1319.251380887336
 21
617.8518432379149
 31
0
  0
LINE
  8
1
 62
2
 10
1320.293047554003
 20
618.0862182379149
 30
0
 11
1322.793047554003
 21
618.0862182379149
 31
0
  0
LINE
  8
1
 62
2
 10
1320.70971422067
 20
619.4924682379149
 30
0
 11
1322.480547554003
 21
619.4924682379149
 31
0
  0
LINE
  8
1
 62
2
 10
1324.876380887336
 20
617.2659057379149
 30
0
 11
1325.39721422067
 21
617.6174682379149
 31
0
  0
LINE
  8
1
 62
2
 10
1325.39721422067
 20
617.6174682379149
 30
0
 11
1326.02221422067
 21
618.4377807379149
 31
0
  0
LINE
  8
1
 62
2
 10
1326.02221422067
 20
618.4377807379149
 30
0
 11
1326.230547554003
 21
619.0237182379149
 31
0
  0
LINE
  8
1
 62
2
 10
1325.293047554003
 20
619.1409057379149
 30
0
 11
1325.39721422067
 21
618.6721557379149
 31
0
  0
LINE
  8
1
 62
2
 10
1324.563880887336
 20
619.0237182379149
 30
0
 11
1324.77221422067
 21
618.5549682379149
 31
0
  0
LINE
  8
1
 62
2
 10
1328.83471422067
 20
620.4299682379149
 30
0
 11
1328.83471422067
 21
617.5002807379149
 31
0
  0
LINE
  8
1
 62
2
 10
1329.251380887336
 20
619.3752807379149
 30
0
 11
1329.563880887336
 21
619.0237182379149
 31
0
  0
LINE
  8
1
 62
2
 10
1329.563880887336
 20
619.0237182379149
 30
0
 11
1329.77221422067
 21
618.5549682379149
 31
0
  0
LINE
  8
1
 62
2
 10
1331.855547554003
 20
617.5002807379149
 30
0
 11
1331.751380887336
 21
618.3205932379149
 31
0
  0
LINE
  8
1
 62
2
 10
1331.751380887336
 20
618.3205932379149
 30
0
 11
1331.751380887336
 21
619.3752807379149
 31
0
  0
LINE
  8
1
 62
2
 10
1331.751380887336
 20
619.3752807379149
 30
0
 11
1331.95971422067
 21
620.4299682379149
 31
0
  0
LINE
  8
1
 62
2
 10
1332.58471422067
 20
619.6096557379149
 30
0
 11
1333.52221422067
 21
619.7268432379149
 31
0
  0
LINE
  8
1
 62
2
 10
1333.52221422067
 20
619.7268432379149
 30
0
 11
1334.043047554003
 21
619.8440307379149
 31
0
  0
LINE
  8
1
 62
2
 10
1333.418047554003
 20
620.4299682379149
 30
0
 11
1333.52221422067
 21
618.3205932379149
 31
0
  0
LINE
  8
1
 62
2
 10
1333.52221422067
 20
618.3205932379149
 30
0
 11
1333.418047554003
 21
617.8518432379149
 31
0
  0
LINE
  8
1
 62
2
 10
1333.418047554003
 20
617.8518432379149
 30
0
 11
1333.20971422067
 21
617.6174682379149
 31
0
  0
LINE
  8
1
 62
2
 10
1333.20971422067
 20
617.6174682379149
 30
0
 11
1332.793047554003
 21
617.5002807379149
 31
0
  0
LINE
  8
1
 62
2
 10
1332.793047554003
 20
617.5002807379149
 30
0
 11
1332.480547554003
 21
617.7346557379149
 31
0
  0
LINE
  8
1
 62
2
 10
1332.480547554003
 20
617.7346557379149
 30
0
 11
1332.480547554003
 21
617.9690307379149
 31
0
  0
LINE
  8
1
 62
2
 10
1332.480547554003
 20
617.9690307379149
 30
0
 11
1333.001380887336
 21
618.0862182379149
 31
0
  0
LINE
  8
1
 62
2
 10
1333.001380887336
 20
618.0862182379149
 30
0
 11
1333.52221422067
 21
617.9690307379149
 31
0
  0
LINE
  8
1
 62
2
 10
1333.52221422067
 20
617.9690307379149
 30
0
 11
1334.043047554003
 21
617.6174682379149
 31
0
  0
LINE
  8
1
 62
2
 10
1335.501380887336
 20
617.1487182379149
 30
0
 11
1335.501380887336
 21
619.8440307379149
 31
0
  0
LINE
  8
1
 62
2
 10
1334.876380887336
 20
618.7893432379149
 30
0
 11
1335.188880887336
 21
619.2580932379149
 31
0
  0
LINE
  8
1
 62
2
 10
1335.188880887336
 20
619.2580932379149
 30
0
 11
1335.918047554003
 21
620.7815307379149
 31
0
  0
LINE
  8
1
 62
2
 10
1336.230547554003
 20
619.7268432379149
 30
0
 11
1336.855547554003
 21
619.9612182379149
 31
0
  0
LINE
  8
1
 62
2
 10
1336.855547554003
 20
619.9612182379149
 30
0
 11
1337.793047554003
 21
620.4299682379149
 31
0
  0
LINE
  8
1
 62
2
 10
1337.168047554003
 20
620.0784057379149
 30
0
 11
1337.168047554003
 21
617.3830932379149
 31
0
  0
LINE
  8
1
 62
2
 10
1338.20971422067
 20
618.9065307379149
 30
0
 11
1336.02221422067
 21
618.9065307379149
 31
0
  0
LINE
  8
1
 62
2
 10
1336.230547554003
 20
617.3830932379149
 30
0
 11
1337.168047554003
 21
617.3830932379149
 31
0
  0
LINE
  8
1
 62
2
 10
1337.168047554003
 20
617.3830932379149
 30
0
 11
1338.105547554003
 21
617.3830932379149
 31
0
  0
LINE
  8
1
 62
2
 10
1338.83471422067
 20
617.2659057379149
 30
0
 11
1339.043047554003
 21
617.6174682379149
 31
0
  0
LINE
  8
1
 62
2
 10
1339.043047554003
 20
617.6174682379149
 30
0
 11
1339.14721422067
 21
617.9690307379149
 31
0
  0
LINE
  8
1
 62
2
 10
1339.668047554003
 20
617.9690307379149
 30
0
 11
1339.668047554003
 21
617.3830932379149
 31
0
  0
LINE
  8
1
 62
2
 10
1339.668047554003
 20
617.3830932379149
 30
0
 11
1339.77221422067
 21
617.2659057379149
 31
0
  0
LINE
  8
1
 62
2
 10
1339.77221422067
 20
617.2659057379149
 30
0
 11
1340.501380887336
 21
617.1487182379149
 31
0
  0
LINE
  8
1
 62
2
 10
1340.501380887336
 20
617.1487182379149
 30
0
 11
1341.126380887336
 21
617.2659057379149
 31
0
  0
LINE
  8
1
 62
2
 10
1341.126380887336
 20
617.2659057379149
 30
0
 11
1341.230547554003
 21
617.3830932379149
 31
0
  0
LINE
  8
1
 62
2
 10
1341.230547554003
 20
617.3830932379149
 30
0
 11
1341.230547554003
 21
617.6174682379149
 31
0
  0
LINE
  8
1
 62
2
 10
1341.64721422067
 20
617.5002807379149
 30
0
 11
1341.438880887336
 21
617.7346557379149
 31
0
  0
LINE
  8
1
 62
2
 10
1341.438880887336
 20
617.7346557379149
 30
0
 11
1341.230547554003
 21
618.0862182379149
 31
0
  0
LINE
  8
1
 62
2
 10
1340.605547554003
 20
617.7346557379149
 30
0
 11
1340.39721422067
 21
618.0862182379149
 31
0
  0
LINE
  8
1
 62
2
 10
1339.45971422067
 20
618.3205932379149
 30
0
 11
1341.126380887336
 21
618.3205932379149
 31
0
  0
LINE
  8
1
 62
2
 10
1341.126380887336
 20
618.3205932379149
 30
0
 11
1341.126380887336
 21
618.7893432379149
 31
0
  0
LINE
  8
1
 62
2
 10
1341.126380887336
 20
619.2580932379149
 30
0
 11
1339.45971422067
 21
619.2580932379149
 31
0
  0
LINE
  8
1
 62
2
 10
1339.45971422067
 20
619.2580932379149
 30
0
 11
1339.45971422067
 21
618.7893432379149
 31
0
  0
LINE
  8
1
 62
2
 10
1339.45971422067
 20
618.7893432379149
 30
0
 11
1341.126380887336
 21
618.7893432379149
 31
0
  0
LINE
  8
1
 62
2
 10
1341.95971422067
 20
619.6096557379149
 30
0
 11
1338.626380887336
 21
619.6096557379149
 31
0
  0
LINE
  8
1
 62
2
 10
1338.938880887336
 20
620.4299682379149
 30
0
 11
1340.293047554003
 21
620.4299682379149
 31
0
  0
LINE
  8
1
 62
2
 10
1340.293047554003
 20
620.8987182379149
 30
0
 11
1340.293047554003
 21
620.4299682379149
 31
0
  0
LINE
  8
1
 62
2
 10
1339.563880887336
 20
620.1955932379149
 30
0
 11
1339.77221422067
 21
619.7268432379149
 31
0
  0
LINE
  8
1
 62
2
 10
1340.918047554003
 20
620.1955932379149
 30
0
 11
1340.70971422067
 21
619.7268432379149
 31
0
  0
LINE
  8
1
 62
2
 10
1340.293047554003
 20
620.4299682379149
 30
0
 11
1341.64721422067
 21
620.4299682379149
 31
0
  0
LINE
  8
1
 62
2
 10
1341.126380887336
 20
618.7893432379149
 30
0
 11
1341.126380887336
 21
619.2580932379149
 31
0
  0
LINE
  8
1
 62
2
 10
1339.45971422067
 20
618.7893432379149
 30
0
 11
1339.45971422067
 21
618.3205932379149
 31
0
  0
LINE
  8
1
 62
2
 10
1344.14721422067
 20
620.0784057379149
 30
0
 11
1343.83471422067
 21
618.9065307379149
 31
0
  0
LINE
  8
1
 62
2
 10
1343.83471422067
 20
618.9065307379149
 30
0
 11
1343.313880887336
 21
617.7346557379149
 31
0
  0
LINE
  8
1
 62
2
 10
1343.313880887336
 20
617.7346557379149
 30
0
 11
1342.89721422067
 21
617.9690307379149
 31
0
  0
LINE
  8
1
 62
2
 10
1342.89721422067
 20
617.9690307379149
 30
0
 11
1342.793047554003
 21
618.5549682379149
 31
0
  0
LINE
  8
1
 62
2
 10
1342.793047554003
 20
618.5549682379149
 30
0
 11
1342.89721422067
 21
619.2580932379149
 31
0
  0
LINE
  8
1
 62
2
 10
1342.89721422067
 20
619.2580932379149
 30
0
 11
1343.313880887336
 21
619.8440307379149
 31
0
  0
LINE
  8
1
 62
2
 10
1343.313880887336
 20
619.8440307379149
 30
0
 11
1343.938880887336
 21
620.0784057379149
 31
0
  0
LINE
  8
1
 62
2
 10
1343.938880887336
 20
620.0784057379149
 30
0
 11
1344.14721422067
 21
620.0784057379149
 31
0
  0
LINE
  8
1
 62
2
 10
1344.563880887336
 20
620.0784057379149
 30
0
 11
1344.980547554003
 21
619.8440307379149
 31
0
  0
LINE
  8
1
 62
2
 10
1344.980547554003
 20
619.8440307379149
 30
0
 11
1345.293047554003
 21
619.3752807379149
 31
0
  0
LINE
  8
1
 62
2
 10
1345.293047554003
 20
619.3752807379149
 30
0
 11
1345.293047554003
 21
618.5549682379149
 31
0
  0
LINE
  8
1
 62
2
 10
1345.293047554003
 20
618.5549682379149
 30
0
 11
1344.980547554003
 21
617.9690307379149
 31
0
  0
LINE
  8
1
 62
2
 10
1344.980547554003
 20
617.9690307379149
 30
0
 11
1344.45971422067
 21
617.5002807379149
 31
0
  0
LINE
  8
1
 62
2
 10
1344.14721422067
 20
620.0784057379149
 30
0
 11
1344.563880887336
 21
620.0784057379149
 31
0
  0
LINE
  8
1
 62
2
 10
1346.438880887336
 20
617.2659057379149
 30
0
 11
1346.438880887336
 21
620.0784057379149
 31
0
  0
LINE
  8
1
 62
2
 10
1346.438880887336
 20
620.0784057379149
 30
0
 11
1346.95971422067
 21
620.0784057379149
 31
0
  0
LINE
  8
1
 62
2
 10
1349.14721422067
 20
620.0784057379149
 30
0
 11
1349.14721422067
 21
617.2659057379149
 31
0
  0
LINE
  8
1
 62
2
 10
1349.14721422067
 20
617.2659057379149
 30
0
 11
1348.626380887336
 21
617.2659057379149
 31
0
  0
LINE
  8
1
 62
2
 10
1347.376380887336
 20
618.3205932379149
 30
0
 11
1347.376380887336
 21
619.2580932379149
 31
0
  0
LINE
  8
1
 62
2
 10
1347.376380887336
 20
619.2580932379149
 30
0
 11
1348.20971422067
 21
619.2580932379149
 31
0
  0
LINE
  8
1
 62
2
 10
1348.20971422067
 20
619.2580932379149
 30
0
 11
1348.20971422067
 21
618.3205932379149
 31
0
  0
LINE
  8
1
 62
2
 10
1348.20971422067
 20
618.3205932379149
 30
0
 11
1347.376380887336
 21
618.3205932379149
 31
0
  0
LINE
  8
1
 62
2
 10
1346.95971422067
 20
620.0784057379149
 30
0
 11
1347.480547554003
 21
620.7815307379149
 31
0
  0
LINE
  8
1
 62
2
 10
1346.95971422067
 20
620.0784057379149
 30
0
 11
1349.14721422067
 21
620.0784057379149
 31
0
  0
LINE
  8
1
 62
2
 10
1350.813880887336
 20
619.1409057379149
 30
0
 11
1351.751380887336
 21
619.3752807379149
 31
0
  0
LINE
  8
1
 62
2
 10
1351.751380887336
 20
619.3752807379149
 30
0
 11
1352.480547554003
 21
619.7268432379149
 31
0
  0
LINE
  8
1
 62
2
 10
1351.95971422067
 20
620.3127807379149
 30
0
 11
1351.543047554003
 21
620.0784057379149
 31
0
  0
LINE
  8
1
 62
2
 10
1351.543047554003
 20
620.0784057379149
 30
0
 11
1350.813880887336
 21
619.8440307379149
 31
0
  0
LINE
  8
1
 62
2
 10
1351.126380887336
 20
620.6643432379149
 30
0
 11
1351.64721422067
 21
619.8440307379149
 31
0
  0
LINE
  8
1
 62
2
 10
1351.64721422067
 20
619.8440307379149
 30
0
 11
1352.376380887336
 21
618.4377807379149
 31
0
  0
LINE
  8
1
 62
2
 10
1352.376380887336
 20
618.4377807379149
 30
0
 11
1351.95971422067
 21
618.5549682379149
 31
0
  0
LINE
  8
1
 62
2
 10
1351.95971422067
 20
618.5549682379149
 30
0
 11
1351.543047554003
 21
618.5549682379149
 31
0
  0
LINE
  8
1
 62
2
 10
1351.543047554003
 20
618.5549682379149
 30
0
 11
1351.126380887336
 21
618.3205932379149
 31
0
  0
LINE
  8
1
 62
2
 10
1351.126380887336
 20
618.3205932379149
 30
0
 11
1350.918047554003
 21
617.8518432379149
 31
0
  0
LINE
  8
1
 62
2
 10
1350.918047554003
 20
617.8518432379149
 30
0
 11
1351.33471422067
 21
617.5002807379149
 31
0
  0
LINE
  8
1
 62
2
 10
1351.33471422067
 20
617.5002807379149
 30
0
 11
1352.063880887336
 21
617.3830932379149
 31
0
  0
LINE
  8
1
 62
2
 10
1354.355547554003
 20
617.5002807379149
 30
0
 11
1354.251380887336
 21
618.3205932379149
 31
0
  0
LINE
  8
1
 62
2
 10
1354.251380887336
 20
618.3205932379149
 30
0
 11
1354.251380887336
 21
619.2580932379149
 31
0
  0
LINE
  8
1
 62
2
 10
1354.251380887336
 20
619.2580932379149
 30
0
 11
1354.45971422067
 21
620.0784057379149
 31
0
  0
LINE
  8
1
 62
2
 10
1355.293047554003
 20
619.7268432379149
 30
0
 11
1355.70971422067
 21
619.8440307379149
 31
0
  0
LINE
  8
1
 62
2
 10
1355.70971422067
 20
619.8440307379149
 30
0
 11
1356.33471422067
 21
619.8440307379149
 31
0
  0
LINE
  8
1
 62
2
 10
1355.08471422067
 20
618.2034057379149
 30
0
 11
1355.293047554003
 21
617.8518432379149
 31
0
  0
LINE
  8
1
 62
2
 10
1355.293047554003
 20
617.8518432379149
 30
0
 11
1355.813880887336
 21
617.7346557379149
 31
0
  0
LINE
  8
1
 62
2
 10
1355.813880887336
 20
617.7346557379149
 30
0
 11
1356.64721422067
 21
617.7346557379149
 31
0
  0
LINE
  8
1
 62
2
 10
1357.793047554003
 20
617.2659057379149
 30
0
 11
1358.105547554003
 21
617.3830932379149
 31
0
  0
LINE
  8
1
 62
2
 10
1358.105547554003
 20
617.3830932379149
 30
0
 11
1358.52221422067
 21
617.6174682379149
 31
0
  0
LINE
  8
1
 62
2
 10
1358.52221422067
 20
617.6174682379149
 30
0
 11
1359.14721422067
 21
618.0862182379149
 31
0
  0
LINE
  8
1
 62
2
 10
1359.14721422067
 20
618.0862182379149
 30
0
 11
1359.668047554003
 21
618.6721557379149
 31
0
  0
LINE
  8
1
 62
2
 10
1359.668047554003
 20
618.6721557379149
 30
0
 11
1358.313880887336
 21
618.6721557379149
 31
0
  0
LINE
  8
1
 62
2
 10
1358.730547554003
 20
619.1409057379149
 30
0
 11
1358.313880887336
 21
618.6721557379149
 31
0
  0
LINE
  8
1
 62
2
 10
1358.20971422067
 20
618.5549682379149
 30
0
 11
1357.89721422067
 21
618.3205932379149
 31
0
  0
LINE
  8
1
 62
2
 10
1357.89721422067
 20
618.3205932379149
 30
0
 11
1357.58471422067
 21
618.0862182379149
 31
0
  0
LINE
  8
1
 62
2
 10
1358.626380887336
 20
618.5549682379149
 30
0
 11
1358.938880887336
 21
618.2034057379149
 31
0
  0
LINE
  8
1
 62
2
 10
1358.938880887336
 20
618.2034057379149
 30
0
 11
1359.563880887336
 21
617.7346557379149
 31
0
  0
LINE
  8
1
 62
2
 10
1359.563880887336
 20
617.7346557379149
 30
0
 11
1360.08471422067
 21
617.5002807379149
 31
0
  0
LINE
  8
1
 62
2
 10
1360.08471422067
 20
617.5002807379149
 30
0
 11
1360.605547554003
 21
617.2659057379149
 31
0
  0
LINE
  8
1
 62
2
 10
1360.501380887336
 20
619.3752807379149
 30
0
 11
1359.980547554003
 21
619.8440307379149
 31
0
  0
LINE
  8
1
 62
2
 10
1359.043047554003
 20
619.1409057379149
 30
0
 11
1359.251380887336
 21
619.1409057379149
 31
0
  0
LINE
  8
1
 62
2
 10
1359.251380887336
 20
619.1409057379149
 30
0
 11
1359.355547554003
 21
619.3752807379149
 31
0
  0
LINE
  8
1
 62
2
 10
1359.355547554003
 20
619.3752807379149
 30
0
 11
1359.355547554003
 21
620.3127807379149
 31
0
  0
LINE
  8
1
 62
2
 10
1358.730547554003
 20
620.3127807379149
 30
0
 11
1358.626380887336
 21
619.7268432379149
 31
0
  0
LINE
  8
1
 62
2
 10
1358.626380887336
 20
619.7268432379149
 30
0
 11
1358.418047554003
 21
619.2580932379149
 31
0
  0
LINE
  8
1
 62
2
 10
1358.418047554003
 20
619.2580932379149
 30
0
 11
1358.105547554003
 21
619.0237182379149
 31
0
  0
LINE
  8
1
 62
2
 10
1358.105547554003
 20
619.0237182379149
 30
0
 11
1357.89721422067
 21
618.9065307379149
 31
0
  0
LINE
  8
1
 62
2
 10
1357.58471422067
 20
619.3752807379149
 30
0
 11
1358.001380887336
 21
619.8440307379149
 31
0
  0
LINE
  8
1
 62
2
 10
1357.58471422067
 20
620.3127807379149
 30
0
 11
1358.730547554003
 21
620.3127807379149
 31
0
  0
LINE
  8
1
 62
2
 10
1359.043047554003
 20
620.4299682379149
 30
0
 11
1359.043047554003
 21
620.7815307379149
 31
0
  0
LINE
  8
1
 62
2
 10
1358.730547554003
 20
620.3127807379149
 30
0
 11
1360.501380887336
 21
620.3127807379149
 31
0
  0
LINE
  8
1
 62
2
 10
1358.313880887336
 20
618.6721557379149
 30
0
 11
1358.20971422067
 21
618.5549682379149
 31
0
  0
LINE
  8
1
 62
2
 10
1361.751380887336
 20
617.5002807379149
 30
0
 11
1363.418047554003
 21
619.4924682379149
 31
0
  0
LINE
  8
1
 62
2
 10
1363.418047554003
 20
619.4924682379149
 30
0
 11
1362.89721422067
 21
619.3752807379149
 31
0
  0
LINE
  8
1
 62
2
 10
1362.89721422067
 20
619.3752807379149
 30
0
 11
1362.063880887336
 21
619.2580932379149
 31
0
  0
LINE
  8
1
 62
2
 10
1362.480547554003
 20
620.5471557379149
 30
0
 11
1362.793047554003
 21
620.3127807379149
 31
0
  0
LINE
  8
1
 62
2
 10
1362.793047554003
 20
620.3127807379149
 30
0
 11
1363.20971422067
 21
620.0784057379149
 31
0
  0
LINE
  8
1
 62
2
 10
1362.58471422067
 20
618.4377807379149
 30
0
 11
1362.793047554003
 21
618.5549682379149
 31
0
  0
LINE
  8
1
 62
2
 10
1362.793047554003
 20
618.5549682379149
 30
0
 11
1363.001380887336
 21
618.5549682379149
 31
0
  0
LINE
  8
1
 62
2
 10
1363.001380887336
 20
618.5549682379149
 30
0
 11
1363.001380887336
 21
617.7346557379149
 31
0
  0
LINE
  8
1
 62
2
 10
1363.001380887336
 20
617.7346557379149
 30
0
 11
1363.105547554003
 21
617.3830932379149
 31
0
  0
LINE
  8
1
 62
2
 10
1363.105547554003
 20
617.3830932379149
 30
0
 11
1363.626380887336
 21
617.3830932379149
 31
0
  0
LINE
  8
1
 62
2
 10
1363.626380887336
 20
617.3830932379149
 30
0
 11
1364.043047554003
 21
617.5002807379149
 31
0
  0
LINE
  8
1
 62
2
 10
1366.438880887336
 20
617.3830932379149
 30
0
 11
1366.95971422067
 21
617.5002807379149
 31
0
  0
LINE
  8
1
 62
2
 10
1366.95971422067
 20
617.5002807379149
 30
0
 11
1367.480547554003
 21
617.8518432379149
 31
0
  0
LINE
  8
1
 62
2
 10
1367.480547554003
 20
617.8518432379149
 30
0
 11
1367.688880887336
 21
618.2034057379149
 31
0
  0
LINE
  8
1
 62
2
 10
1367.688880887336
 20
618.2034057379149
 30
0
 11
1367.58471422067
 21
618.6721557379149
 31
0
  0
LINE
  8
1
 62
2
 10
1367.58471422067
 20
618.6721557379149
 30
0
 11
1367.168047554003
 21
618.9065307379149
 31
0
  0
LINE
  8
1
 62
2
 10
1367.168047554003
 20
618.9065307379149
 30
0
 11
1366.751380887336
 21
618.9065307379149
 31
0
  0
LINE
  8
1
 62
2
 10
1366.751380887336
 20
618.9065307379149
 30
0
 11
1366.33471422067
 21
618.6721557379149
 31
0
  0
LINE
  8
1
 62
2
 10
1366.33471422067
 20
618.6721557379149
 30
0
 11
1365.813880887336
 21
618.3205932379149
 31
0
  0
LINE
  8
1
 62
2
 10
1365.813880887336
 20
618.3205932379149
 30
0
 11
1365.918047554003
 21
619.1409057379149
 31
0
  0
LINE
  8
1
 62
2
 10
1365.918047554003
 20
619.1409057379149
 30
0
 11
1366.126380887336
 21
619.8440307379149
 31
0
  0
LINE
  8
1
 62
2
 10
1366.33471422067
 20
620.5471557379149
 30
0
 11
1366.64721422067
 21
620.3127807379149
 31
0
  0
LINE
  8
1
 62
2
 10
1366.64721422067
 20
620.3127807379149
 30
0
 11
1366.855547554003
 21
620.0784057379149
 31
0
  0
LINE
  8
1
 62
2
 10
1369.77221422067
 20
620.4299682379149
 30
0
 11
1369.668047554003
 21
618.7893432379149
 31
0
  0
LINE
  8
1
 62
2
 10
1369.668047554003
 20
618.7893432379149
 30
0
 11
1369.668047554003
 21
617.3830932379149
 31
0
  0
LINE
  8
1
 62
2
 10
1369.043047554003
 20
619.0237182379149
 30
0
 11
1369.876380887336
 21
619.6096557379149
 31
0
  0
LINE
  8
1
 62
2
 10
1369.876380887336
 20
619.6096557379149
 30
0
 11
1369.668047554003
 21
618.9065307379149
 31
0
  0
LINE
  8
1
 62
2
 10
1369.668047554003
 20
618.9065307379149
 30
0
 11
1369.043047554003
 21
617.7346557379149
 31
0
  0
LINE
  8
1
 62
2
 10
1369.563880887336
 20
618.6721557379149
 30
0
 11
1370.188880887336
 21
619.4924682379149
 31
0
  0
LINE
  8
1
 62
2
 10
1370.188880887336
 20
619.4924682379149
 30
0
 11
1370.605547554003
 21
619.8440307379149
 31
0
  0
LINE
  8
1
 62
2
 10
1370.605547554003
 20
619.8440307379149
 30
0
 11
1370.918047554003
 21
619.8440307379149
 31
0
  0
LINE
  8
1
 62
2
 10
1370.918047554003
 20
619.8440307379149
 30
0
 11
1371.02221422067
 21
619.4924682379149
 31
0
  0
LINE
  8
1
 62
2
 10
1371.02221422067
 20
619.4924682379149
 30
0
 11
1370.918047554003
 21
618.0862182379149
 31
0
  0
LINE
  8
1
 62
2
 10
1370.918047554003
 20
618.0862182379149
 30
0
 11
1371.126380887336
 21
617.7346557379149
 31
0
  0
LINE
  8
1
 62
2
 10
1371.126380887336
 20
617.7346557379149
 30
0
 11
1371.438880887336
 21
617.7346557379149
 31
0
  0
LINE
  8
1
 62
2
 10
1371.438880887336
 20
617.7346557379149
 30
0
 11
1371.64721422067
 21
617.9690307379149
 31
0
  0
LINE
  8
1
 62
2
 10
1373.105547554003
 20
619.1409057379149
 30
0
 11
1374.043047554003
 21
619.1409057379149
 31
0
  0
LINE
  8
1
 62
2
 10
1374.043047554003
 20
619.1409057379149
 30
0
 11
1374.876380887336
 21
619.3752807379149
 31
0
  0
LINE
  8
1
 62
2
 10
1374.77221422067
 20
620.0784057379149
 30
0
 11
1374.043047554003
 21
619.9612182379149
 31
0
  0
LINE
  8
1
 62
2
 10
1374.043047554003
 20
619.9612182379149
 30
0
 11
1373.418047554003
 21
619.9612182379149
 31
0
  0
LINE
  8
1
 62
2
 10
1374.14721422067
 20
620.6643432379149
 30
0
 11
1374.14721422067
 21
619.7268432379149
 31
0
  0
LINE
  8
1
 62
2
 10
1374.14721422067
 20
619.7268432379149
 30
0
 11
1374.251380887336
 21
618.0862182379149
 31
0
  0
LINE
  8
1
 62
2
 10
1374.251380887336
 20
618.0862182379149
 30
0
 11
1374.043047554003
 21
617.6174682379149
 31
0
  0
LINE
  8
1
 62
2
 10
1374.043047554003
 20
617.6174682379149
 30
0
 11
1373.626380887336
 21
617.3830932379149
 31
0
  0
LINE
  8
1
 62
2
 10
1373.626380887336
 20
617.3830932379149
 30
0
 11
1373.20971422067
 21
617.5002807379149
 31
0
  0
LINE
  8
1
 62
2
 10
1373.20971422067
 20
617.5002807379149
 30
0
 11
1373.105547554003
 21
617.7346557379149
 31
0
  0
LINE
  8
1
 62
2
 10
1373.105547554003
 20
617.7346557379149
 30
0
 11
1373.313880887336
 21
617.9690307379149
 31
0
  0
LINE
  8
1
 62
2
 10
1373.313880887336
 20
617.9690307379149
 30
0
 11
1373.83471422067
 21
618.0862182379149
 31
0
  0
LINE
  8
1
 62
2
 10
1373.83471422067
 20
618.0862182379149
 30
0
 11
1374.355547554003
 21
617.8518432379149
 31
0
  0
LINE
  8
1
 62
2
 10
1374.355547554003
 20
617.8518432379149
 30
0
 11
1374.77221422067
 21
617.5002807379149
 31
0
  0
LINE
  8
1
 62
2
 10
1377.58471422067
 20
617.2659057379149
 30
0
 11
1377.89721422067
 21
617.8518432379149
 31
0
  0
LINE
  8
1
 62
2
 10
1377.89721422067
 20
617.8518432379149
 30
0
 11
1378.105547554003
 21
618.3205932379149
 31
0
  0
LINE
  8
1
 62
2
 10
1378.105547554003
 20
618.3205932379149
 30
0
 11
1378.105547554003
 21
619.0237182379149
 31
0
  0
LINE
  8
1
 62
2
 10
1378.105547554003
 20
619.0237182379149
 30
0
 11
1377.89721422067
 21
619.2580932379149
 31
0
  0
LINE
  8
1
 62
2
 10
1377.89721422067
 20
619.2580932379149
 30
0
 11
1377.58471422067
 21
619.1409057379149
 31
0
  0
LINE
  8
1
 62
2
 10
1377.58471422067
 20
619.1409057379149
 30
0
 11
1377.480547554003
 21
618.7893432379149
 31
0
  0
LINE
  8
1
 62
2
 10
1377.480547554003
 20
618.7893432379149
 30
0
 11
1377.793047554003
 21
618.3205932379149
 31
0
  0
LINE
  8
1
 62
2
 10
1377.793047554003
 20
618.3205932379149
 30
0
 11
1378.105547554003
 21
618.5549682379149
 31
0
  0
LINE
  8
1
 62
2
 10
1378.105547554003
 20
618.5549682379149
 30
0
 11
1378.105547554003
 21
620.6643432379149
 31
0
  0
LINE
  8
1
 62
2
 10
1376.543047554003
 20
619.6096557379149
 30
0
 11
1377.688880887336
 21
619.8440307379149
 31
0
  0
LINE
  8
1
 62
2
 10
1377.688880887336
 20
619.8440307379149
 30
0
 11
1379.251380887336
 21
619.8440307379149
 31
0
  0
LINE
  8
1
 62
2
 10
1380.813880887336
 20
617.7346557379149
 30
0
 11
1381.230547554003
 21
617.7346557379149
 31
0
  0
LINE
  8
1
 62
2
 10
1381.230547554003
 20
617.7346557379149
 30
0
 11
1381.230547554003
 21
618.2034057379149
 31
0
  0
LINE
  8
1
 62
2
 10
1381.230547554003
 20
618.2034057379149
 30
0
 11
1380.813880887336
 21
618.2034057379149
 31
0
  0
LINE
  8
1
 62
2
 10
1380.813880887336
 20
618.2034057379149
 30
0
 11
1380.813880887336
 21
617.7346557379149
 31
0
  0
LINE
  8
1
 62
2
 10
1314.40493161197
 20
315.3768704118289
 30
0
 11
1314.40493161197
 21
319.1268704118289
 31
0
  0
LINE
  8
1
 62
2
 10
1314.40493161197
 20
319.1268704118289
 30
0
 11
1317.02993161197
 21
315.3768704118289
 31
0
  0
LINE
  8
1
 62
2
 10
1317.02993161197
 20
315.3768704118289
 30
0
 11
1317.02993161197
 21
319.1268704118289
 31
0
  0
LINE
  8
1
 62
2
 10
1318.90493161197
 20
317.2518704118289
 30
0
 11
1318.15493161197
 21
316.5018704118289
 31
0
  0
LINE
  8
1
 62
2
 10
1320.77993161197
 20
319.1268704118289
 30
0
 11
1318.90493161197
 21
317.2518704118289
 31
0
  0
LINE
  8
1
 62
2
 10
1318.90493161197
 20
317.2518704118289
 30
0
 11
1320.77993161197
 21
315.3768704118289
 31
0
  0
LINE
  8
1
 62
2
 10
1318.15493161197
 20
315.3768704118289
 30
0
 11
1318.15493161197
 21
316.5018704118289
 31
0
  0
LINE
  8
1
 62
2
 10
1318.15493161197
 20
316.5018704118289
 30
0
 11
1318.15493161197
 21
319.1268704118289
 31
0
  0
LINE
  8
1
 62
2
 10
1324.52993161197
 20
319.1268704118289
 30
0
 11
1324.52993161197
 21
317.4393704118289
 31
0
  0
LINE
  8
1
 62
2
 10
1321.90493161197
 20
317.4393704118289
 30
0
 11
1324.52993161197
 21
317.4393704118289
 31
0
  0
LINE
  8
1
 62
2
 10
1321.90493161197
 20
319.1268704118289
 30
0
 11
1321.90493161197
 21
317.4393704118289
 31
0
  0
LINE
  8
1
 62
2
 10
1321.90493161197
 20
317.2518704118289
 30
0
 11
1321.90493161197
 21
315.3768704118289
 31
0
  0
LINE
  8
1
 62
2
 10
1324.52993161197
 20
317.4393704118289
 30
0
 11
1324.52993161197
 21
315.3768704118289
 31
0
  0
LINE
  8
1
 62
2
 10
1321.90493161197
 20
317.4393704118289
 30
0
 11
1321.90493161197
 21
317.2518704118289
 31
0
  0
LINE
  8
1
 62
2
 10
1327.90493161197
 20
315.3768704118289
 30
0
 11
1325.65493161197
 21
315.3768704118289
 31
0
  0
LINE
  8
1
 62
2
 10
1325.65493161197
 20
315.3768704118289
 30
0
 11
1325.65493161197
 21
319.1268704118289
 31
0
  0
LINE
  8
1
 62
2
 10
1329.238264945303
 20
315.4940579118289
 30
0
 11
1330.800764945303
 21
315.4940579118289
 31
0
  0
LINE
  8
1
 62
2
 10
1331.84243161197
 20
316.3143704118289
 30
0
 11
1329.550764945303
 21
316.3143704118289
 31
0
  0
LINE
  8
1
 62
2
 10
1329.238264945303
 20
316.7831204118289
 30
0
 11
1329.550764945303
 21
317.2518704118289
 31
0
  0
LINE
  8
1
 62
2
 10
1329.550764945303
 20
317.2518704118289
 30
0
 11
1329.759098278637
 21
318.0721829118289
 31
0
  0
LINE
  8
1
 62
2
 10
1329.759098278637
 20
318.0721829118289
 30
0
 11
1329.759098278637
 21
318.8924954118289
 31
0
  0
LINE
  8
1
 62
2
 10
1330.800764945303
 20
318.8924954118289
 30
0
 11
1330.27993161197
 21
318.8924954118289
 31
0
  0
LINE
  8
1
 62
2
 10
1329.134098278637
 20
318.0721829118289
 30
0
 11
1330.90493161197
 21
318.0721829118289
 31
0
  0
LINE
  8
1
 62
2
 10
1330.27993161197
 20
318.8924954118289
 30
0
 11
1330.27993161197
 21
316.9003079118289
 31
0
  0
LINE
  8
1
 62
2
 10
1331.321598278637
 20
317.3690579118289
 30
0
 11
1331.321598278637
 21
318.8924954118289
 31
0
  0
LINE
  8
1
 62
2
 10
1332.050764945303
 20
319.0096829118289
 30
0
 11
1332.050764945303
 21
316.9003079118289
 31
0
  0
LINE
  8
1
 62
2
 10
1332.050764945303
 20
316.9003079118289
 30
0
 11
1331.738264945303
 21
316.9003079118289
 31
0
  0
LINE
  8
1
 62
2
 10
1330.800764945303
 20
316.9003079118289
 30
0
 11
1330.800764945303
 21
315.4940579118289
 31
0
  0
LINE
  8
1
 62
2
 10
1330.800764945303
 20
315.4940579118289
 30
0
 11
1332.259098278637
 21
315.4940579118289
 31
0
  0
LINE
  8
1
 62
2
 10
1330.27993161197
 20
318.8924954118289
 30
0
 11
1329.238264945303
 21
318.8924954118289
 31
0
  0
LINE
  8
1
 62
2
 10
1332.77993161197
 20
318.0018704118289
 30
0
 11
1333.90493161197
 21
319.1268704118289
 31
0
  0
LINE
  8
1
 62
2
 10
1333.90493161197
 20
319.1268704118289
 30
0
 11
1333.90493161197
 21
315.3768704118289
 31
0
  0
LINE
  8
1
 62
2
 10
1337.09243161197
 20
319.1268704118289
 30
0
 11
1335.02993161197
 21
319.1268704118289
 31
0
  0
LINE
  8
1
 62
2
 10
1335.02993161197
 20
319.1268704118289
 30
0
 11
1335.02993161197
 21
317.6268704118289
 31
0
  0
LINE
  8
1
 62
2
 10
1335.02993161197
 20
317.6268704118289
 30
0
 11
1336.43618161197
 21
317.6268704118289
 31
0
  0
LINE
  8
1
 62
2
 10
1336.43618161197
 20
317.6268704118289
 30
0
 11
1336.90493161197
 21
317.5331204118289
 31
0
  0
LINE
  8
1
 62
2
 10
1336.90493161197
 20
317.5331204118289
 30
0
 11
1337.18618161197
 21
317.2518704118289
 31
0
  0
LINE
  8
1
 62
2
 10
1337.18618161197
 20
317.2518704118289
 30
0
 11
1337.27993161197
 21
316.8768704118289
 31
0
  0
LINE
  8
1
 62
2
 10
1337.27993161197
 20
316.8768704118289
 30
0
 11
1337.27993161197
 21
316.3143704118289
 31
0
  0
LINE
  8
1
 62
2
 10
1337.27993161197
 20
316.3143704118289
 30
0
 11
1337.18618161197
 21
315.9393704118289
 31
0
  0
LINE
  8
1
 62
2
 10
1337.18618161197
 20
315.9393704118289
 30
0
 11
1336.99868161197
 21
315.6581204118289
 31
0
  0
LINE
  8
1
 62
2
 10
1336.99868161197
 20
315.6581204118289
 30
0
 11
1336.71743161197
 21
315.4706204118289
 31
0
  0
LINE
  8
1
 62
2
 10
1336.71743161197
 20
315.4706204118289
 30
0
 11
1336.43618161197
 21
315.3768704118289
 31
0
  0
LINE
  8
1
 62
2
 10
1336.43618161197
 20
315.3768704118289
 30
0
 11
1335.02993161197
 21
315.3768704118289
 31
0
  0
LINE
  8
1
 62
2
 10
1338.40493161197
 20
315.3768704118289
 30
0
 11
1338.40493161197
 21
318.0018704118289
 31
0
  0
LINE
  8
1
 62
2
 10
1338.40493161197
 20
318.0018704118289
 30
0
 11
1339.71743161197
 21
318.0018704118289
 31
0
  0
LINE
  8
1
 62
2
 10
1340.46743161197
 20
318.0018704118289
 30
0
 11
1340.74868161197
 21
317.9081204118289
 31
0
  0
LINE
  8
1
 62
2
 10
1340.74868161197
 20
317.9081204118289
 30
0
 11
1340.93618161197
 21
317.7206204118289
 31
0
  0
LINE
  8
1
 62
2
 10
1340.93618161197
 20
317.7206204118289
 30
0
 11
1341.02993161197
 21
317.5331204118289
 31
0
  0
LINE
  8
1
 62
2
 10
1341.02993161197
 20
317.5331204118289
 30
0
 11
1341.02993161197
 21
315.3768704118289
 31
0
  0
LINE
  8
1
 62
2
 10
1339.71743161197
 20
318.0018704118289
 30
0
 11
1339.71743161197
 21
315.3768704118289
 31
0
  0
LINE
  8
1
 62
2
 10
1339.71743161197
 20
318.0018704118289
 30
0
 11
1340.46743161197
 21
318.0018704118289
 31
0
  0
LINE
  8
1
 62
2
 10
1342.15493161197
 20
315.3768704118289
 30
0
 11
1342.15493161197
 21
318.0018704118289
 31
0
  0
LINE
  8
1
 62
2
 10
1342.15493161197
 20
318.0018704118289
 30
0
 11
1343.46743161197
 21
318.0018704118289
 31
0
  0
LINE
  8
1
 62
2
 10
1344.21743161197
 20
318.0018704118289
 30
0
 11
1344.49868161197
 21
317.9081204118289
 31
0
  0
LINE
  8
1
 62
2
 10
1344.49868161197
 20
317.9081204118289
 30
0
 11
1344.68618161197
 21
317.7206204118289
 31
0
  0
LINE
  8
1
 62
2
 10
1344.68618161197
 20
317.7206204118289
 30
0
 11
1344.77993161197
 21
317.5331204118289
 31
0
  0
LINE
  8
1
 62
2
 10
1344.77993161197
 20
317.5331204118289
 30
0
 11
1344.77993161197
 21
315.3768704118289
 31
0
  0
LINE
  8
1
 62
2
 10
1343.46743161197
 20
318.0018704118289
 30
0
 11
1343.46743161197
 21
315.3768704118289
 31
0
  0
LINE
  8
1
 62
2
 10
1343.46743161197
 20
318.0018704118289
 30
0
 11
1344.21743161197
 21
318.0018704118289
 31
0
  0
LINE
  8
1
 62
2
 10
1346.009098278637
 20
315.4940579118289
 30
0
 11
1346.52993161197
 21
316.9003079118289
 31
0
  0
LINE
  8
1
 62
2
 10
1346.321598278637
 20
317.3690579118289
 30
0
 11
1345.90493161197
 21
317.7206204118289
 31
0
  0
LINE
  8
1
 62
2
 10
1346.52993161197
 20
318.4237454118289
 30
0
 11
1346.113264945303
 21
318.7753079118289
 31
0
  0
LINE
  8
1
 62
2
 10
1347.259098278637
 20
318.7753079118289
 30
0
 11
1347.259098278637
 21
318.0721829118289
 31
0
  0
LINE
  8
1
 62
2
 10
1347.259098278637
 20
317.3690579118289
 30
0
 11
1348.509098278637
 21
317.3690579118289
 31
0
  0
LINE
  8
1
 62
2
 10
1348.509098278637
 20
317.3690579118289
 30
0
 11
1348.509098278637
 21
318.0721829118289
 31
0
  0
LINE
  8
1
 62
2
 10
1348.509098278637
 20
318.7753079118289
 30
0
 11
1347.259098278637
 21
318.7753079118289
 31
0
  0
LINE
  8
1
 62
2
 10
1347.259098278637
 20
318.0721829118289
 30
0
 11
1348.509098278637
 21
318.0721829118289
 31
0
  0
LINE
  8
1
 62
2
 10
1347.15493161197
 20
315.4940579118289
 30
0
 11
1347.15493161197
 21
316.7831204118289
 31
0
  0
LINE
  8
1
 62
2
 10
1347.15493161197
 20
316.7831204118289
 30
0
 11
1347.675764945303
 21
316.7831204118289
 31
0
  0
LINE
  8
1
 62
2
 10
1348.71743161197
 20
316.7831204118289
 30
0
 11
1348.71743161197
 21
315.4940579118289
 31
0
  0
LINE
  8
1
 62
2
 10
1348.196598278637
 20
315.4940579118289
 30
0
 11
1348.196598278637
 21
316.7831204118289
 31
0
  0
LINE
  8
1
 62
2
 10
1347.675764945303
 20
316.7831204118289
 30
0
 11
1347.675764945303
 21
315.4940579118289
 31
0
  0
LINE
  8
1
 62
2
 10
1346.634098278637
 20
315.4940579118289
 30
0
 11
1347.15493161197
 21
315.4940579118289
 31
0
  0
LINE
  8
1
 62
2
 10
1347.675764945303
 20
315.4940579118289
 30
0
 11
1349.238264945303
 21
315.4940579118289
 31
0
  0
LINE
  8
1
 62
2
 10
1347.675764945303
 20
316.7831204118289
 30
0
 11
1348.71743161197
 21
316.7831204118289
 31
0
  0
LINE
  8
1
 62
2
 10
1347.15493161197
 20
315.4940579118289
 30
0
 11
1347.675764945303
 21
315.4940579118289
 31
0
  0
LINE
  8
1
 62
2
 10
1348.509098278637
 20
318.0721829118289
 30
0
 11
1348.509098278637
 21
318.7753079118289
 31
0
  0
LINE
  8
1
 62
2
 10
1347.259098278637
 20
318.0721829118289
 30
0
 11
1347.259098278637
 21
317.3690579118289
 31
0
  0
LINE
  8
1
 62
2
 10
1349.863264945303
 20
315.9628079118289
 30
0
 11
1350.27993161197
 21
316.4315579118289
 31
0
  0
LINE
  8
1
 62
2
 10
1350.27993161197
 20
316.4315579118289
 30
0
 11
1350.696598278637
 21
317.1346829118289
 31
0
  0
LINE
  8
1
 62
2
 10
1350.696598278637
 20
317.1346829118289
 30
0
 11
1350.90493161197
 21
317.8378079118289
 31
0
  0
LINE
  8
1
 62
2
 10
1350.90493161197
 20
317.8378079118289
 30
0
 11
1349.863264945303
 21
317.8378079118289
 31
0
  0
LINE
  8
1
 62
2
 10
1351.425764945303
 20
319.0096829118289
 30
0
 11
1351.425764945303
 21
315.3768704118289
 31
0
  0
LINE
  8
1
 62
2
 10
1351.425764945303
 20
315.3768704118289
 30
0
 11
1351.113264945303
 21
315.4940579118289
 31
0
  0
LINE
  8
1
 62
2
 10
1352.675764945303
 20
318.1893704118289
 30
0
 11
1351.946598278637
 21
317.6034329118289
 31
0
  0
LINE
  8
1
 62
2
 10
1351.738264945303
 20
318.0721829118289
 30
0
 11
1352.050764945303
 21
317.2518704118289
 31
0
  0
LINE
  8
1
 62
2
 10
1352.050764945303
 20
317.2518704118289
 30
0
 11
1352.46743161197
 21
316.5487454118289
 31
0
  0
LINE
  8
1
 62
2
 10
1352.46743161197
 20
316.5487454118289
 30
0
 11
1352.988264945303
 21
315.9628079118289
 31
0
  0
LINE
  8
1
 62
2
 10
1354.02993161197
 20
315.8456204118289
 30
0
 11
1354.759098278637
 21
316.4315579118289
 31
0
  0
LINE
  8
1
 62
2
 10
1354.759098278637
 20
316.4315579118289
 30
0
 11
1355.59243161197
 21
317.4862454118289
 31
0
  0
LINE
  8
1
 62
2
 10
1355.59243161197
 20
317.4862454118289
 30
0
 11
1356.113264945303
 21
318.5409329118289
 31
0
  0
LINE
  8
1
 62
2
 10
1354.863264945303
 20
317.8378079118289
 30
0
 11
1355.384098278637
 21
317.2518704118289
 31
0
  0
LINE
  8
1
 62
2
 10
1355.384098278637
 20
317.2518704118289
 30
0
 11
1355.90493161197
 21
316.4315579118289
 31
0
  0
LINE
  8
1
 62
2
 10
1357.675764945303
 20
317.3690579118289
 30
0
 11
1357.884098278637
 21
317.2518704118289
 31
0
  0
LINE
  8
1
 62
2
 10
1357.884098278637
 20
317.2518704118289
 30
0
 11
1359.759098278637
 21
317.2518704118289
 31
0
  0
LINE
  8
1
 62
2
 10
1359.759098278637
 20
317.2518704118289
 30
0
 11
1359.96743161197
 21
317.1346829118289
 31
0
  0
LINE
  8
1
 62
2
 10
1361.52993161197
 20
315.8456204118289
 30
0
 11
1362.46743161197
 21
316.5487454118289
 31
0
  0
LINE
  8
1
 62
2
 10
1362.46743161197
 20
316.5487454118289
 30
0
 11
1363.300764945303
 21
317.4862454118289
 31
0
  0
LINE
  8
1
 62
2
 10
1363.300764945303
 20
317.4862454118289
 30
0
 11
1363.71743161197
 21
318.3065579118289
 31
0
  0
LINE
  8
1
 62
2
 10
1363.71743161197
 20
318.3065579118289
 30
0
 11
1362.363264945303
 21
318.3065579118289
 31
0
  0
LINE
  8
1
 62
2
 10
1362.675764945303
 20
318.7753079118289
 30
0
 11
1362.15493161197
 21
318.0721829118289
 31
0
  0
LINE
  8
1
 62
2
 10
1362.15493161197
 20
318.0721829118289
 30
0
 11
1361.634098278637
 21
317.4862454118289
 31
0
  0
LINE
  8
1
 62
2
 10
1362.46743161197
 20
317.6034329118289
 30
0
 11
1363.300764945303
 21
316.6659329118289
 31
0
  0
LINE
  8
1
 62
2
 10
1365.175764945303
 20
317.3690579118289
 30
0
 11
1365.384098278637
 21
317.2518704118289
 31
0
  0
LINE
  8
1
 62
2
 10
1365.384098278637
 20
317.2518704118289
 30
0
 11
1367.259098278637
 21
317.2518704118289
 31
0
  0
LINE
  8
1
 62
2
 10
1367.259098278637
 20
317.2518704118289
 30
0
 11
1367.46743161197
 21
317.1346829118289
 31
0
  0
LINE
  8
1
 62
2
 10
1412.973158972351
 20
577.4447175326359
 30
0
 11
1423.252658972351
 21
577.4447175326359
 31
0
  0
LINE
  8
1
 62
2
 10
1423.252658972351
 20
553.003717532636
 30
0
 11
1412.973158972351
 21
553.003717532636
 31
0
  0
LINE
  8
1
 62
2
 10
1259.693658972351
 20
577.4447175326359
 30
0
 11
1269.97315897235
 21
577.4447175326359
 31
0
  0
LINE
  8
1
 62
2
 10
1269.97315897235
 20
553.003717532636
 30
0
 11
1259.693658972351
 21
553.003717532636
 31
0
  0
ARC
  8
1
 62
7
 10
1353.723158972351
 20
476.2655758654716
 30
0
 40
0.5
 50
0
 51
90
  0
ARC
  8
1
 62
7
 10
1353.723158972351
 20
470.1945080536062
 30
0
 40
0.5
 50
270
 51
0
  0
ARC
  8
1
 62
7
 10
1329.223158972351
 20
470.1945080536062
 30
0
 40
0.5
 50
180
 51
270
  0
ARC
  8
1
 62
7
 10
1329.223158972351
 20
476.2655758654716
 30
0
 40
0.5
 50
90
 51
180
  0
ARC
  8
1
 62
7
 10
1353.723158972351
 20
530.6192231139941
 30
0
 40
0.5
 50
0
 51
90
  0
ARC
  8
1
 62
7
 10
1353.723158972351
 20
524.5481553021285
 30
0
 40
0.5
 50
270
 51
0
  0
ARC
  8
1
 62
7
 10
1329.223158972351
 20
524.5481553021285
 30
0
 40
0.5
 50
180
 51
270
  0
ARC
  8
1
 62
7
 10
1329.223158972351
 20
530.6192231139941
 30
0
 40
0.5
 50
90
 51
180
  0
ARC
  8
1
 62
7
 10
1343.473158972351
 20
413.6456565483441
 30
0
 40
1
 50
270
 51
0
  0
ARC
  8
1
 62
7
 10
1339.473158972351
 20
413.6456565483441
 30
0
 40
1
 50
180
 51
270
  0
ARC
  8
1
 62
7
 10
1339.473158972351
 20
423.6456565483441
 30
0
 40
1
 50
90
 51
180
  0
ARC
  8
1
 62
7
 10
1343.473158972351
 20
423.6456565483441
 30
0
 40
1
 50
0
 51
90
  0
ARC
  8
1
 62
7
 10
1297.973158972351
 20
423.6456565483441
 30
0
 40
1
 50
90
 51
180
  0
ARC
  8
1
 62
7
 10
1297.973158972351
 20
413.6456565483441
 30
0
 40
1
 50
180
 51
270
  0
ARC
  8
1
 62
7
 10
1303.973158972351
 20
425.6456565483441
 30
0
 40
1
 50
90
 51
180
  0
ARC
  8
1
 62
7
 10
1303.973158972351
 20
427.1456565483441
 30
0
 40
0.5
 50
270
 51
0
  0
ARC
  8
1
 62
7
 10
1303.973158972351
 20
425.6456565483441
 30
0
 40
1
 50
90
 51
180
  0
ARC
  8
1
 62
7
 10
1378.973158972351
 20
427.1456565483441
 30
0
 40
0.5
 50
180
 51
270
  0
ARC
  8
1
 62
7
 10
1378.973158972351
 20
425.6456565483441
 30
0
 40
1
 50
0
 51
90
  0
ARC
  8
1
 62
7
 10
1384.973158972351
 20
423.6456565483441
 30
0
 40
1
 50
0
 51
90
  0
ARC
  8
1
 62
7
 10
1384.973158972351
 20
413.6456565483441
 30
0
 40
1
 50
270
 51
0
  0
ARC
  8
1
 62
7
 10
1341.973158972351
 20
352.695655293744
 30
0
 40
1
 50
270
 51
0
  0
ARC
  8
1
 62
7
 10
1340.973158972351
 20
352.695655293744
 30
0
 40
1
 50
180
 51
270
  0
ARC
  8
1
 62
7
 10
1338.973158972351
 20
362.195655293744
 30
0
 40
1
 50
0
 51
90
  0
ARC
  8
1
 62
7
 10
1343.973158972351
 20
362.195655293744
 30
0
 40
1
 50
90
 51
180
  0
ARC
  8
1
 62
7
 10
1306.723158972351
 20
363.195655293744
 30
0
 40
2.750000000000259
 50
29.78265641017826
 51
90
  0
ARC
  8
1
 62
7
 10
1307.473158972351
 20
385.445655293744
 30
0
 40
2
 50
270
 51
0
  0
ARC
  8
1
 62
7
 10
1271.973158972351
 20
363.945655293744
 30
0
 40
2
 50
90
 51
180
  0
ARC
  8
1
 62
7
 10
1271.973158972351
 20
385.445655293744
 30
0
 40
2
 50
180
 51
270
  0
ARC
  8
1
 62
7
 10
1307.473158972351
 20
403.695655293744
 30
0
 40
2
 50
0
 51
90
  0
ARC
  8
1
 62
7
 10
1376.473158972351
 20
363.195655293744
 30
0
 40
3
 50
90
 51
150.3439400745357
  0
ARC
  8
1
 62
7
 10
1375.473158972351
 20
385.195655293744
 30
0
 40
2
 50
180
 51
270
  0
ARC
  8
1
 62
7
 10
1375.473158972351
 20
403.695655293744
 30
0
 40
2
 50
90
 51
180
  0
ARC
  8
1
 62
7
 10
1336.973158972351
 20
355.695655293744
 30
0
 40
4
 50
180
 51
270
  0
ARC
  8
1
 62
7
 10
1327.973158972351
 20
358.195655293744
 30
0
 40
5
 50
0
 51
90
  0
ARC
  8
1
 62
7
 10
1345.973158972351
 20
355.695655293744
 30
0
 40
4
 50
270
 51
0
  0
ARC
  8
1
 62
7
 10
1354.973158972351
 20
358.195655293744
 30
0
 40
5
 50
90
 51
180
  0
ARC
  8
1
 62
7
 10
1410.973158972351
 20
364.195655293744
 30
0
 40
2
 50
0
 51
90
  0
ARC
  8
1
 62
7
 10
1410.973158972351
 20
385.195655293744
 30
0
 40
2
 50
270
 51
0
  0
ARC
  8
1
 62
7
 10
1322.177217426332
 20
487.8497150023246
 30
0
 40
10
 50
180
 51
202.4130884470879
  0
ARC
  8
1
 62
7
 10
1360.723158972351
 20
487.8497150023256
 30
0
 40
10
 50
270
 51
322.3315491906254
  0
ARC
  8
1
 62
7
 10
1360.723158972349
 20
487.8497150023228
 30
0
 40
9.999999999999508
 50
322.3315491906453
 51
324.8488137824584
  0
ARC
  8
1
 62
7
 10
1360.723158972353
 20
487.8497150023281
 30
0
 40
9.99999999999921
 50
324.8488137824201
 51
331.9871279193002
  0
ARC
  8
1
 62
7
 10
1360.723158972351
 20
487.8497150023256
 30
0
 40
9.999999999999996
 50
341.8051276612333
 51
357.9913424883846
  0
ARC
  8
1
 62
7
 10
1360.723158972352
 20
487.8497150023267
 30
0
 40
9.999999999999535
 50
331.9871279193102
 51
341.8051276612254
  0
ARC
  8
1
 62
7
 10
1308.973158972351
 20
438.645656548344
 30
0
 40
1
 50
180
 51
270
  0
ARC
  8
1
 62
7
 10
1373.973158972351
 20
438.645656548344
 30
0
 40
1
 50
270
 51
0
  0
ARC
  8
1
 62
7
 10
1375.973158972351
 20
443.645656548344
 30
0
 40
1
 50
90
 51
180
  0
ARC
  8
1
 62
7
 10
1306.973158972351
 20
443.645656548344
 30
0
 40
1
 50
0
 51
90
  0
ARC
  8
1
 62
7
 10
1368.723158972351
 20
493.5273845319893
 30
0
 40
2
 50
0
 51
90
  0
ARC
  8
1
 62
7
 10
1314.177217426332
 20
493.5273845319893
 30
0
 40
2
 50
90
 51
180
  0
ARC
  8
1
 62
7
 10
1314.177217426332
 20
492.8202777508026
 30
0
 40
2
 50
90
 51
180
  0
ARC
  8
1
 62
7
 10
1368.723158972351
 20
492.8202777508026
 30
0
 40
2
 50
0
 51
90
  0
ARC
  8
1
 62
7
 10
1322.177217426332
 20
487.8497150023256
 30
0
 40
9.999999999999252
 50
202.4130884470941
 51
270
  0
ARC
  8
1
 62
7
 10
1360.723158972351
 20
487.8497150023321
 30
0
 40
10
 50
357.9913424883472
 51
359.9999999999625
  0
ARC
  8
1
 62
7
 10
1375.871272767266
 20
494.645656548344
 30
0
 40
2.99999999999955
 50
8.130102354157053
 51
57.33037977072002
  0
ARC
  8
1
 62
7
 10
1307.075045177436
 20
494.645656548344
 30
0
 40
3
 50
90
 51
122.6696202292836
  0
ARC
  8
1
 62
7
 10
1307.075045177436
 20
494.645656548344
 30
0
 40
3.000000000000101
 50
122.6696202292836
 51
171.869897645843
  0
ARC
  8
1
 62
7
 10
1375.871272767266
 20
494.645656548344
 30
0
 40
2.999999999999978
 50
57.33037977072002
 51
90
  0
ARC
  8
1
 62
7
 10
1298.473158972351
 20
455.145656548344
 30
0
 40
1.5
 50
270
 51
0
  0
ARC
  8
1
 62
7
 10
1384.473158972351
 20
455.145656548344
 30
0
 40
1.5
 50
180
 51
270
  0
ARC
  8
1
 62
7
 10
1297.973158972351
 20
452.145656548344
 30
0
 40
1.5
 50
90
 51
180
  0
ARC
  8
1
 62
7
 10
1384.973158972351
 20
452.145656548344
 30
0
 40
1.5
 50
0
 51
90
  0
ARC
  8
1
 62
7
 10
1376.887915107447
 20
442.3168128284979
 30
0
 40
1.500818181818068
 50
8.170915410688076
 51
85.00000000002689
  0
ARC
  8
1
 62
7
 10
1376.887915107447
 20
439.8993447120375
 30
0
 40
1.500818181818146
 50
274.9999999999731
 51
351.8290845893076
  0
ARC
  8
1
 62
7
 10
1271.673158972351
 20
552.0079163538471
 30
0
 40
1.700000000000022
 50
73.99999999999626
 51
180
  0
ARC
  8
1
 62
7
 10
1271.973158972351
 20
573.9762407783856
 30
0
 40
2
 50
180
 51
253.9999999999988
  0
ARC
  8
1
 62
7
 10
1410.973158972351
 20
573.7161659194201
 30
0
 40
2.000000000000042
 50
286.0000000000012
 51
0
  0
ARC
  8
1
 62
7
 10
1314.177217426332
 20
547.3288387350947
 30
0
 40
2
 50
90
 51
180
  0
ARC
  8
1
 62
7
 10
1368.723158972351
 20
547.3288387350947
 30
0
 40
2
 50
0
 51
90
  0
ARC
  8
1
 62
7
 10
1362.223158972351
 20
541.211829377211
 30
0
 40
8.5
 50
270
 51
0
  0
ARC
  8
1
 62
7
 10
1362.223158972351
 20
540.8582759866175
 30
0
 40
8.5
 50
270
 51
0
  0
ARC
  8
1
 62
7
 10
1320.677217426332
 20
541.211829377211
 30
0
 40
8.5
 50
180
 51
270
  0
ARC
  8
1
 62
7
 10
1320.677217426332
 20
540.8582759866175
 30
0
 40
8.5
 50
180
 51
270
  0
ARC
  8
1
 62
7
 10
1360.723158972351
 20
541.9924119948011
 30
0
 40
10
 50
357.9913424883468
 51
359.9999999999629
  0
ARC
  8
1
 62
7
 10
1360.723158972351
 20
541.9924119947946
 30
0
 40
9.999999999999963
 50
331.9871279193167
 51
341.8051276612324
  0
ARC
  8
1
 62
7
 10
1360.723158972351
 20
541.9924119947946
 30
0
 40
10.00000000000005
 50
341.8051276612324
 51
357.991342488384
  0
ARC
  8
1
 62
7
 10
1360.723158972353
 20
541.9924119947978
 30
0
 40
9.999999999999668
 50
324.8488137824164
 51
331.9871279192951
  0
ARC
  8
1
 62
7
 10
1360.723158972347
 20
541.9924119947885
 30
0
 40
9.999999999999393
 50
322.3315491906653
 51
324.8488137824798
  0
ARC
  8
1
 62
7
 10
1322.177217426332
 20
541.9924119947934
 30
0
 40
10
 50
180
 51
202.4130884470873
  0
ARC
  8
0
 62
7
 10
1345.542290912143
 20
475.0263951622641
 30
0
 40
1.718802892878645
 50
266.6750457458792
 51
275.4218690389782
  0
ARC
  8
0
 62
7
 10
1345.498558713633
 20
475.3717758868235
 30
0
 40
2.066799309328766
 50
275.7240983539861
 51
286.2021801110934
  0
ARC
  8
0
 62
7
 10
1345.376106091222
 20
475.7445812245294
 30
0
 40
2.459003052389129
 50
286.5182793796757
 51
298.9539196960703
  0
ARC
  8
0
 62
7
 10
1295.176065291606
 20
514.9077310254568
 30
0
 40
61.75271225771443
 50
316.4626075603251
 51
316.6639949017248
  0
ARC
  8
0
 62
7
 10
1331.963949525054
 20
479.9270285909135
 30
0
 40
10.98858934359464
 50
315.2272455761641
 51
316.5557673689676
  0
ARC
  8
0
 62
7
 10
1335.295309800872
 20
476.6219873326164
 30
0
 40
6.295907913288644
 50
309.9909255903999
 51
315.2272604206983
  0
ARC
  8
0
 62
7
 10
1363.799519346329
 20
448.2408542522792
 30
0
 40
34.81081623098616
 50
135.6943451355276
 51
136.1047651243284
  0
ARC
  8
0
 62
7
 10
1347.597923851918
 20
464.0545084458004
 30
0
 40
12.17095413971052
 50
134.9731493495296
 51
135.6945381183307
  0
ARC
  8
0
 62
7
 10
1344.701177421589
 20
466.9538866117296
 30
0
 40
8.072474711275286
 50
133.5926032836079
 51
134.9727251819051
  0
ARC
  8
0
 62
7
 10
1345.363176179842
 20
466.2183375010303
 30
0
 40
9.061711948052396
 50
130.5243367854014
 51
133.4173308558996
  0
ARC
  8
0
 62
7
 10
1342.592612492577
 20
473.0527519532766
 30
0
 40
1.242646409920442
 50
318.6813280027736
 51
329.8795967184723
  0
ARC
  8
0
 62
7
 10
1342.864971825292
 20
472.9032934305427
 30
0
 40
0.9320912622320742
 50
329.4248679771147
 51
340.6009138199109
  0
ARC
  8
0
 62
7
 10
1343.11129880669
 20
472.8219355387339
 30
0
 40
0.6727452230284168
 50
340.1684731595902
 51
351.2936691954989
  0
ARC
  8
0
 62
7
 10
1343.279063358263
 20
472.7987069384579
 30
0
 40
0.5034035624398067
 50
351.016685148479
 51
1.201556571873756
  0
ARC
  8
0
 62
7
 10
1343.39752208049
 20
472.8038614089467
 30
0
 40
0.3848720572171324
 50
0.8041744663121258
 51
14.19886403264214
  0
ARC
  8
0
 62
7
 10
1343.477089715539
 20
472.827150467218
 30
0
 40
0.3020381730733969
 50
13.61827017962579
 51
39.70484417390777
  0
ARC
  8
0
 62
7
 10
1343.467026264385
 20
472.8121961765531
 30
0
 40
0.319374079673744
 50
40.6155455805014
 51
66.46428072256192
  0
ARC
  8
0
 62
7
 10
1343.423912763271
 20
472.6976325661122
 30
0
 40
0.4416672167131038
 50
67.27129166743869
 51
82.79245651196892
  0
ARC
  8
0
 62
7
 10
1343.405708599042
 20
472.5088709015336
 30
0
 40
0.6312463271340116
 50
83.30279098562052
 51
94.63330600912791
  0
ARC
  8
0
 62
7
 10
1343.429904681469
 20
472.2747272135877
 30
0
 40
0.8665949950890718
 50
94.97732764173905
 51
104.1072484949813
  0
ARC
  8
0
 62
7
 10
1343.517967569507
 20
471.9678407150899
 30
0
 40
1.185737852983482
 50
104.6198037181086
 51
115.7787876144799
  0
ARC
  8
0
 62
7
 10
1343.660869142405
 20
471.6938545330158
 30
0
 40
1.494634804062109
 50
116.1438864370835
 51
129.8179120069958
  0
ARC
  8
0
 62
7
 10
1343.650620944132
 20
471.7006052702729
 30
0
 40
1.482891488820684
 50
129.6808000712807
 51
139.0437663054896
  0
ARC
  8
0
 62
7
 10
1343.464609518425
 20
471.8518605329245
 30
0
 40
1.243292382763097
 50
138.6890265670512
 51
149.8826782971409
  0
ARC
  8
0
 62
7
 10
1343.192186513251
 20
472.0013575714604
 30
0
 40
0.9326622736995164
 50
149.4293381749271
 51
160.5997014659147
  0
ARC
  8
0
 62
7
 10
1342.9452736558
 20
472.0829254203391
 30
0
 40
0.6726940078415458
 50
160.1670523944352
 51
171.293715316543
  0
ARC
  8
0
 62
7
 10
1342.777842816734
 20
472.1061082036447
 30
0
 40
0.5036891185997837
 50
171.0174981448871
 51
181.1968966379082
  0
ARC
  8
0
 62
7
 10
1342.659131921138
 20
472.1009841076368
 30
0
 40
0.3849061667726332
 50
180.8034192553263
 51
194.196197625024
  0
ARC
  8
0
 62
7
 10
1342.579292292722
 20
472.0776200154594
 30
0
 40
0.3017904497077869
 50
193.6132487492066
 51
219.7172885492817
  0
ARC
  8
0
 62
7
 10
1342.589684579897
 20
472.0928682089092
 30
0
 40
0.3195683745209155
 50
220.6296218986899
 51
246.4697174738196
  0
ARC
  8
0
 62
7
 10
1342.632900821844
 20
472.2077343721377
 30
0
 40
0.4421806744661097
 50
247.2777339516299
 51
262.7843541093089
  0
ARC
  8
0
 62
7
 10
1342.651003462584
 20
472.3958683637948
 30
0
 40
0.6311239745828846
 50
263.299207649879
 51
274.6333230083359
  0
ARC
  8
0
 62
7
 10
1342.627004066228
 20
472.6288565672849
 30
0
 40
0.8653044590233101
 50
274.9710524254736
 51
284.1148556552413
  0
ARC
  8
0
 62
7
 10
1342.53935681546
 20
472.9350316942674
 30
0
 40
1.183655145418813
 50
284.6151470680647
 51
295.7933475219448
  0
ARC
  8
0
 62
7
 10
1342.396253244644
 20
473.2095775367559
 30
0
 40
1.493145445414559
 50
296.1534329117528
 51
309.8402035231563
  0
ARC
  8
0
 62
7
 10
1342.407176625555
 20
473.2034096565017
 30
0
 40
1.481418128439498
 50
309.6686389999904
 51
319.0403260000021
  0
ARC
  8
0
 62
7
 10
1343.638473142166
 20
472.0325552802838
 30
0
 40
2.052169342365068
 50
99.5622936122375
 51
106.111857184132
  0
ARC
  8
0
 62
7
 10
1343.596900624038
 20
472.3284175195088
 30
0
 40
1.753530876510189
 50
89.55297322840653
 51
99.82871253910443
  0
ARC
  8
0
 62
7
 10
1343.607572675761
 20
472.6461969847622
 30
0
 40
1.435701193764799
 50
78.07240234273611
 51
89.87991658823256
  0
ARC
  8
0
 62
7
 10
1343.667324087431
 20
472.895323016075
 30
0
 40
1.179625364310261
 50
64.78121738918304
 51
78.41109638426046
  0
ARC
  8
0
 62
7
 10
1343.747641775417
 20
473.0506343145221
 30
0
 40
1.004916699689663
 50
39.85527632880113
 51
65.15113638195335
  0
ARC
  8
0
 62
7
 10
1343.754753099587
 20
473.0584618047242
 30
0
 40
0.9944423882453357
 50
26.63004200769102
 51
39.7716410077002
  0
ARC
  8
0
 62
7
 10
1343.637585169355
 20
473.0118144193749
 30
0
 40
1.120141973489458
 50
8.053801308460487
 51
26.07664009824961
  0
ARC
  8
0
 62
7
 10
1343.356731740952
 20
472.9847730815318
 30
0
 40
1.402070281666434
 50
353.9064145925083
 51
7.539966323185539
  0
ARC
  8
0
 62
7
 10
1342.969328000761
 20
473.041988517472
 30
0
 40
1.79342802242654
 50
340.6705988787172
 51
353.40265184603
  0
ARC
  8
0
 62
7
 10
1342.539242200238
 20
473.2120575468055
 30
0
 40
2.255635852824017
 50
326.988050726301
 51
340.2102073503094
  0
ARC
  8
0
 62
7
 10
1342.181955574151
 20
473.4675819224557
 30
0
 40
2.694525690599577
 50
309.8083257403598
 51
326.5709153524433
  0
ARC
  8
0
 62
7
 10
1342.182887494762
 20
473.4593314117442
 30
0
 40
2.68759497026583
 50
300.017369847827
 51
309.9056720958394
  0
ARC
  8
0
 62
7
 10
1342.337887724237
 20
473.1602603077288
 30
0
 40
2.35114679413999
 50
286.001245298412
 51
300.3927431872915
  0
ARC
  8
0
 62
7
 10
1342.444541941992
 20
472.7431252566798
 30
0
 40
1.920813675949876
 50
273.9104758042431
 51
286.3730575903536
  0
ARC
  8
0
 62
7
 10
1342.459891201727
 20
472.352743846287
 30
0
 40
1.530336147994201
 50
261.267187251431
 51
274.3339107265454
  0
ARC
  8
0
 62
7
 10
1342.402134288143
 20
472.0432212317747
 30
0
 40
1.215674648288766
 50
246.3214825404284
 51
261.7429072665337
  0
ARC
  8
0
 62
7
 10
1342.311691937017
 20
471.8570508615975
 30
0
 40
1.008887518228393
 50
219.8875068774437
 51
246.7793060060345
  0
ARC
  8
0
 62
7
 10
1342.338813273089
 20
471.8671482011034
 30
0
 40
1.03621798589292
 50
195.6498705971033
 51
219.3542134098097
  0
ARC
  8
0
 62
7
 10
1342.561751882494
 20
471.9161308793042
 30
0
 40
1.264171880385136
 50
179.6512415986358
 51
195.061902030339
  0
ARC
  8
0
 62
7
 10
1342.880358195258
 20
471.9039556675392
 30
0
 40
1.582879495224439
 50
167.4930455578455
 51
179.2807374178512
  0
ARC
  8
0
 62
7
 10
1340.6280258943
 20
473.690180576174
 30
0
 40
2.023158304380343
 50
347.4100174323439
 51
349.0341789673398
  0
ARC
  8
0
 62
7
 10
1335.269434073158
 20
474.887174314632
 30
0
 40
7.513814030816969
 50
346.390143021043
 51
347.4086018937423
  0
ARC
  8
0
 62
7
 10
1335.103500707677
 20
473.0531755706713
 30
0
 40
1.243329913602671
 50
318.6836905085576
 51
329.8771477120546
  0
ARC
  8
0
 62
7
 10
1335.376406025332
 20
472.9033119067107
 30
0
 40
0.9320990102610295
 50
329.4263044562014
 51
340.6034046197759
  0
ARC
  8
0
 62
7
 10
1335.622985746669
 20
472.8218626422279
 30
0
 40
0.6724839156701552
 50
340.1719483446958
 51
351.3017710468179
  0
ARC
  8
0
 62
7
 10
1335.790647291455
 20
472.7986536005378
 30
0
 40
0.5032465971687247
 50
351.0269993735075
 51
1.214663622410894
  0
ARC
  8
0
 62
7
 10
1335.909360790576
 20
472.80383126714
 30
0
 40
0.3844592183427815
 50
0.8182449050138091
 51
14.22638281539636
  0
ARC
  8
0
 62
7
 10
1335.988811755362
 20
472.8271333280612
 30
0
 40
0.3017338012786894
 50
13.6449215242407
 51
39.75710586025338
  0
ARC
  8
0
 62
7
 10
1335.978474145018
 20
472.8123592537956
 30
0
 40
0.3191647926640171
 50
40.60921836491418
 51
66.47136353248564
  0
ARC
  8
0
 62
7
 10
1335.935249762656
 20
472.6976432964718
 30
0
 40
0.441641861044791
 50
67.27116060163104
 51
82.79177730260072
  0
ARC
  8
0
 62
7
 10
1335.917055199659
 20
472.5089643436696
 30
0
 40
0.6311376587331153
 50
83.30232621078763
 51
94.63371819162224
  0
ARC
  8
0
 62
7
 10
1335.940956811942
 20
472.276555372459
 30
0
 40
0.8647326428617612
 50
94.96820649511224
 51
104.1167374816399
  0
ARC
  8
0
 62
7
 10
1336.029025260787
 20
471.9688141453532
 30
0
 40
1.184705303379912
 50
104.6173618858505
 51
115.7843637294286
  0
ARC
  8
0
 62
7
 10
1336.171757490644
 20
471.695008745154
 30
0
 40
1.493366102081656
 50
116.1457861479146
 51
129.8286798461209
  0
ARC
  8
0
 62
7
 10
1336.163508173774
 20
471.6990943238596
 30
0
 40
1.484949544720425
 50
129.6852084722932
 51
139.0367132109821
  0
ARC
  8
0
 62
7
 10
1335.976640825063
 20
471.8512993282885
 30
0
 40
1.244081636064928
 50
138.6880272629968
 51
149.8755017775946
  0
ARC
  8
0
 62
7
 10
1335.70322728407
 20
472.0014381165327
 30
0
 40
0.9322734827395967
 50
149.4231422423679
 51
160.5982301662712
  0
ARC
  8
0
 62
7
 10
1335.456574964774
 20
472.0829094864255
 30
0
 40
0.672583226900567
 50
160.1645618233123
 51
171.2923908490142
  0
ARC
  8
0
 62
7
 10
1335.288886621003
 20
472.1061321849252
 30
0
 40
0.5033178352452187
 50
171.0155787771305
 51
181.2017439945953
  0
ARC
  8
0
 62
7
 10
1335.170320413242
 20
472.1009865429672
 30
0
 40
0.3846789697928607
 50
180.8058706514883
 51
194.2058027620389
  0
ARC
  8
0
 62
7
 10
1335.090705338682
 20
472.0776662178101
 30
0
 40
0.3017911541042418
 50
193.6230941251166
 51
219.7285802380305
  0
ARC
  8
0
 62
7
 10
1335.101123026409
 20
472.0928478216103
 30
0
 40
0.3195459364710583
 50
220.6282556552694
 51
246.4698107109253
  0
ARC
  8
0
 62
7
 10
1335.144335386448
 20
472.2076762202874
 30
0
 40
0.4421219130831662
 50
247.2764159789132
 51
262.7844841079053
  0
ARC
  8
0
 62
7
 10
1335.16244344663
 20
472.3957970010063
 30
0
 40
0.6310527362781949
 50
263.2987180138375
 51
274.6335288138927
  0
ARC
  8
0
 62
7
 10
1335.13844934579
 20
472.6287403022514
 30
0
 40
0.8651880430951673
 50
274.9711386414795
 51
284.115748643642
  0
ARC
  8
0
 62
7
 10
1335.050826946367
 20
472.9348655284778
 30
0
 40
1.183484294856478
 50
284.6152944584181
 51
295.7947196417065
  0
ARC
  8
0
 62
7
 10
1334.907610682872
 20
473.2096491846315
 30
0
 40
1.49323791407538
 50
296.1544208457367
 51
309.8401654848235
  0
ARC
  8
0
 62
7
 10
1334.918752706049
 20
473.2033125590116
 30
0
 40
1.481241139788664
 50
309.6662680094611
 51
319.0399120094661
  0
ARC
  8
0
 62
7
 10
1334.929666903034
 20
472.8713187869885
 30
0
 40
2.051192838085718
 50
279.5637989053993
 51
286.1150326430908
  0
ARC
  8
0
 62
7
 10
1334.971322095124
 20
472.575008318203
 30
0
 40
1.752098870096803
 50
269.5477841659974
 51
279.8304615113894
  0
ARC
  8
0
 62
7
 10
1334.960619836576
 20
472.2591541391137
 30
0
 40
1.436193521346104
 50
258.0723414311328
 51
269.875278283629
  0
ARC
  8
0
 62
7
 10
1334.901216674486
 20
472.0109095637056
 30
0
 40
1.181051132215733
 50
244.7890520892117
 51
258.4029213812142
  0
ARC
  8
0
 62
7
 10
1334.820429300944
 20
471.854442915509
 30
0
 40
1.005097712873285
 50
219.8640191530119
 51
245.156436936232
  0
ARC
  8
0
 62
7
 10
1334.813090025734
 20
471.8460692633481
 30
0
 40
0.9940985738779532
 50
206.6203896219462
 51
219.7647062389501
  0
ARC
  8
0
 62
7
 10
1334.931132128636
 20
471.8930868031262
 30
0
 40
1.120747698474127
 50
188.0534115959804
 51
206.0652615780943
  0
ARC
  8
0
 62
7
 10
1335.211545173345
 20
471.9199797212398
 30
0
 40
1.402220002369378
 50
173.904200507636
 51
187.5362258922337
  0
ARC
  8
0
 62
7
 10
1335.598599879311
 20
471.8628682951041
 30
0
 40
1.793219539982185
 50
160.6691240869796
 51
173.4029826217702
  0
ARC
  8
0
 62
7
 10
1336.029682627499
 20
471.6924297887277
 30
0
 40
2.256490911131828
 50
146.9910805580966
 51
160.2087358999989
  0
ARC
  8
0
 62
7
 10
1336.386264678331
 20
471.4373370209656
 30
0
 40
2.694554065243247
 50
129.8092228613506
 51
146.5729906533432
  0
ARC
  8
0
 62
7
 10
1336.384351587457
 20
471.44690340236
 30
0
 40
2.685984567160646
 50
120.0153578154666
 51
129.9085230286909
  0
ARC
  8
0
 62
7
 10
1336.230203653427
 20
471.7446225038221
 30
0
 40
2.351133210703936
 50
106.001222665062
 51
120.3919484940381
  0
ARC
  8
0
 62
7
 10
1336.123575649204
 20
472.1614120445101
 30
0
 40
1.921138976256985
 50
93.91075382835896
 51
106.370877879686
  0
ARC
  8
0
 62
7
 10
1336.10815562454
 20
472.5518500096572
 30
0
 40
1.530599768771622
 50
81.26721903977594
 51
94.33168826283416
  0
ARC
  8
0
 62
7
 10
1336.166038568784
 20
472.8620932896379
 30
0
 40
1.215206972509303
 50
66.316229345625
 51
81.74384487556381
  0
ARC
  8
0
 62
7
 10
1336.256329658608
 20
473.047790669855
 30
0
 40
1.008913276634196
 50
39.88386297058004
 51
66.77588744928337
  0
ARC
  8
0
 62
7
 10
1336.238311888759
 20
473.042518562384
 30
0
 40
1.026147256178475
 50
17.32803600316078
 51
39.46464000313532
  0
ARC
  8
0
 62
7
 10
1336.022808055967
 20
472.9900628349053
 30
0
 40
1.247573811188959
 50
0.2586513335211036
 51
16.67996079782046
  0
ARC
  8
0
 62
7
 10
1335.705231875996
 20
472.9984758086065
 30
0
 40
1.565139749772852
 50
348.2748028406348
 51
359.8981928379363
  0
ARC
  8
0
 62
7
 10
1335.587864190097
 20
473.0189377189952
 30
0
 40
1.68423848738687
 50
343.3758325416436
 51
347.9824194734505
  0
ARC
  8
0
 62
7
 10
1340.012329265412
 20
470.7892606629975
 30
0
 40
4.140673525547752
 50
172.0422530222007
 51
178.5102310641998
  0
ARC
  8
0
 62
7
 10
1339.485358390447
 20
470.8769783158209
 30
0
 40
3.606660128928021
 50
165.4054527325983
 51
172.2633508749022
  0
ARC
  8
0
 62
7
 10
1350.632009831853
 20
468.8778832662584
 30
0
 40
13.9198736673439
 50
164.7591934711324
 51
165.2789240549315
  0
ARC
  8
0
 62
7
 10
1342.655842400322
 20
470.9634897119222
 30
0
 40
5.675556232523596
 50
165.1809136619362
 51
168.0850487024366
  0
ARC
  8
0
 62
7
 10
1340.19400254224
 20
471.4940222812332
 30
0
 40
3.157241444529314
 50
168.2816227579651
 51
170.2378023410596
  0
ARC
  8
0
 62
7
 10
1343.039948103905
 20
471.0146800960143
 30
0
 40
6.043263133885034
 50
170.3340838833694
 51
172.06580698077
  0
ARC
  8
0
 62
7
 10
1348.321034543239
 20
470.3065719791157
 30
0
 40
11.37157288764626
 50
172.2051146282168
 51
175.9637585386166
  0
ARC
  8
0
 62
7
 10
1343.820423778652
 20
470.6132912152036
 30
0
 40
6.860544223979661
 50
175.8733282604817
 51
177.6306701430825
  0
ARC
  8
0
 62
7
 10
1345.542290912145
 20
529.3800424107866
 30
0
 40
1.718802892878654
 50
266.6750457458412
 51
275.4218690389398
  0
ARC
  8
0
 62
7
 10
1345.498558713633
 20
529.7254231353458
 30
0
 40
2.066799309328856
 50
275.7240983540111
 51
286.2021801110943
  0
ARC
  8
0
 62
7
 10
1345.376106091224
 20
530.0982284730523
 30
0
 40
2.459003052389038
 50
286.5182793796266
 51
298.9539196960413
  0
ARC
  8
0
 62
7
 10
1295.176065291654
 20
569.26137827403
 30
0
 40
61.75271225771535
 50
316.4626075602608
 51
316.6639949016606
  0
ARC
  8
0
 62
7
 10
1331.963949525055
 20
534.2806758394356
 30
0
 40
10.98858934359431
 50
315.2272455761641
 51
316.5557673689677
  0
ARC
  8
0
 62
7
 10
1335.295309800873
 20
530.9756345811389
 30
0
 40
6.295907913288731
 50
309.9909255903992
 51
315.2272604206971
  0
ARC
  8
0
 62
7
 10
1363.799519346404
 20
502.5945015008796
 30
0
 40
34.81081623098535
 50
135.6943451357058
 51
136.1047651245052
  0
ARC
  8
0
 62
7
 10
1347.597923851925
 20
518.4081556943289
 30
0
 40
12.17095413971127
 50
134.973149349573
 51
135.6945381183746
  0
ARC
  8
0
 62
7
 10
1344.701177421585
 20
521.3075338602472
 30
0
 40
8.072474711276037
 50
133.5926032835649
 51
134.9727251818609
  0
ARC
  8
0
 62
7
 10
1345.363176179843
 20
520.5719847495526
 30
0
 40
9.061711948053178
 50
130.5243367854067
 51
133.4173308559048
  0
ARC
  8
0
 62
7
 10
1342.592612492575
 20
527.4063992017962
 30
0
 40
1.24264640992044
 50
318.6813280029166
 51
329.8795967186466
  0
ARC
  8
0
 62
7
 10
1342.864971825293
 20
527.2569406790648
 30
0
 40
0.9320912622320965
 50
329.4248679771399
 51
340.6009138199321
  0
ARC
  8
0
 62
7
 10
1343.111298806691
 20
527.1755827872562
 30
0
 40
0.6727452230286112
 50
340.1684731596012
 51
351.2936691955066
  0
ARC
  8
0
 62
7
 10
1343.279063358264
 20
527.1523541869801
 30
0
 40
0.5034035624388729
 50
351.0166851484885
 51
1.201556571895332
  0
ARC
  8
0
 62
7
 10
1343.397522080491
 20
527.157508657469
 30
0
 40
0.3848720572162254
 50
0.8041744663394103
 51
14.19886403263433
  0
ARC
  8
0
 62
7
 10
1343.47708971554
 20
527.1807977157404
 30
0
 40
0.3020381730735911
 50
13.61827017959467
 51
39.70484417387192
  0
ARC
  8
0
 62
7
 10
1343.467026264386
 20
527.1658434250754
 30
0
 40
0.319374079673707
 50
40.61554558049365
 51
66.46428072259526
  0
ARC
  8
0
 62
7
 10
1343.423912763272
 20
527.0512798146344
 30
0
 40
0.4416672167130684
 50
67.27129166746876
 51
82.79245651199912
  0
ARC
  8
0
 62
7
 10
1343.405708599042
 20
526.862518150056
 30
0
 40
0.6312463271340614
 50
83.30279098553794
 51
94.63330600904476
  0
ARC
  8
0
 62
7
 10
1343.429904681472
 20
526.6283744621104
 30
0
 40
0.8665949950890227
 50
94.97732764187515
 51
104.1072484951226
  0
ARC
  8
0
 62
7
 10
1343.517967569504
 20
526.3214879636105
 30
0
 40
1.185737852983937
 50
104.6198037179099
 51
115.7787876143083
  0
ARC
  8
0
 62
7
 10
1343.660869142406
 20
526.0475017815382
 30
0
 40
1.494634804062663
 50
116.1438864371119
 51
129.8179120070226
  0
ARC
  8
0
 62
7
 10
1343.650620944135
 20
526.0542525187985
 30
0
 40
1.482891488820122
 50
129.6808000714472
 51
139.0437663056393
  0
ARC
  8
0
 62
7
 10
1343.464609518422
 20
526.2055077814431
 30
0
 40
1.243292382762633
 50
138.6890265668057
 51
149.8826782969094
  0
ARC
  8
0
 62
7
 10
1343.192186513251
 20
526.3550048199834
 30
0
 40
0.9326622736982195
 50
149.4293381749247
 51
160.5997014659376
  0
ARC
  8
0
 62
7
 10
1342.9452736558
 20
526.4365726688615
 30
0
 40
0.672694007841565
 50
160.1670523944307
 51
171.293715316543
  0
ARC
  8
0
 62
7
 10
1342.777842816735
 20
526.4597554521673
 30
0
 40
0.5036891186008622
 50
171.0174981449392
 51
181.196896637925
  0
ARC
  8
0
 62
7
 10
1342.659131921138
 20
526.4546313561631
 30
0
 40
0.3849061667726866
 50
180.8034192558932
 51
194.1961976255986
  0
ARC
  8
0
 62
7
 10
1342.579292292723
 20
526.4312672639816
 30
0
 40
0.3017904497079276
 50
193.6132487491335
 51
219.7172885492126
  0
ARC
  8
0
 62
7
 10
1342.589684579898
 20
526.4465154574317
 30
0
 40
0.3195683745209525
 50
220.6296218986977
 51
246.4697174738359
  0
ARC
  8
0
 62
7
 10
1342.632900821844
 20
526.56138162066
 30
0
 40
0.4421806744657583
 50
247.2777339517386
 51
262.7843541094542
  0
ARC
  8
0
 62
7
 10
1342.651003462585
 20
526.7495156123172
 30
0
 40
0.6311239745828846
 50
263.299207649879
 51
274.6333230082326
  0
ARC
  8
0
 62
7
 10
1342.627004066229
 20
526.9825038158073
 30
0
 40
0.865304459023288
 50
274.9710524254132
 51
284.1148556552413
  0
ARC
  8
0
 62
7
 10
1342.539356815461
 20
527.2886789427897
 30
0
 40
1.183655145418758
 50
284.6151470680655
 51
295.7933475219436
  0
ARC
  8
0
 62
7
 10
1342.396253244645
 20
527.5632247852781
 30
0
 40
1.493145445414408
 50
296.1534329117459
 51
309.8402035231566
  0
ARC
  8
0
 62
7
 10
1342.407176625555
 20
527.5570569050228
 30
0
 40
1.481418128439028
 50
309.6686390000511
 51
319.0403260000253
  0
ARC
  8
0
 62
7
 10
1343.638473142166
 20
526.3862025288058
 30
0
 40
2.052169342365254
 50
99.56229361221087
 51
106.1118571841036
  0
ARC
  8
0
 62
7
 10
1343.596900624039
 20
526.6820647680314
 30
0
 40
1.75353087650996
 50
89.55297322841389
 51
99.82871253911334
  0
ARC
  8
0
 62
7
 10
1343.607572675761
 20
526.9998442332845
 30
0
 40
1.435701193764931
 50
78.07240234270013
 51
89.87991658819627
  0
ARC
  8
0
 62
7
 10
1343.66732408743
 20
527.248970264598
 30
0
 40
1.179625364309951
 50
64.78121738906607
 51
78.41109638415588
  0
ARC
  8
0
 62
7
 10
1343.747641775418
 20
527.4042815630445
 30
0
 40
1.004916699688717
 50
39.85527632883768
 51
65.15113638194877
  0
ARC
  8
0
 62
7
 10
1343.754753099588
 20
527.4121090532466
 30
0
 40
0.9944423882447264
 50
26.63004200773793
 51
39.77164100772869
  0
ARC
  8
0
 62
7
 10
1343.637585169355
 20
527.3654616678986
 30
0
 40
1.120141973489314
 50
8.053801308408666
 51
26.07664009821304
  0
ARC
  8
0
 62
7
 10
1343.356731740953
 20
527.3384203300543
 30
0
 40
1.40207028166556
 50
353.9064145924928
 51
7.539966323195021
  0
ARC
  8
0
 62
7
 10
1342.969328000761
 20
527.3956357659947
 30
0
 40
1.793428022427706
 50
340.6705988787206
 51
353.4026518460161
  0
ARC
  8
0
 62
7
 10
1342.539242200239
 20
527.5657047953292
 30
0
 40
2.255635852824512
 50
326.9880507262816
 51
340.2102073502801
  0
ARC
  8
0
 62
7
 10
1342.181955574152
 20
527.821229170978
 30
0
 40
2.694525690599126
 50
309.8083257403426
 51
326.5709153524525
  0
ARC
  8
0
 62
7
 10
1342.182887494763
 20
527.8129786602666
 30
0
 40
2.687594970265338
 50
300.017369847833
 51
309.9056720958207
  0
ARC
  8
0
 62
7
 10
1342.337887724237
 20
527.5139075562512
 30
0
 40
2.351146794140045
 50
286.0012452984116
 51
300.3927431873177
  0
ARC
  8
0
 62
7
 10
1342.444541941992
 20
527.0967725052021
 30
0
 40
1.920813675949933
 50
273.9104758042429
 51
286.3730575903536
  0
ARC
  8
0
 62
7
 10
1342.459891201727
 20
526.7063910948094
 30
0
 40
1.530336147994254
 50
261.2671872514744
 51
274.3339107265451
  0
ARC
  8
0
 62
7
 10
1342.402134288142
 20
526.3968684802977
 30
0
 40
1.215674648289246
 50
246.3214825404969
 51
261.7429072666455
  0
ARC
  8
0
 62
7
 10
1342.311691937018
 20
526.21069811012
 30
0
 40
1.0088875182292
 50
219.887506877418
 51
246.7793060059985
  0
ARC
  8
0
 62
7
 10
1342.338813273089
 20
526.2207954496258
 30
0
 40
1.03621798589292
 50
195.6498705971033
 51
219.3542134098122
  0
ARC
  8
0
 62
7
 10
1342.561751882495
 20
526.2697781278273
 30
0
 40
1.264171880386043
 50
179.6512415986566
 51
195.0619020303581
  0
ARC
  8
0
 62
7
 10
1342.880358195258
 20
526.2576029160571
 30
0
 40
1.582879495224498
 50
167.4930455576837
 51
179.2807374176783
  0
ARC
  8
0
 62
7
 10
1340.628025894291
 20
528.0438278246561
 30
0
 40
2.023158304382235
 50
347.410017433522
 51
349.0341789685193
  0
ARC
  8
0
 62
7
 10
1335.269434073157
 20
529.2408215631518
 30
0
 40
7.513814030818189
 50
346.3901430210635
 51
347.4086018937643
  0
ARC
  8
0
 62
7
 10
1335.103500707676
 20
527.4068228191916
 30
0
 40
1.243329913602782
 50
318.6836905086946
 51
329.8771477121534
  0
ARC
  8
0
 62
7
 10
1335.376406025334
 20
527.2569591552349
 30
0
 40
0.9320990102603374
 50
329.4263044560262
 51
340.6034046196638
  0
ARC
  8
0
 62
7
 10
1335.622985746668
 20
527.1755098907465
 30
0
 40
0.6724839156704973
 50
340.1719483450719
 51
351.3017710471456
  0
ARC
  8
0
 62
7
 10
1335.790647291455
 20
527.1523008490644
 30
0
 40
0.5032465971693896
 50
351.0269993730281
 51
1.214663621923426
  0
ARC
  8
0
 62
7
 10
1335.909360790577
 20
527.1574785156578
 30
0
 40
0.3844592183428474
 50
0.8182449056999184
 51
14.22638281610302
  0
ARC
  8
0
 62
7
 10
1335.988811755361
 20
527.1807805765849
 30
0
 40
0.3017338012792782
 50
13.64492152396919
 51
39.75710585984163
  0
ARC
  8
0
 62
7
 10
1335.978474145018
 20
527.1660065023179
 30
0
 40
0.3191647926647075
 50
40.60921836480791
 51
66.47136353234002
  0
ARC
  8
0
 62
7
 10
1335.935249762657
 20
527.0512905449938
 30
0
 40
0.4416418610452104
 50
67.27116060165383
 51
82.79177730260628
  0
ARC
  8
0
 62
7
 10
1335.91705519966
 20
526.8626115921918
 30
0
 40
0.6311376587332283
 50
83.30232621078885
 51
94.63371819162057
  0
ARC
  8
0
 62
7
 10
1335.940956811943
 20
526.6302026209814
 30
0
 40
0.8647326428617045
 50
94.96820649511257
 51
104.1167374816418
  0
ARC
  8
0
 62
7
 10
1336.029025260787
 20
526.3224613938755
 30
0
 40
1.184705303379682
 50
104.6173618858079
 51
115.7843637294286
  0
ARC
  8
0
 62
7
 10
1336.171757490645
 20
526.0486559936771
 30
0
 40
1.493366102081343
 50
116.1457861479593
 51
129.8286798461419
  0
ARC
  8
0
 62
7
 10
1336.163508173771
 20
526.0527415723797
 30
0
 40
1.484949544719663
 50
129.6852084721238
 51
139.0367132108427
  0
ARC
  8
0
 62
7
 10
1335.976640825065
 20
526.204946576814
 30
0
 40
1.244081636064364
 50
138.6880272631691
 51
149.8755017777455
  0
ARC
  8
0
 62
7
 10
1335.703227284071
 20
526.355085365054
 30
0
 40
0.932273482740313
 50
149.4231422423209
 51
160.5982301662132
  0
ARC
  8
0
 62
7
 10
1335.456574964775
 20
526.4365567349495
 30
0
 40
0.6725832269000269
 50
160.1645618234399
 51
171.2923908491357
  0
ARC
  8
0
 62
7
 10
1335.288886621003
 20
526.4597794334475
 30
0
 40
0.5033178352441313
 50
171.0155787770847
 51
181.2017439945846
  0
ARC
  8
0
 62
7
 10
1335.170320413243
 20
526.4546337914906
 30
0
 40
0.3846789697928742
 50
180.8058706516322
 51
194.2058027621867
  0
ARC
  8
0
 62
7
 10
1335.090705338683
 20
526.4313134663307
 30
0
 40
0.3017911541036058
 50
193.6230941248017
 51
219.7285802376794
  0
ARC
  8
0
 62
7
 10
1335.10112302641
 20
526.4464950701328
 30
0
 40
0.3195459364720322
 50
220.6282556551599
 51
246.4698107107425
  0
ARC
  8
0
 62
7
 10
1335.144335386448
 20
526.56132346881
 30
0
 40
0.4421219130833235
 50
247.2764159789217
 51
262.7844841079108
  0
ARC
  8
0
 62
7
 10
1335.162443446631
 20
526.7494442495287
 30
0
 40
0.6310527362784141
 50
263.2987180137567
 51
274.6335288138104
  0
ARC
  8
0
 62
7
 10
1335.13844934579
 20
526.9823875507736
 30
0
 40
0.8651880430950542
 50
274.9711386414801
 51
284.1157486436438
  0
ARC
  8
0
 62
7
 10
1335.050826946367
 20
527.2885127770002
 30
0
 40
1.183484294856478
 50
284.6152944584181
 51
295.7947196417089
  0
ARC
  8
0
 62
7
 10
1334.907610682875
 20
527.5632964331551
 30
0
 40
1.493237914075097
 50
296.1544208456157
 51
309.8401654847325
  0
ARC
  8
0
 62
7
 10
1334.91875270605
 20
527.5569598075339
 30
0
 40
1.481241139788475
 50
309.6662680094557
 51
319.0399120094637
  0
ARC
  8
0
 62
7
 10
1334.929666903038
 20
527.2249660355114
 30
0
 40
2.051192838085451
 50
279.5637989053168
 51
286.1150326430067
  0
ARC
  8
0
 62
7
 10
1334.971322095124
 20
526.9286555667251
 30
0
 40
1.752098870096454
 50
269.5477841660271
 51
279.8304615114222
  0
ARC
  8
0
 62
7
 10
1334.960619836574
 20
526.6128013876362
 30
0
 40
1.436193521346118
 50
258.0723414312071
 51
269.8752782837378
  0
ARC
  8
0
 62
7
 10
1334.901216674487
 20
526.364556812228
 30
0
 40
1.181051132216224
 50
244.7890520891741
 51
258.4029213811743
  0
ARC
  8
0
 62
7
 10
1334.820429300944
 20
526.2080901640314
 30
0
 40
1.005097712873322
 50
219.8640191530144
 51
245.1564369362348
  0
ARC
  8
0
 62
7
 10
1334.813090025734
 20
526.1997165118706
 30
0
 40
0.9940985738778768
 50
206.6203896219374
 51
219.7647062389576
  0
ARC
  8
0
 62
7
 10
1334.931132128638
 20
526.246734051647
 30
0
 40
1.120747698474812
 50
188.0534115958962
 51
206.0652615779596
  0
ARC
  8
0
 62
7
 10
1335.211545173346
 20
526.2736269697622
 30
0
 40
1.402220002369152
 50
173.904200507635
 51
187.5362258922372
  0
ARC
  8
0
 62
7
 10
1335.598599879311
 20
526.2165155436225
 30
0
 40
1.793219539982644
 50
160.66912408685
 51
173.4029826216402
  0
ARC
  8
0
 62
7
 10
1336.0296826275
 20
526.0460770372501
 30
0
 40
2.25649091113205
 50
146.9910805580985
 51
160.2087359000036
  0
ARC
  8
0
 62
7
 10
1336.386264678331
 20
525.7909842694879
 30
0
 40
2.694554065243144
 50
129.8092228613272
 51
146.5729906533295
  0
ARC
  8
0
 62
7
 10
1336.384351587455
 20
525.8005506508813
 30
0
 40
2.685984567160114
 50
120.0153578154227
 51
129.9085230286192
  0
ARC
  8
0
 62
7
 10
1336.230203653428
 20
526.0982697523444
 30
0
 40
2.351133210703874
 50
106.0012226650566
 51
120.3919484940636
  0
ARC
  8
0
 62
7
 10
1336.123575649206
 20
526.5150592930327
 30
0
 40
1.921138976257182
 50
93.91075382841974
 51
106.3708778797139
  0
ARC
  8
0
 62
7
 10
1336.108155624539
 20
526.9054972581797
 30
0
 40
1.530599768771618
 50
81.26721903970702
 51
94.33168826279989
  0
ARC
  8
0
 62
7
 10
1336.166038568783
 20
527.2157405381605
 30
0
 40
1.2152069725092
 50
66.31622934557603
 51
81.74384487547664
  0
ARC
  8
0
 62
7
 10
1336.256329658609
 20
527.4014379183776
 30
0
 40
1.008913276633069
 50
39.88386297060409
 51
66.77588744932997
  0
ARC
  8
0
 62
7
 10
1336.238311888761
 20
527.396165810905
 30
0
 40
1.026147256177864
 50
17.32803600326452
 51
39.4646400032594
  0
ARC
  8
0
 62
7
 10
1336.022808055967
 20
527.3437100834268
 30
0
 40
1.247573811190099
 50
0.2586513335600261
 51
16.67996079785849
  0
ARC
  8
0
 62
7
 10
1335.705231875997
 20
527.3521230571289
 30
0
 40
1.56513974977195
 50
348.2748028406302
 51
359.8981928379342
  0
ARC
  8
0
 62
7
 10
1335.587864190097
 20
527.3725849675154
 30
0
 40
1.684238487387326
 50
343.3758325417269
 51
347.9824194735288
  0
ARC
  8
0
 62
7
 10
1340.012329265412
 20
525.14290791152
 30
0
 40
4.140673525547752
 50
172.0422530222007
 51
178.5102310641998
  0
ARC
  8
0
 62
7
 10
1339.485358390449
 20
525.2306255643427
 30
0
 40
3.606660128930102
 50
165.4054527326003
 51
172.2633508748968
  0
ARC
  8
0
 62
7
 10
1350.632009831848
 20
523.2315305147574
 30
0
 40
13.91987366734413
 50
164.7591934710328
 51
165.2789240548321
  0
ARC
  8
0
 62
7
 10
1342.655842400324
 20
525.3171369604492
 30
0
 40
5.675556232523547
 50
165.180913661983
 51
168.0850487024833
  0
ARC
  8
0
 62
7
 10
1340.194002542234
 20
525.8476695297239
 30
0
 40
3.157241444528844
 50
168.2816227573765
 51
170.2378023404762
  0
ARC
  8
0
 62
7
 10
1343.039948103909
 20
525.3683273445658
 30
0
 40
6.043263133883939
 50
170.3340838836486
 51
172.0658069810477
  0
ARC
  8
0
 62
7
 10
1348.32103454324
 20
524.6602192276381
 30
0
 40
11.37157288764648
 50
172.2051146282169
 51
175.9637585386173
  0
ARC
  8
0
 62
7
 10
1343.820423778653
 20
524.966938463726
 30
0
 40
6.860544223979877
 50
175.8733282604829
 51
177.6306701430825
  0
ARC
  8
1
 62
7
 10
1347.628928839665
 20
391.9109657242893
 30
0
 40
0.7931953642021199
 50
0
 51
180
  0
ARC
  8
1
 62
7
 10
1345.051043906008
 20
391.9109657242893
 30
0
 40
0.7931953642018925
 50
0
 51
180
  0
ARC
  8
1
 62
7
 10
1342.473158972351
 20
391.9109657242893
 30
0
 40
0.7931953642018925
 50
0
 51
90
  0
ARC
  8
1
 62
7
 10
1347.628928839665
 20
391.9109657242893
 30
0
 40
1.784689569454031
 50
0
 51
136.2382573073268
  0
ARC
  8
1
 62
7
 10
1345.051043906008
 20
391.9109657242893
 30
0
 40
1.784689569454259
 50
43.76174269269038
 51
136.2382573073336
  0
ARC
  8
1
 62
7
 10
1342.473158972351
 20
391.9109657242893
 30
0
 40
1.784689569454462
 50
43.76174269268665
 51
90
  0
ARC
  8
1
 62
7
 10
1356.630631285481
 20
391.9109657242893
 30
0
 40
0.7931953642018925
 50
0
 51
180
  0
ARC
  8
1
 62
7
 10
1354.052746351824
 20
391.9109657242893
 30
0
 40
0.7931953642018925
 50
0
 51
180
  0
ARC
  8
1
 62
7
 10
1351.474861418167
 20
391.9109657242893
 30
0
 40
0.7931953642021199
 50
0
 51
90
  0
ARC
  8
1
 62
7
 10
1356.630631285481
 20
391.9109657242893
 30
0
 40
1.784689569454031
 50
0
 51
136.2382573073349
  0
ARC
  8
1
 62
7
 10
1354.052746351824
 20
391.9109657242893
 30
0
 40
1.784689569454423
 50
43.76174269268532
 51
136.2382573073336
  0
ARC
  8
1
 62
7
 10
1351.474861418167
 20
391.9109657242893
 30
0
 40
1.784689569454462
 50
43.76174269268665
 51
90
  0
ARC
  8
1
 62
7
 10
1342.135674609284
 20
493.0809811784467
 30
0
 40
0.8775000000000546
 50
0
 51
142.6431480270897
  0
ARC
  8
1
 62
7
 10
1342.135674609284
 20
493.0809811784467
 30
0
 40
0.5174999999999272
 50
0
 51
180
  0
ARC
  8
1
 62
7
 10
1340.740674609284
 20
493.0809811784467
 30
0
 40
0.877500000000072
 50
37.35685197291033
 51
126.1388146631292
  0
ARC
  8
1
 62
7
 10
1340.740674609284
 20
493.0809811784467
 30
0
 40
0.5174999999999272
 50
0
 51
180
  0
ARC
  8
1
 62
7
 10
1341.473158972351
 20
501.9831961710545
 30
0
 40
36.33753962271138
 50
187.6099843283899
 51
352.3900156716101
  0
ARC
  8
1
 62
7
 10
1368.469613517805
 20
441.1080787702677
 30
0
 40
10.00545454545491
 50
351.8290845893101
 51
8.170915410689256
  0
ARC
  8
1
 62
7
 10
1410.977558064867
 20
551.8711391858069
 30
0
 40
1.999999999999734
 50
3.800877007851309
 51
106.0000000000012
  0
ARC
  8
1
 62
7
 10
1396.105944180385
 20
619.3874336000956
 30
0
 40
49.99999999999977
 50
257.924308303354
 51
286
  0
ARC
  8
1
 62
7
 10
1287.128483339514
 20
619.56489436778
 30
0
 40
49.99999999999986
 50
253.9999999999998
 51
281.7661776175399
  0
ARC
  8
1
 62
7
 10
1341.473158972351
 20
561.904217532636
 30
0
 40
41.5
 50
0
 51
90
  0
ARC
  8
1
 62
7
 10
1341.473158972351
 20
561.904217532636
 30
0
 40
40.80000000000028
 50
15.64093257294761
 51
90
  0
ARC
  8
1
 62
7
 10
1341.473158972351
 20
561.904217532636
 30
0
 40
41.5
 50
90
 51
180
  0
ARC
  8
1
 62
7
 10
1341.473158972351
 20
561.904217532636
 30
0
 40
41.49999999999909
 50
180
 51
0
  0
ARC
  8
1
 62
7
 10
1341.473158972351
 20
561.904217532636
 30
0
 40
37
 50
0
 51
90
  0
ARC
  8
1
 62
7
 10
1341.473158972351
 20
561.904217532636
 30
0
 40
45
 50
0
 51
90
  0
ARC
  8
1
 62
7
 10
1341.473158972351
 20
561.904217532636
 30
0
 40
40.79999999999973
 50
90
 51
164.3590674270524
  0
ARC
  8
1
 62
7
 10
1341.473158972351
 20
561.904217532636
 30
0
 40
37
 50
90
 51
180
  0
ARC
  8
1
 62
7
 10
1341.473158972351
 20
561.904217532636
 30
0
 40
45
 50
90
 51
180
  0
ARC
  8
1
 62
7
 10
1341.473158972351
 20
561.904217532636
 30
0
 40
45
 50
180
 51
0
  0
ARC
  8
1
 62
7
 10
1340.045658972351
 20
547.4837867566248
 30
0
 40
0.5174999999999272
 50
0
 51
180
  0
ARC
  8
1
 62
7
 10
1340.045658972351
 20
547.4837867566248
 30
0
 40
0.8774999999999685
 50
37.35685197290147
 51
126.1388146631304
  0
ARC
  8
1
 62
7
 10
1341.440658972351
 20
547.4837867566248
 30
0
 40
0.5174999999999272
 50
0
 51
180
  0
ARC
  8
1
 62
7
 10
1341.440658972351
 20
547.4837867566248
 30
0
 40
0.8775000000000546
 50
0
 51
142.6431480270985
  0
DIMENSION
  8
1
  6
CONTINUOUS
 62
2
  2
*D0
  3
DMST_1
 10
1437.61531204675
 20
565.224217532636
 30
0
 11
1436.02531204675
 21
575.552196498785
 31
0
 12
0
 22
0
 32
0
 70
0
 13
1416.35078581802
 23
561.904217532636
 33
0
 14
1426.13736462307
 24
565.224217532636
 34
0
 50
90
 53
0
  0
DIMENSION
  8
1
  6
CONTINUOUS
 62
2
  2
*D1
  3
DMST_1
 10
1269.973158972351
 20
350.943413215318
 30
0
 11
1264.473158972351
 21
352.533413215318
 31
0
 12
0
 22
0
 32
0
 70
0
 13
1258.973158972351
 23
363.195655293744
 33
0
 14
1269.973158972351
 24
361.475155293744
 34
0
 53
0
  0
DIMENSION
  8
1
  6
CONTINUOUS
 62
2
  2
*D2
  3
DMST_2
 10
1447.61236699024
 20
497.645656548344
 30
0
 11
1446.02236699024
 21
424.670655921044
 31
0
 12
0
 22
0
 32
0
 70
0
  1
146
 13
1366.473158972351
 23
351.695655293744
 33
0
 14
1375.871272767266
 24
497.645656548344
 34
0
 50
90
 53
0
  0
DIMENSION
  8
1
  6
CONTINUOUS
 62
2
  2
*D3
  3
DMST_1
 10
1437.70629664919
 20
374.695655293744
 30
0
 11
1436.11629664919
 21
363.195655293744
 31
0
 12
0
 22
0
 32
0
 70
0
 13
1366.473158972351
 23
351.695655293744
 33
0
 14
1426.424832147911
 24
374.695655293744
 34
0
 50
90
 53
0
  0
DIMENSION
  8
1
  6
CONTINUOUS
 62
2
  2
*D4
  3
DMST_1
 10
1423.973158972351
 20
333.820131281394
 30
0
 11
1341.473158972351
 21
335.410131281394
 31
0
 12
0
 22
0
 32
0
 70
0
 13
1258.973158972351
 23
363.195655293744
 33
0
 14
1423.973158972351
 24
363.195655293744
 34
0
 53
0
  0
DIMENSION
  8
1
  6
CONTINUOUS
 62
2
  2
*D5
  3
DMST_1
 10
1386.473158972351
 20
504.3041390498091
 30
0
 11
1341.473158972351
 21
505.8941390498091
 31
0
 12
0
 22
0
 32
0
 70
0
  1
90
 13
1296.473158972351
 23
452.145656548344
 33
0
 14
1386.473158972351
 24
452.145656548344
 34
0
 53
0
  0
ENDSEC
  0
EOF
